  0
SECTION
  2
HEADER
  9
$ACADVER
  1
AC1018
  9
$ACADMAINTVER
 70
     2
  9
$DWGCODEPAGE
  3
ANSI_1252
  9
$INSBASE
 10
0.0
 20
0.0
 30
0.0
  9
$EXTMIN
 10
-0.0320385670876249
 20
-0.045548517640782
 30
-0.0000000000000024
  9
$EXTMAX
 10
420.0000019560163
 20
597.1046534520671
 30
0.0000000000000129
  9
$LIMMIN
 10
0.0
 20
0.0
  9
$LIMMAX
 10
419.9999999999999
 20
594.0
  9
$ORTHOMODE
 70
     1
  9
$REGENMODE
 70
     1
  9
$FILLMODE
 70
     1
  9
$QTEXTMODE
 70
     0
  9
$MIRRTEXT
 70
     1
  9
$LTSCALE
 40
20.0
  9
$ATTMODE
 70
     1
  9
$TEXTSIZE
 40
3.5
  9
$TRACEWID
 40
0.5
  9
$TEXTSTYLE
  7
STANDARD
  9
$CLAYER
  8
SCHRAFF
  9
$CELTYPE
  6
ByLayer
  9
$CECOLOR
 62
   256
  9
$CELTSCALE
 40
1.0
  9
$DISPSILH
 70
     0
  9
$DIMSCALE
 40
2.0
  9
$DIMASZ
 40
3.5
  9
$DIMEXO
 40
1.0
  9
$DIMDLI
 40
7.0
  9
$DIMRND
 40
0.0
  9
$DIMDLE
 40
0.0
  9
$DIMEXE
 40
1.0
  9
$DIMTP
 40
0.0
  9
$DIMTM
 40
0.0
  9
$DIMTXT
 40
3.5
  9
$DIMCEN
 40
1.5
  9
$DIMTSZ
 40
0.0
  9
$DIMTOL
 70
     0
  9
$DIMLIM
 70
     0
  9
$DIMTIH
 70
     0
  9
$DIMTOH
 70
     0
  9
$DIMSE1
 70
     0
  9
$DIMSE2
 70
     0
  9
$DIMTAD
 70
     1
  9
$DIMZIN
 70
     8
  9
$DIMBLK
  1

  9
$DIMASO
 70
     1
  9
$DIMSHO
 70
     0
  9
$DIMPOST
  1

  9
$DIMAPOST
  1

  9
$DIMALT
 70
     0
  9
$DIMALTD
 70
     2
  9
$DIMALTF
 40
25.4
  9
$DIMLFAC
 40
1.0
  9
$DIMTOFL
 70
     1
  9
$DIMTVP
 40
0.0
  9
$DIMTIX
 70
     0
  9
$DIMSOXD
 70
     0
  9
$DIMSAH
 70
     0
  9
$DIMBLK1
  1

  9
$DIMBLK2
  1

  9
$DIMSTYLE
  2
Standard
  9
$DIMCLRD
 70
     0
  9
$DIMCLRE
 70
     0
  9
$DIMCLRT
 70
     1
  9
$DIMTFAC
 40
0.5142857142857144
  9
$DIMGAP
 40
1.5
  9
$DIMJUST
 70
     0
  9
$DIMSD1
 70
     0
  9
$DIMSD2
 70
     0
  9
$DIMTOLJ
 70
     1
  9
$DIMTZIN
 70
     8
  9
$DIMALTZ
 70
     8
  9
$DIMALTTZ
 70
     8
  9
$DIMUPT
 70
     0
  9
$DIMDEC
 70
     2
  9
$DIMTDEC
 70
     2
  9
$DIMALTU
 70
     2
  9
$DIMALTTD
 70
     2
  9
$DIMTXSTY
  7
STANDARD
  9
$DIMAUNIT
 70
     0
  9
$DIMADEC
 70
     2
  9
$DIMALTRND
 40
0.0
  9
$DIMAZIN
 70
     2
  9
$DIMDSEP
 70
    46
  9
$DIMATFIT
 70
     3
  9
$DIMFRAC
 70
     0
  9
$DIMLDRBLK
  1

  9
$DIMLUNIT
 70
     2
  9
$DIMLWD
 70
    -2
  9
$DIMLWE
 70
    -2
  9
$DIMTMOVE
 70
     0
  9
$LUNITS
 70
     2
  9
$LUPREC
 70
     2
  9
$SKETCHINC
 40
1.0
  9
$FILLETRAD
 40
0.0
  9
$AUNITS
 70
     1
  9
$AUPREC
 70
     3
  9
$MENU
  1
ACAD
  9
$ELEVATION
 40
0.0
  9
$PELEVATION
 40
0.0
  9
$THICKNESS
 40
0.0
  9
$LIMCHECK
 70
     0
  9
$CHAMFERA
 40
0.0
  9
$CHAMFERB
 40
0.0
  9
$CHAMFERC
 40
0.0
  9
$CHAMFERD
 40
0.0
  9
$SKPOLY
 70
     0
  9
$TDCREATE
 40
2452040.637099653
  9
$TDUCREATE
 40
2452040.553766320
  9
$TDUPDATE
 40
2455660.325936459
  9
$TDUUPDATE
 40
2455660.242603125
  9
$TDINDWG
 40
0.3826832523
  9
$TDUSRTIMER
 40
0.3826832523
  9
$USRTIMER
 70
     1
  9
$ANGBASE
 50
0.0
  9
$ANGDIR
 70
     0
  9
$PDMODE
 70
     0
  9
$PDSIZE
 40
0.0
  9
$PLINEWID
 40
0.0
  9
$SPLFRAME
 70
     0
  9
$SPLINETYPE
 70
     6
  9
$SPLINESEGS
 70
     8
  9
$HANDSEED
  5
1E1E
  9
$SURFTAB1
 70
     6
  9
$SURFTAB2
 70
     6
  9
$SURFTYPE
 70
     6
  9
$SURFU
 70
     6
  9
$SURFV
 70
     6
  9
$UCSBASE
  2

  9
$UCSNAME
  2

  9
$UCSORG
 10
0.0
 20
0.0
 30
0.0
  9
$UCSXDIR
 10
1.0
 20
0.0
 30
0.0
  9
$UCSYDIR
 10
0.0
 20
1.0
 30
0.0
  9
$UCSORTHOREF
  2

  9
$UCSORTHOVIEW
 70
     0
  9
$UCSORGTOP
 10
0.0
 20
0.0
 30
0.0
  9
$UCSORGBOTTOM
 10
0.0
 20
0.0
 30
0.0
  9
$UCSORGLEFT
 10
0.0
 20
0.0
 30
0.0
  9
$UCSORGRIGHT
 10
0.0
 20
0.0
 30
0.0
  9
$UCSORGFRONT
 10
0.0
 20
0.0
 30
0.0
  9
$UCSORGBACK
 10
0.0
 20
0.0
 30
0.0
  9
$PUCSBASE
  2

  9
$PUCSNAME
  2

  9
$PUCSORG
 10
0.0
 20
0.0
 30
0.0
  9
$PUCSXDIR
 10
1.0
 20
0.0
 30
0.0
  9
$PUCSYDIR
 10
0.0
 20
1.0
 30
0.0
  9
$PUCSORTHOREF
  2

  9
$PUCSORTHOVIEW
 70
     0
  9
$PUCSORGTOP
 10
0.0
 20
0.0
 30
0.0
  9
$PUCSORGBOTTOM
 10
0.0
 20
0.0
 30
0.0
  9
$PUCSORGLEFT
 10
0.0
 20
0.0
 30
0.0
  9
$PUCSORGRIGHT
 10
0.0
 20
0.0
 30
0.0
  9
$PUCSORGFRONT
 10
0.0
 20
0.0
 30
0.0
  9
$PUCSORGBACK
 10
0.0
 20
0.0
 30
0.0
  9
$USERI1
 70
     0
  9
$USERI2
 70
     0
  9
$USERI3
 70
     0
  9
$USERI4
 70
     0
  9
$USERI5
 70
     0
  9
$USERR1
 40
0.0
  9
$USERR2
 40
0.0
  9
$USERR3
 40
0.0
  9
$USERR4
 40
0.0
  9
$USERR5
 40
0.0
  9
$WORLDVIEW
 70
     1
  9
$SHADEDGE
 70
     3
  9
$SHADEDIF
 70
    70
  9
$TILEMODE
 70
     1
  9
$MAXACTVP
 70
    16
  9
$PINSBASE
 10
0.0
 20
0.0
 30
0.0
  9
$PLIMCHECK
 70
     0
  9
$PEXTMIN
 10
1.000000000000000E+20
 20
1.000000000000000E+20
 30
1.000000000000000E+20
  9
$PEXTMAX
 10
-1.000000000000000E+20
 20
-1.000000000000000E+20
 30
-1.000000000000000E+20
  9
$PLIMMIN
 10
0.0
 20
0.0
  9
$PLIMMAX
 10
12.0
 20
9.0
  9
$UNITMODE
 70
     0
  9
$VISRETAIN
 70
     0
  9
$PLINEGEN
 70
     0
  9
$PSLTSCALE
 70
     0
  9
$TREEDEPTH
 70
  3020
  9
$CMLSTYLE
  2
Standard
  9
$CMLJUST
 70
     0
  9
$CMLSCALE
 40
1.0
  9
$PROXYGRAPHICS
 70
     1
  9
$MEASUREMENT
 70
     0
  9
$CELWEIGHT
370
    -1
  9
$ENDCAPS
280
     0
  9
$JOINSTYLE
280
     0
  9
$LWDISPLAY
290
     0
  9
$INSUNITS
 70
     0
  9
$HYPERLINKBASE
  1

  9
$STYLESHEET
  1
monochrome 1.ctb
  9
$XEDIT
290
     1
  9
$CEPSNTYPE
380
     0
  9
$PSTYLEMODE
290
     1
  9
$FINGERPRINTGUID
  2
{7AADB5C8-6110-11D8-B72B-000102183313}
  9
$VERSIONGUID
  2
{41150B3E-F501-418A-ABFC-1B6A107D925E}
  9
$EXTNAMES
290
     1
  9
$PSVPSCALE
 40
0.0
  9
$OLESTARTUP
290
     0
  9
$SORTENTS
280
    96
  9
$INDEXCTL
280
     0
  9
$HIDETEXT
280
     0
  9
$XCLIPFRAME
290
     0
  9
$HALOGAP
280
     0
  9
$OBSCOLOR
 70
   257
  9
$OBSLTYPE
280
     0
  9
$INTERSECTIONDISPLAY
280
     0
  9
$INTERSECTIONCOLOR
 70
   257
  9
$DIMASSOC
280
     1
  9
$PROJECTNAME
  1

  0
ENDSEC
  0
SECTION
  2
CLASSES
  0
CLASS
  1
ACDBDICTIONARYWDFLT
  2
AcDbDictionaryWithDefault
  3
ObjectDBX Classes
 90
        0
 91
        1
280
     0
281
     0
  0
CLASS
  1
DICTIONARYVAR
  2
AcDbDictionaryVar
  3
ObjectDBX Classes
 90
        0
 91
        3
280
     0
281
     0
  0
ENDSEC
  0
SECTION
  2
TABLES
  0
TABLE
  2
VPORT
  5
8
330
0
100
AcDbSymbolTable
 70
     3
  0
VPORT
  5
1E1D
330
8
100
AcDbSymbolTableRecord
100
AcDbViewportTableRecord
  2
*Active
 70
     0
 10
0.0
 20
0.0
 11
1.0
 21
1.0
 12
210.0
 22
297.0
 13
0.0
 23
0.0
 14
1.0
 24
1.0
 15
10.0
 25
10.0
 16
0.0
 26
0.0
 36
1.0
 17
0.0
 27
0.0
 37
0.0
 40
594.0
 41
1.334231805929919
 42
50.0
 43
0.0
 44
0.0
 50
0.0
 51
0.0
 71
     0
 72
  1500
 73
     1
 74
     0
 75
     0
 76
     0
 77
     0
 78
     0
281
     0
 65
     1
110
0.0
120
0.0
130
0.0
111
1.0
121
0.0
131
0.0
112
0.0
122
1.0
132
0.0
 79
     0
146
0.0
  0
ENDTAB
  0
TABLE
  2
LTYPE
  5
5
330
0
100
AcDbSymbolTable
 70
     2
  0
LTYPE
  5
13
330
5
100
AcDbSymbolTableRecord
100
AcDbLinetypeTableRecord
  2
ByBlock
 70
     0
  3

 72
    65
 73
     0
 40
0.0
  0
LTYPE
  5
14
330
5
100
AcDbSymbolTableRecord
100
AcDbLinetypeTableRecord
  2
ByLayer
 70
     0
  3

 72
    65
 73
     0
 40
0.0
  0
LTYPE
  5
15
330
5
100
AcDbSymbolTableRecord
100
AcDbLinetypeTableRecord
  2
Continuous
 70
     0
  3
Solid line
 72
    65
 73
     0
 40
0.0
  0
LTYPE
  5
35
330
5
100
AcDbSymbolTableRecord
100
AcDbLinetypeTableRecord
  2
STRICHPUNKT
 70
     0
  3
__ . __ . __ . __ . __ . __ . __ . __ . __ . __
 72
    65
 73
     4
 40
1.0
 49
0.5
 74
     0
 49
-0.25
 74
     0
 49
0.0
 74
     0
 49
-0.25
 74
     0
  0
ENDTAB
  0
TABLE
  2
LAYER
  5
2
330
0
100
AcDbSymbolTable
 70
     9
  0
LAYER
  5
10
330
2
100
AcDbSymbolTableRecord
100
AcDbLayerTableRecord
  2
0
 70
     0
 62
     7
  6
Continuous
370
    -3
390
F
  0
LAYER
  5
38
330
2
100
AcDbSymbolTableRecord
100
AcDbLayerTableRecord
  2
VOLL
 70
     0
 62
     1
  6
Continuous
370
    -3
390
F
  0
LAYER
  5
39
330
2
100
AcDbSymbolTableRecord
100
AcDbLayerTableRecord
  2
HILF
 70
     0
 62
     2
  6
Continuous
370
    -3
390
F
  0
LAYER
  5
3A
330
2
100
AcDbSymbolTableRecord
100
AcDbLayerTableRecord
  2
MITTEL
 70
     0
 62
     2
  6
STRICHPUNKT
370
    -3
390
F
  0
LAYER
  5
3B
330
2
100
AcDbSymbolTableRecord
100
AcDbLayerTableRecord
  2
BEM
 70
     0
 62
     7
  6
Continuous
370
    -3
390
F
  0
LAYER
  5
3C
330
2
100
AcDbSymbolTableRecord
100
AcDbLayerTableRecord
  2
STEMPEL
 70
     0
 62
     3
  6
Continuous
370
    -3
390
F
  0
LAYER
  5
3D
330
2
100
AcDbSymbolTableRecord
100
AcDbLayerTableRecord
  2
TEXT
 70
     0
 62
     7
  6
Continuous
370
    -3
390
F
  0
LAYER
  5
3E
330
2
100
AcDbSymbolTableRecord
100
AcDbLayerTableRecord
  2
DEFPOINTS
 70
     0
 62
     7
  6
Continuous
290
     0
370
    -3
390
F
  0
LAYER
  5
3F
330
2
100
AcDbSymbolTableRecord
100
AcDbLayerTableRecord
  2
SCHRAFF
 70
     0
 62
     7
  6
Continuous
370
    -3
390
F
  0
ENDTAB
  0
TABLE
  2
STYLE
  5
3
330
0
100
AcDbSymbolTable
 70
     2
  0
STYLE
  5
11
330
3
100
AcDbSymbolTableRecord
100
AcDbTextStyleTableRecord
  2
STANDARD
 70
     0
 40
0.0
 41
0.8
 50
0.0
 71
     0
 42
3.5
  3
simplex.shx
  4

  0
STYLE
  5
34
330
3
100
AcDbSymbolTableRecord
100
AcDbTextStyleTableRecord
  2
GREEKS
 70
     0
 40
0.0
 41
0.8
 50
0.0
 71
     0
 42
2.5
  3
SIMPLEX.shx
  4

  0
ENDTAB
  0
TABLE
  2
VIEW
  5
6
330
0
100
AcDbSymbolTable
 70
     0
  0
ENDTAB
  0
TABLE
  2
UCS
  5
7
330
0
100
AcDbSymbolTable
 70
     0
  0
ENDTAB
  0
TABLE
  2
APPID
  5
9
330
0
100
AcDbSymbolTable
 70
     2
  0
APPID
  5
12
330
9
100
AcDbSymbolTableRecord
100
AcDbRegAppTableRecord
  2
ACAD
 70
     0
  0
APPID
  5
1555
330
9
100
AcDbSymbolTableRecord
100
AcDbRegAppTableRecord
  2
AVE_RENDER
 70
     0
  0
ENDTAB
  0
TABLE
  2
DIMSTYLE
  5
A
330
0
100
AcDbSymbolTable
 70
     1
100
AcDbDimStyleTable
 71
     1
340
1CB
  0
DIMSTYLE
105
1CB
102
{ACAD_REACTORS
330
1AE8
330
1AE1
330
1AE6
330
1AD6
330
1DA5
102
}
330
A
100
AcDbSymbolTableRecord
100
AcDbDimStyleTableRecord
  2
Standard
 70
     0
340
11
  0
ENDTAB
  0
TABLE
  2
BLOCK_RECORD
  5
1
330
0
100
AcDbSymbolTable
 70
     7
  0
BLOCK_RECORD
  5
1E
330
1
100
AcDbSymbolTableRecord
100
AcDbBlockTableRecord
  2
*Model_Space
340
21
  0
BLOCK_RECORD
  5
1A
330
1
100
AcDbSymbolTableRecord
100
AcDbBlockTableRecord
  2
*Paper_Space
340
1D
  0
BLOCK_RECORD
  5
22
330
1
100
AcDbSymbolTableRecord
100
AcDbBlockTableRecord
  2
LOGO
340
0
102
{BLKREFS
331
135
102
}
  0
BLOCK_RECORD
  5
1B40
330
1
100
AcDbSymbolTableRecord
100
AcDbBlockTableRecord
  2
*D1
340
0
  0
BLOCK_RECORD
  5
1B4C
330
1
100
AcDbSymbolTableRecord
100
AcDbBlockTableRecord
  2
*D2
340
0
  0
BLOCK_RECORD
  5
1B64
330
1
100
AcDbSymbolTableRecord
100
AcDbBlockTableRecord
  2
*D4
340
0
  0
BLOCK_RECORD
  5
1B7E
330
1
100
AcDbSymbolTableRecord
100
AcDbBlockTableRecord
  2
*D5
340
0
  0
BLOCK_RECORD
  5
1DA6
330
1
100
AcDbSymbolTableRecord
100
AcDbBlockTableRecord
  2
*D6
340
0
  0
ENDTAB
  0
ENDSEC
  0
SECTION
  2
BLOCKS
  0
BLOCK
  5
43
330
1E
100
AcDbEntity
  8
0
100
AcDbBlockBegin
  2
*Model_Space
 70
     0
 10
0.0
 20
0.0
 30
0.0
  3
*Model_Space
  1

  0
ENDBLK
  5
44
330
1E
100
AcDbEntity
  8
0
100
AcDbBlockEnd
  0
BLOCK
  5
41
330
1A
100
AcDbEntity
 67
     1
  8
0
100
AcDbBlockBegin
  2
*Paper_Space
 70
     0
 10
0.0
 20
0.0
 30
0.0
  3
*Paper_Space
  1

  0
ENDBLK
  5
42
330
1A
100
AcDbEntity
 67
     1
  8
0
100
AcDbBlockEnd
  0
BLOCK
  5
45
330
22
100
AcDbEntity
  8
0
100
AcDbBlockBegin
  2
LOGO
 70
     0
 10
0.0
 20
0.0
 30
0.0
  3
LOGO
  1

  0
ARC
  5
46
330
22
100
AcDbEntity
  8
0
100
AcDbCircle
 10
11.59973089678112
 20
-9.271599258481501
 30
0.0
 40
4.5
100
AcDbArc
 50
270.0
 51
231.0575587310159
  0
LINE
  5
47
330
22
100
AcDbEntity
  8
0
100
AcDbLine
 10
3.599730896781125
 20
-4.771599258481529
 30
0.0
 11
3.599730896781153
 21
-11.77159925848133
 31
0.0
  0
LINE
  5
48
330
22
100
AcDbEntity
  8
0
100
AcDbLine
 10
2.599730896781125
 20
-4.771599258481529
 30
0.0
 11
2.599730896781153
 21
-11.77159925848133
 31
0.0
  0
CIRCLE
  5
49
330
22
100
AcDbEntity
  8
0
100
AcDbCircle
 10
11.59973089678112
 20
-9.271599258481501
 30
0.0
 40
3.5
  0
ARC
  5
4A
330
22
100
AcDbEntity
  8
0
100
AcDbCircle
 10
31.59973089678115
 20
-9.271599258481472
 30
0.0
 40
4.5
100
AcDbArc
 50
270.0
 51
231.0575587310182
  0
LINE
  5
4B
330
22
100
AcDbEntity
  8
0
100
AcDbLine
 10
17.59973089678112
 20
-4.771599258481472
 30
0.0
 11
17.59973089678115
 21
-13.77159925848147
 31
0.0
  0
ARC
  5
4C
330
22
100
AcDbEntity
  8
0
100
AcDbCircle
 10
22.59973089678116
 20
-7.271599258481472
 30
0.0
 40
2.5
100
AcDbArc
 50
293.1161887722295
 51
90.0
  0
CIRCLE
  5
4D
330
22
100
AcDbEntity
  8
0
100
AcDbCircle
 10
31.59973089678115
 20
-9.271599258481472
 30
0.0
 40
3.5
  0
ARC
  5
4E
330
22
100
AcDbEntity
  8
0
100
AcDbCircle
 10
4.599730896781153
 20
-11.77159925848133
 30
0.0
 40
1.0
100
AcDbArc
 50
180.0
 51
270.0
  0
ARC
  5
4F
330
22
100
AcDbEntity
  8
0
100
AcDbCircle
 10
4.599730896781153
 20
-11.77159925848133
 30
0.0
 40
2.0
100
AcDbArc
 50
179.9999999999992
 51
270.0
  0
LINE
  5
50
330
22
100
AcDbEntity
  8
0
100
AcDbLine
 10
11.59973089678115
 20
-13.77159925848144
 30
0.0
 11
4.599730896781153
 21
-13.77159925848147
 31
0.0
  0
LINE
  5
51
330
22
100
AcDbEntity
  8
0
100
AcDbLine
 10
8.771303772034769
 20
-12.77159925848136
 30
0.0
 11
4.599730896781153
 21
-12.77159925848133
 31
0.0
  0
LINE
  5
52
330
22
100
AcDbEntity
  8
0
100
AcDbLine
 10
31.59973089678115
 20
-13.77159925848147
 30
0.0
 11
23.6715276665056
 21
-13.77159925848144
 31
0.0
  0
LINE
  5
53
330
22
100
AcDbEntity
  8
0
100
AcDbLine
 10
23.56565672307022
 20
-9.51278021337896
 30
0.0
 11
24.4388546544846
 21
-12.77159925848144
 31
0.0
  0
LINE
  5
54
330
22
100
AcDbEntity
  8
0
100
AcDbLine
 10
22.59973089678116
 20
-9.771599258481472
 30
0.0
 11
18.59973089678112
 21
-9.771599258481472
 31
0.0
  0
LINE
  5
55
330
22
100
AcDbEntity
  8
0
100
AcDbLine
 10
18.59973089678115
 20
-13.77159925848144
 30
0.0
 11
17.59973089678115
 21
-13.77159925848144
 31
0.0
  0
LINE
  5
56
330
22
100
AcDbEntity
  8
0
100
AcDbLine
 10
18.59973089678115
 20
-9.771599258481472
 30
0.0
 11
18.59973089678115
 21
-13.77159925848144
 31
0.0
  0
LINE
  5
57
330
22
100
AcDbEntity
  8
0
100
AcDbLine
 10
22.59973089678116
 20
-9.771599258481472
 30
0.0
 11
23.67152766650562
 21
-13.77159925848147
 31
0.0
  0
ARC
  5
58
330
22
100
AcDbEntity
  8
0
100
AcDbCircle
 10
22.59973089678116
 20
-7.271599258481472
 30
0.0
 40
2.5
100
AcDbArc
 50
270.0
 51
270.0000000000007
  0
LINE
  5
59
330
22
100
AcDbEntity
  8
0
100
AcDbLine
 10
28.77130377203494
 20
-12.77159925848147
 30
0.0
 11
24.43885465448463
 21
-12.77159925848144
 31
0.0
  0
LINE
  5
5A
330
22
100
AcDbEntity
  8
0
100
AcDbLine
 10
3.599730896781125
 20
-4.771599258481472
 30
0.0
 11
2.599730896781125
 21
-4.771599258481472
 31
0.0
  0
LINE
  5
5B
330
22
100
AcDbEntity
  8
0
100
AcDbLine
 10
22.59973089678116
 20
-8.771599258481472
 30
0.0
 11
18.59973089678115
 21
-8.771599258481472
 31
0.0
  0
LINE
  5
5C
330
22
100
AcDbEntity
  8
0
100
AcDbLine
 10
22.59973089678116
 20
-5.771599258481472
 30
0.0
 11
18.59973089678115
 21
-5.771599258481472
 31
0.0
  0
LINE
  5
5D
330
22
100
AcDbEntity
  8
0
100
AcDbLine
 10
22.59973089678116
 20
-4.771599258481472
 30
0.0
 11
17.59973089678115
 21
-4.771599258481472
 31
0.0
  0
LINE
  5
5E
330
22
100
AcDbEntity
  8
0
100
AcDbLine
 10
18.59973089678115
 20
-5.771599258481472
 30
0.0
 11
18.59973089678115
 21
-8.771599258481472
 31
0.0
  0
ARC
  5
5F
330
22
100
AcDbEntity
  8
0
100
AcDbCircle
 10
22.59973089678116
 20
-7.271599258481472
 30
0.0
 40
1.5
100
AcDbArc
 50
270.0
 51
90.0
  0
ENDBLK
  5
60
330
22
100
AcDbEntity
  8
0
100
AcDbBlockEnd
  0
BLOCK
  5
1B4A
330
1B40
100
AcDbEntity
  8
0
100
AcDbBlockBegin
  2
*D1
 70
     1
 10
0.0
 20
0.0
 30
0.0
  3
*D1
  1

  0
LINE
  5
1DCC
330
1B40
100
AcDbEntity
  8
BEM
 62
     0
370
    -2
100
AcDbLine
 10
83.50970606007473
 20
141.9690832671104
 30
0.0
 11
54.02161337562021
 21
141.9690832671105
 31
0.0
  0
LINE
  5
1DCD
330
1B40
100
AcDbEntity
  8
BEM
 62
     0
370
    -2
100
AcDbLine
 10
77.47975254637174
 20
556.9723761714405
 30
0.0
 11
54.02161337562031
 21
556.9723761714405
 31
0.0
  0
LINE
  5
1DCE
330
1B40
100
AcDbEntity
  8
BEM
 62
     0
370
    -2
100
AcDbLine
 10
56.02161337562022
 20
148.9690832671104
 30
0.0
 11
56.0216133756203
 21
549.9723761714405
 31
0.0
  0
SOLID
  5
1DCF
330
1B40
100
AcDbEntity
  8
BEM
 62
     0
100
AcDbTrace
 10
54.85494670895356
 20
148.9690832671104
 30
0.0
 11
57.18828004228688
 21
148.9690832671104
 31
0.0
 12
56.02161337562021
 22
141.9690832671105
 32
0.0
 13
56.02161337562021
 23
141.9690832671105
 33
0.0
  0
SOLID
  5
1DD0
330
1B40
100
AcDbEntity
  8
BEM
 62
     0
100
AcDbTrace
 10
54.85494670895364
 20
549.9723761714405
 30
0.0
 11
57.18828004228697
 21
549.9723761714405
 31
0.0
 12
56.0216133756203
 22
556.9723761714405
 32
0.0
 13
56.0216133756203
 23
556.9723761714405
 33
0.0
  0
MTEXT
  5
1DD1
330
1B40
100
AcDbEntity
  8
BEM
 62
     1
100
AcDbMText
 10
49.52161337562021
 20
349.4707297192755
 30
0.0
 40
7.0
 41
0.0
 71
     5
 72
     1
  1
\A1;415
 11
0.0000000000000001
 21
1.0
 31
0.0
 73
     1
 44
1.0
  0
POINT
  5
1DD2
330
1B40
100
AcDbEntity
  8
DEFPOINTS
 62
     0
100
AcDbPoint
 10
85.50970606007473
 20
141.9690832671104
 30
0.0
  0
POINT
  5
1DD3
330
1B40
100
AcDbEntity
  8
DEFPOINTS
 62
     0
100
AcDbPoint
 10
79.47975254637174
 20
556.9723761714405
 30
0.0
  0
POINT
  5
1DD4
330
1B40
100
AcDbEntity
  8
DEFPOINTS
 62
     0
100
AcDbPoint
 10
56.0216133756203
 20
556.9723761714405
 30
0.0
  0
ENDBLK
  5
1B4B
330
1B40
100
AcDbEntity
  8
0
100
AcDbBlockEnd
  0
BLOCK
  5
1B56
330
1B4C
100
AcDbEntity
  8
0
100
AcDbBlockBegin
  2
*D2
 70
     1
 10
0.0
 20
0.0
 30
0.0
  3
*D2
  1

  0
LINE
  5
1D9A
330
1B4C
100
AcDbEntity
  8
BEM
 62
     0
370
    -2
100
AcDbLine
 10
84.63481942481553
 20
149.9690832671104
 30
0.0
 11
84.63481942481553
 21
121.5810445711594
 31
0.0
  0
LINE
  5
1D9B
330
1B4C
100
AcDbEntity
  8
BEM
 62
     0
370
    -2
100
AcDbLine
 10
217.634819424816
 20
149.9690832671108
 30
0.0
 11
217.634819424816
 21
121.5810445711594
 31
0.0
  0
LINE
  5
1D9C
330
1B4C
100
AcDbEntity
  8
BEM
 62
     0
370
    -2
100
AcDbLine
 10
91.63481942481553
 20
123.5810445711594
 30
0.0
 11
210.634819424816
 21
123.5810445711594
 31
0.0
  0
SOLID
  5
1D9D
330
1B4C
100
AcDbEntity
  8
BEM
 62
     0
100
AcDbTrace
 10
91.63481942481553
 20
124.7477112378261
 30
0.0
 11
91.63481942481553
 21
122.4143779044927
 31
0.0
 12
84.63481942481553
 22
123.5810445711594
 32
0.0
 13
84.63481942481553
 23
123.5810445711594
 33
0.0
  0
SOLID
  5
1D9E
330
1B4C
100
AcDbEntity
  8
BEM
 62
     0
100
AcDbTrace
 10
210.634819424816
 20
124.7477112378261
 30
0.0
 11
210.634819424816
 21
122.4143779044927
 31
0.0
 12
217.634819424816
 22
123.5810445711594
 32
0.0
 13
217.634819424816
 23
123.5810445711594
 33
0.0
  0
MTEXT
  5
1D9F
330
1B4C
100
AcDbEntity
  8
BEM
 62
     1
100
AcDbMText
 10
151.1348194248157
 20
130.0810445711594
 30
0.0
 40
7.0
 41
0.0
 71
     5
 72
     1
  1
\A1;%%c133
 73
     1
 44
1.0
  0
POINT
  5
1DA0
330
1B4C
100
AcDbEntity
  8
DEFPOINTS
 62
     0
100
AcDbPoint
 10
84.63481942481553
 20
151.9690832671104
 30
0.0
  0
POINT
  5
1DA1
330
1B4C
100
AcDbEntity
  8
DEFPOINTS
 62
     0
100
AcDbPoint
 10
217.634819424816
 20
151.9690832671108
 30
0.0
  0
POINT
  5
1DA2
330
1B4C
100
AcDbEntity
  8
DEFPOINTS
 62
     0
100
AcDbPoint
 10
217.634819424816
 20
123.5810445711594
 30
0.0
  0
ENDBLK
  5
1B57
330
1B4C
100
AcDbEntity
  8
0
100
AcDbBlockEnd
  0
BLOCK
  5
1B6E
330
1B64
100
AcDbEntity
  8
0
100
AcDbBlockBegin
  2
*D4
 70
     1
 10
0.0
 20
0.0
 30
0.0
  3
*D4
  1

  0
LINE
  5
1D91
330
1B64
100
AcDbEntity
  8
BEM
 62
     0
370
    -2
100
AcDbLine
 10
149.1348194248155
 20
271.9690832671107
 30
0.0
 11
70.08256055486097
 21
271.9690832671107
 31
0.0
  0
LINE
  5
1D92
330
1B64
100
AcDbEntity
  8
BEM
 62
     0
370
    -2
100
AcDbLine
 10
83.50970606007473
 20
141.9690832671105
 30
0.0
 11
70.08256055486095
 21
141.9690832671105
 31
0.0
  0
LINE
  5
1D93
330
1B64
100
AcDbEntity
  8
BEM
 62
     0
370
    -2
100
AcDbLine
 10
72.08256055486097
 20
264.9690832671107
 30
0.0
 11
72.08256055486095
 21
148.9690832671104
 31
0.0
  0
SOLID
  5
1D94
330
1B64
100
AcDbEntity
  8
BEM
 62
     0
100
AcDbTrace
 10
70.9158938881943
 20
264.9690832671107
 30
0.0
 11
73.24922722152765
 21
264.9690832671107
 31
0.0
 12
72.08256055486097
 22
271.9690832671107
 32
0.0
 13
72.08256055486097
 23
271.9690832671107
 33
0.0
  0
SOLID
  5
1D95
330
1B64
100
AcDbEntity
  8
BEM
 62
     0
100
AcDbTrace
 10
70.91589388819428
 20
148.9690832671104
 30
0.0
 11
73.24922722152762
 21
148.9690832671104
 31
0.0
 12
72.08256055486095
 22
141.9690832671105
 32
0.0
 13
72.08256055486095
 23
141.9690832671105
 33
0.0
  0
MTEXT
  5
1D96
330
1B64
100
AcDbEntity
  8
BEM
 62
     1
100
AcDbMText
 10
65.58256055486094
 20
206.9690832671106
 30
0.0
 40
7.0
 41
0.0
 71
     5
 72
     1
  1
\A1;130
 11
0.0000000000000001
 21
1.0
 31
0.0
 73
     1
 44
1.0
  0
POINT
  5
1D97
330
1B64
100
AcDbEntity
  8
DEFPOINTS
 62
     0
100
AcDbPoint
 10
151.1348194248155
 20
271.9690832671107
 30
0.0
  0
POINT
  5
1D98
330
1B64
100
AcDbEntity
  8
DEFPOINTS
 62
     0
100
AcDbPoint
 10
85.50970606007473
 20
141.9690832671105
 30
0.0
  0
POINT
  5
1D99
330
1B64
100
AcDbEntity
  8
DEFPOINTS
 62
     0
100
AcDbPoint
 10
72.08256055486095
 20
141.9690832671105
 30
0.0
  0
ENDBLK
  5
1B6F
330
1B64
100
AcDbEntity
  8
0
100
AcDbBlockEnd
  0
BLOCK
  5
1B88
330
1B7E
100
AcDbEntity
  8
0
100
AcDbBlockBegin
  2
*D5
 70
     1
 10
0.0
 20
0.0
 30
0.0
  3
*D5
  1

  0
LINE
  5
1D64
330
1B7E
100
AcDbEntity
  8
BEM
 62
     0
370
    -2
100
AcDbLine
 10
149.7206058624424
 20
273.3832968294837
 30
0.0
 11
88.82158166098301
 21
334.2823210309435
 31
0.0
  0
LINE
  5
1D65
330
1B7E
100
AcDbEntity
  8
BEM
 62
     0
370
    -2
100
AcDbLine
 10
300.5782548044852
 20
525.5765131637729
 30
0.0
 11
290.3470142991496
 21
535.8077536691085
 31
0.0
  0
LINE
  5
1D66
330
1B7E
100
AcDbEntity
  8
BEM
 62
     0
370
    -2
100
AcDbLine
 10
95.18554269166193
 20
337.8178549368763
 30
0.0
 11
286.8114803932169
 21
529.4437926384296
 31
0.0
  0
SOLID
  5
1D67
330
1B7E
100
AcDbEntity
  8
BEM
 62
     0
100
AcDbTrace
 10
94.36058478027765
 20
338.6428128482606
 30
0.0
 11
96.01050060304624
 21
336.992897025492
 31
0.0
 12
90.23579522335609
 22
332.8681074685705
 32
0.0
 13
90.23579522335609
 23
332.8681074685705
 33
0.0
  0
SOLID
  5
1D68
330
1B7E
100
AcDbEntity
  8
BEM
 62
     0
100
AcDbTrace
 10
285.9865224818326
 20
530.2687505498139
 30
0.0
 11
287.6364383046012
 21
528.6188347270452
 31
0.0
 12
291.7612278615227
 22
534.3935401067354
 32
0.0
 13
291.7612278615227
 23
534.3935401067354
 33
0.0
  0
MTEXT
  5
1D69
330
1B7E
100
AcDbEntity
  8
BEM
 62
     1
100
AcDbMText
 10
186.4023174647269
 20
438.2270178653654
 30
0.0
 40
7.0
 41
0.0
 71
     5
 72
     1
  1
\A1;285
 11
0.7071067811865505
 21
0.7071067811865446
 31
0.0
 73
     1
 44
1.0
  0
POINT
  5
1D6A
330
1B7E
100
AcDbEntity
  8
DEFPOINTS
 62
     0
100
AcDbPoint
 10
151.1348194248155
 20
271.9690832671106
 30
0.0
  0
POINT
  5
1D6B
330
1B7E
100
AcDbEntity
  8
DEFPOINTS
 62
     0
100
AcDbPoint
 10
301.9924683668583
 20
524.1622996013997
 30
0.0
  0
POINT
  5
1D6C
330
1B7E
100
AcDbEntity
  8
DEFPOINTS
 62
     0
100
AcDbPoint
 10
291.7612278615227
 20
534.3935401067353
 30
0.0
  0
ENDBLK
  5
1B89
330
1B7E
100
AcDbEntity
  8
0
100
AcDbBlockEnd
  0
BLOCK
  5
1DB2
330
1DA6
100
AcDbEntity
  8
0
100
AcDbBlockBegin
  2
*D6
 70
     1
 10
0.0
 20
0.0
 30
0.0
  3
*D6
  1

  0
LINE
  5
1DB4
330
1DA6
100
AcDbEntity
  8
BEM
 62
     0
370
    -2
100
AcDbLine
 10
357.6099995312873
 20
478.4442633735825
 30
0.0
 11
368.9912270921104
 21
489.8254909344055
 31
0.0
  0
LINE
  5
1DB5
330
1DA6
100
AcDbEntity
  8
BEM
 62
     0
370
    -2
100
AcDbLine
 10
151.1348194248155
 20
563.9723761714406
 30
0.0
 11
151.1348194248155
 21
580.064569640081
 31
0.0
  0
ARC
  5
1DB6
330
1DA6
100
AcDbEntity
  8
BEM
 62
     0
370
    -2
100
AcDbCircle
 10
151.1348194248155
 20
271.9690832671107
 30
0.0
 40
306.0954863729703
100
AcDbArc
 50
46.31030745164006
 51
88.68969254835993
  0
SOLID
  5
1DB7
330
1DA6
100
AcDbEntity
  8
BEM
 62
     0
100
AcDbTrace
 10
363.3864636803811
 20
494.1384409868745
 30
0.0
 11
361.7555214187758
 21
492.4697673268217
 31
0.0
 12
367.5770135297373
 22
488.4112773720324
 32
0.0
 13
367.5770135297373
 23
488.4112773720324
 33
0.0
  0
SOLID
  5
1DB8
330
1DA6
100
AcDbEntity
  8
BEM
 62
     0
100
AcDbTrace
 10
158.1210217415092
 20
576.817938860205
 30
0.0
 11
158.1477018692153
 21
579.1511196537206
 31
0.0
 12
151.1348194248155
 22
578.0645696400809
 32
0.0
 13
151.1348194248155
 23
578.0645696400809
 33
0.0
  0
MTEXT
  5
1DB9
330
1DA6
100
AcDbEntity
  8
BEM
 62
     1
100
AcDbMText
 10
270.7599330918585
 20
560.7696550825088
 30
0.0
 40
7.0
 41
0.0
 71
     5
 72
     1
  1
\A1;45°
 11
0.9238795325112867
 21
-0.3826834323650898
 31
0.0
 73
     1
 44
1.0
  0
POINT
  5
1DBA
330
1DA6
100
AcDbEntity
  8
DEFPOINTS
 62
     0
100
AcDbPoint
 10
304.1825626113007
 20
537.0555504498563
 30
0.0
  0
POINT
  5
1DBB
330
1DA6
100
AcDbEntity
  8
DEFPOINTS
 62
     0
100
AcDbPoint
 10
151.1348194248154
 20
561.9723761714405
 30
0.0
  0
POINT
  5
1DBC
330
1DA6
100
AcDbEntity
  8
DEFPOINTS
 62
     0
100
AcDbPoint
 10
356.1957859689143
 20
477.0300498112092
 30
0.0
  0
POINT
  5
1DBD
330
1DA6
100
AcDbEntity
  8
DEFPOINTS
 62
     0
100
AcDbPoint
 10
151.1348194248155
 20
271.9690832671107
 30
0.0
  0
POINT
  5
1DBE
330
1DA6
100
AcDbEntity
  8
DEFPOINTS
 62
     0
100
AcDbPoint
 10
151.1348194248155
 20
136.9690832671107
 30
0.0
  0
ENDBLK
  5
1DB3
330
1DA6
100
AcDbEntity
  8
0
100
AcDbBlockEnd
  0
ENDSEC
  0
SECTION
  2
ENTITIES
  0
TEXT
  5
134
330
1E
100
AcDbEntity
  8
TEXT
100
AcDbText
 10
204.4216048581257
 20
63.0896391972351
 30
0.0
 40
4.0
  1
Koeh
 41
0.8
  7
GREEKS
 72
     1
 11
209.6787477152686
 21
63.0896391972351
 31
0.0
100
AcDbText
  0
INSERT
  5
135
330
1E
100
AcDbEntity
  8
STEMPEL
100
AcDbBlockReference
  2
LOGO
 10
150.9955485457794
 20
45.02105276448322
 30
0.0
 41
2.0
 42
2.0
 43
2.0
  0
LINE
  5
136
330
1E
100
AcDbEntity
  8
HILF
100
AcDbLine
 10
420.0
 20
0.0
 30
0.0
 11
0.0
 21
0.0
 31
0.0
  0
LINE
  5
137
330
1E
100
AcDbEntity
  8
HILF
100
AcDbLine
 10
419.9999999999999
 20
594.0000000000002
 30
0.0
 11
0.0
 21
594.0
 31
0.0
  0
LINE
  5
138
330
1E
100
AcDbEntity
  8
STEMPEL
100
AcDbLine
 10
410.0
 20
584.0
 30
0.0
 11
39.99999999999989
 21
584.0
 31
0.0
  0
LINE
  5
139
330
1E
100
AcDbEntity
  8
STEMPEL
100
AcDbLine
 10
410.0
 20
10.0
 30
0.0
 11
39.99999999999989
 21
10.0
 31
0.0
  0
LINE
  5
13A
330
1E
100
AcDbEntity
  8
STEMPEL
100
AcDbLine
 10
49.99999999999989
 20
10.0
 30
0.0
 11
410.0
 21
10.0
 31
0.0
  0
TEXT
  5
13B
330
1E
100
AcDbEntity
  8
TEXT
100
AcDbText
 10
202.4626584226295
 20
73.30961091915225
 30
0.0
 40
4.0
  1
Name
 41
0.8
  7
GREEKS
100
AcDbText
  0
TEXT
  5
13C
330
1E
100
AcDbEntity
  8
TEXT
100
AcDbText
 10
196.5498279101549
 20
102.6506227776589
 30
0.0
 40
5.0
  1
Zul. Abw.
 41
0.8
  7
GREEKS
 72
     4
 11
209.9783993387263
 21
105.1506227776589
 31
0.0
100
AcDbText
  0
LINE
  5
13D
330
1E
100
AcDbEntity
  8
HILF
100
AcDbLine
 10
146.0000000000001
 20
49.99999999999997
 30
0.0
 11
230.0
 21
49.99999999999997
 31
0.0
  0
LINE
  5
13E
330
1E
100
AcDbEntity
  8
HILF
100
AcDbLine
 10
146.0000000000001
 20
59.99999999999997
 30
0.0
 11
230.0
 21
59.99999999999997
 31
0.0
  0
LINE
  5
13F
330
1E
100
AcDbEntity
  8
HILF
100
AcDbLine
 10
146.0000000000001
 20
69.99999999999994
 30
0.0
 11
230.0
 21
69.99999999999994
 31
0.0
  0
LINE
  5
140
330
1E
100
AcDbEntity
  8
STEMPEL
100
AcDbLine
 10
410.0
 20
80.0
 30
0.0
 11
146.0000000000001
 21
79.99999999999994
 31
0.0
  0
LINE
  5
141
330
1E
100
AcDbEntity
  8
STEMPEL
100
AcDbLine
 10
410.0
 20
40.0
 30
0.0
 11
146.0000000000001
 21
39.99999999999997
 31
0.0
  0
LINE
  5
142
330
1E
100
AcDbEntity
  8
STEMPEL
100
AcDbLine
 10
410.0
 20
110.0
 30
0.0
 11
39.99999999999997
 21
110.0
 31
0.0
  0
LINE
  5
144
330
1E
100
AcDbEntity
  8
HILF
100
AcDbLine
 10
0.0
 20
0.0
 30
0.0
 11
-0.0000000000001137
 21
594.0
 31
0.0
  0
LINE
  5
145
330
1E
100
AcDbEntity
  8
STEMPEL
100
AcDbLine
 10
40.0
 20
10.0
 30
0.0
 11
39.99999999999989
 21
584.0
 31
0.0
  0
LINE
  5
148
330
1E
100
AcDbEntity
  8
HILF
100
AcDbLine
 10
40.00000000000008
 20
39.99999999999997
 30
0.0
 11
146.0000000000001
 21
39.99999999999997
 31
0.0
  0
LINE
  5
149
330
1E
100
AcDbEntity
  8
HILF
100
AcDbLine
 10
40.00000000000008
 20
49.99999999999997
 30
0.0
 11
146.0000000000001
 21
49.99999999999997
 31
0.0
  0
LINE
  5
14A
330
1E
100
AcDbEntity
  8
HILF
100
AcDbLine
 10
40.00000000000008
 20
59.99999999999997
 30
0.0
 11
146.0000000000001
 21
59.99999999999997
 31
0.0
  0
LINE
  5
14B
330
1E
100
AcDbEntity
  8
HILF
100
AcDbLine
 10
40.00000000000008
 20
69.99999999999994
 30
0.0
 11
146.0000000000001
 21
69.99999999999994
 31
0.0
  0
LINE
  5
14C
330
1E
100
AcDbEntity
  8
HILF
100
AcDbLine
 10
40.00000000000008
 20
79.99999999999994
 30
0.0
 11
146.0000000000001
 21
79.99999999999994
 31
0.0
  0
LINE
  5
14D
330
1E
100
AcDbEntity
  8
HILF
100
AcDbLine
 10
40.00000000000008
 20
90.00000000000005
 30
0.0
 11
146.0000000000001
 21
90.00000000000005
 31
0.0
  0
LINE
  5
14E
330
1E
100
AcDbEntity
  8
HILF
100
AcDbLine
 10
40.00000000000008
 20
100.0
 30
0.0
 11
146.0000000000001
 21
100.0
 31
0.0
  0
LINE
  5
14F
330
1E
100
AcDbEntity
  8
STEMPEL
100
AcDbLine
 10
145.9999999999999
 20
29.99999999999997
 30
0.0
 11
39.99999999999997
 21
29.99999999999997
 31
0.0
  0
TEXT
  5
150
330
1E
100
AcDbEntity
  8
TEXT
100
AcDbText
 10
48.26641107045756
 20
13.65465846027192
 30
0.0
 40
4.0
  1
Index
 50
90.0
 41
0.8
  7
GREEKS
100
AcDbText
  0
LINE
  5
151
330
1E
100
AcDbEntity
  8
VOLL
100
AcDbLine
 10
54.00000000000009
 20
110.0
 30
0.0
 11
53.99999999999997
 21
9.999999999999971
 31
0.0
  0
LINE
  5
152
330
1E
100
AcDbEntity
  8
HILF
100
AcDbLine
 10
31.08767135713856
 20
297.0
 30
0.0
 11
0.0000000000001137
 21
297.0
 31
0.0
  0
LINE
  5
154
330
1E
100
AcDbEntity
  8
VOLL
100
AcDbLine
 10
124.0000000000001
 20
109.9999999999999
 30
0.0
 11
124.0
 21
9.999999999999971
 31
0.0
  0
LINE
  5
155
330
1E
100
AcDbEntity
  8
VOLL
100
AcDbLine
 10
104.0000000000001
 20
109.9999999999999
 30
0.0
 11
104.0
 21
9.999999999999971
 31
0.0
  0
LINE
  5
157
330
1E
100
AcDbEntity
  8
STEMPEL
100
AcDbLine
 10
146.0000000000001
 20
109.9999999999999
 30
0.0
 11
146.0
 21
9.999999999999971
 31
0.0
  0
TEXT
  5
158
330
1E
100
AcDbEntity
  8
TEXT
100
AcDbText
 10
170.398997108236
 20
63.10765040825732
 30
0.0
 40
4.0
  1
08.04.
 41
0.8
  7
GREEKS
 72
     1
 11
177.4085209177598
 21
63.10765040825732
 31
0.0
100
AcDbText
  0
TEXT
  5
159
330
1E
100
AcDbEntity
  8
TEXT
100
AcDbText
 10
172.331167315365
 20
73.31880501229926
 30
0.0
 40
4.0
  1
Tag
 41
0.8
  7
GREEKS
100
AcDbText
  0
TEXT
  5
15A
330
1E
100
AcDbEntity
  8
TEXT
100
AcDbText
 10
147.5836127167615
 20
63.62990369617964
 30
0.0
 40
4.0
  1
Gez.
 41
0.8
  7
GREEKS
100
AcDbText
  0
LINE
  5
15B
330
1E
100
AcDbEntity
  8
VOLL
100
AcDbLine
 10
164.0000000000001
 20
79.99999999999994
 30
0.0
 11
164.0000000000001
 21
39.99999999999997
 31
0.0
  0
TEXT
  5
15C
330
1E
100
AcDbEntity
  8
TEXT
100
AcDbText
 10
147.6006777387303
 20
43.52946389649807
 30
0.0
 40
4.0
  1
Norm.
 41
0.8
  7
GREEKS
100
AcDbText
  0
TEXT
  5
15D
330
1E
100
AcDbEntity
  8
TEXT
100
AcDbText
 10
147.5515086571672
 20
53.68926291428377
 30
0.0
 40
4.0
  1
Gepr.
 41
0.8
  7
GREEKS
100
AcDbText
  0
TEXT
  5
15E
330
1E
100
AcDbEntity
  8
TEXT
 62
     1
100
AcDbText
 10
160.5006306481887
 20
88.14901428913959
 30
0.0
 40
7.0
  1
1:2
 41
0.8
  7
GREEKS
100
AcDbText
  0
TEXT
  5
160
330
1E
100
AcDbEntity
  8
TEXT
100
AcDbText
 10
148.622109822104
 20
73.14025471151666
 30
0.0
 40
4.0
  1
2011
 41
0.8
  7
GREEKS
100
AcDbText
  0
LINE
  5
161
330
1E
100
AcDbEntity
  8
VOLL
100
AcDbLine
 10
190.0000000000001
 20
109.9999999999998
 30
0.0
 11
190.0
 21
39.99999999999997
 31
0.0
  0
LINE
  5
186
330
1E
100
AcDbEntity
  8
HILF
100
AcDbLine
 10
420.0
 20
-0.0000000000001137
 30
0.0
 11
419.9999999999999
 21
594.0
 31
0.0
  0
LINE
  5
187
330
1E
100
AcDbEntity
  8
STEMPEL
100
AcDbLine
 10
410.0
 20
10.0
 30
0.0
 11
410.0
 21
584.0
 31
0.0
  0
TEXT
  5
188
330
1E
100
AcDbEntity
  8
TEXT
100
AcDbText
 10
337.2400861497006
 20
52.07416177878602
 30
0.0
 40
5.0
  1
ersetzt durch:
 41
0.8
  7
GREEKS
100
AcDbText
  0
TEXT
  5
18A
330
1E
100
AcDbEntity
  8
TEXT
100
AcDbText
 10
336.178754957634
 20
102.3132034537136
 30
0.0
 40
5.0
  1
Zeichnungs Nr.
 41
0.8
  7
GREEKS
100
AcDbText
  0
LINE
  5
18B
330
1E
100
AcDbEntity
  8
HILF
100
AcDbLine
 10
233.4909699289885
 20
14.89398258028314
 30
0.0
 11
404.8588839326728
 21
14.89398258028314
 31
0.0
  0
LINE
  5
18C
330
1E
100
AcDbEntity
  8
HILF
100
AcDbLine
 10
336.7238616296993
 20
83.77983636955827
 30
0.0
 11
404.8588839326728
 21
83.77983636955827
 31
0.0
  0
LINE
  5
18D
330
1E
100
AcDbEntity
  8
VOLL
100
AcDbLine
 10
332.0
 20
60.0
 30
0.0
 11
410.0
 21
60.0
 31
0.0
  0
TEXT
  5
18E
330
1E
100
AcDbEntity
  8
TEXT
 62
     1
100
AcDbText
 10
234.9283864320014
 20
87.41748789253779
 30
0.0
 40
7.0
  1
Abzweig DN125/125
 41
0.8
  7
GREEKS
100
AcDbText
  0
LINE
  5
18F
330
1E
100
AcDbEntity
  8
HILF
100
AcDbLine
 10
234.7736801096947
 20
49.99999999999997
 30
0.0
 11
324.835391655631
 21
49.99999999999997
 31
0.0
  0
LINE
  5
190
330
1E
100
AcDbEntity
  8
HILF
100
AcDbLine
 10
234.7736801096947
 20
59.99999999999997
 30
0.0
 11
324.835391655631
 21
59.99999999999997
 31
0.0
  0
LINE
  5
191
330
1E
100
AcDbEntity
  8
HILF
100
AcDbLine
 10
234.7736801096947
 20
69.99999999999994
 30
0.0
 11
324.835391655631
 21
69.99999999999994
 31
0.0
  0
LINE
  5
192
330
1E
100
AcDbEntity
  8
HILF
100
AcDbLine
 10
234.7736801096947
 20
84.03758247564139
 30
0.0
 11
324.8353916556311
 21
84.03758247564139
 31
0.0
  0
LINE
  5
193
330
1E
100
AcDbEntity
  8
STEMPEL
100
AcDbLine
 10
230.0
 20
110.0
 30
0.0
 11
230.0
 21
9.999999999999971
 31
0.0
  0
TEXT
  5
194
330
1E
100
AcDbEntity
  8
TEXT
100
AcDbText
 10
235.1296391125315
 20
71.50334417585288
 30
0.0
 40
5.0
  1
dünnwandig 45° 
 41
0.8
  7
GREEKS
100
AcDbText
  0
TEXT
  5
195
330
1E
100
AcDbEntity
  8
TEXT
100
AcDbText
 10
234.9837501577827
 20
42.62974153022632
 30
0.0
 40
4.0
  1
5220EE0W.DWG
 41
0.8
  7
GREEKS
100
AcDbText
  0
TEXT
  5
196
330
1E
100
AcDbEntity
  8
TEXT
100
AcDbText
 10
234.742238391136
 20
30.84560570193057
 30
0.0
 40
5.0
  1
Bauvorhaben
 41
0.8
  7
GREEKS
100
AcDbText
  0
TEXT
  5
197
330
1E
100
AcDbEntity
  8
TEXT
100
AcDbText
 10
234.877940380901
 20
102.5489328011779
 30
0.0
 40
5.0
  1
Benennung
 41
0.8
  7
GREEKS
100
AcDbText
  0
LINE
  5
198
330
1E
100
AcDbEntity
  8
STEMPEL
100
AcDbLine
 10
332.0
 20
109.9999999999997
 30
0.0
 11
332.0
 21
40.0
 31
0.0
  0
TEXT
  5
19A
330
1E
100
AcDbEntity
  8
TEXT
 62
     1
100
AcDbText
 10
350.2784806213754
 20
88.14901428913959
 30
0.0
 40
7.0
  1
5220EE0W
 41
0.8
  7
GREEKS
 72
     1
 11
371.3451472880421
 21
88.14901428913959
 31
0.0
100
AcDbText
  0
TEXT
  5
212
330
1E
100
AcDbEntity
  8
TEXT
100
AcDbText
 10
235.1296391125315
 20
51.50334417585291
 30
0.0
 40
5.0
  1
EDV-Art.Nr. 5.220.EE0C
 41
0.8
  7
GREEKS
100
AcDbText
  0
TEXT
  5
255
330
1E
100
AcDbEntity
  8
TEXT
 62
     1
100
AcDbText
 10
297.0573649355706
 20
132.2248663682012
 30
0.0
 40
7.0
  1
Werkstoff: 1.4404
 41
0.8
  7
GREEKS
100
AcDbText
  0
DIMENSION
  5
1AD6
330
1E
100
AcDbEntity
  8
BEM
100
AcDbDimension
  2
*D5
 10
291.7612278615227
 20
534.3935401067353
 30
0.0
 11
186.4023174647269
 21
438.2270178653654
 31
0.0
 70
    32
 71
     5
 42
284.9999999999996
 51
357.0
  3
Standard
100
AcDbAlignedDimension
 13
151.1348194248155
 23
271.9690832671107
 33
0.0
 14
301.9924683668584
 24
524.1622996013997
 34
0.0
 50
44.99999999999976
100
AcDbRotatedDimension
1001
ACAD
1000
DSTYLE
1002
{
1070
    40
1040
2.0
1070
    41
1040
3.5
1070
    42
1040
1.0
1070
    43
1040
7.0
1070
    44
1040
1.0
1070
    73
1070
     0
1070
    74
1070
     0
1070
    77
1070
     1
1070
    78
1070
     8
1070
    79
1070
     2
1070
   140
1040
3.5
1070
   141
1040
1.5
1070
   146
1040
0.5142857142857144
1070
   147
1040
1.5
1070
   172
1070
     1
1070
   178
1070
     1
1070
   179
1070
     2
1070
   271
1070
     2
1070
   272
1070
     2
1070
   284
1070
     8
1070
   285
1070
     8
1070
   286
1070
     8
1002
}
  0
LINE
  5
1ADC
330
1E
100
AcDbEntity
  8
MITTEL
100
AcDbLine
 10
356.1957859689143
 20
477.0300498112093
 30
0.0
 11
151.1348194248155
 21
271.9690832671107
 31
0.0
  0
LINE
  5
1ADD
330
1E
100
AcDbEntity
  8
HILF
100
AcDbLine
 10
220.6295856754384
 20
508.449051570974
 30
0.0
 11
81.64005317419247
 21
508.449051570974
 31
0.0
  0
LINE
  5
1ADE
330
1E
100
AcDbEntity
  8
HILF
100
AcDbLine
 10
216.5689392653476
 20
479.4233713858631
 30
0.0
 11
85.70069958428332
 21
479.4233713858631
 31
0.0
  0
LINE
  5
1ADF
330
1E
100
AcDbEntity
  8
HILF
100
AcDbLine
 10
219.5497013788809
 20
486.2170377812446
 30
0.0
 11
82.71993747075015
 21
486.2170377812446
 31
0.0
  0
DIMENSION
  5
1AE1
330
1E
100
AcDbEntity
  8
BEM
100
AcDbDimension
  2
*D2
 10
217.634819424816
 20
123.5810445711594
 30
0.0
 11
151.1348194248157
 21
130.0810445711594
 31
0.0
 70
    32
  1
%%c<>
 71
     5
 42
133.0000000000004
  3
Standard
100
AcDbAlignedDimension
 13
84.63481942481553
 23
151.9690832671104
 33
0.0
 14
217.634819424816
 24
151.9690832671108
 34
0.0
100
AcDbRotatedDimension
1001
ACAD
1000
DSTYLE
1002
{
1070
    40
1040
2.0
1070
    41
1040
3.5
1070
    42
1040
1.0
1070
    43
1040
7.0
1070
    44
1040
1.0
1070
    73
1070
     0
1070
    74
1070
     0
1070
    77
1070
     1
1070
    78
1070
     8
1070
    79
1070
     2
1070
   140
1040
3.5
1070
   141
1040
1.5
1070
   146
1040
0.5142857142857144
1070
   147
1040
1.5
1070
   172
1070
     1
1070
   178
1070
     1
1070
   179
1070
     2
1070
   271
1070
     2
1070
   272
1070
     2
1070
   284
1070
     8
1070
   285
1070
     8
1070
   286
1070
     8
1002
}
  0
LINE
  5
1AE2
330
1E
100
AcDbEntity
  8
HILF
100
AcDbLine
 10
216.1348194248155
 20
151.9690832671108
 30
0.0
 11
86.13481942481541
 21
151.9690832671108
 31
0.0
  0
LINE
  5
1AE3
330
1E
100
AcDbEntity
  8
STEMPEL
100
AcDbLine
 10
216.7599327895564
 20
141.9690832671108
 30
0.0
 11
85.50970606007473
 21
141.9690832671105
 31
0.0
  0
LINE
  5
1AE4
330
1E
100
AcDbEntity
  8
STEMPEL
100
AcDbLine
 10
222.7898863032594
 20
556.9723761714405
 30
0.0
 11
79.47975254637174
 21
556.9723761714405
 31
0.0
  0
DIMENSION
  5
1AE6
330
1E
100
AcDbEntity
  8
BEM
100
AcDbDimension
  2
*D4
 10
72.08256055486095
 20
141.9690832671105
 30
0.0
 11
65.58256055486094
 21
206.9690832671106
 31
0.0
 70
    32
 71
     5
 42
130.0000000000002
  3
Standard
100
AcDbAlignedDimension
 13
151.1348194248155
 23
271.9690832671107
 33
0.0
 14
85.50970606007473
 24
141.9690832671105
 34
0.0
 50
90.0
100
AcDbRotatedDimension
1001
ACAD
1000
DSTYLE
1002
{
1070
    40
1040
2.0
1070
    41
1040
3.5
1070
    42
1040
1.0
1070
    43
1040
7.0
1070
    44
1040
1.0
1070
    73
1070
     0
1070
    74
1070
     0
1070
    77
1070
     1
1070
    78
1070
     8
1070
    79
1070
     2
1070
   140
1040
3.5
1070
   141
1040
1.5
1070
   146
1040
0.5142857142857144
1070
   147
1040
1.5
1070
   172
1070
     1
1070
   178
1070
     1
1070
   179
1070
     2
1070
   271
1070
     2
1070
   272
1070
     2
1070
   284
1070
     8
1070
   285
1070
     8
1070
   286
1070
     8
1002
}
  0
LINE
  5
1AE7
330
1E
100
AcDbEntity
  8
STEMPEL
100
AcDbLine
 10
84.63481942481548
 20
476.2934678256402
 30
0.0
 11
84.63481942481548
 21
151.9690832671106
 31
0.0
  0
DIMENSION
  5
1AE8
330
1E
100
AcDbEntity
  8
BEM
100
AcDbDimension
  2
*D1
 10
56.0216133756203
 20
556.9723761714405
 30
0.0
 11
49.52161337562021
 21
349.4707297192755
 31
0.0
 70
    32
 71
     5
 42
415.0032929043301
  3
Standard
100
AcDbAlignedDimension
 13
85.50970606007473
 23
141.9690832671104
 33
0.0
 14
79.47975254637174
 24
556.9723761714405
 34
0.0
 50
90.0
100
AcDbRotatedDimension
1001
ACAD
1000
DSTYLE
1002
{
1070
    40
1040
2.0
1070
    41
1040
3.5
1070
    42
1040
1.0
1070
    43
1040
7.0
1070
    44
1040
1.0
1070
    73
1070
     0
1070
    74
1070
     0
1070
    77
1070
     1
1070
    78
1070
     8
1070
    79
1070
     2
1070
   140
1040
3.5
1070
   141
1040
1.5
1070
   146
1040
0.5142857142857144
1070
   147
1040
1.5
1070
   172
1070
     1
1070
   178
1070
     1
1070
   179
1070
     2
1070
   271
1070
     2
1070
   272
1070
     2
1070
   284
1070
     8
1070
   285
1070
     8
1070
   286
1070
     8
1002
}
  0
LINE
  5
1AE9
330
1E
100
AcDbEntity
  8
MITTEL
100
AcDbLine
 10
151.1348194248154
 20
561.9723761714405
 30
0.0
 11
151.1348194248155
 21
136.9690832671107
 31
0.0
  0
LINE
  5
1AEA
330
1E
100
AcDbEntity
  8
STEMPEL
100
AcDbLine
 10
84.63481942481553
 20
151.9690832671104
 30
0.0
 11
85.50970606007467
 21
141.9690832671105
 31
0.0
  0
ARC
  5
1AEB
330
1E
100
AcDbEntity
  8
STEMPEL
100
AcDbCircle
 10
105.1348194248155
 20
524.2633761714405
 30
0.0
 40
29.0
100
AcDbArc
 50
180.0
 51
205.1711477430582
  0
ARC
  5
1AEC
330
1E
100
AcDbEntity
  8
STEMPEL
100
AcDbCircle
 10
97.63481942481547
 20
490.4356034493712
 30
0.0
 40
17.0
100
AcDbArc
 50
180.0
 51
211.5863380965282
  0
LINE
  5
1AED
330
1E
100
AcDbEntity
  8
STEMPEL
100
AcDbLine
 10
80.63481942481548
 20
503.9723761714405
 30
0.0
 11
80.63481942481548
 21
490.4356034493712
 31
0.0
  0
ARC
  5
1AEE
330
1E
100
AcDbEntity
  8
STEMPEL
100
AcDbCircle
 10
61.63481942481547
 20
503.9723761714405
 30
0.0
 40
19.0
100
AcDbArc
 50
0.0
 51
25.22714436590798
  0
ARC
  5
1AEF
330
1E
100
AcDbEntity
  8
STEMPEL
100
AcDbCircle
 10
74.63481942481547
 20
476.2934678256402
 30
0.0
 40
10.0
100
AcDbArc
 50
0.0
 51
31.58633809652809
  0
TEXT
  5
1B07
330
1E
100
AcDbEntity
  8
TEXT
 62
     1
100
AcDbText
 10
118.3336301524116
 20
531.5162800293405
 30
0.0
 40
7.0
  1
DN125
 41
0.8
  7
GREEKS
100
AcDbText
  0
LINE
  5
1B08
330
1E
100
AcDbEntity
  8
STEMPEL
100
AcDbLine
 10
76.1348194248157
 20
543.3699987269762
 30
0.0
 11
76.1348194248157
 21
524.2633761714405
 31
0.0
  0
ARC
  5
1B09
330
1E
100
AcDbEntity
  8
STEMPEL
100
AcDbCircle
 10
105.1348194248155
 20
543.3699987269762
 30
0.0
 40
29.0
100
AcDbArc
 50
155.0000000000074
 51
180.0
  0
POINT
  5
1B0A
330
1E
100
AcDbEntity
  8
STEMPEL
100
AcDbPoint
 10
81.13481942481547
 20
556.9723761714405
 30
0.0
  0
LINE
  5
1B0B
330
1E
100
AcDbEntity
  8
STEMPEL
100
AcDbLine
 10
79.4797525463718
 20
556.9723761714405
 30
0.0
 11
78.85189360075282
 21
555.6259283174567
 31
0.0
  0
LINE
  5
1B0C
330
1E
100
AcDbEntity
  8
STEMPEL
100
AcDbLine
 10
403.3280357591049
 20
422.8267322091533
 30
0.0
 11
301.9924683668585
 21
524.1622996013997
 31
0.0
  0
LINE
  5
1B0D
330
1E
100
AcDbEntity
  8
HILF
100
AcDbLine
 10
351.005299445922
 20
375.0863093606234
 30
0.0
 11
254.2520455183284
 21
471.8395632882169
 31
0.0
  0
LINE
  5
1B0E
330
1E
100
AcDbEntity
  8
HILF
100
AcDbLine
 10
344.0937347650453
 20
372.3901788869134
 30
0.0
 11
251.5559150446184
 21
464.9279986073402
 31
0.0
  0
LINE
  5
1B0F
330
1E
100
AcDbEntity
  8
HILF
100
AcDbLine
 10
367.4893006650652
 20
390.0431235617812
 30
0.0
 11
269.2088597194861
 21
488.3235645073601
 31
0.0
  0
LINE
  5
1B10
330
1E
100
AcDbEntity
  8
STEMPEL
100
AcDbLine
 10
396.0749273207331
 20
410.8431739850458
 30
0.0
 11
382.5645049461418
 21
397.3327516104547
 31
0.0
  0
LINE
  5
1B11
330
1E
100
AcDbEntity
  8
STEMPEL
100
AcDbLine
 10
342.6342498218437
 20
369.4233117663279
 30
0.0
 11
217.6348194248155
 21
244.4238813692996
 31
0.0
  0
LINE
  5
1B12
330
1E
100
AcDbEntity
  8
STEMPEL
100
AcDbLine
 10
217.6348194248155
 20
244.4238813692996
 30
0.0
 11
217.6348194248155
 21
151.9690832671109
 31
0.0
  0
LINE
  5
1B15
330
1E
100
AcDbEntity
  8
STEMPEL
100
AcDbLine
 10
217.6348194248155
 20
151.9690832671112
 30
0.0
 11
216.7599327895564
 21
141.9690832671108
 31
0.0
  0
ARC
  5
1B1E
330
1E
100
AcDbEntity
  8
STEMPEL
100
AcDbCircle
 10
378.4696495762905
 20
372.7317995861934
 30
0.0
 40
19.0
100
AcDbArc
 50
109.772855634092
 51
135.0
  0
ARC
  5
1B1F
330
1E
100
AcDbEntity
  8
STEMPEL
100
AcDbCircle
 10
343.4418616664186
 20
388.6156999217527
 30
0.0
 40
17.0
100
AcDbArc
 50
283.4136619034717
 51
315.0
  0
ARC
  5
1B20
330
1E
100
AcDbEntity
  8
STEMPEL
100
AcDbCircle
 10
349.7053176337092
 20
362.3522439544623
 30
0.0
 40
10.0
100
AcDbArc
 50
103.4136619034719
 51
135.0
  0
LINE
  5
1B21
330
1E
100
AcDbEntity
  8
STEMPEL
100
AcDbLine
 10
365.0346207337463
 20
386.166828428738
 30
0.0
 11
355.4626769465899
 21
376.5948846415817
 31
0.0
  0
ARC
  5
1B22
330
1E
100
AcDbEntity
  8
STEMPEL
100
AcDbCircle
 10
362.0584082917319
 20
417.8388482648645
 30
0.0
 40
29.0
100
AcDbArc
 50
289.8288522569417
 51
315.0
  0
ARC
  5
1B23
330
1E
100
AcDbEntity
  8
STEMPEL
100
AcDbCircle
 10
375.568830666323
 20
431.3492706394556
 30
0.0
 40
29.0
100
AcDbArc
 50
315.0
 51
339.9999999999926
  0
LINE
  5
1B24
330
1E
100
AcDbEntity
  8
STEMPEL
100
AcDbLine
 10
403.3280357591047
 20
422.8267322091533
 30
0.0
 11
402.8199166691146
 21
421.4306864830114
 31
0.0
  0
TEXT
  5
1B25
330
1E
100
AcDbEntity
  8
TEXT
 62
     1
100
AcDbText
 10
318.511025310565
 20
454.19251177963
 30
0.0
 40
7.0
  1
DN125
 50
44.99999999999999
 41
0.8
  7
GREEKS
100
AcDbText
  0
ARC
  5
1B26
330
1E
100
AcDbEntity
  8
STEMPEL
100
AcDbCircle
 10
310.5150067971608
 20
496.4030945086181
 30
0.0
 40
29.0
100
AcDbArc
 50
110.0000000000074
 51
135.0
  0
ARC
  5
1B27
330
1E
100
AcDbEntity
  8
STEMPEL
100
AcDbCircle
 10
197.1348194248155
 20
524.2633761714405
 30
0.0
 40
29.0
100
AcDbArc
 50
334.8288522569417
 51
0.0
  0
ARC
  5
1B28
330
1E
100
AcDbEntity
  8
STEMPEL
100
AcDbCircle
 10
241.5179801121674
 20
470.539581476004
 30
0.0
 40
10.0
100
AcDbArc
 50
315.0
 51
346.586338096528
  0
LINE
  5
1B2A
102
{ACAD_REACTORS
330
1D60
102
}
330
1E
100
AcDbEntity
  8
STEMPEL
100
AcDbLine
 10
248.5890479240328
 20
463.4685136641388
 30
0.0
 11
217.6348194248155
 21
432.5142851649214
 31
0.0
  0
LINE
  5
1B2B
102
{ACAD_REACTORS
330
1D60
102
}
330
1E
100
AcDbEntity
  8
STEMPEL
100
AcDbLine
 10
217.6348194248154
 20
476.2934678256402
 30
0.0
 11
217.6348194248155
 21
432.5142851649214
 31
0.0
  0
LINE
  5
1B32
330
1E
100
AcDbEntity
  8
STEMPEL
100
AcDbLine
 10
221.6348194248155
 20
503.9723761714405
 30
0.0
 11
221.6348194248155
 21
490.4356034493712
 31
0.0
  0
ARC
  5
1B33
330
1E
100
AcDbEntity
  8
STEMPEL
100
AcDbCircle
 10
227.6348194248155
 20
476.2934678256402
 30
0.0
 40
10.0
100
AcDbArc
 50
148.4136619034719
 51
180.0
  0
ARC
  5
1B34
330
1E
100
AcDbEntity
  8
STEMPEL
100
AcDbCircle
 10
204.6348194248155
 20
490.4356034493712
 30
0.0
 40
17.0
100
AcDbArc
 50
328.4136619034717
 51
0.0
  0
ARC
  5
1B35
330
1E
100
AcDbEntity
  8
STEMPEL
100
AcDbCircle
 10
240.6348194248155
 20
503.9723761714405
 30
0.0
 40
19.0
100
AcDbArc
 50
154.772855634092
 51
180.0
  0
ARC
  5
1B36
330
1E
100
AcDbEntity
  8
STEMPEL
100
AcDbCircle
 10
251.8975357438985
 20
499.3039134185855
 30
0.0
 40
19.0
100
AcDbArc
 50
315.0
 51
340.227144365908
  0
ARC
  5
1B37
330
1E
100
AcDbEntity
  8
STEMPEL
100
AcDbCircle
 10
297.0045844225694
 20
482.8926721340268
 30
0.0
 40
29.0
100
AcDbArc
 50
135.0
 51
160.1711477430582
  0
LINE
  5
1B38
330
1E
100
AcDbEntity
  8
STEMPEL
100
AcDbLine
 10
265.3325645864429
 20
485.8688845760412
 30
0.0
 11
255.7606207992867
 21
476.2969407888848
 31
0.0
  0
ARC
  5
1B39
330
1E
100
AcDbEntity
  8
STEMPEL
100
AcDbCircle
 10
267.781436079458
 20
464.2761255087133
 30
0.0
 40
17.0
100
AcDbArc
 50
135.0
 51
166.5863380965282
  0
LINE
  5
1B3A
330
1E
100
AcDbEntity
  8
STEMPEL
100
AcDbLine
 10
290.0089101427511
 20
516.9091911630277
 30
0.0
 11
276.4984877681598
 21
503.3987687884367
 31
0.0
  0
LINE
  5
1B3B
330
1E
100
AcDbEntity
  8
STEMPEL
100
AcDbLine
 10
226.1348194248155
 20
543.3699987269762
 30
0.0
 11
226.1348194248155
 21
524.2633761714405
 31
0.0
  0
LINE
  5
1B3C
330
1E
100
AcDbEntity
  8
STEMPEL
100
AcDbLine
 10
222.7898863032592
 20
556.9723761714405
 30
0.0
 11
223.4177452488784
 21
555.6259283174567
 31
0.0
  0
ARC
  5
1B3D
330
1E
100
AcDbEntity
  8
STEMPEL
100
AcDbCircle
 10
197.1348194248155
 20
543.3699987269762
 30
0.0
 40
29.0
100
AcDbArc
 50
0.0
 51
24.99999999999253
  0
LINE
  5
1B3E
330
1E
100
AcDbEntity
  8
STEMPEL
100
AcDbLine
 10
301.9924683668585
 20
524.1622996013996
 30
0.0
 11
300.5964226407167
 21
523.6541805114095
 31
0.0
  0
POINT
  5
1B3F
330
1E
100
AcDbEntity
  8
STEMPEL
100
AcDbPoint
 10
303.1627773799233
 20
522.9919905883348
 30
0.0
  0
LINE
  5
1C55
330
1E
100
AcDbEntity
  8
STEMPEL
100
AcDbLine
 10
217.6348194248155
 20
432.5142851649214
 30
0.0
 11
151.1348194248155
 21
271.9690832671107
 31
0.0
  0
LINE
  5
1C56
330
1E
100
AcDbEntity
  8
STEMPEL
100
AcDbLine
 10
151.1348194248155
 20
271.9690832671107
 30
0.0
 11
217.6348194248155
 21
244.4238813692996
 31
0.0
  0
ARC
  5
1C57
330
1E
100
AcDbEntity
  8
SCHRAFF
100
AcDbCircle
 10
215.1947641845873
 20
245.4345853427417
 30
0.0
 40
5.352655712586298
100
AcDbArc
 50
123.4117304855398
 51
191.5882695144567
  0
ARC
  5
1C59
330
1E
100
AcDbEntity
  8
SCHRAFF
100
AcDbCircle
 10
210.5753665220309
 20
247.3480025045672
 30
0.0
 40
5.352655712586298
100
AcDbArc
 50
123.4117304855398
 51
191.5882695144567
  0
ARC
  5
1C5A
330
1E
100
AcDbEntity
  8
SCHRAFF
100
AcDbCircle
 10
205.9559688594744
 20
249.2614196663925
 30
0.0
 40
5.352655712586298
100
AcDbArc
 50
123.4117304855398
 51
191.5882695144567
  0
ARC
  5
1C5B
330
1E
100
AcDbEntity
  8
SCHRAFF
100
AcDbCircle
 10
201.336571196918
 20
251.174836828218
 30
0.0
 40
5.352655712586298
100
AcDbArc
 50
123.4117304855398
 51
191.5882695144567
  0
ARC
  5
1C5F
330
1E
100
AcDbEntity
  8
SCHRAFF
100
AcDbCircle
 10
219.8141618471436
 20
243.5211681809162
 30
0.0
 40
5.352655712586298
100
AcDbArc
 50
123.4117304855398
 51
191.5882695144567
  0
ARC
  5
1C61
330
1E
100
AcDbEntity
  8
SCHRAFF
100
AcDbCircle
 10
173.6201852215796
 20
262.6553397991706
 30
0.0
 40
5.352655712586298
100
AcDbArc
 50
123.4117304855398
 51
191.5882695144567
  0
ARC
  5
1C62
330
1E
100
AcDbEntity
  8
SCHRAFF
100
AcDbCircle
 10
192.0977758718052
 20
255.0016711518688
 30
0.0
 40
5.352655712586298
100
AcDbArc
 50
123.4117304855398
 51
191.5882695144567
  0
ARC
  5
1C63
330
1E
100
AcDbEntity
  8
SCHRAFF
100
AcDbCircle
 10
196.7171735343617
 20
253.0882539900434
 30
0.0
 40
5.352655712586298
100
AcDbArc
 50
123.4117304855398
 51
191.5882695144567
  0
ARC
  5
1C64
330
1E
100
AcDbEntity
  8
SCHRAFF
100
AcDbCircle
 10
182.8589805466925
 20
258.8285054755197
 30
0.0
 40
5.352655712586298
100
AcDbArc
 50
123.4117304855398
 51
191.5882695144567
  0
ARC
  5
1C65
330
1E
100
AcDbEntity
  8
SCHRAFF
100
AcDbCircle
 10
178.239582884136
 20
260.7419226373452
 30
0.0
 40
5.352655712586298
100
AcDbArc
 50
123.4117304855398
 51
191.5882695144567
  0
ARC
  5
1C66
330
1E
100
AcDbEntity
  8
SCHRAFF
100
AcDbCircle
 10
187.4783782092488
 20
256.9150883136943
 30
0.0
 40
5.352655712586298
100
AcDbArc
 50
123.4117304855398
 51
191.5882695144567
  0
ARC
  5
1C67
330
1E
100
AcDbEntity
  8
SCHRAFF
100
AcDbCircle
 10
169.0007875590232
 20
264.5687569609961
 30
0.0
 40
5.352655712586298
100
AcDbArc
 50
123.4117304855398
 51
191.5882695144567
  0
ARC
  5
1C68
330
1E
100
AcDbEntity
  8
SCHRAFF
100
AcDbCircle
 10
164.3813898964669
 20
266.4821741228216
 30
0.0
 40
5.352655712586298
100
AcDbArc
 50
123.4117304855398
 51
191.5882695144567
  0
ARC
  5
1C69
330
1E
100
AcDbEntity
  8
SCHRAFF
100
AcDbCircle
 10
159.7619922339104
 20
268.3955912846469
 30
0.0
 40
5.352655712586298
100
AcDbArc
 50
123.4117304855398
 51
191.5882695144567
  0
ARC
  5
1C6C
330
1E
100
AcDbEntity
  8
SCHRAFF
100
AcDbCircle
 10
215.4204864041598
 20
245.3410881380658
 30
0.0
 40
4.716498656390039
100
AcDbArc
 50
298.0009772026663
 51
16.99902279733427
  0
HATCH
  5
1C71
330
1E
100
AcDbEntity
  8
SCHRAFF
100
AcDbHatch
 10
0.0
 20
0.0
 30
0.0
210
0.0
220
0.0
230
1.0
  2
_USER
 70
     0
 71
     0
 91
        1
 92
        7
 72
     1
 73
     1
 93
        3
 10
219.9309200190061
 20
246.7199819634902
 42
0.0
 10
217.6348194248155
 20
244.4238813692997
 42
0.0
 10
217.6348194248155
 20
241.1767047684223
 42
0.3590270596210174
 97
        0
 75
     0
 76
     0
 52
0.0
 41
0.1
 77
     0
 78
     1
 53
0.0
 43
-391.1025213592766
 44
-3.348620562416272
 45
0.0
 46
0.1
 79
     0
 47
0.0734920768543307
 98
        1
 10
219.5007896798588
 20
244.316448986285
  0
ARC
  5
1D31
330
1E
100
AcDbEntity
  8
SCHRAFF
100
AcDbCircle
 10
164.2753972164061
 20
303.6932443889877
 30
0.0
 40
5.352655712586298
100
AcDbArc
 50
213.4117304855432
 51
281.58826951446
  0
ARC
  5
1D32
330
1E
100
AcDbEntity
  8
SCHRAFF
100
AcDbCircle
 10
154.7083114072789
 20
280.5962560762057
 30
0.0
 40
5.352655712586298
100
AcDbArc
 50
213.4117304855432
 51
281.58826951446
  0
ARC
  5
1D33
330
1E
100
AcDbEntity
  8
SCHRAFF
100
AcDbCircle
 10
156.6217285691044
 20
285.2156537387621
 30
0.0
 40
5.352655712586298
100
AcDbArc
 50
213.4117304855432
 51
281.58826951446
  0
ARC
  5
1D34
330
1E
100
AcDbEntity
  8
SCHRAFF
100
AcDbCircle
 10
160.4485628927552
 20
294.4544490638748
 30
0.0
 40
5.352655712586298
100
AcDbArc
 50
213.4117304855432
 51
281.58826951446
  0
ARC
  5
1D35
330
1E
100
AcDbEntity
  8
SCHRAFF
100
AcDbCircle
 10
158.5351457309298
 20
289.8350514013186
 30
0.0
 40
5.352655712586298
100
AcDbArc
 50
213.4117304855432
 51
281.58826951446
  0
ARC
  5
1D36
330
1E
100
AcDbEntity
  8
SCHRAFF
100
AcDbCircle
 10
162.3619800545806
 20
299.0738467264312
 30
0.0
 40
5.352655712586298
100
AcDbArc
 50
213.4117304855432
 51
281.58826951446
  0
ARC
  5
1D37
330
1E
100
AcDbEntity
  8
SCHRAFF
100
AcDbCircle
 10
168.102231540057
 20
312.9320397141005
 30
0.0
 40
5.352655712586298
100
AcDbArc
 50
213.4117304855432
 51
281.58826951446
  0
ARC
  5
1D38
330
1E
100
AcDbEntity
  8
SCHRAFF
100
AcDbCircle
 10
166.1888143782315
 20
308.3126420515441
 30
0.0
 40
5.352655712586298
100
AcDbArc
 50
213.4117304855432
 51
281.58826951446
  0
ARC
  5
1D39
330
1E
100
AcDbEntity
  8
SCHRAFF
100
AcDbCircle
 10
170.0156487018825
 20
317.5514373766568
 30
0.0
 40
5.352655712586298
100
AcDbArc
 50
213.4117304855432
 51
281.58826951446
  0
ARC
  5
1D3A
330
1E
100
AcDbEntity
  8
SCHRAFF
100
AcDbCircle
 10
177.6693173491843
 20
336.0290280268824
 30
0.0
 40
5.352655712586298
100
AcDbArc
 50
213.4117304855432
 51
281.58826951446
  0
ARC
  5
1D3B
330
1E
100
AcDbEntity
  8
SCHRAFF
100
AcDbCircle
 10
175.7559001873588
 20
331.4096303643261
 30
0.0
 40
5.352655712586298
100
AcDbArc
 50
213.4117304855432
 51
281.58826951446
  0
ARC
  5
1D3C
330
1E
100
AcDbEntity
  8
SCHRAFF
100
AcDbCircle
 10
171.9290658637079
 20
322.1708350392132
 30
0.0
 40
5.352655712586298
100
AcDbArc
 50
213.4117304855432
 51
281.58826951446
  0
ARC
  5
1D3D
330
1E
100
AcDbEntity
  8
SCHRAFF
100
AcDbCircle
 10
173.8424830255333
 20
326.7902327017697
 30
0.0
 40
5.352655712586298
100
AcDbArc
 50
213.4117304855432
 51
281.58826951446
  0
ARC
  5
1D3E
330
1E
100
AcDbEntity
  8
SCHRAFF
100
AcDbCircle
 10
179.5827345110097
 20
340.6484256894389
 30
0.0
 40
5.352655712586298
100
AcDbArc
 50
213.4117304855432
 51
281.58826951446
  0
ARC
  5
1D3F
330
1E
100
AcDbEntity
  8
SCHRAFF
100
AcDbCircle
 10
187.2364031583113
 20
359.1260163396644
 30
0.0
 40
5.352655712586298
100
AcDbArc
 50
213.4117304855432
 51
281.58826951446
  0
ARC
  5
1D40
330
1E
100
AcDbEntity
  8
SCHRAFF
100
AcDbCircle
 10
183.4095688346604
 20
349.8872210145517
 30
0.0
 40
5.352655712586298
100
AcDbArc
 50
213.4117304855432
 51
281.58826951446
  0
ARC
  5
1D41
330
1E
100
AcDbEntity
  8
SCHRAFF
100
AcDbCircle
 10
181.4961516728351
 20
345.2678233519953
 30
0.0
 40
5.352655712586298
100
AcDbArc
 50
213.4117304855432
 51
281.58826951446
  0
ARC
  5
1D42
330
1E
100
AcDbEntity
  8
SCHRAFF
100
AcDbCircle
 10
185.3229859964859
 20
354.5066186771081
 30
0.0
 40
5.352655712586298
100
AcDbArc
 50
213.4117304855432
 51
281.58826951446
  0
ARC
  5
1D43
330
1E
100
AcDbEntity
  8
SCHRAFF
100
AcDbCircle
 10
204.4571576147403
 20
400.7005953026721
 30
0.0
 40
5.352655712586298
100
AcDbArc
 50
213.4117304855432
 51
281.58826951446
  0
ARC
  5
1D44
330
1E
100
AcDbEntity
  8
SCHRAFF
100
AcDbCircle
 10
202.543740452915
 20
396.0811976401156
 30
0.0
 40
5.352655712586298
100
AcDbArc
 50
213.4117304855432
 51
281.58826951446
  0
ARC
  5
1D45
330
1E
100
AcDbEntity
  8
SCHRAFF
100
AcDbCircle
 10
191.0632374819622
 20
368.3648116647773
 30
0.0
 40
5.352655712586298
100
AcDbArc
 50
213.4117304855432
 51
281.58826951446
  0
ARC
  5
1D46
330
1E
100
AcDbEntity
  8
SCHRAFF
100
AcDbCircle
 10
189.1498203201368
 20
363.745414002221
 30
0.0
 40
5.352655712586298
100
AcDbArc
 50
213.4117304855432
 51
281.58826951446
  0
ARC
  5
1D47
330
1E
100
AcDbEntity
  8
SCHRAFF
100
AcDbCircle
 10
196.8034889674386
 20
382.2230046524465
 30
0.0
 40
5.352655712586298
100
AcDbArc
 50
213.4117304855432
 51
281.58826951446
  0
ARC
  5
1D48
330
1E
100
AcDbEntity
  8
SCHRAFF
100
AcDbCircle
 10
194.8900718056131
 20
377.6036069898901
 30
0.0
 40
5.352655712586298
100
AcDbArc
 50
213.4117304855432
 51
281.58826951446
  0
ARC
  5
1D49
330
1E
100
AcDbEntity
  8
SCHRAFF
100
AcDbCircle
 10
192.9766546437877
 20
372.9842093273337
 30
0.0
 40
5.352655712586298
100
AcDbArc
 50
213.4117304855432
 51
281.58826951446
  0
ARC
  5
1D4A
330
1E
100
AcDbEntity
  8
SCHRAFF
100
AcDbCircle
 10
198.7169061292639
 20
386.8424023150029
 30
0.0
 40
5.352655712586298
100
AcDbArc
 50
213.4117304855432
 51
281.58826951446
  0
ARC
  5
1D4B
330
1E
100
AcDbEntity
  8
SCHRAFF
100
AcDbCircle
 10
200.6303232910895
 20
391.4617999775593
 30
0.0
 40
5.352655712586298
100
AcDbArc
 50
213.4117304855432
 51
281.58826951446
  0
ARC
  5
1D4C
330
1E
100
AcDbEntity
  8
SCHRAFF
100
AcDbCircle
 10
212.110826262042
 20
419.1781859528976
 30
0.0
 40
5.352655712586298
100
AcDbArc
 50
213.4117304855432
 51
281.58826951446
  0
ARC
  5
1D4D
330
1E
100
AcDbEntity
  8
SCHRAFF
100
AcDbCircle
 10
208.2839919383911
 20
409.939390627785
 30
0.0
 40
5.352655712586298
100
AcDbArc
 50
213.4117304855432
 51
281.58826951446
  0
ARC
  5
1D4E
330
1E
100
AcDbEntity
  8
SCHRAFF
100
AcDbCircle
 10
206.3705747765658
 20
405.3199929652285
 30
0.0
 40
5.352655712586298
100
AcDbArc
 50
213.4117304855432
 51
281.58826951446
  0
ARC
  5
1D4F
330
1E
100
AcDbEntity
  8
SCHRAFF
100
AcDbCircle
 10
210.1974091002166
 20
414.5587882903412
 30
0.0
 40
5.352655712586298
100
AcDbArc
 50
213.4117304855432
 51
281.58826951446
  0
ARC
  5
1D52
330
1E
100
AcDbEntity
  8
SCHRAFF
100
AcDbCircle
 10
215.9376605856929
 20
428.4169812780105
 30
0.0
 40
5.352655712586298
100
AcDbArc
 50
213.4117304855432
 51
281.58826951446
  0
ARC
  5
1D53
330
1E
100
AcDbEntity
  8
SCHRAFF
100
AcDbCircle
 10
214.0242434238674
 20
423.7975836154541
 30
0.0
 40
5.352655712586298
100
AcDbArc
 50
213.4117304855432
 51
281.58826951446
  0
ARC
  5
1D56
330
1E
100
AcDbEntity
  8
SCHRAFF
100
AcDbCircle
 10
217.8510777475183
 20
433.0363789405669
 30
0.0
 40
5.352655712586298
100
AcDbArc
 50
213.4117304855432
 51
281.58826951446
  0
ARC
  5
1D5B
102
{ACAD_REACTORS
330
1D60
102
}
330
1E
100
AcDbEntity
  8
SCHRAFF
100
AcDbCircle
 10
218.3919282929875
 20
434.3421076626547
 30
0.0
 40
6.059043724988613
100
AcDbArc
 50
37.82183280522843
 51
97.17816719477347
  0
HATCH
  5
1D60
330
1E
100
AcDbEntity
  8
SCHRAFF
100
AcDbHatch
 10
0.0
 20
0.0
 30
0.0
210
0.0
220
0.0
230
1.0
  2
_USER
 70
     0
 71
     1
 91
        1
 92
        7
 72
     1
 73
     1
 93
        3
 10
217.6348194248155
 20
432.5142851649214
 42
0.0
 10
223.1780966198832
 20
438.0575623599892
 42
0.2649412843116706
 10
217.6348194248155
 20
440.3536629541796
 42
0.0
 97
        3
330
1D5B
330
1B2B
330
1B2A
 75
     0
 76
     0
 52
0.0
 41
0.1
 77
     0
 78
     1
 53
0.0
 43
0.0
 44
-9.288208074943668
 45
0.0
 46
0.1
 79
     0
 47
0.0924589715220123
 98
        1
 10
218.9218567324128
 20
437.7708328041032
  0
DIMENSION
  5
1DA5
330
1E
100
AcDbEntity
  8
BEM
100
AcDbDimension
  2
*D6
 10
151.1348194248155
 20
136.9690832671107
 30
0.0
 11
270.7599330918584
 21
560.7696550825088
 31
0.0
 70
    34
 71
     5
 42
0.7853981633974483
  3
Standard
100
AcDb2LineAngularDimension
 13
356.1957859689143
 23
477.0300498112093
 33
0.0
 14
151.1348194248155
 24
271.9690832671107
 34
0.0
 15
151.1348194248154
 25
561.9723761714405
 35
0.0
 16
304.1825626113007
 26
537.0555504498563
 36
0.0
1001
ACAD
1000
DSTYLE
1002
{
1070
    40
1040
2.0
1070
    41
1040
3.5
1070
    42
1040
1.0
1070
    43
1040
7.0
1070
    44
1040
1.0
1070
    73
1070
     0
1070
    74
1070
     0
1070
    77
1070
     1
1070
    78
1070
     8
1070
    79
1070
     2
1070
   140
1040
3.5
1070
   141
1040
1.5
1070
   146
1040
0.5142857142857144
1070
   147
1040
1.5
1070
   172
1070
     1
1070
   178
1070
     1
1070
   179
1070
     2
1070
   271
1070
     2
1070
   272
1070
     2
1070
   284
1070
     8
1070
   285
1070
     8
1070
   286
1070
     8
1002
}
  0
TEXT
  5
1DE1
330
1E
100
AcDbEntity
  8
TEXT
100
AcDbText
 10
41.85509950977674
 20
111.6719999999999
 30
0.0
 40
5.0
  1
Erstellt mit AUTOCAD 2004
 41
0.8
  7
GREEKS
100
AcDbText
  0
TEXT
  5
1DE2
330
1E
100
AcDbEntity
  8
TEXT
100
AcDbText
 10
153.5163572150377
 20
102.4620895087088
 30
0.0
 40
5.0
  1
Maßstab
 41
0.8
  7
GREEKS
100
AcDbText
  0
TEXT
  5
1DE3
330
1E
100
AcDbEntity
  8
TEXT
100
AcDbText
 10
192.6882715247924
 20
89.7791437153694
 30
0.0
 40
4.0
  1
DIN EN1124-3
 41
0.8
  7
GREEKS
 72
     1
 11
209.6787477152686
 21
89.7791437153694
 31
0.0
100
AcDbText
  0
TEXT
  5
1DE4
330
1E
100
AcDbEntity
  8
TEXT
100
AcDbText
 10
67.65811831396264
 20
18.34829198486668
 30
0.0
 40
4.0
  1
Änderung
 41
0.8
  7
GREEKS
 72
     1
 11
78.40097545681979
 21
18.34829198486668
 31
0.0
100
AcDbText
  0
TEXT
  5
1DE5
330
1E
100
AcDbEntity
  8
TEXT
100
AcDbText
 10
110.462610504336
 20
18.6715626933981
 30
0.0
 40
4.0
  1
Tag
 41
0.8
  7
GREEKS
 72
     1
 11
114.1959438376693
 21
18.6715626933981
 31
0.0
100
AcDbText
  0
TEXT
  5
1DE6
330
1E
100
AcDbEntity
  8
TEXT
100
AcDbText
 10
128.9002860979178
 20
18.59324216966408
 30
0.0
 40
4.0
  1
Name
 41
0.8
  7
GREEKS
 72
     1
 11
135.2240956217273
 21
18.59324216966408
 31
0.0
100
AcDbText
  0
TEXT
  5
1DE7
330
1E
100
AcDbEntity
  8
BEM
100
AcDbText
 10
416.5811541437436
 20
12.14804815338303
 30
0.0
 40
4.0
  1
Diese Zeichnung ist urheberrechtlich geschützt und bleibt unser Eigentum. Sie darf weder ganz noch teilweise vervielfältigt und nicht an Dritte weitergegeben werden.
 50
90.0
 41
0.8
  7
GREEKS
100
AcDbText
  0
TEXT
  5
1DE8
330
1E
100
AcDbEntity
  8
TEXT
100
AcDbText
 10
336.7238616296993
 20
73.1811823709997
 30
0.0
 40
5.0
  1
Ersatz für:
 41
0.8
  7
GREEKS
100
AcDbText
  0
ENDSEC
  0
SECTION
  2
OBJECTS
  0
DICTIONARY
  5
C
330
0
100
AcDbDictionary
281
     1
  3
ACAD_COLOR
350
1DCA
  3
ACAD_GROUP
350
D
  3
ACAD_LAYOUT
350
19
  3
ACAD_MATERIAL
350
1DC9
  3
ACAD_MLINESTYLE
350
16
  3
ACAD_PLOTSETTINGS
350
18
  3
ACAD_PLOTSTYLENAME
350
E
  3
AcDbVariableDictionary
350
246
  0
DICTIONARY
  5
1DCA
102
{ACAD_REACTORS
330
C
102
}
330
C
100
AcDbDictionary
281
     1
  0
DICTIONARY
  5
D
102
{ACAD_REACTORS
330
C
102
}
330
C
100
AcDbDictionary
281
     1
  0
DICTIONARY
  5
19
102
{ACAD_REACTORS
330
C
102
}
330
C
100
AcDbDictionary
281
     1
  3
Layout1
350
1D
  3
Model
350
21
  0
DICTIONARY
  5
1DC9
102
{ACAD_REACTORS
330
C
102
}
330
C
100
AcDbDictionary
281
     1
  0
DICTIONARY
  5
16
102
{ACAD_REACTORS
330
C
102
}
330
C
100
AcDbDictionary
281
     1
  3
Standard
350
17
  0
DICTIONARY
  5
18
102
{ACAD_REACTORS
330
C
102
}
330
C
100
AcDbDictionary
281
     1
  0
ACDBDICTIONARYWDFLT
  5
E
102
{ACAD_REACTORS
330
C
102
}
330
C
100
AcDbDictionary
281
     1
  3
Normal
350
F
100
AcDbDictionaryWithDefault
340
F
  0
DICTIONARY
  5
246
102
{ACAD_REACTORS
330
C
102
}
330
C
100
AcDbDictionary
281
     1
  3
DIMASSOC
350
1DFB
  3
PROJECTNAME
350
1DFC
  3
SORTENTS
350
247
  0
LAYOUT
  5
1D
102
{ACAD_REACTORS
330
19
102
}
330
19
100
AcDbPlotSettings
  1

  2
Tektronix Phaser 740
  4

  6

 40
0.0
 41
0.0
 42
0.0
 43
0.0
 44
0.0
 45
0.0
 46
0.0
 47
0.0
 48
0.0
 49
0.0
140
0.0
141
0.0
142
1.0
143
1.0
 70
   688
 72
     0
 73
     0
 74
     5
  7
monochrome.ctb
 75
    16
147
1.0
 76
     0
 77
     2
 78
   300
148
0.0
149
0.0
100
AcDbLayout
  1
Layout1
 70
     0
 71
     1
 10
0.0
 20
0.0
 11
12.0
 21
9.0
 12
0.0
 22
0.0
 32
0.0
 14
1.000000000000000E+20
 24
1.000000000000000E+20
 34
1.000000000000000E+20
 15
-1.000000000000000E+20
 25
-1.000000000000000E+20
 35
-1.000000000000000E+20
146
0.0
 13
0.0
 23
0.0
 33
0.0
 16
1.0
 26
0.0
 36
0.0
 17
0.0
 27
1.0
 37
0.0
 76
     0
330
1A
  0
LAYOUT
  5
21
102
{ACAD_REACTORS
330
19
102
}
330
19
100
AcDbPlotSettings
  1

  2
Tektronix Phaser 740
  4
A4
  6

 40
5.873749732971191
 41
6.085414409637451
 42
5.577407836914062
 43
5.662078857421875
 44
209.9733276367187
 45
296.9683227539062
 46
0.0
 47
0.0
 48
0.0
 49
0.0
140
0.0
141
0.0
142
1.0
143
1.0
 70
 11952
 72
     0
 73
     1
 74
     0
  7
monochrome.ctb
 75
     0
147
1.0
 76
     0
 77
     2
 78
   300
148
1150.120678237584
149
45.30495740799864
100
AcDbLayout
  1
Model
 70
     1
 71
     0
 10
0.0
 20
0.0
 11
12.0
 21
9.0
 12
0.0
 22
0.0
 32
0.0
 14
0.0
 24
0.0
 34
0.0
 15
0.0
 25
0.0
 35
0.0
146
0.0
 13
0.0
 23
0.0
 33
0.0
 16
1.0
 26
0.0
 36
0.0
 17
0.0
 27
1.0
 37
0.0
 76
     0
330
1E
  0
MLINESTYLE
  5
17
102
{ACAD_REACTORS
330
16
102
}
330
16
100
AcDbMlineStyle
  2
STANDARD
 70
     0
  3

 62
   256
 51
90.0
 52
90.0
 71
     2
 49
0.5
 62
   256
  6
BYLAYER
 49
-0.5
 62
   256
  6
BYLAYER
  0
ACDBPLACEHOLDER
  5
F
102
{ACAD_REACTORS
330
E
102
}
330
E
  0
DICTIONARYVAR
  5
1DFB
102
{ACAD_REACTORS
330
246
102
}
330
246
100
DictionaryVariables
280
     0
  1
1
  0
DICTIONARYVAR
  5
1DFC
102
{ACAD_REACTORS
330
246
102
}
330
246
100
DictionaryVariables
280
     0
  1

  0
DICTIONARYVAR
  5
247
102
{ACAD_REACTORS
330
246
102
}
330
246
100
DictionaryVariables
280
     0
  1
96
  0
ENDSEC
  0
EOF
