  0
SECTION
  2
HEADER
  9
$ACADVER
  1
AC1018
  9
$ACADMAINTVER
 70
     2
  9
$DWGCODEPAGE
  3
ANSI_1252
  9
$INSBASE
 10
0.0
 20
0.0
 30
0.0
  9
$EXTMIN
 10
-0.0063978361731643
 20
-0.0090483683025013
 30
-0.0000000000000023
  9
$EXTMAX
 10
420.0064129945077
 20
594.0090698065175
 30
0.000000000000013
  9
$LIMMIN
 10
0.0
 20
0.0
  9
$LIMMAX
 10
419.9999999999999
 20
594.0
  9
$ORTHOMODE
 70
     1
  9
$REGENMODE
 70
     1
  9
$FILLMODE
 70
     1
  9
$QTEXTMODE
 70
     0
  9
$MIRRTEXT
 70
     1
  9
$LTSCALE
 40
20.0
  9
$ATTMODE
 70
     1
  9
$TEXTSIZE
 40
3.5
  9
$TRACEWID
 40
0.5
  9
$TEXTSTYLE
  7
STANDARD
  9
$CLAYER
  8
SCHRAFF
  9
$CELTYPE
  6
ByLayer
  9
$CECOLOR
 62
   256
  9
$CELTSCALE
 40
1.0
  9
$DISPSILH
 70
     0
  9
$DIMSCALE
 40
2.0
  9
$DIMASZ
 40
3.5
  9
$DIMEXO
 40
1.0
  9
$DIMDLI
 40
7.0
  9
$DIMRND
 40
0.0
  9
$DIMDLE
 40
0.0
  9
$DIMEXE
 40
1.0
  9
$DIMTP
 40
0.0
  9
$DIMTM
 40
0.0
  9
$DIMTXT
 40
3.5
  9
$DIMCEN
 40
1.5
  9
$DIMTSZ
 40
0.0
  9
$DIMTOL
 70
     0
  9
$DIMLIM
 70
     0
  9
$DIMTIH
 70
     0
  9
$DIMTOH
 70
     0
  9
$DIMSE1
 70
     0
  9
$DIMSE2
 70
     0
  9
$DIMTAD
 70
     1
  9
$DIMZIN
 70
     8
  9
$DIMBLK
  1

  9
$DIMASO
 70
     1
  9
$DIMSHO
 70
     0
  9
$DIMPOST
  1

  9
$DIMAPOST
  1

  9
$DIMALT
 70
     0
  9
$DIMALTD
 70
     2
  9
$DIMALTF
 40
25.4
  9
$DIMLFAC
 40
1.0
  9
$DIMTOFL
 70
     1
  9
$DIMTVP
 40
0.0
  9
$DIMTIX
 70
     0
  9
$DIMSOXD
 70
     0
  9
$DIMSAH
 70
     0
  9
$DIMBLK1
  1

  9
$DIMBLK2
  1

  9
$DIMSTYLE
  2
Standard
  9
$DIMCLRD
 70
     0
  9
$DIMCLRE
 70
     0
  9
$DIMCLRT
 70
     1
  9
$DIMTFAC
 40
0.5142857142857144
  9
$DIMGAP
 40
1.5
  9
$DIMJUST
 70
     0
  9
$DIMSD1
 70
     0
  9
$DIMSD2
 70
     0
  9
$DIMTOLJ
 70
     1
  9
$DIMTZIN
 70
     8
  9
$DIMALTZ
 70
     8
  9
$DIMALTTZ
 70
     8
  9
$DIMUPT
 70
     0
  9
$DIMDEC
 70
     2
  9
$DIMTDEC
 70
     2
  9
$DIMALTU
 70
     2
  9
$DIMALTTD
 70
     2
  9
$DIMTXSTY
  7
STANDARD
  9
$DIMAUNIT
 70
     0
  9
$DIMADEC
 70
     2
  9
$DIMALTRND
 40
0.0
  9
$DIMAZIN
 70
     2
  9
$DIMDSEP
 70
    46
  9
$DIMATFIT
 70
     3
  9
$DIMFRAC
 70
     0
  9
$DIMLDRBLK
  1

  9
$DIMLUNIT
 70
     2
  9
$DIMLWD
 70
    -2
  9
$DIMLWE
 70
    -2
  9
$DIMTMOVE
 70
     0
  9
$LUNITS
 70
     2
  9
$LUPREC
 70
     2
  9
$SKETCHINC
 40
1.0
  9
$FILLETRAD
 40
0.0
  9
$AUNITS
 70
     1
  9
$AUPREC
 70
     3
  9
$MENU
  1
ACAD
  9
$ELEVATION
 40
0.0
  9
$PELEVATION
 40
0.0
  9
$THICKNESS
 40
0.0
  9
$LIMCHECK
 70
     0
  9
$CHAMFERA
 40
0.0
  9
$CHAMFERB
 40
0.0
  9
$CHAMFERC
 40
0.0
  9
$CHAMFERD
 40
0.0
  9
$SKPOLY
 70
     0
  9
$TDCREATE
 40
2452040.637099653
  9
$TDUCREATE
 40
2452040.553766320
  9
$TDUPDATE
 40
2455660.322592581
  9
$TDUUPDATE
 40
2455660.239259248
  9
$TDINDWG
 40
0.4087689005
  9
$TDUSRTIMER
 40
0.4087689005
  9
$USRTIMER
 70
     1
  9
$ANGBASE
 50
0.0
  9
$ANGDIR
 70
     0
  9
$PDMODE
 70
     0
  9
$PDSIZE
 40
0.0
  9
$PLINEWID
 40
0.0
  9
$SPLFRAME
 70
     0
  9
$SPLINETYPE
 70
     6
  9
$SPLINESEGS
 70
     8
  9
$HANDSEED
  5
13CA
  9
$SURFTAB1
 70
     6
  9
$SURFTAB2
 70
     6
  9
$SURFTYPE
 70
     6
  9
$SURFU
 70
     6
  9
$SURFV
 70
     6
  9
$UCSBASE
  2

  9
$UCSNAME
  2

  9
$UCSORG
 10
0.0
 20
0.0
 30
0.0
  9
$UCSXDIR
 10
1.0
 20
0.0
 30
0.0
  9
$UCSYDIR
 10
0.0
 20
1.0
 30
0.0
  9
$UCSORTHOREF
  2

  9
$UCSORTHOVIEW
 70
     0
  9
$UCSORGTOP
 10
0.0
 20
0.0
 30
0.0
  9
$UCSORGBOTTOM
 10
0.0
 20
0.0
 30
0.0
  9
$UCSORGLEFT
 10
0.0
 20
0.0
 30
0.0
  9
$UCSORGRIGHT
 10
0.0
 20
0.0
 30
0.0
  9
$UCSORGFRONT
 10
0.0
 20
0.0
 30
0.0
  9
$UCSORGBACK
 10
0.0
 20
0.0
 30
0.0
  9
$PUCSBASE
  2

  9
$PUCSNAME
  2

  9
$PUCSORG
 10
0.0
 20
0.0
 30
0.0
  9
$PUCSXDIR
 10
1.0
 20
0.0
 30
0.0
  9
$PUCSYDIR
 10
0.0
 20
1.0
 30
0.0
  9
$PUCSORTHOREF
  2

  9
$PUCSORTHOVIEW
 70
     0
  9
$PUCSORGTOP
 10
0.0
 20
0.0
 30
0.0
  9
$PUCSORGBOTTOM
 10
0.0
 20
0.0
 30
0.0
  9
$PUCSORGLEFT
 10
0.0
 20
0.0
 30
0.0
  9
$PUCSORGRIGHT
 10
0.0
 20
0.0
 30
0.0
  9
$PUCSORGFRONT
 10
0.0
 20
0.0
 30
0.0
  9
$PUCSORGBACK
 10
0.0
 20
0.0
 30
0.0
  9
$USERI1
 70
     0
  9
$USERI2
 70
     0
  9
$USERI3
 70
     0
  9
$USERI4
 70
     0
  9
$USERI5
 70
     0
  9
$USERR1
 40
0.0
  9
$USERR2
 40
0.0
  9
$USERR3
 40
0.0
  9
$USERR4
 40
0.0
  9
$USERR5
 40
0.0
  9
$WORLDVIEW
 70
     1
  9
$SHADEDGE
 70
     3
  9
$SHADEDIF
 70
    70
  9
$TILEMODE
 70
     1
  9
$MAXACTVP
 70
    16
  9
$PINSBASE
 10
0.0
 20
0.0
 30
0.0
  9
$PLIMCHECK
 70
     0
  9
$PEXTMIN
 10
1.000000000000000E+20
 20
1.000000000000000E+20
 30
1.000000000000000E+20
  9
$PEXTMAX
 10
-1.000000000000000E+20
 20
-1.000000000000000E+20
 30
-1.000000000000000E+20
  9
$PLIMMIN
 10
0.0
 20
0.0
  9
$PLIMMAX
 10
12.0
 20
9.0
  9
$UNITMODE
 70
     0
  9
$VISRETAIN
 70
     0
  9
$PLINEGEN
 70
     0
  9
$PSLTSCALE
 70
     0
  9
$TREEDEPTH
 70
  3020
  9
$CMLSTYLE
  2
Standard
  9
$CMLJUST
 70
     0
  9
$CMLSCALE
 40
1.0
  9
$PROXYGRAPHICS
 70
     1
  9
$MEASUREMENT
 70
     0
  9
$CELWEIGHT
370
    -1
  9
$ENDCAPS
280
     0
  9
$JOINSTYLE
280
     0
  9
$LWDISPLAY
290
     0
  9
$INSUNITS
 70
     0
  9
$HYPERLINKBASE
  1

  9
$STYLESHEET
  1
monochrome 1.ctb
  9
$XEDIT
290
     1
  9
$CEPSNTYPE
380
     0
  9
$PSTYLEMODE
290
     1
  9
$FINGERPRINTGUID
  2
{7AADB5C8-6110-11D8-B72B-000102183313}
  9
$VERSIONGUID
  2
{1EB1CF18-C126-4DD4-AE58-662D88E756F3}
  9
$EXTNAMES
290
     1
  9
$PSVPSCALE
 40
0.0
  9
$OLESTARTUP
290
     0
  9
$SORTENTS
280
    96
  9
$INDEXCTL
280
     0
  9
$HIDETEXT
280
     0
  9
$XCLIPFRAME
290
     0
  9
$HALOGAP
280
     0
  9
$OBSCOLOR
 70
   257
  9
$OBSLTYPE
280
     0
  9
$INTERSECTIONDISPLAY
280
     0
  9
$INTERSECTIONCOLOR
 70
   257
  9
$DIMASSOC
280
     1
  9
$PROJECTNAME
  1

  0
ENDSEC
  0
SECTION
  2
CLASSES
  0
CLASS
  1
ACDBDICTIONARYWDFLT
  2
AcDbDictionaryWithDefault
  3
ObjectDBX Classes
 90
        0
 91
        1
280
     0
281
     0
  0
CLASS
  1
DICTIONARYVAR
  2
AcDbDictionaryVar
  3
ObjectDBX Classes
 90
        0
 91
        3
280
     0
281
     0
  0
ENDSEC
  0
SECTION
  2
TABLES
  0
TABLE
  2
VPORT
  5
8
330
0
100
AcDbSymbolTable
 70
     3
  0
VPORT
  5
13C9
330
8
100
AcDbSymbolTableRecord
100
AcDbViewportTableRecord
  2
*Active
 70
     0
 10
0.0
 20
0.0
 11
1.0
 21
1.0
 12
210.0
 22
297.0
 13
0.0
 23
0.0
 14
1.0
 24
1.0
 15
10.0
 25
10.0
 16
0.0
 26
0.0
 36
1.0
 17
0.0
 27
0.0
 37
0.0
 40
594.0
 41
1.334231805929919
 42
50.0
 43
0.0
 44
0.0
 50
0.0
 51
0.0
 71
     0
 72
  1500
 73
     1
 74
     0
 75
     0
 76
     0
 77
     0
 78
     0
281
     0
 65
     1
110
0.0
120
0.0
130
0.0
111
1.0
121
0.0
131
0.0
112
0.0
122
1.0
132
0.0
 79
     0
146
0.0
  0
ENDTAB
  0
TABLE
  2
LTYPE
  5
5
330
0
100
AcDbSymbolTable
 70
     2
  0
LTYPE
  5
13
330
5
100
AcDbSymbolTableRecord
100
AcDbLinetypeTableRecord
  2
ByBlock
 70
     0
  3

 72
    65
 73
     0
 40
0.0
  0
LTYPE
  5
14
330
5
100
AcDbSymbolTableRecord
100
AcDbLinetypeTableRecord
  2
ByLayer
 70
     0
  3

 72
    65
 73
     0
 40
0.0
  0
LTYPE
  5
15
330
5
100
AcDbSymbolTableRecord
100
AcDbLinetypeTableRecord
  2
Continuous
 70
     0
  3
Solid line
 72
    65
 73
     0
 40
0.0
  0
LTYPE
  5
35
330
5
100
AcDbSymbolTableRecord
100
AcDbLinetypeTableRecord
  2
STRICHPUNKT
 70
     0
  3
__ . __ . __ . __ . __ . __ . __ . __ . __ . __
 72
    65
 73
     4
 40
1.0
 49
0.5
 74
     0
 49
-0.25
 74
     0
 49
0.0
 74
     0
 49
-0.25
 74
     0
  0
ENDTAB
  0
TABLE
  2
LAYER
  5
2
330
0
100
AcDbSymbolTable
 70
     9
  0
LAYER
  5
10
330
2
100
AcDbSymbolTableRecord
100
AcDbLayerTableRecord
  2
0
 70
     0
 62
     7
  6
Continuous
370
    -3
390
F
  0
LAYER
  5
38
330
2
100
AcDbSymbolTableRecord
100
AcDbLayerTableRecord
  2
VOLL
 70
     0
 62
     1
  6
Continuous
370
    -3
390
F
  0
LAYER
  5
39
330
2
100
AcDbSymbolTableRecord
100
AcDbLayerTableRecord
  2
HILF
 70
     0
 62
     2
  6
Continuous
370
    -3
390
F
  0
LAYER
  5
3A
330
2
100
AcDbSymbolTableRecord
100
AcDbLayerTableRecord
  2
MITTEL
 70
     0
 62
     2
  6
STRICHPUNKT
370
    -3
390
F
  0
LAYER
  5
3B
330
2
100
AcDbSymbolTableRecord
100
AcDbLayerTableRecord
  2
BEM
 70
     0
 62
     7
  6
Continuous
370
    -3
390
F
  0
LAYER
  5
3C
330
2
100
AcDbSymbolTableRecord
100
AcDbLayerTableRecord
  2
STEMPEL
 70
     0
 62
     3
  6
Continuous
370
    -3
390
F
  0
LAYER
  5
3D
330
2
100
AcDbSymbolTableRecord
100
AcDbLayerTableRecord
  2
TEXT
 70
     0
 62
     7
  6
Continuous
370
    -3
390
F
  0
LAYER
  5
3E
330
2
100
AcDbSymbolTableRecord
100
AcDbLayerTableRecord
  2
DEFPOINTS
 70
     0
 62
     7
  6
Continuous
290
     0
370
    -3
390
F
  0
LAYER
  5
3F
330
2
100
AcDbSymbolTableRecord
100
AcDbLayerTableRecord
  2
SCHRAFF
 70
     0
 62
     7
  6
Continuous
370
    -3
390
F
  0
ENDTAB
  0
TABLE
  2
STYLE
  5
3
330
0
100
AcDbSymbolTable
 70
     2
  0
STYLE
  5
11
330
3
100
AcDbSymbolTableRecord
100
AcDbTextStyleTableRecord
  2
STANDARD
 70
     0
 40
0.0
 41
0.8
 50
0.0
 71
     0
 42
3.5
  3
simplex.shx
  4

  0
STYLE
  5
34
330
3
100
AcDbSymbolTableRecord
100
AcDbTextStyleTableRecord
  2
GREEKS
 70
     0
 40
0.0
 41
0.8
 50
0.0
 71
     0
 42
2.5
  3
SIMPLEX.shx
  4

  0
ENDTAB
  0
TABLE
  2
VIEW
  5
6
330
0
100
AcDbSymbolTable
 70
     0
  0
ENDTAB
  0
TABLE
  2
UCS
  5
7
330
0
100
AcDbSymbolTable
 70
     0
  0
ENDTAB
  0
TABLE
  2
APPID
  5
9
330
0
100
AcDbSymbolTable
 70
     1
  0
APPID
  5
12
330
9
100
AcDbSymbolTableRecord
100
AcDbRegAppTableRecord
  2
ACAD
 70
     0
  0
ENDTAB
  0
TABLE
  2
DIMSTYLE
  5
A
330
0
100
AcDbSymbolTable
 70
     1
100
AcDbDimStyleTable
 71
     1
340
1CB
  0
DIMSTYLE
105
1CB
102
{ACAD_REACTORS
330
1DB
330
D41
330
E1B
330
10AC
330
127E
102
}
330
A
100
AcDbSymbolTableRecord
100
AcDbDimStyleTableRecord
  2
Standard
 70
     0
340
11
  0
ENDTAB
  0
TABLE
  2
BLOCK_RECORD
  5
1
330
0
100
AcDbSymbolTable
 70
     7
  0
BLOCK_RECORD
  5
1E
330
1
100
AcDbSymbolTableRecord
100
AcDbBlockTableRecord
  2
*Model_Space
340
21
  0
BLOCK_RECORD
  5
1A
330
1
100
AcDbSymbolTableRecord
100
AcDbBlockTableRecord
  2
*Paper_Space
340
1D
  0
BLOCK_RECORD
  5
22
330
1
100
AcDbSymbolTableRecord
100
AcDbBlockTableRecord
  2
LOGO
340
0
102
{BLKREFS
331
135
102
}
  0
BLOCK_RECORD
  5
1DC
330
1
100
AcDbSymbolTableRecord
100
AcDbBlockTableRecord
  2
*D1
340
0
  0
BLOCK_RECORD
  5
D42
330
1
100
AcDbSymbolTableRecord
100
AcDbBlockTableRecord
  2
*D3
340
0
  0
BLOCK_RECORD
  5
E1C
330
1
100
AcDbSymbolTableRecord
100
AcDbBlockTableRecord
  2
*D4
340
0
  0
BLOCK_RECORD
  5
10AD
330
1
100
AcDbSymbolTableRecord
100
AcDbBlockTableRecord
  2
*D5
340
0
  0
BLOCK_RECORD
  5
127F
330
1
100
AcDbSymbolTableRecord
100
AcDbBlockTableRecord
  2
*D6
340
0
  0
ENDTAB
  0
ENDSEC
  0
SECTION
  2
BLOCKS
  0
BLOCK
  5
43
330
1E
100
AcDbEntity
  8
0
100
AcDbBlockBegin
  2
*Model_Space
 70
     0
 10
0.0
 20
0.0
 30
0.0
  3
*Model_Space
  1

  0
ENDBLK
  5
44
330
1E
100
AcDbEntity
  8
0
100
AcDbBlockEnd
  0
BLOCK
  5
41
330
1A
100
AcDbEntity
 67
     1
  8
0
100
AcDbBlockBegin
  2
*Paper_Space
 70
     0
 10
0.0
 20
0.0
 30
0.0
  3
*Paper_Space
  1

  0
ENDBLK
  5
42
330
1A
100
AcDbEntity
 67
     1
  8
0
100
AcDbBlockEnd
  0
BLOCK
  5
45
330
22
100
AcDbEntity
  8
0
100
AcDbBlockBegin
  2
LOGO
 70
     0
 10
0.0
 20
0.0
 30
0.0
  3
LOGO
  1

  0
ARC
  5
46
330
22
100
AcDbEntity
  8
0
100
AcDbCircle
 10
11.59973089678112
 20
-9.271599258481501
 30
0.0
 40
4.5
100
AcDbArc
 50
270.0
 51
231.0575587310159
  0
LINE
  5
47
330
22
100
AcDbEntity
  8
0
100
AcDbLine
 10
3.599730896781125
 20
-4.771599258481529
 30
0.0
 11
3.599730896781153
 21
-11.77159925848133
 31
0.0
  0
LINE
  5
48
330
22
100
AcDbEntity
  8
0
100
AcDbLine
 10
2.599730896781125
 20
-4.771599258481529
 30
0.0
 11
2.599730896781153
 21
-11.77159925848133
 31
0.0
  0
CIRCLE
  5
49
330
22
100
AcDbEntity
  8
0
100
AcDbCircle
 10
11.59973089678112
 20
-9.271599258481501
 30
0.0
 40
3.5
  0
ARC
  5
4A
330
22
100
AcDbEntity
  8
0
100
AcDbCircle
 10
31.59973089678115
 20
-9.271599258481472
 30
0.0
 40
4.5
100
AcDbArc
 50
270.0
 51
231.0575587310182
  0
LINE
  5
4B
330
22
100
AcDbEntity
  8
0
100
AcDbLine
 10
17.59973089678112
 20
-4.771599258481472
 30
0.0
 11
17.59973089678115
 21
-13.77159925848147
 31
0.0
  0
ARC
  5
4C
330
22
100
AcDbEntity
  8
0
100
AcDbCircle
 10
22.59973089678116
 20
-7.271599258481472
 30
0.0
 40
2.5
100
AcDbArc
 50
293.1161887722295
 51
90.0
  0
CIRCLE
  5
4D
330
22
100
AcDbEntity
  8
0
100
AcDbCircle
 10
31.59973089678115
 20
-9.271599258481472
 30
0.0
 40
3.5
  0
ARC
  5
4E
330
22
100
AcDbEntity
  8
0
100
AcDbCircle
 10
4.599730896781153
 20
-11.77159925848133
 30
0.0
 40
1.0
100
AcDbArc
 50
180.0
 51
270.0
  0
ARC
  5
4F
330
22
100
AcDbEntity
  8
0
100
AcDbCircle
 10
4.599730896781153
 20
-11.77159925848133
 30
0.0
 40
2.0
100
AcDbArc
 50
179.9999999999992
 51
270.0
  0
LINE
  5
50
330
22
100
AcDbEntity
  8
0
100
AcDbLine
 10
11.59973089678115
 20
-13.77159925848144
 30
0.0
 11
4.599730896781153
 21
-13.77159925848147
 31
0.0
  0
LINE
  5
51
330
22
100
AcDbEntity
  8
0
100
AcDbLine
 10
8.771303772034769
 20
-12.77159925848136
 30
0.0
 11
4.599730896781153
 21
-12.77159925848133
 31
0.0
  0
LINE
  5
52
330
22
100
AcDbEntity
  8
0
100
AcDbLine
 10
31.59973089678115
 20
-13.77159925848147
 30
0.0
 11
23.6715276665056
 21
-13.77159925848144
 31
0.0
  0
LINE
  5
53
330
22
100
AcDbEntity
  8
0
100
AcDbLine
 10
23.56565672307022
 20
-9.51278021337896
 30
0.0
 11
24.4388546544846
 21
-12.77159925848144
 31
0.0
  0
LINE
  5
54
330
22
100
AcDbEntity
  8
0
100
AcDbLine
 10
22.59973089678116
 20
-9.771599258481472
 30
0.0
 11
18.59973089678112
 21
-9.771599258481472
 31
0.0
  0
LINE
  5
55
330
22
100
AcDbEntity
  8
0
100
AcDbLine
 10
18.59973089678115
 20
-13.77159925848144
 30
0.0
 11
17.59973089678115
 21
-13.77159925848144
 31
0.0
  0
LINE
  5
56
330
22
100
AcDbEntity
  8
0
100
AcDbLine
 10
18.59973089678115
 20
-9.771599258481472
 30
0.0
 11
18.59973089678115
 21
-13.77159925848144
 31
0.0
  0
LINE
  5
57
330
22
100
AcDbEntity
  8
0
100
AcDbLine
 10
22.59973089678116
 20
-9.771599258481472
 30
0.0
 11
23.67152766650562
 21
-13.77159925848147
 31
0.0
  0
ARC
  5
58
330
22
100
AcDbEntity
  8
0
100
AcDbCircle
 10
22.59973089678116
 20
-7.271599258481472
 30
0.0
 40
2.5
100
AcDbArc
 50
270.0
 51
270.0000000000007
  0
LINE
  5
59
330
22
100
AcDbEntity
  8
0
100
AcDbLine
 10
28.77130377203494
 20
-12.77159925848147
 30
0.0
 11
24.43885465448463
 21
-12.77159925848144
 31
0.0
  0
LINE
  5
5A
330
22
100
AcDbEntity
  8
0
100
AcDbLine
 10
3.599730896781125
 20
-4.771599258481472
 30
0.0
 11
2.599730896781125
 21
-4.771599258481472
 31
0.0
  0
LINE
  5
5B
330
22
100
AcDbEntity
  8
0
100
AcDbLine
 10
22.59973089678116
 20
-8.771599258481472
 30
0.0
 11
18.59973089678115
 21
-8.771599258481472
 31
0.0
  0
LINE
  5
5C
330
22
100
AcDbEntity
  8
0
100
AcDbLine
 10
22.59973089678116
 20
-5.771599258481472
 30
0.0
 11
18.59973089678115
 21
-5.771599258481472
 31
0.0
  0
LINE
  5
5D
330
22
100
AcDbEntity
  8
0
100
AcDbLine
 10
22.59973089678116
 20
-4.771599258481472
 30
0.0
 11
17.59973089678115
 21
-4.771599258481472
 31
0.0
  0
LINE
  5
5E
330
22
100
AcDbEntity
  8
0
100
AcDbLine
 10
18.59973089678115
 20
-5.771599258481472
 30
0.0
 11
18.59973089678115
 21
-8.771599258481472
 31
0.0
  0
ARC
  5
5F
330
22
100
AcDbEntity
  8
0
100
AcDbCircle
 10
22.59973089678116
 20
-7.271599258481472
 30
0.0
 40
1.5
100
AcDbArc
 50
270.0
 51
90.0
  0
ENDBLK
  5
60
330
22
100
AcDbEntity
  8
0
100
AcDbBlockEnd
  0
BLOCK
  5
1E6
330
1DC
100
AcDbEntity
  8
0
100
AcDbBlockBegin
  2
*D1
 70
     1
 10
0.0
 20
0.0
 30
0.0
  3
*D1
  1

  0
LINE
  5
1385
330
1DC
100
AcDbEntity
  8
BEM
 62
     0
370
    -2
100
AcDbLine
 10
153.2462364693638
 20
232.9398643287417
 30
0.0
 11
115.7371179878775
 21
232.9398643287417
 31
0.0
  0
LINE
  5
1386
330
1DC
100
AcDbEntity
  8
BEM
 62
     0
370
    -2
100
AcDbLine
 10
150.0181552631539
 20
487.9431572330718
 30
0.0
 11
115.7371179878776
 21
487.9431572330719
 31
0.0
  0
LINE
  5
1387
330
1DC
100
AcDbEntity
  8
BEM
 62
     0
370
    -2
100
AcDbLine
 10
117.7371179878775
 20
239.9398643287417
 30
0.0
 11
117.7371179878776
 21
480.9431572330718
 31
0.0
  0
SOLID
  5
1388
330
1DC
100
AcDbEntity
  8
BEM
 62
     0
100
AcDbTrace
 10
116.5704513212108
 20
239.9398643287417
 30
0.0
 11
118.9037846545442
 21
239.9398643287417
 31
0.0
 12
117.7371179878775
 22
232.9398643287417
 32
0.0
 13
117.7371179878775
 23
232.9398643287417
 33
0.0
  0
SOLID
  5
1389
330
1DC
100
AcDbEntity
  8
BEM
 62
     0
100
AcDbTrace
 10
116.5704513212109
 20
480.9431572330718
 30
0.0
 11
118.9037846545442
 21
480.9431572330718
 31
0.0
 12
117.7371179878776
 22
487.9431572330719
 32
0.0
 13
117.7371179878776
 23
487.9431572330719
 33
0.0
  0
MTEXT
  5
138A
330
1DC
100
AcDbEntity
  8
BEM
 62
     1
100
AcDbMText
 10
111.2371179878775
 20
360.4415107809068
 30
0.0
 40
7.0
 41
0.0
 71
     5
 72
     1
  1
\A1;255
 11
0.0000000000000001
 21
1.0
 31
0.0
 73
     1
 44
1.0
  0
POINT
  5
138B
330
1DC
100
AcDbEntity
  8
DEFPOINTS
 62
     0
100
AcDbPoint
 10
155.2462364693638
 20
232.9398643287417
 30
0.0
  0
POINT
  5
138C
330
1DC
100
AcDbEntity
  8
DEFPOINTS
 62
     0
100
AcDbPoint
 10
152.0181552631539
 20
487.9431572330718
 30
0.0
  0
POINT
  5
138D
330
1DC
100
AcDbEntity
  8
DEFPOINTS
 62
     0
100
AcDbPoint
 10
117.7371179878776
 20
487.9431572330719
 30
0.0
  0
ENDBLK
  5
1E7
330
1DC
100
AcDbEntity
  8
0
100
AcDbBlockEnd
  0
BLOCK
  5
D4C
330
D42
100
AcDbEntity
  8
0
100
AcDbBlockBegin
  2
*D3
 70
     1
 10
0.0
 20
0.0
 30
0.0
  3
*D3
  1

  0
LINE
  5
12C5
330
D42
100
AcDbEntity
  8
BEM
 62
     0
370
    -2
100
AcDbLine
 10
154.8087931517342
 20
235.9398643287419
 30
0.0
 11
154.8087931517342
 21
210.0242363893328
 31
0.0
  0
LINE
  5
12C6
330
D42
100
AcDbEntity
  8
BEM
 62
     0
370
    -2
100
AcDbLine
 10
227.8087931517342
 20
235.9398643287422
 30
0.0
 11
227.8087931517342
 21
210.0242363893328
 31
0.0
  0
LINE
  5
12C7
330
D42
100
AcDbEntity
  8
BEM
 62
     0
370
    -2
100
AcDbLine
 10
161.8087931517342
 20
212.0242363893328
 30
0.0
 11
220.8087931517342
 21
212.0242363893328
 31
0.0
  0
SOLID
  5
12C8
330
D42
100
AcDbEntity
  8
BEM
 62
     0
100
AcDbTrace
 10
161.8087931517342
 20
213.1909030559995
 30
0.0
 11
161.8087931517342
 21
210.8575697226662
 31
0.0
 12
154.8087931517342
 22
212.0242363893328
 32
0.0
 13
154.8087931517342
 23
212.0242363893328
 33
0.0
  0
SOLID
  5
12C9
330
D42
100
AcDbEntity
  8
BEM
 62
     0
100
AcDbTrace
 10
220.8087931517342
 20
213.1909030559995
 30
0.0
 11
220.8087931517342
 21
210.8575697226662
 31
0.0
 12
227.8087931517342
 22
212.0242363893328
 32
0.0
 13
227.8087931517342
 23
212.0242363893328
 33
0.0
  0
MTEXT
  5
12CA
330
D42
100
AcDbEntity
  8
BEM
 62
     1
100
AcDbMText
 10
191.3087931517342
 20
218.5242363893328
 30
0.0
 40
7.0
 41
0.0
 71
     5
 72
     1
  1
\A1;%%c73
 73
     1
 44
1.0
  0
POINT
  5
12CB
330
D42
100
AcDbEntity
  8
DEFPOINTS
 62
     0
100
AcDbPoint
 10
154.8087931517342
 20
237.9398643287419
 30
0.0
  0
POINT
  5
12CC
330
D42
100
AcDbEntity
  8
DEFPOINTS
 62
     0
100
AcDbPoint
 10
227.8087931517342
 20
237.9398643287423
 30
0.0
  0
POINT
  5
12CD
330
D42
100
AcDbEntity
  8
DEFPOINTS
 62
     0
100
AcDbPoint
 10
227.8087931517342
 20
212.0242363893328
 30
0.0
  0
ENDBLK
  5
D4D
330
D42
100
AcDbEntity
  8
0
100
AcDbBlockEnd
  0
BLOCK
  5
E26
330
E1C
100
AcDbEntity
  8
0
100
AcDbBlockBegin
  2
*D4
 70
     1
 10
0.0
 20
0.0
 30
0.0
  3
*D4
  1

  0
LINE
  5
12B3
330
E1C
100
AcDbEntity
  8
BEM
 62
     0
370
    -2
100
AcDbLine
 10
153.2462364693638
 20
232.9398643287417
 30
0.0
 11
130.8698800912548
 21
232.9398643287417
 31
0.0
  0
LINE
  5
12B4
330
E1C
100
AcDbEntity
  8
BEM
 62
     0
370
    -2
100
AcDbLine
 10
189.3087931517342
 20
317.9398643287417
 30
0.0
 11
130.8698800912548
 21
317.9398643287417
 31
0.0
  0
LINE
  5
12B5
330
E1C
100
AcDbEntity
  8
BEM
 62
     0
370
    -2
100
AcDbLine
 10
132.8698800912548
 20
239.9398643287417
 30
0.0
 11
132.8698800912548
 21
310.9398643287418
 31
0.0
  0
SOLID
  5
12B6
330
E1C
100
AcDbEntity
  8
BEM
 62
     0
100
AcDbTrace
 10
131.7032134245881
 20
239.9398643287417
 30
0.0
 11
134.0365467579214
 21
239.9398643287417
 31
0.0
 12
132.8698800912548
 22
232.9398643287417
 32
0.0
 13
132.8698800912548
 23
232.9398643287417
 33
0.0
  0
SOLID
  5
12B7
330
E1C
100
AcDbEntity
  8
BEM
 62
     0
100
AcDbTrace
 10
131.7032134245881
 20
310.9398643287418
 30
0.0
 11
134.0365467579214
 21
310.9398643287418
 31
0.0
 12
132.8698800912548
 22
317.9398643287417
 32
0.0
 13
132.8698800912548
 23
317.9398643287417
 33
0.0
  0
MTEXT
  5
12B8
330
E1C
100
AcDbEntity
  8
BEM
 62
     1
100
AcDbMText
 10
126.3698800912547
 20
275.4398643287418
 30
0.0
 40
7.0
 41
0.0
 71
     5
 72
     1
  1
\A1;85
 11
0.0000000000000001
 21
1.0
 31
0.0
 73
     1
 44
1.0
  0
POINT
  5
12B9
330
E1C
100
AcDbEntity
  8
DEFPOINTS
 62
     0
100
AcDbPoint
 10
155.2462364693638
 20
232.9398643287417
 30
0.0
  0
POINT
  5
12BA
330
E1C
100
AcDbEntity
  8
DEFPOINTS
 62
     0
100
AcDbPoint
 10
191.3087931517343
 20
317.9398643287417
 30
0.0
  0
POINT
  5
12BB
330
E1C
100
AcDbEntity
  8
DEFPOINTS
 62
     0
100
AcDbPoint
 10
132.8698800912548
 20
317.9398643287417
 30
0.0
  0
ENDBLK
  5
E27
330
E1C
100
AcDbEntity
  8
0
100
AcDbBlockEnd
  0
BLOCK
  5
10B7
330
10AD
100
AcDbEntity
  8
0
100
AcDbBlockBegin
  2
*D5
 70
     1
 10
0.0
 20
0.0
 30
0.0
  3
*D5
  1

  0
LINE
  5
137C
330
10AD
100
AcDbEntity
  8
BEM
 62
     0
370
    -2
100
AcDbLine
 10
192.7230067141073
 20
316.5256507663686
 30
0.0
 11
235.2633665510637
 21
273.9852909294132
 31
0.0
  0
LINE
  5
137D
330
10AD
100
AcDbEntity
  8
BEM
 62
     0
370
    -2
100
AcDbLine
 10
340.7138360039808
 20
408.9511270799214
 30
0.0
 11
355.4715193527753
 21
394.1934437311272
 31
0.0
  0
LINE
  5
137E
330
10AD
100
AcDbEntity
  8
BEM
 62
     0
370
    -2
100
AcDbLine
 10
238.7989004569964
 20
280.3492519600922
 30
0.0
 11
349.1075583220964
 21
390.6579098251944
 31
0.0
  0
SOLID
  5
137F
330
10AD
100
AcDbEntity
  8
BEM
 62
     0
100
AcDbTrace
 10
237.9739425456121
 20
281.1742098714765
 30
0.0
 11
239.6238583683807
 21
279.5242940487079
 31
0.0
 12
233.8491529886905
 22
275.3995044917863
 32
0.0
 13
233.8491529886905
 23
275.3995044917863
 33
0.0
  0
SOLID
  5
1380
330
10AD
100
AcDbEntity
  8
BEM
 62
     0
100
AcDbTrace
 10
348.2826004107121
 20
391.4828677365787
 30
0.0
 11
349.9325162334807
 21
389.8329519138101
 31
0.0
 12
354.0573057904022
 22
395.6076572935003
 32
0.0
 13
354.0573057904022
 23
395.6076572935003
 33
0.0
  0
MTEXT
  5
1381
330
10AD
100
AcDbEntity
  8
BEM
 62
     1
100
AcDbMText
 10
289.3570353118338
 20
340.0997749703559
 30
0.0
 40
7.0
 41
0.0
 71
     5
 72
     1
  1
\A1;170
 11
0.7071067811865405
 21
0.7071067811865546
 31
0.0
 73
     1
 44
1.0
  0
POINT
  5
1382
330
10AD
100
AcDbEntity
  8
DEFPOINTS
 62
     0
100
AcDbPoint
 10
191.3087931517343
 20
317.9398643287418
 30
0.0
  0
POINT
  5
1383
330
10AD
100
AcDbEntity
  8
DEFPOINTS
 62
     0
100
AcDbPoint
 10
339.2996224416078
 20
410.3653406422944
 30
0.0
  0
POINT
  5
1384
330
10AD
100
AcDbEntity
  8
DEFPOINTS
 62
     0
100
AcDbPoint
 10
354.0573057904023
 20
395.6076572935003
 30
0.0
  0
ENDBLK
  5
10B8
330
10AD
100
AcDbEntity
  8
0
100
AcDbBlockEnd
  0
BLOCK
  5
128B
330
127F
100
AcDbEntity
  8
0
100
AcDbBlockBegin
  2
*D6
 70
     1
 10
0.0
 20
0.0
 30
0.0
  3
*D6
  1

  0
LINE
  5
128D
330
127F
100
AcDbEntity
  8
BEM
 62
     0
370
    -2
100
AcDbLine
 10
316.4666934217532
 20
443.0977645987606
 30
0.0
 11
326.801263355509
 21
453.4323345325165
 31
0.0
  0
LINE
  5
128E
330
127F
100
AcDbEntity
  8
BEM
 62
     0
370
    -2
100
AcDbLine
 10
191.3087931517342
 20
494.9431572330717
 30
0.0
 11
191.3087931517343
 21
509.5551532903526
 31
0.0
  0
ARC
  5
128F
330
127F
100
AcDbEntity
  8
BEM
 62
     0
370
    -2
100
AcDbCircle
 10
191.3087931517342
 20
317.9398643287417
 30
0.0
 40
189.6152889616108
100
AcDbArc
 50
47.11530007576256
 51
87.88469992423744
  0
SOLID
  5
1290
330
127F
100
AcDbEntity
  8
BEM
 62
     0
100
AcDbTrace
 10
321.1563710032603
 20
457.7157053782946
 30
0.0
 11
319.5371911297991
 21
456.0356158027592
 31
0.0
 12
325.3870497931359
 22
452.0181209701434
 32
0.0
 13
325.3870497931359
 23
452.0181209701434
 33
0.0
  0
SOLID
  5
1291
330
127F
100
AcDbEntity
  8
BEM
 62
     0
100
AcDbTrace
 10
198.2860657210871
 20
506.2594764000486
 30
0.0
 11
198.3291353844639
 21
508.5924122003958
 31
0.0
 12
191.3087931517343
 22
507.5551532903525
 32
0.0
 13
191.3087931517343
 23
507.5551532903525
 33
0.0
  0
MTEXT
  5
1292
330
127F
100
AcDbEntity
  8
BEM
 62
     1
100
AcDbMText
 10
266.3588650708349
 20
499.1267658129106
 30
0.0
 40
7.0
 41
0.0
 71
     5
 72
     1
  1
\A1;45°
 11
0.9238795325112867
 21
-0.3826834323650898
 31
0.0
 73
     1
 44
1.0
  0
POINT
  5
1293
330
127F
100
AcDbEntity
  8
DEFPOINTS
 62
     0
100
AcDbPoint
 10
286.1164376325397
 20
482.1515215154236
 30
0.0
  0
POINT
  5
1294
330
127F
100
AcDbEntity
  8
DEFPOINTS
 62
     0
100
AcDbPoint
 10
191.3087931517342
 20
492.9431572330718
 30
0.0
  0
POINT
  5
1295
330
127F
100
AcDbEntity
  8
DEFPOINTS
 62
     0
100
AcDbPoint
 10
315.0524798593801
 20
441.6835510363876
 30
0.0
  0
POINT
  5
1296
330
127F
100
AcDbEntity
  8
DEFPOINTS
 62
     0
100
AcDbPoint
 10
191.3087931517342
 20
317.9398643287417
 30
0.0
  0
POINT
  5
1297
330
127F
100
AcDbEntity
  8
DEFPOINTS
 62
     0
100
AcDbPoint
 10
191.3087931517343
 20
227.939864328742
 30
0.0
  0
ENDBLK
  5
128C
330
127F
100
AcDbEntity
  8
0
100
AcDbBlockEnd
  0
ENDSEC
  0
SECTION
  2
ENTITIES
  0
LINE
  5
12A
330
1E
100
AcDbEntity
  8
STEMPEL
100
AcDbLine
 10
230.5994310403146
 20
487.9431572330718
 30
0.0
 11
152.0181552631539
 21
487.9431572330718
 31
0.0
  0
TEXT
  5
134
330
1E
100
AcDbEntity
  8
TEXT
100
AcDbText
 10
204.4216048581257
 20
63.0896391972351
 30
0.0
 40
4.0
  1
Koeh
 41
0.8
  7
GREEKS
 72
     1
 11
209.6787477152686
 21
63.0896391972351
 31
0.0
100
AcDbText
  0
INSERT
  5
135
330
1E
100
AcDbEntity
  8
STEMPEL
100
AcDbBlockReference
  2
LOGO
 10
150.9955485457794
 20
45.02105276448322
 30
0.0
 41
2.0
 42
2.0
 43
2.0
  0
LINE
  5
136
330
1E
100
AcDbEntity
  8
HILF
100
AcDbLine
 10
420.0
 20
0.0
 30
0.0
 11
0.0
 21
0.0
 31
0.0
  0
LINE
  5
137
330
1E
100
AcDbEntity
  8
HILF
100
AcDbLine
 10
419.9999999999999
 20
594.0000000000002
 30
0.0
 11
0.0
 21
594.0
 31
0.0
  0
LINE
  5
138
330
1E
100
AcDbEntity
  8
STEMPEL
100
AcDbLine
 10
410.0
 20
584.0
 30
0.0
 11
39.99999999999989
 21
584.0
 31
0.0
  0
LINE
  5
139
330
1E
100
AcDbEntity
  8
STEMPEL
100
AcDbLine
 10
410.0
 20
10.0
 30
0.0
 11
39.99999999999989
 21
10.0
 31
0.0
  0
LINE
  5
13A
330
1E
100
AcDbEntity
  8
STEMPEL
100
AcDbLine
 10
49.99999999999989
 20
10.0
 30
0.0
 11
410.0
 21
10.0
 31
0.0
  0
TEXT
  5
13B
330
1E
100
AcDbEntity
  8
TEXT
100
AcDbText
 10
202.4626584226295
 20
73.30961091915225
 30
0.0
 40
4.0
  1
Name
 41
0.8
  7
GREEKS
100
AcDbText
  0
TEXT
  5
13C
330
1E
100
AcDbEntity
  8
TEXT
100
AcDbText
 10
196.5498279101549
 20
102.6506227776589
 30
0.0
 40
5.0
  1
Zul. Abw.
 41
0.8
  7
GREEKS
 72
     4
 11
209.9783993387263
 21
105.1506227776589
 31
0.0
100
AcDbText
  0
LINE
  5
13D
330
1E
100
AcDbEntity
  8
HILF
100
AcDbLine
 10
146.0000000000001
 20
49.99999999999997
 30
0.0
 11
230.0
 21
49.99999999999997
 31
0.0
  0
LINE
  5
13E
330
1E
100
AcDbEntity
  8
HILF
100
AcDbLine
 10
146.0000000000001
 20
59.99999999999997
 30
0.0
 11
230.0
 21
59.99999999999997
 31
0.0
  0
LINE
  5
13F
330
1E
100
AcDbEntity
  8
HILF
100
AcDbLine
 10
146.0000000000001
 20
69.99999999999994
 30
0.0
 11
230.0
 21
69.99999999999994
 31
0.0
  0
LINE
  5
140
330
1E
100
AcDbEntity
  8
STEMPEL
100
AcDbLine
 10
410.0
 20
80.0
 30
0.0
 11
146.0000000000001
 21
79.99999999999994
 31
0.0
  0
LINE
  5
141
330
1E
100
AcDbEntity
  8
STEMPEL
100
AcDbLine
 10
410.0
 20
40.0
 30
0.0
 11
146.0000000000001
 21
39.99999999999997
 31
0.0
  0
LINE
  5
142
330
1E
100
AcDbEntity
  8
STEMPEL
100
AcDbLine
 10
410.0
 20
110.0
 30
0.0
 11
39.99999999999997
 21
110.0
 31
0.0
  0
LINE
  5
143
330
1E
100
AcDbEntity
  8
MITTEL
100
AcDbLine
 10
191.3087931517342
 20
492.9431572330718
 30
0.0
 11
191.3087931517343
 21
227.939864328742
 31
0.0
  0
LINE
  5
144
330
1E
100
AcDbEntity
  8
HILF
100
AcDbLine
 10
0.0
 20
0.0
 30
0.0
 11
-0.0000000000001137
 21
594.0
 31
0.0
  0
LINE
  5
145
330
1E
100
AcDbEntity
  8
STEMPEL
100
AcDbLine
 10
40.0
 20
10.0
 30
0.0
 11
39.99999999999989
 21
584.0
 31
0.0
  0
LINE
  5
148
330
1E
100
AcDbEntity
  8
HILF
100
AcDbLine
 10
40.00000000000008
 20
39.99999999999997
 30
0.0
 11
146.0000000000001
 21
39.99999999999997
 31
0.0
  0
LINE
  5
149
330
1E
100
AcDbEntity
  8
HILF
100
AcDbLine
 10
40.00000000000008
 20
49.99999999999997
 30
0.0
 11
146.0000000000001
 21
49.99999999999997
 31
0.0
  0
LINE
  5
14A
330
1E
100
AcDbEntity
  8
HILF
100
AcDbLine
 10
40.00000000000008
 20
59.99999999999997
 30
0.0
 11
146.0000000000001
 21
59.99999999999997
 31
0.0
  0
LINE
  5
14B
330
1E
100
AcDbEntity
  8
HILF
100
AcDbLine
 10
40.00000000000008
 20
69.99999999999994
 30
0.0
 11
146.0000000000001
 21
69.99999999999994
 31
0.0
  0
LINE
  5
14C
330
1E
100
AcDbEntity
  8
HILF
100
AcDbLine
 10
40.00000000000008
 20
79.99999999999994
 30
0.0
 11
146.0000000000001
 21
79.99999999999994
 31
0.0
  0
LINE
  5
14D
330
1E
100
AcDbEntity
  8
HILF
100
AcDbLine
 10
40.00000000000008
 20
90.00000000000005
 30
0.0
 11
146.0000000000001
 21
90.00000000000005
 31
0.0
  0
LINE
  5
14E
330
1E
100
AcDbEntity
  8
HILF
100
AcDbLine
 10
40.00000000000008
 20
100.0
 30
0.0
 11
146.0000000000001
 21
100.0
 31
0.0
  0
LINE
  5
14F
330
1E
100
AcDbEntity
  8
STEMPEL
100
AcDbLine
 10
145.9999999999999
 20
29.99999999999997
 30
0.0
 11
39.99999999999997
 21
29.99999999999997
 31
0.0
  0
TEXT
  5
150
330
1E
100
AcDbEntity
  8
TEXT
100
AcDbText
 10
48.26641107045756
 20
13.65465846027192
 30
0.0
 40
4.0
  1
Index
 50
90.0
 41
0.8
  7
GREEKS
100
AcDbText
  0
LINE
  5
151
330
1E
100
AcDbEntity
  8
VOLL
100
AcDbLine
 10
54.00000000000009
 20
110.0
 30
0.0
 11
53.99999999999997
 21
9.999999999999971
 31
0.0
  0
LINE
  5
152
330
1E
100
AcDbEntity
  8
HILF
100
AcDbLine
 10
31.08767135713856
 20
297.0
 30
0.0
 11
0.0000000000001137
 21
297.0
 31
0.0
  0
LINE
  5
154
330
1E
100
AcDbEntity
  8
VOLL
100
AcDbLine
 10
124.0000000000001
 20
109.9999999999999
 30
0.0
 11
124.0
 21
9.999999999999971
 31
0.0
  0
LINE
  5
155
330
1E
100
AcDbEntity
  8
VOLL
100
AcDbLine
 10
104.0000000000001
 20
109.9999999999999
 30
0.0
 11
104.0
 21
9.999999999999971
 31
0.0
  0
LINE
  5
157
330
1E
100
AcDbEntity
  8
STEMPEL
100
AcDbLine
 10
146.0000000000001
 20
109.9999999999999
 30
0.0
 11
146.0
 21
9.999999999999971
 31
0.0
  0
TEXT
  5
158
330
1E
100
AcDbEntity
  8
TEXT
100
AcDbText
 10
170.398997108236
 20
63.10765040825732
 30
0.0
 40
4.0
  1
08.04.
 41
0.8
  7
GREEKS
 72
     1
 11
177.4085209177598
 21
63.10765040825732
 31
0.0
100
AcDbText
  0
TEXT
  5
159
330
1E
100
AcDbEntity
  8
TEXT
100
AcDbText
 10
172.331167315365
 20
73.31880501229926
 30
0.0
 40
4.0
  1
Tag
 41
0.8
  7
GREEKS
100
AcDbText
  0
TEXT
  5
15A
330
1E
100
AcDbEntity
  8
TEXT
100
AcDbText
 10
147.5836127167615
 20
63.62990369617964
 30
0.0
 40
4.0
  1
Gez.
 41
0.8
  7
GREEKS
100
AcDbText
  0
LINE
  5
15B
330
1E
100
AcDbEntity
  8
VOLL
100
AcDbLine
 10
164.0000000000001
 20
79.99999999999994
 30
0.0
 11
164.0000000000001
 21
39.99999999999997
 31
0.0
  0
TEXT
  5
15C
330
1E
100
AcDbEntity
  8
TEXT
100
AcDbText
 10
147.6006777387303
 20
43.52946389649807
 30
0.0
 40
4.0
  1
Norm.
 41
0.8
  7
GREEKS
100
AcDbText
  0
TEXT
  5
15D
330
1E
100
AcDbEntity
  8
TEXT
100
AcDbText
 10
147.5515086571672
 20
53.68926291428377
 30
0.0
 40
4.0
  1
Gepr.
 41
0.8
  7
GREEKS
100
AcDbText
  0
TEXT
  5
15E
330
1E
100
AcDbEntity
  8
TEXT
 62
     1
100
AcDbText
 10
160.5006306481887
 20
88.14901428913959
 30
0.0
 40
7.0
  1
1:2
 41
0.8
  7
GREEKS
100
AcDbText
  0
TEXT
  5
15F
330
1E
100
AcDbEntity
  8
TEXT
100
AcDbText
 10
153.5163572150377
 20
102.4620895087088
 30
0.0
 40
5.0
  1
Maßstab
 41
0.8
  7
GREEKS
100
AcDbText
  0
TEXT
  5
160
330
1E
100
AcDbEntity
  8
TEXT
100
AcDbText
 10
148.622109822104
 20
73.14025471151666
 30
0.0
 40
4.0
  1
2011
 41
0.8
  7
GREEKS
100
AcDbText
  0
LINE
  5
161
330
1E
100
AcDbEntity
  8
VOLL
100
AcDbLine
 10
190.0000000000001
 20
109.9999999999998
 30
0.0
 11
190.0
 21
39.99999999999997
 31
0.0
  0
LINE
  5
186
330
1E
100
AcDbEntity
  8
HILF
100
AcDbLine
 10
420.0
 20
-0.0000000000001137
 30
0.0
 11
419.9999999999999
 21
594.0
 31
0.0
  0
LINE
  5
187
330
1E
100
AcDbEntity
  8
STEMPEL
100
AcDbLine
 10
410.0
 20
10.0
 30
0.0
 11
410.0
 21
584.0
 31
0.0
  0
TEXT
  5
188
330
1E
100
AcDbEntity
  8
TEXT
100
AcDbText
 10
337.2400861497006
 20
52.07416177878602
 30
0.0
 40
5.0
  1
ersetzt durch:
 41
0.8
  7
GREEKS
100
AcDbText
  0
TEXT
  5
189
330
1E
100
AcDbEntity
  8
TEXT
100
AcDbText
 10
336.7238616296993
 20
73.1811823709997
 30
0.0
 40
5.0
  1
Ersatz für:
 41
0.8
  7
GREEKS
100
AcDbText
  0
TEXT
  5
18A
330
1E
100
AcDbEntity
  8
TEXT
100
AcDbText
 10
336.178754957634
 20
102.3132034537136
 30
0.0
 40
5.0
  1
Zeichnungs Nr.
 41
0.8
  7
GREEKS
100
AcDbText
  0
LINE
  5
18B
330
1E
100
AcDbEntity
  8
HILF
100
AcDbLine
 10
233.4909699289885
 20
14.89398258028314
 30
0.0
 11
404.8588839326728
 21
14.89398258028314
 31
0.0
  0
LINE
  5
18C
330
1E
100
AcDbEntity
  8
HILF
100
AcDbLine
 10
336.7238616296993
 20
83.77983636955827
 30
0.0
 11
404.8588839326728
 21
83.77983636955827
 31
0.0
  0
LINE
  5
18D
330
1E
100
AcDbEntity
  8
VOLL
100
AcDbLine
 10
332.0
 20
60.0
 30
0.0
 11
410.0
 21
60.0
 31
0.0
  0
TEXT
  5
18E
330
1E
100
AcDbEntity
  8
TEXT
 62
     1
100
AcDbText
 10
234.9283864320014
 20
87.41748789253779
 30
0.0
 40
7.0
  1
Abzweig DN70/70
 41
0.8
  7
GREEKS
100
AcDbText
  0
LINE
  5
18F
330
1E
100
AcDbEntity
  8
HILF
100
AcDbLine
 10
234.7736801096947
 20
49.99999999999997
 30
0.0
 11
324.835391655631
 21
49.99999999999997
 31
0.0
  0
LINE
  5
190
330
1E
100
AcDbEntity
  8
HILF
100
AcDbLine
 10
234.7736801096947
 20
59.99999999999997
 30
0.0
 11
324.835391655631
 21
59.99999999999997
 31
0.0
  0
LINE
  5
191
330
1E
100
AcDbEntity
  8
HILF
100
AcDbLine
 10
234.7736801096947
 20
69.99999999999994
 30
0.0
 11
324.835391655631
 21
69.99999999999994
 31
0.0
  0
LINE
  5
192
330
1E
100
AcDbEntity
  8
HILF
100
AcDbLine
 10
234.7736801096947
 20
84.03758247564139
 30
0.0
 11
324.8353916556311
 21
84.03758247564139
 31
0.0
  0
LINE
  5
193
330
1E
100
AcDbEntity
  8
STEMPEL
100
AcDbLine
 10
230.0
 20
110.0
 30
0.0
 11
230.0
 21
9.999999999999971
 31
0.0
  0
TEXT
  5
194
330
1E
100
AcDbEntity
  8
TEXT
100
AcDbText
 10
235.1296391125315
 20
71.50334417585288
 30
0.0
 40
5.0
  1
dünnwandig 45° 
 41
0.8
  7
GREEKS
100
AcDbText
  0
TEXT
  5
195
330
1E
100
AcDbEntity
  8
TEXT
100
AcDbText
 10
234.9837501577827
 20
42.62974153022632
 30
0.0
 40
4.0
  1
5220CC0W.DWG
 41
0.8
  7
GREEKS
100
AcDbText
  0
TEXT
  5
196
330
1E
100
AcDbEntity
  8
TEXT
100
AcDbText
 10
234.742238391136
 20
30.84560570193057
 30
0.0
 40
5.0
  1
Bauvorhaben
 41
0.8
  7
GREEKS
100
AcDbText
  0
TEXT
  5
197
330
1E
100
AcDbEntity
  8
TEXT
100
AcDbText
 10
234.877940380901
 20
102.5489328011779
 30
0.0
 40
5.0
  1
Benennung
 41
0.8
  7
GREEKS
100
AcDbText
  0
LINE
  5
198
330
1E
100
AcDbEntity
  8
STEMPEL
100
AcDbLine
 10
332.0
 20
109.9999999999997
 30
0.0
 11
332.0
 21
40.0
 31
0.0
  0
TEXT
  5
19A
330
1E
100
AcDbEntity
  8
TEXT
 62
     1
100
AcDbText
 10
349.5527069349992
 20
88.14901428913959
 30
0.0
 40
7.0
  1
5220CC0W
 41
0.8
  7
GREEKS
 72
     1
 11
371.1527069349992
 21
88.14901428913959
 31
0.0
100
AcDbText
  0
LINE
  5
1D4
330
1E
100
AcDbEntity
  8
STEMPEL
100
AcDbLine
 10
227.3713498341046
 20
232.9398643287419
 30
0.0
 11
155.2462364693638
 21
232.9398643287417
 31
0.0
  0
LINE
  5
1D7
330
1E
100
AcDbEntity
  8
STEMPEL
100
AcDbLine
 10
154.8087931517342
 20
237.9398643287417
 30
0.0
 11
155.2462364693638
 21
232.9398643287417
 31
0.0
  0
LINE
  5
1D8
330
1E
100
AcDbEntity
  8
STEMPEL
100
AcDbLine
 10
227.8087931517342
 20
237.9398643287424
 30
0.0
 11
227.3713498341046
 21
232.9398643287419
 31
0.0
  0
DIMENSION
  5
1DB
330
1E
100
AcDbEntity
  8
BEM
100
AcDbDimension
  2
*D1
 10
117.7371179878776
 20
487.9431572330719
 30
0.0
 11
111.2371179878775
 21
360.4415107809068
 31
0.0
 70
    32
 71
     5
 42
255.0032929043301
  3
Standard
100
AcDbAlignedDimension
 13
155.2462364693638
 23
232.9398643287417
 33
0.0
 14
152.0181552631539
 24
487.9431572330718
 34
0.0
 50
90.0
100
AcDbRotatedDimension
1001
ACAD
1000
DSTYLE
1002
{
1070
    40
1040
2.0
1070
    41
1040
3.5
1070
    42
1040
1.0
1070
    43
1040
7.0
1070
    44
1040
1.0
1070
    73
1070
     0
1070
    74
1070
     0
1070
    77
1070
     1
1070
    78
1070
     8
1070
    79
1070
     2
1070
   140
1040
3.5
1070
   141
1040
1.5
1070
   146
1040
0.5142857142857144
1070
   147
1040
1.5
1070
   172
1070
     1
1070
   178
1070
     1
1070
   179
1070
     2
1070
   271
1070
     2
1070
   272
1070
     2
1070
   284
1070
     8
1070
   285
1070
     8
1070
   286
1070
     8
1002
}
  0
TEXT
  5
212
330
1E
100
AcDbEntity
  8
TEXT
100
AcDbText
 10
235.1296391125315
 20
51.50334417585291
 30
0.0
 40
5.0
  1
EDV-Art.Nr. 5.220.CC0C
 41
0.8
  7
GREEKS
100
AcDbText
  0
TEXT
  5
255
330
1E
100
AcDbEntity
  8
TEXT
 62
     1
100
AcDbText
 10
297.0573649355706
 20
132.2248663682012
 30
0.0
 40
7.0
  1
Werkstoff: 1.4404
 41
0.8
  7
GREEKS
100
AcDbText
  0
TEXT
  5
25D
330
1E
100
AcDbEntity
  8
TEXT
 62
     1
100
AcDbText
 10
162.4919056401018
 20
467.4639056443324
 30
0.0
 40
7.0
  1
DN70
 41
0.8
  7
GREEKS
100
AcDbText
  0
LINE
  5
B5C
330
1E
100
AcDbEntity
  8
HILF
  6
Continuous
100
AcDbLine
 10
153.7304045725096
 20
435.5883515428398
 30
0.0
 11
228.8871817309589
 21
435.5883515428398
 31
0.0
  0
LINE
  5
B5D
330
1E
100
AcDbEntity
  8
HILF
  6
Continuous
100
AcDbLine
 10
153.1770815254045
 20
457.4451514967361
 30
0.0
 11
229.4405047780639
 21
457.4451514967361
 31
0.0
  0
LINE
  5
B61
330
1E
100
AcDbEntity
  8
HILF
  6
Continuous
100
AcDbLine
 10
155.6352375572488
 20
431.0666296191273
 30
0.0
 11
226.9823487462196
 21
431.0666296191272
 31
0.0
  0
ARC
  5
B7A
330
1E
100
AcDbEntity
  8
STEMPEL
100
AcDbCircle
 10
208.308806627497
 20
477.4193478806223
 30
0.0
 40
24.65
100
AcDbArc
 50
359.9385097298969
 51
25.27284846783625
  0
LINE
  5
B7B
330
1E
100
AcDbEntity
  8
STEMPEL
100
AcDbLine
 10
232.9587931517342
 20
477.4444609353081
 30
0.0
 11
232.9587931517342
 21
468.3814372812626
 31
0.0
  0
ARC
  5
B7C
330
1E
100
AcDbEntity
  8
STEMPEL
100
AcDbCircle
 10
208.3087931517342
 20
468.3153783153471
 30
0.0
 40
24.65009324312573
100
AcDbArc
 50
338.8168456069657
 51
0.1617474312555988
  0
ARC
  5
B7D
330
1E
100
AcDbEntity
  8
STEMPEL
100
AcDbCircle
 10
242.8087931517342
 20
454.9453783153471
 30
0.0
 40
12.35
100
AcDbArc
 50
158.8168456069657
 51
180.0
  0
LINE
  5
B7E
330
1E
100
AcDbEntity
  8
STEMPEL
100
AcDbLine
 10
230.4587931517342
 20
454.9453783153471
 30
0.0
 11
230.4587931517342
 21
438.1546881626448
 31
0.0
  0
ARC
  5
B85
330
1E
100
AcDbEntity
  8
STEMPEL
100
AcDbCircle
 10
218.8087931517341
 20
438.1546881626448
 30
0.0
 40
11.65
100
AcDbArc
 50
329.8986894531991
 51
0.0
  0
ARC
  5
B86
330
1E
100
AcDbEntity
  8
STEMPEL
100
AcDbCircle
 10
235.8087931517342
 20
428.2996133278199
 30
0.0
 40
8.0
100
AcDbArc
 50
149.8986894531977
 51
180.0
  0
ARC
  5
B96
330
1E
100
AcDbEntity
  8
STEMPEL
100
AcDbCircle
 10
146.8087931517342
 20
428.2996133278199
 30
0.0
 40
8.0
100
AcDbArc
 50
0.0
 51
30.10131054680232
  0
LINE
  5
B99
330
1E
100
AcDbEntity
  8
STEMPEL
100
AcDbLine
 10
149.6587931517342
 20
477.4444609353081
 30
0.0
 11
149.6587931517342
 21
468.3814372812626
 31
0.0
  0
LINE
  5
B9B
330
1E
100
AcDbEntity
  8
STEMPEL
100
AcDbLine
 10
152.1587931517342
 20
454.9453783153471
 30
0.0
 11
152.1587931517342
 21
438.1546881626448
 31
0.0
  0
ARC
  5
B9E
330
1E
100
AcDbEntity
  8
STEMPEL
100
AcDbCircle
 10
163.8087931517343
 20
438.1546881626448
 30
0.0
 40
11.65
100
AcDbArc
 50
180.0
 51
210.1013105468009
  0
ARC
  5
B9F
330
1E
100
AcDbEntity
  8
STEMPEL
100
AcDbCircle
 10
174.3087931517342
 20
468.3153783153471
 30
0.0
 40
24.65009324312573
100
AcDbArc
 50
179.8382525687444
 51
201.1831543930343
  0
ARC
  5
BA1
330
1E
100
AcDbEntity
  8
STEMPEL
100
AcDbCircle
 10
139.8087931517342
 20
454.9453783153471
 30
0.0
 40
12.35
100
AcDbArc
 50
0.0
 51
21.1831543930343
  0
ARC
  5
BA3
330
1E
100
AcDbEntity
  8
STEMPEL
100
AcDbCircle
 10
174.3087796759714
 20
477.4193478806223
 30
0.0
 40
24.65
100
AcDbArc
 50
154.7271515321637
 51
180.0614902701031
  0
LINE
  5
CE5
330
1E
100
AcDbEntity
  8
HILF
100
AcDbLine
 10
226.5587931517342
 20
237.939864328742
 30
0.0
 11
156.0587931517342
 21
237.939864328742
 31
0.0
  0
DIMENSION
  5
D41
330
1E
100
AcDbEntity
  8
BEM
100
AcDbDimension
  2
*D3
 10
227.8087931517342
 20
212.0242363893328
 30
0.0
 11
191.3087931517342
 21
218.5242363893328
 31
0.0
 70
    32
  1
%%c<>
 71
     5
 42
72.99999999999997
  3
Standard
100
AcDbAlignedDimension
 13
154.8087931517342
 23
237.9398643287419
 33
0.0
 14
227.8087931517342
 24
237.9398643287423
 34
0.0
100
AcDbRotatedDimension
1001
ACAD
1000
DSTYLE
1002
{
1070
    40
1040
2.0
1070
    41
1040
3.5
1070
    42
1040
1.0
1070
    43
1040
7.0
1070
    44
1040
1.0
1070
    73
1070
     0
1070
    74
1070
     0
1070
    77
1070
     1
1070
    78
1070
     8
1070
    79
1070
     2
1070
   140
1040
3.5
1070
   141
1040
1.5
1070
   146
1040
0.5142857142857144
1070
   147
1040
1.5
1070
   172
1070
     1
1070
   178
1070
     1
1070
   179
1070
     2
1070
   271
1070
     2
1070
   272
1070
     2
1070
   284
1070
     8
1070
   285
1070
     8
1070
   286
1070
     8
1002
}
  0
LINE
  5
D68
102
{ACAD_REACTORS
330
133B
102
}
330
1E
100
AcDbEntity
  8
STEMPEL
100
AcDbLine
 10
227.8087931517342
 20
428.2996133278199
 30
0.0
 11
227.8087931517342
 21
406.0586593553597
 31
0.0
  0
LINE
  5
D69
330
1E
100
AcDbEntity
  8
STEMPEL
100
AcDbLine
 10
154.8087931517342
 20
428.2996133278199
 30
0.0
 11
154.8087931517342
 21
237.9398643287419
 31
0.0
  0
ARC
  5
DDA
330
1E
100
AcDbEntity
  8
STEMPEL
100
AcDbCircle
 10
309.6588256612653
 20
412.24826627793
 30
0.0
 40
24.65009324312573
100
AcDbArc
 50
293.8168456069657
 51
315.1617474312556
  0
ARC
  5
DDB
330
1E
100
AcDbEntity
  8
STEMPEL
100
AcDbCircle
 10
316.0963138053907
 20
418.6857353644488
 30
0.0
 40
24.65
100
AcDbArc
 50
314.9385097298968
 51
340.2728484678362
  0
LINE
  5
DDC
330
1E
100
AcDbEntity
  8
HILF
  6
Continuous
100
AcDbLine
 10
246.0741545173874
 20
423.1552518341866
 30
0.0
 11
296.5241806571792
 21
372.7052256943949
 31
0.0
  0
LINE
  5
DDD
330
1E
100
AcDbEntity
  8
HILF
  6
Continuous
100
AcDbLine
 10
262.9884074153905
 20
443.5458623308533
 30
0.0
 11
316.9147911538457
 21
389.6194785923981
 31
0.0
  0
LINE
  5
DDE
330
1E
100
AcDbEntity
  8
HILF
  6
Continuous
100
AcDbLine
 10
247.9245744317474
 20
427.6995123896206
 30
0.0
 11
301.0684412126131
 21
374.555645608755
 31
0.0
  0
TEXT
  5
DDF
330
1E
100
AcDbEntity
  8
TEXT
 62
     1
100
AcDbText
 10
290.3505172712763
 20
422.8529024528792
 30
0.0
 40
7.0
  1
DN70
 50
44.99999999999999
 41
0.8
  7
GREEKS
100
AcDbText
  0
LINE
  5
DE0
330
1E
100
AcDbEntity
  8
STEMPEL
100
AcDbLine
 10
339.2996224416076
 20
410.3653406422946
 30
0.0
 11
283.7342694652871
 21
465.9306936186151
 31
0.0
  0
ARC
  5
DE1
330
1E
100
AcDbEntity
  8
STEMPEL
100
AcDbCircle
 10
285.6171951009227
 20
436.2898968382726
 30
0.0
 40
24.65009324312573
100
AcDbArc
 50
134.8382525687444
 51
156.1831543930343
  0
ARC
  5
DE2
330
1E
100
AcDbEntity
  8
STEMPEL
100
AcDbCircle
 10
256.8657453662218
 20
422.3876895084892
 30
0.0
 40
11.65
100
AcDbArc
 50
135.0
 51
165.1013105468009
  0
ARC
  5
DE3
330
1E
100
AcDbEntity
  8
STEMPEL
100
AcDbCircle
 10
237.876339841245
 20
427.4399145438551
 30
0.0
 40
8.0
100
AcDbArc
 50
315.0
 51
345.1013105468023
  0
LINE
  5
DE4
330
1E
100
AcDbEntity
  8
STEMPEL
100
AcDbLine
 10
260.5007622331765
 20
442.4982943770905
 30
0.0
 11
248.6279513653984
 21
430.6254835093125
 31
0.0
  0
ARC
  5
DE5
330
1E
100
AcDbEntity
  8
STEMPEL
100
AcDbCircle
 10
251.7679934855227
 20
451.2310631247443
 30
0.0
 40
12.35
100
AcDbArc
 50
315.0
 51
336.1831543930343
  0
ARC
  5
DE6
330
1E
100
AcDbEntity
  8
STEMPEL
100
AcDbCircle
 10
292.0546641874416
 20
442.727384982398
 30
0.0
 40
24.65
100
AcDbArc
 50
109.7271515321637
 51
135.0614902701031
  0
LINE
  5
DE7
330
1E
100
AcDbEntity
  8
STEMPEL
100
AcDbLine
 10
274.6422491712608
 20
460.1753152211077
 30
0.0
 11
268.2337236874312
 21
453.7667897372781
 31
0.0
  0
ARC
  5
DE8
330
1E
100
AcDbEntity
  8
STEMPEL
100
AcDbCircle
 10
295.7566183314818
 20
383.4968165432292
 30
0.0
 40
11.65
100
AcDbArc
 50
284.8986894531991
 51
315.0
  0
ARC
  5
DE9
330
1E
100
AcDbEntity
  8
STEMPEL
100
AcDbCircle
 10
300.8088433668477
 20
364.5074110182524
 30
0.0
 40
8.0
100
AcDbArc
 50
104.8986894531976
 51
135.0
  0
LINE
  5
DEA
330
1E
100
AcDbEntity
  8
STEMPEL
100
AcDbLine
 10
315.867223200083
 20
387.131833410184
 30
0.0
 11
303.9944123323051
 21
375.2590225424059
 31
0.0
  0
ARC
  5
DEB
330
1E
100
AcDbEntity
  8
STEMPEL
100
AcDbCircle
 10
324.599991947737
 20
378.39906466253
 30
0.0
 40
12.35
100
AcDbArc
 50
113.8168456069657
 51
135.0
  0
LINE
  5
DEC
330
1E
100
AcDbEntity
  8
STEMPEL
100
AcDbLine
 10
333.5442440441002
 20
401.2733203482683
 30
0.0
 11
327.1357185602706
 21
394.8647948644386
 31
0.0
  0
LINE
  5
DED
102
{ACAD_REACTORS
330
1347
102
}
330
1E
100
AcDbEntity
  8
STEMPEL
100
AcDbLine
 10
295.1519891173551
 20
370.1642652677448
 30
0.0
 11
227.8087931517343
 21
302.821069302124
 31
0.0
  0
LINE
  5
DEE
330
1E
100
AcDbEntity
  8
MITTEL
100
AcDbLine
 10
315.0524798593801
 20
441.6835510363875
 30
0.0
 11
191.3087931517343
 21
317.9398643287417
 31
0.0
  0
LINE
  5
DEF
102
{ACAD_REACTORS
330
133B
102
}
330
1E
100
AcDbEntity
  8
STEMPEL
100
AcDbLine
 10
243.5331940907372
 20
421.7830602943626
 30
0.0
 11
227.8087931517342
 21
406.0586593553597
 31
0.0
  0
LINE
  5
E0F
102
{ACAD_REACTORS
330
1347
102
}
330
1E
100
AcDbEntity
  8
STEMPEL
100
AcDbLine
 10
227.8087931517343
 20
302.821069302124
 30
0.0
 11
227.8087931517342
 21
237.9398643287423
 31
0.0
  0
DIMENSION
  5
E1B
330
1E
100
AcDbEntity
  8
BEM
100
AcDbDimension
  2
*D4
 10
132.8698800912548
 20
317.9398643287417
 30
0.0
 11
126.3698800912547
 21
275.4398643287418
 31
0.0
 70
    32
 71
     5
 42
85.00000000000008
  3
Standard
100
AcDbAlignedDimension
 13
155.2462364693638
 23
232.9398643287417
 33
0.0
 14
191.3087931517343
 24
317.9398643287417
 34
0.0
 50
90.0
100
AcDbRotatedDimension
1001
ACAD
1000
DSTYLE
1002
{
1070
    40
1040
2.0
1070
    41
1040
3.5
1070
    42
1040
1.0
1070
    43
1040
7.0
1070
    44
1040
1.0
1070
    73
1070
     0
1070
    74
1070
     0
1070
    77
1070
     1
1070
    78
1070
     8
1070
    79
1070
     2
1070
   140
1040
3.5
1070
   141
1040
1.5
1070
   146
1040
0.5142857142857144
1070
   147
1040
1.5
1070
   172
1070
     1
1070
   178
1070
     1
1070
   179
1070
     2
1070
   271
1070
     2
1070
   272
1070
     2
1070
   284
1070
     8
1070
   285
1070
     8
1070
   286
1070
     8
1002
}
  0
DIMENSION
  5
10AC
330
1E
100
AcDbEntity
  8
BEM
100
AcDbDimension
  2
*D5
 10
354.0573057904023
 20
395.6076572935003
 30
0.0
 11
289.3570353118338
 21
340.0997749703559
 31
0.0
 70
    32
 71
     5
 42
169.9999999999996
 51
357.0000000000001
  3
Standard
100
AcDbAlignedDimension
 13
191.3087931517343
 23
317.9398643287417
 33
0.0
 14
339.2996224416077
 24
410.3653406422944
 34
0.0
 50
45.00000000000057
100
AcDbRotatedDimension
1001
ACAD
1000
DSTYLE
1002
{
1070
    40
1040
2.0
1070
    41
1040
3.5
1070
    42
1040
1.0
1070
    43
1040
7.0
1070
    44
1040
1.0
1070
    73
1070
     0
1070
    74
1070
     0
1070
    77
1070
     1
1070
    78
1070
     8
1070
    79
1070
     2
1070
   140
1040
3.5
1070
   141
1040
1.5
1070
   146
1040
0.5142857142857144
1070
   147
1040
1.5
1070
   172
1070
     1
1070
   178
1070
     1
1070
   179
1070
     2
1070
   271
1070
     2
1070
   272
1070
     2
1070
   284
1070
     8
1070
   285
1070
     8
1070
   286
1070
     8
1002
}
  0
DIMENSION
  5
127E
330
1E
100
AcDbEntity
  8
BEM
100
AcDbDimension
  2
*D6
 10
191.3087931517343
 20
227.939864328742
 30
0.0
 11
266.3588650708349
 21
499.1267658129106
 31
0.0
 70
    34
 71
     5
 42
0.7853981633974483
  3
Standard
100
AcDb2LineAngularDimension
 13
315.0524798593801
 23
441.6835510363875
 33
0.0
 14
191.3087931517343
 24
317.9398643287417
 34
0.0
 15
191.3087931517342
 25
492.9431572330718
 35
0.0
 16
286.1164376325397
 26
482.1515215154236
 36
0.0
1001
ACAD
1000
DSTYLE
1002
{
1070
    40
1040
2.0
1070
    41
1040
3.5
1070
    42
1040
1.0
1070
    43
1040
7.0
1070
    44
1040
1.0
1070
    73
1070
     0
1070
    74
1070
     0
1070
    77
1070
     1
1070
    78
1070
     8
1070
    79
1070
     2
1070
   140
1040
3.5
1070
   141
1040
1.5
1070
   146
1040
0.5142857142857144
1070
   147
1040
1.5
1070
   172
1070
     1
1070
   178
1070
     1
1070
   179
1070
     2
1070
   271
1070
     2
1070
   272
1070
     2
1070
   284
1070
     8
1070
   285
1070
     8
1070
   286
1070
     8
1002
}
  0
LINE
  5
12CE
330
1E
100
AcDbEntity
  8
STEMPEL
100
AcDbLine
 10
227.8087931517342
 20
406.0586593553597
 30
0.0
 11
191.3087931517343
 21
317.9398643287417
 31
0.0
  0
LINE
  5
12CF
330
1E
100
AcDbEntity
  8
STEMPEL
100
AcDbLine
 10
191.3087931517343
 20
317.9398643287417
 30
0.0
 11
227.8087931517343
 21
302.821069302124
 31
0.0
  0
ARC
  5
12D2
330
1E
100
AcDbEntity
  8
SCHRAFF
100
AcDbCircle
 10
220.5216464782704
 20
305.8395042852743
 30
0.0
 40
2.634435742375651
100
AcDbArc
 50
108.1084033811442
 51
206.8915966188522
  0
ARC
  5
12D3
330
1E
100
AcDbEntity
  8
SCHRAFF
100
AcDbCircle
 10
197.4246581654881
 20
315.4065900944016
 30
0.0
 40
2.634435742375651
100
AcDbArc
 50
108.1084033811442
 51
206.8915966188522
  0
ARC
  5
12D4
330
1E
100
AcDbEntity
  8
SCHRAFF
100
AcDbCircle
 10
206.663453490601
 20
311.5797557707507
 30
0.0
 40
2.634435742375651
100
AcDbArc
 50
108.1084033811442
 51
206.8915966188522
  0
ARC
  5
12D5
330
1E
100
AcDbEntity
  8
SCHRAFF
100
AcDbCircle
 10
202.0440558280446
 20
313.4931729325761
 30
0.0
 40
2.634435742375651
100
AcDbArc
 50
108.1084033811442
 51
206.8915966188522
  0
ARC
  5
12D6
330
1E
100
AcDbEntity
  8
SCHRAFF
100
AcDbCircle
 10
211.2828511531575
 20
309.6663386089252
 30
0.0
 40
2.634435742375651
100
AcDbArc
 50
108.1084033811442
 51
206.8915966188522
  0
ARC
  5
12D7
330
1E
100
AcDbEntity
  8
SCHRAFF
100
AcDbCircle
 10
215.902248815714
 20
307.7529214470998
 30
0.0
 40
2.634435742375651
100
AcDbArc
 50
108.1084033811442
 51
206.8915966188522
  0
ARC
  5
12D8
330
1E
100
AcDbEntity
  8
SCHRAFF
100
AcDbCircle
 10
225.1410441408268
 20
303.926087123449
 30
0.0
 40
2.634435742375651
100
AcDbArc
 50
108.1084033811442
 51
206.8915966188522
  0
ARC
  5
1303
102
{ACAD_REACTORS
330
1347
102
}
330
1E
100
AcDbEntity
  8
SCHRAFF
100
AcDbCircle
 10
226.5450420187448
 20
303.3445321608725
 30
0.0
 40
2.970478118661403
100
AcDbArc
 50
295.1783236743258
 51
19.82167632567462
  0
ARC
  5
1307
330
1E
100
AcDbEntity
  8
SCHRAFF
100
AcDbCircle
 10
199.5823188715504
 20
337.9139223301651
 30
0.0
 40
2.634435742375651
100
AcDbArc
 50
198.108403381148
 51
296.8915966188559
  0
ARC
  5
1309
330
1E
100
AcDbEntity
  8
SCHRAFF
100
AcDbCircle
 10
193.842067386074
 20
324.0557293424958
 30
0.0
 40
2.634435742375651
100
AcDbArc
 50
198.108403381148
 51
296.8915966188559
  0
ARC
  5
130A
330
1E
100
AcDbEntity
  8
SCHRAFF
100
AcDbCircle
 10
195.7554845478995
 20
328.6751270050522
 30
0.0
 40
2.634435742375651
100
AcDbArc
 50
198.108403381148
 51
296.8915966188559
  0
ARC
  5
130B
330
1E
100
AcDbEntity
  8
SCHRAFF
100
AcDbCircle
 10
197.668901709725
 20
333.2945246676086
 30
0.0
 40
2.634435742375651
100
AcDbArc
 50
198.108403381148
 51
296.8915966188559
  0
ARC
  5
130C
330
1E
100
AcDbEntity
  8
SCHRAFF
100
AcDbCircle
 10
203.4091531952013
 20
347.152717655278
 30
0.0
 40
2.634435742375651
100
AcDbArc
 50
198.108403381148
 51
296.8915966188559
  0
ARC
  5
130D
330
1E
100
AcDbEntity
  8
SCHRAFF
100
AcDbCircle
 10
201.4957360333759
 20
342.5333199927217
 30
0.0
 40
2.634435742375651
100
AcDbArc
 50
198.108403381148
 51
296.8915966188559
  0
ARC
  5
130E
330
1E
100
AcDbEntity
  8
SCHRAFF
100
AcDbCircle
 10
205.3225703570268
 20
351.7721153178344
 30
0.0
 40
2.634435742375651
100
AcDbArc
 50
198.108403381148
 51
296.8915966188559
  0
ARC
  5
1328
330
1E
100
AcDbEntity
  8
SCHRAFF
100
AcDbCircle
 10
207.2359875188522
 20
356.3915129803909
 30
0.0
 40
2.634435742375651
100
AcDbArc
 50
198.108403381148
 51
296.8915966188559
  0
ARC
  5
1329
330
1E
100
AcDbEntity
  8
SCHRAFF
100
AcDbCircle
 10
212.9762390043286
 20
370.2497059680603
 30
0.0
 40
2.634435742375651
100
AcDbArc
 50
198.108403381148
 51
296.8915966188559
  0
ARC
  5
132A
330
1E
100
AcDbEntity
  8
SCHRAFF
100
AcDbCircle
 10
209.1494046806777
 20
361.0109106429473
 30
0.0
 40
2.634435742375651
100
AcDbArc
 50
198.108403381148
 51
296.8915966188559
  0
ARC
  5
132B
330
1E
100
AcDbEntity
  8
SCHRAFF
100
AcDbCircle
 10
211.0628218425031
 20
365.6303083055038
 30
0.0
 40
2.634435742375651
100
AcDbArc
 50
198.108403381148
 51
296.8915966188559
  0
ARC
  5
132C
330
1E
100
AcDbEntity
  8
SCHRAFF
100
AcDbCircle
 10
214.889656166154
 20
374.8691036306167
 30
0.0
 40
2.634435742375651
100
AcDbArc
 50
198.108403381148
 51
296.8915966188559
  0
ARC
  5
132D
330
1E
100
AcDbEntity
  8
SCHRAFF
100
AcDbCircle
 10
216.8030733279795
 20
379.4885012931731
 30
0.0
 40
2.634435742375651
100
AcDbArc
 50
198.108403381148
 51
296.8915966188559
  0
ARC
  5
132E
330
1E
100
AcDbEntity
  8
SCHRAFF
100
AcDbCircle
 10
218.7164904898049
 20
384.1078989557295
 30
0.0
 40
2.634435742375651
100
AcDbArc
 50
198.108403381148
 51
296.8915966188559
  0
ARC
  5
132F
330
1E
100
AcDbEntity
  8
SCHRAFF
100
AcDbCircle
 10
224.4567419752813
 20
397.966091943399
 30
0.0
 40
2.634435742375651
100
AcDbArc
 50
198.108403381148
 51
296.8915966188559
  0
ARC
  5
1330
330
1E
100
AcDbEntity
  8
SCHRAFF
100
AcDbCircle
 10
220.6299076516304
 20
388.727296618286
 30
0.0
 40
2.634435742375651
100
AcDbArc
 50
198.108403381148
 51
296.8915966188559
  0
ARC
  5
1331
330
1E
100
AcDbEntity
  8
SCHRAFF
100
AcDbCircle
 10
222.5433248134558
 20
393.3466942808424
 30
0.0
 40
2.634435742375651
100
AcDbArc
 50
198.108403381148
 51
296.8915966188559
  0
ARC
  5
1332
330
1E
100
AcDbEntity
  8
SCHRAFF
100
AcDbCircle
 10
226.3701591371066
 20
402.5854896059553
 30
0.0
 40
2.634435742375651
100
AcDbArc
 50
198.108403381148
 51
296.8915966188559
  0
ARC
  5
1333
330
1E
100
AcDbEntity
  8
SCHRAFF
100
AcDbCircle
 10
228.2835762989322
 20
407.2048872685116
 30
0.0
 40
2.634435742375651
100
AcDbArc
 50
198.108403381148
 51
296.8915966188559
  0
ARC
  5
1336
102
{ACAD_REACTORS
330
133B
102
}
330
1E
100
AcDbEntity
  8
SCHRAFF
100
AcDbCircle
 10
227.8280446624292
 20
406.1051366135756
 30
0.0
 40
5.179810376918236
100
AcDbArc
 50
44.78705149971431
 51
90.2129485002861
  0
HATCH
  5
133B
330
1E
100
AcDbEntity
  8
SCHRAFF
100
AcDbHatch
 10
0.0
 20
0.0
 30
0.0
210
0.0
220
0.0
230
1.0
  2
_USER
 70
     0
 71
     1
 91
        1
 92
        7
 72
     1
 73
     1
 93
        3
 10
231.5043112817795
 20
409.7541774854049
 42
0.2008449369779147
 10
227.8087931517342
 20
411.2849112148652
 42
0.0
 10
227.8087931517342
 20
406.0586593553596
 42
0.0
 97
        3
330
1336
330
D68
330
DEF
 75
     0
 76
     0
 52
0.0
 41
0.1
 77
     0
 78
     1
 53
0.0
 43
0.0
 44
0.0
 45
0.0
 46
0.1
 79
     0
 47
0.0348209711893493
 98
        1
 10
229.0558185883924
 20
408.6714873364805
  0
HATCH
  5
1347
330
1E
100
AcDbEntity
  8
SCHRAFF
100
AcDbHatch
 10
0.0
 20
0.0
 30
0.0
210
0.0
220
0.0
230
1.0
  2
_USER
 70
     0
 71
     1
 91
        1
 92
        7
 72
     1
 73
     1
 93
        3
 10
229.3395268811947
 20
304.3518030315843
 42
0.0
 10
227.8087931517343
 20
302.821069302124
 42
0.0
 10
227.8087931517343
 20
300.6562849015391
 42
0.3870883122283233
 97
        3
330
DED
330
E0F
330
1303
 75
     0
 76
     0
 52
0.0
 41
0.1
 77
     0
 78
     1
 53
0.0
 43
0.0
 44
0.0
 45
0.0
 46
0.1
 79
     0
 47
0.0798278237936231
 98
        1
 10
228.5580866342475
 20
302.7069464469032
  0
TEXT
  5
1361
330
1E
100
AcDbEntity
  8
TEXT
100
AcDbText
 10
41.85509950977674
 20
111.6719999999999
 30
0.0
 40
5.0
  1
Erstellt mit AUTOCAD 2004
 41
0.8
  7
GREEKS
100
AcDbText
  0
TEXT
  5
1362
330
1E
100
AcDbEntity
  8
TEXT
100
AcDbText
 10
66.99867878482315
 20
18.67381894984132
 30
0.0
 40
4.0
  1
Änderung
 41
0.8
  7
GREEKS
 72
     1
 11
77.7415359276803
 21
18.67381894984132
 31
0.0
100
AcDbText
  0
TEXT
  5
1363
330
1E
100
AcDbEntity
  8
TEXT
100
AcDbText
 10
110.3496319666763
 20
18.6715626933981
 30
0.0
 40
4.0
  1
Tag
 41
0.8
  7
GREEKS
 72
     1
 11
114.0829653000096
 21
18.6715626933981
 31
0.0
100
AcDbText
  0
TEXT
  5
1364
330
1E
100
AcDbEntity
  8
TEXT
100
AcDbText
 10
129.2391668299012
 20
18.59324216966408
 30
0.0
 40
4.0
  1
Name
 41
0.8
  7
GREEKS
 72
     1
 11
135.5629763537107
 21
18.59324216966408
 31
0.0
100
AcDbText
  0
TEXT
  5
1365
330
1E
100
AcDbEntity
  8
TEXT
100
AcDbText
 10
192.6882715247924
 20
89.00646370679282
 30
0.0
 40
4.0
  1
DIN EN1124-3
 41
0.8
  7
GREEKS
 72
     1
 11
209.6787477152686
 21
89.00646370679282
 31
0.0
100
AcDbText
  0
TEXT
  5
1366
330
1E
100
AcDbEntity
  8
BEM
100
AcDbText
 10
416.5811541437437
 20
12.14804815338303
 30
0.0
 40
4.0
  1
Diese Zeichnung ist urheberrechtlich geschützt und bleibt unser Eigentum. Sie darf weder ganz noch teilweise vervielfältigt und nicht an Dritte weitergegeben werden.
 50
90.0
 41
0.8
  7
GREEKS
100
AcDbText
  0
ENDSEC
  0
SECTION
  2
OBJECTS
  0
DICTIONARY
  5
C
330
0
100
AcDbDictionary
281
     1
  3
ACAD_COLOR
350
1355
  3
ACAD_GROUP
350
D
  3
ACAD_LAYOUT
350
19
  3
ACAD_MATERIAL
350
1354
  3
ACAD_MLINESTYLE
350
16
  3
ACAD_PLOTSETTINGS
350
18
  3
ACAD_PLOTSTYLENAME
350
E
  3
AcDbVariableDictionary
350
246
  0
DICTIONARY
  5
1355
102
{ACAD_REACTORS
330
C
102
}
330
C
100
AcDbDictionary
281
     1
  0
DICTIONARY
  5
D
102
{ACAD_REACTORS
330
C
102
}
330
C
100
AcDbDictionary
281
     1
  0
DICTIONARY
  5
19
102
{ACAD_REACTORS
330
C
102
}
330
C
100
AcDbDictionary
281
     1
  3
Layout1
350
1D
  3
Model
350
21
  0
DICTIONARY
  5
1354
102
{ACAD_REACTORS
330
C
102
}
330
C
100
AcDbDictionary
281
     1
  0
DICTIONARY
  5
16
102
{ACAD_REACTORS
330
C
102
}
330
C
100
AcDbDictionary
281
     1
  3
Standard
350
17
  0
DICTIONARY
  5
18
102
{ACAD_REACTORS
330
C
102
}
330
C
100
AcDbDictionary
281
     1
  0
ACDBDICTIONARYWDFLT
  5
E
102
{ACAD_REACTORS
330
C
102
}
330
C
100
AcDbDictionary
281
     1
  3
Normal
350
F
100
AcDbDictionaryWithDefault
340
F
  0
DICTIONARY
  5
246
102
{ACAD_REACTORS
330
C
102
}
330
C
100
AcDbDictionary
281
     1
  3
DIMASSOC
350
136F
  3
PROJECTNAME
350
1370
  3
SORTENTS
350
247
  0
LAYOUT
  5
1D
102
{ACAD_REACTORS
330
19
102
}
330
19
100
AcDbPlotSettings
  1

  2
Tektronix Phaser 740
  4

  6

 40
0.0
 41
0.0
 42
0.0
 43
0.0
 44
0.0
 45
0.0
 46
0.0
 47
0.0
 48
0.0
 49
0.0
140
0.0
141
0.0
142
1.0
143
1.0
 70
   688
 72
     0
 73
     0
 74
     5
  7
monochrome.ctb
 75
    16
147
1.0
 76
     0
 77
     2
 78
   300
148
0.0
149
0.0
100
AcDbLayout
  1
Layout1
 70
     0
 71
     1
 10
0.0
 20
0.0
 11
12.0
 21
9.0
 12
0.0
 22
0.0
 32
0.0
 14
1.000000000000000E+20
 24
1.000000000000000E+20
 34
1.000000000000000E+20
 15
-1.000000000000000E+20
 25
-1.000000000000000E+20
 35
-1.000000000000000E+20
146
0.0
 13
0.0
 23
0.0
 33
0.0
 16
1.0
 26
0.0
 36
0.0
 17
0.0
 27
1.0
 37
0.0
 76
     0
330
1A
  0
LAYOUT
  5
21
102
{ACAD_REACTORS
330
19
102
}
330
19
100
AcDbPlotSettings
  1

  2
Tektronix Phaser 740
  4
A4
  6

 40
5.873749732971191
 41
6.085414409637451
 42
5.577407836914062
 43
5.662078857421875
 44
209.9733276367187
 45
296.9683227539062
 46
0.0
 47
0.0
 48
0.0
 49
0.0
140
0.0
141
0.0
142
1.0
143
1.0
 70
 11952
 72
     0
 73
     1
 74
     0
  7
monochrome.ctb
 75
     0
147
1.0
 76
     0
 77
     2
 78
   300
148
1150.120678237584
149
45.30495740799864
100
AcDbLayout
  1
Model
 70
     1
 71
     0
 10
0.0
 20
0.0
 11
12.0
 21
9.0
 12
0.0
 22
0.0
 32
0.0
 14
0.0
 24
0.0
 34
0.0
 15
0.0
 25
0.0
 35
0.0
146
0.0
 13
0.0
 23
0.0
 33
0.0
 16
1.0
 26
0.0
 36
0.0
 17
0.0
 27
1.0
 37
0.0
 76
     0
330
1E
  0
MLINESTYLE
  5
17
102
{ACAD_REACTORS
330
16
102
}
330
16
100
AcDbMlineStyle
  2
STANDARD
 70
     0
  3

 62
   256
 51
90.0
 52
90.0
 71
     2
 49
0.5
 62
   256
  6
BYLAYER
 49
-0.5
 62
   256
  6
BYLAYER
  0
ACDBPLACEHOLDER
  5
F
102
{ACAD_REACTORS
330
E
102
}
330
E
  0
DICTIONARYVAR
  5
136F
102
{ACAD_REACTORS
330
246
102
}
330
246
100
DictionaryVariables
280
     0
  1
1
  0
DICTIONARYVAR
  5
1370
102
{ACAD_REACTORS
330
246
102
}
330
246
100
DictionaryVariables
280
     0
  1

  0
DICTIONARYVAR
  5
247
102
{ACAD_REACTORS
330
246
102
}
330
246
100
DictionaryVariables
280
     0
  1
96
  0
ENDSEC
  0
EOF
