  0
SECTION
  2
HEADER
  9
$ACADVER
  1
AC1018
  9
$ACADMAINTVER
 70
     2
  9
$DWGCODEPAGE
  3
ANSI_1252
  9
$INSBASE
 10
0.0
 20
0.0
 30
0.0
  9
$EXTMIN
 10
-0.0064050240922029
 20
-0.0090585340735743
 30
-0.00000000000001
  9
$EXTMAX
 10
210.0064106473032
 20
297.0090664869
 30
0.0000000000000053
  9
$LIMMIN
 10
0.0
 20
0.0
  9
$LIMMAX
 10
210.0
 20
297.0
  9
$ORTHOMODE
 70
     1
  9
$REGENMODE
 70
     1
  9
$FILLMODE
 70
     1
  9
$QTEXTMODE
 70
     0
  9
$MIRRTEXT
 70
     1
  9
$LTSCALE
 40
10.0
  9
$ATTMODE
 70
     1
  9
$TEXTSIZE
 40
3.5
  9
$TRACEWID
 40
0.5
  9
$TEXTSTYLE
  7
STANDARD
  9
$CLAYER
  8
SCHRAFF
  9
$CELTYPE
  6
ByLayer
  9
$CECOLOR
 62
   256
  9
$CELTSCALE
 40
1.0
  9
$DISPSILH
 70
     0
  9
$DIMSCALE
 40
1.0
  9
$DIMASZ
 40
3.5
  9
$DIMEXO
 40
1.0
  9
$DIMDLI
 40
7.0
  9
$DIMRND
 40
0.0
  9
$DIMDLE
 40
0.0
  9
$DIMEXE
 40
1.0
  9
$DIMTP
 40
0.0
  9
$DIMTM
 40
0.0
  9
$DIMTXT
 40
3.5
  9
$DIMCEN
 40
1.5
  9
$DIMTSZ
 40
0.0
  9
$DIMTOL
 70
     0
  9
$DIMLIM
 70
     0
  9
$DIMTIH
 70
     0
  9
$DIMTOH
 70
     0
  9
$DIMSE1
 70
     0
  9
$DIMSE2
 70
     0
  9
$DIMTAD
 70
     1
  9
$DIMZIN
 70
     8
  9
$DIMBLK
  1

  9
$DIMASO
 70
     1
  9
$DIMSHO
 70
     0
  9
$DIMPOST
  1

  9
$DIMAPOST
  1

  9
$DIMALT
 70
     0
  9
$DIMALTD
 70
     2
  9
$DIMALTF
 40
25.4
  9
$DIMLFAC
 40
1.0
  9
$DIMTOFL
 70
     1
  9
$DIMTVP
 40
0.0
  9
$DIMTIX
 70
     0
  9
$DIMSOXD
 70
     0
  9
$DIMSAH
 70
     0
  9
$DIMBLK1
  1

  9
$DIMBLK2
  1

  9
$DIMSTYLE
  2
Standard
  9
$DIMCLRD
 70
     0
  9
$DIMCLRE
 70
     0
  9
$DIMCLRT
 70
     1
  9
$DIMTFAC
 40
0.5142857142857144
  9
$DIMGAP
 40
1.5
  9
$DIMJUST
 70
     0
  9
$DIMSD1
 70
     0
  9
$DIMSD2
 70
     0
  9
$DIMTOLJ
 70
     1
  9
$DIMTZIN
 70
     8
  9
$DIMALTZ
 70
     8
  9
$DIMALTTZ
 70
     8
  9
$DIMUPT
 70
     0
  9
$DIMDEC
 70
     2
  9
$DIMTDEC
 70
     2
  9
$DIMALTU
 70
     2
  9
$DIMALTTD
 70
     2
  9
$DIMTXSTY
  7
STANDARD
  9
$DIMAUNIT
 70
     0
  9
$DIMADEC
 70
     2
  9
$DIMALTRND
 40
0.0
  9
$DIMAZIN
 70
     2
  9
$DIMDSEP
 70
    46
  9
$DIMATFIT
 70
     3
  9
$DIMFRAC
 70
     0
  9
$DIMLDRBLK
  1

  9
$DIMLUNIT
 70
     2
  9
$DIMLWD
 70
    -2
  9
$DIMLWE
 70
    -2
  9
$DIMTMOVE
 70
     0
  9
$LUNITS
 70
     2
  9
$LUPREC
 70
     2
  9
$SKETCHINC
 40
1.0
  9
$FILLETRAD
 40
0.0
  9
$AUNITS
 70
     1
  9
$AUPREC
 70
     3
  9
$MENU
  1
ACAD
  9
$ELEVATION
 40
0.0
  9
$PELEVATION
 40
0.0
  9
$THICKNESS
 40
0.0
  9
$LIMCHECK
 70
     0
  9
$CHAMFERA
 40
0.0
  9
$CHAMFERB
 40
0.0
  9
$CHAMFERC
 40
0.0
  9
$CHAMFERD
 40
0.0
  9
$SKPOLY
 70
     0
  9
$TDCREATE
 40
2452040.637099653
  9
$TDUCREATE
 40
2452040.553766320
  9
$TDUPDATE
 40
2455660.321234097
  9
$TDUUPDATE
 40
2455660.237900764
  9
$TDINDWG
 40
0.3918774074
  9
$TDUSRTIMER
 40
0.3918774074
  9
$USRTIMER
 70
     1
  9
$ANGBASE
 50
0.0
  9
$ANGDIR
 70
     0
  9
$PDMODE
 70
     0
  9
$PDSIZE
 40
0.0
  9
$PLINEWID
 40
0.0
  9
$SPLFRAME
 70
     0
  9
$SPLINETYPE
 70
     6
  9
$SPLINESEGS
 70
     8
  9
$HANDSEED
  5
CD3
  9
$SURFTAB1
 70
     6
  9
$SURFTAB2
 70
     6
  9
$SURFTYPE
 70
     6
  9
$SURFU
 70
     6
  9
$SURFV
 70
     6
  9
$UCSBASE
  2

  9
$UCSNAME
  2

  9
$UCSORG
 10
0.0
 20
0.0
 30
0.0
  9
$UCSXDIR
 10
1.0
 20
0.0
 30
0.0
  9
$UCSYDIR
 10
0.0
 20
1.0
 30
0.0
  9
$UCSORTHOREF
  2

  9
$UCSORTHOVIEW
 70
     0
  9
$UCSORGTOP
 10
0.0
 20
0.0
 30
0.0
  9
$UCSORGBOTTOM
 10
0.0
 20
0.0
 30
0.0
  9
$UCSORGLEFT
 10
0.0
 20
0.0
 30
0.0
  9
$UCSORGRIGHT
 10
0.0
 20
0.0
 30
0.0
  9
$UCSORGFRONT
 10
0.0
 20
0.0
 30
0.0
  9
$UCSORGBACK
 10
0.0
 20
0.0
 30
0.0
  9
$PUCSBASE
  2

  9
$PUCSNAME
  2

  9
$PUCSORG
 10
0.0
 20
0.0
 30
0.0
  9
$PUCSXDIR
 10
1.0
 20
0.0
 30
0.0
  9
$PUCSYDIR
 10
0.0
 20
1.0
 30
0.0
  9
$PUCSORTHOREF
  2

  9
$PUCSORTHOVIEW
 70
     0
  9
$PUCSORGTOP
 10
0.0
 20
0.0
 30
0.0
  9
$PUCSORGBOTTOM
 10
0.0
 20
0.0
 30
0.0
  9
$PUCSORGLEFT
 10
0.0
 20
0.0
 30
0.0
  9
$PUCSORGRIGHT
 10
0.0
 20
0.0
 30
0.0
  9
$PUCSORGFRONT
 10
0.0
 20
0.0
 30
0.0
  9
$PUCSORGBACK
 10
0.0
 20
0.0
 30
0.0
  9
$USERI1
 70
     0
  9
$USERI2
 70
     0
  9
$USERI3
 70
     0
  9
$USERI4
 70
     0
  9
$USERI5
 70
     0
  9
$USERR1
 40
0.0
  9
$USERR2
 40
0.0
  9
$USERR3
 40
0.0
  9
$USERR4
 40
0.0
  9
$USERR5
 40
0.0
  9
$WORLDVIEW
 70
     1
  9
$SHADEDGE
 70
     3
  9
$SHADEDIF
 70
    70
  9
$TILEMODE
 70
     1
  9
$MAXACTVP
 70
    16
  9
$PINSBASE
 10
0.0
 20
0.0
 30
0.0
  9
$PLIMCHECK
 70
     0
  9
$PEXTMIN
 10
1.000000000000000E+20
 20
1.000000000000000E+20
 30
1.000000000000000E+20
  9
$PEXTMAX
 10
-1.000000000000000E+20
 20
-1.000000000000000E+20
 30
-1.000000000000000E+20
  9
$PLIMMIN
 10
0.0
 20
0.0
  9
$PLIMMAX
 10
12.0
 20
9.0
  9
$UNITMODE
 70
     0
  9
$VISRETAIN
 70
     0
  9
$PLINEGEN
 70
     0
  9
$PSLTSCALE
 70
     0
  9
$TREEDEPTH
 70
  3020
  9
$CMLSTYLE
  2
Standard
  9
$CMLJUST
 70
     0
  9
$CMLSCALE
 40
1.0
  9
$PROXYGRAPHICS
 70
     1
  9
$MEASUREMENT
 70
     0
  9
$CELWEIGHT
370
    -1
  9
$ENDCAPS
280
     0
  9
$JOINSTYLE
280
     0
  9
$LWDISPLAY
290
     0
  9
$INSUNITS
 70
     0
  9
$HYPERLINKBASE
  1

  9
$STYLESHEET
  1
monochrome 1.ctb
  9
$XEDIT
290
     1
  9
$CEPSNTYPE
380
     0
  9
$PSTYLEMODE
290
     1
  9
$FINGERPRINTGUID
  2
{7AADB5C8-6110-11D8-B72B-000102183313}
  9
$VERSIONGUID
  2
{F076BDA0-92CE-42AA-A632-1247AF2087FD}
  9
$EXTNAMES
290
     1
  9
$PSVPSCALE
 40
0.0
  9
$OLESTARTUP
290
     0
  9
$SORTENTS
280
    96
  9
$INDEXCTL
280
     0
  9
$HIDETEXT
280
     0
  9
$XCLIPFRAME
290
     0
  9
$HALOGAP
280
     0
  9
$OBSCOLOR
 70
   257
  9
$OBSLTYPE
280
     0
  9
$INTERSECTIONDISPLAY
280
     0
  9
$INTERSECTIONCOLOR
 70
   257
  9
$DIMASSOC
280
     1
  9
$PROJECTNAME
  1

  0
ENDSEC
  0
SECTION
  2
CLASSES
  0
CLASS
  1
ACDBDICTIONARYWDFLT
  2
AcDbDictionaryWithDefault
  3
ObjectDBX Classes
 90
        0
 91
        1
280
     0
281
     0
  0
CLASS
  1
DICTIONARYVAR
  2
AcDbDictionaryVar
  3
ObjectDBX Classes
 90
        0
 91
        3
280
     0
281
     0
  0
ENDSEC
  0
SECTION
  2
TABLES
  0
TABLE
  2
VPORT
  5
8
330
0
100
AcDbSymbolTable
 70
     3
  0
VPORT
  5
CD2
330
8
100
AcDbSymbolTableRecord
100
AcDbViewportTableRecord
  2
*Active
 70
     0
 10
0.0
 20
0.0
 11
1.0
 21
1.0
 12
105.0
 22
148.5
 13
0.0
 23
0.0
 14
1.0
 24
1.0
 15
10.0
 25
10.0
 16
0.0
 26
0.0
 36
1.0
 17
0.0
 27
0.0
 37
0.0
 40
297.0
 41
1.334231805929919
 42
50.0
 43
0.0
 44
0.0
 50
0.0
 51
0.0
 71
     0
 72
  1500
 73
     1
 74
     0
 75
     0
 76
     0
 77
     0
 78
     0
281
     0
 65
     1
110
0.0
120
0.0
130
0.0
111
1.0
121
0.0
131
0.0
112
0.0
122
1.0
132
0.0
 79
     0
146
0.0
  0
ENDTAB
  0
TABLE
  2
LTYPE
  5
5
330
0
100
AcDbSymbolTable
 70
     2
  0
LTYPE
  5
13
330
5
100
AcDbSymbolTableRecord
100
AcDbLinetypeTableRecord
  2
ByBlock
 70
     0
  3

 72
    65
 73
     0
 40
0.0
  0
LTYPE
  5
14
330
5
100
AcDbSymbolTableRecord
100
AcDbLinetypeTableRecord
  2
ByLayer
 70
     0
  3

 72
    65
 73
     0
 40
0.0
  0
LTYPE
  5
15
330
5
100
AcDbSymbolTableRecord
100
AcDbLinetypeTableRecord
  2
Continuous
 70
     0
  3
Solid line
 72
    65
 73
     0
 40
0.0
  0
LTYPE
  5
35
330
5
100
AcDbSymbolTableRecord
100
AcDbLinetypeTableRecord
  2
STRICHPUNKT
 70
     0
  3
__ . __ . __ . __ . __ . __ . __ . __ . __ . __
 72
    65
 73
     4
 40
1.0
 49
0.5
 74
     0
 49
-0.25
 74
     0
 49
0.0
 74
     0
 49
-0.25
 74
     0
  0
ENDTAB
  0
TABLE
  2
LAYER
  5
2
330
0
100
AcDbSymbolTable
 70
     9
  0
LAYER
  5
10
330
2
100
AcDbSymbolTableRecord
100
AcDbLayerTableRecord
  2
0
 70
     0
 62
     7
  6
Continuous
370
    -3
390
F
  0
LAYER
  5
38
330
2
100
AcDbSymbolTableRecord
100
AcDbLayerTableRecord
  2
VOLL
 70
     0
 62
     1
  6
Continuous
370
    -3
390
F
  0
LAYER
  5
39
330
2
100
AcDbSymbolTableRecord
100
AcDbLayerTableRecord
  2
HILF
 70
     0
 62
     2
  6
Continuous
370
    -3
390
F
  0
LAYER
  5
3A
330
2
100
AcDbSymbolTableRecord
100
AcDbLayerTableRecord
  2
MITTEL
 70
     0
 62
     2
  6
STRICHPUNKT
370
    -3
390
F
  0
LAYER
  5
3B
330
2
100
AcDbSymbolTableRecord
100
AcDbLayerTableRecord
  2
BEM
 70
     0
 62
     7
  6
Continuous
370
    -3
390
F
  0
LAYER
  5
3C
330
2
100
AcDbSymbolTableRecord
100
AcDbLayerTableRecord
  2
STEMPEL
 70
     0
 62
     3
  6
Continuous
370
    -3
390
F
  0
LAYER
  5
3D
330
2
100
AcDbSymbolTableRecord
100
AcDbLayerTableRecord
  2
TEXT
 70
     0
 62
     7
  6
Continuous
370
    -3
390
F
  0
LAYER
  5
3E
330
2
100
AcDbSymbolTableRecord
100
AcDbLayerTableRecord
  2
DEFPOINTS
 70
     0
 62
     7
  6
Continuous
290
     0
370
    -3
390
F
  0
LAYER
  5
3F
330
2
100
AcDbSymbolTableRecord
100
AcDbLayerTableRecord
  2
SCHRAFF
 70
     0
 62
     7
  6
Continuous
370
    -3
390
F
  0
ENDTAB
  0
TABLE
  2
STYLE
  5
3
330
0
100
AcDbSymbolTable
 70
     2
  0
STYLE
  5
11
330
3
100
AcDbSymbolTableRecord
100
AcDbTextStyleTableRecord
  2
STANDARD
 70
     0
 40
0.0
 41
0.8
 50
0.0
 71
     0
 42
3.5
  3
simplex.shx
  4

  0
STYLE
  5
34
330
3
100
AcDbSymbolTableRecord
100
AcDbTextStyleTableRecord
  2
GREEKS
 70
     0
 40
0.0
 41
0.8
 50
0.0
 71
     0
 42
2.5
  3
SIMPLEX.shx
  4

  0
ENDTAB
  0
TABLE
  2
VIEW
  5
6
330
0
100
AcDbSymbolTable
 70
     0
  0
ENDTAB
  0
TABLE
  2
UCS
  5
7
330
0
100
AcDbSymbolTable
 70
     0
  0
ENDTAB
  0
TABLE
  2
APPID
  5
9
330
0
100
AcDbSymbolTable
 70
     1
  0
APPID
  5
12
330
9
100
AcDbSymbolTableRecord
100
AcDbRegAppTableRecord
  2
ACAD
 70
     0
  0
ENDTAB
  0
TABLE
  2
DIMSTYLE
  5
A
330
0
100
AcDbSymbolTable
 70
     1
100
AcDbDimStyleTable
 71
     1
340
1CB
  0
DIMSTYLE
105
1CB
102
{ACAD_REACTORS
330
8EE
330
995
330
BB3
330
C8A
330
C97
102
}
330
A
100
AcDbSymbolTableRecord
100
AcDbDimStyleTableRecord
  2
Standard
 70
     0
340
11
  0
ENDTAB
  0
TABLE
  2
BLOCK_RECORD
  5
1
330
0
100
AcDbSymbolTable
 70
     7
  0
BLOCK_RECORD
  5
1E
330
1
100
AcDbSymbolTableRecord
100
AcDbBlockTableRecord
  2
*Model_Space
340
21
  0
BLOCK_RECORD
  5
1A
330
1
100
AcDbSymbolTableRecord
100
AcDbBlockTableRecord
  2
*Paper_Space
340
1D
  0
BLOCK_RECORD
  5
22
330
1
100
AcDbSymbolTableRecord
100
AcDbBlockTableRecord
  2
LOGO
340
0
102
{BLKREFS
331
135
102
}
  0
BLOCK_RECORD
  5
8F6
330
1
100
AcDbSymbolTableRecord
100
AcDbBlockTableRecord
  2
*D1
340
0
  0
BLOCK_RECORD
  5
996
330
1
100
AcDbSymbolTableRecord
100
AcDbBlockTableRecord
  2
*D3
340
0
  0
BLOCK_RECORD
  5
BB4
330
1
100
AcDbSymbolTableRecord
100
AcDbBlockTableRecord
  2
*D4
340
0
  0
BLOCK_RECORD
  5
C8B
330
1
100
AcDbSymbolTableRecord
100
AcDbBlockTableRecord
  2
*D5
340
0
  0
BLOCK_RECORD
  5
C98
330
1
100
AcDbSymbolTableRecord
100
AcDbBlockTableRecord
  2
*D6
340
0
  0
ENDTAB
  0
ENDSEC
  0
SECTION
  2
BLOCKS
  0
BLOCK
  5
43
330
1E
100
AcDbEntity
  8
0
100
AcDbBlockBegin
  2
*Model_Space
 70
     0
 10
0.0
 20
0.0
 30
0.0
  3
*Model_Space
  1

  0
ENDBLK
  5
44
330
1E
100
AcDbEntity
  8
0
100
AcDbBlockEnd
  0
BLOCK
  5
41
330
1A
100
AcDbEntity
 67
     1
  8
0
100
AcDbBlockBegin
  2
*Paper_Space
 70
     0
 10
0.0
 20
0.0
 30
0.0
  3
*Paper_Space
  1

  0
ENDBLK
  5
42
330
1A
100
AcDbEntity
 67
     1
  8
0
100
AcDbBlockEnd
  0
BLOCK
  5
45
330
22
100
AcDbEntity
  8
0
100
AcDbBlockBegin
  2
LOGO
 70
     0
 10
0.0
 20
0.0
 30
0.0
  3
LOGO
  1

  0
ARC
  5
46
330
22
100
AcDbEntity
  8
0
100
AcDbCircle
 10
11.59973089678112
 20
-9.271599258481501
 30
0.0
 40
4.5
100
AcDbArc
 50
270.0
 51
231.0575587310159
  0
LINE
  5
47
330
22
100
AcDbEntity
  8
0
100
AcDbLine
 10
3.599730896781125
 20
-4.771599258481529
 30
0.0
 11
3.599730896781153
 21
-11.77159925848133
 31
0.0
  0
LINE
  5
48
330
22
100
AcDbEntity
  8
0
100
AcDbLine
 10
2.599730896781125
 20
-4.771599258481529
 30
0.0
 11
2.599730896781153
 21
-11.77159925848133
 31
0.0
  0
CIRCLE
  5
49
330
22
100
AcDbEntity
  8
0
100
AcDbCircle
 10
11.59973089678112
 20
-9.271599258481501
 30
0.0
 40
3.5
  0
ARC
  5
4A
330
22
100
AcDbEntity
  8
0
100
AcDbCircle
 10
31.59973089678115
 20
-9.271599258481472
 30
0.0
 40
4.5
100
AcDbArc
 50
270.0
 51
231.0575587310182
  0
LINE
  5
4B
330
22
100
AcDbEntity
  8
0
100
AcDbLine
 10
17.59973089678112
 20
-4.771599258481472
 30
0.0
 11
17.59973089678115
 21
-13.77159925848147
 31
0.0
  0
ARC
  5
4C
330
22
100
AcDbEntity
  8
0
100
AcDbCircle
 10
22.59973089678116
 20
-7.271599258481472
 30
0.0
 40
2.5
100
AcDbArc
 50
293.1161887722295
 51
90.0
  0
CIRCLE
  5
4D
330
22
100
AcDbEntity
  8
0
100
AcDbCircle
 10
31.59973089678115
 20
-9.271599258481472
 30
0.0
 40
3.5
  0
ARC
  5
4E
330
22
100
AcDbEntity
  8
0
100
AcDbCircle
 10
4.599730896781153
 20
-11.77159925848133
 30
0.0
 40
1.0
100
AcDbArc
 50
180.0
 51
270.0
  0
ARC
  5
4F
330
22
100
AcDbEntity
  8
0
100
AcDbCircle
 10
4.599730896781153
 20
-11.77159925848133
 30
0.0
 40
2.0
100
AcDbArc
 50
179.9999999999992
 51
270.0
  0
LINE
  5
50
330
22
100
AcDbEntity
  8
0
100
AcDbLine
 10
11.59973089678115
 20
-13.77159925848144
 30
0.0
 11
4.599730896781153
 21
-13.77159925848147
 31
0.0
  0
LINE
  5
51
330
22
100
AcDbEntity
  8
0
100
AcDbLine
 10
8.771303772034769
 20
-12.77159925848136
 30
0.0
 11
4.599730896781153
 21
-12.77159925848133
 31
0.0
  0
LINE
  5
52
330
22
100
AcDbEntity
  8
0
100
AcDbLine
 10
31.59973089678115
 20
-13.77159925848147
 30
0.0
 11
23.6715276665056
 21
-13.77159925848144
 31
0.0
  0
LINE
  5
53
330
22
100
AcDbEntity
  8
0
100
AcDbLine
 10
23.56565672307022
 20
-9.51278021337896
 30
0.0
 11
24.4388546544846
 21
-12.77159925848144
 31
0.0
  0
LINE
  5
54
330
22
100
AcDbEntity
  8
0
100
AcDbLine
 10
22.59973089678116
 20
-9.771599258481472
 30
0.0
 11
18.59973089678112
 21
-9.771599258481472
 31
0.0
  0
LINE
  5
55
330
22
100
AcDbEntity
  8
0
100
AcDbLine
 10
18.59973089678115
 20
-13.77159925848144
 30
0.0
 11
17.59973089678115
 21
-13.77159925848144
 31
0.0
  0
LINE
  5
56
330
22
100
AcDbEntity
  8
0
100
AcDbLine
 10
18.59973089678115
 20
-9.771599258481472
 30
0.0
 11
18.59973089678115
 21
-13.77159925848144
 31
0.0
  0
LINE
  5
57
330
22
100
AcDbEntity
  8
0
100
AcDbLine
 10
22.59973089678116
 20
-9.771599258481472
 30
0.0
 11
23.67152766650562
 21
-13.77159925848147
 31
0.0
  0
ARC
  5
58
330
22
100
AcDbEntity
  8
0
100
AcDbCircle
 10
22.59973089678116
 20
-7.271599258481472
 30
0.0
 40
2.5
100
AcDbArc
 50
270.0
 51
270.0000000000007
  0
LINE
  5
59
330
22
100
AcDbEntity
  8
0
100
AcDbLine
 10
28.77130377203494
 20
-12.77159925848147
 30
0.0
 11
24.43885465448463
 21
-12.77159925848144
 31
0.0
  0
LINE
  5
5A
330
22
100
AcDbEntity
  8
0
100
AcDbLine
 10
3.599730896781125
 20
-4.771599258481472
 30
0.0
 11
2.599730896781125
 21
-4.771599258481472
 31
0.0
  0
LINE
  5
5B
330
22
100
AcDbEntity
  8
0
100
AcDbLine
 10
22.59973089678116
 20
-8.771599258481472
 30
0.0
 11
18.59973089678115
 21
-8.771599258481472
 31
0.0
  0
LINE
  5
5C
330
22
100
AcDbEntity
  8
0
100
AcDbLine
 10
22.59973089678116
 20
-5.771599258481472
 30
0.0
 11
18.59973089678115
 21
-5.771599258481472
 31
0.0
  0
LINE
  5
5D
330
22
100
AcDbEntity
  8
0
100
AcDbLine
 10
22.59973089678116
 20
-4.771599258481472
 30
0.0
 11
17.59973089678115
 21
-4.771599258481472
 31
0.0
  0
LINE
  5
5E
330
22
100
AcDbEntity
  8
0
100
AcDbLine
 10
18.59973089678115
 20
-5.771599258481472
 30
0.0
 11
18.59973089678115
 21
-8.771599258481472
 31
0.0
  0
ARC
  5
5F
330
22
100
AcDbEntity
  8
0
100
AcDbCircle
 10
22.59973089678116
 20
-7.271599258481472
 30
0.0
 40
1.5
100
AcDbArc
 50
270.0
 51
90.0
  0
ENDBLK
  5
60
330
22
100
AcDbEntity
  8
0
100
AcDbBlockEnd
  0
BLOCK
  5
900
330
8F6
100
AcDbEntity
  8
0
100
AcDbBlockBegin
  2
*D1
 70
     1
 10
0.0
 20
0.0
 30
0.0
  3
*D1
  1

  0
LINE
  5
C44
330
8F6
100
AcDbEntity
  8
BEM
 62
     0
370
    -2
100
AcDbLine
 10
54.57959638623766
 20
84.41608033800358
 30
0.0
 11
54.57959638623766
 21
66.35410884666936
 31
0.0
  0
LINE
  5
C45
330
8F6
100
AcDbEntity
  8
BEM
 62
     0
370
    -2
100
AcDbLine
 10
107.5795963862385
 20
84.41608033800358
 30
0.0
 11
107.5795963862385
 21
66.35410884666936
 31
0.0
  0
LINE
  5
C46
330
8F6
100
AcDbEntity
  8
BEM
 62
     0
370
    -2
100
AcDbLine
 10
58.07959638623765
 20
67.35410884666936
 30
0.0
 11
104.0795963862385
 21
67.35410884666936
 31
0.0
  0
SOLID
  5
C47
330
8F6
100
AcDbEntity
  8
BEM
 62
     0
100
AcDbTrace
 10
58.07959638623765
 20
67.93744218000269
 30
0.0
 11
58.07959638623765
 21
66.77077551333603
 31
0.0
 12
54.57959638623766
 22
67.35410884666936
 32
0.0
 13
54.57959638623766
 23
67.35410884666936
 33
0.0
  0
SOLID
  5
C48
330
8F6
100
AcDbEntity
  8
BEM
 62
     0
100
AcDbTrace
 10
104.0795963862385
 20
67.93744218000269
 30
0.0
 11
104.0795963862385
 21
66.77077551333603
 31
0.0
 12
107.5795963862385
 22
67.35410884666936
 32
0.0
 13
107.5795963862385
 23
67.35410884666936
 33
0.0
  0
MTEXT
  5
C49
330
8F6
100
AcDbEntity
  8
BEM
 62
     1
100
AcDbMText
 10
81.0795963862381
 20
70.60410884666936
 30
0.0
 40
3.5
 41
0.0
 71
     5
 72
     1
  1
\A1;%%c53
 73
     1
 44
1.0
  0
POINT
  5
C4A
330
8F6
100
AcDbEntity
  8
DEFPOINTS
 62
     0
100
AcDbPoint
 10
54.57959638623766
 20
85.41608033800358
 30
0.0
  0
POINT
  5
C4B
330
8F6
100
AcDbEntity
  8
DEFPOINTS
 62
     0
100
AcDbPoint
 10
107.5795963862385
 20
85.41608033800358
 30
0.0
  0
POINT
  5
C4C
330
8F6
100
AcDbEntity
  8
DEFPOINTS
 62
     0
100
AcDbPoint
 10
107.5795963862385
 20
67.35410884666936
 30
0.0
  0
ENDBLK
  5
901
330
8F6
100
AcDbEntity
  8
0
100
AcDbBlockEnd
  0
BLOCK
  5
9A0
330
996
100
AcDbEntity
  8
0
100
AcDbBlockBegin
  2
*D3
 70
     1
 10
0.0
 20
0.0
 30
0.0
  3
*D3
  1

  0
LINE
  5
C3B
330
996
100
AcDbEntity
  8
BEM
 62
     0
370
    -2
100
AcDbLine
 10
54.01703970386723
 20
80.41608033800358
 30
0.0
 11
44.52191672282832
 21
80.41608033800358
 31
0.0
  0
LINE
  5
C3C
330
996
100
AcDbEntity
  8
BEM
 62
     0
370
    -2
100
AcDbLine
 10
80.07959638623759
 20
145.4160803380036
 30
0.0
 11
44.52191672282833
 21
145.4160803380036
 31
0.0
  0
LINE
  5
C3D
330
996
100
AcDbEntity
  8
BEM
 62
     0
370
    -2
100
AcDbLine
 10
45.52191672282832
 20
83.91608033800357
 30
0.0
 11
45.52191672282833
 21
141.9160803380036
 31
0.0
  0
SOLID
  5
C3E
330
996
100
AcDbEntity
  8
BEM
 62
     0
100
AcDbTrace
 10
44.93858338949499
 20
83.91608033800357
 30
0.0
 11
46.10525005616166
 21
83.91608033800357
 31
0.0
 12
45.52191672282832
 22
80.41608033800358
 32
0.0
 13
45.52191672282832
 23
80.41608033800358
 33
0.0
  0
SOLID
  5
C3F
330
996
100
AcDbEntity
  8
BEM
 62
     0
100
AcDbTrace
 10
44.93858338949499
 20
141.9160803380036
 30
0.0
 11
46.10525005616167
 21
141.9160803380036
 31
0.0
 12
45.52191672282833
 22
145.4160803380036
 32
0.0
 13
45.52191672282833
 23
145.4160803380036
 33
0.0
  0
MTEXT
  5
C40
330
996
100
AcDbEntity
  8
BEM
 62
     1
100
AcDbMText
 10
42.2719167228283
 20
112.9160803380036
 30
0.0
 40
3.5
 41
0.0
 71
     5
 72
     1
  1
\A1;65
 11
0.0000000000000001
 21
1.0
 31
0.0
 73
     1
 44
1.0
  0
POINT
  5
C41
330
996
100
AcDbEntity
  8
DEFPOINTS
 62
     0
100
AcDbPoint
 10
55.01703970386722
 20
80.41608033800358
 30
0.0
  0
POINT
  5
C42
330
996
100
AcDbEntity
  8
DEFPOINTS
 62
     0
100
AcDbPoint
 10
81.07959638623759
 20
145.4160803380036
 30
0.0
  0
POINT
  5
C43
330
996
100
AcDbEntity
  8
DEFPOINTS
 62
     0
100
AcDbPoint
 10
45.52191672282833
 20
145.4160803380036
 30
0.0
  0
ENDBLK
  5
9A1
330
996
100
AcDbEntity
  8
0
100
AcDbBlockEnd
  0
BLOCK
  5
BC0
330
BB4
100
AcDbEntity
  8
0
100
AcDbBlockBegin
  2
*D4
 70
     1
 10
0.0
 20
0.0
 30
0.0
  3
*D4
  1

  0
LINE
  5
C0C
330
BB4
100
AcDbEntity
  8
BEM
 62
     0
370
    -2
100
AcDbLine
 10
175.8319050652349
 20
240.168389017001
 30
0.0
 11
182.06756364866
 21
246.404047600426
 31
0.0
  0
LINE
  5
C0D
330
BB4
100
AcDbEntity
  8
BEM
 62
     0
370
    -2
100
AcDbLine
 10
81.07959638623754
 20
274.4160803380036
 30
0.0
 11
81.07959638623748
 21
288.2346332770115
 31
0.0
  0
ARC
  5
C0E
330
BB4
100
AcDbEntity
  8
BEM
 62
     0
370
    -2
100
AcDbCircle
 10
81.07959638623764
 20
145.4160803380036
 30
0.0
 40
141.8185529390078
100
AcDbArc
 50
46.4140626433389
 51
88.58593735666117
  0
SOLID
  5
C0F
330
BB4
100
AcDbEntity
  8
BEM
 62
     0
100
AcDbTrace
 10
179.2625900152353
 20
248.5586243181713
 30
0.0
 11
178.4478746562433
 21
247.7235494742599
 31
0.0
 12
181.3604568674735
 22
245.6969408192395
 32
0.0
 13
181.3604568674735
 23
245.6969408192395
 33
0.0
  0
SOLID
  5
C10
330
BB4
100
AcDbEntity
  8
BEM
 62
     0
100
AcDbTrace
 10
84.57213174133787
 20
286.6081553674636
 30
0.0
 11
84.5865280711858
 21
287.7747332074717
 31
0.0
 12
81.07959638623748
 22
287.2346332770115
 32
0.0
 13
81.07959638623748
 23
287.2346332770115
 33
0.0
  0
MTEXT
  5
C11
330
BB4
100
AcDbEntity
  8
BEM
 62
     1
100
AcDbMText
 10
136.5949281531738
 20
279.4419472093831
 30
0.0
 40
3.5
 41
0.0
 71
     5
 72
     1
  1
\A1;45°
 11
0.9238795325112873
 21
-0.3826834323650885
 31
0.0
 73
     1
 44
1.0
  0
POINT
  5
C12
330
BB4
100
AcDbEntity
  8
DEFPOINTS
 62
     0
100
AcDbPoint
 10
151.9888728557415
 20
268.2345499111327
 30
0.0
  0
POINT
  5
C13
330
BB4
100
AcDbEntity
  8
DEFPOINTS
 62
     0
100
AcDbPoint
 10
81.07959638623754
 20
273.4160803380035
 30
0.0
  0
POINT
  5
C14
330
BB4
100
AcDbEntity
  8
DEFPOINTS
 62
     0
100
AcDbPoint
 10
175.1247982840484
 20
239.4612822358144
 30
0.0
  0
POINT
  5
C15
330
BB4
100
AcDbEntity
  8
DEFPOINTS
 62
     0
100
AcDbPoint
 10
81.07959638623759
 20
145.4160803380036
 30
0.0
  0
POINT
  5
C16
330
BB4
100
AcDbEntity
  8
DEFPOINTS
 62
     0
100
AcDbPoint
 10
81.07959638623768
 20
75.41608033800358
 30
0.0
  0
ENDBLK
  5
BC1
330
BB4
100
AcDbEntity
  8
0
100
AcDbBlockEnd
  0
BLOCK
  5
C95
330
C8B
100
AcDbEntity
  8
0
100
AcDbBlockBegin
  2
*D5
 70
     1
 10
0.0
 20
0.0
 30
0.0
  3
*D5
  1

  0
LINE
  5
CB6
330
C8B
100
AcDbEntity
  8
SCHRAFF
 62
     0
370
    -2
100
AcDbLine
 10
51.06235361761389
 20
268.4160803380036
 30
0.0
 11
35.99014590025016
 21
268.4160803380036
 31
0.0
  0
LINE
  5
CB7
330
C8B
100
AcDbEntity
  8
SCHRAFF
 62
     0
370
    -2
100
AcDbLine
 10
54.01703970386723
 20
80.41608033800358
 30
0.0
 11
35.99014590025013
 21
80.41608033800358
 31
0.0
  0
LINE
  5
CB8
330
C8B
100
AcDbEntity
  8
SCHRAFF
 62
     0
370
    -2
100
AcDbLine
 10
36.99014590025016
 20
264.9160803380036
 30
0.0
 11
36.99014590025013
 21
83.91608033800357
 31
0.0
  0
SOLID
  5
CB9
330
C8B
100
AcDbEntity
  8
SCHRAFF
 62
     0
100
AcDbTrace
 10
36.40681256691683
 20
264.9160803380036
 30
0.0
 11
37.5734792335835
 21
264.9160803380036
 31
0.0
 12
36.99014590025016
 22
268.4160803380036
 32
0.0
 13
36.99014590025016
 23
268.4160803380036
 33
0.0
  0
SOLID
  5
CBA
330
C8B
100
AcDbEntity
  8
SCHRAFF
 62
     0
100
AcDbTrace
 10
36.40681256691679
 20
83.91608033800357
 30
0.0
 11
37.57347923358346
 21
83.91608033800357
 31
0.0
 12
36.99014590025013
 22
80.41608033800358
 32
0.0
 13
36.99014590025013
 23
80.41608033800358
 33
0.0
  0
MTEXT
  5
CBB
330
C8B
100
AcDbEntity
  8
SCHRAFF
 62
     1
100
AcDbMText
 10
33.74014590025012
 20
174.4160803380036
 30
0.0
 40
3.5
 41
0.0
 71
     5
 72
     1
  1
\A1;188
 11
0.0000000000000001
 21
1.0
 31
0.0
 73
     1
 44
1.0
  0
POINT
  5
CBC
330
C8B
100
AcDbEntity
  8
DEFPOINTS
 62
     0
100
AcDbPoint
 10
52.0623536176139
 20
268.4160803380036
 30
0.0
  0
POINT
  5
CBD
330
C8B
100
AcDbEntity
  8
DEFPOINTS
 62
     0
100
AcDbPoint
 10
55.01703970386722
 20
80.41608033800358
 30
0.0
  0
POINT
  5
CBE
330
C8B
100
AcDbEntity
  8
DEFPOINTS
 62
     0
100
AcDbPoint
 10
36.99014590025013
 20
80.41608033800358
 30
0.0
  0
ENDBLK
  5
C96
330
C8B
100
AcDbEntity
  8
0
100
AcDbBlockEnd
  0
BLOCK
  5
CA2
330
C98
100
AcDbEntity
  8
0
100
AcDbBlockBegin
  2
*D6
 70
     1
 10
0.0
 20
0.0
 30
0.0
  3
*D6
  1

  0
LINE
  5
CAD
330
C98
100
AcDbEntity
  8
BEM
 62
     0
370
    -2
100
AcDbLine
 10
81.78670316742415
 20
144.708973556817
 30
0.0
 11
109.1615915564453
 21
117.3340851677962
 31
0.0
  0
LINE
  5
CAE
330
C98
100
AcDbEntity
  8
BEM
 62
     0
370
    -2
100
AcDbLine
 10
192.8146602923323
 20
214.7003524156652
 30
0.0
 11
199.6712595483229
 21
207.8437531596748
 31
0.0
  0
LINE
  5
CAF
330
C98
100
AcDbEntity
  8
BEM
 62
     0
370
    -2
100
AcDbLine
 10
110.9293585094116
 20
120.5160656831356
 30
0.0
 11
196.4892790329834
 21
206.0759862067083
 31
0.0
  0
SOLID
  5
CB0
330
C98
100
AcDbEntity
  8
BEM
 62
     0
100
AcDbTrace
 10
110.5168795537195
 20
120.9285446388278
 30
0.0
 11
111.3418374651038
 21
120.1035867274435
 31
0.0
 12
108.4544847752587
 22
118.0411919489827
 32
0.0
 13
108.4544847752587
 23
118.0411919489827
 33
0.0
  0
SOLID
  5
CB1
330
C98
100
AcDbEntity
  8
BEM
 62
     0
100
AcDbTrace
 10
196.0768000772912
 20
206.4884651624005
 30
0.0
 11
196.9017579886755
 21
205.6635072510162
 31
0.0
 12
198.9641527671363
 22
208.5508599408613
 32
0.0
 13
198.9641527671363
 23
208.5508599408613
 33
0.0
  0
MTEXT
  5
CB2
330
C98
100
AcDbEntity
  8
BEM
 62
     1
100
AcDbMText
 10
151.4112217323412
 20
165.5941229837782
 30
0.0
 40
3.5
 41
0.0
 71
     5
 72
     1
  1
\A1;128
 11
0.7071067811865436
 21
0.7071067811865515
 31
0.0
 73
     1
 44
1.0
  0
POINT
  5
CB3
330
C98
100
AcDbEntity
  8
DEFPOINTS
 62
     0
100
AcDbPoint
 10
81.07959638623761
 20
145.4160803380036
 30
0.0
  0
POINT
  5
CB4
330
C98
100
AcDbEntity
  8
DEFPOINTS
 62
     0
100
AcDbPoint
 10
192.1075535111458
 20
215.4074591968517
 30
0.0
  0
POINT
  5
CB5
330
C98
100
AcDbEntity
  8
DEFPOINTS
 62
     0
100
AcDbPoint
 10
198.9641527671363
 20
208.5508599408612
 30
0.0
  0
ENDBLK
  5
CA3
330
C98
100
AcDbEntity
  8
0
100
AcDbBlockEnd
  0
ENDSEC
  0
SECTION
  2
ENTITIES
  0
TEXT
  5
134
330
1E
100
AcDbEntity
  8
TEXT
100
AcDbText
 10
102.2108024290628
 20
31.54481959861755
 30
0.0
 40
2.0
  1
Koeh
 41
0.8
  7
GREEKS
 72
     1
 11
104.8393738576343
 21
31.54481959861755
 31
0.0
100
AcDbText
  0
INSERT
  5
135
330
1E
100
AcDbEntity
  8
STEMPEL
100
AcDbBlockReference
  2
LOGO
 10
75.4977742728897
 20
22.51052638224161
 30
0.0
  0
LINE
  5
136
330
1E
100
AcDbEntity
  8
HILF
100
AcDbLine
 10
210.0
 20
0.0
 30
0.0
 11
0.0
 21
0.0
 31
0.0
  0
LINE
  5
137
330
1E
100
AcDbEntity
  8
HILF
100
AcDbLine
 10
210.0
 20
297.0000000000001
 30
0.0
 11
0.0
 21
297.0
 31
0.0
  0
LINE
  5
138
330
1E
100
AcDbEntity
  8
STEMPEL
100
AcDbLine
 10
205.0
 20
292.0
 30
0.0
 11
19.99999999999994
 21
292.0
 31
0.0
  0
LINE
  5
139
330
1E
100
AcDbEntity
  8
STEMPEL
100
AcDbLine
 10
205.0
 20
5.0
 30
0.0
 11
19.99999999999994
 21
5.0
 31
0.0
  0
LINE
  5
13A
330
1E
100
AcDbEntity
  8
STEMPEL
100
AcDbLine
 10
24.99999999999995
 20
5.0
 30
0.0
 11
205.0
 21
5.0
 31
0.0
  0
TEXT
  5
13B
330
1E
100
AcDbEntity
  8
TEXT
100
AcDbText
 10
101.2313292113147
 20
36.65480545957612
 30
0.0
 40
2.0
  1
Name
 41
0.8
  7
GREEKS
100
AcDbText
  0
TEXT
  5
13C
330
1E
100
AcDbEntity
  8
TEXT
100
AcDbText
 10
98.27491395507747
 20
51.32531138882947
 30
0.0
 40
2.5
  1
Zul. Abw.
 41
0.8
  7
GREEKS
 72
     4
 11
104.9891996693631
 21
52.57531138882947
 31
0.0
100
AcDbText
  0
LINE
  5
13D
330
1E
100
AcDbEntity
  8
HILF
100
AcDbLine
 10
73.00000000000006
 20
24.99999999999999
 30
0.0
 11
115.0
 21
24.99999999999999
 31
0.0
  0
LINE
  5
13E
330
1E
100
AcDbEntity
  8
HILF
100
AcDbLine
 10
73.00000000000006
 20
29.99999999999999
 30
0.0
 11
115.0
 21
29.99999999999999
 31
0.0
  0
LINE
  5
13F
330
1E
100
AcDbEntity
  8
HILF
100
AcDbLine
 10
73.00000000000006
 20
34.99999999999997
 30
0.0
 11
115.0
 21
34.99999999999997
 31
0.0
  0
LINE
  5
140
330
1E
100
AcDbEntity
  8
STEMPEL
100
AcDbLine
 10
205.0
 20
40.0
 30
0.0
 11
73.00000000000006
 21
39.99999999999997
 31
0.0
  0
LINE
  5
141
330
1E
100
AcDbEntity
  8
STEMPEL
100
AcDbLine
 10
205.0
 20
20.0
 30
0.0
 11
73.00000000000006
 21
19.99999999999998
 31
0.0
  0
LINE
  5
142
330
1E
100
AcDbEntity
  8
STEMPEL
100
AcDbLine
 10
205.0
 20
55.00000000000003
 30
0.0
 11
19.99999999999998
 21
55.0
 31
0.0
  0
LINE
  5
144
330
1E
100
AcDbEntity
  8
HILF
100
AcDbLine
 10
0.0
 20
0.0
 30
0.0
 11
-0.0000000000000568
 21
297.0
 31
0.0
  0
LINE
  5
145
330
1E
100
AcDbEntity
  8
STEMPEL
100
AcDbLine
 10
20.0
 20
5.0
 30
0.0
 11
19.99999999999994
 21
292.0
 31
0.0
  0
TEXT
  5
146
330
1E
100
AcDbEntity
  8
TEXT
100
AcDbText
 10
20.92754975488837
 20
55.83599999999997
 30
0.0
 40
2.5
  1
Erstellt mit AUTOCAD 2004
 41
0.8
  7
GREEKS
100
AcDbText
  0
LINE
  5
148
330
1E
100
AcDbEntity
  8
HILF
100
AcDbLine
 10
20.00000000000004
 20
19.99999999999998
 30
0.0
 11
73.00000000000006
 21
19.99999999999998
 31
0.0
  0
LINE
  5
149
330
1E
100
AcDbEntity
  8
HILF
100
AcDbLine
 10
20.00000000000004
 20
24.99999999999999
 30
0.0
 11
73.00000000000006
 21
24.99999999999999
 31
0.0
  0
LINE
  5
14A
330
1E
100
AcDbEntity
  8
HILF
100
AcDbLine
 10
20.00000000000004
 20
29.99999999999999
 30
0.0
 11
73.00000000000006
 21
29.99999999999999
 31
0.0
  0
LINE
  5
14B
330
1E
100
AcDbEntity
  8
HILF
100
AcDbLine
 10
20.00000000000004
 20
34.99999999999997
 30
0.0
 11
73.00000000000006
 21
34.99999999999997
 31
0.0
  0
LINE
  5
14C
330
1E
100
AcDbEntity
  8
HILF
100
AcDbLine
 10
20.00000000000004
 20
39.99999999999997
 30
0.0
 11
73.00000000000006
 21
39.99999999999997
 31
0.0
  0
LINE
  5
14D
330
1E
100
AcDbEntity
  8
HILF
100
AcDbLine
 10
20.00000000000004
 20
45.00000000000002
 30
0.0
 11
73.00000000000006
 21
45.00000000000002
 31
0.0
  0
LINE
  5
14E
330
1E
100
AcDbEntity
  8
HILF
100
AcDbLine
 10
20.00000000000004
 20
50.00000000000003
 30
0.0
 11
73.00000000000006
 21
50.00000000000003
 31
0.0
  0
LINE
  5
14F
330
1E
100
AcDbEntity
  8
STEMPEL
100
AcDbLine
 10
72.99999999999994
 20
14.99999999999998
 30
0.0
 11
19.99999999999998
 21
14.99999999999998
 31
0.0
  0
TEXT
  5
150
330
1E
100
AcDbEntity
  8
TEXT
100
AcDbText
 10
24.13320553522878
 20
6.827329230135958
 30
0.0
 40
2.0
  1
Index
 50
90.0
 41
0.8
  7
GREEKS
100
AcDbText
  0
LINE
  5
151
330
1E
100
AcDbEntity
  8
VOLL
100
AcDbLine
 10
27.00000000000005
 20
55.00000000000003
 30
0.0
 11
26.99999999999999
 21
4.999999999999985
 31
0.0
  0
LINE
  5
152
330
1E
100
AcDbEntity
  8
HILF
100
AcDbLine
 10
15.54383567856928
 20
148.5
 30
0.0
 11
0.0000000000000568
 21
148.5
 31
0.0
  0
LINE
  5
154
330
1E
100
AcDbEntity
  8
VOLL
100
AcDbLine
 10
62.00000000000006
 20
54.99999999999997
 30
0.0
 11
62.0
 21
4.999999999999985
 31
0.0
  0
LINE
  5
155
330
1E
100
AcDbEntity
  8
VOLL
100
AcDbLine
 10
52.00000000000006
 20
54.99999999999997
 30
0.0
 11
52.0
 21
4.999999999999985
 31
0.0
  0
LINE
  5
157
330
1E
100
AcDbEntity
  8
STEMPEL
100
AcDbLine
 10
73.00000000000006
 20
54.99999999999997
 30
0.0
 11
73.0
 21
4.999999999999985
 31
0.0
  0
TEXT
  5
158
330
1E
100
AcDbEntity
  8
TEXT
100
AcDbText
 10
85.19949855411802
 20
31.55382520412866
 30
0.0
 40
2.0
  1
08.04.
 41
0.8
  7
GREEKS
 72
     1
 11
88.70426045887993
 21
31.55382520412866
 31
0.0
100
AcDbText
  0
TEXT
  5
159
330
1E
100
AcDbEntity
  8
TEXT
100
AcDbText
 10
86.16558365768254
 20
36.65940250614963
 30
0.0
 40
2.0
  1
Tag
 41
0.8
  7
GREEKS
100
AcDbText
  0
TEXT
  5
15A
330
1E
100
AcDbEntity
  8
TEXT
100
AcDbText
 10
73.79180635838077
 20
31.81495184808982
 30
0.0
 40
2.0
  1
Gez.
 41
0.8
  7
GREEKS
100
AcDbText
  0
LINE
  5
15B
330
1E
100
AcDbEntity
  8
VOLL
100
AcDbLine
 10
82.00000000000006
 20
39.99999999999997
 30
0.0
 11
82.00000000000006
 21
19.99999999999998
 31
0.0
  0
TEXT
  5
15C
330
1E
100
AcDbEntity
  8
TEXT
100
AcDbText
 10
73.80033886936519
 20
21.76473194824904
 30
0.0
 40
2.0
  1
Norm.
 41
0.8
  7
GREEKS
100
AcDbText
  0
TEXT
  5
15D
330
1E
100
AcDbEntity
  8
TEXT
100
AcDbText
 10
73.77575432858361
 20
26.84463145714189
 30
0.0
 40
2.0
  1
Gepr.
 41
0.8
  7
GREEKS
100
AcDbText
  0
TEXT
  5
15E
330
1E
100
AcDbEntity
  8
TEXT
 62
     1
100
AcDbText
 10
80.25031532409434
 20
44.07450714456979
 30
0.0
 40
3.5
  1
1:1
 41
0.8
  7
GREEKS
100
AcDbText
  0
TEXT
  5
15F
330
1E
100
AcDbEntity
  8
TEXT
100
AcDbText
 10
76.75817860751886
 20
51.23104475435443
 30
0.0
 40
2.5
  1
Maßstab
 41
0.8
  7
GREEKS
100
AcDbText
  0
TEXT
  5
160
330
1E
100
AcDbEntity
  8
TEXT
100
AcDbText
 10
74.31105491105199
 20
36.57012735575833
 30
0.0
 40
2.0
  1
2011
 41
0.8
  7
GREEKS
100
AcDbText
  0
LINE
  5
161
330
1E
100
AcDbEntity
  8
VOLL
100
AcDbLine
 10
95.00000000000005
 20
54.99999999999992
 30
0.0
 11
95.0
 21
19.99999999999998
 31
0.0
  0
LINE
  5
186
330
1E
100
AcDbEntity
  8
HILF
100
AcDbLine
 10
210.0
 20
-0.0000000000000568
 30
0.0
 11
210.0
 21
297.0
 31
0.0
  0
LINE
  5
187
330
1E
100
AcDbEntity
  8
STEMPEL
100
AcDbLine
 10
205.0
 20
5.0
 30
0.0
 11
205.0
 21
292.0
 31
0.0
  0
TEXT
  5
188
330
1E
100
AcDbEntity
  8
TEXT
100
AcDbText
 10
168.6200430748503
 20
26.03708088939301
 30
0.0
 40
2.5
  1
ersetzt durch:
 41
0.8
  7
GREEKS
100
AcDbText
  0
TEXT
  5
189
330
1E
100
AcDbEntity
  8
TEXT
100
AcDbText
 10
168.3619308148496
 20
36.59059118549985
 30
0.0
 40
2.5
  1
Ersatz für:
 41
0.8
  7
GREEKS
100
AcDbText
  0
TEXT
  5
18A
330
1E
100
AcDbEntity
  8
TEXT
100
AcDbText
 10
168.089377478817
 20
51.15660172685682
 30
0.0
 40
2.5
  1
Zeichnungs Nr.
 41
0.8
  7
GREEKS
100
AcDbText
  0
LINE
  5
18B
330
1E
100
AcDbEntity
  8
HILF
100
AcDbLine
 10
116.7454849644942
 20
7.446991290141568
 30
0.0
 11
202.4294419663364
 21
7.446991290141568
 31
0.0
  0
LINE
  5
18C
330
1E
100
AcDbEntity
  8
HILF
100
AcDbLine
 10
168.3619308148496
 20
41.88991818477913
 30
0.0
 11
202.4294419663364
 21
41.88991818477913
 31
0.0
  0
LINE
  5
18D
330
1E
100
AcDbEntity
  8
VOLL
100
AcDbLine
 10
166.0
 20
30.0
 30
0.0
 11
205.0
 21
30.0
 31
0.0
  0
TEXT
  5
18E
330
1E
100
AcDbEntity
  8
TEXT
 62
     1
100
AcDbText
 10
117.4641932160007
 20
43.70874394626889
 30
0.0
 40
3.5
  1
Abzweig DN50/50
 41
0.8
  7
GREEKS
100
AcDbText
  0
LINE
  5
18F
330
1E
100
AcDbEntity
  8
HILF
100
AcDbLine
 10
117.3868400548473
 20
24.99999999999999
 30
0.0
 11
162.4176958278155
 21
24.99999999999999
 31
0.0
  0
LINE
  5
190
330
1E
100
AcDbEntity
  8
HILF
100
AcDbLine
 10
117.3868400548473
 20
29.99999999999999
 30
0.0
 11
162.4176958278155
 21
29.99999999999999
 31
0.0
  0
LINE
  5
191
330
1E
100
AcDbEntity
  8
HILF
100
AcDbLine
 10
117.3868400548473
 20
34.99999999999997
 30
0.0
 11
162.4176958278155
 21
34.99999999999997
 31
0.0
  0
LINE
  5
192
330
1E
100
AcDbEntity
  8
HILF
100
AcDbLine
 10
117.3868400548473
 20
42.01879123782069
 30
0.0
 11
162.4176958278155
 21
42.01879123782069
 31
0.0
  0
LINE
  5
193
330
1E
100
AcDbEntity
  8
STEMPEL
100
AcDbLine
 10
115.0
 20
55.00000000000003
 30
0.0
 11
115.0
 21
4.999999999999985
 31
0.0
  0
TEXT
  5
194
330
1E
100
AcDbEntity
  8
TEXT
100
AcDbText
 10
117.5648195562657
 20
35.75167208792644
 30
0.0
 40
2.5
  1
dünnwandig 45°
 41
0.8
  7
GREEKS
100
AcDbText
  0
TEXT
  5
195
330
1E
100
AcDbEntity
  8
TEXT
100
AcDbText
 10
117.4918750788913
 20
21.31487076511316
 30
0.0
 40
2.0
  1
5220BB0W.DWG
 41
0.8
  7
GREEKS
100
AcDbText
  0
TEXT
  5
196
330
1E
100
AcDbEntity
  8
TEXT
100
AcDbText
 10
117.371119195568
 20
15.42280285096528
 30
0.0
 40
2.5
  1
Bauvorhaben
 41
0.8
  7
GREEKS
100
AcDbText
  0
TEXT
  5
197
330
1E
100
AcDbEntity
  8
TEXT
100
AcDbText
 10
117.4389701904505
 20
51.27446640058898
 30
0.0
 40
2.5
  1
Benennung
 41
0.8
  7
GREEKS
100
AcDbText
  0
LINE
  5
198
330
1E
100
AcDbEntity
  8
STEMPEL
100
AcDbLine
 10
166.0
 20
54.99999999999989
 30
0.0
 11
166.0
 21
20.0
 31
0.0
  0
TEXT
  5
19A
330
1E
100
AcDbEntity
  8
TEXT
 62
     1
100
AcDbText
 10
174.3377623249262
 20
44.07450714456979
 30
0.0
 40
3.5
  1
5220BB0W
 41
0.8
  7
GREEKS
 72
     1
 11
185.1377623249262
 21
44.07450714456979
 31
0.0
100
AcDbText
  0
TEXT
  5
212
330
1E
100
AcDbEntity
  8
TEXT
100
AcDbText
 10
117.5648195562657
 20
25.75167208792646
 30
0.0
 40
2.5
  1
EDV-Art.Nr. 5.220.BB0C
 41
0.8
  7
GREEKS
100
AcDbText
  0
TEXT
  5
255
330
1E
100
AcDbEntity
  8
TEXT
 62
     1
100
AcDbText
 10
148.9987436921494
 20
65.61381838269608
 30
0.0
 40
3.5
  1
Werkstoff: 1.4404
 41
0.8
  7
GREEKS
100
AcDbText
  0
LINE
  5
56D
330
1E
100
AcDbEntity
  8
HILF
100
AcDbLine
 10
53.01411761420604
 20
245.8599498122049
 30
0.0
 11
109.1450751582691
 21
245.8599498122049
 31
0.0
  0
LINE
  5
56E
330
1E
100
AcDbEntity
  8
HILF
100
AcDbLine
 10
53.50780280715895
 20
233.0605448971005
 30
0.0
 11
108.6513899653162
 21
233.0605448971005
 31
0.0
  0
LINE
  5
56F
330
1E
100
AcDbEntity
  8
HILF
100
AcDbLine
 10
55.29827659687635
 20
228.5255999349916
 30
0.0
 11
106.8609161755988
 21
228.5255999349916
 31
0.0
  0
LINE
  5
570
330
1E
100
AcDbEntity
  8
STEMPEL
100
AcDbLine
 10
110.0968391548612
 20
268.4160803380036
 30
0.0
 11
52.0623536176139
 21
268.4160803380036
 31
0.0
  0
LINE
  5
585
330
1E
100
AcDbEntity
  8
MITTEL
100
AcDbLine
 10
81.07959638623754
 20
273.4160803380035
 30
0.0
 11
81.0795963862377
 21
75.41608033800358
 31
0.0
  0
ARC
  5
5A4
330
1E
100
AcDbEntity
  8
STEMPEL
100
AcDbCircle
 10
63.67959638623756
 20
235.6652743234738
 30
0.0
 40
11.5
100
AcDbArc
 50
180.0
 51
208.7266053481407
  0
ARC
  5
5A7
330
1E
100
AcDbEntity
  8
STEMPEL
100
AcDbCircle
 10
41.67959638623756
 20
243.9160803380035
 30
0.0
 40
10.5
100
AcDbArc
 50
0.0
 51
19.46309944468912
  0
LINE
  5
5AD
330
1E
100
AcDbEntity
  8
STEMPEL
100
AcDbLine
 10
50.17959638623756
 20
260.1698690867682
 30
0.0
 11
50.17959638623756
 21
255.5384470147829
 31
0.0
  0
LINE
  5
5AF
330
1E
100
AcDbEntity
  8
STEMPEL
100
AcDbLine
 10
52.17959638623757
 20
243.9160803380035
 30
0.0
 11
52.17959638623757
 21
235.6652743234738
 31
0.0
  0
ARC
  5
5B0
330
1E
100
AcDbEntity
  8
STEMPEL
100
AcDbCircle
 10
74.67959638623757
 20
255.5780803380036
 30
0.0
 40
24.5000320571282
100
AcDbArc
 50
179.9053619552033
 51
199.4630994446891
  0
ARC
  5
5B1
330
1E
100
AcDbEntity
  8
STEMPEL
100
AcDbCircle
 10
69.17959638623756
 20
260.1698690867682
 30
0.0
 40
19.0
100
AcDbArc
 50
154.277613507817
 51
180.0
  0
ARC
  5
5B8
330
1E
100
AcDbEntity
  8
STEMPEL
100
AcDbCircle
 10
46.57959638623753
 20
226.2929747123858
 30
0.0
 40
8.0
100
AcDbArc
 50
359.9999999999996
 51
28.7266053481407
  0
LINE
  5
5E2
330
1E
100
AcDbEntity
  8
STEMPEL
100
AcDbLine
 10
111.9795963862375
 20
260.1698690867682
 30
0.0
 11
111.9795963862375
 21
255.538447014783
 31
0.0
  0
ARC
  5
5ED
330
1E
100
AcDbEntity
  8
STEMPEL
100
AcDbCircle
 10
98.47959638623757
 20
235.6652743234739
 30
0.0
 40
11.5
100
AcDbArc
 50
331.2733946518593
 51
0.0
  0
ARC
  5
5F2
330
1E
100
AcDbEntity
  8
STEMPEL
100
AcDbCircle
 10
115.5795963862376
 20
226.2929747123859
 30
0.0
 40
8.0
100
AcDbArc
 50
151.2733946518593
 51
180.0000000000004
  0
ARC
  5
5F9
330
1E
100
AcDbEntity
  8
STEMPEL
100
AcDbCircle
 10
120.4795963862375
 20
243.9160803380036
 30
0.0
 40
10.5
100
AcDbArc
 50
160.5369005553108
 51
180.0
  0
LINE
  5
5FA
330
1E
100
AcDbEntity
  8
STEMPEL
100
AcDbLine
 10
109.9795963862375
 20
243.9160803380036
 30
0.0
 11
109.9795963862375
 21
235.6652743234739
 31
0.0
  0
ARC
  5
5FB
330
1E
100
AcDbEntity
  8
STEMPEL
100
AcDbCircle
 10
87.47959638623752
 20
255.5780803380036
 30
0.0
 40
24.5000320571282
100
AcDbArc
 50
340.5369005553109
 51
0.0946380447966296
  0
ARC
  5
5FF
330
1E
100
AcDbEntity
  8
STEMPEL
100
AcDbCircle
 10
92.97959638623751
 20
260.1698690867682
 30
0.0
 40
19.0
100
AcDbArc
 50
0.0
 51
25.72238649218916
  0
LINE
  5
83D
330
1E
100
AcDbEntity
  8
STEMPEL
100
AcDbLine
 10
192.1075535111457
 20
215.4074591968516
 30
0.0
 11
151.0709752450855
 21
256.4440374629118
 31
0.0
  0
LINE
  5
84D
330
1E
100
AcDbEntity
  8
MITTEL
100
AcDbLine
 10
175.1247982840484
 20
239.4612822358145
 30
0.0
 11
81.07959638623759
 21
145.4160803380036
 31
0.0
  0
TEXT
  5
88F
330
1E
100
AcDbEntity
  8
TEXT
 62
     1
100
AcDbText
 10
154.0853438285782
 20
231.9064683943425
 30
0.0
 40
3.5
  1
DN50
 50
44.99999999999999
 41
0.8
  7
GREEKS
100
AcDbText
  0
LINE
  5
890
330
1E
100
AcDbEntity
  8
HILF
100
AcDbLine
 10
135.794381169044
 20
239.8214458347112
 30
0.0
 11
175.4849618829451
 21
200.1308651208101
 31
0.0
  0
LINE
  5
891
330
1E
100
AcDbEntity
  8
HILF
100
AcDbLine
 10
127.0929233061295
 20
230.4218116763801
 30
0.0
 11
166.085327724614
 21
191.4294072578957
 31
0.0
  0
LINE
  5
892
330
1E
100
AcDbEntity
  8
HILF
100
AcDbLine
 10
125.1522891293606
 20
225.9490651831192
 30
0.0
 11
161.6125812313531
 21
189.4887730811266
 31
0.0
  0
ARC
  5
893
330
1E
100
AcDbEntity
  8
STEMPEL
100
AcDbCircle
 10
136.1272893632705
 20
225.0710893003285
 30
0.0
 40
11.5
100
AcDbArc
 50
135.0
 51
163.7266053481399
  0
ARC
  5
894
330
1E
100
AcDbEntity
  8
STEMPEL
100
AcDbCircle
 10
126.4051410602952
 20
246.4616393695613
 30
0.0
 40
10.5
100
AcDbArc
 50
315.0
 51
334.4630994446893
  0
LINE
  5
895
330
1E
100
AcDbEntity
  8
STEMPEL
100
AcDbLine
 10
143.9087129446059
 20
251.9443959737007
 30
0.0
 11
140.6338029909681
 21
248.6694860200629
 31
0.0
  0
LINE
  5
896
330
1E
100
AcDbEntity
  8
STEMPEL
100
AcDbLine
 10
133.8297622627539
 20
239.0370181671024
 30
0.0
 11
127.9955613796253
 21
233.2028172839738
 31
0.0
  0
ARC
  5
897
330
1E
100
AcDbEntity
  8
STEMPEL
100
AcDbCircle
 10
157.9859441216488
 20
231.3733948726028
 30
0.0
 40
24.5000320571282
100
AcDbArc
 50
134.9053619552033
 51
154.4630994446893
  0
ARC
  5
898
330
1E
100
AcDbEntity
  8
STEMPEL
100
AcDbCircle
 10
157.3437417871504
 20
238.5093671311563
 30
0.0
 40
19.0
100
AcDbArc
 50
109.277613507817
 51
135.0
  0
LINE
  5
89A
102
{ACAD_REACTORS
330
C09
102
}
330
1E
100
AcDbEntity
  8
STEMPEL
100
AcDbLine
 10
123.0654010441606
 20
224.8785443988137
 30
0.0
 11
107.5795963862378
 21
209.3927397408909
 31
0.0
  0
ARC
  5
89B
330
1E
100
AcDbEntity
  8
STEMPEL
100
AcDbCircle
 10
117.4085467946682
 20
230.5353986483061
 30
0.0
 40
8.0
100
AcDbArc
 50
314.9999999999996
 51
343.7266053481399
  0
LINE
  5
89C
330
1E
100
AcDbEntity
  8
STEMPEL
100
AcDbLine
 10
187.6079120219346
 20
208.2451968963721
 30
0.0
 11
184.3330020682967
 21
204.9702869427343
 31
0.0
  0
ARC
  5
89D
330
1E
100
AcDbEntity
  8
STEMPEL
100
AcDbCircle
 10
160.7346053485624
 20
200.4637733150367
 30
0.0
 40
11.5
100
AcDbArc
 50
286.2733946518601
 51
315.0
  0
LINE
  5
89E
102
{ACAD_REACTORS
330
BD5
102
}
330
1E
100
AcDbEntity
  8
STEMPEL
100
AcDbLine
 10
159.8319688167894
 20
186.6917933656683
 30
0.0
 11
107.5795963862379
 21
134.4394209351168
 31
0.0
  0
ARC
  5
8A0
330
1E
100
AcDbEntity
  8
STEMPEL
100
AcDbCircle
 10
166.1989146965401
 20
181.7450307464343
 30
0.0
 40
8.0
100
AcDbArc
 50
106.27339465186
 51
135.0000000000004
  0
ARC
  5
8A1
330
1E
100
AcDbEntity
  8
STEMPEL
100
AcDbCircle
 10
182.1251554177952
 20
190.7416250120614
 30
0.0
 40
10.5
100
AcDbArc
 50
115.5369005553107
 51
135.0
  0
LINE
  5
8A2
330
1E
100
AcDbEntity
  8
STEMPEL
100
AcDbLine
 10
174.7005342153364
 20
198.1662462145201
 30
0.0
 11
168.8663333322077
 21
192.3320453313914
 31
0.0
  0
ARC
  5
8A3
330
1E
100
AcDbEntity
  8
STEMPEL
100
AcDbCircle
 10
167.0369109208366
 20
222.322428073415
 30
0.0
 40
24.5000320571282
100
AcDbArc
 50
295.5369005553107
 51
315.0946380447966
  0
ARC
  5
8A4
330
1E
100
AcDbEntity
  8
STEMPEL
100
AcDbCircle
 10
174.1728831793902
 20
221.6802257389165
 30
0.0
 40
19.0
100
AcDbArc
 50
315.0
 51
340.7223864921893
  0
TEXT
  5
8E9
330
1E
100
AcDbEntity
  8
TEXT
 62
     1
100
AcDbText
 10
64.67900175003558
 20
255.6880322669536
 30
0.0
 40
3.5
  1
DN50
 41
0.8
  7
GREEKS
100
AcDbText
  0
LINE
  5
8EA
102
{ACAD_REACTORS
330
C09
102
}
330
1E
100
AcDbEntity
  8
STEMPEL
100
AcDbLine
 10
107.5795963862378
 20
226.2929747123859
 30
0.0
 11
107.5795963862378
 21
209.3927397408909
 31
0.0
  0
DIMENSION
  5
8EE
330
1E
100
AcDbEntity
  8
BEM
100
AcDbDimension
  2
*D1
 10
107.5795963862385
 20
67.35410884666936
 30
0.0
 11
81.0795963862381
 21
70.60410884666936
 31
0.0
 70
    32
  1
%%c<>
 71
     5
 42
53.00000000000091
  3
Standard
100
AcDbAlignedDimension
 13
54.57959638623766
 23
85.41608033800358
 33
0.0
 14
107.5795963862385
 24
85.41608033800358
 34
0.0
100
AcDbRotatedDimension
1001
ACAD
1000
DSTYLE
1002
{
1070
    41
1040
3.5
1070
    42
1040
1.0
1070
    43
1040
7.0
1070
    44
1040
1.0
1070
    73
1070
     0
1070
    74
1070
     0
1070
    77
1070
     1
1070
    78
1070
     8
1070
    79
1070
     2
1070
   140
1040
3.5
1070
   141
1040
1.5
1070
   146
1040
0.5142857142857144
1070
   147
1040
1.5
1070
   172
1070
     1
1070
   178
1070
     1
1070
   179
1070
     3
1070
   271
1070
     2
1070
   272
1070
     2
1070
   275
1070
     1
1070
   284
1070
     8
1070
   285
1070
     8
1070
   286
1070
     8
1002
}
  0
LINE
  5
8EF
330
1E
100
AcDbEntity
  8
HILF
100
AcDbLine
 10
106.5795963862382
 20
85.41608033800358
 30
0.0
 11
55.5795963862376
 21
85.41608033800358
 31
0.0
  0
LINE
  5
8F0
330
1E
100
AcDbEntity
  8
STEMPEL
100
AcDbLine
 10
107.1421530686087
 20
80.41608033800358
 30
0.0
 11
55.01703970386722
 21
80.41608033800358
 31
0.0
  0
LINE
  5
8F1
330
1E
100
AcDbEntity
  8
STEMPEL
100
AcDbLine
 10
107.5795963862383
 20
85.41608033800384
 30
0.0
 11
107.1421530686087
 21
80.41608033800358
 31
0.0
  0
LINE
  5
8F4
330
1E
100
AcDbEntity
  8
STEMPEL
100
AcDbLine
 10
54.57959638623766
 20
85.41608033800358
 30
0.0
 11
55.01703970386722
 21
80.41608033800358
 31
0.0
  0
LINE
  5
8F5
330
1E
100
AcDbEntity
  8
STEMPEL
100
AcDbLine
 10
54.57959638623766
 20
226.2929747123858
 30
0.0
 11
54.57959638623759
 21
85.41608033800358
 31
0.0
  0
LINE
  5
92E
102
{ACAD_REACTORS
330
BD5
102
}
330
1E
100
AcDbEntity
  8
STEMPEL
100
AcDbLine
 10
107.5795963862379
 20
134.4394209351168
 30
0.0
 11
107.5795963862382
 21
85.41608033800358
 31
0.0
  0
DIMENSION
  5
995
330
1E
100
AcDbEntity
  8
BEM
100
AcDbDimension
  2
*D3
 10
45.52191672282833
 20
145.4160803380036
 30
0.0
 11
42.2719167228283
 21
112.9160803380036
 31
0.0
 70
    32
 71
     5
 42
65.00000000000001
  3
Standard
100
AcDbAlignedDimension
 13
55.01703970386722
 23
80.41608033800358
 33
0.0
 14
81.07959638623759
 24
145.4160803380036
 34
0.0
 50
90.0
100
AcDbRotatedDimension
1001
ACAD
1000
DSTYLE
1002
{
1070
    41
1040
3.5
1070
    42
1040
1.0
1070
    43
1040
7.0
1070
    44
1040
1.0
1070
    73
1070
     0
1070
    74
1070
     0
1070
    77
1070
     1
1070
    78
1070
     8
1070
    79
1070
     2
1070
   140
1040
3.5
1070
   141
1040
1.5
1070
   146
1040
0.5142857142857144
1070
   147
1040
1.5
1070
   172
1070
     1
1070
   178
1070
     1
1070
   179
1070
     2
1070
   271
1070
     2
1070
   272
1070
     2
1070
   284
1070
     8
1070
   285
1070
     8
1070
   286
1070
     8
1002
}
  0
LINE
  5
B7B
330
1E
100
AcDbEntity
  8
STEMPEL
100
AcDbLine
 10
107.5795963862378
 20
209.3927397408909
 30
0.0
 11
81.07959638623759
 21
145.4160803380036
 31
0.0
  0
LINE
  5
B7C
330
1E
100
AcDbEntity
  8
STEMPEL
100
AcDbLine
 10
81.07959638623759
 20
145.4160803380036
 30
0.0
 11
107.5795963862379
 21
134.4394209351168
 31
0.0
  0
DIMENSION
  5
BB3
330
1E
100
AcDbEntity
  8
BEM
100
AcDbDimension
  2
*D4
 10
81.0795963862377
 20
75.41608033800358
 30
0.0
 11
136.5949281531738
 21
279.4419472093831
 31
0.0
 70
    34
 71
     5
 42
0.7853981633974497
  3
Standard
100
AcDb2LineAngularDimension
 13
175.1247982840484
 23
239.4612822358145
 33
0.0
 14
81.07959638623759
 24
145.4160803380036
 34
0.0
 15
81.07959638623754
 25
273.4160803380035
 35
0.0
 16
151.9888728557415
 26
268.2345499111327
 36
0.0
1001
ACAD
1000
DSTYLE
1002
{
1070
    41
1040
3.5
1070
    42
1040
1.0
1070
    43
1040
7.0
1070
    44
1040
1.0
1070
    73
1070
     0
1070
    74
1070
     0
1070
    77
1070
     1
1070
    78
1070
     8
1070
    79
1070
     2
1070
   140
1040
3.5
1070
   141
1040
1.5
1070
   146
1040
0.5142857142857144
1070
   147
1040
1.5
1070
   172
1070
     1
1070
   178
1070
     1
1070
   179
1070
     2
1070
   271
1070
     2
1070
   272
1070
     2
1070
   284
1070
     8
1070
   285
1070
     8
1070
   286
1070
     8
1002
}
  0
ARC
  5
BC7
330
1E
100
AcDbEntity
  8
SCHRAFF
100
AcDbCircle
 10
96.44698021911091
 20
139.0507015362346
 30
0.0
 40
3.041797070827453
100
AcDbArc
 50
116.3900532178577
 51
198.6099467821426
  0
ARC
  5
BC9
330
1E
100
AcDbEntity
  8
SCHRAFF
100
AcDbCircle
 10
91.82758255655445
 20
140.96411869806
 30
0.0
 40
3.041797070827453
100
AcDbArc
 50
116.3900532178577
 51
198.6099467821426
  0
ARC
  5
BCA
330
1E
100
AcDbEntity
  8
SCHRAFF
100
AcDbCircle
 10
101.0663778816674
 20
137.1372843744092
 30
0.0
 40
3.041797070827453
100
AcDbArc
 50
116.3900532178577
 51
198.6099467821426
  0
ARC
  5
BCB
330
1E
100
AcDbEntity
  8
SCHRAFF
100
AcDbCircle
 10
87.20818489399798
 20
142.8775358598854
 30
0.0
 40
3.041797070827453
100
AcDbArc
 50
116.3900532178577
 51
198.6099467821426
  0
ARC
  5
BCC
330
1E
100
AcDbEntity
  8
SCHRAFF
100
AcDbCircle
 10
105.6857755442238
 20
135.2238672125838
 30
0.0
 40
3.041797070827453
100
AcDbArc
 50
116.3900532178577
 51
198.6099467821426
  0
ARC
  5
BCD
102
{ACAD_REACTORS
330
BD5
102
}
330
1E
100
AcDbEntity
  8
SCHRAFF
100
AcDbCircle
 10
105.2773389202713
 20
135.3930472015949
 30
0.0
 40
3.876193303751914
100
AcDbArc
 50
306.4376774639435
 51
8.562322536056138
  0
HATCH
  5
BD5
330
1E
100
AcDbEntity
  8
SCHRAFF
100
AcDbHatch
 10
0.0
 20
0.0
 30
0.0
210
0.0
220
0.0
230
1.0
  2
_USER
 70
     0
 71
     1
 91
        1
 92
        7
 72
     1
 73
     1
 93
        3
 10
107.5795963862379
 20
132.274636534532
 42
0.2779103273892185
 10
109.1103301156983
 20
135.9701546645772
 42
0.0
 10
107.5795963862379
 20
134.4394209351168
 42
0.0
 97
        3
330
89E
330
92E
330
BCD
 75
     0
 76
     0
 52
0.0
 41
0.1
 77
     0
 78
     1
 53
0.0
 43
4.16068589982683
 44
0.5939619094471027
 45
0.0
 46
0.1
 79
     0
 47
0.0613559848045745
 98
        1
 10
107.9065183034499
 20
133.9094043844444
  0
ARC
  5
BD8
330
1E
100
AcDbEntity
  8
SCHRAFF
100
AcDbCircle
 10
83.61814086435581
 20
151.544668845764
 30
0.0
 40
3.041797070827453
100
AcDbArc
 50
206.3900532178578
 51
288.6099467821427
  0
ARC
  5
BD9
330
1E
100
AcDbEntity
  8
SCHRAFF
100
AcDbCircle
 10
85.53155802618126
 20
156.1640665083205
 30
0.0
 40
3.041797070827453
100
AcDbArc
 50
206.3900532178578
 51
288.6099467821427
  0
ARC
  5
BDA
330
1E
100
AcDbEntity
  8
SCHRAFF
100
AcDbCircle
 10
89.35839234983225
 20
165.4028618334333
 30
0.0
 40
3.041797070827453
100
AcDbArc
 50
206.3900532178578
 51
288.6099467821427
  0
ARC
  5
BDB
330
1E
100
AcDbEntity
  8
SCHRAFF
100
AcDbCircle
 10
87.44497518800676
 20
160.7834641708769
 30
0.0
 40
3.041797070827453
100
AcDbArc
 50
206.3900532178578
 51
288.6099467821427
  0
ARC
  5
BDC
330
1E
100
AcDbEntity
  8
SCHRAFF
100
AcDbCircle
 10
91.27180951165772
 20
170.0222594959897
 30
0.0
 40
3.041797070827453
100
AcDbArc
 50
206.3900532178578
 51
288.6099467821427
  0
ARC
  5
BF9
330
1E
100
AcDbEntity
  8
SCHRAFF
100
AcDbCircle
 10
98.92547815895955
 20
188.4998501462155
 30
0.0
 40
3.041797070827453
100
AcDbArc
 50
206.3900532178578
 51
288.6099467821427
  0
ARC
  5
BFA
330
1E
100
AcDbEntity
  8
SCHRAFF
100
AcDbCircle
 10
95.09864383530858
 20
179.2610548211026
 30
0.0
 40
3.041797070827453
100
AcDbArc
 50
206.3900532178578
 51
288.6099467821427
  0
ARC
  5
BFB
330
1E
100
AcDbEntity
  8
SCHRAFF
100
AcDbCircle
 10
93.18522667348309
 20
174.6416571585462
 30
0.0
 40
3.041797070827453
100
AcDbArc
 50
206.3900532178578
 51
288.6099467821427
  0
ARC
  5
BFC
330
1E
100
AcDbEntity
  8
SCHRAFF
100
AcDbCircle
 10
97.01206099713409
 20
183.880452483659
 30
0.0
 40
3.041797070827453
100
AcDbArc
 50
206.3900532178578
 51
288.6099467821427
  0
ARC
  5
BFD
330
1E
100
AcDbEntity
  8
SCHRAFF
100
AcDbCircle
 10
104.6657296444358
 20
202.3580431338848
 30
0.0
 40
3.041797070827453
100
AcDbArc
 50
206.3900532178578
 51
288.6099467821427
  0
ARC
  5
BFE
330
1E
100
AcDbEntity
  8
SCHRAFF
100
AcDbCircle
 10
108.4925639680868
 20
211.5968384589976
 30
0.0
 40
3.041797070827453
100
AcDbArc
 50
206.3900532178578
 51
288.6099467821427
  0
ARC
  5
BFF
330
1E
100
AcDbEntity
  8
SCHRAFF
100
AcDbCircle
 10
106.5791468062613
 20
206.9774407964412
 30
0.0
 40
3.041797070827453
100
AcDbArc
 50
206.3900532178578
 51
288.6099467821427
  0
ARC
  5
C01
330
1E
100
AcDbEntity
  8
SCHRAFF
100
AcDbCircle
 10
102.7523124826104
 20
197.7386454713283
 30
0.0
 40
3.041797070827453
100
AcDbArc
 50
206.3900532178578
 51
288.6099467821427
  0
ARC
  5
C02
330
1E
100
AcDbEntity
  8
SCHRAFF
100
AcDbCircle
 10
100.838895320785
 20
193.1192478087719
 30
0.0
 40
3.041797070827453
100
AcDbArc
 50
206.3900532178578
 51
288.6099467821427
  0
ARC
  5
C03
102
{ACAD_REACTORS
330
C09
102
}
330
1E
100
AcDbEntity
  8
SCHRAFF
100
AcDbCircle
 10
108.5503063509348
 20
211.736240902793
 30
0.0
 40
3.041797070827453
100
AcDbArc
 50
26.39005321785784
 51
108.6099467821427
  0
HATCH
  5
C09
330
1E
100
AcDbEntity
  8
SCHRAFF
100
AcDbHatch
 10
0.0
 20
0.0
 30
0.0
210
0.0
220
0.0
230
1.0
  2
_USER
 70
     0
 71
     1
 91
        1
 92
        7
 72
     1
 73
     1
 93
        3
 10
107.5795963862378
 20
209.3927397408909
 42
0.0
 10
111.2751145162829
 20
213.088257870936
 42
0.37497866255017
 10
107.5795963862378
 20
214.6189916003963
 42
0.0
 97
        3
330
C03
330
8EA
330
89A
 75
     0
 76
     0
 52
0.0
 41
0.1
 77
     0
 78
     1
 53
0.0
 43
4.16068589982683
 44
0.5939619094471027
 45
0.0
 46
0.1
 79
     0
 47
0.0457471846918913
 98
        1
 10
108.5185650648079
 20
212.9004053803874
  0
TEXT
  5
C64
330
1E
100
AcDbEntity
  8
BEM
100
AcDbText
 10
208.2905770718718
 20
6.074024076691515
 30
0.0
 40
2.0
  1
Diese Zeichnung ist urheberrechtlich geschützt und bleibt unser Eigentum. Sie darf weder ganz noch teilweise vervielfältigt und nicht an Dritte weitergegeben werden.
 50
90.0
 41
0.8
  7
GREEKS
100
AcDbText
  0
TEXT
  5
C65
330
1E
100
AcDbEntity
  8
TEXT
100
AcDbText
 10
96.34413576239619
 20
44.50323185339641
 30
0.0
 40
2.0
  1
DIN EN1124-3
 41
0.8
  7
GREEKS
 72
     1
 11
104.8393738576343
 21
44.50323185339641
 31
0.0
100
AcDbText
  0
TEXT
  5
C66
330
1E
100
AcDbEntity
  8
TEXT
100
AcDbText
 10
33.49933939241158
 20
9.336909474920659
 30
0.0
 40
2.0
  1
Änderung
 41
0.8
  7
GREEKS
 72
     1
 11
38.87076796384015
 21
9.336909474920659
 31
0.0
100
AcDbText
  0
TEXT
  5
C67
330
1E
100
AcDbEntity
  8
TEXT
100
AcDbText
 10
55.17481598333814
 20
9.33578134669905
 30
0.0
 40
2.0
  1
Tag
 41
0.8
  7
GREEKS
 72
     1
 11
57.04148265000481
 21
9.33578134669905
 31
0.0
100
AcDbText
  0
TEXT
  5
C68
330
1E
100
AcDbEntity
  8
TEXT
100
AcDbText
 10
64.61958341495059
 20
9.29662108483204
 30
0.0
 40
2.0
  1
Name
 41
0.8
  7
GREEKS
 72
     1
 11
67.78148817685536
 21
9.29662108483204
 31
0.0
100
AcDbText
  0
DIMENSION
  5
C8A
330
1E
100
AcDbEntity
  8
SCHRAFF
100
AcDbDimension
  2
*D5
 10
36.99014590025013
 20
80.41608033800358
 30
0.0
 11
33.74014590025012
 21
174.4160803380036
 31
0.0
 70
    32
 71
     5
 42
188.0
  3
Standard
100
AcDbAlignedDimension
 13
52.0623536176139
 23
268.4160803380036
 33
0.0
 14
55.01703970386722
 24
80.41608033800358
 34
0.0
 50
90.0
100
AcDbRotatedDimension
1001
ACAD
1000
DSTYLE
1002
{
1070
    41
1040
3.5
1070
    42
1040
1.0
1070
    43
1040
7.0
1070
    44
1040
1.0
1070
    73
1070
     0
1070
    74
1070
     0
1070
    77
1070
     1
1070
    78
1070
     8
1070
    79
1070
     2
1070
   140
1040
3.5
1070
   141
1040
1.5
1070
   146
1040
0.5142857142857144
1070
   147
1040
1.5
1070
   172
1070
     1
1070
   178
1070
     1
1070
   179
1070
     2
1070
   271
1070
     2
1070
   272
1070
     2
1070
   284
1070
     8
1070
   285
1070
     8
1070
   286
1070
     8
1002
}
  0
DIMENSION
  5
C97
330
1E
100
AcDbEntity
  8
BEM
100
AcDbDimension
  2
*D6
 10
198.9641527671363
 20
208.5508599408612
 30
0.0
 11
151.4112217323412
 21
165.5941229837782
 31
0.0
 70
    32
 71
     5
 42
127.9999999999999
 51
357.0
  3
Standard
100
AcDbAlignedDimension
 13
81.07959638623759
 23
145.4160803380036
 33
0.0
 14
192.1075535111458
 24
215.4074591968517
 34
0.0
 50
45.00000000000029
100
AcDbRotatedDimension
1001
ACAD
1000
DSTYLE
1002
{
1070
    41
1040
3.5
1070
    42
1040
1.0
1070
    43
1040
7.0
1070
    44
1040
1.0
1070
    73
1070
     0
1070
    74
1070
     0
1070
    77
1070
     1
1070
    78
1070
     8
1070
    79
1070
     2
1070
   140
1040
3.5
1070
   141
1040
1.5
1070
   146
1040
0.5142857142857144
1070
   147
1040
1.5
1070
   172
1070
     1
1070
   178
1070
     1
1070
   179
1070
     2
1070
   271
1070
     2
1070
   272
1070
     2
1070
   284
1070
     8
1070
   285
1070
     8
1070
   286
1070
     8
1002
}
  0
ENDSEC
  0
SECTION
  2
OBJECTS
  0
DICTIONARY
  5
C
330
0
100
AcDbDictionary
281
     1
  3
ACAD_COLOR
350
C59
  3
ACAD_GROUP
350
D
  3
ACAD_LAYOUT
350
19
  3
ACAD_MATERIAL
350
C58
  3
ACAD_MLINESTYLE
350
16
  3
ACAD_PLOTSETTINGS
350
18
  3
ACAD_PLOTSTYLENAME
350
E
  3
AcDbVariableDictionary
350
246
  0
DICTIONARY
  5
C59
102
{ACAD_REACTORS
330
C
102
}
330
C
100
AcDbDictionary
281
     1
  0
DICTIONARY
  5
D
102
{ACAD_REACTORS
330
C
102
}
330
C
100
AcDbDictionary
281
     1
  0
DICTIONARY
  5
19
102
{ACAD_REACTORS
330
C
102
}
330
C
100
AcDbDictionary
281
     1
  3
Layout1
350
1D
  3
Model
350
21
  0
DICTIONARY
  5
C58
102
{ACAD_REACTORS
330
C
102
}
330
C
100
AcDbDictionary
281
     1
  0
DICTIONARY
  5
16
102
{ACAD_REACTORS
330
C
102
}
330
C
100
AcDbDictionary
281
     1
  3
Standard
350
17
  0
DICTIONARY
  5
18
102
{ACAD_REACTORS
330
C
102
}
330
C
100
AcDbDictionary
281
     1
  0
ACDBDICTIONARYWDFLT
  5
E
102
{ACAD_REACTORS
330
C
102
}
330
C
100
AcDbDictionary
281
     1
  3
Normal
350
F
100
AcDbDictionaryWithDefault
340
F
  0
DICTIONARY
  5
246
102
{ACAD_REACTORS
330
C
102
}
330
C
100
AcDbDictionary
281
     1
  3
DIMASSOC
350
C71
  3
PROJECTNAME
350
C72
  3
SORTENTS
350
247
  0
LAYOUT
  5
1D
102
{ACAD_REACTORS
330
19
102
}
330
19
100
AcDbPlotSettings
  1

  2
Tektronix Phaser 740
  4

  6

 40
0.0
 41
0.0
 42
0.0
 43
0.0
 44
0.0
 45
0.0
 46
0.0
 47
0.0
 48
0.0
 49
0.0
140
0.0
141
0.0
142
1.0
143
1.0
 70
   688
 72
     0
 73
     0
 74
     5
  7
monochrome.ctb
 75
    16
147
1.0
 76
     0
 77
     2
 78
   300
148
0.0
149
0.0
100
AcDbLayout
  1
Layout1
 70
     0
 71
     1
 10
0.0
 20
0.0
 11
12.0
 21
9.0
 12
0.0
 22
0.0
 32
0.0
 14
1.000000000000000E+20
 24
1.000000000000000E+20
 34
1.000000000000000E+20
 15
-1.000000000000000E+20
 25
-1.000000000000000E+20
 35
-1.000000000000000E+20
146
0.0
 13
0.0
 23
0.0
 33
0.0
 16
1.0
 26
0.0
 36
0.0
 17
0.0
 27
1.0
 37
0.0
 76
     0
330
1A
  0
LAYOUT
  5
21
102
{ACAD_REACTORS
330
19
102
}
330
19
100
AcDbPlotSettings
  1

  2
Tektronix Phaser 740
  4
A4
  6

 40
5.873749732971191
 41
6.085414409637451
 42
5.577407836914062
 43
5.662078857421875
 44
209.9733276367187
 45
296.9683227539062
 46
0.0
 47
0.0
 48
0.0
 49
0.0
140
0.0
141
0.0
142
1.0
143
1.0
 70
 11952
 72
     0
 73
     1
 74
     0
  7
monochrome.ctb
 75
     0
147
1.0
 76
     0
 77
     2
 78
   300
148
1150.120678237584
149
45.30495740799864
100
AcDbLayout
  1
Model
 70
     1
 71
     0
 10
0.0
 20
0.0
 11
12.0
 21
9.0
 12
0.0
 22
0.0
 32
0.0
 14
0.0
 24
0.0
 34
0.0
 15
0.0
 25
0.0
 35
0.0
146
0.0
 13
0.0
 23
0.0
 33
0.0
 16
1.0
 26
0.0
 36
0.0
 17
0.0
 27
1.0
 37
0.0
 76
     0
330
1E
  0
MLINESTYLE
  5
17
102
{ACAD_REACTORS
330
16
102
}
330
16
100
AcDbMlineStyle
  2
STANDARD
 70
     0
  3

 62
   256
 51
90.0
 52
90.0
 71
     2
 49
0.5
 62
   256
  6
BYLAYER
 49
-0.5
 62
   256
  6
BYLAYER
  0
ACDBPLACEHOLDER
  5
F
102
{ACAD_REACTORS
330
E
102
}
330
E
  0
DICTIONARYVAR
  5
C71
102
{ACAD_REACTORS
330
246
102
}
330
246
100
DictionaryVariables
280
     0
  1
1
  0
DICTIONARYVAR
  5
C72
102
{ACAD_REACTORS
330
246
102
}
330
246
100
DictionaryVariables
280
     0
  1

  0
DICTIONARYVAR
  5
247
102
{ACAD_REACTORS
330
246
102
}
330
246
100
DictionaryVariables
280
     0
  1
96
  0
ENDSEC
  0
EOF
