  0
SECTION
  2
HEADER
  9
$ACADVER
  1
AC1018
  9
$ACADMAINTVER
 70
     2
  9
$DWGCODEPAGE
  3
ANSI_1252
  9
$INSBASE
 10
0.0
 20
0.0
 30
0.0
  9
$EXTMIN
 10
-0.0165915912265291
 20
-0.0243362655573947
 30
-0.00000000000001
  9
$EXTMAX
 10
420.0115662543427
 20
594.0319988236085
 30
0.0000000000000053
  9
$LIMMIN
 10
0.0
 20
0.0
  9
$LIMMAX
 10
419.9999999999999
 20
594.0
  9
$ORTHOMODE
 70
     1
  9
$REGENMODE
 70
     1
  9
$FILLMODE
 70
     1
  9
$QTEXTMODE
 70
     0
  9
$MIRRTEXT
 70
     1
  9
$LTSCALE
 40
20.0
  9
$ATTMODE
 70
     1
  9
$TEXTSIZE
 40
3.5
  9
$TRACEWID
 40
0.5
  9
$TEXTSTYLE
  7
STANDARD
  9
$CLAYER
  8
BEM
  9
$CELTYPE
  6
ByLayer
  9
$CECOLOR
 62
   256
  9
$CELTSCALE
 40
1.0
  9
$DISPSILH
 70
     0
  9
$DIMSCALE
 40
2.0
  9
$DIMASZ
 40
3.5
  9
$DIMEXO
 40
1.0
  9
$DIMDLI
 40
7.0
  9
$DIMRND
 40
0.0
  9
$DIMDLE
 40
0.0
  9
$DIMEXE
 40
1.0
  9
$DIMTP
 40
0.0
  9
$DIMTM
 40
0.0
  9
$DIMTXT
 40
3.5
  9
$DIMCEN
 40
1.5
  9
$DIMTSZ
 40
0.0
  9
$DIMTOL
 70
     0
  9
$DIMLIM
 70
     0
  9
$DIMTIH
 70
     0
  9
$DIMTOH
 70
     0
  9
$DIMSE1
 70
     0
  9
$DIMSE2
 70
     0
  9
$DIMTAD
 70
     1
  9
$DIMZIN
 70
     8
  9
$DIMBLK
  1

  9
$DIMASO
 70
     1
  9
$DIMSHO
 70
     0
  9
$DIMPOST
  1

  9
$DIMAPOST
  1

  9
$DIMALT
 70
     0
  9
$DIMALTD
 70
     2
  9
$DIMALTF
 40
25.4
  9
$DIMLFAC
 40
1.0
  9
$DIMTOFL
 70
     1
  9
$DIMTVP
 40
0.0
  9
$DIMTIX
 70
     0
  9
$DIMSOXD
 70
     0
  9
$DIMSAH
 70
     0
  9
$DIMBLK1
  1

  9
$DIMBLK2
  1

  9
$DIMSTYLE
  2
Standard
  9
$DIMCLRD
 70
     0
  9
$DIMCLRE
 70
     0
  9
$DIMCLRT
 70
     1
  9
$DIMTFAC
 40
0.5
  9
$DIMGAP
 40
1.5
  9
$DIMJUST
 70
     0
  9
$DIMSD1
 70
     0
  9
$DIMSD2
 70
     0
  9
$DIMTOLJ
 70
     1
  9
$DIMTZIN
 70
     8
  9
$DIMALTZ
 70
     8
  9
$DIMALTTZ
 70
     8
  9
$DIMUPT
 70
     0
  9
$DIMDEC
 70
     2
  9
$DIMTDEC
 70
     2
  9
$DIMALTU
 70
     2
  9
$DIMALTTD
 70
     2
  9
$DIMTXSTY
  7
STANDARD
  9
$DIMAUNIT
 70
     0
  9
$DIMADEC
 70
     2
  9
$DIMALTRND
 40
0.0
  9
$DIMAZIN
 70
     2
  9
$DIMDSEP
 70
    46
  9
$DIMATFIT
 70
     3
  9
$DIMFRAC
 70
     0
  9
$DIMLDRBLK
  1

  9
$DIMLUNIT
 70
     2
  9
$DIMLWD
 70
    -2
  9
$DIMLWE
 70
    -2
  9
$DIMTMOVE
 70
     0
  9
$LUNITS
 70
     2
  9
$LUPREC
 70
     2
  9
$SKETCHINC
 40
1.0
  9
$FILLETRAD
 40
0.0
  9
$AUNITS
 70
     1
  9
$AUPREC
 70
     3
  9
$MENU
  1
ACAD
  9
$ELEVATION
 40
0.0
  9
$PELEVATION
 40
0.0
  9
$THICKNESS
 40
0.0
  9
$LIMCHECK
 70
     0
  9
$CHAMFERA
 40
0.0
  9
$CHAMFERB
 40
0.0
  9
$CHAMFERC
 40
0.0
  9
$CHAMFERD
 40
0.0
  9
$SKPOLY
 70
     0
  9
$TDCREATE
 40
2452040.637099653
  9
$TDUCREATE
 40
2452040.553766320
  9
$TDUPDATE
 40
2455660.317148229
  9
$TDUUPDATE
 40
2455660.233814896
  9
$TDINDWG
 40
0.4754926157
  9
$TDUSRTIMER
 40
0.4754926157
  9
$USRTIMER
 70
     1
  9
$ANGBASE
 50
0.0
  9
$ANGDIR
 70
     0
  9
$PDMODE
 70
     0
  9
$PDSIZE
 40
0.0
  9
$PLINEWID
 40
0.0
  9
$SPLFRAME
 70
     0
  9
$SPLINETYPE
 70
     6
  9
$SPLINESEGS
 70
     8
  9
$HANDSEED
  5
1D97
  9
$SURFTAB1
 70
     6
  9
$SURFTAB2
 70
     6
  9
$SURFTYPE
 70
     6
  9
$SURFU
 70
     6
  9
$SURFV
 70
     6
  9
$UCSBASE
  2

  9
$UCSNAME
  2

  9
$UCSORG
 10
0.0
 20
0.0
 30
0.0
  9
$UCSXDIR
 10
1.0
 20
0.0
 30
0.0
  9
$UCSYDIR
 10
0.0
 20
1.0
 30
0.0
  9
$UCSORTHOREF
  2

  9
$UCSORTHOVIEW
 70
     0
  9
$UCSORGTOP
 10
0.0
 20
0.0
 30
0.0
  9
$UCSORGBOTTOM
 10
0.0
 20
0.0
 30
0.0
  9
$UCSORGLEFT
 10
0.0
 20
0.0
 30
0.0
  9
$UCSORGRIGHT
 10
0.0
 20
0.0
 30
0.0
  9
$UCSORGFRONT
 10
0.0
 20
0.0
 30
0.0
  9
$UCSORGBACK
 10
0.0
 20
0.0
 30
0.0
  9
$PUCSBASE
  2

  9
$PUCSNAME
  2

  9
$PUCSORG
 10
0.0
 20
0.0
 30
0.0
  9
$PUCSXDIR
 10
1.0
 20
0.0
 30
0.0
  9
$PUCSYDIR
 10
0.0
 20
1.0
 30
0.0
  9
$PUCSORTHOREF
  2

  9
$PUCSORTHOVIEW
 70
     0
  9
$PUCSORGTOP
 10
0.0
 20
0.0
 30
0.0
  9
$PUCSORGBOTTOM
 10
0.0
 20
0.0
 30
0.0
  9
$PUCSORGLEFT
 10
0.0
 20
0.0
 30
0.0
  9
$PUCSORGRIGHT
 10
0.0
 20
0.0
 30
0.0
  9
$PUCSORGFRONT
 10
0.0
 20
0.0
 30
0.0
  9
$PUCSORGBACK
 10
0.0
 20
0.0
 30
0.0
  9
$USERI1
 70
     0
  9
$USERI2
 70
     0
  9
$USERI3
 70
     0
  9
$USERI4
 70
     0
  9
$USERI5
 70
     0
  9
$USERR1
 40
0.0
  9
$USERR2
 40
0.0
  9
$USERR3
 40
0.0
  9
$USERR4
 40
0.0
  9
$USERR5
 40
0.0
  9
$WORLDVIEW
 70
     1
  9
$SHADEDGE
 70
     3
  9
$SHADEDIF
 70
    70
  9
$TILEMODE
 70
     1
  9
$MAXACTVP
 70
    16
  9
$PINSBASE
 10
0.0
 20
0.0
 30
0.0
  9
$PLIMCHECK
 70
     0
  9
$PEXTMIN
 10
1.000000000000000E+20
 20
1.000000000000000E+20
 30
1.000000000000000E+20
  9
$PEXTMAX
 10
-1.000000000000000E+20
 20
-1.000000000000000E+20
 30
-1.000000000000000E+20
  9
$PLIMMIN
 10
0.0
 20
0.0
  9
$PLIMMAX
 10
12.0
 20
9.0
  9
$UNITMODE
 70
     0
  9
$VISRETAIN
 70
     0
  9
$PLINEGEN
 70
     0
  9
$PSLTSCALE
 70
     0
  9
$TREEDEPTH
 70
  3020
  9
$CMLSTYLE
  2
Standard
  9
$CMLJUST
 70
     0
  9
$CMLSCALE
 40
1.0
  9
$PROXYGRAPHICS
 70
     1
  9
$MEASUREMENT
 70
     0
  9
$CELWEIGHT
370
    -1
  9
$ENDCAPS
280
     0
  9
$JOINSTYLE
280
     0
  9
$LWDISPLAY
290
     0
  9
$INSUNITS
 70
     0
  9
$HYPERLINKBASE
  1

  9
$STYLESHEET
  1
monochrome 1.ctb
  9
$XEDIT
290
     1
  9
$CEPSNTYPE
380
     0
  9
$PSTYLEMODE
290
     1
  9
$FINGERPRINTGUID
  2
{7AADB5C8-6110-11D8-B72B-000102183313}
  9
$VERSIONGUID
  2
{91BB1ADF-5A8A-4F2C-8B64-AC34CE08FB2E}
  9
$EXTNAMES
290
     1
  9
$PSVPSCALE
 40
0.0
  9
$OLESTARTUP
290
     0
  9
$SORTENTS
280
    96
  9
$INDEXCTL
280
     0
  9
$HIDETEXT
280
     0
  9
$XCLIPFRAME
290
     0
  9
$HALOGAP
280
     0
  9
$OBSCOLOR
 70
   257
  9
$OBSLTYPE
280
     0
  9
$INTERSECTIONDISPLAY
280
     0
  9
$INTERSECTIONCOLOR
 70
   257
  9
$DIMASSOC
280
     1
  9
$PROJECTNAME
  1

  0
ENDSEC
  0
SECTION
  2
CLASSES
  0
CLASS
  1
ACDBDICTIONARYWDFLT
  2
AcDbDictionaryWithDefault
  3
ObjectDBX Classes
 90
        0
 91
        1
280
     0
281
     0
  0
CLASS
  1
DICTIONARYVAR
  2
AcDbDictionaryVar
  3
ObjectDBX Classes
 90
        0
 91
        3
280
     0
281
     0
  0
ENDSEC
  0
SECTION
  2
TABLES
  0
TABLE
  2
VPORT
  5
8
330
0
100
AcDbSymbolTable
 70
     3
  0
VPORT
  5
1D96
330
8
100
AcDbSymbolTableRecord
100
AcDbViewportTableRecord
  2
*Active
 70
     0
 10
0.0
 20
0.0
 11
1.0
 21
1.0
 12
210.0
 22
297.0
 13
0.0
 23
0.0
 14
1.0
 24
1.0
 15
10.0
 25
10.0
 16
0.0
 26
0.0
 36
1.0
 17
0.0
 27
0.0
 37
0.0
 40
594.0
 41
1.334231805929919
 42
50.0
 43
0.0
 44
0.0
 50
0.0
 51
0.0
 71
     0
 72
  1500
 73
     1
 74
     0
 75
     0
 76
     0
 77
     0
 78
     0
281
     0
 65
     1
110
0.0
120
0.0
130
0.0
111
1.0
121
0.0
131
0.0
112
0.0
122
1.0
132
0.0
 79
     0
146
0.0
  0
ENDTAB
  0
TABLE
  2
LTYPE
  5
5
330
0
100
AcDbSymbolTable
 70
     2
  0
LTYPE
  5
13
330
5
100
AcDbSymbolTableRecord
100
AcDbLinetypeTableRecord
  2
ByBlock
 70
     0
  3

 72
    65
 73
     0
 40
0.0
  0
LTYPE
  5
14
330
5
100
AcDbSymbolTableRecord
100
AcDbLinetypeTableRecord
  2
ByLayer
 70
     0
  3

 72
    65
 73
     0
 40
0.0
  0
LTYPE
  5
15
330
5
100
AcDbSymbolTableRecord
100
AcDbLinetypeTableRecord
  2
Continuous
 70
     0
  3
Solid line
 72
    65
 73
     0
 40
0.0
  0
LTYPE
  5
35
330
5
100
AcDbSymbolTableRecord
100
AcDbLinetypeTableRecord
  2
STRICHPUNKT
 70
     0
  3
__ . __ . __ . __ . __ . __ . __ . __ . __ . __
 72
    65
 73
     4
 40
1.0
 49
0.5
 74
     0
 49
-0.25
 74
     0
 49
0.0
 74
     0
 49
-0.25
 74
     0
  0
ENDTAB
  0
TABLE
  2
LAYER
  5
2
330
0
100
AcDbSymbolTable
 70
     9
  0
LAYER
  5
10
330
2
100
AcDbSymbolTableRecord
100
AcDbLayerTableRecord
  2
0
 70
     0
 62
     7
  6
Continuous
370
    -3
390
F
  0
LAYER
  5
38
330
2
100
AcDbSymbolTableRecord
100
AcDbLayerTableRecord
  2
VOLL
 70
     0
 62
     1
  6
Continuous
370
    -3
390
F
  0
LAYER
  5
39
330
2
100
AcDbSymbolTableRecord
100
AcDbLayerTableRecord
  2
HILF
 70
     0
 62
     2
  6
Continuous
370
    -3
390
F
  0
LAYER
  5
3A
330
2
100
AcDbSymbolTableRecord
100
AcDbLayerTableRecord
  2
MITTEL
 70
     0
 62
     2
  6
STRICHPUNKT
370
    -3
390
F
  0
LAYER
  5
3B
330
2
100
AcDbSymbolTableRecord
100
AcDbLayerTableRecord
  2
BEM
 70
     0
 62
     7
  6
Continuous
370
    -3
390
F
  0
LAYER
  5
3C
330
2
100
AcDbSymbolTableRecord
100
AcDbLayerTableRecord
  2
STEMPEL
 70
     0
 62
     3
  6
Continuous
370
    -3
390
F
  0
LAYER
  5
3D
330
2
100
AcDbSymbolTableRecord
100
AcDbLayerTableRecord
  2
TEXT
 70
     0
 62
     7
  6
Continuous
370
    -3
390
F
  0
LAYER
  5
3E
330
2
100
AcDbSymbolTableRecord
100
AcDbLayerTableRecord
  2
DEFPOINTS
 70
     0
 62
     7
  6
Continuous
290
     0
370
    -3
390
F
  0
LAYER
  5
3F
330
2
100
AcDbSymbolTableRecord
100
AcDbLayerTableRecord
  2
SCHRAFF
 70
     0
 62
     7
  6
Continuous
370
    -3
390
F
  0
ENDTAB
  0
TABLE
  2
STYLE
  5
3
330
0
100
AcDbSymbolTable
 70
     2
  0
STYLE
  5
11
330
3
100
AcDbSymbolTableRecord
100
AcDbTextStyleTableRecord
  2
STANDARD
 70
     0
 40
0.0
 41
0.8
 50
0.0
 71
     0
 42
3.5
  3
simplex.shx
  4

  0
STYLE
  5
34
330
3
100
AcDbSymbolTableRecord
100
AcDbTextStyleTableRecord
  2
GREEKS
 70
     0
 40
0.0
 41
0.8
 50
0.0
 71
     0
 42
2.5
  3
SIMPLEX.shx
  4

  0
ENDTAB
  0
TABLE
  2
VIEW
  5
6
330
0
100
AcDbSymbolTable
 70
     0
  0
ENDTAB
  0
TABLE
  2
UCS
  5
7
330
0
100
AcDbSymbolTable
 70
     0
  0
ENDTAB
  0
TABLE
  2
APPID
  5
9
330
0
100
AcDbSymbolTable
 70
     1
  0
APPID
  5
12
330
9
100
AcDbSymbolTableRecord
100
AcDbRegAppTableRecord
  2
ACAD
 70
     0
  0
ENDTAB
  0
TABLE
  2
DIMSTYLE
  5
A
330
0
100
AcDbSymbolTable
 70
     1
100
AcDbDimStyleTable
 71
     1
340
1CB
  0
DIMSTYLE
105
1CB
102
{ACAD_REACTORS
330
12CA
330
13FA
330
18E4
330
18FA
330
1D6A
102
}
330
A
100
AcDbSymbolTableRecord
100
AcDbDimStyleTableRecord
  2
Standard
 70
     0
340
11
  0
ENDTAB
  0
TABLE
  2
BLOCK_RECORD
  5
1
330
0
100
AcDbSymbolTable
 70
     7
  0
BLOCK_RECORD
  5
1E
330
1
100
AcDbSymbolTableRecord
100
AcDbBlockTableRecord
  2
*Model_Space
340
21
  0
BLOCK_RECORD
  5
1A
330
1
100
AcDbSymbolTableRecord
100
AcDbBlockTableRecord
  2
*Paper_Space
340
1D
  0
BLOCK_RECORD
  5
22
330
1
100
AcDbSymbolTableRecord
100
AcDbBlockTableRecord
  2
LOGO
340
0
102
{BLKREFS
331
135
102
}
  0
BLOCK_RECORD
  5
12E9
330
1
100
AcDbSymbolTableRecord
100
AcDbBlockTableRecord
  2
*D1
340
0
  0
BLOCK_RECORD
  5
13FB
330
1
100
AcDbSymbolTableRecord
100
AcDbBlockTableRecord
  2
*D2
340
0
  0
BLOCK_RECORD
  5
18E5
330
1
100
AcDbSymbolTableRecord
100
AcDbBlockTableRecord
  2
*D4
340
0
  0
BLOCK_RECORD
  5
18FB
330
1
100
AcDbSymbolTableRecord
100
AcDbBlockTableRecord
  2
*D5
340
0
  0
BLOCK_RECORD
  5
1D6B
330
1
100
AcDbSymbolTableRecord
100
AcDbBlockTableRecord
  2
*D6
340
0
  0
ENDTAB
  0
ENDSEC
  0
SECTION
  2
BLOCKS
  0
BLOCK
  5
43
330
1E
100
AcDbEntity
  8
0
100
AcDbBlockBegin
  2
*Model_Space
 70
     0
 10
0.0
 20
0.0
 30
0.0
  3
*Model_Space
  1

  0
ENDBLK
  5
44
330
1E
100
AcDbEntity
  8
0
100
AcDbBlockEnd
  0
BLOCK
  5
41
330
1A
100
AcDbEntity
 67
     1
  8
0
100
AcDbBlockBegin
  2
*Paper_Space
 70
     0
 10
0.0
 20
0.0
 30
0.0
  3
*Paper_Space
  1

  0
ENDBLK
  5
42
330
1A
100
AcDbEntity
 67
     1
  8
0
100
AcDbBlockEnd
  0
BLOCK
  5
45
330
22
100
AcDbEntity
  8
0
100
AcDbBlockBegin
  2
LOGO
 70
     0
 10
0.0
 20
0.0
 30
0.0
  3
LOGO
  1

  0
ARC
  5
46
330
22
100
AcDbEntity
  8
0
100
AcDbCircle
 10
11.59973089678112
 20
-9.271599258481501
 30
0.0
 40
4.5
100
AcDbArc
 50
270.0
 51
231.0575587310159
  0
LINE
  5
47
330
22
100
AcDbEntity
  8
0
100
AcDbLine
 10
3.599730896781125
 20
-4.771599258481529
 30
0.0
 11
3.599730896781153
 21
-11.77159925848133
 31
0.0
  0
LINE
  5
48
330
22
100
AcDbEntity
  8
0
100
AcDbLine
 10
2.599730896781125
 20
-4.771599258481529
 30
0.0
 11
2.599730896781153
 21
-11.77159925848133
 31
0.0
  0
CIRCLE
  5
49
330
22
100
AcDbEntity
  8
0
100
AcDbCircle
 10
11.59973089678112
 20
-9.271599258481501
 30
0.0
 40
3.5
  0
ARC
  5
4A
330
22
100
AcDbEntity
  8
0
100
AcDbCircle
 10
31.59973089678115
 20
-9.271599258481472
 30
0.0
 40
4.5
100
AcDbArc
 50
270.0
 51
231.0575587310182
  0
LINE
  5
4B
330
22
100
AcDbEntity
  8
0
100
AcDbLine
 10
17.59973089678112
 20
-4.771599258481472
 30
0.0
 11
17.59973089678115
 21
-13.77159925848147
 31
0.0
  0
ARC
  5
4C
330
22
100
AcDbEntity
  8
0
100
AcDbCircle
 10
22.59973089678116
 20
-7.271599258481472
 30
0.0
 40
2.5
100
AcDbArc
 50
293.1161887722295
 51
90.0
  0
CIRCLE
  5
4D
330
22
100
AcDbEntity
  8
0
100
AcDbCircle
 10
31.59973089678115
 20
-9.271599258481472
 30
0.0
 40
3.5
  0
ARC
  5
4E
330
22
100
AcDbEntity
  8
0
100
AcDbCircle
 10
4.599730896781153
 20
-11.77159925848133
 30
0.0
 40
1.0
100
AcDbArc
 50
180.0
 51
270.0
  0
ARC
  5
4F
330
22
100
AcDbEntity
  8
0
100
AcDbCircle
 10
4.599730896781153
 20
-11.77159925848133
 30
0.0
 40
2.0
100
AcDbArc
 50
179.9999999999992
 51
270.0
  0
LINE
  5
50
330
22
100
AcDbEntity
  8
0
100
AcDbLine
 10
11.59973089678115
 20
-13.77159925848144
 30
0.0
 11
4.599730896781153
 21
-13.77159925848147
 31
0.0
  0
LINE
  5
51
330
22
100
AcDbEntity
  8
0
100
AcDbLine
 10
8.771303772034769
 20
-12.77159925848136
 30
0.0
 11
4.599730896781153
 21
-12.77159925848133
 31
0.0
  0
LINE
  5
52
330
22
100
AcDbEntity
  8
0
100
AcDbLine
 10
31.59973089678115
 20
-13.77159925848147
 30
0.0
 11
23.6715276665056
 21
-13.77159925848144
 31
0.0
  0
LINE
  5
53
330
22
100
AcDbEntity
  8
0
100
AcDbLine
 10
23.56565672307022
 20
-9.51278021337896
 30
0.0
 11
24.4388546544846
 21
-12.77159925848144
 31
0.0
  0
LINE
  5
54
330
22
100
AcDbEntity
  8
0
100
AcDbLine
 10
22.59973089678116
 20
-9.771599258481472
 30
0.0
 11
18.59973089678112
 21
-9.771599258481472
 31
0.0
  0
LINE
  5
55
330
22
100
AcDbEntity
  8
0
100
AcDbLine
 10
18.59973089678115
 20
-13.77159925848144
 30
0.0
 11
17.59973089678115
 21
-13.77159925848144
 31
0.0
  0
LINE
  5
56
330
22
100
AcDbEntity
  8
0
100
AcDbLine
 10
18.59973089678115
 20
-9.771599258481472
 30
0.0
 11
18.59973089678115
 21
-13.77159925848144
 31
0.0
  0
LINE
  5
57
330
22
100
AcDbEntity
  8
0
100
AcDbLine
 10
22.59973089678116
 20
-9.771599258481472
 30
0.0
 11
23.67152766650562
 21
-13.77159925848147
 31
0.0
  0
ARC
  5
58
330
22
100
AcDbEntity
  8
0
100
AcDbCircle
 10
22.59973089678116
 20
-7.271599258481472
 30
0.0
 40
2.5
100
AcDbArc
 50
270.0
 51
270.0000000000007
  0
LINE
  5
59
330
22
100
AcDbEntity
  8
0
100
AcDbLine
 10
28.77130377203494
 20
-12.77159925848147
 30
0.0
 11
24.43885465448463
 21
-12.77159925848144
 31
0.0
  0
LINE
  5
5A
330
22
100
AcDbEntity
  8
0
100
AcDbLine
 10
3.599730896781125
 20
-4.771599258481472
 30
0.0
 11
2.599730896781125
 21
-4.771599258481472
 31
0.0
  0
LINE
  5
5B
330
22
100
AcDbEntity
  8
0
100
AcDbLine
 10
22.59973089678116
 20
-8.771599258481472
 30
0.0
 11
18.59973089678115
 21
-8.771599258481472
 31
0.0
  0
LINE
  5
5C
330
22
100
AcDbEntity
  8
0
100
AcDbLine
 10
22.59973089678116
 20
-5.771599258481472
 30
0.0
 11
18.59973089678115
 21
-5.771599258481472
 31
0.0
  0
LINE
  5
5D
330
22
100
AcDbEntity
  8
0
100
AcDbLine
 10
22.59973089678116
 20
-4.771599258481472
 30
0.0
 11
17.59973089678115
 21
-4.771599258481472
 31
0.0
  0
LINE
  5
5E
330
22
100
AcDbEntity
  8
0
100
AcDbLine
 10
18.59973089678115
 20
-5.771599258481472
 30
0.0
 11
18.59973089678115
 21
-8.771599258481472
 31
0.0
  0
ARC
  5
5F
330
22
100
AcDbEntity
  8
0
100
AcDbCircle
 10
22.59973089678116
 20
-7.271599258481472
 30
0.0
 40
1.5
100
AcDbArc
 50
270.0
 51
90.0
  0
ENDBLK
  5
60
330
22
100
AcDbEntity
  8
0
100
AcDbBlockEnd
  0
BLOCK
  5
12F3
330
12E9
100
AcDbEntity
  8
0
100
AcDbBlockBegin
  2
*D1
 70
     1
 10
0.0
 20
0.0
 30
0.0
  3
*D1
  1

  0
LINE
  5
1D8C
330
12E9
100
AcDbEntity
  8
BEM
 62
     0
370
    -2
100
AcDbLine
 10
154.9457147297171
 20
211.1518513511118
 30
0.0
 11
119.1585079054805
 21
211.1518513511118
 31
0.0
  0
LINE
  5
1D8D
330
12E9
100
AcDbEntity
  8
BEM
 62
     0
370
    -2
100
AcDbLine
 10
151.7063576241111
 20
476.1551442554419
 30
0.0
 11
119.1585079054806
 21
476.1551442554419
 31
0.0
  0
LINE
  5
1D8E
330
12E9
100
AcDbEntity
  8
BEM
 62
     0
370
    -2
100
AcDbLine
 10
121.1585079054805
 20
218.1518513511118
 30
0.0
 11
121.1585079054806
 21
469.155144255442
 31
0.0
  0
SOLID
  5
1D8F
330
12E9
100
AcDbEntity
  8
BEM
 62
     0
100
AcDbTrace
 10
119.9918412388139
 20
218.1518513511118
 30
0.0
 11
122.3251745721472
 21
218.1518513511118
 31
0.0
 12
121.1585079054805
 22
211.1518513511118
 32
0.0
 13
121.1585079054805
 23
211.1518513511118
 33
0.0
  0
SOLID
  5
1D90
330
12E9
100
AcDbEntity
  8
BEM
 62
     0
100
AcDbTrace
 10
119.9918412388139
 20
469.155144255442
 30
0.0
 11
122.3251745721473
 21
469.155144255442
 31
0.0
 12
121.1585079054806
 22
476.1551442554419
 32
0.0
 13
121.1585079054806
 23
476.1551442554419
 33
0.0
  0
MTEXT
  5
1D91
330
12E9
100
AcDbEntity
  8
BEM
 62
     1
100
AcDbMText
 10
114.6585079054805
 20
343.6534978032769
 30
0.0
 40
7.0
 41
0.0
 71
     5
 72
     1
  1
\A1;265
 11
0.0000000000000001
 21
1.0
 31
0.0
 73
     1
 44
1.0
  0
POINT
  5
1D92
330
12E9
100
AcDbEntity
  8
DEFPOINTS
 62
     0
100
AcDbPoint
 10
156.9457147297171
 20
211.1518513511118
 30
0.0
  0
POINT
  5
1D93
330
12E9
100
AcDbEntity
  8
DEFPOINTS
 62
     0
100
AcDbPoint
 10
153.7063576241111
 20
476.1551442554419
 30
0.0
  0
POINT
  5
1D94
330
12E9
100
AcDbEntity
  8
DEFPOINTS
 62
     0
100
AcDbPoint
 10
121.1585079054806
 20
476.1551442554419
 30
0.0
  0
ENDBLK
  5
12F4
330
12E9
100
AcDbEntity
  8
0
100
AcDbBlockEnd
  0
BLOCK
  5
1405
330
13FB
100
AcDbEntity
  8
0
100
AcDbBlockBegin
  2
*D2
 70
     1
 10
0.0
 20
0.0
 30
0.0
  3
*D2
  1

  0
LINE
  5
1D83
330
13FB
100
AcDbEntity
  8
BEM
 62
     0
370
    -2
100
AcDbLine
 10
154.9457147297171
 20
211.1518513511118
 30
0.0
 11
134.5984979965034
 21
211.1518513511118
 31
0.0
  0
LINE
  5
1D84
330
13FB
100
AcDbEntity
  8
BEM
 62
     0
370
    -2
100
AcDbLine
 10
198.9582714120875
 20
328.1518513511119
 30
0.0
 11
134.5984979965035
 21
328.1518513511119
 31
0.0
  0
LINE
  5
1D85
330
13FB
100
AcDbEntity
  8
BEM
 62
     0
370
    -2
100
AcDbLine
 10
136.5984979965034
 20
218.1518513511118
 30
0.0
 11
136.5984979965035
 21
321.1518513511119
 31
0.0
  0
SOLID
  5
1D86
330
13FB
100
AcDbEntity
  8
BEM
 62
     0
100
AcDbTrace
 10
135.4318313298368
 20
218.1518513511118
 30
0.0
 11
137.7651646631701
 21
218.1518513511118
 31
0.0
 12
136.5984979965034
 22
211.1518513511118
 32
0.0
 13
136.5984979965034
 23
211.1518513511118
 33
0.0
  0
SOLID
  5
1D87
330
13FB
100
AcDbEntity
  8
BEM
 62
     0
100
AcDbTrace
 10
135.4318313298368
 20
321.1518513511119
 30
0.0
 11
137.7651646631701
 21
321.1518513511119
 31
0.0
 12
136.5984979965035
 22
328.1518513511119
 32
0.0
 13
136.5984979965035
 23
328.1518513511119
 33
0.0
  0
MTEXT
  5
1D88
330
13FB
100
AcDbEntity
  8
BEM
 62
     1
100
AcDbMText
 10
130.0984979965034
 20
269.6518513511119
 30
0.0
 40
7.0
 41
0.0
 71
     5
 72
     1
  1
\A1;117
 11
0.0000000000000001
 21
1.0
 31
0.0
 73
     1
 44
1.0
  0
POINT
  5
1D89
330
13FB
100
AcDbEntity
  8
DEFPOINTS
 62
     0
100
AcDbPoint
 10
156.9457147297171
 20
211.1518513511118
 30
0.0
  0
POINT
  5
1D8A
330
13FB
100
AcDbEntity
  8
DEFPOINTS
 62
     0
100
AcDbPoint
 10
200.9582714120875
 20
328.1518513511119
 30
0.0
  0
POINT
  5
1D8B
330
13FB
100
AcDbEntity
  8
DEFPOINTS
 62
     0
100
AcDbPoint
 10
136.5984979965035
 20
328.1518513511119
 30
0.0
  0
ENDBLK
  5
1406
330
13FB
100
AcDbEntity
  8
0
100
AcDbBlockEnd
  0
BLOCK
  5
18EF
330
18E5
100
AcDbEntity
  8
0
100
AcDbBlockBegin
  2
*D4
 70
     1
 10
0.0
 20
0.0
 30
0.0
  3
*D4
  1

  0
LINE
  5
1D13
330
18E5
100
AcDbEntity
  8
BEM
 62
     0
370
    -2
100
AcDbLine
 10
156.5082714120874
 20
214.1518513511118
 30
0.0
 11
156.5082714120874
 21
188.4609660665999
 31
0.0
  0
LINE
  5
1D14
330
18E5
100
AcDbEntity
  8
BEM
 62
     0
370
    -2
100
AcDbLine
 10
245.4082714120875
 20
214.1518513511148
 30
0.0
 11
245.4082714120875
 21
188.4609660665999
 31
0.0
  0
LINE
  5
1D15
330
18E5
100
AcDbEntity
  8
BEM
 62
     0
370
    -2
100
AcDbLine
 10
163.5082714120875
 20
190.4609660665999
 30
0.0
 11
238.4082714120875
 21
190.4609660665999
 31
0.0
  0
SOLID
  5
1D16
330
18E5
100
AcDbEntity
  8
BEM
 62
     0
100
AcDbTrace
 10
163.5082714120875
 20
191.6276327332665
 30
0.0
 11
163.5082714120875
 21
189.2942993999332
 31
0.0
 12
156.5082714120874
 22
190.4609660665999
 32
0.0
 13
156.5082714120874
 23
190.4609660665999
 33
0.0
  0
SOLID
  5
1D17
330
18E5
100
AcDbEntity
  8
BEM
 62
     0
100
AcDbTrace
 10
238.4082714120875
 20
191.6276327332665
 30
0.0
 11
238.4082714120875
 21
189.2942993999332
 31
0.0
 12
245.4082714120875
 22
190.4609660665999
 32
0.0
 13
245.4082714120875
 23
190.4609660665999
 33
0.0
  0
MTEXT
  5
1D18
330
18E5
100
AcDbEntity
  8
BEM
 62
     1
100
AcDbMText
 10
200.9582714120875
 20
196.9609660665999
 30
0.0
 40
7.0
 41
0.0
 71
     5
 72
     1
  1
\A1;%%c88.9
 73
     1
 44
1.0
  0
POINT
  5
1D19
330
18E5
100
AcDbEntity
  8
DEFPOINTS
 62
     0
100
AcDbPoint
 10
156.5082714120874
 20
216.1518513511118
 30
0.0
  0
POINT
  5
1D1A
330
18E5
100
AcDbEntity
  8
DEFPOINTS
 62
     0
100
AcDbPoint
 10
245.4082714120875
 20
216.1518513511148
 30
0.0
  0
POINT
  5
1D1B
330
18E5
100
AcDbEntity
  8
DEFPOINTS
 62
     0
100
AcDbPoint
 10
245.4082714120875
 20
190.4609660665999
 30
0.0
  0
ENDBLK
  5
18F0
330
18E5
100
AcDbEntity
  8
0
100
AcDbBlockEnd
  0
BLOCK
  5
1905
330
18FB
100
AcDbEntity
  8
0
100
AcDbBlockBegin
  2
*D5
 70
     1
 10
0.0
 20
0.0
 30
0.0
  3
*D5
  1

  0
LINE
  5
1D4A
330
18FB
100
AcDbEntity
  8
BEM
 62
     0
370
    -2
100
AcDbLine
 10
201.6423116987388
 20
326.2724661095401
 30
0.0
 11
224.1373045207721
 21
264.4679812802102
 31
0.0
  0
LINE
  5
1D4B
330
18FB
100
AcDbEntity
  8
BEM
 62
     0
370
    -2
100
AcDbLine
 10
359.697003763587
 20
333.5152330471427
 30
0.0
 11
366.0308902594443
 21
316.1130229223863
 31
0.0
  0
LINE
  5
1D4C
330
18FB
100
AcDbEntity
  8
BEM
 62
     0
370
    -2
100
AcDbLine
 10
230.0311125796221
 20
268.7415075250617
 30
0.0
 11
358.7690016272916
 21
315.5982671606785
 31
0.0
  0
SOLID
  5
1D4D
330
18FB
100
AcDbEntity
  8
BEM
 62
     0
100
AcDbTrace
 10
229.6320890790755
 20
269.8378155826453
 30
0.0
 11
230.4301360801687
 21
267.6451994674781
 31
0.0
 12
223.4532642341207
 22
266.347366521782
 32
0.0
 13
223.4532642341207
 23
266.347366521782
 33
0.0
  0
SOLID
  5
1D4E
330
18FB
100
AcDbEntity
  8
BEM
 62
     0
100
AcDbTrace
 10
358.369978126745
 20
316.6945752182621
 30
0.0
 11
359.1680251278382
 21
314.5019591030949
 31
0.0
 12
365.3468499727929
 22
317.9924081639582
 32
0.0
 13
365.3468499727929
 23
317.9924081639582
 33
0.0
  0
MTEXT
  5
1D4F
330
18FB
100
AcDbEntity
  8
BEM
 62
     1
100
AcDbMText
 10
292.1769261718399
 20
298.2778893779785
 30
0.0
 40
7.0
 41
0.0
 71
     5
 72
     1
  1
\A1;151
 11
0.9396926207859078
 21
0.3420201433256703
 31
0.0
 73
     1
 44
1.0
  0
POINT
  5
1D50
330
18FB
100
AcDbEntity
  8
DEFPOINTS
 62
     0
100
AcDbPoint
 10
200.9582714120875
 20
328.1518513511119
 30
0.0
  0
POINT
  5
1D51
330
18FB
100
AcDbEntity
  8
DEFPOINTS
 62
     0
100
AcDbPoint
 10
359.0129634769357
 20
335.3946182887145
 30
0.0
  0
POINT
  5
1D52
330
18FB
100
AcDbEntity
  8
DEFPOINTS
 62
     0
100
AcDbPoint
 10
365.3468499727929
 20
317.9924081639583
 30
0.0
  0
ENDBLK
  5
1906
330
18FB
100
AcDbEntity
  8
0
100
AcDbBlockEnd
  0
BLOCK
  5
1D77
330
1D6B
100
AcDbEntity
  8
0
100
AcDbBlockBegin
  2
*D6
 70
     1
 10
0.0
 20
0.0
 30
0.0
  3
*D6
  1

  0
LINE
  5
1D6C
330
1D6B
100
AcDbEntity
  8
BEM
 62
     0
370
    -2
100
AcDbLine
 10
349.4297054962609
 20
382.1910339965676
 30
0.0
 11
367.1236347574866
 21
388.6310975748656
 31
0.0
  0
LINE
  5
1D6D
330
1D6B
100
AcDbEntity
  8
BEM
 62
     0
370
    -2
100
AcDbLine
 10
200.9582714120875
 20
483.1551442554417
 30
0.0
 11
200.9582714120877
 21
504.9813375786693
 31
0.0
  0
ARC
  5
1D6E
330
1D6B
100
AcDbEntity
  8
BEM
 62
     0
370
    -2
100
AcDbCircle
 10
200.9582714120875
 20
328.1518513511119
 30
0.0
 40
174.8294862275574
100
AcDbArc
 50
22.29421970109882
 51
87.70578029890117
  0
SOLID
  5
1D6F
330
1D6B
100
AcDbEntity
  8
BEM
 62
     0
100
AcDbTrace
 10
363.8070031395982
 20
394.896548921771
 30
0.0
 11
361.6308029544617
 21
394.0547667654761
 31
0.0
 12
365.2442495159148
 22
387.9470572882142
 32
0.0
 13
365.2442495159148
 23
387.9470572882142
 33
0.0
  0
SOLID
  5
1D70
330
1D6B
100
AcDbEntity
  8
BEM
 62
     0
100
AcDbTrace
 10
207.9335124486226
 20
501.6747681800723
 30
0.0
 11
207.9802246299765
 21
504.0076338891429
 31
0.0
 12
200.9582714120877
 22
502.9813375786693
 32
0.0
 13
200.9582714120877
 23
502.9813375786693
 33
0.0
  0
MTEXT
  5
1D71
330
1D6B
100
AcDbEntity
  8
BEM
 62
     1
100
AcDbMText
 10
304.964591927856
 20
476.688270684288
 30
0.0
 40
7.0
 41
0.0
 71
     5
 72
     1
  1
\A1;70°
 11
0.8191520442889917
 21
-0.5735764363510463
 31
0.0
 73
     1
 44
1.0
  0
POINT
  5
1D72
330
1D6B
100
AcDbEntity
  8
DEFPOINTS
 62
     0
100
AcDbPoint
 10
328.124631463771
 20
448.1271243276601
 30
0.0
  0
POINT
  5
1D73
330
1D6B
100
AcDbEntity
  8
DEFPOINTS
 62
     0
100
AcDbPoint
 10
200.9582714120876
 20
481.1551442554416
 30
0.0
  0
POINT
  5
1D74
330
1D6B
100
AcDbEntity
  8
DEFPOINTS
 62
     0
100
AcDbPoint
 10
347.5503202546891
 20
381.5069937099162
 30
0.0
  0
POINT
  5
1D75
330
1D6B
100
AcDbEntity
  8
DEFPOINTS
 62
     0
100
AcDbPoint
 10
200.9582714120875
 20
328.1518513511119
 30
0.0
  0
POINT
  5
1D76
330
1D6B
100
AcDbEntity
  8
DEFPOINTS
 62
     0
100
AcDbPoint
 10
200.9582714120874
 20
206.151851351112
 30
0.0
  0
ENDBLK
  5
1D78
330
1D6B
100
AcDbEntity
  8
0
100
AcDbBlockEnd
  0
ENDSEC
  0
SECTION
  2
ENTITIES
  0
TEXT
  5
134
330
1E
100
AcDbEntity
  8
TEXT
100
AcDbText
 10
204.4216048581257
 20
63.0896391972351
 30
0.0
 40
4.0
  1
Koeh
 41
0.8
  7
GREEKS
 72
     1
 11
209.6787477152686
 21
63.0896391972351
 31
0.0
100
AcDbText
  0
INSERT
  5
135
330
1E
100
AcDbEntity
  8
STEMPEL
100
AcDbBlockReference
  2
LOGO
 10
150.9955485457794
 20
45.02105276448322
 30
0.0
 41
2.0
 42
2.0
 43
2.0
  0
LINE
  5
136
330
1E
100
AcDbEntity
  8
HILF
100
AcDbLine
 10
420.0
 20
0.0
 30
0.0
 11
0.0
 21
0.0
 31
0.0
  0
LINE
  5
137
330
1E
100
AcDbEntity
  8
HILF
100
AcDbLine
 10
419.9999999999999
 20
594.0000000000002
 30
0.0
 11
0.0
 21
594.0
 31
0.0
  0
LINE
  5
138
330
1E
100
AcDbEntity
  8
STEMPEL
100
AcDbLine
 10
410.0
 20
584.0
 30
0.0
 11
39.99999999999989
 21
584.0
 31
0.0
  0
LINE
  5
139
330
1E
100
AcDbEntity
  8
STEMPEL
100
AcDbLine
 10
410.0
 20
10.0
 30
0.0
 11
39.99999999999989
 21
10.0
 31
0.0
  0
LINE
  5
13A
330
1E
100
AcDbEntity
  8
STEMPEL
100
AcDbLine
 10
49.99999999999989
 20
10.0
 30
0.0
 11
410.0
 21
10.0
 31
0.0
  0
TEXT
  5
13B
330
1E
100
AcDbEntity
  8
TEXT
100
AcDbText
 10
202.4626584226295
 20
73.30961091915225
 30
0.0
 40
4.0
  1
Name
 41
0.8
  7
GREEKS
100
AcDbText
  0
TEXT
  5
13C
330
1E
100
AcDbEntity
  8
TEXT
100
AcDbText
 10
196.5498279101549
 20
102.6506227776589
 30
0.0
 40
5.0
  1
Zul. Abw.
 41
0.8
  7
GREEKS
 72
     4
 11
209.9783993387263
 21
105.1506227776589
 31
0.0
100
AcDbText
  0
LINE
  5
13D
330
1E
100
AcDbEntity
  8
HILF
100
AcDbLine
 10
146.0000000000001
 20
49.99999999999997
 30
0.0
 11
230.0
 21
49.99999999999997
 31
0.0
  0
LINE
  5
13E
330
1E
100
AcDbEntity
  8
HILF
100
AcDbLine
 10
146.0000000000001
 20
59.99999999999997
 30
0.0
 11
230.0
 21
59.99999999999997
 31
0.0
  0
LINE
  5
13F
330
1E
100
AcDbEntity
  8
HILF
100
AcDbLine
 10
146.0000000000001
 20
69.99999999999994
 30
0.0
 11
230.0
 21
69.99999999999994
 31
0.0
  0
LINE
  5
140
330
1E
100
AcDbEntity
  8
STEMPEL
100
AcDbLine
 10
410.0
 20
80.0
 30
0.0
 11
146.0000000000001
 21
79.99999999999994
 31
0.0
  0
LINE
  5
141
330
1E
100
AcDbEntity
  8
STEMPEL
100
AcDbLine
 10
410.0
 20
40.0
 30
0.0
 11
146.0000000000001
 21
39.99999999999997
 31
0.0
  0
LINE
  5
142
330
1E
100
AcDbEntity
  8
STEMPEL
100
AcDbLine
 10
410.0
 20
110.0
 30
0.0
 11
39.99999999999997
 21
110.0
 31
0.0
  0
LINE
  5
144
330
1E
100
AcDbEntity
  8
HILF
100
AcDbLine
 10
0.0
 20
0.0
 30
0.0
 11
-0.0000000000001137
 21
594.0
 31
0.0
  0
LINE
  5
145
330
1E
100
AcDbEntity
  8
STEMPEL
100
AcDbLine
 10
40.0
 20
10.0
 30
0.0
 11
39.99999999999989
 21
584.0
 31
0.0
  0
TEXT
  5
146
330
1E
100
AcDbEntity
  8
TEXT
100
AcDbText
 10
41.85509950977674
 20
111.6719999999999
 30
0.0
 40
5.0
  1
Erstellt mit AUTOCAD 2004
 41
0.8
  7
GREEKS
100
AcDbText
  0
TEXT
  5
147
330
1E
100
AcDbEntity
  8
TEXT
100
AcDbText
 10
67.82662250653562
 20
18.67381894984132
 30
0.0
 40
4.0
  1
Änderung
 41
0.8
  7
GREEKS
 72
     1
 11
78.56947964939277
 21
18.67381894984132
 31
0.0
100
AcDbText
  0
LINE
  5
148
330
1E
100
AcDbEntity
  8
HILF
100
AcDbLine
 10
40.00000000000008
 20
39.99999999999997
 30
0.0
 11
146.0000000000001
 21
39.99999999999997
 31
0.0
  0
LINE
  5
149
330
1E
100
AcDbEntity
  8
HILF
100
AcDbLine
 10
40.00000000000008
 20
49.99999999999997
 30
0.0
 11
146.0000000000001
 21
49.99999999999997
 31
0.0
  0
LINE
  5
14A
330
1E
100
AcDbEntity
  8
HILF
100
AcDbLine
 10
40.00000000000008
 20
59.99999999999997
 30
0.0
 11
146.0000000000001
 21
59.99999999999997
 31
0.0
  0
LINE
  5
14B
330
1E
100
AcDbEntity
  8
HILF
100
AcDbLine
 10
40.00000000000008
 20
69.99999999999994
 30
0.0
 11
146.0000000000001
 21
69.99999999999994
 31
0.0
  0
LINE
  5
14C
330
1E
100
AcDbEntity
  8
HILF
100
AcDbLine
 10
40.00000000000008
 20
79.99999999999994
 30
0.0
 11
146.0000000000001
 21
79.99999999999994
 31
0.0
  0
LINE
  5
14D
330
1E
100
AcDbEntity
  8
HILF
100
AcDbLine
 10
40.00000000000008
 20
90.00000000000005
 30
0.0
 11
146.0000000000001
 21
90.00000000000005
 31
0.0
  0
LINE
  5
14E
330
1E
100
AcDbEntity
  8
HILF
100
AcDbLine
 10
40.00000000000008
 20
100.0
 30
0.0
 11
146.0000000000001
 21
100.0
 31
0.0
  0
LINE
  5
14F
330
1E
100
AcDbEntity
  8
STEMPEL
100
AcDbLine
 10
145.9999999999999
 20
29.99999999999997
 30
0.0
 11
39.99999999999997
 21
29.99999999999997
 31
0.0
  0
TEXT
  5
150
330
1E
100
AcDbEntity
  8
TEXT
100
AcDbText
 10
48.26641107045756
 20
13.65465846027192
 30
0.0
 40
4.0
  1
Index
 50
90.0
 41
0.8
  7
GREEKS
100
AcDbText
  0
LINE
  5
151
330
1E
100
AcDbEntity
  8
VOLL
100
AcDbLine
 10
54.00000000000009
 20
110.0
 30
0.0
 11
53.99999999999997
 21
9.999999999999971
 31
0.0
  0
LINE
  5
152
330
1E
100
AcDbEntity
  8
HILF
100
AcDbLine
 10
31.08767135713856
 20
297.0
 30
0.0
 11
0.0000000000001137
 21
297.0
 31
0.0
  0
TEXT
  5
153
330
1E
100
AcDbEntity
  8
TEXT
100
AcDbText
 10
110.1314052170812
 20
18.6715626933981
 30
0.0
 40
4.0
  1
Tag
 41
0.8
  7
GREEKS
 72
     1
 11
113.8647385504146
 21
18.6715626933981
 31
0.0
100
AcDbText
  0
LINE
  5
154
330
1E
100
AcDbEntity
  8
VOLL
100
AcDbLine
 10
124.0000000000001
 20
109.9999999999999
 30
0.0
 11
124.0
 21
9.999999999999971
 31
0.0
  0
LINE
  5
155
330
1E
100
AcDbEntity
  8
VOLL
100
AcDbLine
 10
104.0000000000001
 20
109.9999999999999
 30
0.0
 11
104.0
 21
9.999999999999971
 31
0.0
  0
TEXT
  5
156
330
1E
100
AcDbEntity
  8
TEXT
100
AcDbText
 10
128.5727686473826
 20
18.59324216966408
 30
0.0
 40
4.0
  1
Name
 41
0.8
  7
GREEKS
 72
     1
 11
134.8965781711921
 21
18.59324216966408
 31
0.0
100
AcDbText
  0
LINE
  5
157
330
1E
100
AcDbEntity
  8
STEMPEL
100
AcDbLine
 10
146.0000000000001
 20
109.9999999999999
 30
0.0
 11
146.0
 21
9.999999999999971
 31
0.0
  0
TEXT
  5
158
330
1E
100
AcDbEntity
  8
TEXT
100
AcDbText
 10
170.398997108236
 20
63.10765040825732
 30
0.0
 40
4.0
  1
08.04.
 41
0.8
  7
GREEKS
 72
     1
 11
177.4085209177598
 21
63.10765040825732
 31
0.0
100
AcDbText
  0
TEXT
  5
159
330
1E
100
AcDbEntity
  8
TEXT
100
AcDbText
 10
172.331167315365
 20
73.31880501229926
 30
0.0
 40
4.0
  1
Tag
 41
0.8
  7
GREEKS
100
AcDbText
  0
TEXT
  5
15A
330
1E
100
AcDbEntity
  8
TEXT
100
AcDbText
 10
147.5836127167615
 20
63.62990369617964
 30
0.0
 40
4.0
  1
Gez.
 41
0.8
  7
GREEKS
100
AcDbText
  0
LINE
  5
15B
330
1E
100
AcDbEntity
  8
VOLL
100
AcDbLine
 10
164.0000000000001
 20
79.99999999999994
 30
0.0
 11
164.0000000000001
 21
39.99999999999997
 31
0.0
  0
TEXT
  5
15C
330
1E
100
AcDbEntity
  8
TEXT
100
AcDbText
 10
147.6006777387303
 20
43.52946389649807
 30
0.0
 40
4.0
  1
Norm.
 41
0.8
  7
GREEKS
100
AcDbText
  0
TEXT
  5
15D
330
1E
100
AcDbEntity
  8
TEXT
100
AcDbText
 10
147.5515086571672
 20
53.68926291428377
 30
0.0
 40
4.0
  1
Gepr.
 41
0.8
  7
GREEKS
100
AcDbText
  0
TEXT
  5
15E
330
1E
100
AcDbEntity
  8
TEXT
 62
     1
100
AcDbText
 10
160.5006306481887
 20
88.14901428913959
 30
0.0
 40
7.0
  1
1:2
 41
0.8
  7
GREEKS
100
AcDbText
  0
TEXT
  5
15F
330
1E
100
AcDbEntity
  8
TEXT
100
AcDbText
 10
153.5163572150377
 20
102.4620895087088
 30
0.0
 40
5.0
  1
Maßstab
 41
0.8
  7
GREEKS
100
AcDbText
  0
TEXT
  5
160
330
1E
100
AcDbEntity
  8
TEXT
100
AcDbText
 10
148.622109822104
 20
73.14025471151666
 30
0.0
 40
4.0
  1
2011
 41
0.8
  7
GREEKS
100
AcDbText
  0
LINE
  5
161
330
1E
100
AcDbEntity
  8
VOLL
100
AcDbLine
 10
190.0000000000001
 20
109.9999999999998
 30
0.0
 11
190.0
 21
39.99999999999997
 31
0.0
  0
LINE
  5
186
330
1E
100
AcDbEntity
  8
HILF
100
AcDbLine
 10
420.0
 20
-0.0000000000001137
 30
0.0
 11
419.9999999999999
 21
594.0
 31
0.0
  0
LINE
  5
187
330
1E
100
AcDbEntity
  8
STEMPEL
100
AcDbLine
 10
410.0
 20
10.0
 30
0.0
 11
410.0
 21
584.0
 31
0.0
  0
TEXT
  5
188
330
1E
100
AcDbEntity
  8
TEXT
100
AcDbText
 10
337.2400861497006
 20
52.07416177878602
 30
0.0
 40
5.0
  1
ersetzt durch:
 41
0.8
  7
GREEKS
100
AcDbText
  0
TEXT
  5
189
330
1E
100
AcDbEntity
  8
TEXT
100
AcDbText
 10
336.7238616296993
 20
73.1811823709997
 30
0.0
 40
5.0
  1
Ersatz für:
 41
0.8
  7
GREEKS
100
AcDbText
  0
TEXT
  5
18A
330
1E
100
AcDbEntity
  8
TEXT
100
AcDbText
 10
336.178754957634
 20
102.3132034537136
 30
0.0
 40
5.0
  1
Zeichnungs Nr.
 41
0.8
  7
GREEKS
100
AcDbText
  0
LINE
  5
18B
330
1E
100
AcDbEntity
  8
HILF
100
AcDbLine
 10
233.4909699289885
 20
14.89398258028314
 30
0.0
 11
404.8588839326728
 21
14.89398258028314
 31
0.0
  0
LINE
  5
18C
330
1E
100
AcDbEntity
  8
HILF
100
AcDbLine
 10
336.7238616296993
 20
83.77983636955827
 30
0.0
 11
404.8588839326728
 21
83.77983636955827
 31
0.0
  0
LINE
  5
18D
330
1E
100
AcDbEntity
  8
VOLL
100
AcDbLine
 10
332.0
 20
60.0
 30
0.0
 11
410.0
 21
60.0
 31
0.0
  0
TEXT
  5
18E
330
1E
100
AcDbEntity
  8
TEXT
 62
     1
100
AcDbText
 10
234.9283864320014
 20
87.41748789253779
 30
0.0
 40
7.0
  1
Abzweig DN80/80
 41
0.8
  7
GREEKS
100
AcDbText
  0
LINE
  5
18F
330
1E
100
AcDbEntity
  8
HILF
100
AcDbLine
 10
234.7736801096947
 20
49.99999999999997
 30
0.0
 11
324.835391655631
 21
49.99999999999997
 31
0.0
  0
LINE
  5
190
330
1E
100
AcDbEntity
  8
HILF
100
AcDbLine
 10
234.7736801096947
 20
59.99999999999997
 30
0.0
 11
324.835391655631
 21
59.99999999999997
 31
0.0
  0
LINE
  5
191
330
1E
100
AcDbEntity
  8
HILF
100
AcDbLine
 10
234.7736801096947
 20
69.99999999999994
 30
0.0
 11
324.835391655631
 21
69.99999999999994
 31
0.0
  0
LINE
  5
192
330
1E
100
AcDbEntity
  8
HILF
100
AcDbLine
 10
234.7736801096947
 20
84.03758247564139
 30
0.0
 11
324.8353916556311
 21
84.03758247564139
 31
0.0
  0
LINE
  5
193
330
1E
100
AcDbEntity
  8
STEMPEL
100
AcDbLine
 10
230.0
 20
110.0
 30
0.0
 11
230.0
 21
9.999999999999971
 31
0.0
  0
TEXT
  5
194
330
1E
100
AcDbEntity
  8
TEXT
100
AcDbText
 10
235.1296391125315
 20
71.50334417585288
 30
0.0
 40
5.0
  1
dünnwandig 70° 
 41
0.8
  7
GREEKS
100
AcDbText
  0
TEXT
  5
195
330
1E
100
AcDbEntity
  8
TEXT
100
AcDbText
 10
234.9837501577827
 20
42.62974153022632
 30
0.0
 40
4.0
  1
5210MM0W.DWG
 41
0.8
  7
GREEKS
100
AcDbText
  0
TEXT
  5
196
330
1E
100
AcDbEntity
  8
TEXT
100
AcDbText
 10
234.742238391136
 20
30.84560570193057
 30
0.0
 40
5.0
  1
Bauvorhaben
 41
0.8
  7
GREEKS
100
AcDbText
  0
TEXT
  5
197
330
1E
100
AcDbEntity
  8
TEXT
100
AcDbText
 10
234.877940380901
 20
102.5489328011779
 30
0.0
 40
5.0
  1
Benennung
 41
0.8
  7
GREEKS
100
AcDbText
  0
LINE
  5
198
330
1E
100
AcDbEntity
  8
STEMPEL
100
AcDbLine
 10
332.0
 20
109.9999999999997
 30
0.0
 11
332.0
 21
40.0
 31
0.0
  0
TEXT
  5
19A
330
1E
100
AcDbEntity
  8
TEXT
 62
     1
100
AcDbText
 10
347.8471862306085
 20
88.14901428913959
 30
0.0
 40
7.0
  1
5210MM0W
 41
0.8
  7
GREEKS
 72
     1
 11
369.7138528972752
 21
88.14901428913959
 31
0.0
100
AcDbText
  0
TEXT
  5
212
330
1E
100
AcDbEntity
  8
TEXT
100
AcDbText
 10
235.1296391125315
 20
51.50334417585291
 30
0.0
 40
5.0
  1
EDV-Art.Nr. 5.210.MM0C
 41
0.8
  7
GREEKS
100
AcDbText
  0
TEXT
  5
255
330
1E
100
AcDbEntity
  8
TEXT
 62
     1
100
AcDbText
 10
297.0573649355706
 20
132.2248663682012
 30
0.0
 40
7.0
  1
Werkstoff: 1.4404
 41
0.8
  7
GREEKS
100
AcDbText
  0
LINE
  5
1283
330
1E
100
AcDbEntity
  8
STEMPEL
100
AcDbLine
 10
248.2101852000641
 20
476.1551442554418
 30
0.0
 11
153.7063576241111
 21
476.1551442554419
 31
0.0
  0
LINE
  5
1293
330
1E
100
AcDbEntity
  8
MITTEL
100
AcDbLine
 10
200.9582714120876
 20
481.1551442554416
 30
0.0
 11
200.9582714120874
 21
206.151851351112
 31
0.0
  0
LINE
  5
12C7
330
1E
100
AcDbEntity
  8
STEMPEL
100
AcDbLine
 10
244.9708280944577
 20
211.151851351112
 30
0.0
 11
156.9457147297171
 21
211.1518513511118
 31
0.0
  0
DIMENSION
  5
12CA
330
1E
100
AcDbEntity
  8
BEM
100
AcDbDimension
  2
*D1
 10
121.1585079054806
 20
476.1551442554419
 30
0.0
 11
114.6585079054805
 21
343.6534978032769
 31
0.0
 70
    32
 71
     5
 42
265.0032929043301
  3
Standard
100
AcDbAlignedDimension
 13
156.9457147297171
 23
211.1518513511118
 33
0.0
 14
153.7063576241111
 24
476.1551442554419
 34
0.0
 50
90.0
100
AcDbRotatedDimension
1001
ACAD
1000
DSTYLE
1002
{
1070
    40
1040
2.0
1070
    41
1040
3.5
1070
    42
1040
1.0
1070
    43
1040
7.0
1070
    44
1040
1.0
1070
    73
1070
     0
1070
    74
1070
     0
1070
    77
1070
     1
1070
    78
1070
     8
1070
    79
1070
     2
1070
   140
1040
3.5
1070
   141
1040
1.5
1070
   146
1040
0.5
1070
   147
1040
1.5
1070
   172
1070
     1
1070
   178
1070
     1
1070
   179
1070
     2
1070
   271
1070
     2
1070
   272
1070
     2
1070
   284
1070
     8
1070
   285
1070
     8
1070
   286
1070
     8
1002
}
  0
LINE
  5
13C9
330
1E
100
AcDbEntity
  8
MITTEL
100
AcDbLine
 10
347.5503202546891
 20
381.5069937099161
 30
0.0
 11
200.9582714120875
 21
328.1518513511119
 31
0.0
  0
TEXT
  5
13CA
330
1E
100
AcDbEntity
  8
TEXT
 62
     1
100
AcDbText
 10
312.4390517696509
 20
381.4861224641304
 30
0.0
 40
7.0
  1
DN80
 50
19.99999999999999
 41
0.8
  7
GREEKS
100
AcDbText
  0
DIMENSION
  5
13FA
330
1E
100
AcDbEntity
  8
BEM
100
AcDbDimension
  2
*D2
 10
136.5984979965035
 20
328.1518513511119
 30
0.0
 11
130.0984979965034
 21
269.6518513511119
 31
0.0
 70
    32
 71
     5
 42
117.0000000000001
  3
Standard
100
AcDbAlignedDimension
 13
156.9457147297171
 23
211.1518513511118
 33
0.0
 14
200.9582714120875
 24
328.1518513511119
 34
0.0
 50
90.0
100
AcDbRotatedDimension
1001
ACAD
1000
DSTYLE
1002
{
1070
    40
1040
2.0
1070
    41
1040
3.5
1070
    42
1040
1.0
1070
    43
1040
7.0
1070
    44
1040
1.0
1070
    73
1070
     0
1070
    74
1070
     0
1070
    77
1070
     1
1070
    78
1070
     8
1070
    79
1070
     2
1070
   140
1040
3.5
1070
   141
1040
1.5
1070
   146
1040
0.5
1070
   147
1040
1.5
1070
   172
1070
     1
1070
   178
1070
     1
1070
   179
1070
     2
1070
   271
1070
     2
1070
   272
1070
     2
1070
   284
1070
     8
1070
   285
1070
     8
1070
   286
1070
     8
1002
}
  0
TEXT
  5
14B3
330
1E
100
AcDbEntity
  8
TEXT
 62
     1
100
AcDbText
 10
183.8814233700701
 20
450.5831773608815
 30
0.0
 40
7.0
  1
DN80
 50
89.99999999999996
 41
0.8
  7
GREEKS
100
AcDbText
  0
TEXT
  5
1630
330
1E
100
AcDbEntity
  8
VOLL
100
AcDbText
 10
530.1602023581097
 20
204.0789315492053
 30
0.0
 40
1.8
  1

  7
GREEKS
100
AcDbText
  0
LINE
  5
163C
330
1E
100
AcDbEntity
  8
STEMPEL
100
AcDbLine
 10
359.0129634769355
 20
335.3946182887144
 30
0.0
 11
326.690750824584
 21
424.1991676978612
 31
0.0
  0
LINE
  5
163F
102
{ACAD_REACTORS
330
1D5F
102
}
330
1E
100
AcDbEntity
  8
STEMPEL
100
AcDbLine
 10
266.7102375172229
 20
399.3863118444155
 30
0.0
 11
245.4082714120875
 21
391.6330302507988
 31
0.0
  0
LINE
  5
1642
330
1E
100
AcDbEntity
  8
STEMPEL
100
AcDbLine
 10
293.1324128099916
 20
411.7700593839846
 30
0.0
 11
275.2834612088063
 21
405.2735722882951
 31
0.0
  0
ARC
  5
1645
330
1E
100
AcDbEntity
  8
STEMPEL
100
AcDbCircle
 10
263.5636521986266
 20
408.0314839556458
 30
0.0
 40
9.200000000000001
100
AcDbArc
 50
290.0
 51
318.9550243718593
  0
ARC
  5
1646
330
1E
100
AcDbEntity
  8
STEMPEL
100
AcDbCircle
 10
279.250894871384
 20
394.3731378871784
 30
0.0
 40
11.6
100
AcDbArc
 50
109.9999999999999
 51
138.9550243718592
  0
ARC
  5
1649
330
1E
100
AcDbEntity
  8
STEMPEL
100
AcDbCircle
 10
322.3788430040016
 20
400.3864095428971
 30
0.0
 40
24.2
100
AcDbArc
 50
79.73634805790151
 51
109.9999999999999
  0
LINE
  5
164A
330
1E
100
AcDbEntity
  8
STEMPEL
100
AcDbLine
 10
314.1019555355204
 20
423.1269709659161
 30
0.0
 11
306.8628557520077
 21
420.4921541218345
 31
0.0
  0
ARC
  5
164C
330
1E
100
AcDbEntity
  8
STEMPEL
100
AcDbCircle
 10
315.1397432204888
 20
397.7515926988157
 30
0.0
 40
24.2
100
AcDbArc
 50
109.9999999999999
 51
134.8505023402282
  0
ARC
  5
164D
330
1E
100
AcDbEntity
  8
STEMPEL
100
AcDbCircle
 10
288.4809388607624
 20
424.5498790266727
 30
0.0
 40
13.6
100
AcDbArc
 50
290.0
 51
314.8505023402283
  0
ARC
  5
1650
330
1E
100
AcDbEntity
  8
STEMPEL
100
AcDbCircle
 10
329.9679822461659
 20
310.5651641253424
 30
0.0
 40
13.6
100
AcDbArc
 50
85.14949765977171
 51
109.9999999999999
  0
ARC
  5
1651
330
1E
100
AcDbEntity
  8
STEMPEL
100
AcDbCircle
 10
333.1642047737515
 20
348.2297915833982
 30
0.0
 40
24.2
100
AcDbArc
 50
265.1494976597718
 51
290.0
  0
LINE
  5
1653
330
1E
100
AcDbEntity
  8
STEMPEL
100
AcDbLine
 10
348.6801920257456
 20
328.1240470044609
 30
0.0
 11
341.4410922422328
 21
325.4892301603795
 31
0.0
  0
ARC
  5
1654
330
1E
100
AcDbEntity
  8
STEMPEL
100
AcDbCircle
 10
340.4033045572643
 20
350.8646084274797
 30
0.0
 40
24.2
100
AcDbArc
 50
290.0
 51
320.2636519420985
  0
ARC
  5
1657
330
1E
100
AcDbEntity
  8
STEMPEL
100
AcDbCircle
 10
303.5001230331738
 20
327.7489310734576
 30
0.0
 40
11.6
100
AcDbArc
 50
261.0449756281408
 51
290.0
  0
ARC
  5
1658
330
1E
100
AcDbEntity
  8
STEMPEL
100
AcDbCircle
 10
300.262413577471
 20
307.2024657453178
 30
0.0
 40
9.200000000000001
100
AcDbArc
 50
81.04497562814074
 51
109.9999999999999
  0
LINE
  5
165B
330
1E
100
AcDbEntity
  8
STEMPEL
100
AcDbLine
 10
325.3165082969367
 20
323.3449837680308
 30
0.0
 11
307.4675566957517
 21
316.8484966723414
 31
0.0
  0
LINE
  5
165E
102
{ACAD_REACTORS
330
1D69
102
}
330
1E
100
AcDbEntity
  8
STEMPEL
100
AcDbLine
 10
297.1158282588748
 20
315.8476378565485
 30
0.0
 11
245.4082714120875
 21
297.0276262776904
 31
0.0
  0
LINE
  5
17AC
330
1E
100
AcDbEntity
  8
HILF
100
AcDbLine
 10
327.7557926305374
 20
325.1988997080465
 30
0.0
 11
296.1926872145761
 21
411.9178191262666
 31
0.0
  0
LINE
  5
17AD
330
1E
100
AcDbEntity
  8
HILF
100
AcDbLine
 10
304.1909379389824
 20
317.3718999582539
 30
0.0
 11
273.1098627650176
 21
402.7664521710937
 31
0.0
  0
LINE
  5
17AE
330
1E
100
AcDbEntity
  8
HILF
100
AcDbLine
 10
298.9547724652037
 20
317.5199302943974
 30
0.0
 11
269.1938793665089
 21
399.2873120658646
 31
0.0
  0
ARC
  5
17AF
330
1E
100
AcDbEntity
  8
STEMPEL
100
AcDbCircle
 10
174.6082714120876
 20
463.9588333377914
 30
0.0
 40
24.2
100
AcDbArc
 50
149.7363480579014
 51
179.9999999999999
  0
ARC
  5
17B0
330
1E
100
AcDbEntity
  8
STEMPEL
100
AcDbCircle
 10
147.3082714120875
 20
411.3054019942491
 30
0.0
 40
9.200000000000001
100
AcDbArc
 50
0.0
 51
28.95502437185922
  0
ARC
  5
17B1
330
1E
100
AcDbEntity
  8
STEMPEL
100
AcDbCircle
 10
165.5082714120877
 20
421.3751586943882
 30
0.0
 40
11.6
100
AcDbArc
 50
179.9999999999999
 51
208.9550243718591
  0
ARC
  5
17B2
330
1E
100
AcDbEntity
  8
STEMPEL
100
AcDbCircle
 10
140.3082714120876
 20
440.3696162503678
 30
0.0
 40
13.6
100
AcDbArc
 50
0.0
 51
24.85050234022823
  0
LINE
  5
17B3
330
1E
100
AcDbEntity
  8
STEMPEL
100
AcDbLine
 10
153.9082714120876
 20
440.3696162503678
 30
0.0
 11
153.9082714120876
 21
421.3751586943882
 31
0.0
  0
ARC
  5
17B4
330
1E
100
AcDbEntity
  8
STEMPEL
100
AcDbCircle
 10
174.6082714120876
 20
456.255144255442
 30
0.0
 40
24.2
100
AcDbArc
 50
179.9999999999999
 51
204.8505023402282
  0
LINE
  5
17B5
330
1E
100
AcDbEntity
  8
STEMPEL
100
AcDbLine
 10
150.4082714120876
 20
463.9588333377914
 30
0.0
 11
150.4082714120877
 21
456.255144255442
 31
0.0
  0
LINE
  5
17B6
330
1E
100
AcDbEntity
  8
STEMPEL
100
AcDbLine
 10
156.5082714120876
 20
411.305401994249
 30
0.0
 11
156.5082714120874
 21
216.1518513511118
 31
0.0
  0
ARC
  5
17B7
330
1E
100
AcDbEntity
  8
STEMPEL
100
AcDbCircle
 10
227.3082714120876
 20
463.9588333377914
 30
0.0
 40
24.2
100
AcDbArc
 50
0.0
 51
30.26365194209844
  0
ARC
  5
17B8
330
1E
100
AcDbEntity
  8
STEMPEL
100
AcDbCircle
 10
236.4082714120875
 20
421.3751586943882
 30
0.0
 40
11.6
100
AcDbArc
 50
331.0449756281407
 51
0.0
  0
LINE
  5
17B9
102
{ACAD_REACTORS
330
1D5F
102
}
330
1E
100
AcDbEntity
  8
STEMPEL
100
AcDbLine
 10
245.4082714120875
 20
411.305401994249
 30
0.0
 11
245.4082714120875
 21
391.6330302507988
 31
0.0
  0
ARC
  5
17BA
330
1E
100
AcDbEntity
  8
STEMPEL
100
AcDbCircle
 10
254.6082714120876
 20
411.3054019942492
 30
0.0
 40
9.200000000000001
100
AcDbArc
 50
151.0449756281407
 51
179.9999999999999
  0
ARC
  5
17BB
330
1E
100
AcDbEntity
  8
STEMPEL
100
AcDbCircle
 10
261.6082714120874
 20
440.3696162503678
 30
0.0
 40
13.6
100
AcDbArc
 50
155.1494976597716
 51
179.9999999999999
  0
LINE
  5
17BC
330
1E
100
AcDbEntity
  8
STEMPEL
100
AcDbLine
 10
248.0082714120875
 20
440.3696162503677
 30
0.0
 11
248.0082714120875
 21
421.3751586943882
 31
0.0
  0
ARC
  5
17BD
330
1E
100
AcDbEntity
  8
STEMPEL
100
AcDbCircle
 10
227.3082714120875
 20
456.2551442554419
 30
0.0
 40
24.2
100
AcDbArc
 50
335.1494976597718
 51
0.0
  0
LINE
  5
17BE
330
1E
100
AcDbEntity
  8
STEMPEL
100
AcDbLine
 10
251.5082714120875
 20
463.9588333377914
 30
0.0
 11
251.5082714120875
 21
456.2551442554419
 31
0.0
  0
LINE
  5
17BF
330
1E
100
AcDbEntity
  8
HILF
100
AcDbLine
 10
247.1004446610873
 20
443.2958703341689
 30
0.0
 11
154.8160981630878
 21
443.295870334169
 31
0.0
  0
LINE
  5
17C0
330
1E
100
AcDbEntity
  8
HILF
100
AcDbLine
 10
246.3957635898065
 20
418.4751586943882
 30
0.0
 11
155.5207792343686
 21
418.4751586943883
 31
0.0
  0
LINE
  5
17C1
330
1E
100
AcDbEntity
  8
HILF
100
AcDbLine
 10
244.4657865094614
 20
413.605401994249
 30
0.0
 11
157.4507563147137
 21
413.605401994249
 31
0.0
  0
LINE
  5
17CB
330
1E
100
AcDbEntity
  8
HILF
100
AcDbLine
 10
244.2036876070353
 20
216.151851351112
 30
0.0
 11
157.7128552171395
 21
216.1518513511118
 31
0.0
  0
LINE
  5
17CC
330
1E
100
AcDbEntity
  8
STEMPEL
100
AcDbLine
 10
156.5082714120874
 20
216.1518513511118
 30
0.0
 11
156.9457147297171
 21
211.1518513511118
 31
0.0
  0
LINE
  5
17CF
330
1E
100
AcDbEntity
  8
STEMPEL
100
AcDbLine
 10
245.4082714120875
 20
216.1518513511148
 30
0.0
 11
244.9708280944577
 21
211.151851351112
 31
0.0
  0
LINE
  5
17F6
102
{ACAD_REACTORS
330
1D69
102
}
330
1E
100
AcDbEntity
  8
STEMPEL
100
AcDbLine
 10
245.4082714120875
 20
297.0276262776904
 30
0.0
 11
245.4082714120875
 21
216.1518513511148
 31
0.0
  0
ARC
  5
1801
330
1E
100
AcDbEntity
  8
SCHRAFF
100
AcDbCircle
 10
239.7172851984517
 20
383.505459633398
 30
0.0
 40
5.0
100
AcDbArc
 50
198.1301023541566
 51
271.869897645844
  0
ARC
  5
1802
330
1E
100
AcDbEntity
  8
SCHRAFF
100
AcDbCircle
 10
236.8494030166965
 20
379.4096994119529
 30
0.0
 40
5.0
100
AcDbArc
 50
198.1301023541566
 51
271.869897645844
  0
ARC
  5
1803
330
1E
100
AcDbEntity
  8
SCHRAFF
100
AcDbCircle
 10
233.9815208349413
 20
375.3139391905081
 30
0.0
 40
5.0
100
AcDbArc
 50
198.1301023541566
 51
271.869897645844
  0
ARC
  5
1804
330
1E
100
AcDbEntity
  8
SCHRAFF
100
AcDbCircle
 10
231.1136386531861
 20
371.2181789690632
 30
0.0
 40
5.0
100
AcDbArc
 50
198.1301023541566
 51
271.869897645844
  0
ARC
  5
1805
330
1E
100
AcDbEntity
  8
SCHRAFF
100
AcDbCircle
 10
228.2457564714308
 20
367.1224187476181
 30
0.0
 40
5.0
100
AcDbArc
 50
198.1301023541566
 51
271.869897645844
  0
ARC
  5
1806
330
1E
100
AcDbEntity
  8
SCHRAFF
100
AcDbCircle
 10
225.3778742896756
 20
363.0266585261732
 30
0.0
 40
5.0
100
AcDbArc
 50
198.1301023541566
 51
271.869897645844
  0
ARC
  5
1807
330
1E
100
AcDbEntity
  8
SCHRAFF
100
AcDbCircle
 10
222.5099921079203
 20
358.9308983047282
 30
0.0
 40
5.0
100
AcDbArc
 50
198.1301023541566
 51
271.869897645844
  0
ARC
  5
1808
330
1E
100
AcDbEntity
  8
SCHRAFF
100
AcDbCircle
 10
219.6421099261651
 20
354.8351380832833
 30
0.0
 40
5.0
100
AcDbArc
 50
198.1301023541566
 51
271.869897645844
  0
ARC
  5
1809
330
1E
100
AcDbEntity
  8
SCHRAFF
100
AcDbCircle
 10
216.7742277444097
 20
350.7393778618383
 30
0.0
 40
5.0
100
AcDbArc
 50
198.1301023541566
 51
271.869897645844
  0
ARC
  5
180A
330
1E
100
AcDbEntity
  8
SCHRAFF
100
AcDbCircle
 10
213.9063455626546
 20
346.6436176403933
 30
0.0
 40
5.0
100
AcDbArc
 50
198.1301023541566
 51
271.869897645844
  0
ARC
  5
180B
330
1E
100
AcDbEntity
  8
SCHRAFF
100
AcDbCircle
 10
211.0384633808993
 20
342.5478574189484
 30
0.0
 40
5.0
100
AcDbArc
 50
198.1301023541566
 51
271.869897645844
  0
ARC
  5
180C
330
1E
100
AcDbEntity
  8
SCHRAFF
100
AcDbCircle
 10
208.1705811991441
 20
338.4520971975035
 30
0.0
 40
5.0
100
AcDbArc
 50
198.1301023541566
 51
271.869897645844
  0
ARC
  5
181D
330
1E
100
AcDbEntity
  8
SCHRAFF
100
AcDbCircle
 10
245.4207812074225
 20
297.0188668246954
 30
0.0
 40
5.0
100
AcDbArc
 50
108.1301023541557
 51
181.869897645844
  0
ARC
  5
181E
330
1E
100
AcDbEntity
  8
SCHRAFF
100
AcDbCircle
 10
241.3250209859775
 20
299.8867490064506
 30
0.0
 40
5.0
100
AcDbArc
 50
108.1301023541557
 51
181.869897645844
  0
ARC
  5
181F
330
1E
100
AcDbEntity
  8
SCHRAFF
100
AcDbCircle
 10
237.2292607645326
 20
302.7546311882058
 30
0.0
 40
5.0
100
AcDbArc
 50
108.1301023541557
 51
181.869897645844
  0
ARC
  5
1820
330
1E
100
AcDbEntity
  8
SCHRAFF
100
AcDbCircle
 10
233.1335005430876
 20
305.622513369961
 30
0.0
 40
5.0
100
AcDbArc
 50
108.1301023541557
 51
181.869897645844
  0
ARC
  5
1821
330
1E
100
AcDbEntity
  8
SCHRAFF
100
AcDbCircle
 10
229.0377403216425
 20
308.4903955517163
 30
0.0
 40
5.0
100
AcDbArc
 50
108.1301023541557
 51
181.869897645844
  0
ARC
  5
1822
330
1E
100
AcDbEntity
  8
SCHRAFF
100
AcDbCircle
 10
224.9419801001977
 20
311.3582777334715
 30
0.0
 40
5.0
100
AcDbArc
 50
108.1301023541557
 51
181.869897645844
  0
ARC
  5
1823
330
1E
100
AcDbEntity
  8
SCHRAFF
100
AcDbCircle
 10
220.8462198787527
 20
314.2261599152268
 30
0.0
 40
5.0
100
AcDbArc
 50
108.1301023541557
 51
181.869897645844
  0
ARC
  5
1824
330
1E
100
AcDbEntity
  8
SCHRAFF
100
AcDbCircle
 10
216.7504596573077
 20
317.094042096982
 30
0.0
 40
5.0
100
AcDbArc
 50
108.1301023541557
 51
181.869897645844
  0
ARC
  5
1825
330
1E
100
AcDbEntity
  8
SCHRAFF
100
AcDbCircle
 10
212.6546994358627
 20
319.9619242787372
 30
0.0
 40
5.0
100
AcDbArc
 50
108.1301023541557
 51
181.869897645844
  0
ARC
  5
1826
330
1E
100
AcDbEntity
  8
SCHRAFF
100
AcDbCircle
 10
208.5589392144177
 20
322.8298064604924
 30
0.0
 40
5.0
100
AcDbArc
 50
108.1301023541557
 51
181.869897645844
  0
ARC
  5
1833
330
1E
100
AcDbEntity
  8
SCHRAFF
100
AcDbCircle
 10
205.3026990173888
 20
334.3563369760584
 30
0.0
 40
5.0
100
AcDbArc
 50
198.1301023541566
 51
271.869897645844
  0
DIMENSION
  5
18E4
330
1E
100
AcDbEntity
  8
BEM
100
AcDbDimension
  2
*D4
 10
245.4082714120875
 20
190.4609660665999
 30
0.0
 11
200.9582714120875
 21
196.9609660665999
 31
0.0
 70
    32
  1
%%c<>
 71
     5
 42
88.90000000000004
  3
Standard
100
AcDbAlignedDimension
 13
156.5082714120874
 23
216.1518513511118
 33
0.0
 14
245.4082714120875
 24
216.1518513511148
 34
0.0
100
AcDbRotatedDimension
1001
ACAD
1000
DSTYLE
1002
{
1070
    40
1040
2.0
1070
    41
1040
3.5
1070
    42
1040
1.0
1070
    43
1040
7.0
1070
    44
1040
1.0
1070
    73
1070
     0
1070
    74
1070
     0
1070
    77
1070
     1
1070
    78
1070
     8
1070
    79
1070
     2
1070
   140
1040
3.5
1070
   141
1040
1.5
1070
   146
1040
0.5
1070
   147
1040
1.5
1070
   172
1070
     1
1070
   178
1070
     1
1070
   179
1070
     2
1070
   271
1070
     2
1070
   272
1070
     2
1070
   284
1070
     8
1070
   285
1070
     8
1070
   286
1070
     8
1002
}
  0
DIMENSION
  5
18FA
330
1E
100
AcDbEntity
  8
BEM
100
AcDbDimension
  2
*D5
 10
365.3468499727929
 20
317.9924081639583
 30
0.0
 11
292.1769261718399
 21
298.2778893779785
 31
0.0
 70
    32
 71
     5
 42
151.0
 51
357.0
  3
Standard
100
AcDbAlignedDimension
 13
200.9582714120875
 23
328.1518513511119
 33
0.0
 14
359.0129634769356
 24
335.3946182887145
 34
0.0
 50
20.00000000000009
100
AcDbRotatedDimension
1001
ACAD
1000
DSTYLE
1002
{
1070
    40
1040
2.0
1070
    41
1040
3.5
1070
    42
1040
1.0
1070
    43
1040
7.0
1070
    44
1040
1.0
1070
    73
1070
     0
1070
    74
1070
     0
1070
    77
1070
     1
1070
    78
1070
     8
1070
    79
1070
     2
1070
   140
1040
3.5
1070
   141
1040
1.5
1070
   146
1040
0.5
1070
   147
1040
1.5
1070
   172
1070
     1
1070
   178
1070
     1
1070
   179
1070
     2
1070
   271
1070
     2
1070
   272
1070
     2
1070
   284
1070
     8
1070
   285
1070
     8
1070
   286
1070
     8
1002
}
  0
TEXT
  5
1916
330
1E
100
AcDbEntity
  8
BEM
100
AcDbText
 10
416.5811541437437
 20
12.14804815338303
 30
0.0
 40
4.0
  1
Diese Zeichnung ist urheberrechtlich geschützt und bleibt unser Eigentum. Sie darf weder ganz noch teilweise vervielfältigt und nicht an Dritte weitergegeben werden.
 50
90.0
 41
0.8
  7
GREEKS
100
AcDbText
  0
TEXT
  5
1917
330
1E
100
AcDbEntity
  8
TEXT
100
AcDbText
 10
192.6882715247924
 20
89.06436657071457
 30
0.0
 40
4.0
  1
DIN EN1124-3
 41
0.8
  7
GREEKS
 72
     1
 11
209.6787477152686
 21
89.06436657071457
 31
0.0
100
AcDbText
  0
LINE
  5
1D53
330
1E
100
AcDbEntity
  8
HILF
100
AcDbLine
 10
200.9582714120875
 20
328.1518513511119
 30
0.0
 11
245.4082714120875
 21
391.6330302507988
 31
0.0
  0
ARC
  5
1D54
330
1E
100
AcDbEntity
  8
SCHRAFF
100
AcDbCircle
 10
245.4530495619622
 20
391.6969800762878
 30
0.0
 40
5.0
100
AcDbArc
 50
198.1301023541566
 51
271.869897645844
  0
ARC
  5
1D56
330
1E
100
AcDbEntity
  8
SCHRAFF
100
AcDbCircle
 10
242.585167380207
 20
387.601219854843
 30
0.0
 40
5.0
100
AcDbArc
 50
198.1301023541566
 51
271.869897645844
  0
ARC
  5
1D5B
102
{ACAD_REACTORS
330
1D5F
102
}
330
1E
100
AcDbEntity
  8
SCHRAFF
100
AcDbCircle
 10
245.6126235619358
 20
391.9248753662781
 30
0.0
 40
4.942721451450635
100
AcDbArc
 50
17.63048473892983
 51
92.36951526106958
  0
HATCH
  5
1D5F
330
1E
100
AcDbEntity
  8
SCHRAFF
100
AcDbHatch
 10
0.0
 20
0.0
 30
0.0
210
0.0
220
0.0
230
1.0
  2
_USER
 70
     0
 71
     1
 91
        1
 92
        7
 72
     1
 73
     1
 93
        3
 10
245.4082714120875
 20
396.8633706376621
 42
0.0
 10
245.4082714120875
 20
391.6330302507989
 42
0.0
 10
250.3231836778215
 20
393.4219120195558
 42
0.3381848440184969
 97
        3
330
17B9
330
163F
330
1D5B
 75
     0
 76
     0
 52
0.0
 41
0.1
 77
     0
 78
     1
 53
0.0
 43
0.0
 44
0.0
 45
0.0
 46
0.1
 79
     0
 47
0.0724441936273836
 98
        1
 10
247.0265503024998
 20
394.544174828229
  0
LINE
  5
1D60
330
1E
100
AcDbEntity
  8
STEMPEL
100
AcDbLine
 10
200.9582714120875
 20
328.1518513511119
 30
0.0
 11
245.4082714120875
 21
297.0276262776904
 31
0.0
  0
ARC
  5
1D63
102
{ACAD_REACTORS
330
1D69
102
}
330
1E
100
AcDbEntity
  8
SCHRAFF
100
AcDbCircle
 10
244.8529613172407
 20
297.4164585921462
 30
0.0
 40
4.089038382304172
100
AcDbArc
 50
277.805146773743
 51
12.19485322625559
  0
HATCH
  5
1D69
330
1E
100
AcDbEntity
  8
SCHRAFF
100
AcDbHatch
 10
0.0
 20
0.0
 30
0.0
210
0.0
220
0.0
230
1.0
  2
_USER
 70
     0
 71
     1
 91
        1
 92
        7
 72
     1
 73
     1
 93
        3
 10
248.8497300301939
 20
298.28021477714
 42
0.0
 10
245.4082714120875
 20
297.0276262776904
 42
0.0
 10
245.4082714120875
 20
293.365302511406
 42
0.4368357716677331
 97
        3
330
165E
330
17F6
330
1D63
 75
     0
 76
     0
 52
0.0
 41
0.1
 77
     0
 78
     1
 53
0.0
 43
0.0
 44
0.0
 45
0.0
 46
0.1
 79
     0
 47
0.1159188431484537
 98
        1
 10
247.3749244719193
 20
295.3751365940864
  0
DIMENSION
  5
1D6A
330
1E
100
AcDbEntity
  8
BEM
100
AcDbDimension
  2
*D6
 10
200.9582714120874
 20
206.151851351112
 30
0.0
 11
304.964591927856
 21
476.688270684288
 31
0.0
 70
    34
 71
     5
 42
1.221730476396029
  3
Standard
100
AcDb2LineAngularDimension
 13
347.5503202546891
 23
381.5069937099161
 33
0.0
 14
200.9582714120875
 24
328.1518513511119
 34
0.0
 15
200.9582714120876
 25
481.1551442554416
 35
0.0
 16
328.124631463771
 26
448.1271243276601
 36
0.0
1001
ACAD
1000
DSTYLE
1002
{
1070
    40
1040
2.0
1070
    41
1040
3.5
1070
    42
1040
1.0
1070
    43
1040
7.0
1070
    44
1040
1.0
1070
    73
1070
     0
1070
    74
1070
     0
1070
    77
1070
     1
1070
    78
1070
     8
1070
    79
1070
     2
1070
   140
1040
3.5
1070
   141
1040
1.5
1070
   146
1040
0.5
1070
   147
1040
1.5
1070
   172
1070
     1
1070
   178
1070
     1
1070
   179
1070
     2
1070
   271
1070
     2
1070
   272
1070
     2
1070
   284
1070
     8
1070
   285
1070
     8
1070
   286
1070
     8
1002
}
  0
ENDSEC
  0
SECTION
  2
OBJECTS
  0
DICTIONARY
  5
C
330
0
100
AcDbDictionary
281
     1
  3
ACAD_COLOR
350
1470
  3
ACAD_GROUP
350
D
  3
ACAD_LAYOUT
350
19
  3
ACAD_MATERIAL
350
146F
  3
ACAD_MLINESTYLE
350
16
  3
ACAD_PLOTSETTINGS
350
18
  3
ACAD_PLOTSTYLENAME
350
E
  3
AcDbVariableDictionary
350
246
  0
DICTIONARY
  5
1470
102
{ACAD_REACTORS
330
C
102
}
330
C
100
AcDbDictionary
281
     1
  0
DICTIONARY
  5
D
102
{ACAD_REACTORS
330
C
102
}
330
C
100
AcDbDictionary
281
     1
  0
DICTIONARY
  5
19
102
{ACAD_REACTORS
330
C
102
}
330
C
100
AcDbDictionary
281
     1
  3
Layout1
350
1D
  3
Model
350
21
  0
DICTIONARY
  5
146F
102
{ACAD_REACTORS
330
C
102
}
330
C
100
AcDbDictionary
281
     1
  0
DICTIONARY
  5
16
102
{ACAD_REACTORS
330
C
102
}
330
C
100
AcDbDictionary
281
     1
  3
Standard
350
17
  0
DICTIONARY
  5
18
102
{ACAD_REACTORS
330
C
102
}
330
C
100
AcDbDictionary
281
     1
  0
ACDBDICTIONARYWDFLT
  5
E
102
{ACAD_REACTORS
330
C
102
}
330
C
100
AcDbDictionary
281
     1
  3
Normal
350
F
100
AcDbDictionaryWithDefault
340
F
  0
DICTIONARY
  5
246
102
{ACAD_REACTORS
330
C
102
}
330
C
100
AcDbDictionary
281
     1
  3
DIMASSOC
350
1CA9
  3
PROJECTNAME
350
1CAA
  3
SORTENTS
350
247
  0
LAYOUT
  5
1D
102
{ACAD_REACTORS
330
19
102
}
330
19
100
AcDbPlotSettings
  1

  2
Tektronix Phaser 740
  4

  6

 40
0.0
 41
0.0
 42
0.0
 43
0.0
 44
0.0
 45
0.0
 46
0.0
 47
0.0
 48
0.0
 49
0.0
140
0.0
141
0.0
142
1.0
143
1.0
 70
   688
 72
     0
 73
     0
 74
     5
  7
monochrome.ctb
 75
    16
147
1.0
 76
     0
 77
     2
 78
   300
148
0.0
149
0.0
100
AcDbLayout
  1
Layout1
 70
     0
 71
     1
 10
0.0
 20
0.0
 11
12.0
 21
9.0
 12
0.0
 22
0.0
 32
0.0
 14
1.000000000000000E+20
 24
1.000000000000000E+20
 34
1.000000000000000E+20
 15
-1.000000000000000E+20
 25
-1.000000000000000E+20
 35
-1.000000000000000E+20
146
0.0
 13
0.0
 23
0.0
 33
0.0
 16
1.0
 26
0.0
 36
0.0
 17
0.0
 27
1.0
 37
0.0
 76
     0
330
1A
  0
LAYOUT
  5
21
102
{ACAD_REACTORS
330
19
102
}
330
19
100
AcDbPlotSettings
  1

  2
Tektronix Phaser 740
  4
A4
  6

 40
5.873749732971191
 41
6.085414409637451
 42
5.577407836914062
 43
5.662078857421875
 44
209.9733276367187
 45
296.9683227539062
 46
0.0
 47
0.0
 48
0.0
 49
0.0
140
0.0
141
0.0
142
1.0
143
1.0
 70
 11952
 72
     0
 73
     1
 74
     0
  7
monochrome.ctb
 75
     0
147
1.0
 76
     0
 77
     2
 78
   300
148
1150.120678237584
149
45.30495740799864
100
AcDbLayout
  1
Model
 70
     1
 71
     0
 10
0.0
 20
0.0
 11
12.0
 21
9.0
 12
0.0
 22
0.0
 32
0.0
 14
0.0
 24
0.0
 34
0.0
 15
0.0
 25
0.0
 35
0.0
146
0.0
 13
0.0
 23
0.0
 33
0.0
 16
1.0
 26
0.0
 36
0.0
 17
0.0
 27
1.0
 37
0.0
 76
     0
330
1E
  0
MLINESTYLE
  5
17
102
{ACAD_REACTORS
330
16
102
}
330
16
100
AcDbMlineStyle
  2
STANDARD
 70
     0
  3

 62
   256
 51
90.0
 52
90.0
 71
     2
 49
0.5
 62
   256
  6
BYLAYER
 49
-0.5
 62
   256
  6
BYLAYER
  0
ACDBPLACEHOLDER
  5
F
102
{ACAD_REACTORS
330
E
102
}
330
E
  0
DICTIONARYVAR
  5
1CA9
102
{ACAD_REACTORS
330
246
102
}
330
246
100
DictionaryVariables
280
     0
  1
1
  0
DICTIONARYVAR
  5
1CAA
102
{ACAD_REACTORS
330
246
102
}
330
246
100
DictionaryVariables
280
     0
  1

  0
DICTIONARYVAR
  5
247
102
{ACAD_REACTORS
330
246
102
}
330
246
100
DictionaryVariables
280
     0
  1
96
  0
ENDSEC
  0
EOF
