  0
SECTION
  2
HEADER
  9
$ACADVER
  1
AC1018
  9
$ACADMAINTVER
 70
     2
  9
$DWGCODEPAGE
  3
ANSI_1252
  9
$INSBASE
 10
0.0
 20
0.0
 30
0.0
  9
$EXTMIN
 10
-0.0192146320376878
 20
-0.0271749795965661
 30
-0.0000000000000023
  9
$EXTMAX
 10
420.0192317462092
 20
594.027199183924
 30
0.0000000000000129
  9
$LIMMIN
 10
0.0
 20
0.0
  9
$LIMMAX
 10
419.9999999999999
 20
594.0
  9
$ORTHOMODE
 70
     0
  9
$REGENMODE
 70
     1
  9
$FILLMODE
 70
     1
  9
$QTEXTMODE
 70
     0
  9
$MIRRTEXT
 70
     1
  9
$LTSCALE
 40
20.0
  9
$ATTMODE
 70
     1
  9
$TEXTSIZE
 40
3.5
  9
$TRACEWID
 40
0.5
  9
$TEXTSTYLE
  7
STANDARD
  9
$CLAYER
  8
BEM
  9
$CELTYPE
  6
ByLayer
  9
$CECOLOR
 62
   256
  9
$CELTSCALE
 40
1.0
  9
$DISPSILH
 70
     0
  9
$DIMSCALE
 40
2.0
  9
$DIMASZ
 40
3.5
  9
$DIMEXO
 40
1.0
  9
$DIMDLI
 40
7.0
  9
$DIMRND
 40
0.0
  9
$DIMDLE
 40
0.0
  9
$DIMEXE
 40
1.0
  9
$DIMTP
 40
0.0
  9
$DIMTM
 40
0.0
  9
$DIMTXT
 40
3.5
  9
$DIMCEN
 40
1.5
  9
$DIMTSZ
 40
0.0
  9
$DIMTOL
 70
     0
  9
$DIMLIM
 70
     0
  9
$DIMTIH
 70
     0
  9
$DIMTOH
 70
     0
  9
$DIMSE1
 70
     0
  9
$DIMSE2
 70
     0
  9
$DIMTAD
 70
     1
  9
$DIMZIN
 70
     8
  9
$DIMBLK
  1

  9
$DIMASO
 70
     1
  9
$DIMSHO
 70
     0
  9
$DIMPOST
  1

  9
$DIMAPOST
  1

  9
$DIMALT
 70
     0
  9
$DIMALTD
 70
     2
  9
$DIMALTF
 40
25.4
  9
$DIMLFAC
 40
1.0
  9
$DIMTOFL
 70
     1
  9
$DIMTVP
 40
0.0
  9
$DIMTIX
 70
     0
  9
$DIMSOXD
 70
     0
  9
$DIMSAH
 70
     0
  9
$DIMBLK1
  1

  9
$DIMBLK2
  1

  9
$DIMSTYLE
  2
Standard
  9
$DIMCLRD
 70
     0
  9
$DIMCLRE
 70
     0
  9
$DIMCLRT
 70
     1
  9
$DIMTFAC
 40
0.5142857142857144
  9
$DIMGAP
 40
1.5
  9
$DIMJUST
 70
     0
  9
$DIMSD1
 70
     0
  9
$DIMSD2
 70
     0
  9
$DIMTOLJ
 70
     1
  9
$DIMTZIN
 70
     8
  9
$DIMALTZ
 70
     8
  9
$DIMALTTZ
 70
     8
  9
$DIMUPT
 70
     0
  9
$DIMDEC
 70
     2
  9
$DIMTDEC
 70
     2
  9
$DIMALTU
 70
     2
  9
$DIMALTTD
 70
     2
  9
$DIMTXSTY
  7
STANDARD
  9
$DIMAUNIT
 70
     0
  9
$DIMADEC
 70
     2
  9
$DIMALTRND
 40
0.0
  9
$DIMAZIN
 70
     2
  9
$DIMDSEP
 70
    46
  9
$DIMATFIT
 70
     3
  9
$DIMFRAC
 70
     0
  9
$DIMLDRBLK
  1

  9
$DIMLUNIT
 70
     2
  9
$DIMLWD
 70
    -2
  9
$DIMLWE
 70
    -2
  9
$DIMTMOVE
 70
     0
  9
$LUNITS
 70
     2
  9
$LUPREC
 70
     2
  9
$SKETCHINC
 40
1.0
  9
$FILLETRAD
 40
0.0
  9
$AUNITS
 70
     1
  9
$AUPREC
 70
     3
  9
$MENU
  1
ACAD
  9
$ELEVATION
 40
0.0
  9
$PELEVATION
 40
0.0
  9
$THICKNESS
 40
0.0
  9
$LIMCHECK
 70
     0
  9
$CHAMFERA
 40
0.0
  9
$CHAMFERB
 40
0.0
  9
$CHAMFERC
 40
0.0
  9
$CHAMFERD
 40
0.0
  9
$SKPOLY
 70
     0
  9
$TDCREATE
 40
2452040.637099653
  9
$TDUCREATE
 40
2452040.553766320
  9
$TDUPDATE
 40
2455660.308482511
  9
$TDUUPDATE
 40
2455660.225149178
  9
$TDINDWG
 40
0.4570340509
  9
$TDUSRTIMER
 40
0.4570340509
  9
$USRTIMER
 70
     1
  9
$ANGBASE
 50
0.0
  9
$ANGDIR
 70
     0
  9
$PDMODE
 70
     0
  9
$PDSIZE
 40
0.0
  9
$PLINEWID
 40
0.0
  9
$SPLFRAME
 70
     0
  9
$SPLINETYPE
 70
     6
  9
$SPLINESEGS
 70
     8
  9
$HANDSEED
  5
1D8F
  9
$SURFTAB1
 70
     6
  9
$SURFTAB2
 70
     6
  9
$SURFTYPE
 70
     6
  9
$SURFU
 70
     6
  9
$SURFV
 70
     6
  9
$UCSBASE
  2

  9
$UCSNAME
  2

  9
$UCSORG
 10
0.0
 20
0.0
 30
0.0
  9
$UCSXDIR
 10
1.0
 20
0.0
 30
0.0
  9
$UCSYDIR
 10
0.0
 20
1.0
 30
0.0
  9
$UCSORTHOREF
  2

  9
$UCSORTHOVIEW
 70
     0
  9
$UCSORGTOP
 10
0.0
 20
0.0
 30
0.0
  9
$UCSORGBOTTOM
 10
0.0
 20
0.0
 30
0.0
  9
$UCSORGLEFT
 10
0.0
 20
0.0
 30
0.0
  9
$UCSORGRIGHT
 10
0.0
 20
0.0
 30
0.0
  9
$UCSORGFRONT
 10
0.0
 20
0.0
 30
0.0
  9
$UCSORGBACK
 10
0.0
 20
0.0
 30
0.0
  9
$PUCSBASE
  2

  9
$PUCSNAME
  2

  9
$PUCSORG
 10
0.0
 20
0.0
 30
0.0
  9
$PUCSXDIR
 10
1.0
 20
0.0
 30
0.0
  9
$PUCSYDIR
 10
0.0
 20
1.0
 30
0.0
  9
$PUCSORTHOREF
  2

  9
$PUCSORTHOVIEW
 70
     0
  9
$PUCSORGTOP
 10
0.0
 20
0.0
 30
0.0
  9
$PUCSORGBOTTOM
 10
0.0
 20
0.0
 30
0.0
  9
$PUCSORGLEFT
 10
0.0
 20
0.0
 30
0.0
  9
$PUCSORGRIGHT
 10
0.0
 20
0.0
 30
0.0
  9
$PUCSORGFRONT
 10
0.0
 20
0.0
 30
0.0
  9
$PUCSORGBACK
 10
0.0
 20
0.0
 30
0.0
  9
$USERI1
 70
     0
  9
$USERI2
 70
     0
  9
$USERI3
 70
     0
  9
$USERI4
 70
     0
  9
$USERI5
 70
     0
  9
$USERR1
 40
0.0
  9
$USERR2
 40
0.0
  9
$USERR3
 40
0.0
  9
$USERR4
 40
0.0
  9
$USERR5
 40
0.0
  9
$WORLDVIEW
 70
     1
  9
$SHADEDGE
 70
     3
  9
$SHADEDIF
 70
    70
  9
$TILEMODE
 70
     1
  9
$MAXACTVP
 70
    16
  9
$PINSBASE
 10
0.0
 20
0.0
 30
0.0
  9
$PLIMCHECK
 70
     0
  9
$PEXTMIN
 10
1.000000000000000E+20
 20
1.000000000000000E+20
 30
1.000000000000000E+20
  9
$PEXTMAX
 10
-1.000000000000000E+20
 20
-1.000000000000000E+20
 30
-1.000000000000000E+20
  9
$PLIMMIN
 10
0.0
 20
0.0
  9
$PLIMMAX
 10
12.0
 20
9.0
  9
$UNITMODE
 70
     0
  9
$VISRETAIN
 70
     0
  9
$PLINEGEN
 70
     0
  9
$PSLTSCALE
 70
     0
  9
$TREEDEPTH
 70
  3020
  9
$CMLSTYLE
  2
Standard
  9
$CMLJUST
 70
     0
  9
$CMLSCALE
 40
1.0
  9
$PROXYGRAPHICS
 70
     1
  9
$MEASUREMENT
 70
     0
  9
$CELWEIGHT
370
    -1
  9
$ENDCAPS
280
     0
  9
$JOINSTYLE
280
     0
  9
$LWDISPLAY
290
     0
  9
$INSUNITS
 70
     0
  9
$HYPERLINKBASE
  1

  9
$STYLESHEET
  1
monochrome 1.ctb
  9
$XEDIT
290
     1
  9
$CEPSNTYPE
380
     0
  9
$PSTYLEMODE
290
     1
  9
$FINGERPRINTGUID
  2
{7AADB5C8-6110-11D8-B72B-000102183313}
  9
$VERSIONGUID
  2
{91AAB230-89BC-48A2-AE95-A2A365B0B420}
  9
$EXTNAMES
290
     1
  9
$PSVPSCALE
 40
0.0
  9
$OLESTARTUP
290
     0
  9
$SORTENTS
280
    96
  9
$INDEXCTL
280
     0
  9
$HIDETEXT
280
     0
  9
$XCLIPFRAME
290
     0
  9
$HALOGAP
280
     0
  9
$OBSCOLOR
 70
   257
  9
$OBSLTYPE
280
     0
  9
$INTERSECTIONDISPLAY
280
     0
  9
$INTERSECTIONCOLOR
 70
   257
  9
$DIMASSOC
280
     1
  9
$PROJECTNAME
  1

  0
ENDSEC
  0
SECTION
  2
CLASSES
  0
CLASS
  1
ACDBDICTIONARYWDFLT
  2
AcDbDictionaryWithDefault
  3
ObjectDBX Classes
 90
        0
 91
        1
280
     0
281
     0
  0
CLASS
  1
DICTIONARYVAR
  2
AcDbDictionaryVar
  3
ObjectDBX Classes
 90
        0
 91
        3
280
     0
281
     0
  0
ENDSEC
  0
SECTION
  2
TABLES
  0
TABLE
  2
VPORT
  5
8
330
0
100
AcDbSymbolTable
 70
     3
  0
VPORT
  5
1D8E
330
8
100
AcDbSymbolTableRecord
100
AcDbViewportTableRecord
  2
*Active
 70
     0
 10
0.0
 20
0.0
 11
1.0
 21
1.0
 12
210.0
 22
297.0
 13
0.0
 23
0.0
 14
1.0
 24
1.0
 15
10.0
 25
10.0
 16
0.0
 26
0.0
 36
1.0
 17
0.0
 27
0.0
 37
0.0
 40
594.0
 41
1.334231805929919
 42
50.0
 43
0.0
 44
0.0
 50
0.0
 51
0.0
 71
     0
 72
  1500
 73
     1
 74
     0
 75
     0
 76
     0
 77
     0
 78
     0
281
     0
 65
     1
110
0.0
120
0.0
130
0.0
111
1.0
121
0.0
131
0.0
112
0.0
122
1.0
132
0.0
 79
     0
146
0.0
  0
ENDTAB
  0
TABLE
  2
LTYPE
  5
5
330
0
100
AcDbSymbolTable
 70
     2
  0
LTYPE
  5
13
330
5
100
AcDbSymbolTableRecord
100
AcDbLinetypeTableRecord
  2
ByBlock
 70
     0
  3

 72
    65
 73
     0
 40
0.0
  0
LTYPE
  5
14
330
5
100
AcDbSymbolTableRecord
100
AcDbLinetypeTableRecord
  2
ByLayer
 70
     0
  3

 72
    65
 73
     0
 40
0.0
  0
LTYPE
  5
15
330
5
100
AcDbSymbolTableRecord
100
AcDbLinetypeTableRecord
  2
Continuous
 70
     0
  3
Solid line
 72
    65
 73
     0
 40
0.0
  0
LTYPE
  5
35
330
5
100
AcDbSymbolTableRecord
100
AcDbLinetypeTableRecord
  2
STRICHPUNKT
 70
     0
  3
__ . __ . __ . __ . __ . __ . __ . __ . __ . __
 72
    65
 73
     4
 40
1.0
 49
0.5
 74
     0
 49
-0.25
 74
     0
 49
0.0
 74
     0
 49
-0.25
 74
     0
  0
ENDTAB
  0
TABLE
  2
LAYER
  5
2
330
0
100
AcDbSymbolTable
 70
     9
  0
LAYER
  5
10
330
2
100
AcDbSymbolTableRecord
100
AcDbLayerTableRecord
  2
0
 70
     0
 62
     7
  6
Continuous
370
    -3
390
F
  0
LAYER
  5
38
330
2
100
AcDbSymbolTableRecord
100
AcDbLayerTableRecord
  2
VOLL
 70
     0
 62
     1
  6
Continuous
370
    -3
390
F
  0
LAYER
  5
39
330
2
100
AcDbSymbolTableRecord
100
AcDbLayerTableRecord
  2
HILF
 70
     0
 62
     2
  6
Continuous
370
    -3
390
F
  0
LAYER
  5
3A
330
2
100
AcDbSymbolTableRecord
100
AcDbLayerTableRecord
  2
MITTEL
 70
     0
 62
     2
  6
STRICHPUNKT
370
    -3
390
F
  0
LAYER
  5
3B
330
2
100
AcDbSymbolTableRecord
100
AcDbLayerTableRecord
  2
BEM
 70
     0
 62
     7
  6
Continuous
370
    -3
390
F
  0
LAYER
  5
3C
330
2
100
AcDbSymbolTableRecord
100
AcDbLayerTableRecord
  2
STEMPEL
 70
     0
 62
     3
  6
Continuous
370
    -3
390
F
  0
LAYER
  5
3D
330
2
100
AcDbSymbolTableRecord
100
AcDbLayerTableRecord
  2
TEXT
 70
     0
 62
     7
  6
Continuous
370
    -3
390
F
  0
LAYER
  5
3E
330
2
100
AcDbSymbolTableRecord
100
AcDbLayerTableRecord
  2
DEFPOINTS
 70
     0
 62
     7
  6
Continuous
290
     0
370
    -3
390
F
  0
LAYER
  5
3F
330
2
100
AcDbSymbolTableRecord
100
AcDbLayerTableRecord
  2
SCHRAFF
 70
     0
 62
     7
  6
Continuous
370
    -3
390
F
  0
ENDTAB
  0
TABLE
  2
STYLE
  5
3
330
0
100
AcDbSymbolTable
 70
     2
  0
STYLE
  5
11
330
3
100
AcDbSymbolTableRecord
100
AcDbTextStyleTableRecord
  2
STANDARD
 70
     0
 40
0.0
 41
0.8
 50
0.0
 71
     0
 42
3.5
  3
simplex.shx
  4

  0
STYLE
  5
34
330
3
100
AcDbSymbolTableRecord
100
AcDbTextStyleTableRecord
  2
GREEKS
 70
     0
 40
0.0
 41
0.8
 50
0.0
 71
     0
 42
2.5
  3
SIMPLEX.shx
  4

  0
ENDTAB
  0
TABLE
  2
VIEW
  5
6
330
0
100
AcDbSymbolTable
 70
     0
  0
ENDTAB
  0
TABLE
  2
UCS
  5
7
330
0
100
AcDbSymbolTable
 70
     0
  0
ENDTAB
  0
TABLE
  2
APPID
  5
9
330
0
100
AcDbSymbolTable
 70
     2
  0
APPID
  5
12
330
9
100
AcDbSymbolTableRecord
100
AcDbRegAppTableRecord
  2
ACAD
 70
     0
  0
APPID
  5
1555
330
9
100
AcDbSymbolTableRecord
100
AcDbRegAppTableRecord
  2
AVE_RENDER
 70
     0
  0
ENDTAB
  0
TABLE
  2
DIMSTYLE
  5
A
330
0
100
AcDbSymbolTable
 70
     1
100
AcDbDimStyleTable
 71
     1
340
1CB
  0
DIMSTYLE
105
1CB
102
{ACAD_REACTORS
330
170F
330
1AB8
330
1AD2
330
1AE8
330
1D62
102
}
330
A
100
AcDbSymbolTableRecord
100
AcDbDimStyleTableRecord
  2
Standard
 70
     0
340
11
  0
ENDTAB
  0
TABLE
  2
BLOCK_RECORD
  5
1
330
0
100
AcDbSymbolTable
 70
     7
  0
BLOCK_RECORD
  5
1E
330
1
100
AcDbSymbolTableRecord
100
AcDbBlockTableRecord
  2
*Model_Space
340
21
  0
BLOCK_RECORD
  5
1A
330
1
100
AcDbSymbolTableRecord
100
AcDbBlockTableRecord
  2
*Paper_Space
340
1D
  0
BLOCK_RECORD
  5
22
330
1
100
AcDbSymbolTableRecord
100
AcDbBlockTableRecord
  2
LOGO
340
0
102
{BLKREFS
331
135
102
}
  0
BLOCK_RECORD
  5
1710
330
1
100
AcDbSymbolTableRecord
100
AcDbBlockTableRecord
  2
*D1
340
0
  0
BLOCK_RECORD
  5
1AB9
330
1
100
AcDbSymbolTableRecord
100
AcDbBlockTableRecord
  2
*D2
340
0
  0
BLOCK_RECORD
  5
1AD3
330
1
100
AcDbSymbolTableRecord
100
AcDbBlockTableRecord
  2
*D3
340
0
  0
BLOCK_RECORD
  5
1AE9
330
1
100
AcDbSymbolTableRecord
100
AcDbBlockTableRecord
  2
*D4
340
0
  0
BLOCK_RECORD
  5
1D63
330
1
100
AcDbSymbolTableRecord
100
AcDbBlockTableRecord
  2
*D6
340
0
  0
ENDTAB
  0
ENDSEC
  0
SECTION
  2
BLOCKS
  0
BLOCK
  5
43
330
1E
100
AcDbEntity
  8
0
100
AcDbBlockBegin
  2
*Model_Space
 70
     0
 10
0.0
 20
0.0
 30
0.0
  3
*Model_Space
  1

  0
ENDBLK
  5
44
330
1E
100
AcDbEntity
  8
0
100
AcDbBlockEnd
  0
BLOCK
  5
41
330
1A
100
AcDbEntity
 67
     1
  8
0
100
AcDbBlockBegin
  2
*Paper_Space
 70
     0
 10
0.0
 20
0.0
 30
0.0
  3
*Paper_Space
  1

  0
ENDBLK
  5
42
330
1A
100
AcDbEntity
 67
     1
  8
0
100
AcDbBlockEnd
  0
BLOCK
  5
45
330
22
100
AcDbEntity
  8
0
100
AcDbBlockBegin
  2
LOGO
 70
     0
 10
0.0
 20
0.0
 30
0.0
  3
LOGO
  1

  0
ARC
  5
46
330
22
100
AcDbEntity
  8
0
100
AcDbCircle
 10
11.59973089678112
 20
-9.271599258481501
 30
0.0
 40
4.5
100
AcDbArc
 50
270.0
 51
231.0575587310159
  0
LINE
  5
47
330
22
100
AcDbEntity
  8
0
100
AcDbLine
 10
3.599730896781125
 20
-4.771599258481529
 30
0.0
 11
3.599730896781153
 21
-11.77159925848133
 31
0.0
  0
LINE
  5
48
330
22
100
AcDbEntity
  8
0
100
AcDbLine
 10
2.599730896781125
 20
-4.771599258481529
 30
0.0
 11
2.599730896781153
 21
-11.77159925848133
 31
0.0
  0
CIRCLE
  5
49
330
22
100
AcDbEntity
  8
0
100
AcDbCircle
 10
11.59973089678112
 20
-9.271599258481501
 30
0.0
 40
3.5
  0
ARC
  5
4A
330
22
100
AcDbEntity
  8
0
100
AcDbCircle
 10
31.59973089678115
 20
-9.271599258481472
 30
0.0
 40
4.5
100
AcDbArc
 50
270.0
 51
231.0575587310182
  0
LINE
  5
4B
330
22
100
AcDbEntity
  8
0
100
AcDbLine
 10
17.59973089678112
 20
-4.771599258481472
 30
0.0
 11
17.59973089678115
 21
-13.77159925848147
 31
0.0
  0
ARC
  5
4C
330
22
100
AcDbEntity
  8
0
100
AcDbCircle
 10
22.59973089678116
 20
-7.271599258481472
 30
0.0
 40
2.5
100
AcDbArc
 50
293.1161887722295
 51
90.0
  0
CIRCLE
  5
4D
330
22
100
AcDbEntity
  8
0
100
AcDbCircle
 10
31.59973089678115
 20
-9.271599258481472
 30
0.0
 40
3.5
  0
ARC
  5
4E
330
22
100
AcDbEntity
  8
0
100
AcDbCircle
 10
4.599730896781153
 20
-11.77159925848133
 30
0.0
 40
1.0
100
AcDbArc
 50
180.0
 51
270.0
  0
ARC
  5
4F
330
22
100
AcDbEntity
  8
0
100
AcDbCircle
 10
4.599730896781153
 20
-11.77159925848133
 30
0.0
 40
2.0
100
AcDbArc
 50
179.9999999999992
 51
270.0
  0
LINE
  5
50
330
22
100
AcDbEntity
  8
0
100
AcDbLine
 10
11.59973089678115
 20
-13.77159925848144
 30
0.0
 11
4.599730896781153
 21
-13.77159925848147
 31
0.0
  0
LINE
  5
51
330
22
100
AcDbEntity
  8
0
100
AcDbLine
 10
8.771303772034769
 20
-12.77159925848136
 30
0.0
 11
4.599730896781153
 21
-12.77159925848133
 31
0.0
  0
LINE
  5
52
330
22
100
AcDbEntity
  8
0
100
AcDbLine
 10
31.59973089678115
 20
-13.77159925848147
 30
0.0
 11
23.6715276665056
 21
-13.77159925848144
 31
0.0
  0
LINE
  5
53
330
22
100
AcDbEntity
  8
0
100
AcDbLine
 10
23.56565672307022
 20
-9.51278021337896
 30
0.0
 11
24.4388546544846
 21
-12.77159925848144
 31
0.0
  0
LINE
  5
54
330
22
100
AcDbEntity
  8
0
100
AcDbLine
 10
22.59973089678116
 20
-9.771599258481472
 30
0.0
 11
18.59973089678112
 21
-9.771599258481472
 31
0.0
  0
LINE
  5
55
330
22
100
AcDbEntity
  8
0
100
AcDbLine
 10
18.59973089678115
 20
-13.77159925848144
 30
0.0
 11
17.59973089678115
 21
-13.77159925848144
 31
0.0
  0
LINE
  5
56
330
22
100
AcDbEntity
  8
0
100
AcDbLine
 10
18.59973089678115
 20
-9.771599258481472
 30
0.0
 11
18.59973089678115
 21
-13.77159925848144
 31
0.0
  0
LINE
  5
57
330
22
100
AcDbEntity
  8
0
100
AcDbLine
 10
22.59973089678116
 20
-9.771599258481472
 30
0.0
 11
23.67152766650562
 21
-13.77159925848147
 31
0.0
  0
ARC
  5
58
330
22
100
AcDbEntity
  8
0
100
AcDbCircle
 10
22.59973089678116
 20
-7.271599258481472
 30
0.0
 40
2.5
100
AcDbArc
 50
270.0
 51
270.0000000000007
  0
LINE
  5
59
330
22
100
AcDbEntity
  8
0
100
AcDbLine
 10
28.77130377203494
 20
-12.77159925848147
 30
0.0
 11
24.43885465448463
 21
-12.77159925848144
 31
0.0
  0
LINE
  5
5A
330
22
100
AcDbEntity
  8
0
100
AcDbLine
 10
3.599730896781125
 20
-4.771599258481472
 30
0.0
 11
2.599730896781125
 21
-4.771599258481472
 31
0.0
  0
LINE
  5
5B
330
22
100
AcDbEntity
  8
0
100
AcDbLine
 10
22.59973089678116
 20
-8.771599258481472
 30
0.0
 11
18.59973089678115
 21
-8.771599258481472
 31
0.0
  0
LINE
  5
5C
330
22
100
AcDbEntity
  8
0
100
AcDbLine
 10
22.59973089678116
 20
-5.771599258481472
 30
0.0
 11
18.59973089678115
 21
-5.771599258481472
 31
0.0
  0
LINE
  5
5D
330
22
100
AcDbEntity
  8
0
100
AcDbLine
 10
22.59973089678116
 20
-4.771599258481472
 30
0.0
 11
17.59973089678115
 21
-4.771599258481472
 31
0.0
  0
LINE
  5
5E
330
22
100
AcDbEntity
  8
0
100
AcDbLine
 10
18.59973089678115
 20
-5.771599258481472
 30
0.0
 11
18.59973089678115
 21
-8.771599258481472
 31
0.0
  0
ARC
  5
5F
330
22
100
AcDbEntity
  8
0
100
AcDbCircle
 10
22.59973089678116
 20
-7.271599258481472
 30
0.0
 40
1.5
100
AcDbArc
 50
270.0
 51
90.0
  0
ENDBLK
  5
60
330
22
100
AcDbEntity
  8
0
100
AcDbBlockEnd
  0
BLOCK
  5
171A
330
1710
100
AcDbEntity
  8
0
100
AcDbBlockBegin
  2
*D1
 70
     1
 10
0.0
 20
0.0
 30
0.0
  3
*D1
  1

  0
LINE
  5
1D84
330
1710
100
AcDbEntity
  8
BEM
 62
     0
370
    -2
100
AcDbLine
 10
133.2014018254324
 20
200.1306522741827
 30
0.0
 11
111.7571347924433
 21
200.1306522741827
 31
0.0
  0
LINE
  5
1D85
330
1710
100
AcDbEntity
  8
BEM
 62
     0
370
    -2
100
AcDbLine
 10
183.3014925172251
 20
325.1306522741824
 30
0.0
 11
111.7571347924433
 21
325.1306522741824
 31
0.0
  0
LINE
  5
1D86
330
1710
100
AcDbEntity
  8
BEM
 62
     0
370
    -2
100
AcDbLine
 10
113.7571347924433
 20
207.1306522741827
 30
0.0
 11
113.7571347924433
 21
318.1306522741825
 31
0.0
  0
SOLID
  5
1D87
330
1710
100
AcDbEntity
  8
BEM
 62
     0
100
AcDbTrace
 10
112.5904681257766
 20
207.1306522741827
 30
0.0
 11
114.92380145911
 21
207.1306522741827
 31
0.0
 12
113.7571347924433
 22
200.1306522741827
 32
0.0
 13
113.7571347924433
 23
200.1306522741827
 33
0.0
  0
SOLID
  5
1D88
330
1710
100
AcDbEntity
  8
BEM
 62
     0
100
AcDbTrace
 10
112.5904681257767
 20
318.1306522741825
 30
0.0
 11
114.92380145911
 21
318.1306522741825
 31
0.0
 12
113.7571347924433
 22
325.1306522741824
 32
0.0
 13
113.7571347924433
 23
325.1306522741824
 33
0.0
  0
MTEXT
  5
1D89
330
1710
100
AcDbEntity
  8
BEM
 62
     1
100
AcDbMText
 10
107.2571347924433
 20
262.6306522741826
 30
0.0
 40
7.0
 41
0.0
 71
     5
 72
     1
  1
\A1;125
 11
0.0000000000000001
 21
1.0
 31
0.0
 73
     1
 44
1.0
  0
POINT
  5
1D8A
330
1710
100
AcDbEntity
  8
DEFPOINTS
 62
     0
100
AcDbPoint
 10
135.2014018254324
 20
200.1306522741827
 30
0.0
  0
POINT
  5
1D8B
330
1710
100
AcDbEntity
  8
DEFPOINTS
 62
     0
100
AcDbPoint
 10
185.3014925172251
 20
325.1306522741824
 30
0.0
  0
POINT
  5
1D8C
330
1710
100
AcDbEntity
  8
DEFPOINTS
 62
     0
100
AcDbPoint
 10
113.7571347924433
 20
325.1306522741824
 30
0.0
  0
ENDBLK
  5
171B
330
1710
100
AcDbEntity
  8
0
100
AcDbBlockEnd
  0
BLOCK
  5
1AC3
330
1AB9
100
AcDbEntity
  8
0
100
AcDbBlockBegin
  2
*D2
 70
     1
 10
0.0
 20
0.0
 30
0.0
  3
*D2
  1

  0
LINE
  5
1D7B
330
1AB9
100
AcDbEntity
  8
BEM
 62
     0
370
    -2
100
AcDbLine
 10
128.641709598502
 20
500.1339451785126
 30
0.0
 11
95.03862512206568
 21
500.1339451785127
 31
0.0
  0
LINE
  5
1D7C
330
1AB9
100
AcDbEntity
  8
BEM
 62
     0
370
    -2
100
AcDbLine
 10
133.2014018254324
 20
200.1306522741827
 30
0.0
 11
95.03862512206561
 21
200.1306522741827
 31
0.0
  0
LINE
  5
1D7D
330
1AB9
100
AcDbEntity
  8
BEM
 62
     0
370
    -2
100
AcDbLine
 10
97.03862512206569
 20
493.1339451785127
 30
0.0
 11
97.03862512206562
 21
207.1306522741827
 31
0.0
  0
SOLID
  5
1D7E
330
1AB9
100
AcDbEntity
  8
BEM
 62
     0
100
AcDbTrace
 10
95.871958455399
 20
493.1339451785127
 30
0.0
 11
98.20529178873236
 21
493.1339451785127
 31
0.0
 12
97.03862512206569
 22
500.1339451785127
 32
0.0
 13
97.03862512206569
 23
500.1339451785127
 33
0.0
  0
SOLID
  5
1D7F
330
1AB9
100
AcDbEntity
  8
BEM
 62
     0
100
AcDbTrace
 10
95.87195845539893
 20
207.1306522741827
 30
0.0
 11
98.20529178873229
 21
207.1306522741827
 31
0.0
 12
97.03862512206562
 22
200.1306522741827
 32
0.0
 13
97.03862512206562
 23
200.1306522741827
 33
0.0
  0
MTEXT
  5
1D80
330
1AB9
100
AcDbEntity
  8
BEM
 62
     1
100
AcDbMText
 10
90.5386251220656
 20
350.1322987263477
 30
0.0
 40
7.0
 41
0.0
 71
     5
 72
     1
  1
\A1;300
 11
0.0000000000000001
 21
1.0
 31
0.0
 73
     1
 44
1.0
  0
POINT
  5
1D81
330
1AB9
100
AcDbEntity
  8
DEFPOINTS
 62
     0
100
AcDbPoint
 10
130.641709598502
 20
500.1339451785126
 30
0.0
  0
POINT
  5
1D82
330
1AB9
100
AcDbEntity
  8
DEFPOINTS
 62
     0
100
AcDbPoint
 10
135.2014018254324
 20
200.1306522741827
 30
0.0
  0
POINT
  5
1D83
330
1AB9
100
AcDbEntity
  8
DEFPOINTS
 62
     0
100
AcDbPoint
 10
97.03862512206562
 20
200.1306522741827
 30
0.0
  0
ENDBLK
  5
1AC4
330
1AB9
100
AcDbEntity
  8
0
100
AcDbBlockEnd
  0
BLOCK
  5
1ADD
330
1AD3
100
AcDbEntity
  8
0
100
AcDbBlockBegin
  2
*D3
 70
     1
 10
0.0
 20
0.0
 30
0.0
  3
*D3
  1

  0
LINE
  5
1D23
330
1AD3
100
AcDbEntity
  8
BEM
 62
     0
370
    -2
100
AcDbLine
 10
185.9855328038764
 20
323.2512670326106
 30
0.0
 11
213.6350495959753
 21
247.284843987488
 31
0.0
  0
LINE
  5
1D24
330
1AD3
100
AcDbEntity
  8
BEM
 62
     0
370
    -2
100
AcDbLine
 10
373.8249513333517
 20
333.451498168747
 30
0.0
 11
382.7797213374387
 21
308.8484697861086
 31
0.0
  0
LINE
  5
1D25
330
1AD3
100
AcDbEntity
  8
BEM
 62
     0
370
    -2
100
AcDbLine
 10
219.5288576548253
 20
251.5583702323395
 30
0.0
 11
375.517832705286
 21
308.3337140244007
 31
0.0
  0
SOLID
  5
1D26
330
1AD3
100
AcDbEntity
  8
BEM
 62
     0
100
AcDbTrace
 10
219.1298341542787
 20
252.654678289923
 30
0.0
 11
219.9278811553719
 21
250.4620621747559
 31
0.0
 12
212.951009309324
 22
249.1642292290598
 32
0.0
 13
212.951009309324
 23
249.1642292290598
 33
0.0
  0
SOLID
  5
1D27
330
1AD3
100
AcDbEntity
  8
BEM
 62
     0
100
AcDbTrace
 10
375.1188092047394
 20
309.4300220819842
 30
0.0
 11
375.9168562058326
 21
307.2374059668172
 31
0.0
 12
382.0956810507873
 22
310.7278550276804
 32
0.0
 13
382.0956810507873
 23
310.7278550276804
 33
0.0
  0
MTEXT
  5
1D28
330
1AD3
100
AcDbEntity
  8
BEM
 62
     1
100
AcDbMText
 10
295.3002142484388
 20
286.0540441634785
 30
0.0
 40
7.0
 41
0.0
 71
     5
 72
     1
  1
\A1;180
 11
0.9396926207859078
 21
0.3420201433256703
 31
0.0
 73
     1
 44
1.0
  0
POINT
  5
1D29
330
1AD3
100
AcDbEntity
  8
DEFPOINTS
 62
     0
100
AcDbPoint
 10
185.3014925172251
 20
325.1306522741824
 30
0.0
  0
POINT
  5
1D2A
330
1AD3
100
AcDbEntity
  8
DEFPOINTS
 62
     0
100
AcDbPoint
 10
373.1409110467004
 20
335.330883410319
 30
0.0
  0
POINT
  5
1D2B
330
1AD3
100
AcDbEntity
  8
DEFPOINTS
 62
     0
100
AcDbPoint
 10
382.0956810507873
 20
310.7278550276805
 30
0.0
  0
ENDBLK
  5
1ADE
330
1AD3
100
AcDbEntity
  8
0
100
AcDbBlockEnd
  0
BLOCK
  5
1AF3
330
1AE9
100
AcDbEntity
  8
0
100
AcDbBlockBegin
  2
*D4
 70
     1
 10
0.0
 20
0.0
 30
0.0
  3
*D4
  1

  0
LINE
  5
1CED
330
1AE9
100
AcDbEntity
  8
BEM
 62
     0
370
    -2
100
AcDbLine
 10
134.501492517225
 20
206.1306522741827
 30
0.0
 11
134.501492517225
 21
177.0407630211054
 31
0.0
  0
LINE
  5
1CEE
330
1AE9
100
AcDbEntity
  8
BEM
 62
     0
370
    -2
100
AcDbLine
 10
236.101492517225
 20
206.1306522741821
 30
0.0
 11
236.101492517225
 21
177.0407630211054
 31
0.0
  0
LINE
  5
1CEF
330
1AE9
100
AcDbEntity
  8
BEM
 62
     0
370
    -2
100
AcDbLine
 10
141.501492517225
 20
179.0407630211054
 30
0.0
 11
229.101492517225
 21
179.0407630211054
 31
0.0
  0
SOLID
  5
1CF0
330
1AE9
100
AcDbEntity
  8
BEM
 62
     0
100
AcDbTrace
 10
141.501492517225
 20
180.2074296877721
 30
0.0
 11
141.501492517225
 21
177.8740963544388
 31
0.0
 12
134.501492517225
 22
179.0407630211054
 32
0.0
 13
134.501492517225
 23
179.0407630211054
 33
0.0
  0
SOLID
  5
1CF1
330
1AE9
100
AcDbEntity
  8
BEM
 62
     0
100
AcDbTrace
 10
229.101492517225
 20
180.2074296877721
 30
0.0
 11
229.101492517225
 21
177.8740963544388
 31
0.0
 12
236.101492517225
 22
179.0407630211054
 32
0.0
 13
236.101492517225
 23
179.0407630211054
 33
0.0
  0
MTEXT
  5
1CF2
330
1AE9
100
AcDbEntity
  8
BEM
 62
     1
100
AcDbMText
 10
185.301492517225
 20
185.5407630211054
 30
0.0
 40
7.0
 41
0.0
 71
     5
 72
     1
  1
\A1;%%c101.6
 73
     1
 44
1.0
  0
POINT
  5
1CF3
330
1AE9
100
AcDbEntity
  8
DEFPOINTS
 62
     0
100
AcDbPoint
 10
134.501492517225
 20
208.1306522741827
 30
0.0
  0
POINT
  5
1CF4
330
1AE9
100
AcDbEntity
  8
DEFPOINTS
 62
     0
100
AcDbPoint
 10
236.101492517225
 20
208.1306522741821
 30
0.0
  0
POINT
  5
1CF5
330
1AE9
100
AcDbEntity
  8
DEFPOINTS
 62
     0
100
AcDbPoint
 10
236.101492517225
 20
179.0407630211054
 30
0.0
  0
ENDBLK
  5
1AF4
330
1AE9
100
AcDbEntity
  8
0
100
AcDbBlockEnd
  0
BLOCK
  5
1D6F
330
1D63
100
AcDbEntity
  8
0
100
AcDbBlockBegin
  2
*D6
 70
     1
 10
0.0
 20
0.0
 30
0.0
  3
*D6
  1

  0
LINE
  5
1D64
330
1D63
100
AcDbEntity
  8
BEM
 62
     0
370
    -2
100
AcDbLine
 10
361.0240126041898
 20
389.0884190760826
 30
0.0
 11
382.4269713213626
 21
396.878458974362
 31
0.0
  0
LINE
  5
1D65
330
1D63
100
AcDbEntity
  8
BEM
 62
     0
370
    -2
100
AcDbLine
 10
185.301492517225
 20
507.1339451785124
 30
0.0
 11
185.3014925172251
 21
534.9072052062171
 31
0.0
  0
ARC
  5
1D66
330
1D63
100
AcDbEntity
  8
BEM
 62
     0
370
    -2
100
AcDbCircle
 10
185.301492517225
 20
325.1306522741824
 30
0.0
 40
207.7765529320349
100
AcDbArc
 50
21.93038829914339
 51
88.06961170085671
  0
SOLID
  5
1D67
330
1D63
100
AcDbEntity
  8
BEM
 62
     0
100
AcDbTrace
 10
379.1324117408218
 20
403.1484385828097
 30
0.0
 11
376.9535498472204
 21
402.3135701542199
 31
0.0
 12
380.5475860797908
 22
396.1944186877106
 32
0.0
 13
380.5475860797908
 23
396.1944186877106
 33
0.0
  0
SOLID
  5
1D68
330
1D63
100
AcDbEntity
  8
BEM
 62
     0
100
AcDbTrace
 10
192.2808467831565
 20
531.6227889412406
 30
0.0
 11
192.3201518276931
 21
533.9557912039738
 31
0.0
 12
185.301492517225
 22
532.9072052062172
 32
0.0
 13
185.301492517225
 23
532.9072052062172
 33
0.0
  0
MTEXT
  5
1D69
330
1D63
100
AcDbEntity
  8
BEM
 62
     1
100
AcDbMText
 10
308.2054741415677
 20
500.6557286516571
 30
0.0
 40
7.0
 41
0.0
 71
     5
 72
     1
  1
\A1;70°
 11
0.8191520442889922
 21
-0.5735764363510456
 31
0.0
 73
     1
 44
1.0
  0
POINT
  5
1D6A
330
1D63
100
AcDbEntity
  8
DEFPOINTS
 62
     0
100
AcDbPoint
 10
336.4326804568944
 20
467.7155742689818
 30
0.0
  0
POINT
  5
1D6B
330
1D63
100
AcDbEntity
  8
DEFPOINTS
 62
     0
100
AcDbPoint
 10
185.3014925172251
 20
505.1339451785123
 30
0.0
  0
POINT
  5
1D6C
330
1D63
100
AcDbEntity
  8
DEFPOINTS
 62
     0
100
AcDbPoint
 10
359.1446273626179
 20
388.4043787894313
 30
0.0
  0
POINT
  5
1D6D
330
1D63
100
AcDbEntity
  8
DEFPOINTS
 62
     0
100
AcDbPoint
 10
185.3014925172251
 20
325.1306522741824
 30
0.0
  0
POINT
  5
1D6E
330
1D63
100
AcDbEntity
  8
DEFPOINTS
 62
     0
100
AcDbPoint
 10
185.301492517225
 20
195.1306522741826
 30
0.0
  0
ENDBLK
  5
1D70
330
1D63
100
AcDbEntity
  8
0
100
AcDbBlockEnd
  0
ENDSEC
  0
SECTION
  2
ENTITIES
  0
TEXT
  5
134
330
1E
100
AcDbEntity
  8
TEXT
100
AcDbText
 10
204.4216048581257
 20
63.0896391972351
 30
0.0
 40
4.0
  1
Koeh
 41
0.8
  7
GREEKS
 72
     1
 11
209.6787477152686
 21
63.0896391972351
 31
0.0
100
AcDbText
  0
INSERT
  5
135
330
1E
100
AcDbEntity
  8
STEMPEL
100
AcDbBlockReference
  2
LOGO
 10
150.9955485457794
 20
45.02105276448322
 30
0.0
 41
2.0
 42
2.0
 43
2.0
  0
LINE
  5
136
330
1E
100
AcDbEntity
  8
HILF
100
AcDbLine
 10
420.0
 20
0.0
 30
0.0
 11
0.0
 21
0.0
 31
0.0
  0
LINE
  5
137
330
1E
100
AcDbEntity
  8
HILF
100
AcDbLine
 10
419.9999999999999
 20
594.0000000000002
 30
0.0
 11
0.0
 21
594.0
 31
0.0
  0
LINE
  5
138
330
1E
100
AcDbEntity
  8
STEMPEL
100
AcDbLine
 10
410.0
 20
584.0
 30
0.0
 11
39.99999999999989
 21
584.0
 31
0.0
  0
LINE
  5
139
330
1E
100
AcDbEntity
  8
STEMPEL
100
AcDbLine
 10
410.0
 20
10.0
 30
0.0
 11
39.99999999999989
 21
10.0
 31
0.0
  0
LINE
  5
13A
330
1E
100
AcDbEntity
  8
STEMPEL
100
AcDbLine
 10
49.99999999999989
 20
10.0
 30
0.0
 11
410.0
 21
10.0
 31
0.0
  0
TEXT
  5
13B
330
1E
100
AcDbEntity
  8
TEXT
100
AcDbText
 10
202.4626584226295
 20
73.30961091915225
 30
0.0
 40
4.0
  1
Name
 41
0.8
  7
GREEKS
100
AcDbText
  0
TEXT
  5
13C
330
1E
100
AcDbEntity
  8
TEXT
100
AcDbText
 10
196.5498279101549
 20
102.6506227776589
 30
0.0
 40
5.0
  1
Zul. Abw.
 41
0.8
  7
GREEKS
 72
     4
 11
209.9783993387263
 21
105.1506227776589
 31
0.0
100
AcDbText
  0
LINE
  5
13D
330
1E
100
AcDbEntity
  8
HILF
100
AcDbLine
 10
146.0000000000001
 20
49.99999999999997
 30
0.0
 11
230.0
 21
49.99999999999997
 31
0.0
  0
LINE
  5
13E
330
1E
100
AcDbEntity
  8
HILF
100
AcDbLine
 10
146.0000000000001
 20
59.99999999999997
 30
0.0
 11
230.0
 21
59.99999999999997
 31
0.0
  0
LINE
  5
13F
330
1E
100
AcDbEntity
  8
HILF
100
AcDbLine
 10
146.0000000000001
 20
69.99999999999994
 30
0.0
 11
230.0
 21
69.99999999999994
 31
0.0
  0
LINE
  5
140
330
1E
100
AcDbEntity
  8
STEMPEL
100
AcDbLine
 10
410.0
 20
80.0
 30
0.0
 11
146.0000000000001
 21
79.99999999999994
 31
0.0
  0
LINE
  5
141
330
1E
100
AcDbEntity
  8
STEMPEL
100
AcDbLine
 10
410.0
 20
40.0
 30
0.0
 11
146.0000000000001
 21
39.99999999999997
 31
0.0
  0
LINE
  5
142
330
1E
100
AcDbEntity
  8
STEMPEL
100
AcDbLine
 10
410.0
 20
110.0
 30
0.0
 11
39.99999999999997
 21
110.0
 31
0.0
  0
LINE
  5
144
330
1E
100
AcDbEntity
  8
HILF
100
AcDbLine
 10
0.0
 20
0.0
 30
0.0
 11
-0.0000000000001137
 21
594.0
 31
0.0
  0
LINE
  5
145
330
1E
100
AcDbEntity
  8
STEMPEL
100
AcDbLine
 10
40.0
 20
10.0
 30
0.0
 11
39.99999999999989
 21
584.0
 31
0.0
  0
TEXT
  5
146
330
1E
100
AcDbEntity
  8
TEXT
100
AcDbText
 10
41.85509950977674
 20
111.6719999999999
 30
0.0
 40
5.0
  1
Erstellt mit AUTOCAD 2004
 41
0.8
  7
GREEKS
100
AcDbText
  0
TEXT
  5
147
330
1E
100
AcDbEntity
  8
TEXT
100
AcDbText
 10
67.93969678957707
 20
18.67381894984132
 30
0.0
 40
4.0
  1
Änderung
 41
0.8
  7
GREEKS
 72
     1
 11
78.68255393243422
 21
18.67381894984132
 31
0.0
100
AcDbText
  0
LINE
  5
148
330
1E
100
AcDbEntity
  8
HILF
100
AcDbLine
 10
40.00000000000008
 20
39.99999999999997
 30
0.0
 11
146.0000000000001
 21
39.99999999999997
 31
0.0
  0
LINE
  5
149
330
1E
100
AcDbEntity
  8
HILF
100
AcDbLine
 10
40.00000000000008
 20
49.99999999999997
 30
0.0
 11
146.0000000000001
 21
49.99999999999997
 31
0.0
  0
LINE
  5
14A
330
1E
100
AcDbEntity
  8
HILF
100
AcDbLine
 10
40.00000000000008
 20
59.99999999999997
 30
0.0
 11
146.0000000000001
 21
59.99999999999997
 31
0.0
  0
LINE
  5
14B
330
1E
100
AcDbEntity
  8
HILF
100
AcDbLine
 10
40.00000000000008
 20
69.99999999999994
 30
0.0
 11
146.0000000000001
 21
69.99999999999994
 31
0.0
  0
LINE
  5
14C
330
1E
100
AcDbEntity
  8
HILF
100
AcDbLine
 10
40.00000000000008
 20
79.99999999999994
 30
0.0
 11
146.0000000000001
 21
79.99999999999994
 31
0.0
  0
LINE
  5
14D
330
1E
100
AcDbEntity
  8
HILF
100
AcDbLine
 10
40.00000000000008
 20
90.00000000000005
 30
0.0
 11
146.0000000000001
 21
90.00000000000005
 31
0.0
  0
LINE
  5
14E
330
1E
100
AcDbEntity
  8
HILF
100
AcDbLine
 10
40.00000000000008
 20
100.0
 30
0.0
 11
146.0000000000001
 21
100.0
 31
0.0
  0
LINE
  5
14F
330
1E
100
AcDbEntity
  8
STEMPEL
100
AcDbLine
 10
145.9999999999999
 20
29.99999999999997
 30
0.0
 11
39.99999999999997
 21
29.99999999999997
 31
0.0
  0
TEXT
  5
150
330
1E
100
AcDbEntity
  8
TEXT
100
AcDbText
 10
48.26641107045756
 20
13.65465846027192
 30
0.0
 40
4.0
  1
Index
 50
90.0
 41
0.8
  7
GREEKS
100
AcDbText
  0
LINE
  5
151
330
1E
100
AcDbEntity
  8
VOLL
100
AcDbLine
 10
54.00000000000009
 20
110.0
 30
0.0
 11
53.99999999999997
 21
9.999999999999971
 31
0.0
  0
LINE
  5
152
330
1E
100
AcDbEntity
  8
HILF
100
AcDbLine
 10
31.08767135713856
 20
297.0
 30
0.0
 11
0.0000000000001137
 21
297.0
 31
0.0
  0
TEXT
  5
153
330
1E
100
AcDbEntity
  8
TEXT
100
AcDbText
 10
110.2820548933125
 20
18.6715626933981
 30
0.0
 40
4.0
  1
Tag
 41
0.8
  7
GREEKS
 72
     1
 11
114.0153882266458
 21
18.6715626933981
 31
0.0
100
AcDbText
  0
LINE
  5
154
330
1E
100
AcDbEntity
  8
VOLL
100
AcDbLine
 10
124.0000000000001
 20
109.9999999999999
 30
0.0
 11
124.0
 21
9.999999999999971
 31
0.0
  0
LINE
  5
155
330
1E
100
AcDbEntity
  8
VOLL
100
AcDbLine
 10
104.0000000000001
 20
109.9999999999999
 30
0.0
 11
104.0
 21
9.999999999999971
 31
0.0
  0
TEXT
  5
156
330
1E
100
AcDbEntity
  8
TEXT
100
AcDbText
 10
128.9001864118674
 20
18.59324216966408
 30
0.0
 40
4.0
  1
Name
 41
0.8
  7
GREEKS
 72
     1
 11
135.2239959356769
 21
18.59324216966408
 31
0.0
100
AcDbText
  0
LINE
  5
157
330
1E
100
AcDbEntity
  8
STEMPEL
100
AcDbLine
 10
146.0000000000001
 20
109.9999999999999
 30
0.0
 11
146.0
 21
9.999999999999971
 31
0.0
  0
TEXT
  5
158
330
1E
100
AcDbEntity
  8
TEXT
100
AcDbText
 10
170.398997108236
 20
63.10765040825732
 30
0.0
 40
4.0
  1
08.04.
 41
0.8
  7
GREEKS
 72
     1
 11
177.4085209177598
 21
63.10765040825732
 31
0.0
100
AcDbText
  0
TEXT
  5
159
330
1E
100
AcDbEntity
  8
TEXT
100
AcDbText
 10
172.331167315365
 20
73.31880501229926
 30
0.0
 40
4.0
  1
Tag
 41
0.8
  7
GREEKS
100
AcDbText
  0
TEXT
  5
15A
330
1E
100
AcDbEntity
  8
TEXT
100
AcDbText
 10
147.5836127167615
 20
63.62990369617964
 30
0.0
 40
4.0
  1
Gez.
 41
0.8
  7
GREEKS
100
AcDbText
  0
LINE
  5
15B
330
1E
100
AcDbEntity
  8
VOLL
100
AcDbLine
 10
164.0000000000001
 20
79.99999999999994
 30
0.0
 11
164.0000000000001
 21
39.99999999999997
 31
0.0
  0
TEXT
  5
15C
330
1E
100
AcDbEntity
  8
TEXT
100
AcDbText
 10
147.6006777387303
 20
43.52946389649807
 30
0.0
 40
4.0
  1
Norm.
 41
0.8
  7
GREEKS
100
AcDbText
  0
TEXT
  5
15D
330
1E
100
AcDbEntity
  8
TEXT
100
AcDbText
 10
147.5515086571672
 20
53.68926291428377
 30
0.0
 40
4.0
  1
Gepr.
 41
0.8
  7
GREEKS
100
AcDbText
  0
TEXT
  5
15E
330
1E
100
AcDbEntity
  8
TEXT
 62
     1
100
AcDbText
 10
160.5006306481887
 20
88.14901428913959
 30
0.0
 40
7.0
  1
1:2
 41
0.8
  7
GREEKS
100
AcDbText
  0
TEXT
  5
15F
330
1E
100
AcDbEntity
  8
TEXT
100
AcDbText
 10
153.5163572150377
 20
102.4620895087088
 30
0.0
 40
5.0
  1
Maßstab
 41
0.8
  7
GREEKS
100
AcDbText
  0
TEXT
  5
160
330
1E
100
AcDbEntity
  8
TEXT
100
AcDbText
 10
148.622109822104
 20
73.14025471151666
 30
0.0
 40
4.0
  1
2011
 41
0.8
  7
GREEKS
100
AcDbText
  0
LINE
  5
161
330
1E
100
AcDbEntity
  8
VOLL
100
AcDbLine
 10
190.0000000000001
 20
109.9999999999998
 30
0.0
 11
190.0
 21
39.99999999999997
 31
0.0
  0
LINE
  5
186
330
1E
100
AcDbEntity
  8
HILF
100
AcDbLine
 10
420.0
 20
-0.0000000000001137
 30
0.0
 11
419.9999999999999
 21
594.0
 31
0.0
  0
LINE
  5
187
330
1E
100
AcDbEntity
  8
STEMPEL
100
AcDbLine
 10
410.0
 20
10.0
 30
0.0
 11
410.0
 21
584.0
 31
0.0
  0
TEXT
  5
188
330
1E
100
AcDbEntity
  8
TEXT
100
AcDbText
 10
337.2400861497006
 20
52.07416177878602
 30
0.0
 40
5.0
  1
ersetzt durch:
 41
0.8
  7
GREEKS
100
AcDbText
  0
TEXT
  5
189
330
1E
100
AcDbEntity
  8
TEXT
100
AcDbText
 10
336.7238616296993
 20
73.1811823709997
 30
0.0
 40
5.0
  1
Ersatz für:
 41
0.8
  7
GREEKS
100
AcDbText
  0
TEXT
  5
18A
330
1E
100
AcDbEntity
  8
TEXT
100
AcDbText
 10
336.178754957634
 20
102.3132034537136
 30
0.0
 40
5.0
  1
Zeichnungs Nr.
 41
0.8
  7
GREEKS
100
AcDbText
  0
LINE
  5
18B
330
1E
100
AcDbEntity
  8
HILF
100
AcDbLine
 10
233.4909699289885
 20
14.89398258028314
 30
0.0
 11
404.8588839326728
 21
14.89398258028314
 31
0.0
  0
LINE
  5
18C
330
1E
100
AcDbEntity
  8
HILF
100
AcDbLine
 10
336.7238616296993
 20
83.77983636955827
 30
0.0
 11
404.8588839326728
 21
83.77983636955827
 31
0.0
  0
LINE
  5
18D
330
1E
100
AcDbEntity
  8
VOLL
100
AcDbLine
 10
332.0
 20
60.0
 30
0.0
 11
410.0
 21
60.0
 31
0.0
  0
TEXT
  5
18E
330
1E
100
AcDbEntity
  8
TEXT
 62
     1
100
AcDbText
 10
234.9283864320014
 20
87.41748789253779
 30
0.0
 40
7.0
  1
Abzweig DN100/100
 41
0.8
  7
GREEKS
100
AcDbText
  0
LINE
  5
18F
330
1E
100
AcDbEntity
  8
HILF
100
AcDbLine
 10
234.7736801096947
 20
49.99999999999997
 30
0.0
 11
324.835391655631
 21
49.99999999999997
 31
0.0
  0
LINE
  5
190
330
1E
100
AcDbEntity
  8
HILF
100
AcDbLine
 10
234.7736801096947
 20
59.99999999999997
 30
0.0
 11
324.835391655631
 21
59.99999999999997
 31
0.0
  0
LINE
  5
191
330
1E
100
AcDbEntity
  8
HILF
100
AcDbLine
 10
234.7736801096947
 20
69.99999999999994
 30
0.0
 11
324.835391655631
 21
69.99999999999994
 31
0.0
  0
LINE
  5
192
330
1E
100
AcDbEntity
  8
HILF
100
AcDbLine
 10
234.7736801096947
 20
84.03758247564139
 30
0.0
 11
324.8353916556311
 21
84.03758247564139
 31
0.0
  0
LINE
  5
193
330
1E
100
AcDbEntity
  8
STEMPEL
100
AcDbLine
 10
230.0
 20
110.0
 30
0.0
 11
230.0
 21
9.999999999999971
 31
0.0
  0
TEXT
  5
194
330
1E
100
AcDbEntity
  8
TEXT
100
AcDbText
 10
235.1296391125315
 20
71.50334417585288
 30
0.0
 40
5.0
  1
dünnwandig 70° 
 41
0.8
  7
GREEKS
100
AcDbText
  0
TEXT
  5
195
330
1E
100
AcDbEntity
  8
TEXT
100
AcDbText
 10
234.9837501577827
 20
42.62974153022632
 30
0.0
 40
4.0
  1
5210DD0W.DWG
 41
0.8
  7
GREEKS
100
AcDbText
  0
TEXT
  5
196
330
1E
100
AcDbEntity
  8
TEXT
100
AcDbText
 10
234.742238391136
 20
30.84560570193057
 30
0.0
 40
5.0
  1
Bauvorhaben
 41
0.8
  7
GREEKS
100
AcDbText
  0
TEXT
  5
197
330
1E
100
AcDbEntity
  8
TEXT
100
AcDbText
 10
234.877940380901
 20
102.5489328011779
 30
0.0
 40
5.0
  1
Benennung
 41
0.8
  7
GREEKS
100
AcDbText
  0
LINE
  5
198
330
1E
100
AcDbEntity
  8
STEMPEL
100
AcDbLine
 10
332.0
 20
109.9999999999997
 30
0.0
 11
332.0
 21
40.0
 31
0.0
  0
TEXT
  5
19A
330
1E
100
AcDbEntity
  8
TEXT
 62
     1
100
AcDbText
 10
349.1315525484616
 20
88.14901428913959
 30
0.0
 40
7.0
  1
5210DD0W
 41
0.8
  7
GREEKS
 72
     1
 11
370.1982192151282
 21
88.14901428913959
 31
0.0
100
AcDbText
  0
TEXT
  5
212
330
1E
100
AcDbEntity
  8
TEXT
100
AcDbText
 10
235.1296391125315
 20
51.50334417585291
 30
0.0
 40
5.0
  1
EDV-Art.Nr. 5.210.DD0C
 41
0.8
  7
GREEKS
100
AcDbText
  0
TEXT
  5
255
330
1E
100
AcDbEntity
  8
TEXT
 62
     1
100
AcDbText
 10
297.0573649355706
 20
132.2248663682012
 30
0.0
 40
7.0
  1
Werkstoff: 1.4404
 41
0.8
  7
GREEKS
100
AcDbText
  0
LINE
  5
15D2
330
1E
100
AcDbEntity
  8
MITTEL
100
AcDbLine
 10
185.3014925172251
 20
505.1339451785124
 30
0.0
 11
185.301492517225
 21
195.1306522741826
 31
0.0
  0
LINE
  5
1606
330
1E
100
AcDbEntity
  8
STEMPEL
100
AcDbLine
 10
235.4015832090176
 20
200.1306522741821
 30
0.0
 11
135.2014018254324
 21
200.1306522741827
 31
0.0
  0
TEXT
  5
160F
330
1E
100
AcDbEntity
  8
TEXT
 62
     1
100
AcDbText
 10
175.4028766537478
 20
465.2711407426596
 30
0.0
 40
7.0
  1
DN100
 50
89.99999999999998
 41
0.8
  7
GREEKS
100
AcDbText
  0
TEXT
  5
16FA
330
1E
100
AcDbEntity
  8
TEXT
 62
     1
100
AcDbText
 10
316.1886487413189
 20
389.4244901913817
 30
0.0
 40
7.0
  1
DN100
 50
19.99999999999999
 41
0.8
  7
GREEKS
100
AcDbText
  0
LINE
  5
1702
330
1E
100
AcDbEntity
  8
MITTEL
100
AcDbLine
 10
359.1446273626181
 20
388.4043787894313
 30
0.0
 11
185.3014925172251
 21
325.1306522741824
 31
0.0
  0
DIMENSION
  5
170F
330
1E
100
AcDbEntity
  8
BEM
100
AcDbDimension
  2
*D1
 10
113.7571347924433
 20
325.1306522741824
 30
0.0
 11
107.2571347924433
 21
262.6306522741826
 31
0.0
 70
    32
 71
     5
 42
124.9999999999997
  3
Standard
100
AcDbAlignedDimension
 13
135.2014018254324
 23
200.1306522741827
 33
0.0
 14
185.3014925172251
 24
325.1306522741824
 34
0.0
 50
90.0
100
AcDbRotatedDimension
1001
ACAD
1000
DSTYLE
1002
{
1070
    40
1040
2.0
1070
    41
1040
3.5
1070
    42
1040
1.0
1070
    43
1040
7.0
1070
    44
1040
1.0
1070
    73
1070
     0
1070
    74
1070
     0
1070
    77
1070
     1
1070
    78
1070
     8
1070
    79
1070
     2
1070
   140
1040
3.5
1070
   141
1040
1.5
1070
   146
1040
0.5142857142857144
1070
   147
1040
1.5
1070
   172
1070
     1
1070
   178
1070
     1
1070
   179
1070
     2
1070
   271
1070
     2
1070
   272
1070
     2
1070
   284
1070
     8
1070
   285
1070
     8
1070
   286
1070
     8
1002
}
  0
TEXT
  5
1905
330
1E
100
AcDbEntity
  8
VOLL
100
AcDbText
 10
525.3664702311624
 20
212.4618221180262
 30
0.0
 40
1.8
  1

  7
GREEKS
100
AcDbText
  0
LINE
  5
1911
330
1E
100
AcDbEntity
  8
STEMPEL
100
AcDbLine
 10
373.1409110467001
 20
335.3308834103188
 30
0.0
 11
335.7514174706771
 21
438.0576727352867
 31
0.0
  0
LINE
  5
1914
102
{ACAD_REACTORS
330
1D47
102
}
330
1E
100
AcDbEntity
  8
STEMPEL
100
AcDbLine
 10
267.0239149093966
 20
408.935412338839
 30
0.0
 11
236.1014925172251
 21
397.6805710166819
 31
0.0
  0
LINE
  5
1933
102
{ACAD_REACTORS
330
1D61
102
}
330
1E
100
AcDbEntity
  8
STEMPEL
100
AcDbLine
 10
301.7731614712845
 20
313.4626420669906
 30
0.0
 11
236.101492517225
 21
289.5601093331292
 31
0.0
  0
LINE
  5
1A80
330
1E
100
AcDbEntity
  8
STEMPEL
100
AcDbLine
 10
239.9612754359484
 20
500.1339451785123
 30
0.0
 11
130.641709598502
 21
500.1339451785126
 31
0.0
  0
LINE
  5
1A83
330
1E
100
AcDbEntity
  8
STEMPEL
100
AcDbLine
 10
134.5014925172251
 20
425.5908185018723
 30
0.0
 11
134.501492517225
 21
208.1306522741827
 31
0.0
  0
LINE
  5
1A8A
102
{ACAD_REACTORS
330
1D47
102
}
330
1E
100
AcDbEntity
  8
STEMPEL
100
AcDbLine
 10
236.1014925172251
 20
425.5908185018724
 30
0.0
 11
236.1014925172251
 21
397.6805710166819
 31
0.0
  0
LINE
  5
1AA1
330
1E
100
AcDbEntity
  8
HILF
100
AcDbLine
 10
234.8467177202956
 20
208.1306522741821
 30
0.0
 11
135.7562673141542
 21
208.1306522741827
 31
0.0
  0
LINE
  5
1AA2
330
1E
100
AcDbEntity
  8
STEMPEL
100
AcDbLine
 10
134.501492517225
 20
208.1306522741827
 30
0.0
 11
135.2014018254324
 21
200.1306522741827
 31
0.0
  0
LINE
  5
1AA5
330
1E
100
AcDbEntity
  8
STEMPEL
100
AcDbLine
 10
236.1014925172249
 20
208.1306522741833
 30
0.0
 11
235.4015832090176
 21
200.1306522741821
 31
0.0
  0
DIMENSION
  5
1AB8
330
1E
100
AcDbEntity
  8
BEM
100
AcDbDimension
  2
*D2
 10
97.03862512206562
 20
200.1306522741827
 30
0.0
 11
90.5386251220656
 21
350.1322987263477
 31
0.0
 70
    32
 71
     5
 42
300.00329290433
  3
Standard
100
AcDbAlignedDimension
 13
130.641709598502
 23
500.1339451785126
 33
0.0
 14
135.2014018254324
 24
200.1306522741827
 34
0.0
 50
90.0
100
AcDbRotatedDimension
1001
ACAD
1000
DSTYLE
1002
{
1070
    40
1040
2.0
1070
    41
1040
3.5
1070
    42
1040
1.0
1070
    43
1040
7.0
1070
    44
1040
1.0
1070
    73
1070
     0
1070
    74
1070
     0
1070
    77
1070
     1
1070
    78
1070
     8
1070
    79
1070
     2
1070
   140
1040
3.5
1070
   141
1040
1.5
1070
   146
1040
0.5142857142857144
1070
   147
1040
1.5
1070
   172
1070
     1
1070
   178
1070
     1
1070
   179
1070
     2
1070
   271
1070
     2
1070
   272
1070
     2
1070
   284
1070
     8
1070
   285
1070
     8
1070
   286
1070
     8
1002
}
  0
LINE
  5
1ACE
102
{ACAD_REACTORS
330
1D61
102
}
330
1E
100
AcDbEntity
  8
STEMPEL
100
AcDbLine
 10
236.101492517225
 20
289.5601093331292
 30
0.0
 11
236.101492517225
 21
208.1306522741821
 31
0.0
  0
LINE
  5
1ACF
330
1E
100
AcDbEntity
  8
STEMPEL
100
AcDbLine
 10
236.1014925172251
 20
397.6805710166819
 30
0.0
 11
185.3014925172251
 21
325.1306522741824
 31
0.0
  0
LINE
  5
1AD0
330
1E
100
AcDbEntity
  8
STEMPEL
100
AcDbLine
 10
185.3014925172251
 20
325.1306522741824
 30
0.0
 11
236.101492517225
 21
289.5601093331292
 31
0.0
  0
DIMENSION
  5
1AD2
330
1E
100
AcDbEntity
  8
BEM
100
AcDbDimension
  2
*D3
 10
382.0956810507873
 20
310.7278550276805
 30
0.0
 11
295.3002142484388
 21
286.0540441634785
 31
0.0
 70
    32
 71
     5
 42
179.9999999999999
 51
356.9999999999999
  3
Standard
100
AcDbAlignedDimension
 13
185.3014925172251
 23
325.1306522741824
 33
0.0
 14
373.1409110467003
 24
335.3308834103188
 34
0.0
 50
20.00000000000009
100
AcDbRotatedDimension
1001
ACAD
1000
DSTYLE
1002
{
1070
    40
1040
2.0
1070
    41
1040
3.5
1070
    42
1040
1.0
1070
    43
1040
7.0
1070
    44
1040
1.0
1070
    73
1070
     0
1070
    74
1070
     0
1070
    77
1070
     1
1070
    78
1070
     8
1070
    79
1070
     2
1070
   140
1040
3.5
1070
   141
1040
1.5
1070
   146
1040
0.5142857142857144
1070
   147
1040
1.5
1070
   172
1070
     1
1070
   178
1070
     1
1070
   179
1070
     2
1070
   271
1070
     2
1070
   272
1070
     2
1070
   284
1070
     8
1070
   285
1070
     8
1070
   286
1070
     8
1002
}
  0
DIMENSION
  5
1AE8
330
1E
100
AcDbEntity
  8
BEM
100
AcDbDimension
  2
*D4
 10
236.101492517225
 20
179.0407630211054
 30
0.0
 11
185.301492517225
 21
185.5407630211054
 31
0.0
 70
    32
  1
%%c<>
 71
     5
 42
101.5999999999999
  3
Standard
100
AcDbAlignedDimension
 13
134.501492517225
 23
208.1306522741827
 33
0.0
 14
236.101492517225
 24
208.1306522741821
 34
0.0
100
AcDbRotatedDimension
1001
ACAD
1000
DSTYLE
1002
{
1070
    40
1040
2.0
1070
    41
1040
3.5
1070
    42
1040
1.0
1070
    43
1040
7.0
1070
    44
1040
1.0
1070
    73
1070
     0
1070
    74
1070
     0
1070
    77
1070
     1
1070
    78
1070
     8
1070
    79
1070
     2
1070
   140
1040
3.5
1070
   141
1040
1.5
1070
   146
1040
0.5142857142857144
1070
   147
1040
1.5
1070
   172
1070
     1
1070
   178
1070
     1
1070
   179
1070
     2
1070
   271
1070
     2
1070
   272
1070
     2
1070
   284
1070
     8
1070
   285
1070
     8
1070
   286
1070
     8
1002
}
  0
TEXT
  5
1BF5
330
1E
100
AcDbEntity
  8
BEM
100
AcDbText
 10
416.5811541437437
 20
12.14804815338303
 30
0.0
 40
4.0
  1
Diese Zeichnung ist urheberrechtlich geschützt und bleibt unser Eigentum. Sie darf weder ganz noch teilweise vervielfältigt und nicht an Dritte weitergegeben werden.
 50
90.0
 41
0.8
  7
GREEKS
100
AcDbText
  0
TEXT
  5
1C10
330
1E
100
AcDbEntity
  8
TEXT
100
AcDbText
 10
192.6882715247924
 20
88.73450771838452
 30
0.0
 40
4.0
  1
DIN EN1124-3
 41
0.8
  7
GREEKS
 72
     1
 11
209.6787477152686
 21
88.73450771838452
 31
0.0
100
AcDbText
  0
LINE
  5
1C4C
330
1E
100
AcDbEntity
  8
HILF
100
AcDbLine
 10
330.7381163939074
 20
321.6426026634969
 30
0.0
 11
294.4703349922218
 21
421.2875131183445
 31
0.0
  0
LINE
  5
1C4D
330
1E
100
AcDbEntity
  8
HILF
100
AcDbLine
 10
309.34058305513
 20
314.7837791683543
 30
0.0
 11
273.6701067218937
 21
412.7876074351116
 31
0.0
  0
LINE
  5
1C4E
330
1E
100
AcDbEntity
  8
HILF
100
AcDbLine
 10
303.4482025498534
 20
315.0837018798824
 30
0.0
 11
269.3490679819179
 21
408.7703041282297
 31
0.0
  0
ARC
  5
1C51
330
1E
100
AcDbEntity
  8
STEMPEL
100
AcDbCircle
 10
331.4593020584868
 20
414.1905353851886
 30
0.0
 40
24.2
100
AcDbArc
 50
79.7363480579001
 51
109.9999999999999
  0
LINE
  5
1C52
330
1E
100
AcDbEntity
  8
STEMPEL
100
AcDbLine
 10
291.3728715310405
 20
421.0966588792315
 30
0.0
 11
276.5963066504848
 21
415.718429098006
 31
0.0
  0
ARC
  5
1C54
330
1E
100
AcDbEntity
  8
STEMPEL
100
AcDbCircle
 10
281.4529926857094
 20
402.3747938828461
 30
0.0
 40
14.2
100
AcDbArc
 50
109.9999999999999
 51
140.6429317629395
  0
ARC
  5
1C55
330
1E
100
AcDbEntity
  8
STEMPEL
100
AcDbCircle
 10
264.2877537627914
 20
416.4529533051261
 30
0.0
 40
8.0
100
AcDbArc
 50
290.0
 51
320.8595810906223
  0
LINE
  5
1C56
330
1E
100
AcDbEntity
  8
STEMPEL
100
AcDbLine
 10
323.1824145900055
 20
436.9310968082077
 30
0.0
 11
305.7288560185499
 21
430.5785210061761
 31
0.0
  0
ARC
  5
1C57
330
1E
100
AcDbEntity
  8
STEMPEL
100
AcDbCircle
 10
314.005743487031
 20
407.837959583157
 30
0.0
 40
24.2
100
AcDbArc
 50
109.9999999999999
 51
136.8880476177246
  0
ARC
  5
1C58
330
1E
100
AcDbEntity
  8
STEMPEL
100
AcDbCircle
 10
286.9950136964718
 20
433.1247244252911
 30
0.0
 40
12.8
100
AcDbArc
 50
290.0
 51
316.8880476177247
  0
ARC
  5
1C5A
330
1E
100
AcDbEntity
  8
STEMPEL
100
AcDbCircle
 10
354.511459718637
 20
350.8552527442184
 30
0.0
 40
24.2
100
AcDbArc
 50
290.0
 51
320.2636519420999
  0
ARC
  5
1C5B
330
1E
100
AcDbEntity
  8
STEMPEL
100
AcDbCircle
 10
337.0579011471812
 20
344.5026769421868
 30
0.0
 40
24.2
100
AcDbArc
 50
263.1119523822754
 51
290.0
  0
LINE
  5
1C5C
330
1E
100
AcDbEntity
  8
STEMPEL
100
AcDbLine
 10
328.2426429815474
 20
319.7977943585107
 30
0.0
 11
313.4660781009921
 21
314.4195645772852
 31
0.0
  0
ARC
  5
1C5E
330
1E
100
AcDbEntity
  8
STEMPEL
100
AcDbCircle
 10
308.6093920657676
 20
327.7631997924451
 30
0.0
 40
14.2
100
AcDbArc
 50
259.3570682370605
 51
290.0
  0
ARC
  5
1C5F
330
1E
100
AcDbEntity
  8
STEMPEL
100
AcDbCircle
 10
304.5093226178899
 20
305.9451011007034
 30
0.0
 40
8.0
100
AcDbArc
 50
79.14041890937771
 51
109.9999999999999
  0
ARC
  5
1C60
330
1E
100
AcDbEntity
  8
STEMPEL
100
AcDbCircle
 10
332.6205008161161
 20
307.7697288124511
 30
0.0
 40
12.8
100
AcDbArc
 50
83.11195238227535
 51
109.9999999999999
  0
LINE
  5
1C61
330
1E
100
AcDbEntity
  8
STEMPEL
100
AcDbLine
 10
362.788347187118
 20
328.1146913211995
 30
0.0
 11
345.3347886156623
 21
321.7621155191679
 31
0.0
  0
LINE
  5
1C62
330
1E
100
AcDbEntity
  8
STEMPEL
100
AcDbLine
 10
243.201492517225
 20
487.9376342608622
 30
0.0
 11
243.2014925172252
 21
469.3639451785125
 31
0.0
  0
ARC
  5
1C63
330
1E
100
AcDbEntity
  8
STEMPEL
100
AcDbCircle
 10
219.0014925172251
 20
469.3639451785125
 30
0.0
 40
24.2
100
AcDbArc
 50
333.1119523822754
 51
0.0
  0
ARC
  5
1C64
330
1E
100
AcDbEntity
  8
STEMPEL
100
AcDbCircle
 10
244.1014925172252
 20
425.5908185018723
 30
0.0
 40
8.0
100
AcDbArc
 50
149.357068237063
 51
179.9999999999999
  0
LINE
  5
1C65
330
1E
100
AcDbEntity
  8
STEMPEL
100
AcDbLine
 10
239.2014925172251
 20
452.6307446478311
 30
0.0
 11
239.2014925172252
 21
436.9058527483957
 31
0.0
  0
ARC
  5
1C66
330
1E
100
AcDbEntity
  8
STEMPEL
100
AcDbCircle
 10
225.0014925172251
 20
436.9058527483956
 30
0.0
 40
14.2
100
AcDbArc
 50
329.3570682370628
 51
0.0
  0
ARC
  5
1C67
330
1E
100
AcDbEntity
  8
STEMPEL
100
AcDbCircle
 10
252.0014925172251
 20
452.6307446478311
 30
0.0
 40
12.8
100
AcDbArc
 50
153.1119523822753
 51
179.9999999999999
  0
ARC
  5
1C68
330
1E
100
AcDbEntity
  8
STEMPEL
100
AcDbCircle
 10
219.0014925172251
 20
487.9376342608622
 30
0.0
 40
24.2
100
AcDbArc
 50
0.0
 51
30.26365194209985
  0
LINE
  5
1C69
330
1E
100
AcDbEntity
  8
STEMPEL
100
AcDbLine
 10
127.4014925172252
 20
487.9376342608621
 30
0.0
 11
127.4014925172252
 21
469.3639451785125
 31
0.0
  0
ARC
  5
1C6A
330
1E
100
AcDbEntity
  8
STEMPEL
100
AcDbCircle
 10
126.5014925172252
 20
425.5908185018723
 30
0.0
 40
8.0
100
AcDbArc
 50
0.0
 51
30.64293176293725
  0
ARC
  5
1C6B
330
1E
100
AcDbEntity
  8
STEMPEL
100
AcDbCircle
 10
151.6014925172251
 20
469.3639451785125
 30
0.0
 40
24.2
100
AcDbArc
 50
179.9999999999999
 51
206.8880476177245
  0
LINE
  5
1C6C
330
1E
100
AcDbEntity
  8
STEMPEL
100
AcDbLine
 10
131.4014925172252
 20
452.6307446478311
 30
0.0
 11
131.4014925172251
 21
436.9058527483956
 31
0.0
  0
ARC
  5
1C6D
330
1E
100
AcDbEntity
  8
STEMPEL
100
AcDbCircle
 10
145.6014925172251
 20
436.9058527483957
 30
0.0
 40
14.2
100
AcDbArc
 50
179.9999999999999
 51
210.6429317629372
  0
ARC
  5
1C6E
330
1E
100
AcDbEntity
  8
STEMPEL
100
AcDbCircle
 10
118.6014925172251
 20
452.6307446478311
 30
0.0
 40
12.8
100
AcDbArc
 50
0.0
 51
26.8880476177246
  0
ARC
  5
1C6F
330
1E
100
AcDbEntity
  8
STEMPEL
100
AcDbCircle
 10
151.6014925172251
 20
487.9376342608621
 30
0.0
 40
24.2
100
AcDbArc
 50
149.7363480579001
 51
179.9999999999999
  0
LINE
  5
1C70
330
1E
100
AcDbEntity
  8
HILF
100
AcDbLine
 10
235.1510923629667
 20
427.7192773524615
 30
0.0
 11
135.4518926714836
 21
427.7192773524616
 31
0.0
  0
LINE
  5
1C71
330
1E
100
AcDbEntity
  8
HILF
100
AcDbLine
 10
237.4482403467399
 20
433.1537242233491
 30
0.0
 11
133.1547446877104
 21
433.1537242233491
 31
0.0
  0
LINE
  5
1C72
330
1E
100
AcDbEntity
  8
HILF
100
AcDbLine
 10
238.3214419404259
 20
455.6066841996728
 30
0.0
 11
132.2815430940243
 21
455.6066841996728
 31
0.0
  0
ARC
  5
1D2E
330
1E
100
AcDbEntity
  8
SCHRAFF
100
AcDbCircle
 10
236.1014925172251
 20
397.6805710166819
 30
0.0
 40
5.0
100
AcDbArc
 50
198.1301023541563
 51
271.8698976458441
  0
ARC
  5
1D2F
330
1E
100
AcDbEntity
  8
SCHRAFF
100
AcDbCircle
 10
233.2336103354699
 20
393.5848107952369
 30
0.0
 40
5.0
100
AcDbArc
 50
198.1301023541563
 51
271.8698976458441
  0
ARC
  5
1D30
330
1E
100
AcDbEntity
  8
SCHRAFF
100
AcDbCircle
 10
230.3657281537146
 20
389.489050573792
 30
0.0
 40
5.0
100
AcDbArc
 50
198.1301023541563
 51
271.8698976458441
  0
ARC
  5
1D31
330
1E
100
AcDbEntity
  8
SCHRAFF
100
AcDbCircle
 10
227.4978459719594
 20
385.3932903523471
 30
0.0
 40
5.0
100
AcDbArc
 50
198.1301023541563
 51
271.8698976458441
  0
ARC
  5
1D32
330
1E
100
AcDbEntity
  8
SCHRAFF
100
AcDbCircle
 10
224.6299637902042
 20
381.2975301309021
 30
0.0
 40
5.0
100
AcDbArc
 50
198.1301023541563
 51
271.8698976458441
  0
ARC
  5
1D33
330
1E
100
AcDbEntity
  8
SCHRAFF
100
AcDbCircle
 10
221.762081608449
 20
377.2017699094571
 30
0.0
 40
5.0
100
AcDbArc
 50
198.1301023541563
 51
271.8698976458441
  0
ARC
  5
1D34
330
1E
100
AcDbEntity
  8
SCHRAFF
100
AcDbCircle
 10
218.8941994266937
 20
373.1060096880121
 30
0.0
 40
5.0
100
AcDbArc
 50
198.1301023541563
 51
271.8698976458441
  0
ARC
  5
1D35
330
1E
100
AcDbEntity
  8
SCHRAFF
100
AcDbCircle
 10
216.0263172449385
 20
369.0102494665672
 30
0.0
 40
5.0
100
AcDbArc
 50
198.1301023541563
 51
271.8698976458441
  0
ARC
  5
1D36
330
1E
100
AcDbEntity
  8
SCHRAFF
100
AcDbCircle
 10
213.1584350631833
 20
364.9144892451222
 30
0.0
 40
5.0
100
AcDbArc
 50
198.1301023541563
 51
271.8698976458441
  0
ARC
  5
1D37
330
1E
100
AcDbEntity
  8
SCHRAFF
100
AcDbCircle
 10
210.2905528814281
 20
360.8187290236773
 30
0.0
 40
5.0
100
AcDbArc
 50
198.1301023541563
 51
271.8698976458441
  0
ARC
  5
1D39
330
1E
100
AcDbEntity
  8
SCHRAFF
100
AcDbCircle
 10
207.4226706996728
 20
356.7229688022323
 30
0.0
 40
5.0
100
AcDbArc
 50
198.1301023541563
 51
271.8698976458441
  0
ARC
  5
1D3A
330
1E
100
AcDbEntity
  8
SCHRAFF
100
AcDbCircle
 10
204.5547885179176
 20
352.6272085807874
 30
0.0
 40
5.0
100
AcDbArc
 50
198.1301023541563
 51
271.8698976458441
  0
ARC
  5
1D3B
330
1E
100
AcDbEntity
  8
SCHRAFF
100
AcDbCircle
 10
201.6869063361624
 20
348.5314483593425
 30
0.0
 40
5.0
100
AcDbArc
 50
198.1301023541563
 51
271.8698976458441
  0
ARC
  5
1D3C
330
1E
100
AcDbEntity
  8
SCHRAFF
100
AcDbCircle
 10
198.8190241544071
 20
344.4356881378975
 30
0.0
 40
5.0
100
AcDbArc
 50
198.1301023541563
 51
271.8698976458441
  0
ARC
  5
1D3D
330
1E
100
AcDbEntity
  8
SCHRAFF
100
AcDbCircle
 10
195.9511419726519
 20
340.3399279164526
 30
0.0
 40
5.0
100
AcDbArc
 50
198.1301023541563
 51
271.8698976458441
  0
ARC
  5
1D3E
330
1E
100
AcDbEntity
  8
SCHRAFF
100
AcDbCircle
 10
193.0832597908967
 20
336.2441676950076
 30
0.0
 40
5.0
100
AcDbArc
 50
198.1301023541563
 51
271.8698976458441
  0
ARC
  5
1D3F
330
1E
100
AcDbEntity
  8
SCHRAFF
100
AcDbCircle
 10
190.2153776091415
 20
332.1484074735626
 30
0.0
 40
5.0
100
AcDbArc
 50
198.1301023541563
 51
271.8698976458441
  0
ARC
  5
1D40
102
{ACAD_REACTORS
330
1D47
102
}
330
1E
100
AcDbEntity
  8
SCHRAFF
100
AcDbCircle
 10
236.2078362858752
 20
397.832445657909
 30
0.0
 40
5.079579050150812
100
AcDbArc
 50
18.8003938430405
 51
91.1996061569588
  0
HATCH
  5
1D47
330
1E
100
AcDbEntity
  8
SCHRAFF
100
AcDbHatch
 10
0.0
 20
0.0
 30
0.0
210
0.0
220
0.0
230
1.0
  2
_USER
 70
     0
 71
     1
 91
        1
 92
        7
 72
     1
 73
     1
 93
        3
 10
236.1014925172251
 20
402.9109114035452
 42
0.0
 10
236.1014925172251
 20
397.6805710166818
 42
0.0
 10
241.016404782959
 20
399.4694527854388
 42
0.3268465775372569
 97
        3
330
1A8A
330
1914
330
1D40
 75
     0
 76
     0
 52
0.0
 41
0.1
 77
     0
 78
     1
 53
0.0
 43
0.0
 44
0.0
 45
0.0
 46
0.1
 79
     0
 47
0.2154124162073921
 98
        1
 10
237.1386090575297
 20
400.6911015340249
  0
ARC
  5
1D49
330
1E
100
AcDbEntity
  8
SCHRAFF
100
AcDbCircle
 10
220.9895692667199
 20
300.1415919099794
 30
0.0
 40
5.0
100
AcDbArc
 50
108.1301023541558
 51
181.8698976458435
  0
ARC
  5
1D4A
330
1E
100
AcDbEntity
  8
SCHRAFF
100
AcDbCircle
 10
225.0853294881648
 20
297.2737097282242
 30
0.0
 40
5.0
100
AcDbArc
 50
108.1301023541558
 51
181.8698976458435
  0
ARC
  5
1D4D
330
1E
100
AcDbEntity
  8
SCHRAFF
100
AcDbCircle
 10
208.702288602385
 20
308.7452384552451
 30
0.0
 40
5.0
100
AcDbArc
 50
108.1301023541558
 51
181.8698976458435
  0
ARC
  5
1D4E
330
1E
100
AcDbEntity
  8
SCHRAFF
100
AcDbCircle
 10
200.5107681594951
 20
314.4810028187555
 30
0.0
 40
5.0
100
AcDbArc
 50
108.1301023541558
 51
181.8698976458435
  0
ARC
  5
1D4F
330
1E
100
AcDbEntity
  8
SCHRAFF
100
AcDbCircle
 10
204.6065283809401
 20
311.6131206370003
 30
0.0
 40
5.0
100
AcDbArc
 50
108.1301023541558
 51
181.8698976458435
  0
ARC
  5
1D50
330
1E
100
AcDbEntity
  8
SCHRAFF
100
AcDbCircle
 10
192.3192477166053
 20
320.216767182266
 30
0.0
 40
5.0
100
AcDbArc
 50
108.1301023541558
 51
181.8698976458435
  0
ARC
  5
1D51
330
1E
100
AcDbEntity
  8
SCHRAFF
100
AcDbCircle
 10
196.4150079380502
 20
317.3488850005108
 30
0.0
 40
5.0
100
AcDbArc
 50
108.1301023541558
 51
181.8698976458435
  0
ARC
  5
1D52
330
1E
100
AcDbEntity
  8
SCHRAFF
100
AcDbCircle
 10
212.79804882383
 20
305.8773562734899
 30
0.0
 40
5.0
100
AcDbArc
 50
108.1301023541558
 51
181.8698976458435
  0
ARC
  5
1D53
330
1E
100
AcDbEntity
  8
SCHRAFF
100
AcDbCircle
 10
216.8938090452749
 20
303.0094740917347
 30
0.0
 40
5.0
100
AcDbArc
 50
108.1301023541558
 51
181.8698976458435
  0
ARC
  5
1D57
330
1E
100
AcDbEntity
  8
SCHRAFF
100
AcDbCircle
 10
229.1810897096098
 20
294.405827546469
 30
0.0
 40
5.0
100
AcDbArc
 50
108.1301023541558
 51
181.8698976458435
  0
ARC
  5
1D58
330
1E
100
AcDbEntity
  8
SCHRAFF
100
AcDbCircle
 10
233.2768499310547
 20
291.5379453647137
 30
0.0
 40
5.0
100
AcDbArc
 50
108.1301023541558
 51
181.8698976458435
  0
ARC
  5
1D59
330
1E
100
AcDbEntity
  8
SCHRAFF
100
AcDbCircle
 10
237.3726101524997
 20
288.6700631829585
 30
0.0
 40
5.0
100
AcDbArc
 50
108.1301023541558
 51
181.8698976458435
  0
ARC
  5
1D5C
102
{ACAD_REACTORS
330
1D61
102
}
330
1E
100
AcDbEntity
  8
SCHRAFF
100
AcDbCircle
 10
234.2947412096572
 20
290.8252102183583
 30
0.0
 40
5.248224841195381
100
AcDbArc
 50
290.1366000119394
 51
359.8633999880614
  0
HATCH
  5
1D61
330
1E
100
AcDbEntity
  8
SCHRAFF
100
AcDbHatch
 10
0.0
 20
0.0
 30
0.0
210
0.0
220
0.0
230
1.0
  2
_USER
 70
     0
 71
     1
 91
        1
 92
        7
 72
     1
 73
     1
 93
        3
 10
239.5429511353312
 20
290.8126978325787
 42
0.0
 10
236.101492517225
 20
289.5601093331292
 42
0.0
 10
236.101492517225
 20
285.8977855668448
 42
0.3139887140253654
 97
        3
330
1933
330
1ACE
330
1D5C
 75
     0
 76
     0
 52
0.0
 41
0.1
 77
     0
 78
     1
 53
0.0
 43
0.0
 44
0.0
 45
0.0
 46
0.1
 79
     0
 47
0.094255861209094
 98
        1
 10
238.029216383738
 20
288.8445328047199
  0
DIMENSION
  5
1D62
330
1E
100
AcDbEntity
  8
BEM
100
AcDbDimension
  2
*D6
 10
185.301492517225
 20
195.1306522741826
 30
0.0
 11
308.2054741415677
 21
500.655728651657
 31
0.0
 70
    34
 71
     5
 42
1.221730476396029
  3
Standard
100
AcDb2LineAngularDimension
 13
359.1446273626181
 23
388.4043787894313
 33
0.0
 14
185.3014925172251
 24
325.1306522741824
 34
0.0
 15
185.3014925172251
 25
505.1339451785124
 35
0.0
 16
336.4326804568944
 26
467.7155742689818
 36
0.0
1001
ACAD
1000
DSTYLE
1002
{
1070
    40
1040
2.0
1070
    41
1040
3.5
1070
    42
1040
1.0
1070
    43
1040
7.0
1070
    44
1040
1.0
1070
    73
1070
     0
1070
    74
1070
     0
1070
    77
1070
     1
1070
    78
1070
     8
1070
    79
1070
     2
1070
   140
1040
3.5
1070
   141
1040
1.5
1070
   146
1040
0.5142857142857144
1070
   147
1040
1.5
1070
   172
1070
     1
1070
   178
1070
     1
1070
   179
1070
     2
1070
   271
1070
     2
1070
   272
1070
     2
1070
   284
1070
     8
1070
   285
1070
     8
1070
   286
1070
     8
1002
}
  0
ENDSEC
  0
SECTION
  2
OBJECTS
  0
DICTIONARY
  5
C
330
0
100
AcDbDictionary
281
     1
  3
ACAD_COLOR
350
1790
  3
ACAD_GROUP
350
D
  3
ACAD_LAYOUT
350
19
  3
ACAD_MATERIAL
350
178F
  3
ACAD_MLINESTYLE
350
16
  3
ACAD_PLOTSETTINGS
350
18
  3
ACAD_PLOTSTYLENAME
350
E
  3
AcDbVariableDictionary
350
246
  0
DICTIONARY
  5
1790
102
{ACAD_REACTORS
330
C
102
}
330
C
100
AcDbDictionary
281
     1
  0
DICTIONARY
  5
D
102
{ACAD_REACTORS
330
C
102
}
330
C
100
AcDbDictionary
281
     1
  0
DICTIONARY
  5
19
102
{ACAD_REACTORS
330
C
102
}
330
C
100
AcDbDictionary
281
     1
  3
Layout1
350
1D
  3
Model
350
21
  0
DICTIONARY
  5
178F
102
{ACAD_REACTORS
330
C
102
}
330
C
100
AcDbDictionary
281
     1
  0
DICTIONARY
  5
16
102
{ACAD_REACTORS
330
C
102
}
330
C
100
AcDbDictionary
281
     1
  3
Standard
350
17
  0
DICTIONARY
  5
18
102
{ACAD_REACTORS
330
C
102
}
330
C
100
AcDbDictionary
281
     1
  0
ACDBDICTIONARYWDFLT
  5
E
102
{ACAD_REACTORS
330
C
102
}
330
C
100
AcDbDictionary
281
     1
  3
Normal
350
F
100
AcDbDictionaryWithDefault
340
F
  0
DICTIONARY
  5
246
102
{ACAD_REACTORS
330
C
102
}
330
C
100
AcDbDictionary
281
     1
  3
DIMASSOC
350
1C0C
  3
PROJECTNAME
350
1C0D
  3
SORTENTS
350
247
  0
LAYOUT
  5
1D
102
{ACAD_REACTORS
330
19
102
}
330
19
100
AcDbPlotSettings
  1

  2
Tektronix Phaser 740
  4

  6

 40
0.0
 41
0.0
 42
0.0
 43
0.0
 44
0.0
 45
0.0
 46
0.0
 47
0.0
 48
0.0
 49
0.0
140
0.0
141
0.0
142
1.0
143
1.0
 70
   688
 72
     0
 73
     0
 74
     5
  7
monochrome.ctb
 75
    16
147
1.0
 76
     0
 77
     2
 78
   300
148
0.0
149
0.0
100
AcDbLayout
  1
Layout1
 70
     0
 71
     1
 10
0.0
 20
0.0
 11
12.0
 21
9.0
 12
0.0
 22
0.0
 32
0.0
 14
1.000000000000000E+20
 24
1.000000000000000E+20
 34
1.000000000000000E+20
 15
-1.000000000000000E+20
 25
-1.000000000000000E+20
 35
-1.000000000000000E+20
146
0.0
 13
0.0
 23
0.0
 33
0.0
 16
1.0
 26
0.0
 36
0.0
 17
0.0
 27
1.0
 37
0.0
 76
     0
330
1A
  0
LAYOUT
  5
21
102
{ACAD_REACTORS
330
19
102
}
330
19
100
AcDbPlotSettings
  1

  2
Tektronix Phaser 740
  4
A4
  6

 40
5.873749732971191
 41
6.085414409637451
 42
5.577407836914062
 43
5.662078857421875
 44
209.9733276367187
 45
296.9683227539062
 46
0.0
 47
0.0
 48
0.0
 49
0.0
140
0.0
141
0.0
142
1.0
143
1.0
 70
 11952
 72
     0
 73
     1
 74
     0
  7
monochrome.ctb
 75
     0
147
1.0
 76
     0
 77
     2
 78
   300
148
1150.120678237584
149
45.30495740799864
100
AcDbLayout
  1
Model
 70
     1
 71
     0
 10
0.0
 20
0.0
 11
12.0
 21
9.0
 12
0.0
 22
0.0
 32
0.0
 14
0.0
 24
0.0
 34
0.0
 15
0.0
 25
0.0
 35
0.0
146
0.0
 13
0.0
 23
0.0
 33
0.0
 16
1.0
 26
0.0
 36
0.0
 17
0.0
 27
1.0
 37
0.0
 76
     0
330
1E
  0
MLINESTYLE
  5
17
102
{ACAD_REACTORS
330
16
102
}
330
16
100
AcDbMlineStyle
  2
STANDARD
 70
     0
  3

 62
   256
 51
90.0
 52
90.0
 71
     2
 49
0.5
 62
   256
  6
BYLAYER
 49
-0.5
 62
   256
  6
BYLAYER
  0
ACDBPLACEHOLDER
  5
F
102
{ACAD_REACTORS
330
E
102
}
330
E
  0
DICTIONARYVAR
  5
1C0C
102
{ACAD_REACTORS
330
246
102
}
330
246
100
DictionaryVariables
280
     0
  1
1
  0
DICTIONARYVAR
  5
1C0D
102
{ACAD_REACTORS
330
246
102
}
330
246
100
DictionaryVariables
280
     0
  1

  0
DICTIONARYVAR
  5
247
102
{ACAD_REACTORS
330
246
102
}
330
246
100
DictionaryVariables
280
     0
  1
96
  0
ENDSEC
  0
EOF
