  0
SECTION
  2
HEADER
  9
$ACADVER
  1
AC1018
  9
$ACADMAINTVER
 70
     2
  9
$DWGCODEPAGE
  3
ANSI_1252
  9
$INSBASE
 10
0.0
 20
0.0
 30
0.0
  9
$EXTMIN
 10
-0.012813617635004
 20
-0.0181221163699092
 30
-0.0000000000000023
  9
$EXTMAX
 10
210.0128202187944
 20
297.0181314522945
 30
0.0000000000000129
  9
$LIMMIN
 10
0.0
 20
0.0
  9
$LIMMAX
 10
210.0
 20
297.0
  9
$ORTHOMODE
 70
     1
  9
$REGENMODE
 70
     1
  9
$FILLMODE
 70
     1
  9
$QTEXTMODE
 70
     0
  9
$MIRRTEXT
 70
     1
  9
$LTSCALE
 40
10.0
  9
$ATTMODE
 70
     1
  9
$TEXTSIZE
 40
3.5
  9
$TRACEWID
 40
0.5
  9
$TEXTSTYLE
  7
STANDARD
  9
$CLAYER
  8
SCHRAFF
  9
$CELTYPE
  6
ByLayer
  9
$CECOLOR
 62
   256
  9
$CELTSCALE
 40
1.0
  9
$DISPSILH
 70
     0
  9
$DIMSCALE
 40
1.0
  9
$DIMASZ
 40
3.5
  9
$DIMEXO
 40
1.0
  9
$DIMDLI
 40
7.0
  9
$DIMRND
 40
0.0
  9
$DIMDLE
 40
0.0
  9
$DIMEXE
 40
1.0
  9
$DIMTP
 40
0.0
  9
$DIMTM
 40
0.0
  9
$DIMTXT
 40
3.5
  9
$DIMCEN
 40
1.5
  9
$DIMTSZ
 40
0.0
  9
$DIMTOL
 70
     0
  9
$DIMLIM
 70
     0
  9
$DIMTIH
 70
     0
  9
$DIMTOH
 70
     0
  9
$DIMSE1
 70
     0
  9
$DIMSE2
 70
     0
  9
$DIMTAD
 70
     1
  9
$DIMZIN
 70
     8
  9
$DIMBLK
  1

  9
$DIMASO
 70
     1
  9
$DIMSHO
 70
     0
  9
$DIMPOST
  1

  9
$DIMAPOST
  1

  9
$DIMALT
 70
     0
  9
$DIMALTD
 70
     2
  9
$DIMALTF
 40
25.4
  9
$DIMLFAC
 40
1.0
  9
$DIMTOFL
 70
     1
  9
$DIMTVP
 40
0.0
  9
$DIMTIX
 70
     0
  9
$DIMSOXD
 70
     0
  9
$DIMSAH
 70
     0
  9
$DIMBLK1
  1

  9
$DIMBLK2
  1

  9
$DIMSTYLE
  2
Standard
  9
$DIMCLRD
 70
     0
  9
$DIMCLRE
 70
     0
  9
$DIMCLRT
 70
     1
  9
$DIMTFAC
 40
0.5142857142857144
  9
$DIMGAP
 40
1.5
  9
$DIMJUST
 70
     0
  9
$DIMSD1
 70
     0
  9
$DIMSD2
 70
     0
  9
$DIMTOLJ
 70
     1
  9
$DIMTZIN
 70
     8
  9
$DIMALTZ
 70
     8
  9
$DIMALTTZ
 70
     8
  9
$DIMUPT
 70
     0
  9
$DIMDEC
 70
     2
  9
$DIMTDEC
 70
     2
  9
$DIMALTU
 70
     2
  9
$DIMALTTD
 70
     2
  9
$DIMTXSTY
  7
STANDARD
  9
$DIMAUNIT
 70
     0
  9
$DIMADEC
 70
     2
  9
$DIMALTRND
 40
0.0
  9
$DIMAZIN
 70
     2
  9
$DIMDSEP
 70
    46
  9
$DIMATFIT
 70
     3
  9
$DIMFRAC
 70
     0
  9
$DIMLDRBLK
  1

  9
$DIMLUNIT
 70
     2
  9
$DIMLWD
 70
    -2
  9
$DIMLWE
 70
    -2
  9
$DIMTMOVE
 70
     0
  9
$LUNITS
 70
     2
  9
$LUPREC
 70
     2
  9
$SKETCHINC
 40
1.0
  9
$FILLETRAD
 40
0.0
  9
$AUNITS
 70
     1
  9
$AUPREC
 70
     3
  9
$MENU
  1
ACAD
  9
$ELEVATION
 40
0.0
  9
$PELEVATION
 40
0.0
  9
$THICKNESS
 40
0.0
  9
$LIMCHECK
 70
     0
  9
$CHAMFERA
 40
0.0
  9
$CHAMFERB
 40
0.0
  9
$CHAMFERC
 40
0.0
  9
$CHAMFERD
 40
0.0
  9
$SKPOLY
 70
     0
  9
$TDCREATE
 40
2452040.637099653
  9
$TDUCREATE
 40
2452040.553766320
  9
$TDUPDATE
 40
2455659.603315521
  9
$TDUUPDATE
 40
2455659.519982188
  9
$TDINDWG
 40
0.3766166667
  9
$TDUSRTIMER
 40
0.3766166667
  9
$USRTIMER
 70
     1
  9
$ANGBASE
 50
0.0
  9
$ANGDIR
 70
     0
  9
$PDMODE
 70
     0
  9
$PDSIZE
 40
0.0
  9
$PLINEWID
 40
0.0
  9
$SPLFRAME
 70
     0
  9
$SPLINETYPE
 70
     6
  9
$SPLINESEGS
 70
     8
  9
$HANDSEED
  5
498
  9
$SURFTAB1
 70
     6
  9
$SURFTAB2
 70
     6
  9
$SURFTYPE
 70
     6
  9
$SURFU
 70
     6
  9
$SURFV
 70
     6
  9
$UCSBASE
  2

  9
$UCSNAME
  2

  9
$UCSORG
 10
0.0
 20
0.0
 30
0.0
  9
$UCSXDIR
 10
1.0
 20
0.0
 30
0.0
  9
$UCSYDIR
 10
0.0
 20
1.0
 30
0.0
  9
$UCSORTHOREF
  2

  9
$UCSORTHOVIEW
 70
     0
  9
$UCSORGTOP
 10
0.0
 20
0.0
 30
0.0
  9
$UCSORGBOTTOM
 10
0.0
 20
0.0
 30
0.0
  9
$UCSORGLEFT
 10
0.0
 20
0.0
 30
0.0
  9
$UCSORGRIGHT
 10
0.0
 20
0.0
 30
0.0
  9
$UCSORGFRONT
 10
0.0
 20
0.0
 30
0.0
  9
$UCSORGBACK
 10
0.0
 20
0.0
 30
0.0
  9
$PUCSBASE
  2

  9
$PUCSNAME
  2

  9
$PUCSORG
 10
0.0
 20
0.0
 30
0.0
  9
$PUCSXDIR
 10
1.0
 20
0.0
 30
0.0
  9
$PUCSYDIR
 10
0.0
 20
1.0
 30
0.0
  9
$PUCSORTHOREF
  2

  9
$PUCSORTHOVIEW
 70
     0
  9
$PUCSORGTOP
 10
0.0
 20
0.0
 30
0.0
  9
$PUCSORGBOTTOM
 10
0.0
 20
0.0
 30
0.0
  9
$PUCSORGLEFT
 10
0.0
 20
0.0
 30
0.0
  9
$PUCSORGRIGHT
 10
0.0
 20
0.0
 30
0.0
  9
$PUCSORGFRONT
 10
0.0
 20
0.0
 30
0.0
  9
$PUCSORGBACK
 10
0.0
 20
0.0
 30
0.0
  9
$USERI1
 70
     0
  9
$USERI2
 70
     0
  9
$USERI3
 70
     0
  9
$USERI4
 70
     0
  9
$USERI5
 70
     0
  9
$USERR1
 40
0.0
  9
$USERR2
 40
0.0
  9
$USERR3
 40
0.0
  9
$USERR4
 40
0.0
  9
$USERR5
 40
0.0
  9
$WORLDVIEW
 70
     1
  9
$SHADEDGE
 70
     3
  9
$SHADEDIF
 70
    70
  9
$TILEMODE
 70
     1
  9
$MAXACTVP
 70
    16
  9
$PINSBASE
 10
0.0
 20
0.0
 30
0.0
  9
$PLIMCHECK
 70
     0
  9
$PEXTMIN
 10
1.000000000000000E+20
 20
1.000000000000000E+20
 30
1.000000000000000E+20
  9
$PEXTMAX
 10
-1.000000000000000E+20
 20
-1.000000000000000E+20
 30
-1.000000000000000E+20
  9
$PLIMMIN
 10
0.0
 20
0.0
  9
$PLIMMAX
 10
12.0
 20
9.0
  9
$UNITMODE
 70
     0
  9
$VISRETAIN
 70
     0
  9
$PLINEGEN
 70
     0
  9
$PSLTSCALE
 70
     0
  9
$TREEDEPTH
 70
  3020
  9
$CMLSTYLE
  2
Standard
  9
$CMLJUST
 70
     0
  9
$CMLSCALE
 40
1.0
  9
$PROXYGRAPHICS
 70
     1
  9
$MEASUREMENT
 70
     0
  9
$CELWEIGHT
370
    -1
  9
$ENDCAPS
280
     0
  9
$JOINSTYLE
280
     0
  9
$LWDISPLAY
290
     0
  9
$INSUNITS
 70
     0
  9
$HYPERLINKBASE
  1

  9
$STYLESHEET
  1
monochrome 1.ctb
  9
$XEDIT
290
     1
  9
$CEPSNTYPE
380
     0
  9
$PSTYLEMODE
290
     1
  9
$FINGERPRINTGUID
  2
{7AADB5C8-6110-11D8-B72B-000102183313}
  9
$VERSIONGUID
  2
{FEFB3C6A-D87B-4571-B7D8-A90B9CF24A9C}
  9
$EXTNAMES
290
     1
  9
$PSVPSCALE
 40
0.0
  9
$OLESTARTUP
290
     0
  9
$SORTENTS
280
    96
  9
$INDEXCTL
280
     0
  9
$HIDETEXT
280
     0
  9
$XCLIPFRAME
290
     0
  9
$HALOGAP
280
     0
  9
$OBSCOLOR
 70
   257
  9
$OBSLTYPE
280
     0
  9
$INTERSECTIONDISPLAY
280
     0
  9
$INTERSECTIONCOLOR
 70
   257
  9
$DIMASSOC
280
     1
  9
$PROJECTNAME
  1

  0
ENDSEC
  0
SECTION
  2
CLASSES
  0
CLASS
  1
ACDBDICTIONARYWDFLT
  2
AcDbDictionaryWithDefault
  3
ObjectDBX Classes
 90
        0
 91
        1
280
     0
281
     0
  0
CLASS
  1
DICTIONARYVAR
  2
AcDbDictionaryVar
  3
ObjectDBX Classes
 90
        0
 91
        3
280
     0
281
     0
  0
ENDSEC
  0
SECTION
  2
TABLES
  0
TABLE
  2
VPORT
  5
8
330
0
100
AcDbSymbolTable
 70
     3
  0
VPORT
  5
497
330
8
100
AcDbSymbolTableRecord
100
AcDbViewportTableRecord
  2
*Active
 70
     0
 10
0.0
 20
0.0
 11
1.0
 21
1.0
 12
105.0
 22
148.5
 13
0.0
 23
0.0
 14
1.0
 24
1.0
 15
10.0
 25
10.0
 16
0.0
 26
0.0
 36
1.0
 17
0.0
 27
0.0
 37
0.0
 40
297.0
 41
1.334231805929919
 42
50.0
 43
0.0
 44
0.0
 50
0.0
 51
0.0
 71
     0
 72
  1500
 73
     1
 74
     0
 75
     0
 76
     0
 77
     0
 78
     0
281
     0
 65
     1
110
0.0
120
0.0
130
0.0
111
1.0
121
0.0
131
0.0
112
0.0
122
1.0
132
0.0
 79
     0
146
0.0
  0
ENDTAB
  0
TABLE
  2
LTYPE
  5
5
330
0
100
AcDbSymbolTable
 70
     2
  0
LTYPE
  5
13
330
5
100
AcDbSymbolTableRecord
100
AcDbLinetypeTableRecord
  2
ByBlock
 70
     0
  3

 72
    65
 73
     0
 40
0.0
  0
LTYPE
  5
14
330
5
100
AcDbSymbolTableRecord
100
AcDbLinetypeTableRecord
  2
ByLayer
 70
     0
  3

 72
    65
 73
     0
 40
0.0
  0
LTYPE
  5
15
330
5
100
AcDbSymbolTableRecord
100
AcDbLinetypeTableRecord
  2
Continuous
 70
     0
  3
Solid line
 72
    65
 73
     0
 40
0.0
  0
LTYPE
  5
35
330
5
100
AcDbSymbolTableRecord
100
AcDbLinetypeTableRecord
  2
STRICHPUNKT
 70
     0
  3
__ . __ . __ . __ . __ . __ . __ . __ . __ . __
 72
    65
 73
     4
 40
1.0
 49
0.5
 74
     0
 49
-0.25
 74
     0
 49
0.0
 74
     0
 49
-0.25
 74
     0
  0
ENDTAB
  0
TABLE
  2
LAYER
  5
2
330
0
100
AcDbSymbolTable
 70
     9
  0
LAYER
  5
10
330
2
100
AcDbSymbolTableRecord
100
AcDbLayerTableRecord
  2
0
 70
     0
 62
     7
  6
Continuous
370
    -3
390
F
  0
LAYER
  5
38
330
2
100
AcDbSymbolTableRecord
100
AcDbLayerTableRecord
  2
VOLL
 70
     0
 62
     1
  6
Continuous
370
    -3
390
F
  0
LAYER
  5
39
330
2
100
AcDbSymbolTableRecord
100
AcDbLayerTableRecord
  2
HILF
 70
     0
 62
     2
  6
Continuous
370
    -3
390
F
  0
LAYER
  5
3A
330
2
100
AcDbSymbolTableRecord
100
AcDbLayerTableRecord
  2
MITTEL
 70
     0
 62
     2
  6
STRICHPUNKT
370
    -3
390
F
  0
LAYER
  5
3B
330
2
100
AcDbSymbolTableRecord
100
AcDbLayerTableRecord
  2
BEM
 70
     0
 62
     7
  6
Continuous
370
    -3
390
F
  0
LAYER
  5
3C
330
2
100
AcDbSymbolTableRecord
100
AcDbLayerTableRecord
  2
STEMPEL
 70
     0
 62
     3
  6
Continuous
370
    -3
390
F
  0
LAYER
  5
3D
330
2
100
AcDbSymbolTableRecord
100
AcDbLayerTableRecord
  2
TEXT
 70
     0
 62
     7
  6
Continuous
370
    -3
390
F
  0
LAYER
  5
3E
330
2
100
AcDbSymbolTableRecord
100
AcDbLayerTableRecord
  2
DEFPOINTS
 70
     0
 62
     7
  6
Continuous
290
     0
370
    -3
390
F
  0
LAYER
  5
3F
330
2
100
AcDbSymbolTableRecord
100
AcDbLayerTableRecord
  2
SCHRAFF
 70
     0
 62
     7
  6
Continuous
370
    -3
390
F
  0
ENDTAB
  0
TABLE
  2
STYLE
  5
3
330
0
100
AcDbSymbolTable
 70
     2
  0
STYLE
  5
11
330
3
100
AcDbSymbolTableRecord
100
AcDbTextStyleTableRecord
  2
STANDARD
 70
     0
 40
0.0
 41
0.8
 50
0.0
 71
     0
 42
3.5
  3
simplex.shx
  4

  0
STYLE
  5
34
330
3
100
AcDbSymbolTableRecord
100
AcDbTextStyleTableRecord
  2
GREEKS
 70
     0
 40
0.0
 41
0.8
 50
0.0
 71
     0
 42
2.5
  3
SIMPLEX.shx
  4

  0
ENDTAB
  0
TABLE
  2
VIEW
  5
6
330
0
100
AcDbSymbolTable
 70
     0
  0
ENDTAB
  0
TABLE
  2
UCS
  5
7
330
0
100
AcDbSymbolTable
 70
     0
  0
ENDTAB
  0
TABLE
  2
APPID
  5
9
330
0
100
AcDbSymbolTable
 70
     1
  0
APPID
  5
12
330
9
100
AcDbSymbolTableRecord
100
AcDbRegAppTableRecord
  2
ACAD
 70
     0
  0
ENDTAB
  0
TABLE
  2
DIMSTYLE
  5
A
330
0
100
AcDbSymbolTable
 70
     1
100
AcDbDimStyleTable
 71
     1
340
1CB
  0
DIMSTYLE
105
1CB
102
{ACAD_REACTORS
330
1DB
330
1E8
330
300
330
3CF
330
477
102
}
330
A
100
AcDbSymbolTableRecord
100
AcDbDimStyleTableRecord
  2
Standard
 70
     0
340
11
  0
ENDTAB
  0
TABLE
  2
BLOCK_RECORD
  5
1
330
0
100
AcDbSymbolTable
 70
     9
  0
BLOCK_RECORD
  5
1E
330
1
100
AcDbSymbolTableRecord
100
AcDbBlockTableRecord
  2
*Model_Space
340
21
  0
BLOCK_RECORD
  5
1A
330
1
100
AcDbSymbolTableRecord
100
AcDbBlockTableRecord
  2
*Paper_Space
340
1D
  0
BLOCK_RECORD
  5
22
330
1
100
AcDbSymbolTableRecord
100
AcDbBlockTableRecord
  2
LOGO
340
0
102
{BLKREFS
331
135
102
}
  0
BLOCK_RECORD
  5
1DC
330
1
100
AcDbSymbolTableRecord
100
AcDbBlockTableRecord
  2
*D1
340
0
  0
BLOCK_RECORD
  5
1E9
330
1
100
AcDbSymbolTableRecord
100
AcDbBlockTableRecord
  2
*D2
340
0
  0
BLOCK_RECORD
  5
301
330
1
100
AcDbSymbolTableRecord
100
AcDbBlockTableRecord
  2
*D4
340
0
  0
BLOCK_RECORD
  5
3D0
330
1
100
AcDbSymbolTableRecord
100
AcDbBlockTableRecord
  2
*D6
340
0
  0
BLOCK_RECORD
  5
478
330
1
100
AcDbSymbolTableRecord
100
AcDbBlockTableRecord
  2
*D8
340
0
  0
ENDTAB
  0
ENDSEC
  0
SECTION
  2
BLOCKS
  0
BLOCK
  5
43
330
1E
100
AcDbEntity
  8
0
100
AcDbBlockBegin
  2
*Model_Space
 70
     0
 10
0.0
 20
0.0
 30
0.0
  3
*Model_Space
  1

  0
ENDBLK
  5
44
330
1E
100
AcDbEntity
  8
0
100
AcDbBlockEnd
  0
BLOCK
  5
41
330
1A
100
AcDbEntity
 67
     1
  8
0
100
AcDbBlockBegin
  2
*Paper_Space
 70
     0
 10
0.0
 20
0.0
 30
0.0
  3
*Paper_Space
  1

  0
ENDBLK
  5
42
330
1A
100
AcDbEntity
 67
     1
  8
0
100
AcDbBlockEnd
  0
BLOCK
  5
45
330
22
100
AcDbEntity
  8
0
100
AcDbBlockBegin
  2
LOGO
 70
     0
 10
0.0
 20
0.0
 30
0.0
  3
LOGO
  1

  0
ARC
  5
46
330
22
100
AcDbEntity
  8
0
100
AcDbCircle
 10
11.59973089678112
 20
-9.271599258481501
 30
0.0
 40
4.5
100
AcDbArc
 50
270.0
 51
231.0575587310159
  0
LINE
  5
47
330
22
100
AcDbEntity
  8
0
100
AcDbLine
 10
3.599730896781125
 20
-4.771599258481529
 30
0.0
 11
3.599730896781153
 21
-11.77159925848133
 31
0.0
  0
LINE
  5
48
330
22
100
AcDbEntity
  8
0
100
AcDbLine
 10
2.599730896781125
 20
-4.771599258481529
 30
0.0
 11
2.599730896781153
 21
-11.77159925848133
 31
0.0
  0
CIRCLE
  5
49
330
22
100
AcDbEntity
  8
0
100
AcDbCircle
 10
11.59973089678112
 20
-9.271599258481501
 30
0.0
 40
3.5
  0
ARC
  5
4A
330
22
100
AcDbEntity
  8
0
100
AcDbCircle
 10
31.59973089678115
 20
-9.271599258481472
 30
0.0
 40
4.5
100
AcDbArc
 50
270.0
 51
231.0575587310182
  0
LINE
  5
4B
330
22
100
AcDbEntity
  8
0
100
AcDbLine
 10
17.59973089678112
 20
-4.771599258481472
 30
0.0
 11
17.59973089678115
 21
-13.77159925848147
 31
0.0
  0
ARC
  5
4C
330
22
100
AcDbEntity
  8
0
100
AcDbCircle
 10
22.59973089678116
 20
-7.271599258481472
 30
0.0
 40
2.5
100
AcDbArc
 50
293.1161887722295
 51
90.0
  0
CIRCLE
  5
4D
330
22
100
AcDbEntity
  8
0
100
AcDbCircle
 10
31.59973089678115
 20
-9.271599258481472
 30
0.0
 40
3.5
  0
ARC
  5
4E
330
22
100
AcDbEntity
  8
0
100
AcDbCircle
 10
4.599730896781153
 20
-11.77159925848133
 30
0.0
 40
1.0
100
AcDbArc
 50
180.0
 51
270.0
  0
ARC
  5
4F
330
22
100
AcDbEntity
  8
0
100
AcDbCircle
 10
4.599730896781153
 20
-11.77159925848133
 30
0.0
 40
2.0
100
AcDbArc
 50
179.9999999999992
 51
270.0
  0
LINE
  5
50
330
22
100
AcDbEntity
  8
0
100
AcDbLine
 10
11.59973089678115
 20
-13.77159925848144
 30
0.0
 11
4.599730896781153
 21
-13.77159925848147
 31
0.0
  0
LINE
  5
51
330
22
100
AcDbEntity
  8
0
100
AcDbLine
 10
8.771303772034769
 20
-12.77159925848136
 30
0.0
 11
4.599730896781153
 21
-12.77159925848133
 31
0.0
  0
LINE
  5
52
330
22
100
AcDbEntity
  8
0
100
AcDbLine
 10
31.59973089678115
 20
-13.77159925848147
 30
0.0
 11
23.6715276665056
 21
-13.77159925848144
 31
0.0
  0
LINE
  5
53
330
22
100
AcDbEntity
  8
0
100
AcDbLine
 10
23.56565672307022
 20
-9.51278021337896
 30
0.0
 11
24.4388546544846
 21
-12.77159925848144
 31
0.0
  0
LINE
  5
54
330
22
100
AcDbEntity
  8
0
100
AcDbLine
 10
22.59973089678116
 20
-9.771599258481472
 30
0.0
 11
18.59973089678112
 21
-9.771599258481472
 31
0.0
  0
LINE
  5
55
330
22
100
AcDbEntity
  8
0
100
AcDbLine
 10
18.59973089678115
 20
-13.77159925848144
 30
0.0
 11
17.59973089678115
 21
-13.77159925848144
 31
0.0
  0
LINE
  5
56
330
22
100
AcDbEntity
  8
0
100
AcDbLine
 10
18.59973089678115
 20
-9.771599258481472
 30
0.0
 11
18.59973089678115
 21
-13.77159925848144
 31
0.0
  0
LINE
  5
57
330
22
100
AcDbEntity
  8
0
100
AcDbLine
 10
22.59973089678116
 20
-9.771599258481472
 30
0.0
 11
23.67152766650562
 21
-13.77159925848147
 31
0.0
  0
ARC
  5
58
330
22
100
AcDbEntity
  8
0
100
AcDbCircle
 10
22.59973089678116
 20
-7.271599258481472
 30
0.0
 40
2.5
100
AcDbArc
 50
270.0
 51
270.0000000000007
  0
LINE
  5
59
330
22
100
AcDbEntity
  8
0
100
AcDbLine
 10
28.77130377203494
 20
-12.77159925848147
 30
0.0
 11
24.43885465448463
 21
-12.77159925848144
 31
0.0
  0
LINE
  5
5A
330
22
100
AcDbEntity
  8
0
100
AcDbLine
 10
3.599730896781125
 20
-4.771599258481472
 30
0.0
 11
2.599730896781125
 21
-4.771599258481472
 31
0.0
  0
LINE
  5
5B
330
22
100
AcDbEntity
  8
0
100
AcDbLine
 10
22.59973089678116
 20
-8.771599258481472
 30
0.0
 11
18.59973089678115
 21
-8.771599258481472
 31
0.0
  0
LINE
  5
5C
330
22
100
AcDbEntity
  8
0
100
AcDbLine
 10
22.59973089678116
 20
-5.771599258481472
 30
0.0
 11
18.59973089678115
 21
-5.771599258481472
 31
0.0
  0
LINE
  5
5D
330
22
100
AcDbEntity
  8
0
100
AcDbLine
 10
22.59973089678116
 20
-4.771599258481472
 30
0.0
 11
17.59973089678115
 21
-4.771599258481472
 31
0.0
  0
LINE
  5
5E
330
22
100
AcDbEntity
  8
0
100
AcDbLine
 10
18.59973089678115
 20
-5.771599258481472
 30
0.0
 11
18.59973089678115
 21
-8.771599258481472
 31
0.0
  0
ARC
  5
5F
330
22
100
AcDbEntity
  8
0
100
AcDbCircle
 10
22.59973089678116
 20
-7.271599258481472
 30
0.0
 40
1.5
100
AcDbArc
 50
270.0
 51
90.0
  0
ENDBLK
  5
60
330
22
100
AcDbEntity
  8
0
100
AcDbBlockEnd
  0
BLOCK
  5
1E6
330
1DC
100
AcDbEntity
  8
0
100
AcDbBlockBegin
  2
*D1
 70
     1
 10
0.0
 20
0.0
 30
0.0
  3
*D1
  1

  0
LINE
  5
428
330
1DC
100
AcDbEntity
  8
BEM
 62
     0
370
    -2
100
AcDbLine
 10
83.10147126899925
 20
113.7352526708597
 30
0.0
 11
66.45851817507102
 21
113.7352526708597
 31
0.0
  0
LINE
  5
429
330
1DC
100
AcDbEntity
  8
BEM
 62
     0
370
    -2
100
AcDbLine
 10
80.1609460848592
 20
253.7318991230246
 30
0.0
 11
66.45851817507105
 21
253.7318991230246
 31
0.0
  0
LINE
  5
42A
330
1DC
100
AcDbEntity
  8
BEM
 62
     0
370
    -2
100
AcDbLine
 10
67.45851817507102
 20
117.2352526708597
 30
0.0
 11
67.45851817507105
 21
250.2318991230246
 31
0.0
  0
SOLID
  5
42B
330
1DC
100
AcDbEntity
  8
BEM
 62
     0
100
AcDbTrace
 10
66.87518484173769
 20
117.2352526708597
 30
0.0
 11
68.04185150840435
 21
117.2352526708597
 31
0.0
 12
67.45851817507102
 22
113.7352526708597
 32
0.0
 13
67.45851817507102
 23
113.7352526708597
 33
0.0
  0
SOLID
  5
42C
330
1DC
100
AcDbEntity
  8
BEM
 62
     0
100
AcDbTrace
 10
66.87518484173772
 20
250.2318991230246
 30
0.0
 11
68.04185150840438
 21
250.2318991230246
 31
0.0
 12
67.45851817507105
 22
253.7318991230246
 32
0.0
 13
67.45851817507105
 23
253.7318991230246
 33
0.0
  0
MTEXT
  5
42D
330
1DC
100
AcDbEntity
  8
BEM
 62
     1
100
AcDbMText
 10
64.208518175071
 20
183.7335758969422
 30
0.0
 40
3.5
 41
0.0
 71
     5
 72
     1
  1
\A1;140
 11
0.0000000000000001
 21
1.0
 31
0.0
 73
     1
 44
1.0
  0
POINT
  5
42E
330
1DC
100
AcDbEntity
  8
DEFPOINTS
 62
     0
100
AcDbPoint
 10
84.10147126899925
 20
113.7352526708597
 30
0.0
  0
POINT
  5
42F
330
1DC
100
AcDbEntity
  8
DEFPOINTS
 62
     0
100
AcDbPoint
 10
81.16094608485919
 20
253.7318991230246
 30
0.0
  0
POINT
  5
430
330
1DC
100
AcDbEntity
  8
DEFPOINTS
 62
     0
100
AcDbPoint
 10
67.45851817507105
 20
253.7318991230246
 30
0.0
  0
ENDBLK
  5
1E7
330
1DC
100
AcDbEntity
  8
0
100
AcDbBlockEnd
  0
BLOCK
  5
1F3
330
1E9
100
AcDbEntity
  8
0
100
AcDbBlockBegin
  2
*D2
 70
     1
 10
0.0
 20
0.0
 30
0.0
  3
*D2
  1

  0
LINE
  5
369
330
1E9
100
AcDbEntity
  8
BEM
 62
     0
370
    -2
100
AcDbLine
 10
83.66402795136963
 20
117.7352526708597
 30
0.0
 11
83.66402795136963
 21
99.67328117952551
 31
0.0
  0
LINE
  5
36A
330
1E9
100
AcDbEntity
  8
BEM
 62
     0
370
    -2
100
AcDbLine
 10
125.6640279513694
 20
117.7352526708597
 30
0.0
 11
125.6640279513694
 21
99.67328117952551
 31
0.0
  0
LINE
  5
36B
330
1E9
100
AcDbEntity
  8
BEM
 62
     0
370
    -2
100
AcDbLine
 10
87.16402795136962
 20
100.6732811795255
 30
0.0
 11
122.1640279513694
 21
100.6732811795255
 31
0.0
  0
SOLID
  5
36C
330
1E9
100
AcDbEntity
  8
BEM
 62
     0
100
AcDbTrace
 10
87.16402795136962
 20
101.2566145128588
 30
0.0
 11
87.16402795136962
 21
100.0899478461922
 31
0.0
 12
83.66402795136963
 22
100.6732811795255
 32
0.0
 13
83.66402795136963
 23
100.6732811795255
 33
0.0
  0
SOLID
  5
36D
330
1E9
100
AcDbEntity
  8
BEM
 62
     0
100
AcDbTrace
 10
122.1640279513694
 20
101.2566145128588
 30
0.0
 11
122.1640279513694
 21
100.0899478461922
 31
0.0
 12
125.6640279513694
 22
100.6732811795255
 32
0.0
 13
125.6640279513694
 23
100.6732811795255
 33
0.0
  0
MTEXT
  5
36E
330
1E9
100
AcDbEntity
  8
BEM
 62
     1
100
AcDbMText
 10
104.6640279513695
 20
103.9232811795255
 30
0.0
 40
3.5
 41
0.0
 71
     5
 72
     1
  1
\A1;%%c42
 73
     1
 44
1.0
  0
POINT
  5
36F
330
1E9
100
AcDbEntity
  8
DEFPOINTS
 62
     0
100
AcDbPoint
 10
83.66402795136963
 20
118.7352526708597
 30
0.0
  0
POINT
  5
370
330
1E9
100
AcDbEntity
  8
DEFPOINTS
 62
     0
100
AcDbPoint
 10
125.6640279513694
 20
118.7352526708597
 30
0.0
  0
POINT
  5
371
330
1E9
100
AcDbEntity
  8
DEFPOINTS
 62
     0
100
AcDbPoint
 10
125.6640279513694
 20
100.6732811795255
 30
0.0
  0
ENDBLK
  5
1F4
330
1E9
100
AcDbEntity
  8
0
100
AcDbBlockEnd
  0
BLOCK
  5
30B
330
301
100
AcDbEntity
  8
0
100
AcDbBlockBegin
  2
*D4
 70
     1
 10
0.0
 20
0.0
 30
0.0
  3
*D4
  1

  0
LINE
  5
37B
330
301
100
AcDbEntity
  8
BEM
 62
     0
370
    -2
100
AcDbLine
 10
83.10147126899925
 20
113.7352526708597
 30
0.0
 11
73.40308383705131
 21
113.7352526708597
 31
0.0
  0
LINE
  5
37C
330
301
100
AcDbEntity
  8
BEM
 62
     0
370
    -2
100
AcDbLine
 10
103.6640279513694
 20
183.7352526708597
 30
0.0
 11
73.40308383705132
 21
183.7352526708597
 31
0.0
  0
LINE
  5
37D
330
301
100
AcDbEntity
  8
BEM
 62
     0
370
    -2
100
AcDbLine
 10
74.40308383705131
 20
117.2352526708597
 30
0.0
 11
74.40308383705133
 21
180.2352526708597
 31
0.0
  0
SOLID
  5
37E
330
301
100
AcDbEntity
  8
BEM
 62
     0
100
AcDbTrace
 10
73.81975050371798
 20
117.2352526708597
 30
0.0
 11
74.98641717038464
 21
117.2352526708597
 31
0.0
 12
74.40308383705131
 22
113.7352526708597
 32
0.0
 13
74.40308383705131
 23
113.7352526708597
 33
0.0
  0
SOLID
  5
37F
330
301
100
AcDbEntity
  8
BEM
 62
     0
100
AcDbTrace
 10
73.81975050371799
 20
180.2352526708597
 30
0.0
 11
74.98641717038466
 21
180.2352526708597
 31
0.0
 12
74.40308383705133
 22
183.7352526708597
 32
0.0
 13
74.40308383705133
 23
183.7352526708597
 33
0.0
  0
MTEXT
  5
380
330
301
100
AcDbEntity
  8
BEM
 62
     1
100
AcDbMText
 10
71.1530838370513
 20
148.7352526708597
 30
0.0
 40
3.5
 41
0.0
 71
     5
 72
     1
  1
\A1;70
 11
0.0000000000000001
 21
1.0
 31
0.0
 73
     1
 44
1.0
  0
POINT
  5
381
330
301
100
AcDbEntity
  8
DEFPOINTS
 62
     0
100
AcDbPoint
 10
84.10147126899925
 20
113.7352526708597
 30
0.0
  0
POINT
  5
382
330
301
100
AcDbEntity
  8
DEFPOINTS
 62
     0
100
AcDbPoint
 10
104.6640279513694
 20
183.7352526708597
 30
0.0
  0
POINT
  5
383
330
301
100
AcDbEntity
  8
DEFPOINTS
 62
     0
100
AcDbPoint
 10
74.40308383705133
 20
183.7352526708597
 30
0.0
  0
ENDBLK
  5
30C
330
301
100
AcDbEntity
  8
0
100
AcDbBlockEnd
  0
BLOCK
  5
3DC
330
3D0
100
AcDbEntity
  8
0
100
AcDbBlockBegin
  2
*D6
 70
     1
 10
0.0
 20
0.0
 30
0.0
  3
*D6
  1

  0
LINE
  5
3DE
330
3D0
100
AcDbEntity
  8
BEM
 62
     0
370
    -2
100
AcDbLine
 10
180.559872592717
 20
187.7127853453234
 30
0.0
 11
186.4122085691209
 21
188.019493277465
 31
0.0
  0
LINE
  5
3DF
330
3D0
100
AcDbEntity
  8
BEM
 62
     0
370
    -2
100
AcDbLine
 10
104.6640279513694
 20
259.7318991230246
 30
0.0
 11
104.6640279513694
 21
265.5956200771194
 31
0.0
  0
ARC
  5
3E0
330
3D0
100
AcDbEntity
  8
BEM
 62
     0
370
    -2
100
AcDbCircle
 10
104.6640279513694
 20
183.7352526708597
 30
0.0
 40
80.86036740625962
100
AcDbArc
 50
5.480212404494809
 51
87.51978759550523
  0
SOLID
  5
3E1
330
3D0
100
AcDbEntity
  8
BEM
 62
     0
100
AcDbTrace
 10
185.7365387692201
 20
191.5007072058905
 30
0.0
 11
184.5730653074436
 21
191.4144482072124
 31
0.0
 12
185.4135790343664
 22
187.9671573212221
 32
0.0
 13
185.4135790343664
 23
187.9671573212221
 33
0.0
  0
SOLID
  5
3E2
330
3D0
100
AcDbEntity
  8
BEM
 62
     0
100
AcDbTrace
 10
108.1505835346435
 20
263.9366755100135
 30
0.0
 11
108.1758328221765
 21
265.103068919027
 31
0.0
 12
104.6640279513694
 22
264.5956200771193
 32
0.0
 13
104.6640279513694
 23
264.5956200771193
 33
0.0
  0
MTEXT
  5
3E3
330
3D0
100
AcDbEntity
  8
BEM
 62
     1
100
AcDbMText
 10
162.561784218751
 20
244.7467575237877
 30
0.0
 40
3.5
 41
0.0
 71
     5
 72
     1
  1
\A1;87°
 11
0.7253743710122878
 21
-0.6883545756937539
 31
0.0
 73
     1
 44
1.0
  0
POINT
  5
3E4
330
3D0
100
AcDbEntity
  8
DEFPOINTS
 62
     0
100
AcDbPoint
 10
173.237508584757
 20
226.5847190724115
 30
0.0
  0
POINT
  5
3E5
330
3D0
100
AcDbEntity
  8
DEFPOINTS
 62
     0
100
AcDbPoint
 10
104.6640279513694
 20
258.7318991230246
 30
0.0
  0
POINT
  5
3E6
330
3D0
100
AcDbEntity
  8
DEFPOINTS
 62
     0
100
AcDbPoint
 10
179.5612430579625
 20
187.6604493890805
 30
0.0
  0
POINT
  5
3E7
330
3D0
100
AcDbEntity
  8
DEFPOINTS
 62
     0
100
AcDbPoint
 10
104.6640279513694
 20
183.7352526708597
 30
0.0
  0
POINT
  5
3E8
330
3D0
100
AcDbEntity
  8
DEFPOINTS
 62
     0
100
AcDbPoint
 10
104.6640279513694
 20
108.7352526708596
 30
0.0
  0
ENDBLK
  5
3DD
330
3D0
100
AcDbEntity
  8
0
100
AcDbBlockEnd
  0
BLOCK
  5
482
330
478
100
AcDbEntity
  8
0
100
AcDbBlockBegin
  2
*D8
 70
     1
 10
0.0
 20
0.0
 30
0.0
  3
*D8
  1

  0
LINE
  5
48D
330
478
100
AcDbEntity
  8
SCHRAFF
 62
     0
370
    -2
100
AcDbLine
 10
104.7163639076124
 20
182.7366231361052
 30
0.0
 11
106.4957650136451
 21
148.7836274095992
 31
0.0
  0
LINE
  5
48E
330
478
100
AcDbEntity
  8
SCHRAFF
 62
     0
370
    -2
100
AcDbLine
 10
175.8504876045725
 20
162.9292683634595
 30
0.0
 11
176.3998324464653
 21
152.4471443466052
 31
0.0
  0
LINE
  5
48F
330
478
100
AcDbEntity
  8
SCHRAFF
 62
     0
370
    -2
100
AcDbLine
 10
109.9386324290432
 20
149.9654327912041
 30
0.0
 11
172.8522931185813
 21
153.2625980345095
 31
0.0
  0
SOLID
  5
490
330
478
100
AcDbEntity
  8
SCHRAFF
 62
     0
100
AcDbTrace
 10
109.9081031212348
 20
150.5479666864776
 30
0.0
 11
109.9691617368516
 21
149.3828988959305
 31
0.0
 12
106.4434290574022
 22
149.7822569443538
 32
0.0
 13
106.4434290574022
 23
149.7822569443538
 33
0.0
  0
SOLID
  5
491
330
478
100
AcDbEntity
  8
SCHRAFF
 62
     0
100
AcDbTrace
 10
172.821763810773
 20
153.845131929783
 30
0.0
 11
172.8828224263897
 21
152.680064139236
 31
0.0
 12
176.3474964902223
 22
153.4457738813598
 32
0.0
 13
176.3474964902223
 23
153.4457738813598
 33
0.0
  0
MTEXT
  5
492
330
478
100
AcDbEntity
  8
SCHRAFF
 62
     1
100
AcDbMText
 10
141.2253709160227
 20
154.8595614008092
 30
0.0
 40
3.5
 41
0.0
 71
     5
 72
     1
  1
\A1;70
 11
0.9986295347545739
 21
0.0523359562429435
 31
0.0
 73
     1
 44
1.0
  0
POINT
  5
493
330
478
100
AcDbEntity
  8
DEFPOINTS
 62
     0
100
AcDbPoint
 10
104.6640279513694
 20
183.7352526708597
 30
0.0
  0
POINT
  5
494
330
478
100
AcDbEntity
  8
DEFPOINTS
 62
     0
100
AcDbPoint
 10
175.7981516483296
 20
163.9278978982141
 30
0.0
  0
POINT
  5
495
330
478
100
AcDbEntity
  8
DEFPOINTS
 62
     0
100
AcDbPoint
 10
176.3474964902223
 20
153.4457738813598
 30
0.0
  0
ENDBLK
  5
483
330
478
100
AcDbEntity
  8
0
100
AcDbBlockEnd
  0
ENDSEC
  0
SECTION
  2
ENTITIES
  0
LINE
  5
12A
330
1E
100
AcDbEntity
  8
STEMPEL
100
AcDbLine
 10
128.1671098178797
 20
253.7318991230246
 30
0.0
 11
81.16094608485919
 21
253.7318991230246
 31
0.0
  0
LINE
  5
12B
330
1E
100
AcDbEntity
  8
HILF
  6
Continuous
100
AcDbLine
 10
82.11938241303002
 20
234.5501194204707
 30
0.0
 11
127.2086734897088
 21
234.5501194204707
 31
0.0
  0
LINE
  5
12C
330
1E
100
AcDbEntity
  8
HILF
  6
Continuous
100
AcDbLine
 10
82.59968770779165
 20
226.0462055500669
 30
0.0
 11
126.7283681949471
 21
226.0462055500669
 31
0.0
  0
LINE
  5
12D
330
1E
100
AcDbEntity
  8
HILF
  6
Continuous
100
AcDbLine
 10
84.38760226960992
 20
222.0740512097533
 30
0.0
 11
124.9404536331289
 21
222.0740512097532
 31
0.0
  0
TEXT
  5
134
330
1E
100
AcDbEntity
  8
TEXT
100
AcDbText
 10
102.2108024290628
 20
31.54481959861755
 30
0.0
 40
2.0
  1
Koeh
 41
0.8
  7
GREEKS
 72
     1
 11
104.8393738576343
 21
31.54481959861755
 31
0.0
100
AcDbText
  0
INSERT
  5
135
330
1E
100
AcDbEntity
  8
STEMPEL
100
AcDbBlockReference
  2
LOGO
 10
75.4977742728897
 20
22.51052638224161
 30
0.0
  0
LINE
  5
136
330
1E
100
AcDbEntity
  8
HILF
100
AcDbLine
 10
210.0
 20
0.0
 30
0.0
 11
0.0
 21
0.0
 31
0.0
  0
LINE
  5
137
330
1E
100
AcDbEntity
  8
HILF
100
AcDbLine
 10
210.0
 20
297.0000000000001
 30
0.0
 11
0.0
 21
297.0
 31
0.0
  0
LINE
  5
138
330
1E
100
AcDbEntity
  8
STEMPEL
100
AcDbLine
 10
205.0
 20
292.0
 30
0.0
 11
19.99999999999994
 21
292.0
 31
0.0
  0
LINE
  5
139
330
1E
100
AcDbEntity
  8
STEMPEL
100
AcDbLine
 10
205.0
 20
5.0
 30
0.0
 11
19.99999999999994
 21
5.0
 31
0.0
  0
LINE
  5
13A
330
1E
100
AcDbEntity
  8
STEMPEL
100
AcDbLine
 10
24.99999999999995
 20
5.0
 30
0.0
 11
205.0
 21
5.0
 31
0.0
  0
TEXT
  5
13B
330
1E
100
AcDbEntity
  8
TEXT
100
AcDbText
 10
101.2313292113147
 20
36.65480545957612
 30
0.0
 40
2.0
  1
Name
 41
0.8
  7
GREEKS
100
AcDbText
  0
TEXT
  5
13C
330
1E
100
AcDbEntity
  8
TEXT
100
AcDbText
 10
98.27491395507747
 20
51.32531138882947
 30
0.0
 40
2.5
  1
Zul. Abw.
 41
0.8
  7
GREEKS
 72
     4
 11
104.9891996693631
 21
52.57531138882947
 31
0.0
100
AcDbText
  0
LINE
  5
13D
330
1E
100
AcDbEntity
  8
HILF
100
AcDbLine
 10
73.00000000000006
 20
24.99999999999999
 30
0.0
 11
115.0
 21
24.99999999999999
 31
0.0
  0
LINE
  5
13E
330
1E
100
AcDbEntity
  8
HILF
100
AcDbLine
 10
73.00000000000006
 20
29.99999999999999
 30
0.0
 11
115.0
 21
29.99999999999999
 31
0.0
  0
LINE
  5
13F
330
1E
100
AcDbEntity
  8
HILF
100
AcDbLine
 10
73.00000000000006
 20
34.99999999999997
 30
0.0
 11
115.0
 21
34.99999999999997
 31
0.0
  0
LINE
  5
140
330
1E
100
AcDbEntity
  8
STEMPEL
100
AcDbLine
 10
205.0
 20
40.0
 30
0.0
 11
73.00000000000006
 21
39.99999999999997
 31
0.0
  0
LINE
  5
141
330
1E
100
AcDbEntity
  8
STEMPEL
100
AcDbLine
 10
205.0
 20
20.0
 30
0.0
 11
73.00000000000006
 21
19.99999999999998
 31
0.0
  0
LINE
  5
142
330
1E
100
AcDbEntity
  8
STEMPEL
100
AcDbLine
 10
205.0
 20
55.00000000000003
 30
0.0
 11
19.99999999999998
 21
55.0
 31
0.0
  0
LINE
  5
143
330
1E
100
AcDbEntity
  8
MITTEL
100
AcDbLine
 10
104.6640279513694
 20
258.7318991230246
 30
0.0
 11
104.6640279513694
 21
108.7352526708596
 31
0.0
  0
LINE
  5
144
330
1E
100
AcDbEntity
  8
HILF
100
AcDbLine
 10
0.0
 20
0.0
 30
0.0
 11
-0.0000000000000568
 21
297.0
 31
0.0
  0
LINE
  5
145
330
1E
100
AcDbEntity
  8
STEMPEL
100
AcDbLine
 10
20.0
 20
5.0
 30
0.0
 11
19.99999999999994
 21
292.0
 31
0.0
  0
TEXT
  5
146
330
1E
100
AcDbEntity
  8
TEXT
100
AcDbText
 10
20.92754975488837
 20
55.83599999999997
 30
0.0
 40
2.5
  1
Erstellt mit AUTOCAD 2004
 41
0.8
  7
GREEKS
100
AcDbText
  0
TEXT
  5
147
330
1E
100
AcDbEntity
  8
TEXT
100
AcDbText
 10
33.49933939241158
 20
9.336909474920659
 30
0.0
 40
2.0
  1
Änderung
 41
0.8
  7
GREEKS
 72
     1
 11
38.87076796384015
 21
9.336909474920659
 31
0.0
100
AcDbText
  0
LINE
  5
148
330
1E
100
AcDbEntity
  8
HILF
100
AcDbLine
 10
20.00000000000004
 20
19.99999999999998
 30
0.0
 11
73.00000000000006
 21
19.99999999999998
 31
0.0
  0
LINE
  5
149
330
1E
100
AcDbEntity
  8
HILF
100
AcDbLine
 10
20.00000000000004
 20
24.99999999999999
 30
0.0
 11
73.00000000000006
 21
24.99999999999999
 31
0.0
  0
LINE
  5
14A
330
1E
100
AcDbEntity
  8
HILF
100
AcDbLine
 10
20.00000000000004
 20
29.99999999999999
 30
0.0
 11
73.00000000000006
 21
29.99999999999999
 31
0.0
  0
LINE
  5
14B
330
1E
100
AcDbEntity
  8
HILF
100
AcDbLine
 10
20.00000000000004
 20
34.99999999999997
 30
0.0
 11
73.00000000000006
 21
34.99999999999997
 31
0.0
  0
LINE
  5
14C
330
1E
100
AcDbEntity
  8
HILF
100
AcDbLine
 10
20.00000000000004
 20
39.99999999999997
 30
0.0
 11
73.00000000000006
 21
39.99999999999997
 31
0.0
  0
LINE
  5
14D
330
1E
100
AcDbEntity
  8
HILF
100
AcDbLine
 10
20.00000000000004
 20
45.00000000000002
 30
0.0
 11
73.00000000000006
 21
45.00000000000002
 31
0.0
  0
LINE
  5
14E
330
1E
100
AcDbEntity
  8
HILF
100
AcDbLine
 10
20.00000000000004
 20
50.00000000000003
 30
0.0
 11
73.00000000000006
 21
50.00000000000003
 31
0.0
  0
LINE
  5
14F
330
1E
100
AcDbEntity
  8
STEMPEL
100
AcDbLine
 10
72.99999999999994
 20
14.99999999999998
 30
0.0
 11
19.99999999999998
 21
14.99999999999998
 31
0.0
  0
TEXT
  5
150
330
1E
100
AcDbEntity
  8
TEXT
100
AcDbText
 10
24.13320553522878
 20
6.827329230135958
 30
0.0
 40
2.0
  1
Index
 50
90.0
 41
0.8
  7
GREEKS
100
AcDbText
  0
LINE
  5
151
330
1E
100
AcDbEntity
  8
VOLL
100
AcDbLine
 10
27.00000000000005
 20
55.00000000000003
 30
0.0
 11
26.99999999999999
 21
4.999999999999985
 31
0.0
  0
LINE
  5
152
330
1E
100
AcDbEntity
  8
HILF
100
AcDbLine
 10
15.54383567856928
 20
148.5
 30
0.0
 11
0.0000000000000568
 21
148.5
 31
0.0
  0
TEXT
  5
153
330
1E
100
AcDbEntity
  8
TEXT
100
AcDbText
 10
55.17481598333814
 20
9.33578134669905
 30
0.0
 40
2.0
  1
Tag
 41
0.8
  7
GREEKS
 72
     1
 11
57.04148265000481
 21
9.33578134669905
 31
0.0
100
AcDbText
  0
LINE
  5
154
330
1E
100
AcDbEntity
  8
VOLL
100
AcDbLine
 10
62.00000000000006
 20
54.99999999999997
 30
0.0
 11
62.0
 21
4.999999999999985
 31
0.0
  0
LINE
  5
155
330
1E
100
AcDbEntity
  8
VOLL
100
AcDbLine
 10
52.00000000000006
 20
54.99999999999997
 30
0.0
 11
52.0
 21
4.999999999999985
 31
0.0
  0
TEXT
  5
156
330
1E
100
AcDbEntity
  8
TEXT
100
AcDbText
 10
64.61958341495059
 20
9.29662108483204
 30
0.0
 40
2.0
  1
Name
 41
0.8
  7
GREEKS
 72
     1
 11
67.78148817685536
 21
9.29662108483204
 31
0.0
100
AcDbText
  0
LINE
  5
157
330
1E
100
AcDbEntity
  8
STEMPEL
100
AcDbLine
 10
73.00000000000006
 20
54.99999999999997
 30
0.0
 11
73.0
 21
4.999999999999985
 31
0.0
  0
TEXT
  5
158
330
1E
100
AcDbEntity
  8
TEXT
100
AcDbText
 10
85.19949855411802
 20
31.55382520412866
 30
0.0
 40
2.0
  1
08.04.
 41
0.8
  7
GREEKS
 72
     1
 11
88.70426045887993
 21
31.55382520412866
 31
0.0
100
AcDbText
  0
TEXT
  5
159
330
1E
100
AcDbEntity
  8
TEXT
100
AcDbText
 10
86.16558365768254
 20
36.65940250614963
 30
0.0
 40
2.0
  1
Tag
 41
0.8
  7
GREEKS
100
AcDbText
  0
TEXT
  5
15A
330
1E
100
AcDbEntity
  8
TEXT
100
AcDbText
 10
73.79180635838077
 20
31.81495184808982
 30
0.0
 40
2.0
  1
Gez.
 41
0.8
  7
GREEKS
100
AcDbText
  0
LINE
  5
15B
330
1E
100
AcDbEntity
  8
VOLL
100
AcDbLine
 10
82.00000000000006
 20
39.99999999999997
 30
0.0
 11
82.00000000000006
 21
19.99999999999998
 31
0.0
  0
TEXT
  5
15C
330
1E
100
AcDbEntity
  8
TEXT
100
AcDbText
 10
73.80033886936519
 20
21.76473194824904
 30
0.0
 40
2.0
  1
Norm.
 41
0.8
  7
GREEKS
100
AcDbText
  0
TEXT
  5
15D
330
1E
100
AcDbEntity
  8
TEXT
100
AcDbText
 10
73.77575432858361
 20
26.84463145714189
 30
0.0
 40
2.0
  1
Gepr.
 41
0.8
  7
GREEKS
100
AcDbText
  0
TEXT
  5
15E
330
1E
100
AcDbEntity
  8
TEXT
 62
     1
100
AcDbText
 10
80.25031532409434
 20
44.07450714456979
 30
0.0
 40
3.5
  1
1:1
 41
0.8
  7
GREEKS
100
AcDbText
  0
TEXT
  5
15F
330
1E
100
AcDbEntity
  8
TEXT
100
AcDbText
 10
76.75817860751886
 20
51.23104475435443
 30
0.0
 40
2.5
  1
Maßstab
 41
0.8
  7
GREEKS
100
AcDbText
  0
TEXT
  5
160
330
1E
100
AcDbEntity
  8
TEXT
100
AcDbText
 10
74.31105491105199
 20
36.57012735575833
 30
0.0
 40
2.0
  1
2011
 41
0.8
  7
GREEKS
100
AcDbText
  0
LINE
  5
161
330
1E
100
AcDbEntity
  8
VOLL
100
AcDbLine
 10
95.00000000000005
 20
54.99999999999992
 30
0.0
 11
95.0
 21
19.99999999999998
 31
0.0
  0
ARC
  5
163
330
1E
100
AcDbEntity
  8
STEMPEL
100
AcDbCircle
 10
77.66402795136942
 20
220.1263478475606
 30
0.0
 40
6.0
100
AcDbArc
 50
0.0000000000000615
 51
32.31077908010922
  0
ARC
  5
169
330
1E
100
AcDbEntity
  8
STEMPEL
100
AcDbCircle
 10
95.76402795136941
 20
247.1935507077136
 30
0.0
 40
16.0
100
AcDbArc
 50
155.8801443097411
 51
180.0
  0
LINE
  5
16C
330
1E
100
AcDbEntity
  8
STEMPEL
100
AcDbLine
 10
81.26402795136941
 20
232.7318991230247
 30
0.0
 11
81.26402795136941
 21
228.4112739184438
 31
0.0
  0
ARC
  5
170
330
1E
100
AcDbEntity
  8
STEMPEL
100
AcDbCircle
 10
90.76402795136941
 20
228.4112739184438
 30
0.0
 40
9.5
100
AcDbArc
 50
180.0
 51
212.3107790801091
  0
ARC
  5
172
330
1E
100
AcDbEntity
  8
STEMPEL
100
AcDbCircle
 10
99.26402795136944
 20
242.0988991230246
 30
0.0
 40
19.49984481626527
100
AcDbArc
 50
180.0000000000001
 51
198.1939705983843
  0
ARC
  5
174
330
1E
100
AcDbEntity
  8
STEMPEL
100
AcDbCircle
 10
70.76402795136941
 20
232.7318991230247
 30
0.0
 40
10.5
100
AcDbArc
 50
0.0
 51
18.19397059838433
  0
LINE
  5
175
330
1E
100
AcDbEntity
  8
STEMPEL
100
AcDbLine
 10
79.76402795136941
 20
247.1935507077136
 30
0.0
 11
79.76402795136941
 21
242.0988991230246
 31
0.0
  0
LINE
  5
186
330
1E
100
AcDbEntity
  8
HILF
100
AcDbLine
 10
210.0
 20
-0.0000000000000568
 30
0.0
 11
210.0
 21
297.0
 31
0.0
  0
LINE
  5
187
330
1E
100
AcDbEntity
  8
STEMPEL
100
AcDbLine
 10
205.0
 20
5.0
 30
0.0
 11
205.0
 21
292.0
 31
0.0
  0
TEXT
  5
188
330
1E
100
AcDbEntity
  8
TEXT
100
AcDbText
 10
168.6200430748503
 20
26.03708088939301
 30
0.0
 40
2.5
  1
ersetzt durch:
 41
0.8
  7
GREEKS
100
AcDbText
  0
TEXT
  5
189
330
1E
100
AcDbEntity
  8
TEXT
100
AcDbText
 10
168.3619308148496
 20
36.59059118549985
 30
0.0
 40
2.5
  1
Ersatz für:
 41
0.8
  7
GREEKS
100
AcDbText
  0
TEXT
  5
18A
330
1E
100
AcDbEntity
  8
TEXT
100
AcDbText
 10
168.089377478817
 20
51.15660172685682
 30
0.0
 40
2.5
  1
Zeichnungs Nr.
 41
0.8
  7
GREEKS
100
AcDbText
  0
LINE
  5
18B
330
1E
100
AcDbEntity
  8
HILF
100
AcDbLine
 10
116.7454849644942
 20
7.446991290141568
 30
0.0
 11
202.4294419663364
 21
7.446991290141568
 31
0.0
  0
LINE
  5
18C
330
1E
100
AcDbEntity
  8
HILF
100
AcDbLine
 10
168.3619308148496
 20
41.88991818477913
 30
0.0
 11
202.4294419663364
 21
41.88991818477913
 31
0.0
  0
LINE
  5
18D
330
1E
100
AcDbEntity
  8
VOLL
100
AcDbLine
 10
166.0
 20
30.0
 30
0.0
 11
205.0
 21
30.0
 31
0.0
  0
TEXT
  5
18E
330
1E
100
AcDbEntity
  8
TEXT
 62
     1
100
AcDbText
 10
117.4641932160007
 20
43.70874394626889
 30
0.0
 40
3.5
  1
Abzweig DN40/40
 41
0.8
  7
GREEKS
100
AcDbText
  0
LINE
  5
18F
330
1E
100
AcDbEntity
  8
HILF
100
AcDbLine
 10
117.3868400548473
 20
24.99999999999999
 30
0.0
 11
162.4176958278155
 21
24.99999999999999
 31
0.0
  0
LINE
  5
190
330
1E
100
AcDbEntity
  8
HILF
100
AcDbLine
 10
117.3868400548473
 20
29.99999999999999
 30
0.0
 11
162.4176958278155
 21
29.99999999999999
 31
0.0
  0
LINE
  5
191
330
1E
100
AcDbEntity
  8
HILF
100
AcDbLine
 10
117.3868400548473
 20
34.99999999999997
 30
0.0
 11
162.4176958278155
 21
34.99999999999997
 31
0.0
  0
LINE
  5
192
330
1E
100
AcDbEntity
  8
HILF
100
AcDbLine
 10
117.3868400548473
 20
42.01879123782069
 30
0.0
 11
162.4176958278155
 21
42.01879123782069
 31
0.0
  0
LINE
  5
193
330
1E
100
AcDbEntity
  8
STEMPEL
100
AcDbLine
 10
115.0
 20
55.00000000000003
 30
0.0
 11
115.0
 21
4.999999999999985
 31
0.0
  0
TEXT
  5
194
330
1E
100
AcDbEntity
  8
TEXT
100
AcDbText
 10
117.5648195562657
 20
35.75167208792644
 30
0.0
 40
2.5
  1
dünnwandig 87°
 41
0.8
  7
GREEKS
100
AcDbText
  0
TEXT
  5
195
330
1E
100
AcDbEntity
  8
TEXT
100
AcDbText
 10
117.4918750788913
 20
21.31487076511316
 30
0.0
 40
2.0
  1
5200AA0W.DWG
 41
0.8
  7
GREEKS
100
AcDbText
  0
TEXT
  5
196
330
1E
100
AcDbEntity
  8
TEXT
100
AcDbText
 10
117.371119195568
 20
15.42280285096528
 30
0.0
 40
2.5
  1
Bauvorhaben
 41
0.8
  7
GREEKS
100
AcDbText
  0
TEXT
  5
197
330
1E
100
AcDbEntity
  8
TEXT
100
AcDbText
 10
117.4389701904505
 20
51.27446640058898
 30
0.0
 40
2.5
  1
Benennung
 41
0.8
  7
GREEKS
100
AcDbText
  0
LINE
  5
198
330
1E
100
AcDbEntity
  8
STEMPEL
100
AcDbLine
 10
166.0
 20
54.99999999999989
 30
0.0
 11
166.0
 21
20.0
 31
0.0
  0
TEXT
  5
19A
330
1E
100
AcDbEntity
  8
TEXT
 62
     1
100
AcDbText
 10
173.9539742315225
 20
44.07450714456979
 30
0.0
 40
3.5
  1
5200AA0W
 41
0.8
  7
GREEKS
 72
     1
 11
184.8873075648558
 21
44.07450714456979
 31
0.0
100
AcDbText
  0
ARC
  5
19F
330
1E
100
AcDbEntity
  8
STEMPEL
100
AcDbCircle
 10
113.5640279513694
 20
247.1935507077136
 30
0.0
 40
16.0
100
AcDbArc
 50
0.0
 51
24.11985569026033
  0
LINE
  5
1A2
330
1E
100
AcDbEntity
  8
STEMPEL
100
AcDbLine
 10
128.0640279513694
 20
232.7318991230247
 30
0.0
 11
128.0640279513694
 21
228.4112739184438
 31
0.0
  0
ARC
  5
1AD
330
1E
100
AcDbEntity
  8
STEMPEL
100
AcDbCircle
 10
118.5640279513694
 20
228.4112739184438
 30
0.0
 40
9.5
100
AcDbArc
 50
327.6892209198909
 51
0.0
  0
ARC
  5
1AF
330
1E
100
AcDbEntity
  8
STEMPEL
100
AcDbCircle
 10
131.6640279513694
 20
220.1263478475606
 30
0.0
 40
6.0
100
AcDbArc
 50
147.6892209198907
 51
179.9999999999999
  0
ARC
  5
1B2
330
1E
100
AcDbEntity
  8
STEMPEL
100
AcDbCircle
 10
110.0640279513694
 20
242.0988991230246
 30
0.0
 40
19.49984481626527
100
AcDbArc
 50
341.8060294016157
 51
359.9999999999999
  0
ARC
  5
1B4
330
1E
100
AcDbEntity
  8
STEMPEL
100
AcDbCircle
 10
138.5640279513694
 20
232.7318991230247
 30
0.0
 40
10.5
100
AcDbArc
 50
161.8060294016156
 51
180.0
  0
LINE
  5
1B6
330
1E
100
AcDbEntity
  8
STEMPEL
100
AcDbLine
 10
129.5640279513694
 20
247.1935507077136
 30
0.0
 11
129.5640279513694
 21
242.0988991230246
 31
0.0
  0
LINE
  5
1D4
330
1E
100
AcDbEntity
  8
STEMPEL
100
AcDbLine
 10
125.2265846337396
 20
113.7352526708597
 30
0.0
 11
84.10147126899925
 21
113.7352526708597
 31
0.0
  0
LINE
  5
1D6
330
1E
100
AcDbEntity
  8
HILF
100
AcDbLine
 10
124.6640279513694
 20
118.7352526708597
 30
0.0
 11
84.66402795136941
 21
118.7352526708597
 31
0.0
  0
LINE
  5
1D7
330
1E
100
AcDbEntity
  8
STEMPEL
100
AcDbLine
 10
83.66402795136963
 20
118.7352526708597
 30
0.0
 11
84.10147126899923
 21
113.7352526708597
 31
0.0
  0
LINE
  5
1D8
330
1E
100
AcDbEntity
  8
STEMPEL
100
AcDbLine
 10
125.6640279513691
 20
118.73525267086
 30
0.0
 11
125.2265846337396
 21
113.7352526708597
 31
0.0
  0
DIMENSION
  5
1DB
330
1E
100
AcDbEntity
  8
BEM
100
AcDbDimension
  2
*D1
 10
67.45851817507105
 20
253.7318991230246
 30
0.0
 11
64.208518175071
 21
183.7335758969422
 31
0.0
 70
    32
 71
     5
 42
139.9966464521649
  3
Standard
100
AcDbAlignedDimension
 13
84.10147126899925
 23
113.7352526708597
 33
0.0
 14
81.16094608485919
 24
253.7318991230246
 34
0.0
 50
90.0
100
AcDbRotatedDimension
1001
ACAD
1000
DSTYLE
1002
{
1070
    41
1040
3.5
1070
    42
1040
1.0
1070
    43
1040
7.0
1070
    44
1040
1.0
1070
    73
1070
     0
1070
    74
1070
     0
1070
    77
1070
     1
1070
    78
1070
     8
1070
    79
1070
     2
1070
   140
1040
3.5
1070
   141
1040
1.5
1070
   146
1040
0.5142857142857144
1070
   147
1040
1.5
1070
   172
1070
     1
1070
   178
1070
     1
1070
   179
1070
     3
1070
   271
1070
     2
1070
   272
1070
     2
1070
   275
1070
     1
1070
   284
1070
     8
1070
   285
1070
     8
1070
   286
1070
     8
1002
}
  0
DIMENSION
  5
1E8
330
1E
100
AcDbEntity
  8
BEM
100
AcDbDimension
  2
*D2
 10
125.6640279513694
 20
100.6732811795255
 30
0.0
 11
104.6640279513695
 21
103.9232811795255
 31
0.0
 70
    32
  1
%%c<>
 71
     5
 42
41.99999999999977
  3
Standard
100
AcDbAlignedDimension
 13
83.66402795136963
 23
118.7352526708597
 33
0.0
 14
125.6640279513694
 24
118.7352526708597
 34
0.0
100
AcDbRotatedDimension
1001
ACAD
1000
DSTYLE
1002
{
1070
    41
1040
3.5
1070
    42
1040
1.0
1070
    43
1040
7.0
1070
    44
1040
1.0
1070
    73
1070
     0
1070
    74
1070
     0
1070
    77
1070
     1
1070
    78
1070
     8
1070
    79
1070
     2
1070
   140
1040
3.5
1070
   141
1040
1.5
1070
   146
1040
0.5142857142857144
1070
   147
1040
1.5
1070
   172
1070
     1
1070
   178
1070
     1
1070
   179
1070
     3
1070
   271
1070
     2
1070
   272
1070
     2
1070
   275
1070
     1
1070
   284
1070
     8
1070
   285
1070
     8
1070
   286
1070
     8
1002
}
  0
LINE
  5
20F
102
{ACAD_REACTORS
330
39F
102
}
330
1E
100
AcDbEntity
  8
STEMPEL
100
AcDbLine
 10
125.6640279513694
 20
220.1263478475606
 30
0.0
 11
125.6640279513694
 21
205.8646353017599
 31
0.0
  0
LINE
  5
210
330
1E
100
AcDbEntity
  8
STEMPEL
100
AcDbLine
 10
83.6640279513694
 20
220.1263478475606
 30
0.0
 11
83.66402795136963
 21
118.7352526708597
 31
0.0
  0
TEXT
  5
212
330
1E
100
AcDbEntity
  8
TEXT
100
AcDbText
 10
117.5648195562657
 20
25.75167208792646
 30
0.0
 40
2.5
  1
EDV-Art.Nr. 5.200.AA0C
 41
0.8
  7
GREEKS
100
AcDbText
  0
TEXT
  5
255
330
1E
100
AcDbEntity
  8
TEXT
 62
     1
100
AcDbText
 10
148.9987436921494
 20
65.61381838269608
 30
0.0
 40
3.5
  1
Werkstoff: 1.4404
 41
0.8
  7
GREEKS
100
AcDbText
  0
TEXT
  5
25D
330
1E
100
AcDbEntity
  8
TEXT
 62
     1
100
AcDbText
 10
88.26343331516749
 20
241.0038510519746
 30
0.0
 40
3.5
  1
DN40
 41
0.8
  7
GREEKS
100
AcDbText
  0
TEXT
  5
269
330
1E
100
AcDbEntity
  8
TEXT
 62
     1
100
AcDbText
 10
157.422114310443
 20
195.3675284417441
 30
0.0
 40
3.5
  1
DN40
 50
2.999999999999989
 41
0.8
  7
GREEKS
100
AcDbText
  0
LINE
  5
26F
330
1E
100
AcDbEntity
  8
HILF
  6
Continuous
100
AcDbLine
 10
141.8924473239845
 20
205.9905634097923
 30
0.0
 11
144.0148195784723
 21
165.4932883196699
 31
0.0
  0
LINE
  5
270
330
1E
100
AcDbEntity
  8
HILF
  6
Continuous
100
AcDbLine
 10
145.7655857465518
 20
207.9839141925866
 30
0.0
 11
148.0751024375865
 21
163.9157105283652
 31
0.0
  0
LINE
  5
271
330
1E
100
AcDbEntity
  8
HILF
  6
Continuous
100
AcDbLine
 10
154.2327080616562
 20
208.9086217098498
 30
0.0
 11
156.5924992264707
 21
163.8811239395324
 31
0.0
  0
LINE
  5
272
330
1E
100
AcDbEntity
  8
STEMPEL
100
AcDbLine
 10
175.7981516483297
 20
163.927897898214
 30
0.0
 11
173.3380391200496
 21
210.8696413175175
 31
0.0
  0
LINE
  5
276
102
{ACAD_REACTORS
330
39F
102
}
330
1E
100
AcDbEntity
  8
STEMPEL
100
AcDbLine
 10
139.9095442677003
 20
206.6112111766392
 30
0.0
 11
125.6640279513694
 21
205.86463530176
 31
0.0
  0
ARC
  5
277
330
1E
100
AcDbEntity
  8
STEMPEL
100
AcDbCircle
 10
151.8226862377079
 20
220.153255754944
 30
0.0
 40
10.5
100
AcDbArc
 50
273.0
 51
291.1939705983844
  0
ARC
  5
278
330
1E
100
AcDbEntity
  8
STEMPEL
100
AcDbCircle
 10
167.5729175375822
 20
195.9443817506167
 30
0.0
 40
16.0
100
AcDbArc
 50
68.88014430974113
 51
92.99999999999997
  0
ARC
  5
279
330
1E
100
AcDbEntity
  8
STEMPEL
100
AcDbCircle
 10
162.6684238426778
 20
192.1825449165663
 30
0.0
 40
19.49984481626527
100
AcDbArc
 50
93.00000000000009
 51
111.1939705983843
  0
LINE
  5
27A
330
1E
100
AcDbEntity
  8
STEMPEL
100
AcDbLine
 10
166.7355422376949
 20
211.9224543066899
 30
0.0
 11
161.6478726959403
 21
211.6558208442806
 31
0.0
  0
ARC
  5
27B
330
1E
100
AcDbEntity
  8
STEMPEL
100
AcDbCircle
 10
148.5547014246672
 20
199.9545410082034
 30
0.0
 40
9.5
100
AcDbArc
 50
92.99999999999997
 51
125.3107790801091
  0
ARC
  5
27C
330
1E
100
AcDbEntity
  8
STEMPEL
100
AcDbCircle
 10
139.5955285302426
 20
212.6029883851666
 30
0.0
 40
6.0
100
AcDbArc
 50
273.0
 51
305.3107790801092
  0
LINE
  5
27D
330
1E
100
AcDbEntity
  8
STEMPEL
100
AcDbLine
 10
152.3722137782589
 20
209.667645640021
 30
0.0
 11
148.0575098403593
 21
209.4415215883719
 31
0.0
  0
LINE
  5
27F
330
1E
100
AcDbEntity
  8
MITTEL
100
AcDbLine
 10
179.5612430579625
 20
187.6604493890805
 30
0.0
 11
104.6640279513694
 21
183.7352526708597
 31
0.0
  0
LINE
  5
285
102
{ACAD_REACTORS
330
3AD
102
}
330
1E
100
AcDbEntity
  8
STEMPEL
100
AcDbLine
 10
142.1076544299039
 20
164.6687707169471
 30
0.0
 11
125.6640279513694
 21
163.8069967698472
 31
0.0
  0
ARC
  5
286
330
1E
100
AcDbEntity
  8
STEMPEL
100
AcDbCircle
 10
163.2336521701015
 20
181.3973459412169
 30
0.0
 40
19.49984481626527
100
AcDbArc
 50
254.8060294016157
 51
272.9999999999999
  0
ARC
  5
287
330
1E
100
AcDbEntity
  8
STEMPEL
100
AcDbCircle
 10
150.009641008221
 20
172.1926399420263
 30
0.0
 40
9.5
100
AcDbArc
 50
240.6892209198909
 51
273.0
  0
ARC
  5
288
330
1E
100
AcDbEntity
  8
STEMPEL
100
AcDbCircle
 10
142.4216701673615
 20
158.6769935084196
 30
0.0
 40
6.0
100
AcDbArc
 50
60.68922091989076
 51
92.99999999999993
  0
ARC
  5
289
330
1E
100
AcDbEntity
  8
STEMPEL
100
AcDbCircle
 10
155.3710640709795
 20
152.4461732985839
 30
0.0
 40
10.5
100
AcDbArc
 50
74.80602940161564
 51
93.0
  0
LINE
  5
28A
330
1E
100
AcDbEntity
  8
STEMPEL
100
AcDbLine
 10
154.8215365304286
 20
162.931783413507
 30
0.0
 11
150.506832592529
 21
162.7056593618579
 31
0.0
  0
ARC
  5
28B
330
1E
100
AcDbEntity
  8
STEMPEL
100
AcDbCircle
 10
168.5044975587065
 20
178.1687760319852
 30
0.0
 40
16.0
100
AcDbArc
 50
273.0
 51
297.1198556902603
  0
LINE
  5
28C
330
1E
100
AcDbEntity
  8
STEMPEL
100
AcDbLine
 10
169.3418728585936
 20
162.190703475912
 30
0.0
 11
164.254203316839
 21
161.9240700135027
 31
0.0
  0
DIMENSION
  5
300
330
1E
100
AcDbEntity
  8
BEM
100
AcDbDimension
  2
*D4
 10
74.40308383705133
 20
183.7352526708597
 30
0.0
 11
71.1530838370513
 21
148.7352526708597
 31
0.0
 70
    32
 71
     5
 42
70.00000000000001
  3
Standard
100
AcDbAlignedDimension
 13
84.10147126899925
 23
113.7352526708597
 33
0.0
 14
104.6640279513694
 24
183.7352526708597
 34
0.0
 50
90.0
100
AcDbRotatedDimension
1001
ACAD
1000
DSTYLE
1002
{
1070
    41
1040
3.5
1070
    42
1040
1.0
1070
    43
1040
7.0
1070
    44
1040
1.0
1070
    73
1070
     0
1070
    74
1070
     0
1070
    77
1070
     1
1070
    78
1070
     8
1070
    79
1070
     2
1070
   140
1040
3.5
1070
   141
1040
1.5
1070
   146
1040
0.5142857142857144
1070
   147
1040
1.5
1070
   172
1070
     1
1070
   178
1070
     1
1070
   179
1070
     2
1070
   271
1070
     2
1070
   272
1070
     2
1070
   284
1070
     8
1070
   285
1070
     8
1070
   286
1070
     8
1002
}
  0
LINE
  5
33E
330
1E
100
AcDbEntity
  8
STEMPEL
100
AcDbLine
 10
125.6640279513694
 20
205.8646353017599
 30
0.0
 11
104.6640279513694
 21
183.7352526708597
 31
0.0
  0
LINE
  5
33F
330
1E
100
AcDbEntity
  8
STEMPEL
100
AcDbLine
 10
104.6640279513694
 20
183.7352526708597
 30
0.0
 11
125.6640279513694
 21
163.8069967698473
 31
0.0
  0
LINE
  5
340
102
{ACAD_REACTORS
330
3AD
102
}
330
1E
100
AcDbEntity
  8
STEMPEL
100
AcDbLine
 10
125.6640279513694
 20
163.8069967698472
 30
0.0
 11
125.6640279513694
 21
118.7352526708597
 31
0.0
  0
ARC
  5
393
330
1E
100
AcDbEntity
  8
SCHRAFF
100
AcDbCircle
 10
125.1336558029449
 20
205.3057396727477
 30
0.0
 40
2.737040435803697
100
AcDbArc
 50
179.5535241814929
 51
273.4464758185067
  0
ARC
  5
396
330
1E
100
AcDbEntity
  8
SCHRAFF
100
AcDbCircle
 10
121.6918829244762
 20
201.6788678176863
 30
0.0
 40
2.737040435803697
100
AcDbArc
 50
179.5535241814929
 51
273.4464758185067
  0
ARC
  5
397
330
1E
100
AcDbEntity
  8
SCHRAFF
100
AcDbCircle
 10
118.2501100460074
 20
198.0519959626248
 30
0.0
 40
2.737040435803697
100
AcDbArc
 50
179.5535241814929
 51
273.4464758185067
  0
ARC
  5
398
330
1E
100
AcDbEntity
  8
SCHRAFF
100
AcDbCircle
 10
114.8083371675387
 20
194.4251241075634
 30
0.0
 40
2.737040435803697
100
AcDbArc
 50
179.5535241814929
 51
273.4464758185067
  0
ARC
  5
399
330
1E
100
AcDbEntity
  8
SCHRAFF
100
AcDbCircle
 10
111.36656428907
 20
190.798252252502
 30
0.0
 40
2.737040435803697
100
AcDbArc
 50
179.5535241814929
 51
273.4464758185067
  0
ARC
  5
39A
330
1E
100
AcDbEntity
  8
SCHRAFF
100
AcDbCircle
 10
107.9247914106012
 20
187.1713803974406
 30
0.0
 40
2.737040435803697
100
AcDbArc
 50
179.5535241814929
 51
273.4464758185067
  0
ARC
  5
39B
102
{ACAD_REACTORS
330
39F
102
}
330
1E
100
AcDbEntity
  8
SCHRAFF
100
AcDbCircle
 10
120.6335578928062
 20
200.5636259332251
 30
0.0
 40
9.625595356890737
100
AcDbArc
 50
34.50775153316215
 51
58.49224846683788
  0
HATCH
  5
39F
330
1E
100
AcDbEntity
  8
SCHRAFF
100
AcDbHatch
 10
0.0
 20
0.0
 30
0.0
210
0.0
220
0.0
230
1.0
  2
_USER
 70
     0
 71
     1
 91
        1
 92
        7
 72
     1
 73
     1
 93
        3
 10
125.6640279513694
 20
208.7701146442694
 42
0.0
 10
125.6640279513694
 20
205.86463530176
 42
0.0
 10
128.5655254354186
 20
206.0166963414943
 42
0.105035843597613
 97
        3
330
20F
330
276
330
39B
 75
     0
 76
     0
 52
0.0
 41
0.1
 77
     0
 78
     1
 53
2.999999999999989
 43
98.12570797098508
 44
173.0437777098624
 45
-0.0052335956242944
 46
0.0998629534754574
 79
     0
 47
0.0528140917161994
 98
        1
 10
126.0041290597117
 20
206.5874397660707
  0
ARC
  5
3A0
330
1E
100
AcDbEntity
  8
SCHRAFF
100
AcDbCircle
 10
126.2406981663027
 20
163.2597571691956
 30
0.0
 40
2.634435742375651
100
AcDbArc
 50
87.10840338114447
 51
185.8915966188519
  0
ARC
  5
3A2
330
1E
100
AcDbEntity
  8
SCHRAFF
100
AcDbCircle
 10
122.6138263112413
 20
166.7015300476644
 30
0.0
 40
2.634435742375651
100
AcDbArc
 50
87.10840338114447
 51
185.8915966188519
  0
ARC
  5
3A3
330
1E
100
AcDbEntity
  8
SCHRAFF
100
AcDbCircle
 10
118.9869544561798
 20
170.1433029261332
 30
0.0
 40
2.634435742375651
100
AcDbArc
 50
87.10840338114447
 51
185.8915966188519
  0
ARC
  5
3A4
330
1E
100
AcDbEntity
  8
SCHRAFF
100
AcDbCircle
 10
115.3600826011184
 20
173.585075804602
 30
0.0
 40
2.634435742375651
100
AcDbArc
 50
87.10840338114447
 51
185.8915966188519
  0
ARC
  5
3A5
330
1E
100
AcDbEntity
  8
SCHRAFF
100
AcDbCircle
 10
111.7332107460569
 20
177.0268486830707
 30
0.0
 40
2.634435742375651
100
AcDbArc
 50
87.10840338114447
 51
185.8915966188519
  0
ARC
  5
3A6
330
1E
100
AcDbEntity
  8
SCHRAFF
100
AcDbCircle
 10
108.1063388909955
 20
180.4686215615395
 30
0.0
 40
2.634435742375651
100
AcDbArc
 50
87.10840338114447
 51
185.8915966188519
  0
ARC
  5
3A7
102
{ACAD_REACTORS
330
3AD
102
}
330
1E
100
AcDbEntity
  8
SCHRAFF
100
AcDbCircle
 10
123.7097253022673
 20
165.6615607364821
 30
0.0
 40
5.008756088463742
100
AcDbArc
 50
292.9655285211922
 51
340.0344714788074
  0
HATCH
  5
3AD
330
1E
100
AcDbEntity
  8
SCHRAFF
100
AcDbHatch
 10
0.0
 20
0.0
 30
0.0
210
0.0
220
0.0
230
1.0
  2
_USER
 70
     0
 71
     1
 91
        1
 92
        7
 72
     1
 73
     1
 93
        3
 10
128.4174462541444
 20
163.9512973085331
 42
0.0
 10
125.6640279513694
 20
163.8069967698473
 42
0.0
 10
125.6640279513694
 20
161.0497998244839
 42
0.2083141539120362
 97
        3
330
285
330
340
330
3A7
 75
     0
 76
     0
 52
0.0
 41
0.1
 77
     0
 78
     1
 53
2.999999999999989
 43
98.12570797098508
 44
173.0437777098624
 45
-0.0052335956242944
 46
0.0998629534754574
 79
     0
 47
0.0684156552203192
 98
        1
 10
126.2120474768858
 20
162.2502485252808
  0
DIMENSION
  5
3CF
330
1E
100
AcDbEntity
  8
BEM
100
AcDbDimension
  2
*D6
 10
104.6640279513694
 20
108.7352526708596
 30
0.0
 11
162.561784218751
 21
244.7467575237877
 31
0.0
 70
    34
 71
     5
 42
1.518436449235067
  3
Standard
100
AcDb2LineAngularDimension
 13
179.5612430579625
 23
187.6604493890805
 33
0.0
 14
104.6640279513694
 24
183.7352526708597
 34
0.0
 15
104.6640279513694
 25
258.7318991230246
 35
0.0
 16
173.237508584757
 26
226.5847190724115
 36
0.0
1001
ACAD
1000
DSTYLE
1002
{
1070
    41
1040
3.5
1070
    42
1040
1.0
1070
    43
1040
7.0
1070
    44
1040
1.0
1070
    73
1070
     0
1070
    74
1070
     0
1070
    77
1070
     1
1070
    78
1070
     8
1070
    79
1070
     2
1070
   140
1040
3.5
1070
   141
1040
1.5
1070
   146
1040
0.5142857142857144
1070
   147
1040
1.5
1070
   172
1070
     1
1070
   178
1070
     1
1070
   179
1070
     2
1070
   271
1070
     2
1070
   272
1070
     2
1070
   284
1070
     8
1070
   285
1070
     8
1070
   286
1070
     8
1002
}
  0
TEXT
  5
431
330
1E
100
AcDbEntity
  8
BEM
100
AcDbText
 10
208.2905770718719
 20
6.074024076691515
 30
0.0
 40
2.0
  1
Diese Zeichnung ist urheberrechtlich geschützt und bleibt unser Eigentum. Sie darf weder ganz noch teilweise vervielfältigt und nicht an Dritte weitergegeben werden.
 50
90.0
 41
0.8
  7
GREEKS
100
AcDbText
  0
TEXT
  5
432
330
1E
100
AcDbEntity
  8
TEXT
100
AcDbText
 10
96.34413576239619
 20
44.50323185339641
 30
0.0
 40
2.0
  1
DIN EN1124-3
 41
0.8
  7
GREEKS
 72
     1
 11
104.8393738576343
 21
44.50323185339641
 31
0.0
100
AcDbText
  0
DIMENSION
  5
477
330
1E
100
AcDbEntity
  8
SCHRAFF
100
AcDbDimension
  2
*D8
 10
176.3474964902223
 20
153.4457738813598
 30
0.0
 11
141.2253709160227
 21
154.8595614008092
 31
0.0
 70
    32
 71
     5
 42
70.00000000000001
 51
357.0000000000001
  3
Standard
100
AcDbAlignedDimension
 13
104.6640279513694
 23
183.7352526708597
 33
0.0
 14
175.7981516483296
 24
163.9278978982141
 34
0.0
 50
2.999999999999078
100
AcDbRotatedDimension
1001
ACAD
1000
DSTYLE
1002
{
1070
    41
1040
3.5
1070
    42
1040
1.0
1070
    43
1040
7.0
1070
    44
1040
1.0
1070
    73
1070
     0
1070
    74
1070
     0
1070
    77
1070
     1
1070
    78
1070
     8
1070
    79
1070
     2
1070
   140
1040
3.5
1070
   141
1040
1.5
1070
   146
1040
0.5142857142857144
1070
   147
1040
1.5
1070
   172
1070
     1
1070
   178
1070
     1
1070
   179
1070
     2
1070
   271
1070
     2
1070
   272
1070
     2
1070
   284
1070
     8
1070
   285
1070
     8
1070
   286
1070
     8
1002
}
  0
ENDSEC
  0
SECTION
  2
OBJECTS
  0
DICTIONARY
  5
C
330
0
100
AcDbDictionary
281
     1
  3
ACAD_COLOR
350
41D
  3
ACAD_GROUP
350
D
  3
ACAD_LAYOUT
350
19
  3
ACAD_MATERIAL
350
41C
  3
ACAD_MLINESTYLE
350
16
  3
ACAD_PLOTSETTINGS
350
18
  3
ACAD_PLOTSTYLENAME
350
E
  3
AcDbVariableDictionary
350
246
  0
DICTIONARY
  5
41D
102
{ACAD_REACTORS
330
C
102
}
330
C
100
AcDbDictionary
281
     1
  0
DICTIONARY
  5
D
102
{ACAD_REACTORS
330
C
102
}
330
C
100
AcDbDictionary
281
     1
  0
DICTIONARY
  5
19
102
{ACAD_REACTORS
330
C
102
}
330
C
100
AcDbDictionary
281
     1
  3
Layout1
350
1D
  3
Model
350
21
  0
DICTIONARY
  5
41C
102
{ACAD_REACTORS
330
C
102
}
330
C
100
AcDbDictionary
281
     1
  0
DICTIONARY
  5
16
102
{ACAD_REACTORS
330
C
102
}
330
C
100
AcDbDictionary
281
     1
  3
Standard
350
17
  0
DICTIONARY
  5
18
102
{ACAD_REACTORS
330
C
102
}
330
C
100
AcDbDictionary
281
     1
  0
ACDBDICTIONARYWDFLT
  5
E
102
{ACAD_REACTORS
330
C
102
}
330
C
100
AcDbDictionary
281
     1
  3
Normal
350
F
100
AcDbDictionaryWithDefault
340
F
  0
DICTIONARY
  5
246
102
{ACAD_REACTORS
330
C
102
}
330
C
100
AcDbDictionary
281
     1
  3
DIMASSOC
350
449
  3
PROJECTNAME
350
44A
  3
SORTENTS
350
247
  0
LAYOUT
  5
1D
102
{ACAD_REACTORS
330
19
102
}
330
19
100
AcDbPlotSettings
  1

  2
Tektronix Phaser 740
  4

  6

 40
0.0
 41
0.0
 42
0.0
 43
0.0
 44
0.0
 45
0.0
 46
0.0
 47
0.0
 48
0.0
 49
0.0
140
0.0
141
0.0
142
1.0
143
1.0
 70
   688
 72
     0
 73
     0
 74
     5
  7
monochrome.ctb
 75
    16
147
1.0
 76
     0
 77
     2
 78
   300
148
0.0
149
0.0
100
AcDbLayout
  1
Layout1
 70
     0
 71
     1
 10
0.0
 20
0.0
 11
12.0
 21
9.0
 12
0.0
 22
0.0
 32
0.0
 14
1.000000000000000E+20
 24
1.000000000000000E+20
 34
1.000000000000000E+20
 15
-1.000000000000000E+20
 25
-1.000000000000000E+20
 35
-1.000000000000000E+20
146
0.0
 13
0.0
 23
0.0
 33
0.0
 16
1.0
 26
0.0
 36
0.0
 17
0.0
 27
1.0
 37
0.0
 76
     0
330
1A
  0
LAYOUT
  5
21
102
{ACAD_REACTORS
330
19
102
}
330
19
100
AcDbPlotSettings
  1

  2
Tektronix Phaser 740
  4
A4
  6

 40
5.873749732971191
 41
6.085414409637451
 42
5.577407836914062
 43
5.662078857421875
 44
209.9733276367187
 45
296.9683227539062
 46
0.0
 47
0.0
 48
0.0
 49
0.0
140
0.0
141
0.0
142
1.0
143
1.0
 70
 11952
 72
     0
 73
     1
 74
     0
  7
monochrome.ctb
 75
     0
147
1.0
 76
     0
 77
     2
 78
   300
148
1150.120678237584
149
45.30495740799864
100
AcDbLayout
  1
Model
 70
     1
 71
     0
 10
0.0
 20
0.0
 11
12.0
 21
9.0
 12
0.0
 22
0.0
 32
0.0
 14
0.0
 24
0.0
 34
0.0
 15
0.0
 25
0.0
 35
0.0
146
0.0
 13
0.0
 23
0.0
 33
0.0
 16
1.0
 26
0.0
 36
0.0
 17
0.0
 27
1.0
 37
0.0
 76
     0
330
1E
  0
MLINESTYLE
  5
17
102
{ACAD_REACTORS
330
16
102
}
330
16
100
AcDbMlineStyle
  2
STANDARD
 70
     0
  3

 62
   256
 51
90.0
 52
90.0
 71
     2
 49
0.5
 62
   256
  6
BYLAYER
 49
-0.5
 62
   256
  6
BYLAYER
  0
ACDBPLACEHOLDER
  5
F
102
{ACAD_REACTORS
330
E
102
}
330
E
  0
DICTIONARYVAR
  5
449
102
{ACAD_REACTORS
330
246
102
}
330
246
100
DictionaryVariables
280
     0
  1
1
  0
DICTIONARYVAR
  5
44A
102
{ACAD_REACTORS
330
246
102
}
330
246
100
DictionaryVariables
280
     0
  1

  0
DICTIONARYVAR
  5
247
102
{ACAD_REACTORS
330
246
102
}
330
246
100
DictionaryVariables
280
     0
  1
96
  0
ENDSEC
  0
EOF
