  0
SECTION
  2
HEADER
  9
$ACADVER
  1
AC1018
  9
$ACADMAINTVER
 70
     2
  9
$DWGCODEPAGE
  3
ANSI_1252
  9
$INSBASE
 10
0.0
 20
0.0
 30
0.0
  9
$EXTMIN
 10
-0.0640771341750224
 20
-0.045311687738149
 30
-0.000000000000013
  9
$EXTMAX
 10
840.000003912033
 20
594.0000027663659
 30
0.0000000000000023
  9
$LIMMIN
 10
0.0
 20
0.0
  9
$LIMMAX
 10
840.0
 20
594.0
  9
$ORTHOMODE
 70
     0
  9
$REGENMODE
 70
     1
  9
$FILLMODE
 70
     1
  9
$QTEXTMODE
 70
     0
  9
$MIRRTEXT
 70
     1
  9
$LTSCALE
 40
20.0
  9
$ATTMODE
 70
     1
  9
$TEXTSIZE
 40
3.5
  9
$TRACEWID
 40
1.0
  9
$TEXTSTYLE
  7
STANDARD
  9
$CLAYER
  8
VOLL
  9
$CELTYPE
  6
ByLayer
  9
$CECOLOR
 62
   256
  9
$CELTSCALE
 40
1.0
  9
$DISPSILH
 70
     0
  9
$DIMSCALE
 40
2.0
  9
$DIMASZ
 40
3.5
  9
$DIMEXO
 40
1.0
  9
$DIMDLI
 40
7.0
  9
$DIMRND
 40
0.0
  9
$DIMDLE
 40
0.0
  9
$DIMEXE
 40
1.0
  9
$DIMTP
 40
0.0
  9
$DIMTM
 40
0.0
  9
$DIMTXT
 40
3.5
  9
$DIMCEN
 40
1.5
  9
$DIMTSZ
 40
0.0
  9
$DIMTOL
 70
     0
  9
$DIMLIM
 70
     0
  9
$DIMTIH
 70
     0
  9
$DIMTOH
 70
     0
  9
$DIMSE1
 70
     0
  9
$DIMSE2
 70
     0
  9
$DIMTAD
 70
     1
  9
$DIMZIN
 70
     8
  9
$DIMBLK
  1

  9
$DIMASO
 70
     1
  9
$DIMSHO
 70
     0
  9
$DIMPOST
  1

  9
$DIMAPOST
  1

  9
$DIMALT
 70
     0
  9
$DIMALTD
 70
     2
  9
$DIMALTF
 40
25.4
  9
$DIMLFAC
 40
1.0
  9
$DIMTOFL
 70
     1
  9
$DIMTVP
 40
0.0
  9
$DIMTIX
 70
     0
  9
$DIMSOXD
 70
     0
  9
$DIMSAH
 70
     0
  9
$DIMBLK1
  1

  9
$DIMBLK2
  1

  9
$DIMSTYLE
  2
Standard
  9
$DIMCLRD
 70
     0
  9
$DIMCLRE
 70
     0
  9
$DIMCLRT
 70
     1
  9
$DIMTFAC
 40
0.5142857142857144
  9
$DIMGAP
 40
1.5
  9
$DIMJUST
 70
     0
  9
$DIMSD1
 70
     0
  9
$DIMSD2
 70
     0
  9
$DIMTOLJ
 70
     1
  9
$DIMTZIN
 70
     8
  9
$DIMALTZ
 70
     8
  9
$DIMALTTZ
 70
     8
  9
$DIMUPT
 70
     0
  9
$DIMDEC
 70
     2
  9
$DIMTDEC
 70
     2
  9
$DIMALTU
 70
     2
  9
$DIMALTTD
 70
     2
  9
$DIMTXSTY
  7
STANDARD
  9
$DIMAUNIT
 70
     0
  9
$DIMADEC
 70
     2
  9
$DIMALTRND
 40
0.0
  9
$DIMAZIN
 70
     2
  9
$DIMDSEP
 70
    46
  9
$DIMATFIT
 70
     3
  9
$DIMFRAC
 70
     0
  9
$DIMLDRBLK
  1

  9
$DIMLUNIT
 70
     2
  9
$DIMLWD
 70
    -2
  9
$DIMLWE
 70
    -2
  9
$DIMTMOVE
 70
     0
  9
$LUNITS
 70
     2
  9
$LUPREC
 70
     2
  9
$SKETCHINC
 40
1.0
  9
$FILLETRAD
 40
0.0
  9
$AUNITS
 70
     0
  9
$AUPREC
 70
     0
  9
$MENU
  1
ACAD
  9
$ELEVATION
 40
0.0
  9
$PELEVATION
 40
0.0
  9
$THICKNESS
 40
0.0
  9
$LIMCHECK
 70
     0
  9
$CHAMFERA
 40
0.0
  9
$CHAMFERB
 40
0.0
  9
$CHAMFERC
 40
0.0
  9
$CHAMFERD
 40
0.0
  9
$SKPOLY
 70
     0
  9
$TDCREATE
 40
2455397.867059838
  9
$TDUCREATE
 40
2455397.783726505
  9
$TDUPDATE
 40
2455443.403196620
  9
$TDUUPDATE
 40
2455443.319863287
  9
$TDINDWG
 40
0.0727329398
  9
$TDUSRTIMER
 40
0.0727329398
  9
$USRTIMER
 70
     1
  9
$ANGBASE
 50
0.0
  9
$ANGDIR
 70
     0
  9
$PDMODE
 70
     0
  9
$PDSIZE
 40
0.0
  9
$PLINEWID
 40
0.0
  9
$SPLFRAME
 70
     0
  9
$SPLINETYPE
 70
     6
  9
$SPLINESEGS
 70
     8
  9
$HANDSEED
  5
A18
  9
$SURFTAB1
 70
     6
  9
$SURFTAB2
 70
     6
  9
$SURFTYPE
 70
     6
  9
$SURFU
 70
     6
  9
$SURFV
 70
     6
  9
$UCSBASE
  2

  9
$UCSNAME
  2

  9
$UCSORG
 10
0.0
 20
0.0
 30
0.0
  9
$UCSXDIR
 10
1.0
 20
0.0
 30
0.0
  9
$UCSYDIR
 10
0.0
 20
1.0
 30
0.0
  9
$UCSORTHOREF
  2

  9
$UCSORTHOVIEW
 70
     0
  9
$UCSORGTOP
 10
0.0
 20
0.0
 30
0.0
  9
$UCSORGBOTTOM
 10
0.0
 20
0.0
 30
0.0
  9
$UCSORGLEFT
 10
0.0
 20
0.0
 30
0.0
  9
$UCSORGRIGHT
 10
0.0
 20
0.0
 30
0.0
  9
$UCSORGFRONT
 10
0.0
 20
0.0
 30
0.0
  9
$UCSORGBACK
 10
0.0
 20
0.0
 30
0.0
  9
$PUCSBASE
  2

  9
$PUCSNAME
  2

  9
$PUCSORG
 10
0.0
 20
0.0
 30
0.0
  9
$PUCSXDIR
 10
1.0
 20
0.0
 30
0.0
  9
$PUCSYDIR
 10
0.0
 20
1.0
 30
0.0
  9
$PUCSORTHOREF
  2

  9
$PUCSORTHOVIEW
 70
     0
  9
$PUCSORGTOP
 10
0.0
 20
0.0
 30
0.0
  9
$PUCSORGBOTTOM
 10
0.0
 20
0.0
 30
0.0
  9
$PUCSORGLEFT
 10
0.0
 20
0.0
 30
0.0
  9
$PUCSORGRIGHT
 10
0.0
 20
0.0
 30
0.0
  9
$PUCSORGFRONT
 10
0.0
 20
0.0
 30
0.0
  9
$PUCSORGBACK
 10
0.0
 20
0.0
 30
0.0
  9
$USERI1
 70
     0
  9
$USERI2
 70
     0
  9
$USERI3
 70
     0
  9
$USERI4
 70
     0
  9
$USERI5
 70
     0
  9
$USERR1
 40
0.0
  9
$USERR2
 40
0.0
  9
$USERR3
 40
0.0
  9
$USERR4
 40
0.0
  9
$USERR5
 40
0.0
  9
$WORLDVIEW
 70
     1
  9
$SHADEDGE
 70
     3
  9
$SHADEDIF
 70
    70
  9
$TILEMODE
 70
     1
  9
$MAXACTVP
 70
    16
  9
$PINSBASE
 10
0.0
 20
0.0
 30
0.0
  9
$PLIMCHECK
 70
     0
  9
$PEXTMIN
 10
1.000000000000000E+20
 20
1.000000000000000E+20
 30
1.000000000000000E+20
  9
$PEXTMAX
 10
-1.000000000000000E+20
 20
-1.000000000000000E+20
 30
-1.000000000000000E+20
  9
$PLIMMIN
 10
0.0
 20
0.0
  9
$PLIMMAX
 10
12.0
 20
9.0
  9
$UNITMODE
 70
     0
  9
$VISRETAIN
 70
     0
  9
$PLINEGEN
 70
     0
  9
$PSLTSCALE
 70
     0
  9
$TREEDEPTH
 70
  3020
  9
$CMLSTYLE
  2
Standard
  9
$CMLJUST
 70
     0
  9
$CMLSCALE
 40
1.0
  9
$PROXYGRAPHICS
 70
     1
  9
$MEASUREMENT
 70
     0
  9
$CELWEIGHT
370
    -1
  9
$ENDCAPS
280
     0
  9
$JOINSTYLE
280
     0
  9
$LWDISPLAY
290
     0
  9
$INSUNITS
 70
     0
  9
$HYPERLINKBASE
  1

  9
$STYLESHEET
  1
monochrome 1.ctb
  9
$XEDIT
290
     1
  9
$CEPSNTYPE
380
     0
  9
$PSTYLEMODE
290
     1
  9
$FINGERPRINTGUID
  2
{D68B0D0D-A558-11D7-B632-000102183313}
  9
$VERSIONGUID
  2
{286F84EB-B530-4D4A-BA80-09D646D5D280}
  9
$EXTNAMES
290
     1
  9
$PSVPSCALE
 40
0.0
  9
$OLESTARTUP
290
     0
  9
$SORTENTS
280
   127
  9
$INDEXCTL
280
     0
  9
$HIDETEXT
280
     0
  9
$XCLIPFRAME
290
     0
  9
$HALOGAP
280
     0
  9
$OBSCOLOR
 70
   257
  9
$OBSLTYPE
280
     0
  9
$INTERSECTIONDISPLAY
280
     0
  9
$INTERSECTIONCOLOR
 70
   257
  9
$DIMASSOC
280
     1
  9
$PROJECTNAME
  1

  0
ENDSEC
  0
SECTION
  2
CLASSES
  0
CLASS
  1
ACDBDICTIONARYWDFLT
  2
AcDbDictionaryWithDefault
  3
ObjectDBX Classes
 90
        0
 91
        1
280
     0
281
     0
  0
CLASS
  1
DICTIONARYVAR
  2
AcDbDictionaryVar
  3
ObjectDBX Classes
 90
        0
 91
        2
280
     0
281
     0
  0
ENDSEC
  0
SECTION
  2
TABLES
  0
TABLE
  2
VPORT
  5
8
330
0
100
AcDbSymbolTable
 70
     2
  0
VPORT
  5
A17
330
8
100
AcDbSymbolTableRecord
100
AcDbViewportTableRecord
  2
*Active
 70
     0
 10
0.0
 20
0.0
 11
1.0
 21
1.0
 12
419.967963388929
 22
296.977345539314
 13
0.0
 23
0.0
 14
1.0
 24
1.0
 15
10.0
 25
10.0
 16
0.0
 26
0.0
 36
1.0
 17
0.0
 27
0.0
 37
0.0
 40
632.1497986303288
 41
1.336927223719676
 42
50.0
 43
0.0
 44
0.0
 50
0.0
 51
0.0
 71
     0
 72
  1500
 73
     1
 74
     0
 75
     0
 76
     0
 77
     0
 78
     0
281
     0
 65
     1
110
0.0
120
0.0
130
0.0
111
1.0
121
0.0
131
0.0
112
0.0
122
1.0
132
0.0
 79
     0
146
0.0
  0
ENDTAB
  0
TABLE
  2
LTYPE
  5
5
330
0
100
AcDbSymbolTable
 70
     2
  0
LTYPE
  5
13
330
5
100
AcDbSymbolTableRecord
100
AcDbLinetypeTableRecord
  2
ByBlock
 70
     0
  3

 72
    65
 73
     0
 40
0.0
  0
LTYPE
  5
14
330
5
100
AcDbSymbolTableRecord
100
AcDbLinetypeTableRecord
  2
ByLayer
 70
     0
  3

 72
    65
 73
     0
 40
0.0
  0
LTYPE
  5
15
330
5
100
AcDbSymbolTableRecord
100
AcDbLinetypeTableRecord
  2
Continuous
 70
     0
  3
Solid line
 72
    65
 73
     0
 40
0.0
  0
LTYPE
  5
25
330
5
100
AcDbSymbolTableRecord
100
AcDbLinetypeTableRecord
  2
STRICHPUNKT
 70
     0
  3
__ . __ . __ . __ . __ . __ . __ . __ . __ . __
 72
    65
 73
     4
 40
1.0
 49
0.5
 74
     0
 49
-0.25
 74
     0
 49
0.0
 74
     0
 49
-0.25
 74
     0
  0
ENDTAB
  0
TABLE
  2
LAYER
  5
2
330
0
100
AcDbSymbolTable
 70
     8
  0
LAYER
  5
10
330
2
100
AcDbSymbolTableRecord
100
AcDbLayerTableRecord
  2
0
 70
     0
 62
     7
  6
Continuous
370
    -3
390
F
  0
LAYER
  5
2B
330
2
100
AcDbSymbolTableRecord
100
AcDbLayerTableRecord
  2
VOLL
 70
     0
 62
     1
  6
Continuous
370
    -3
390
F
  0
LAYER
  5
2C
330
2
100
AcDbSymbolTableRecord
100
AcDbLayerTableRecord
  2
HILF
 70
     0
 62
     2
  6
Continuous
370
    -3
390
F
  0
LAYER
  5
2D
330
2
100
AcDbSymbolTableRecord
100
AcDbLayerTableRecord
  2
MITTEL
 70
     0
 62
     2
  6
STRICHPUNKT
370
    -3
390
F
  0
LAYER
  5
2F
330
2
100
AcDbSymbolTableRecord
100
AcDbLayerTableRecord
  2
BEM
 70
     0
 62
     7
  6
Continuous
370
    -3
390
F
  0
LAYER
  5
30
330
2
100
AcDbSymbolTableRecord
100
AcDbLayerTableRecord
  2
STEMPEL
 70
     0
 62
     3
  6
Continuous
370
    -3
390
F
  0
LAYER
  5
33
330
2
100
AcDbSymbolTableRecord
100
AcDbLayerTableRecord
  2
TEXT
 70
     0
 62
     7
  6
Continuous
370
    -3
390
F
  0
LAYER
  5
1E9
330
2
100
AcDbSymbolTableRecord
100
AcDbLayerTableRecord
  2
Defpoints
 70
     0
 62
     7
  6
Continuous
290
     0
370
    -3
390
F
  0
ENDTAB
  0
TABLE
  2
STYLE
  5
3
330
0
100
AcDbSymbolTable
 70
     2
  0
STYLE
  5
11
330
3
100
AcDbSymbolTableRecord
100
AcDbTextStyleTableRecord
  2
STANDARD
 70
     0
 40
0.0
 41
0.8
 50
0.0
 71
     0
 42
3.5
  3
simplex.shx
  4

  0
STYLE
  5
24
330
3
100
AcDbSymbolTableRecord
100
AcDbTextStyleTableRecord
  2
GREEKS
 70
     0
 40
0.0
 41
0.8
 50
0.0
 71
     0
 42
2.5
  3
SIMPLEX.shx
  4

  0
ENDTAB
  0
TABLE
  2
VIEW
  5
6
330
0
100
AcDbSymbolTable
 70
     0
  0
ENDTAB
  0
TABLE
  2
UCS
  5
7
330
0
100
AcDbSymbolTable
 70
     0
  0
ENDTAB
  0
TABLE
  2
APPID
  5
9
330
0
100
AcDbSymbolTable
 70
     1
  0
APPID
  5
12
330
9
100
AcDbSymbolTableRecord
100
AcDbRegAppTableRecord
  2
ACAD
 70
     0
  0
ENDTAB
  0
TABLE
  2
DIMSTYLE
  5
A
330
0
100
AcDbSymbolTable
 70
     1
100
AcDbDimStyleTable
 71
     1
340
A2
  0
DIMSTYLE
105
A2
102
{ACAD_REACTORS
330
28B
330
6A4
330
6AC
330
6AD
330
974
102
}
330
A
100
AcDbSymbolTableRecord
100
AcDbDimStyleTableRecord
  2
Standard
 70
     0
340
11
  0
ENDTAB
  0
TABLE
  2
BLOCK_RECORD
  5
1
330
0
100
AcDbSymbolTable
 70
     7
  0
BLOCK_RECORD
  5
1E
102
{ACAD_XDICTIONARY
360
DB
102
}
330
1
100
AcDbSymbolTableRecord
100
AcDbBlockTableRecord
  2
*Model_Space
340
21
  0
BLOCK_RECORD
  5
1A
102
{ACAD_XDICTIONARY
360
DD
102
}
330
1
100
AcDbSymbolTableRecord
100
AcDbBlockTableRecord
  2
*Paper_Space
340
1D
  0
BLOCK_RECORD
  5
22
330
1
100
AcDbSymbolTableRecord
100
AcDbBlockTableRecord
  2
LOGO
340
0
102
{BLKREFS
331
56
102
}
  0
BLOCK_RECORD
  5
23
330
1
100
AcDbSymbolTableRecord
100
AcDbBlockTableRecord
  2
LORO
340
0
102
{BLKREFS
331
9B
102
}
  0
BLOCK_RECORD
  5
310
330
1
100
AcDbSymbolTableRecord
100
AcDbBlockTableRecord
  2
*D2
340
0
  0
BLOCK_RECORD
  5
6B0
330
1
100
AcDbSymbolTableRecord
100
AcDbBlockTableRecord
  2
*D3
340
0
  0
BLOCK_RECORD
  5
6BC
330
1
100
AcDbSymbolTableRecord
100
AcDbBlockTableRecord
  2
*D4
340
0
  0
BLOCK_RECORD
  5
6C8
330
1
100
AcDbSymbolTableRecord
100
AcDbBlockTableRecord
  2
*D5
340
0
  0
BLOCK_RECORD
  5
975
330
1
100
AcDbSymbolTableRecord
100
AcDbBlockTableRecord
  2
*D6
340
0
  0
ENDTAB
  0
ENDSEC
  0
SECTION
  2
BLOCKS
  0
BLOCK
  5
37
330
1E
100
AcDbEntity
  8
0
100
AcDbBlockBegin
  2
*Model_Space
 70
     0
 10
0.0
 20
0.0
 30
0.0
  3
*Model_Space
  1

  0
ENDBLK
  5
38
330
1E
100
AcDbEntity
  8
0
100
AcDbBlockEnd
  0
BLOCK
  5
35
330
1A
100
AcDbEntity
 67
     1
  8
0
100
AcDbBlockBegin
  2
*Paper_Space
 70
     0
 10
0.0
 20
0.0
 30
0.0
  3
*Paper_Space
  1

  0
ENDBLK
  5
36
330
1A
100
AcDbEntity
 67
     1
  8
0
100
AcDbBlockEnd
  0
BLOCK
  5
39
330
22
100
AcDbEntity
  8
0
100
AcDbBlockBegin
  2
LOGO
 70
     0
 10
0.0
 20
0.0
 30
0.0
  3
LOGO
  1

  0
ARC
  5
3A
330
22
100
AcDbEntity
  8
0
100
AcDbCircle
 10
11.59973089678112
 20
-9.271599258481501
 30
0.0
 40
4.5
100
AcDbArc
 50
270.0
 51
231.0575587310159
  0
LINE
  5
3B
330
22
100
AcDbEntity
  8
0
100
AcDbLine
 10
3.599730896781125
 20
-4.771599258481529
 30
0.0
 11
3.599730896781153
 21
-11.77159925848133
 31
0.0
  0
LINE
  5
3C
330
22
100
AcDbEntity
  8
0
100
AcDbLine
 10
2.599730896781125
 20
-4.771599258481529
 30
0.0
 11
2.599730896781153
 21
-11.77159925848133
 31
0.0
  0
CIRCLE
  5
3D
330
22
100
AcDbEntity
  8
0
100
AcDbCircle
 10
11.59973089678112
 20
-9.271599258481501
 30
0.0
 40
3.5
  0
ARC
  5
3E
330
22
100
AcDbEntity
  8
0
100
AcDbCircle
 10
31.59973089678115
 20
-9.271599258481472
 30
0.0
 40
4.5
100
AcDbArc
 50
270.0
 51
231.0575587310182
  0
LINE
  5
3F
330
22
100
AcDbEntity
  8
0
100
AcDbLine
 10
17.59973089678112
 20
-4.771599258481472
 30
0.0
 11
17.59973089678115
 21
-13.77159925848147
 31
0.0
  0
ARC
  5
40
330
22
100
AcDbEntity
  8
0
100
AcDbCircle
 10
22.59973089678116
 20
-7.271599258481472
 30
0.0
 40
2.5
100
AcDbArc
 50
293.1161887722295
 51
90.0
  0
CIRCLE
  5
41
330
22
100
AcDbEntity
  8
0
100
AcDbCircle
 10
31.59973089678115
 20
-9.271599258481472
 30
0.0
 40
3.5
  0
ARC
  5
42
330
22
100
AcDbEntity
  8
0
100
AcDbCircle
 10
4.599730896781153
 20
-11.77159925848133
 30
0.0
 40
1.0
100
AcDbArc
 50
180.0
 51
270.0
  0
ARC
  5
43
330
22
100
AcDbEntity
  8
0
100
AcDbCircle
 10
4.599730896781153
 20
-11.77159925848133
 30
0.0
 40
2.0
100
AcDbArc
 50
179.9999999999992
 51
270.0
  0
LINE
  5
44
330
22
100
AcDbEntity
  8
0
100
AcDbLine
 10
11.59973089678115
 20
-13.77159925848144
 30
0.0
 11
4.599730896781153
 21
-13.77159925848147
 31
0.0
  0
LINE
  5
45
330
22
100
AcDbEntity
  8
0
100
AcDbLine
 10
8.771303772034769
 20
-12.77159925848136
 30
0.0
 11
4.599730896781153
 21
-12.77159925848133
 31
0.0
  0
LINE
  5
46
330
22
100
AcDbEntity
  8
0
100
AcDbLine
 10
31.59973089678115
 20
-13.77159925848147
 30
0.0
 11
23.6715276665056
 21
-13.77159925848144
 31
0.0
  0
LINE
  5
47
330
22
100
AcDbEntity
  8
0
100
AcDbLine
 10
23.56565672307022
 20
-9.51278021337896
 30
0.0
 11
24.4388546544846
 21
-12.77159925848144
 31
0.0
  0
LINE
  5
48
330
22
100
AcDbEntity
  8
0
100
AcDbLine
 10
22.59973089678116
 20
-9.771599258481472
 30
0.0
 11
18.59973089678112
 21
-9.771599258481472
 31
0.0
  0
LINE
  5
49
330
22
100
AcDbEntity
  8
0
100
AcDbLine
 10
18.59973089678115
 20
-13.77159925848144
 30
0.0
 11
17.59973089678115
 21
-13.77159925848144
 31
0.0
  0
LINE
  5
4A
330
22
100
AcDbEntity
  8
0
100
AcDbLine
 10
18.59973089678115
 20
-9.771599258481472
 30
0.0
 11
18.59973089678115
 21
-13.77159925848144
 31
0.0
  0
LINE
  5
4B
330
22
100
AcDbEntity
  8
0
100
AcDbLine
 10
22.59973089678116
 20
-9.771599258481472
 30
0.0
 11
23.67152766650562
 21
-13.77159925848147
 31
0.0
  0
ARC
  5
4C
330
22
100
AcDbEntity
  8
0
100
AcDbCircle
 10
22.59973089678116
 20
-7.271599258481472
 30
0.0
 40
2.5
100
AcDbArc
 50
270.0
 51
270.0000000000007
  0
LINE
  5
4D
330
22
100
AcDbEntity
  8
0
100
AcDbLine
 10
28.77130377203494
 20
-12.77159925848147
 30
0.0
 11
24.43885465448463
 21
-12.77159925848144
 31
0.0
  0
LINE
  5
4E
330
22
100
AcDbEntity
  8
0
100
AcDbLine
 10
3.599730896781125
 20
-4.771599258481472
 30
0.0
 11
2.599730896781125
 21
-4.771599258481472
 31
0.0
  0
LINE
  5
4F
330
22
100
AcDbEntity
  8
0
100
AcDbLine
 10
22.59973089678116
 20
-8.771599258481472
 30
0.0
 11
18.59973089678115
 21
-8.771599258481472
 31
0.0
  0
LINE
  5
50
330
22
100
AcDbEntity
  8
0
100
AcDbLine
 10
22.59973089678116
 20
-5.771599258481472
 30
0.0
 11
18.59973089678115
 21
-5.771599258481472
 31
0.0
  0
LINE
  5
51
330
22
100
AcDbEntity
  8
0
100
AcDbLine
 10
22.59973089678116
 20
-4.771599258481472
 30
0.0
 11
17.59973089678115
 21
-4.771599258481472
 31
0.0
  0
LINE
  5
52
330
22
100
AcDbEntity
  8
0
100
AcDbLine
 10
18.59973089678115
 20
-5.771599258481472
 30
0.0
 11
18.59973089678115
 21
-8.771599258481472
 31
0.0
  0
ARC
  5
53
330
22
100
AcDbEntity
  8
0
100
AcDbCircle
 10
22.59973089678116
 20
-7.271599258481472
 30
0.0
 40
1.5
100
AcDbArc
 50
270.0
 51
90.0
  0
ENDBLK
  5
54
330
22
100
AcDbEntity
  8
0
100
AcDbBlockEnd
  0
BLOCK
  5
55
330
23
100
AcDbEntity
  8
0
100
AcDbBlockBegin
  2
LORO
 70
     0
 10
0.0
 20
0.0
 30
0.0
  3
LORO
  1

  0
INSERT
  5
56
330
23
100
AcDbEntity
  8
STEMPEL
100
AcDbBlockReference
  2
LOGO
 10
-1.748032802467321
 20
3.771489518552062
 30
0.0
  0
ENDBLK
  5
57
330
23
100
AcDbEntity
  8
0
100
AcDbBlockEnd
  0
BLOCK
  5
31A
330
310
100
AcDbEntity
  8
0
100
AcDbBlockBegin
  2
*D2
 70
     1
 10
0.0
 20
0.0
 30
0.0
  3
*D2
  1

  0
LINE
  5
9AF
330
310
100
AcDbEntity
  8
BEM
 62
     0
370
    -2
100
AcDbLine
 10
104.2277760004789
 20
282.6377151296925
 30
0.0
 11
104.2277760004789
 21
250.1001328621979
 31
0.0
  0
LINE
  5
9B0
330
310
100
AcDbEntity
  8
BEM
 62
     0
370
    -2
100
AcDbLine
 10
804.2237113377325
 20
285.8723104593521
 30
0.0
 11
804.2237113377325
 21
250.1001328621979
 31
0.0
  0
LINE
  5
9B1
330
310
100
AcDbEntity
  8
BEM
 62
     0
370
    -2
100
AcDbLine
 10
111.2277760004789
 20
252.1001328621979
 30
0.0
 11
797.2237113377325
 21
252.1001328621979
 31
0.0
  0
SOLID
  5
9B2
330
310
100
AcDbEntity
  8
BEM
 62
     0
100
AcDbTrace
 10
111.2277760004789
 20
253.2667995288646
 30
0.0
 11
111.2277760004789
 21
250.9334661955313
 31
0.0
 12
104.2277760004789
 22
252.1001328621979
 32
0.0
 13
104.2277760004789
 23
252.1001328621979
 33
0.0
  0
SOLID
  5
9B3
330
310
100
AcDbEntity
  8
BEM
 62
     0
100
AcDbTrace
 10
797.2237113377325
 20
253.2667995288646
 30
0.0
 11
797.2237113377325
 21
250.9334661955313
 31
0.0
 12
804.2237113377325
 22
252.1001328621979
 32
0.0
 13
804.2237113377325
 23
252.1001328621979
 33
0.0
  0
MTEXT
  5
9B4
330
310
100
AcDbEntity
  8
BEM
 62
     1
100
AcDbMText
 10
455.3491642418495
 20
258.6001328621979
 30
0.0
 40
7.0
 41
0.0
 71
     5
 72
     1
  1
\A1;1000
 73
     1
 44
1.0
  0
POINT
  5
9B5
330
310
100
AcDbEntity
  8
Defpoints
 62
     0
100
AcDbPoint
 10
104.2277760004789
 20
284.6377151296925
 30
0.0
  0
POINT
  5
9B6
330
310
100
AcDbEntity
  8
Defpoints
 62
     0
100
AcDbPoint
 10
804.2237113377325
 20
287.8723104593521
 30
0.0
  0
POINT
  5
9B7
330
310
100
AcDbEntity
  8
Defpoints
 62
     0
100
AcDbPoint
 10
804.2237113377325
 20
252.1001328621979
 30
0.0
  0
ENDBLK
  5
31B
330
310
100
AcDbEntity
  8
0
100
AcDbBlockEnd
  0
BLOCK
  5
6BA
330
6B0
100
AcDbEntity
  8
0
100
AcDbBlockBegin
  2
*D3
 70
     1
 10
0.0
 20
0.0
 30
0.0
  3
*D3
  1

  0
LINE
  5
9A6
330
6B0
100
AcDbEntity
  8
BEM
 62
     0
370
    -2
100
AcDbLine
 10
193.6518437061359
 20
291.1377151296926
 30
0.0
 11
87.73485601615066
 21
291.1377151296926
 31
0.0
  0
LINE
  5
9A7
330
6B0
100
AcDbEntity
  8
BEM
 62
     0
370
    -2
100
AcDbLine
 10
193.6518437061359
 20
380.1377151296924
 30
0.0
 11
87.73485601615067
 21
380.1377151296924
 31
0.0
  0
LINE
  5
9A8
330
6B0
100
AcDbEntity
  8
BEM
 62
     0
370
    -2
100
AcDbLine
 10
89.73485601615065
 20
298.1377151296927
 30
0.0
 11
89.73485601615067
 21
373.1377151296924
 31
0.0
  0
SOLID
  5
9A9
330
6B0
100
AcDbEntity
  8
BEM
 62
     0
100
AcDbTrace
 10
88.56818934948398
 20
298.1377151296927
 30
0.0
 11
90.90152268281732
 21
298.1377151296927
 31
0.0
 12
89.73485601615065
 22
291.1377151296926
 32
0.0
 13
89.73485601615065
 23
291.1377151296926
 33
0.0
  0
SOLID
  5
9AA
330
6B0
100
AcDbEntity
  8
BEM
 62
     0
100
AcDbTrace
 10
88.568189349484
 20
373.1377151296924
 30
0.0
 11
90.90152268281734
 21
373.1377151296924
 31
0.0
 12
89.73485601615067
 22
380.1377151296924
 32
0.0
 13
89.73485601615067
 23
380.1377151296924
 33
0.0
  0
MTEXT
  5
9AB
330
6B0
100
AcDbEntity
  8
BEM
 62
     1
100
AcDbMText
 10
83.23485601615059
 20
335.6377151296925
 30
0.0
 40
7.0
 41
0.0
 71
     5
 72
     1
  1
\A1;%%c89
 11
0.0000000000000001
 21
1.0
 31
0.0
 73
     1
 44
1.0
  0
POINT
  5
9AC
330
6B0
100
AcDbEntity
  8
Defpoints
 62
     0
100
AcDbPoint
 10
195.6518437061359
 20
291.1377151296926
 30
0.0
  0
POINT
  5
9AD
330
6B0
100
AcDbEntity
  8
Defpoints
 62
     0
100
AcDbPoint
 10
195.6518437061359
 20
380.1377151296924
 30
0.0
  0
POINT
  5
9AE
330
6B0
100
AcDbEntity
  8
Defpoints
 62
     0
100
AcDbPoint
 10
89.73485601615067
 20
380.1377151296924
 30
0.0
  0
ENDBLK
  5
6BB
330
6B0
100
AcDbEntity
  8
0
100
AcDbBlockEnd
  0
BLOCK
  5
6C6
330
6BC
100
AcDbEntity
  8
0
100
AcDbBlockBegin
  2
*D4
 70
     1
 10
0.0
 20
0.0
 30
0.0
  3
*D4
  1

  0
LINE
  5
99D
330
6BC
100
AcDbEntity
  8
BEM
 62
     0
370
    -2
100
AcDbLine
 10
102.2277760004789
 20
284.6377151296925
 30
0.0
 11
70.07928156372137
 21
284.6377151296925
 31
0.0
  0
LINE
  5
99E
330
6BC
100
AcDbEntity
  8
BEM
 62
     0
370
    -2
100
AcDbLine
 10
102.2277760004789
 20
386.6377151296925
 30
0.0
 11
70.07928156372139
 21
386.6377151296925
 31
0.0
  0
LINE
  5
99F
330
6BC
100
AcDbEntity
  8
BEM
 62
     0
370
    -2
100
AcDbLine
 10
72.07928156372138
 20
291.6377151296925
 30
0.0
 11
72.0792815637214
 21
379.6377151296925
 31
0.0
  0
SOLID
  5
9A0
330
6BC
100
AcDbEntity
  8
BEM
 62
     0
100
AcDbTrace
 10
70.91261489705471
 20
291.6377151296925
 30
0.0
 11
73.24594823038805
 21
291.6377151296925
 31
0.0
 12
72.07928156372137
 22
284.6377151296925
 32
0.0
 13
72.07928156372137
 23
284.6377151296925
 33
0.0
  0
SOLID
  5
9A1
330
6BC
100
AcDbEntity
  8
BEM
 62
     0
100
AcDbTrace
 10
70.91261489705472
 20
379.6377151296925
 30
0.0
 11
73.24594823038807
 21
379.6377151296925
 31
0.0
 12
72.0792815637214
 22
386.6377151296925
 32
0.0
 13
72.0792815637214
 23
386.6377151296925
 33
0.0
  0
MTEXT
  5
9A2
330
6BC
100
AcDbEntity
  8
BEM
 62
     1
100
AcDbMText
 10
65.57928156372132
 20
335.6377151296925
 30
0.0
 40
7.0
 41
0.0
 71
     5
 72
     1
  1
\A1;%%c102
 11
0.0000000000000001
 21
1.0
 31
0.0
 73
     1
 44
1.0
  0
POINT
  5
9A3
330
6BC
100
AcDbEntity
  8
Defpoints
 62
     0
100
AcDbPoint
 10
104.2277760004789
 20
284.6377151296925
 30
0.0
  0
POINT
  5
9A4
330
6BC
100
AcDbEntity
  8
Defpoints
 62
     0
100
AcDbPoint
 10
104.2277760004789
 20
386.6377151296925
 30
0.0
  0
POINT
  5
9A5
330
6BC
100
AcDbEntity
  8
Defpoints
 62
     0
100
AcDbPoint
 10
72.0792815637214
 20
386.6377151296925
 30
0.0
  0
ENDBLK
  5
6C7
330
6BC
100
AcDbEntity
  8
0
100
AcDbBlockEnd
  0
BLOCK
  5
6D2
330
6C8
100
AcDbEntity
  8
0
100
AcDbBlockBegin
  2
*D5
 70
     1
 10
0.0
 20
0.0
 30
0.0
  3
*D5
  1

  0
LINE
  5
994
330
6C8
100
AcDbEntity
  8
BEM
 62
     0
370
    -2
100
AcDbLine
 10
104.227776000479
 20
282.6377151296925
 30
0.0
 11
104.227776000479
 21
266.9130060859106
 31
0.0
  0
LINE
  5
995
330
6C8
100
AcDbEntity
  8
BEM
 62
     0
370
    -2
100
AcDbLine
 10
179.227776000479
 20
282.6377151296925
 30
0.0
 11
179.227776000479
 21
266.9130060859106
 31
0.0
  0
LINE
  5
996
330
6C8
100
AcDbEntity
  8
BEM
 62
     0
370
    -2
100
AcDbLine
 10
111.2277760004791
 20
268.9130060859106
 30
0.0
 11
172.2277760004791
 21
268.9130060859106
 31
0.0
  0
SOLID
  5
997
330
6C8
100
AcDbEntity
  8
BEM
 62
     0
100
AcDbTrace
 10
111.2277760004791
 20
270.0796727525773
 30
0.0
 11
111.2277760004791
 21
267.7463394192439
 31
0.0
 12
104.227776000479
 22
268.9130060859106
 32
0.0
 13
104.227776000479
 23
268.9130060859106
 33
0.0
  0
SOLID
  5
998
330
6C8
100
AcDbEntity
  8
BEM
 62
     0
100
AcDbTrace
 10
172.2277760004791
 20
270.0796727525773
 30
0.0
 11
172.2277760004791
 21
267.7463394192439
 31
0.0
 12
179.227776000479
 22
268.9130060859106
 32
0.0
 13
179.227776000479
 23
268.9130060859106
 33
0.0
  0
MTEXT
  5
999
330
6C8
100
AcDbEntity
  8
BEM
 62
     1
100
AcDbMText
 10
141.727776000479
 20
275.4130060859106
 30
0.0
 40
7.0
 41
0.0
 71
     5
 72
     1
  1
\A1;75
 73
     1
 44
1.0
  0
POINT
  5
99A
330
6C8
100
AcDbEntity
  8
Defpoints
 62
     0
100
AcDbPoint
 10
104.227776000479
 20
284.6377151296925
 30
0.0
  0
POINT
  5
99B
330
6C8
100
AcDbEntity
  8
Defpoints
 62
     0
100
AcDbPoint
 10
179.227776000479
 20
284.6377151296925
 30
0.0
  0
POINT
  5
99C
330
6C8
100
AcDbEntity
  8
Defpoints
 62
     0
100
AcDbPoint
 10
179.227776000479
 20
268.9130060859106
 30
0.0
  0
ENDBLK
  5
6D3
330
6C8
100
AcDbEntity
  8
0
100
AcDbBlockEnd
  0
BLOCK
  5
97F
330
975
100
AcDbEntity
  8
0
100
AcDbBlockBegin
  2
*D6
 70
     1
 10
0.0
 20
0.0
 30
0.0
  3
*D6
  1

  0
LINE
  5
98B
330
975
100
AcDbEntity
  8
BEM
 62
     0
370
    -2
100
AcDbLine
 10
804.2237113377325
 20
285.8723104593521
 30
0.0
 11
804.2237113377325
 21
266.9869718455949
 31
0.0
  0
LINE
  5
98C
330
975
100
AcDbEntity
  8
BEM
 62
     0
370
    -2
100
AcDbLine
 10
674.2237113377326
 20
287.3156991066572
 30
0.0
 11
674.2237113377326
 21
266.9869718455949
 31
0.0
  0
LINE
  5
98D
330
975
100
AcDbEntity
  8
BEM
 62
     0
370
    -2
100
AcDbLine
 10
797.2237113377325
 20
268.9869718455949
 30
0.0
 11
681.2237113377326
 21
268.9869718455949
 31
0.0
  0
SOLID
  5
98E
330
975
100
AcDbEntity
  8
BEM
 62
     0
100
AcDbTrace
 10
797.2237113377325
 20
270.1536385122616
 30
0.0
 11
797.2237113377325
 21
267.8203051789282
 31
0.0
 12
804.2237113377325
 22
268.9869718455949
 32
0.0
 13
804.2237113377325
 23
268.9869718455949
 33
0.0
  0
SOLID
  5
98F
330
975
100
AcDbEntity
  8
BEM
 62
     0
100
AcDbTrace
 10
681.2237113377326
 20
270.1536385122616
 30
0.0
 11
681.2237113377326
 21
267.8203051789282
 31
0.0
 12
674.2237113377326
 22
268.9869718455949
 32
0.0
 13
674.2237113377326
 23
268.9869718455949
 33
0.0
  0
MTEXT
  5
990
330
975
100
AcDbEntity
  8
BEM
 62
     1
100
AcDbMText
 10
739.2237113377325
 20
275.4869718455949
 30
0.0
 40
7.0
 41
0.0
 71
     5
 72
     1
  1
\A1;130
 73
     1
 44
1.0
  0
POINT
  5
991
330
975
100
AcDbEntity
  8
Defpoints
 62
     0
100
AcDbPoint
 10
804.2237113377325
 20
287.8723104593521
 30
0.0
  0
POINT
  5
992
330
975
100
AcDbEntity
  8
Defpoints
 62
     0
100
AcDbPoint
 10
674.2237113377326
 20
289.3156991066572
 30
0.0
  0
POINT
  5
993
330
975
100
AcDbEntity
  8
Defpoints
 62
     0
100
AcDbPoint
 10
674.2237113377326
 20
268.9869718455949
 30
0.0
  0
ENDBLK
  5
980
330
975
100
AcDbEntity
  8
0
100
AcDbBlockEnd
  0
ENDSEC
  0
SECTION
  2
ENTITIES
  0
LINE
  5
58
330
1E
100
AcDbEntity
  8
STEMPEL
100
AcDbLine
 10
830.0000000000002
 20
110.0
 30
0.0
 11
470.0000000000001
 21
110.0
 31
0.0
  0
LINE
  5
59
330
1E
100
AcDbEntity
  8
STEMPEL
100
AcDbLine
 10
470.0000000000001
 20
110.0
 30
0.0
 11
470.0000000000001
 21
10.0
 31
0.0
  0
LINE
  5
5A
330
1E
100
AcDbEntity
  8
STEMPEL
100
AcDbLine
 10
566.0000000000002
 20
109.9999999999999
 30
0.0
 11
566.0000000000001
 21
9.999999999999886
 31
0.0
  0
LINE
  5
5B
330
1E
100
AcDbEntity
  8
STEMPEL
100
AcDbLine
 10
650.0
 20
110.0
 30
0.0
 11
650.0
 21
10.0
 31
0.0
  0
LINE
  5
5C
330
1E
100
AcDbEntity
  8
STEMPEL
100
AcDbLine
 10
752.0000000000002
 20
109.9999999999997
 30
0.0
 11
752.0000000000002
 21
40.0
 31
0.0
  0
LINE
  5
5D
330
1E
100
AcDbEntity
  8
STEMPEL
100
AcDbLine
 10
566.0
 20
30.0
 30
0.0
 11
470.0000000000001
 21
30.0
 31
0.0
  0
LINE
  5
5E
330
1E
100
AcDbEntity
  8
STEMPEL
100
AcDbLine
 10
830.0000000000002
 20
40.0
 30
0.0
 11
566.0000000000001
 21
40.0
 31
0.0
  0
LINE
  5
5F
330
1E
100
AcDbEntity
  8
STEMPEL
100
AcDbLine
 10
830.0000000000002
 20
80.0
 30
0.0
 11
566.0000000000002
 21
80.0
 31
0.0
  0
LINE
  5
60
330
1E
100
AcDbEntity
  8
VOLL
100
AcDbLine
 10
484.0000000000002
 20
110.0
 30
0.0
 11
484.0000000000001
 21
9.999999999999985
 31
0.0
  0
LINE
  5
61
330
1E
100
AcDbEntity
  8
VOLL
100
AcDbLine
 10
524.0000000000001
 20
109.9999999999999
 30
0.0
 11
524.0000000000001
 21
9.999999999999943
 31
0.0
  0
LINE
  5
62
330
1E
100
AcDbEntity
  8
VOLL
100
AcDbLine
 10
544.0000000000002
 20
109.9999999999999
 30
0.0
 11
544.0000000000001
 21
9.999999999999914
 31
0.0
  0
LINE
  5
63
330
1E
100
AcDbEntity
  8
VOLL
100
AcDbLine
 10
584.0000000000002
 20
80.0
 30
0.0
 11
584.0000000000002
 21
40.0
 31
0.0
  0
LINE
  5
64
330
1E
100
AcDbEntity
  8
VOLL
100
AcDbLine
 10
610.0000000000002
 20
109.9999999999998
 30
0.0
 11
610.0000000000001
 21
40.0
 31
0.0
  0
LINE
  5
65
330
1E
100
AcDbEntity
  8
HILF
100
AcDbLine
 10
470.0000000000001
 20
100.0
 30
0.0
 11
566.0000000000002
 21
100.0
 31
0.0
  0
LINE
  5
66
330
1E
100
AcDbEntity
  8
HILF
100
AcDbLine
 10
470.0000000000001
 20
90.0
 30
0.0
 11
566.0000000000002
 21
90.0
 31
0.0
  0
LINE
  5
67
330
1E
100
AcDbEntity
  8
HILF
100
AcDbLine
 10
470.0000000000001
 20
80.0
 30
0.0
 11
566.0000000000002
 21
80.0
 31
0.0
  0
LINE
  5
68
330
1E
100
AcDbEntity
  8
HILF
100
AcDbLine
 10
470.0000000000001
 20
70.0
 30
0.0
 11
566.0000000000002
 21
70.0
 31
0.0
  0
LINE
  5
69
330
1E
100
AcDbEntity
  8
HILF
100
AcDbLine
 10
470.0000000000001
 20
60.0
 30
0.0
 11
566.0000000000002
 21
60.0
 31
0.0
  0
LINE
  5
6A
330
1E
100
AcDbEntity
  8
HILF
100
AcDbLine
 10
470.0000000000001
 20
50.0
 30
0.0
 11
566.0000000000002
 21
50.0
 31
0.0
  0
LINE
  5
6B
330
1E
100
AcDbEntity
  8
HILF
100
AcDbLine
 10
470.0000000000001
 20
40.0
 30
0.0
 11
566.0000000000002
 21
40.0
 31
0.0
  0
LINE
  5
6C
330
1E
100
AcDbEntity
  8
HILF
100
AcDbLine
 10
566.0000000000002
 20
70.0
 30
0.0
 11
650.0
 21
70.0
 31
0.0
  0
LINE
  5
6D
330
1E
100
AcDbEntity
  8
HILF
100
AcDbLine
 10
566.0000000000002
 20
60.0
 30
0.0
 11
650.0
 21
60.0
 31
0.0
  0
LINE
  5
6E
330
1E
100
AcDbEntity
  8
HILF
100
AcDbLine
 10
566.0000000000002
 20
50.0
 30
0.0
 11
650.0
 21
50.0
 31
0.0
  0
LINE
  5
6F
330
1E
100
AcDbEntity
  8
HILF
100
AcDbLine
 10
654.7736801096948
 20
84.03758247564136
 30
0.0
 11
746.6297842514811
 21
84.03758247564136
 31
0.0
  0
LINE
  5
70
330
1E
100
AcDbEntity
  8
HILF
100
AcDbLine
 10
654.7736801096948
 20
70.0
 30
0.0
 11
746.6297842514811
 21
70.0
 31
0.0
  0
LINE
  5
71
330
1E
100
AcDbEntity
  8
HILF
100
AcDbLine
 10
654.7736801096948
 20
60.0
 30
0.0
 11
746.6297842514811
 21
60.0
 31
0.0
  0
LINE
  5
72
330
1E
100
AcDbEntity
  8
HILF
100
AcDbLine
 10
654.7736801096948
 20
50.0
 30
0.0
 11
746.6297842514811
 21
50.0
 31
0.0
  0
LINE
  5
73
330
1E
100
AcDbEntity
  8
VOLL
100
AcDbLine
 10
752.0000000000002
 20
60.0
 30
0.0
 11
830.0000000000002
 21
60.0
 31
0.0
  0
LINE
  5
74
330
1E
100
AcDbEntity
  8
HILF
100
AcDbLine
 10
756.7238616296995
 20
83.77983636955823
 30
0.0
 11
824.858883932673
 21
83.77983636955823
 31
0.0
  0
LINE
  5
75
330
1E
100
AcDbEntity
  8
HILF
100
AcDbLine
 10
654.7736801096948
 20
14.89398258028305
 30
0.0
 11
824.858883932673
 21
14.89398258028305
 31
0.0
  0
TEXT
  5
76
330
1E
100
AcDbEntity
  8
TEXT
100
AcDbText
 10
492.3998239263297
 20
18.67381894984129
 30
0.0
 40
4.0
  1
Änderung
 41
0.8
  7
GREEKS
 72
     1
 11
503.1426810691868
 21
18.67381894984129
 31
0.0
100
AcDbText
  0
TEXT
  5
78
330
1E
100
AcDbEntity
  8
TEXT
100
AcDbText
 10
573.5163572150378
 20
102.4620895087088
 30
0.0
 40
5.0
  1
Maßstab
 41
0.8
  7
GREEKS
100
AcDbText
  0
TEXT
  5
79
330
1E
100
AcDbEntity
  8
TEXT
100
AcDbText
 10
654.8779403809011
 20
102.5489328011779
 30
0.0
 40
5.0
  1
Benennung
 41
0.8
  7
GREEKS
100
AcDbText
  0
TEXT
  5
7A
330
1E
100
AcDbEntity
  8
TEXT
100
AcDbText
 10
756.1787549576343
 20
102.3132034537135
 30
0.0
 40
5.0
  1
Zeichnungs Nr.
 41
0.8
  7
GREEKS
100
AcDbText
  0
TEXT
  5
7B
330
1E
100
AcDbEntity
  8
TEXT
100
AcDbText
 10
654.742238391136
 20
30.84560570193055
 30
0.0
 40
5.0
  1
Bauvorhaben
 41
0.8
  7
GREEKS
100
AcDbText
  0
TEXT
  5
7C
330
1E
100
AcDbEntity
  8
TEXT
100
AcDbText
 10
756.7238616296995
 20
73.18118237099965
 30
0.0
 40
5.0
  1
Ersatz für:
 41
0.8
  7
GREEKS
100
AcDbText
  0
TEXT
  5
7D
330
1E
100
AcDbEntity
  8
TEXT
100
AcDbText
 10
478.2664110704577
 20
13.65465846027187
 30
0.0
 40
4.0
  1
Index
 50
90.0
 41
0.8
  7
GREEKS
100
AcDbText
  0
TEXT
  5
7E
330
1E
100
AcDbEntity
  8
TEXT
100
AcDbText
 10
529.8990113186979
 20
18.67156269339808
 30
0.0
 40
4.0
  1
Tag
 41
0.8
  7
GREEKS
 72
     1
 11
533.6323446520313
 21
18.67156269339808
 31
0.0
100
AcDbText
  0
TEXT
  5
7F
330
1E
100
AcDbEntity
  8
TEXT
100
AcDbText
 10
548.9795678138293
 20
18.59324216966404
 30
0.0
 40
4.0
  1
Name
 41
0.8
  7
GREEKS
 72
     1
 11
555.3033773376388
 21
18.59324216966404
 31
0.0
100
AcDbText
  0
TEXT
  5
80
330
1E
100
AcDbEntity
  8
TEXT
100
AcDbText
 10
592.3311673153651
 20
73.31880501229919
 30
0.0
 40
4.0
  1
Tag
 41
0.8
  7
GREEKS
100
AcDbText
  0
TEXT
  5
81
330
1E
100
AcDbEntity
  8
TEXT
100
AcDbText
 10
622.4626584226296
 20
73.3096109191522
 30
0.0
 40
4.0
  1
Name
 41
0.8
  7
GREEKS
100
AcDbText
  0
TEXT
  5
82
330
1E
100
AcDbEntity
  8
TEXT
100
AcDbText
 10
567.5836127167616
 20
63.62990369617961
 30
0.0
 40
4.0
  1
Gez.
 41
0.8
  7
GREEKS
100
AcDbText
  0
TEXT
  5
83
330
1E
100
AcDbEntity
  8
TEXT
100
AcDbText
 10
567.5515086571673
 20
53.68926291428373
 30
0.0
 40
4.0
  1
Gepr.
 41
0.8
  7
GREEKS
100
AcDbText
  0
TEXT
  5
84
330
1E
100
AcDbEntity
  8
TEXT
100
AcDbText
 10
567.6006777387304
 20
43.52946389649804
 30
0.0
 40
4.0
  1
Norm.
 41
0.8
  7
GREEKS
100
AcDbText
  0
TEXT
  5
85
330
1E
100
AcDbEntity
  8
TEXT
100
AcDbText
 10
757.2400861497007
 20
52.07416177878596
 30
0.0
 40
5.0
  1
ersetzt durch:
 41
0.8
  7
GREEKS
100
AcDbText
  0
TEXT
  5
86
330
1E
100
AcDbEntity
  8
TEXT
100
AcDbText
 10
568.8693027807324
 20
72.96682596523723
 30
0.0
 40
4.0
  1
2009
 41
0.8
  7
GREEKS
100
AcDbText
  0
LINE
  5
87
330
1E
100
AcDbEntity
  8
HILF
100
AcDbLine
 10
0.0
 20
0.0
 30
0.0
 11
840.0
 21
0.0
 31
0.0
  0
LINE
  5
88
330
1E
100
AcDbEntity
  8
HILF
100
AcDbLine
 10
840.0
 20
0.0
 30
0.0
 11
840.0
 21
594.0
 31
0.0
  0
LINE
  5
89
330
1E
100
AcDbEntity
  8
HILF
100
AcDbLine
 10
840.0
 20
594.0
 30
0.0
 11
0.0
 21
594.0
 31
0.0
  0
LINE
  5
8B
330
1E
100
AcDbEntity
  8
STEMPEL
100
AcDbLine
 10
830.0
 20
584.0
 30
0.0
 11
40.0
 21
584.0
 31
0.0
  0
LINE
  5
8D
330
1E
100
AcDbEntity
  8
STEMPEL
100
AcDbLine
 10
40.0
 20
10.0
 30
0.0
 11
830.0
 21
10.0
 31
0.0
  0
LINE
  5
8E
330
1E
100
AcDbEntity
  8
STEMPEL
100
AcDbLine
 10
830.0
 20
10.0
 30
0.0
 11
830.0
 21
584.0
 31
0.0
  0
TEXT
  5
8F
330
1E
100
AcDbEntity
  8
TEXT
 62
     1
100
AcDbText
 10
655.0390572473189
 20
87.37343075652544
 30
0.0
 40
7.0
  1
Regenstandrohr DN80
 41
0.8
  7
GREEKS
100
AcDbText
  0
TEXT
  5
90
330
1E
100
AcDbEntity
  8
TEXT
 62
     1
100
AcDbText
 10
766.1294755517469
 20
87.37343075652544
 30
0.0
 40
7.0
  1
45526080W
 41
0.8
  7
GREEKS
 72
     1
 11
790.1294755517469
 21
87.37343075652544
 31
0.0
100
AcDbText
  0
TEXT
  5
91
330
1E
100
AcDbEntity
  8
TEXT
100
AcDbText
 10
618.509022641583
 20
102.83989611379
 30
0.0
 40
5.0
  1
Zul.Abw.
 41
0.8
  7
GREEKS
100
AcDbText
  0
TEXT
  5
93
330
1E
100
AcDbEntity
  8
TEXT
100
AcDbText
 10
590.1565237511869
 20
63.1508587612022
 30
0.0
 40
4.0
  1
28.09.
 41
0.8
  7
GREEKS
 72
     1
 11
597.1660475607107
 21
63.1508587612022
 31
0.0
100
AcDbText
  0
TEXT
  5
94
330
1E
100
AcDbEntity
  8
TEXT
100
AcDbText
 10
624.023175322661
 20
62.94297655165468
 30
0.0
 40
4.0
  1
Koeh
 41
0.8
  7
GREEKS
 72
     1
 11
629.2803181798038
 21
62.94297655165468
 31
0.0
100
AcDbText
  0
TEXT
  5
95
330
1E
100
AcDbEntity
  8
TEXT
100
AcDbText
 10
654.3410940884992
 20
72.10021383107525
 30
0.0
 40
5.0
  1

 41
0.8
  7
GREEKS
100
AcDbText
  0
TEXT
  5
96
330
1E
100
AcDbEntity
  8
TEXT
100
AcDbText
 10
654.3410940884992
 20
62.34559085209035
 30
0.0
 40
5.0
  1

 41
0.8
  7
GREEKS
100
AcDbText
  0
TEXT
  5
97
330
1E
100
AcDbEntity
  8
TEXT
100
AcDbText
 10
654.3410940884992
 20
52.59097337846058
 30
0.0
 40
5.0
  1

 41
0.8
  7
GREEKS
100
AcDbText
  0
TEXT
  5
98
330
1E
100
AcDbEntity
  8
TEXT
100
AcDbText
 10
654.1676050109348
 20
43.31127624791508
 30
0.0
 40
4.0
  1
45526080W.DWG
 41
0.8
  7
GREEKS
100
AcDbText
  0
TEXT
  5
99
330
1E
100
AcDbEntity
  8
TEXT
 62
     1
100
AcDbText
 10
582.7034912034222
 20
87.47077088414977
 30
0.0
 40
7.0
  1
1:2
 41
0.8
  7
GREEKS
100
AcDbText
  0
TEXT
  5
9A
330
1E
100
AcDbEntity
  8
TEXT
100
AcDbText
 10
470.0441139350127
 20
114.1143585051043
 30
0.0
 40
5.0
  1
Erstellt mit AUTOCAD 2004
 41
0.8
  7
GREEKS
100
AcDbText
  0
INSERT
  5
9B
330
1E
100
AcDbEntity
  8
HILF
100
AcDbBlockReference
  2
LORO
 10
573.0624985962354
 20
36.9805930029896
 30
0.0
 41
2.0
 42
2.0
 43
2.0
  0
LINE
  5
9C
330
1E
100
AcDbEntity
  8
BEM
100
AcDbLine
 10
456.0
 20
0.0
 30
0.0
 11
456.0
 21
10.0
 31
0.0
  0
LINE
  5
13E
330
1E
100
AcDbEntity
  8
HILF
100
AcDbLine
 10
0.0
 20
0.0
 30
0.0
 11
0.0
 21
594.0
 31
0.0
  0
LINE
  5
13F
330
1E
100
AcDbEntity
  8
STEMPEL
100
AcDbLine
 10
40.0
 20
10.0
 30
0.0
 11
40.0
 21
584.0
 31
0.0
  0
LINE
  5
14A
330
1E
100
AcDbEntity
  8
HILF
100
AcDbLine
 10
0.0
 20
297.0
 30
0.0
 11
40.0
 21
297.0
 31
0.0
  0
TEXT
  5
15B
330
1E
100
AcDbEntity
  8
BEM
100
AcDbText
 10
837.3022923857165
 20
10.16790107998861
 30
0.0
 40
4.0
  1
Diese Zeichnung ist urheberrechtlich geschützt und bleibt unser Eigentum. Sie darf weder ganz noch teilweise verfielfältigt und nicht an Dritte weitergegeben werden.
 50
90.0
 41
0.8
  7
GREEKS
100
AcDbText
  0
LINE
  5
188
330
1E
100
AcDbEntity
  8
BEM
100
AcDbLine
 10
456.0
 20
594.0
 30
0.0
 11
456.0
 21
584.0
 31
0.0
  0
TEXT
  5
26A
330
1E
100
AcDbEntity
  8
TEXT
 62
     1
100
AcDbText
 10
78.31581065760474
 20
217.7573153173921
 30
0.0
 40
7.0
  1
Rohrende leicht eingezogen
 41
0.8
  7
GREEKS
100
AcDbText
  0
TEXT
  5
26B
330
1E
100
AcDbEntity
  8
TEXT
 62
     1
100
AcDbText
 10
694.1420619227901
 20
139.9493633537276
 30
0.0
 40
7.0
  1
Werkstoff: 1.4571
 41
0.8
  7
GREEKS
100
AcDbText
  0
DIMENSION
  5
28B
330
1E
100
AcDbEntity
  8
BEM
100
AcDbDimension
  2
*D2
 10
804.2237113377325
 20
252.1001328621979
 30
0.0
 11
455.3491642418495
 21
252.1001328621979
 31
0.0
 70
   160
  1
1000
 71
     5
 42
699.9959353372535
  3
Standard
100
AcDbAlignedDimension
 13
104.2277760004789
 23
284.6377151296925
 33
0.0
 14
804.2237113377325
 24
287.8723104593521
 34
0.0
100
AcDbRotatedDimension
1001
ACAD
1000
DSTYLE
1002
{
1070
    40
1040
2.0
1070
    41
1040
3.5
1070
    42
1040
1.0
1070
    43
1040
7.0
1070
    44
1040
1.0
1070
    73
1070
     0
1070
    74
1070
     0
1070
    77
1070
     1
1070
    78
1070
     8
1070
    79
1070
     2
1070
   140
1040
3.5
1070
   141
1040
1.5
1070
   146
1040
0.5142857142857144
1070
   147
1040
1.5
1070
   172
1070
     1
1070
   178
1070
     1
1070
   179
1070
     2
1070
   271
1070
     2
1070
   272
1070
     2
1070
   284
1070
     8
1070
   285
1070
     8
1070
   286
1070
     8
1002
}
  0
LINE
  5
2B3
330
1E
100
AcDbEntity
  8
STEMPEL
100
AcDbLine
 10
668.9171116731647
 20
380.1377151296924
 30
0.0
 11
632.9644309319577
 21
380.1377151296924
 31
0.0
  0
LINE
  5
2B4
330
1E
100
AcDbEntity
  8
STEMPEL
100
AcDbLine
 10
668.9171116731647
 20
291.1377151296925
 30
0.0
 11
632.9644309319578
 21
291.1377151296925
 31
0.0
  0
LINE
  5
2B8
330
1E
100
AcDbEntity
  8
STEMPEL
100
AcDbLine
 10
804.2237113377332
 20
287.8723104593525
 30
0.0
 11
802.0153691139835
 21
286.8425435685909
 31
0.0
  0
ARC
  5
2B9
330
1E
100
AcDbEntity
  8
STEMPEL
100
AcDbCircle
 10
791.6189598751623
 20
309.1377151296925
 30
0.0
 40
24.6
100
AcDbArc
 50
270.0
 51
294.9999999999906
  0
LINE
  5
2BA
330
1E
100
AcDbEntity
  8
STEMPEL
100
AcDbLine
 10
804.2237113377334
 20
383.4031198000324
 30
0.0
 11
802.0153691139835
 21
384.432886690794
 31
0.0
  0
ARC
  5
2BB
330
1E
100
AcDbEntity
  8
STEMPEL
100
AcDbCircle
 10
791.6189598751623
 20
362.1377151296924
 30
0.0
 40
24.6
100
AcDbArc
 50
65.00000000000574
 51
89.99999999999998
  0
ARC
  5
2BC
330
1E
100
AcDbEntity
  8
STEMPEL
100
AcDbCircle
 10
784.5918563469431
 20
309.5377151296925
 30
0.0
 40
25.00009324312574
100
AcDbArc
 50
244.9670575584352
 51
270.1564859543474
  0
ARC
  5
2BD
330
1E
100
AcDbEntity
  8
STEMPEL
100
AcDbCircle
 10
768.8835782745382
 20
276.0377151296924
 30
0.0
 40
12.0
100
AcDbArc
 50
64.6922769019809
 51
89.99999999999998
  0
ARC
  5
2BE
330
1E
100
AcDbEntity
  8
STEMPEL
100
AcDbCircle
 10
668.9171116731647
 20
283.1377151296924
 30
0.0
 40
8.0
100
AcDbArc
 50
57.67193587783829
 51
89.99999999999998
  0
ARC
  5
2BF
330
1E
100
AcDbEntity
  8
STEMPEL
100
AcDbCircle
 10
679.6124377551503
 20
300.0377151296924
 30
0.0
 40
12.0
100
AcDbArc
 50
237.6719358778383
 51
270.0
  0
LINE
  5
2C0
330
1E
100
AcDbEntity
  8
STEMPEL
100
AcDbLine
 10
768.8835782745382
 20
288.0377151296924
 30
0.0
 11
679.6124377551503
 21
288.0377151296924
 31
0.0
  0
ARC
  5
2C1
330
1E
100
AcDbEntity
  8
STEMPEL
100
AcDbCircle
 10
784.5918563469431
 20
361.7377151296925
 30
0.0
 40
25.00009324312574
100
AcDbArc
 50
89.84351404565261
 51
115.0329424415662
  0
ARC
  5
2C2
330
1E
100
AcDbEntity
  8
STEMPEL
100
AcDbCircle
 10
768.8835782745382
 20
395.2377151296924
 30
0.0
 40
12.0
100
AcDbArc
 50
270.0
 51
295.3077230980227
  0
ARC
  5
2C3
330
1E
100
AcDbEntity
  8
STEMPEL
100
AcDbCircle
 10
668.9171116731647
 20
388.1377151296924
 30
0.0
 40
8.0
100
AcDbArc
 50
270.0
 51
302.3280641221617
  0
ARC
  5
2C4
330
1E
100
AcDbEntity
  8
STEMPEL
100
AcDbCircle
 10
679.6124377551503
 20
371.2377151296924
 30
0.0
 40
12.0
100
AcDbArc
 50
89.99999999999998
 51
122.3280641221617
  0
LINE
  5
2C5
330
1E
100
AcDbEntity
  8
STEMPEL
100
AcDbLine
 10
768.8835782745382
 20
383.2377151296924
 30
0.0
 11
679.6124377551503
 21
383.2377151296924
 31
0.0
  0
LINE
  5
2C6
330
1E
100
AcDbEntity
  8
HILF
100
AcDbLine
 10
771.8608407571805
 20
381.9676017876953
 30
0.0
 11
771.8608407571805
 21
289.3078284716896
 31
0.0
  0
LINE
  5
2C7
330
1E
100
AcDbEntity
  8
HILF
100
AcDbLine
 10
676.7172002864787
 20
381.2265889400876
 30
0.0
 11
676.7172002864787
 21
290.0488413192972
 31
0.0
  0
LINE
  5
2C8
330
1E
100
AcDbEntity
  8
HILF
100
AcDbLine
 10
671.5896385673231
 20
378.9172162277891
 30
0.0
 11
671.5896385673231
 21
292.3582140315958
 31
0.0
  0
LINE
  5
2C9
330
1E
100
AcDbEntity
  8
STEMPEL
100
AcDbLine
 10
791.6189598751623
 20
386.7377151296924
 30
0.0
 11
784.6601363951323
 21
386.7377151296924
 31
0.0
  0
LINE
  5
2CA
330
1E
100
AcDbEntity
  8
STEMPEL
100
AcDbLine
 10
791.6189598751623
 20
284.5377151296925
 30
0.0
 11
784.6601363951323
 21
284.5377151296925
 31
0.0
  0
LINE
  5
2CB
330
1E
100
AcDbEntity
  8
STEMPEL
100
AcDbLine
 10
804.2237113377343
 20
383.4031198000319
 30
0.0
 11
804.2237113377325
 21
287.8723104593521
 31
0.0
  0
TEXT
  5
2CC
330
1E
100
AcDbEntity
  8
TEXT
 62
     1
100
AcDbText
 10
724.9688067865264
 20
342.0984756055124
 30
0.0
 40
7.0
  1
DN80
 41
0.8
  7
GREEKS
100
AcDbText
  0
LINE
  5
2CE
330
1E
100
AcDbEntity
  8
MITTEL
100
AcDbLine
 10
809.2237113377363
 20
335.6377151296924
 30
0.0
 11
99.22777600047893
 21
335.6377151296925
 31
0.0
  0
POLYLINE
  5
58D
330
1E
100
AcDbEntity
  8
HILF
100
AcDb2dPolyline
 66
     1
 10
0.0
 20
0.0
 30
0.0
 70
     4
 75
     6
  0
VERTEX
  5
58E
330
58D
100
AcDbEntity
  8
HILF
100
AcDbVertex
100
AcDb2dVertex
 10
632.9644309319578
 20
291.1377151296924
 30
0.0
 70
    16
  0
VERTEX
  5
594
330
58D
100
AcDbEntity
  8
HILF
100
AcDbVertex
100
AcDb2dVertex
 10
632.9644309319578
 20
291.1377151296924
 30
0.0
 70
     8
  0
VERTEX
  5
596
330
58D
100
AcDbEntity
  8
HILF
100
AcDbVertex
100
AcDb2dVertex
 10
629.8882590569578
 20
298.9817092703174
 30
0.0
 70
     8
  0
VERTEX
  5
597
330
58D
100
AcDbEntity
  8
HILF
100
AcDbVertex
100
AcDb2dVertex
 10
628.0425559319578
 20
305.9131057546924
 30
0.0
 70
     8
  0
VERTEX
  5
598
330
58D
100
AcDbEntity
  8
HILF
100
AcDbVertex
100
AcDb2dVertex
 10
627.2515403069578
 20
312.0622756765674
 30
0.0
 70
     8
  0
VERTEX
  5
599
330
58D
100
AcDbEntity
  8
HILF
100
AcDbVertex
100
AcDb2dVertex
 10
627.3394309319578
 20
317.5595901296924
 30
0.0
 70
     8
  0
VERTEX
  5
59A
330
58D
100
AcDbEntity
  8
HILF
100
AcDbVertex
100
AcDb2dVertex
 10
628.1304465569578
 20
322.5354202078174
 30
0.0
 70
     8
  0
VERTEX
  5
59B
330
58D
100
AcDbEntity
  8
HILF
100
AcDbVertex
100
AcDb2dVertex
 10
629.4488059319578
 20
327.1201370046924
 30
0.0
 70
     8
  0
VERTEX
  5
59C
330
58D
100
AcDbEntity
  8
HILF
100
AcDbVertex
100
AcDb2dVertex
 10
631.1187278069578
 20
331.4441116140674
 30
0.0
 70
     8
  0
VERTEX
  5
59D
330
58D
100
AcDbEntity
  8
HILF
100
AcDbVertex
100
AcDb2dVertex
 10
632.9644309319578
 20
335.6377151296924
 30
0.0
 70
     8
  0
VERTEX
  5
59E
330
58D
100
AcDbEntity
  8
HILF
100
AcDbVertex
100
AcDb2dVertex
 10
634.8101340569578
 20
339.8313186453174
 30
0.0
 70
     8
  0
VERTEX
  5
59F
330
58D
100
AcDbEntity
  8
HILF
100
AcDbVertex
100
AcDb2dVertex
 10
636.4800559319578
 20
344.1552932546924
 30
0.0
 70
     8
  0
VERTEX
  5
5A0
330
58D
100
AcDbEntity
  8
HILF
100
AcDbVertex
100
AcDb2dVertex
 10
637.7984153069578
 20
348.7400100515674
 30
0.0
 70
     8
  0
VERTEX
  5
5A1
330
58D
100
AcDbEntity
  8
HILF
100
AcDbVertex
100
AcDb2dVertex
 10
638.5894309319578
 20
353.7158401296924
 30
0.0
 70
     8
  0
VERTEX
  5
5A2
330
58D
100
AcDbEntity
  8
HILF
100
AcDbVertex
100
AcDb2dVertex
 10
638.6773215569578
 20
359.2131545828174
 30
0.0
 70
     8
  0
VERTEX
  5
5A3
330
58D
100
AcDbEntity
  8
HILF
100
AcDbVertex
100
AcDb2dVertex
 10
637.8863059319578
 20
365.3623245046924
 30
0.0
 70
     8
  0
VERTEX
  5
5A4
330
58D
100
AcDbEntity
  8
HILF
100
AcDbVertex
100
AcDb2dVertex
 10
636.0406028069577
 20
372.2937209890674
 30
0.0
 70
     8
  0
VERTEX
  5
5A5
330
58D
100
AcDbEntity
  8
HILF
100
AcDbVertex
100
AcDb2dVertex
 10
632.9644309319577
 20
380.1377151296924
 30
0.0
 70
     8
  0
VERTEX
  5
58F
330
58D
100
AcDbEntity
  8
HILF
100
AcDbVertex
100
AcDb2dVertex
 10
622.9644309319578
 20
313.3877151296924
 30
0.0
 70
    16
  0
VERTEX
  5
590
330
58D
100
AcDbEntity
  8
HILF
100
AcDbVertex
100
AcDb2dVertex
 10
632.9644309319578
 20
335.6377151296924
 30
0.0
 70
    16
  0
VERTEX
  5
591
330
58D
100
AcDbEntity
  8
HILF
100
AcDbVertex
100
AcDb2dVertex
 10
642.9644309319578
 20
357.8877151296924
 30
0.0
 70
    16
  0
VERTEX
  5
592
330
58D
100
AcDbEntity
  8
HILF
100
AcDbVertex
100
AcDb2dVertex
 10
632.9644309319578
 20
380.1377151296924
 30
0.0
 70
    16
  0
SEQEND
  5
593
330
58D
100
AcDbEntity
  8
HILF
  0
POLYLINE
  5
5BE
330
1E
100
AcDbEntity
  8
HILF
100
AcDb2dPolyline
 66
     1
 10
0.0
 20
0.0
 30
0.0
 70
     4
 75
     6
  0
VERTEX
  5
5BF
330
5BE
100
AcDbEntity
  8
HILF
100
AcDbVertex
100
AcDb2dVertex
 10
627.9644309319579
 20
291.1377151296924
 30
0.0
 70
    16
  0
VERTEX
  5
5C0
330
5BE
100
AcDbEntity
  8
HILF
100
AcDbVertex
100
AcDb2dVertex
 10
627.9644309319579
 20
291.1377151296924
 30
0.0
 70
     8
  0
VERTEX
  5
5C1
330
5BE
100
AcDbEntity
  8
HILF
100
AcDbVertex
100
AcDb2dVertex
 10
624.8882590569579
 20
298.9817092703174
 30
0.0
 70
     8
  0
VERTEX
  5
5C2
330
5BE
100
AcDbEntity
  8
HILF
100
AcDbVertex
100
AcDb2dVertex
 10
623.0425559319578
 20
305.9131057546924
 30
0.0
 70
     8
  0
VERTEX
  5
5C3
330
5BE
100
AcDbEntity
  8
HILF
100
AcDbVertex
100
AcDb2dVertex
 10
622.2515403069579
 20
312.0622756765674
 30
0.0
 70
     8
  0
VERTEX
  5
5C4
330
5BE
100
AcDbEntity
  8
HILF
100
AcDbVertex
100
AcDb2dVertex
 10
622.3394309319578
 20
317.5595901296924
 30
0.0
 70
     8
  0
VERTEX
  5
5C5
330
5BE
100
AcDbEntity
  8
HILF
100
AcDbVertex
100
AcDb2dVertex
 10
623.1304465569579
 20
322.5354202078174
 30
0.0
 70
     8
  0
VERTEX
  5
5C6
330
5BE
100
AcDbEntity
  8
HILF
100
AcDbVertex
100
AcDb2dVertex
 10
624.4488059319579
 20
327.1201370046924
 30
0.0
 70
     8
  0
VERTEX
  5
5C7
330
5BE
100
AcDbEntity
  8
HILF
100
AcDbVertex
100
AcDb2dVertex
 10
626.1187278069578
 20
331.4441116140674
 30
0.0
 70
     8
  0
VERTEX
  5
5C8
330
5BE
100
AcDbEntity
  8
HILF
100
AcDbVertex
100
AcDb2dVertex
 10
627.9644309319579
 20
335.6377151296924
 30
0.0
 70
     8
  0
VERTEX
  5
5C9
330
5BE
100
AcDbEntity
  8
HILF
100
AcDbVertex
100
AcDb2dVertex
 10
629.8101340569578
 20
339.8313186453174
 30
0.0
 70
     8
  0
VERTEX
  5
5CA
330
5BE
100
AcDbEntity
  8
HILF
100
AcDbVertex
100
AcDb2dVertex
 10
631.4800559319579
 20
344.1552932546924
 30
0.0
 70
     8
  0
VERTEX
  5
5CB
330
5BE
100
AcDbEntity
  8
HILF
100
AcDbVertex
100
AcDb2dVertex
 10
632.7984153069579
 20
348.7400100515674
 30
0.0
 70
     8
  0
VERTEX
  5
5CC
330
5BE
100
AcDbEntity
  8
HILF
100
AcDbVertex
100
AcDb2dVertex
 10
633.5894309319578
 20
353.7158401296924
 30
0.0
 70
     8
  0
VERTEX
  5
5CD
330
5BE
100
AcDbEntity
  8
HILF
100
AcDbVertex
100
AcDb2dVertex
 10
633.6773215569579
 20
359.2131545828174
 30
0.0
 70
     8
  0
VERTEX
  5
5CE
330
5BE
100
AcDbEntity
  8
HILF
100
AcDbVertex
100
AcDb2dVertex
 10
632.8863059319578
 20
365.3623245046924
 30
0.0
 70
     8
  0
VERTEX
  5
5CF
330
5BE
100
AcDbEntity
  8
HILF
100
AcDbVertex
100
AcDb2dVertex
 10
631.0406028069577
 20
372.2937209890674
 30
0.0
 70
     8
  0
VERTEX
  5
5D0
330
5BE
100
AcDbEntity
  8
HILF
100
AcDbVertex
100
AcDb2dVertex
 10
627.9644309319577
 20
380.1377151296924
 30
0.0
 70
     8
  0
VERTEX
  5
5D1
330
5BE
100
AcDbEntity
  8
HILF
100
AcDbVertex
100
AcDb2dVertex
 10
617.9644309319578
 20
313.3877151296924
 30
0.0
 70
    16
  0
VERTEX
  5
5D2
330
5BE
100
AcDbEntity
  8
HILF
100
AcDbVertex
100
AcDb2dVertex
 10
627.9644309319579
 20
335.6377151296924
 30
0.0
 70
    16
  0
VERTEX
  5
5D3
330
5BE
100
AcDbEntity
  8
HILF
100
AcDbVertex
100
AcDb2dVertex
 10
637.9644309319578
 20
357.8877151296924
 30
0.0
 70
    16
  0
VERTEX
  5
5D4
330
5BE
100
AcDbEntity
  8
HILF
100
AcDbVertex
100
AcDb2dVertex
 10
627.9644309319579
 20
380.1377151296924
 30
0.0
 70
    16
  0
SEQEND
  5
5D5
330
5BE
100
AcDbEntity
  8
HILF
  0
LINE
  5
666
330
1E
100
AcDbEntity
  8
STEMPEL
100
AcDbLine
 10
627.9644309319579
 20
380.1377151296924
 30
0.0
 11
195.6518437061359
 21
380.1377151296925
 31
0.0
  0
LINE
  5
667
330
1E
100
AcDbEntity
  8
STEMPEL
100
AcDbLine
 10
627.9644309319579
 20
291.1377151296925
 30
0.0
 11
195.6518437061359
 21
291.1377151296924
 31
0.0
  0
DIMENSION
  5
6A4
330
1E
100
AcDbEntity
  8
BEM
100
AcDbDimension
  2
*D3
 10
89.73485601615067
 20
380.1377151296924
 30
0.0
 11
83.23485601615059
 21
335.6377151296925
 31
0.0
 70
    32
  1
%%c<>
 71
     5
 42
88.99999999999977
  3
Standard
100
AcDbAlignedDimension
 13
195.6518437061359
 23
291.1377151296926
 33
0.0
 14
195.6518437061359
 24
380.1377151296924
 34
0.0
 50
90.0
100
AcDbRotatedDimension
1001
ACAD
1000
DSTYLE
1002
{
1070
    40
1040
2.0
1070
    41
1040
3.5
1070
    42
1040
1.0
1070
    43
1040
7.0
1070
    44
1040
1.0
1070
    73
1070
     0
1070
    74
1070
     0
1070
    77
1070
     1
1070
    78
1070
     8
1070
    79
1070
     2
1070
   140
1040
3.5
1070
   141
1040
1.5
1070
   146
1040
0.5142857142857144
1070
   147
1040
1.5
1070
   172
1070
     1
1070
   178
1070
     1
1070
   179
1070
     2
1070
   271
1070
     2
1070
   272
1070
     2
1070
   284
1070
     8
1070
   285
1070
     8
1070
   286
1070
     8
1002
}
  0
LINE
  5
6A5
330
1E
100
AcDbEntity
  8
STEMPEL
100
AcDbLine
 10
104.2277760004789
 20
386.6377151296925
 30
0.0
 11
104.227776000479
 21
284.6377151296925
 31
0.0
  0
LINE
  5
6A6
330
1E
100
AcDbEntity
  8
STEMPEL
100
AcDbLine
 10
179.2277760004789
 20
386.6377151296925
 30
0.0
 11
104.2277760004789
 21
386.6377151296925
 31
0.0
  0
ARC
  5
6A7
330
1E
100
AcDbEntity
  8
STEMPEL
100
AcDbCircle
 10
179.2277760004789
 20
374.6377151296925
 30
0.0
 40
12.0
100
AcDbArc
 50
46.81657820382667
 51
90.0
  0
ARC
  5
6A8
330
1E
100
AcDbEntity
  8
STEMPEL
100
AcDbCircle
 10
195.6518437061359
 20
392.1377151296923
 30
0.0
 40
12.0
100
AcDbArc
 50
226.8165782038267
 51
270.0
  0
LINE
  5
6A9
330
1E
100
AcDbEntity
  8
STEMPEL
100
AcDbLine
 10
179.2277760004789
 20
284.6377151296925
 30
0.0
 11
104.2277760004789
 21
284.6377151296925
 31
0.0
  0
ARC
  5
6AA
330
1E
100
AcDbEntity
  8
STEMPEL
100
AcDbCircle
 10
179.2277760004789
 20
296.6377151296925
 30
0.0
 40
12.0
100
AcDbArc
 50
270.0
 51
313.1834217961733
  0
ARC
  5
6AB
330
1E
100
AcDbEntity
  8
STEMPEL
100
AcDbCircle
 10
195.6518437061359
 20
279.1377151296926
 30
0.0
 40
12.0
100
AcDbArc
 50
90.0
 51
133.1834217961733
  0
DIMENSION
  5
6AC
330
1E
100
AcDbEntity
  8
BEM
100
AcDbDimension
  2
*D4
 10
72.0792815637214
 20
386.6377151296925
 30
0.0
 11
65.57928156372132
 21
335.6377151296925
 31
0.0
 70
    32
  1
%%c<>
 71
     5
 42
102.0
  3
Standard
100
AcDbAlignedDimension
 13
104.2277760004789
 23
284.6377151296925
 33
0.0
 14
104.2277760004789
 24
386.6377151296925
 34
0.0
 50
90.0
100
AcDbRotatedDimension
1001
ACAD
1000
DSTYLE
1002
{
1070
    40
1040
2.0
1070
    41
1040
3.5
1070
    42
1040
1.0
1070
    43
1040
7.0
1070
    44
1040
1.0
1070
    73
1070
     0
1070
    74
1070
     0
1070
    77
1070
     1
1070
    78
1070
     8
1070
    79
1070
     2
1070
   140
1040
3.5
1070
   141
1040
1.5
1070
   146
1040
0.5142857142857144
1070
   147
1040
1.5
1070
   172
1070
     1
1070
   178
1070
     1
1070
   179
1070
     2
1070
   271
1070
     2
1070
   272
1070
     2
1070
   284
1070
     8
1070
   285
1070
     8
1070
   286
1070
     8
1002
}
  0
DIMENSION
  5
6AD
330
1E
100
AcDbEntity
  8
BEM
100
AcDbDimension
  2
*D5
 10
179.227776000479
 20
268.9130060859106
 30
0.0
 11
141.727776000479
 21
275.4130060859106
 31
0.0
 70
    32
 71
     5
 42
75.0
  3
Standard
100
AcDbAlignedDimension
 13
104.227776000479
 23
284.6377151296925
 33
0.0
 14
179.227776000479
 24
284.6377151296925
 34
0.0
100
AcDbRotatedDimension
1001
ACAD
1000
DSTYLE
1002
{
1070
    40
1040
2.0
1070
    41
1040
3.5
1070
    42
1040
1.0
1070
    43
1040
7.0
1070
    44
1040
1.0
1070
    73
1070
     0
1070
    74
1070
     0
1070
    77
1070
     1
1070
    78
1070
     8
1070
    79
1070
     2
1070
   140
1040
3.5
1070
   141
1040
1.5
1070
   146
1040
0.5142857142857144
1070
   147
1040
1.5
1070
   172
1070
     1
1070
   178
1070
     1
1070
   179
1070
     2
1070
   271
1070
     2
1070
   272
1070
     2
1070
   284
1070
     8
1070
   285
1070
     8
1070
   286
1070
     8
1002
}
  0
LINE
  5
6AE
330
1E
100
AcDbEntity
  8
HILF
100
AcDbLine
 10
191.2359632729719
 20
379.2745895375194
 30
0.0
 11
191.2359632729719
 21
292.0008407218653
 31
0.0
  0
LINE
  5
6AF
330
1E
100
AcDbEntity
  8
HILF
100
AcDbLine
 10
183.6436564336429
 20
287.2217712046258
 30
0.0
 11
183.6436564336429
 21
384.053659054759
 31
0.0
  0
TEXT
  5
794
330
1E
100
AcDbEntity
  8
TEXT
100
AcDbText
 10
612.2898419893276
 20
88.96844093997101
 30
0.0
 40
4.0
  1
DIN EN1124-3
 41
0.8
  7
GREEKS
 72
     1
 11
629.2803181798038
 21
88.96844093997101
 31
0.0
100
AcDbText
  0
TEXT
  5
96D
330
1E
100
AcDbEntity
  8
TEXT
100
AcDbText
 10
654.3410940884992
 20
52.10021383107525
 30
0.0
 40
5.0
  1
EDV-Art.Nr. 4.5526.080C
 41
0.8
  7
GREEKS
100
AcDbText
  0
DIMENSION
  5
974
330
1E
100
AcDbEntity
  8
BEM
100
AcDbDimension
  2
*D6
 10
674.2237113377326
 20
268.9869718455949
 30
0.0
 11
739.2237113377325
 21
275.4869718455949
 31
0.0
 70
    32
 71
     5
 42
129.9999999999999
  3
Standard
100
AcDbAlignedDimension
 13
804.2237113377325
 23
287.8723104593521
 33
0.0
 14
674.2237113377326
 24
289.3156991066572
 34
0.0
100
AcDbRotatedDimension
1001
ACAD
1000
DSTYLE
1002
{
1070
    40
1040
2.0
1070
    41
1040
3.5
1070
    42
1040
1.0
1070
    43
1040
7.0
1070
    44
1040
1.0
1070
    73
1070
     0
1070
    74
1070
     0
1070
    77
1070
     1
1070
    78
1070
     8
1070
    79
1070
     2
1070
   140
1040
3.5
1070
   141
1040
1.5
1070
   146
1040
0.5142857142857144
1070
   147
1040
1.5
1070
   172
1070
     1
1070
   178
1070
     1
1070
   179
1070
     2
1070
   271
1070
     2
1070
   272
1070
     2
1070
   284
1070
     8
1070
   285
1070
     8
1070
   286
1070
     8
1002
}
  0
ENDSEC
  0
SECTION
  2
OBJECTS
  0
DICTIONARY
  5
C
330
0
100
AcDbDictionary
281
     1
  3
ACAD_COLOR
350
11A
  3
ACAD_GROUP
350
D
  3
ACAD_LAYOUT
350
19
  3
ACAD_MATERIAL
350
119
  3
ACAD_MLINESTYLE
350
16
  3
ACAD_PLOTSETTINGS
350
18
  3
ACAD_PLOTSTYLENAME
350
E
  3
AcDbVariableDictionary
350
125
  0
DICTIONARY
  5
DB
330
1E
100
AcDbDictionary
280
     1
281
     1
  3
ACAD_LAYOUTSELFREF
360
10F
  0
DICTIONARY
  5
DD
330
1A
100
AcDbDictionary
280
     1
281
     1
  3
ACAD_LAYOUTSELFREF
360
10E
  0
DICTIONARY
  5
11A
102
{ACAD_REACTORS
330
C
102
}
330
C
100
AcDbDictionary
281
     1
  0
DICTIONARY
  5
D
102
{ACAD_REACTORS
330
C
102
}
330
C
100
AcDbDictionary
281
     1
  0
DICTIONARY
  5
19
102
{ACAD_REACTORS
330
C
102
}
330
C
100
AcDbDictionary
281
     1
  3
Layout1
350
1D
  3
Model
350
21
  0
DICTIONARY
  5
119
102
{ACAD_REACTORS
330
C
102
}
330
C
100
AcDbDictionary
281
     1
  0
DICTIONARY
  5
16
102
{ACAD_REACTORS
330
C
102
}
330
C
100
AcDbDictionary
281
     1
  3
Standard
350
17
  0
DICTIONARY
  5
18
102
{ACAD_REACTORS
330
C
102
}
330
C
100
AcDbDictionary
281
     1
  0
ACDBDICTIONARYWDFLT
  5
E
102
{ACAD_REACTORS
330
C
102
}
330
C
100
AcDbDictionary
281
     1
  3
Normal
350
F
100
AcDbDictionaryWithDefault
340
F
  0
DICTIONARY
  5
125
102
{ACAD_REACTORS
330
C
102
}
330
C
100
AcDbDictionary
281
     1
  3
DIMASSOC
350
126
  3
PROJECTNAME
350
127
  0
XRECORD
  5
10F
102
{ACAD_REACTORS
330
DB
102
}
330
DB
100
AcDbXrecord
280
     1
340
1E
  0
XRECORD
  5
10E
102
{ACAD_REACTORS
330
DD
102
}
330
DD
100
AcDbXrecord
280
     1
340
1A
  0
LAYOUT
  5
1D
102
{ACAD_REACTORS
330
19
102
}
330
19
100
AcDbPlotSettings
  1

  2
\\NT_WORK01\HP LaserJet 5000 PCL 6
  4

  6

 40
0.0
 41
0.0
 42
0.0
 43
0.0
 44
0.0
 45
0.0
 46
0.0
 47
0.0
 48
0.0
 49
0.0
140
0.0
141
0.0
142
1.0
143
1.0
 70
   688
 72
     0
 73
     0
 74
     5
  7

 75
    16
147
1.0
 76
     0
 77
     2
 78
   300
148
0.0
149
0.0
100
AcDbLayout
  1
Layout1
 70
     0
 71
     1
 10
0.0
 20
0.0
 11
12.0
 21
9.0
 12
0.0
 22
0.0
 32
0.0
 14
1.000000000000000E+20
 24
1.000000000000000E+20
 34
1.000000000000000E+20
 15
-1.000000000000000E+20
 25
-1.000000000000000E+20
 35
-1.000000000000000E+20
146
0.0
 13
0.0
 23
0.0
 33
0.0
 16
1.0
 26
0.0
 36
0.0
 17
0.0
 27
1.0
 37
0.0
 76
     0
330
1A
  0
LAYOUT
  5
21
102
{ACAD_REACTORS
330
19
102
}
330
19
100
AcDbPlotSettings
  1

  2
none_device
  4
Letter_(8.50_x_11.00_Inches)
  6

 40
6.349999904632568
 41
6.349999904632568
 42
6.350006103515625
 43
6.350006103515625
 44
215.8999938964844
 45
279.3999938964844
 46
0.0
 47
0.0
 48
0.0
 49
0.0
140
0.0
141
0.0
142
1.0
143
1.0
 70
 11952
 72
     0
 73
     1
 74
     0
  7

 75
     0
147
1.0
 76
     0
 77
     2
 78
   300
148
-3121.515850206571
149
2.68414979343023
100
AcDbLayout
  1
Model
 70
     1
 71
     0
 10
0.0
 20
0.0
 11
12.0
 21
9.0
 12
0.0
 22
0.0
 32
0.0
 14
0.0
 24
0.0
 34
0.0
 15
0.0
 25
0.0
 35
0.0
146
0.0
 13
0.0
 23
0.0
 33
0.0
 16
1.0
 26
0.0
 36
0.0
 17
0.0
 27
1.0
 37
0.0
 76
     0
330
1E
  0
MLINESTYLE
  5
17
102
{ACAD_REACTORS
330
16
102
}
330
16
100
AcDbMlineStyle
  2
STANDARD
 70
     0
  3

 62
   256
 51
90.0
 52
90.0
 71
     2
 49
0.5
 62
   256
  6
BYLAYER
 49
-0.5
 62
   256
  6
BYLAYER
  0
ACDBPLACEHOLDER
  5
F
102
{ACAD_REACTORS
330
E
102
}
330
E
  0
DICTIONARYVAR
  5
126
102
{ACAD_REACTORS
330
125
102
}
330
125
100
DictionaryVariables
280
     0
  1
1
  0
DICTIONARYVAR
  5
127
102
{ACAD_REACTORS
330
125
102
}
330
125
100
DictionaryVariables
280
     0
  1

  0
ENDSEC
  0
EOF
