  0
SECTION
  2
HEADER
  9
$ACADVER
  1
AC1018
  9
$ACADMAINTVER
 70
     2
  9
$DWGCODEPAGE
  3
ANSI_1252
  9
$INSBASE
 10
0.0
 20
0.0
 30
0.0
  9
$EXTMIN
 10
-0.0256200963685842
 20
-0.0181170681464664
 30
-0.0000000000000053
  9
$EXTMAX
 10
840.0256425892131
 20
594.0181329738002
 30
0.0000000000000099
  9
$LIMMIN
 10
0.0
 20
0.0
  9
$LIMMAX
 10
840.0
 20
594.0
  9
$ORTHOMODE
 70
     1
  9
$REGENMODE
 70
     1
  9
$FILLMODE
 70
     1
  9
$QTEXTMODE
 70
     0
  9
$MIRRTEXT
 70
     1
  9
$LTSCALE
 40
20.0
  9
$ATTMODE
 70
     1
  9
$TEXTSIZE
 40
3.5
  9
$TRACEWID
 40
1.0
  9
$TEXTSTYLE
  7
STANDARD
  9
$CLAYER
  8
VOLL
  9
$CELTYPE
  6
ByLayer
  9
$CECOLOR
 62
   256
  9
$CELTSCALE
 40
1.0
  9
$DISPSILH
 70
     0
  9
$DIMSCALE
 40
2.0
  9
$DIMASZ
 40
3.5
  9
$DIMEXO
 40
1.0
  9
$DIMDLI
 40
7.0
  9
$DIMRND
 40
0.0
  9
$DIMDLE
 40
0.0
  9
$DIMEXE
 40
1.0
  9
$DIMTP
 40
0.0
  9
$DIMTM
 40
0.0
  9
$DIMTXT
 40
3.5
  9
$DIMCEN
 40
1.5
  9
$DIMTSZ
 40
0.0
  9
$DIMTOL
 70
     0
  9
$DIMLIM
 70
     0
  9
$DIMTIH
 70
     0
  9
$DIMTOH
 70
     0
  9
$DIMSE1
 70
     0
  9
$DIMSE2
 70
     0
  9
$DIMTAD
 70
     1
  9
$DIMZIN
 70
     8
  9
$DIMBLK
  1

  9
$DIMASO
 70
     1
  9
$DIMSHO
 70
     0
  9
$DIMPOST
  1

  9
$DIMAPOST
  1

  9
$DIMALT
 70
     0
  9
$DIMALTD
 70
     2
  9
$DIMALTF
 40
25.4
  9
$DIMLFAC
 40
1.0
  9
$DIMTOFL
 70
     1
  9
$DIMTVP
 40
0.0
  9
$DIMTIX
 70
     0
  9
$DIMSOXD
 70
     0
  9
$DIMSAH
 70
     0
  9
$DIMBLK1
  1

  9
$DIMBLK2
  1

  9
$DIMSTYLE
  2
Standard
  9
$DIMCLRD
 70
     0
  9
$DIMCLRE
 70
     0
  9
$DIMCLRT
 70
     1
  9
$DIMTFAC
 40
0.5142857142857144
  9
$DIMGAP
 40
1.5
  9
$DIMJUST
 70
     0
  9
$DIMSD1
 70
     0
  9
$DIMSD2
 70
     0
  9
$DIMTOLJ
 70
     1
  9
$DIMTZIN
 70
     8
  9
$DIMALTZ
 70
     8
  9
$DIMALTTZ
 70
     8
  9
$DIMUPT
 70
     0
  9
$DIMDEC
 70
     2
  9
$DIMTDEC
 70
     2
  9
$DIMALTU
 70
     2
  9
$DIMALTTD
 70
     2
  9
$DIMTXSTY
  7
STANDARD
  9
$DIMAUNIT
 70
     0
  9
$DIMADEC
 70
     2
  9
$DIMALTRND
 40
0.0
  9
$DIMAZIN
 70
     2
  9
$DIMDSEP
 70
    46
  9
$DIMATFIT
 70
     3
  9
$DIMFRAC
 70
     0
  9
$DIMLDRBLK
  1

  9
$DIMLUNIT
 70
     2
  9
$DIMLWD
 70
    -2
  9
$DIMLWE
 70
    -2
  9
$DIMTMOVE
 70
     0
  9
$LUNITS
 70
     2
  9
$LUPREC
 70
     2
  9
$SKETCHINC
 40
1.0
  9
$FILLETRAD
 40
0.0
  9
$AUNITS
 70
     0
  9
$AUPREC
 70
     0
  9
$MENU
  1
ACAD
  9
$ELEVATION
 40
0.0
  9
$PELEVATION
 40
0.0
  9
$THICKNESS
 40
0.0
  9
$LIMCHECK
 70
     0
  9
$CHAMFERA
 40
0.0
  9
$CHAMFERB
 40
0.0
  9
$CHAMFERC
 40
0.0
  9
$CHAMFERD
 40
0.0
  9
$SKPOLY
 70
     0
  9
$TDCREATE
 40
2455397.867059838
  9
$TDUCREATE
 40
2455397.783726505
  9
$TDUPDATE
 40
2455443.403397813
  9
$TDUUPDATE
 40
2455443.320064479
  9
$TDINDWG
 40
0.0897903588
  9
$TDUSRTIMER
 40
0.0897903588
  9
$USRTIMER
 70
     1
  9
$ANGBASE
 50
0.0
  9
$ANGDIR
 70
     0
  9
$PDMODE
 70
     0
  9
$PDSIZE
 40
0.0
  9
$PLINEWID
 40
0.0
  9
$SPLFRAME
 70
     0
  9
$SPLINETYPE
 70
     6
  9
$SPLINESEGS
 70
     8
  9
$HANDSEED
  5
10F9
  9
$SURFTAB1
 70
     6
  9
$SURFTAB2
 70
     6
  9
$SURFTYPE
 70
     6
  9
$SURFU
 70
     6
  9
$SURFV
 70
     6
  9
$UCSBASE
  2

  9
$UCSNAME
  2

  9
$UCSORG
 10
0.0
 20
0.0
 30
0.0
  9
$UCSXDIR
 10
1.0
 20
0.0
 30
0.0
  9
$UCSYDIR
 10
0.0
 20
1.0
 30
0.0
  9
$UCSORTHOREF
  2

  9
$UCSORTHOVIEW
 70
     0
  9
$UCSORGTOP
 10
0.0
 20
0.0
 30
0.0
  9
$UCSORGBOTTOM
 10
0.0
 20
0.0
 30
0.0
  9
$UCSORGLEFT
 10
0.0
 20
0.0
 30
0.0
  9
$UCSORGRIGHT
 10
0.0
 20
0.0
 30
0.0
  9
$UCSORGFRONT
 10
0.0
 20
0.0
 30
0.0
  9
$UCSORGBACK
 10
0.0
 20
0.0
 30
0.0
  9
$PUCSBASE
  2

  9
$PUCSNAME
  2

  9
$PUCSORG
 10
0.0
 20
0.0
 30
0.0
  9
$PUCSXDIR
 10
1.0
 20
0.0
 30
0.0
  9
$PUCSYDIR
 10
0.0
 20
1.0
 30
0.0
  9
$PUCSORTHOREF
  2

  9
$PUCSORTHOVIEW
 70
     0
  9
$PUCSORGTOP
 10
0.0
 20
0.0
 30
0.0
  9
$PUCSORGBOTTOM
 10
0.0
 20
0.0
 30
0.0
  9
$PUCSORGLEFT
 10
0.0
 20
0.0
 30
0.0
  9
$PUCSORGRIGHT
 10
0.0
 20
0.0
 30
0.0
  9
$PUCSORGFRONT
 10
0.0
 20
0.0
 30
0.0
  9
$PUCSORGBACK
 10
0.0
 20
0.0
 30
0.0
  9
$USERI1
 70
     0
  9
$USERI2
 70
     0
  9
$USERI3
 70
     0
  9
$USERI4
 70
     0
  9
$USERI5
 70
     0
  9
$USERR1
 40
0.0
  9
$USERR2
 40
0.0
  9
$USERR3
 40
0.0
  9
$USERR4
 40
0.0
  9
$USERR5
 40
0.0
  9
$WORLDVIEW
 70
     1
  9
$SHADEDGE
 70
     3
  9
$SHADEDIF
 70
    70
  9
$TILEMODE
 70
     1
  9
$MAXACTVP
 70
    16
  9
$PINSBASE
 10
0.0
 20
0.0
 30
0.0
  9
$PLIMCHECK
 70
     0
  9
$PEXTMIN
 10
1.000000000000000E+20
 20
1.000000000000000E+20
 30
1.000000000000000E+20
  9
$PEXTMAX
 10
-1.000000000000000E+20
 20
-1.000000000000000E+20
 30
-1.000000000000000E+20
  9
$PLIMMIN
 10
0.0
 20
0.0
  9
$PLIMMAX
 10
12.0
 20
9.0
  9
$UNITMODE
 70
     0
  9
$VISRETAIN
 70
     0
  9
$PLINEGEN
 70
     0
  9
$PSLTSCALE
 70
     0
  9
$TREEDEPTH
 70
  3020
  9
$CMLSTYLE
  2
Standard
  9
$CMLJUST
 70
     0
  9
$CMLSCALE
 40
1.0
  9
$PROXYGRAPHICS
 70
     1
  9
$MEASUREMENT
 70
     0
  9
$CELWEIGHT
370
    -1
  9
$ENDCAPS
280
     0
  9
$JOINSTYLE
280
     0
  9
$LWDISPLAY
290
     0
  9
$INSUNITS
 70
     0
  9
$HYPERLINKBASE
  1

  9
$STYLESHEET
  1
monochrome 1.ctb
  9
$XEDIT
290
     1
  9
$CEPSNTYPE
380
     0
  9
$PSTYLEMODE
290
     1
  9
$FINGERPRINTGUID
  2
{D68B0D0D-A558-11D7-B632-000102183313}
  9
$VERSIONGUID
  2
{73A72346-62FE-46DE-A221-30052DC62D42}
  9
$EXTNAMES
290
     1
  9
$PSVPSCALE
 40
0.0
  9
$OLESTARTUP
290
     0
  9
$SORTENTS
280
   127
  9
$INDEXCTL
280
     0
  9
$HIDETEXT
280
     0
  9
$XCLIPFRAME
290
     0
  9
$HALOGAP
280
     0
  9
$OBSCOLOR
 70
   257
  9
$OBSLTYPE
280
     0
  9
$INTERSECTIONDISPLAY
280
     0
  9
$INTERSECTIONCOLOR
 70
   257
  9
$DIMASSOC
280
     1
  9
$PROJECTNAME
  1

  0
ENDSEC
  0
SECTION
  2
CLASSES
  0
CLASS
  1
ACDBDICTIONARYWDFLT
  2
AcDbDictionaryWithDefault
  3
ObjectDBX Classes
 90
        0
 91
        1
280
     0
281
     0
  0
CLASS
  1
DICTIONARYVAR
  2
AcDbDictionaryVar
  3
ObjectDBX Classes
 90
        0
 91
        2
280
     0
281
     0
  0
ENDSEC
  0
SECTION
  2
TABLES
  0
TABLE
  2
VPORT
  5
8
330
0
100
AcDbSymbolTable
 70
     2
  0
VPORT
  5
10F8
330
8
100
AcDbSymbolTableRecord
100
AcDbViewportTableRecord
  2
*Active
 70
     0
 10
0.0
 20
0.0
 11
1.0
 21
1.0
 12
420.0000112464222
 22
297.0000079528269
 13
0.0
 23
0.0
 14
1.0
 24
1.0
 15
10.0
 25
10.0
 16
0.0
 26
0.0
 36
1.0
 17
0.0
 27
0.0
 37
0.0
 40
632.1401527898845
 41
1.336927223719676
 42
50.0
 43
0.0
 44
0.0
 50
0.0
 51
0.0
 71
     0
 72
  1500
 73
     1
 74
     0
 75
     0
 76
     0
 77
     0
 78
     0
281
     0
 65
     1
110
0.0
120
0.0
130
0.0
111
1.0
121
0.0
131
0.0
112
0.0
122
1.0
132
0.0
 79
     0
146
0.0
  0
ENDTAB
  0
TABLE
  2
LTYPE
  5
5
330
0
100
AcDbSymbolTable
 70
     2
  0
LTYPE
  5
13
330
5
100
AcDbSymbolTableRecord
100
AcDbLinetypeTableRecord
  2
ByBlock
 70
     0
  3

 72
    65
 73
     0
 40
0.0
  0
LTYPE
  5
14
330
5
100
AcDbSymbolTableRecord
100
AcDbLinetypeTableRecord
  2
ByLayer
 70
     0
  3

 72
    65
 73
     0
 40
0.0
  0
LTYPE
  5
15
330
5
100
AcDbSymbolTableRecord
100
AcDbLinetypeTableRecord
  2
Continuous
 70
     0
  3
Solid line
 72
    65
 73
     0
 40
0.0
  0
LTYPE
  5
25
330
5
100
AcDbSymbolTableRecord
100
AcDbLinetypeTableRecord
  2
STRICHPUNKT
 70
     0
  3
__ . __ . __ . __ . __ . __ . __ . __ . __ . __
 72
    65
 73
     4
 40
1.0
 49
0.5
 74
     0
 49
-0.25
 74
     0
 49
0.0
 74
     0
 49
-0.25
 74
     0
  0
ENDTAB
  0
TABLE
  2
LAYER
  5
2
330
0
100
AcDbSymbolTable
 70
     8
  0
LAYER
  5
10
330
2
100
AcDbSymbolTableRecord
100
AcDbLayerTableRecord
  2
0
 70
     0
 62
     7
  6
Continuous
370
    -3
390
F
  0
LAYER
  5
2B
330
2
100
AcDbSymbolTableRecord
100
AcDbLayerTableRecord
  2
VOLL
 70
     0
 62
     1
  6
Continuous
370
    -3
390
F
  0
LAYER
  5
2C
330
2
100
AcDbSymbolTableRecord
100
AcDbLayerTableRecord
  2
HILF
 70
     0
 62
     2
  6
Continuous
370
    -3
390
F
  0
LAYER
  5
2D
330
2
100
AcDbSymbolTableRecord
100
AcDbLayerTableRecord
  2
MITTEL
 70
     0
 62
     2
  6
STRICHPUNKT
370
    -3
390
F
  0
LAYER
  5
2F
330
2
100
AcDbSymbolTableRecord
100
AcDbLayerTableRecord
  2
BEM
 70
     0
 62
     7
  6
Continuous
370
    -3
390
F
  0
LAYER
  5
30
330
2
100
AcDbSymbolTableRecord
100
AcDbLayerTableRecord
  2
STEMPEL
 70
     0
 62
     3
  6
Continuous
370
    -3
390
F
  0
LAYER
  5
33
330
2
100
AcDbSymbolTableRecord
100
AcDbLayerTableRecord
  2
TEXT
 70
     0
 62
     7
  6
Continuous
370
    -3
390
F
  0
LAYER
  5
1E9
330
2
100
AcDbSymbolTableRecord
100
AcDbLayerTableRecord
  2
Defpoints
 70
     0
 62
     7
  6
Continuous
290
     0
370
    -3
390
F
  0
ENDTAB
  0
TABLE
  2
STYLE
  5
3
330
0
100
AcDbSymbolTable
 70
     2
  0
STYLE
  5
11
330
3
100
AcDbSymbolTableRecord
100
AcDbTextStyleTableRecord
  2
STANDARD
 70
     0
 40
0.0
 41
0.8
 50
0.0
 71
     0
 42
3.5
  3
simplex.shx
  4

  0
STYLE
  5
24
330
3
100
AcDbSymbolTableRecord
100
AcDbTextStyleTableRecord
  2
GREEKS
 70
     0
 40
0.0
 41
0.8
 50
0.0
 71
     0
 42
2.5
  3
SIMPLEX.shx
  4

  0
ENDTAB
  0
TABLE
  2
VIEW
  5
6
330
0
100
AcDbSymbolTable
 70
     0
  0
ENDTAB
  0
TABLE
  2
UCS
  5
7
330
0
100
AcDbSymbolTable
 70
     0
  0
ENDTAB
  0
TABLE
  2
APPID
  5
9
330
0
100
AcDbSymbolTable
 70
     1
  0
APPID
  5
12
330
9
100
AcDbSymbolTableRecord
100
AcDbRegAppTableRecord
  2
ACAD
 70
     0
  0
ENDTAB
  0
TABLE
  2
DIMSTYLE
  5
A
330
0
100
AcDbSymbolTable
 70
     1
100
AcDbDimStyleTable
 71
     1
340
A2
  0
DIMSTYLE
105
A2
102
{ACAD_REACTORS
330
E24
330
E93
330
E94
330
1089
330
10CA
102
}
330
A
100
AcDbSymbolTableRecord
100
AcDbDimStyleTableRecord
  2
Standard
 70
     0
340
11
  0
ENDTAB
  0
TABLE
  2
BLOCK_RECORD
  5
1
330
0
100
AcDbSymbolTable
 70
     7
  0
BLOCK_RECORD
  5
1E
102
{ACAD_XDICTIONARY
360
DB
102
}
330
1
100
AcDbSymbolTableRecord
100
AcDbBlockTableRecord
  2
*Model_Space
340
21
  0
BLOCK_RECORD
  5
1A
102
{ACAD_XDICTIONARY
360
DD
102
}
330
1
100
AcDbSymbolTableRecord
100
AcDbBlockTableRecord
  2
*Paper_Space
340
1D
  0
BLOCK_RECORD
  5
22
330
1
100
AcDbSymbolTableRecord
100
AcDbBlockTableRecord
  2
LOGO
340
0
102
{BLKREFS
331
56
102
}
  0
BLOCK_RECORD
  5
23
330
1
100
AcDbSymbolTableRecord
100
AcDbBlockTableRecord
  2
LORO
340
0
102
{BLKREFS
331
9B
102
}
  0
BLOCK_RECORD
  5
E95
330
1
100
AcDbSymbolTableRecord
100
AcDbBlockTableRecord
  2
*D2
340
0
  0
BLOCK_RECORD
  5
EA1
330
1
100
AcDbSymbolTableRecord
100
AcDbBlockTableRecord
  2
*D3
340
0
  0
BLOCK_RECORD
  5
EAD
330
1
100
AcDbSymbolTableRecord
100
AcDbBlockTableRecord
  2
*D4
340
0
  0
BLOCK_RECORD
  5
108B
330
1
100
AcDbSymbolTableRecord
100
AcDbBlockTableRecord
  2
*D5
340
0
  0
BLOCK_RECORD
  5
10CB
330
1
100
AcDbSymbolTableRecord
100
AcDbBlockTableRecord
  2
*D6
340
0
  0
ENDTAB
  0
ENDSEC
  0
SECTION
  2
BLOCKS
  0
BLOCK
  5
37
330
1E
100
AcDbEntity
  8
0
100
AcDbBlockBegin
  2
*Model_Space
 70
     0
 10
0.0
 20
0.0
 30
0.0
  3
*Model_Space
  1

  0
ENDBLK
  5
38
330
1E
100
AcDbEntity
  8
0
100
AcDbBlockEnd
  0
BLOCK
  5
35
330
1A
100
AcDbEntity
 67
     1
  8
0
100
AcDbBlockBegin
  2
*Paper_Space
 70
     0
 10
0.0
 20
0.0
 30
0.0
  3
*Paper_Space
  1

  0
ENDBLK
  5
36
330
1A
100
AcDbEntity
 67
     1
  8
0
100
AcDbBlockEnd
  0
BLOCK
  5
39
330
22
100
AcDbEntity
  8
0
100
AcDbBlockBegin
  2
LOGO
 70
     0
 10
0.0
 20
0.0
 30
0.0
  3
LOGO
  1

  0
ARC
  5
3A
330
22
100
AcDbEntity
  8
0
100
AcDbCircle
 10
11.59973089678112
 20
-9.271599258481501
 30
0.0
 40
4.5
100
AcDbArc
 50
270.0
 51
231.0575587310159
  0
LINE
  5
3B
330
22
100
AcDbEntity
  8
0
100
AcDbLine
 10
3.599730896781125
 20
-4.771599258481529
 30
0.0
 11
3.599730896781153
 21
-11.77159925848133
 31
0.0
  0
LINE
  5
3C
330
22
100
AcDbEntity
  8
0
100
AcDbLine
 10
2.599730896781125
 20
-4.771599258481529
 30
0.0
 11
2.599730896781153
 21
-11.77159925848133
 31
0.0
  0
CIRCLE
  5
3D
330
22
100
AcDbEntity
  8
0
100
AcDbCircle
 10
11.59973089678112
 20
-9.271599258481501
 30
0.0
 40
3.5
  0
ARC
  5
3E
330
22
100
AcDbEntity
  8
0
100
AcDbCircle
 10
31.59973089678115
 20
-9.271599258481472
 30
0.0
 40
4.5
100
AcDbArc
 50
270.0
 51
231.0575587310182
  0
LINE
  5
3F
330
22
100
AcDbEntity
  8
0
100
AcDbLine
 10
17.59973089678112
 20
-4.771599258481472
 30
0.0
 11
17.59973089678115
 21
-13.77159925848147
 31
0.0
  0
ARC
  5
40
330
22
100
AcDbEntity
  8
0
100
AcDbCircle
 10
22.59973089678116
 20
-7.271599258481472
 30
0.0
 40
2.5
100
AcDbArc
 50
293.1161887722295
 51
90.0
  0
CIRCLE
  5
41
330
22
100
AcDbEntity
  8
0
100
AcDbCircle
 10
31.59973089678115
 20
-9.271599258481472
 30
0.0
 40
3.5
  0
ARC
  5
42
330
22
100
AcDbEntity
  8
0
100
AcDbCircle
 10
4.599730896781153
 20
-11.77159925848133
 30
0.0
 40
1.0
100
AcDbArc
 50
180.0
 51
270.0
  0
ARC
  5
43
330
22
100
AcDbEntity
  8
0
100
AcDbCircle
 10
4.599730896781153
 20
-11.77159925848133
 30
0.0
 40
2.0
100
AcDbArc
 50
179.9999999999992
 51
270.0
  0
LINE
  5
44
330
22
100
AcDbEntity
  8
0
100
AcDbLine
 10
11.59973089678115
 20
-13.77159925848144
 30
0.0
 11
4.599730896781153
 21
-13.77159925848147
 31
0.0
  0
LINE
  5
45
330
22
100
AcDbEntity
  8
0
100
AcDbLine
 10
8.771303772034769
 20
-12.77159925848136
 30
0.0
 11
4.599730896781153
 21
-12.77159925848133
 31
0.0
  0
LINE
  5
46
330
22
100
AcDbEntity
  8
0
100
AcDbLine
 10
31.59973089678115
 20
-13.77159925848147
 30
0.0
 11
23.6715276665056
 21
-13.77159925848144
 31
0.0
  0
LINE
  5
47
330
22
100
AcDbEntity
  8
0
100
AcDbLine
 10
23.56565672307022
 20
-9.51278021337896
 30
0.0
 11
24.4388546544846
 21
-12.77159925848144
 31
0.0
  0
LINE
  5
48
330
22
100
AcDbEntity
  8
0
100
AcDbLine
 10
22.59973089678116
 20
-9.771599258481472
 30
0.0
 11
18.59973089678112
 21
-9.771599258481472
 31
0.0
  0
LINE
  5
49
330
22
100
AcDbEntity
  8
0
100
AcDbLine
 10
18.59973089678115
 20
-13.77159925848144
 30
0.0
 11
17.59973089678115
 21
-13.77159925848144
 31
0.0
  0
LINE
  5
4A
330
22
100
AcDbEntity
  8
0
100
AcDbLine
 10
18.59973089678115
 20
-9.771599258481472
 30
0.0
 11
18.59973089678115
 21
-13.77159925848144
 31
0.0
  0
LINE
  5
4B
330
22
100
AcDbEntity
  8
0
100
AcDbLine
 10
22.59973089678116
 20
-9.771599258481472
 30
0.0
 11
23.67152766650562
 21
-13.77159925848147
 31
0.0
  0
ARC
  5
4C
330
22
100
AcDbEntity
  8
0
100
AcDbCircle
 10
22.59973089678116
 20
-7.271599258481472
 30
0.0
 40
2.5
100
AcDbArc
 50
270.0
 51
270.0000000000007
  0
LINE
  5
4D
330
22
100
AcDbEntity
  8
0
100
AcDbLine
 10
28.77130377203494
 20
-12.77159925848147
 30
0.0
 11
24.43885465448463
 21
-12.77159925848144
 31
0.0
  0
LINE
  5
4E
330
22
100
AcDbEntity
  8
0
100
AcDbLine
 10
3.599730896781125
 20
-4.771599258481472
 30
0.0
 11
2.599730896781125
 21
-4.771599258481472
 31
0.0
  0
LINE
  5
4F
330
22
100
AcDbEntity
  8
0
100
AcDbLine
 10
22.59973089678116
 20
-8.771599258481472
 30
0.0
 11
18.59973089678115
 21
-8.771599258481472
 31
0.0
  0
LINE
  5
50
330
22
100
AcDbEntity
  8
0
100
AcDbLine
 10
22.59973089678116
 20
-5.771599258481472
 30
0.0
 11
18.59973089678115
 21
-5.771599258481472
 31
0.0
  0
LINE
  5
51
330
22
100
AcDbEntity
  8
0
100
AcDbLine
 10
22.59973089678116
 20
-4.771599258481472
 30
0.0
 11
17.59973089678115
 21
-4.771599258481472
 31
0.0
  0
LINE
  5
52
330
22
100
AcDbEntity
  8
0
100
AcDbLine
 10
18.59973089678115
 20
-5.771599258481472
 30
0.0
 11
18.59973089678115
 21
-8.771599258481472
 31
0.0
  0
ARC
  5
53
330
22
100
AcDbEntity
  8
0
100
AcDbCircle
 10
22.59973089678116
 20
-7.271599258481472
 30
0.0
 40
1.5
100
AcDbArc
 50
270.0
 51
90.0
  0
ENDBLK
  5
54
330
22
100
AcDbEntity
  8
0
100
AcDbBlockEnd
  0
BLOCK
  5
55
330
23
100
AcDbEntity
  8
0
100
AcDbBlockBegin
  2
LORO
 70
     0
 10
0.0
 20
0.0
 30
0.0
  3
LORO
  1

  0
INSERT
  5
56
330
23
100
AcDbEntity
  8
STEMPEL
100
AcDbBlockReference
  2
LOGO
 10
-1.748032802467321
 20
3.771489518552062
 30
0.0
  0
ENDBLK
  5
57
330
23
100
AcDbEntity
  8
0
100
AcDbBlockEnd
  0
BLOCK
  5
E9F
330
E95
100
AcDbEntity
  8
0
100
AcDbBlockBegin
  2
*D2
 70
     1
 10
0.0
 20
0.0
 30
0.0
  3
*D2
  1

  0
LINE
  5
EB9
330
E95
100
AcDbEntity
  8
BEM
 62
     0
370
    -2
100
AcDbLine
 10
786.0297133559337
 20
177.6278549242427
 30
0.0
 11
786.0297133559337
 21
156.2154187784959
 31
0.0
  0
LINE
  5
EBA
330
E95
100
AcDbEntity
  8
BEM
 62
     0
370
    -2
100
AcDbLine
 10
636.0297133559335
 20
179.8799370604735
 30
0.0
 11
636.0297133559335
 21
156.2154187784959
 31
0.0
  0
LINE
  5
EBB
330
E95
100
AcDbEntity
  8
BEM
 62
     0
370
    -2
100
AcDbLine
 10
779.0297133559337
 20
158.2154187784959
 30
0.0
 11
643.0297133559335
 21
158.2154187784959
 31
0.0
  0
SOLID
  5
EBC
330
E95
100
AcDbEntity
  8
BEM
 62
     0
100
AcDbTrace
 10
779.0297133559337
 20
159.3820854451625
 30
0.0
 11
779.0297133559337
 21
157.0487521118292
 31
0.0
 12
786.0297133559337
 22
158.2154187784959
 32
0.0
 13
786.0297133559337
 23
158.2154187784959
 33
0.0
  0
SOLID
  5
EBD
330
E95
100
AcDbEntity
  8
BEM
 62
     0
100
AcDbTrace
 10
643.0297133559335
 20
159.3820854451625
 30
0.0
 11
643.0297133559335
 21
157.0487521118292
 31
0.0
 12
636.0297133559335
 22
158.2154187784959
 32
0.0
 13
636.0297133559335
 23
158.2154187784959
 33
0.0
  0
MTEXT
  5
EBE
330
E95
100
AcDbEntity
  8
BEM
 62
     1
100
AcDbMText
 10
711.0297133559336
 20
164.7154187784959
 30
0.0
 40
7.0
 41
0.0
 71
     5
 72
     1
  1
\A1;150
 73
     1
 44
1.0
  0
POINT
  5
EBF
330
E95
100
AcDbEntity
  8
Defpoints
 62
     0
100
AcDbPoint
 10
786.0297133559337
 20
179.6278549242427
 30
0.0
  0
POINT
  5
EC0
330
E95
100
AcDbEntity
  8
Defpoints
 62
     0
100
AcDbPoint
 10
636.0297133559335
 20
181.8799370604734
 30
0.0
  0
POINT
  5
EC1
330
E95
100
AcDbEntity
  8
Defpoints
 62
     0
100
AcDbPoint
 10
636.0297133559335
 20
158.2154187784959
 30
0.0
  0
ENDBLK
  5
EA0
330
E95
100
AcDbEntity
  8
0
100
AcDbBlockEnd
  0
BLOCK
  5
EAB
330
EA1
100
AcDbEntity
  8
0
100
AcDbBlockBegin
  2
*D3
 70
     1
 10
0.0
 20
0.0
 30
0.0
  3
*D3
  1

  0
LINE
  5
EC2
330
EA1
100
AcDbEntity
  8
BEM
 62
     0
370
    -2
100
AcDbLine
 10
94.6809390581925
 20
286.5829218026866
 30
0.0
 11
82.08688420551256
 21
286.5829218026866
 31
0.0
  0
LINE
  5
EC3
330
EA1
100
AcDbEntity
  8
BEM
 62
     0
370
    -2
100
AcDbLine
 10
94.6809390581925
 20
183.5829218026866
 30
0.0
 11
82.08688420551254
 21
183.5829218026866
 31
0.0
  0
LINE
  5
EC4
330
EA1
100
AcDbEntity
  8
BEM
 62
     0
370
    -2
100
AcDbLine
 10
84.08688420551255
 20
279.5829218026866
 30
0.0
 11
84.08688420551255
 21
190.5829218026866
 31
0.0
  0
SOLID
  5
EC5
330
EA1
100
AcDbEntity
  8
BEM
 62
     0
100
AcDbTrace
 10
82.92021753884588
 20
279.5829218026866
 30
0.0
 11
85.25355087217922
 21
279.5829218026866
 31
0.0
 12
84.08688420551255
 22
286.5829218026866
 32
0.0
 13
84.08688420551255
 23
286.5829218026866
 33
0.0
  0
SOLID
  5
EC6
330
EA1
100
AcDbEntity
  8
BEM
 62
     0
100
AcDbTrace
 10
82.92021753884588
 20
190.5829218026866
 30
0.0
 11
85.25355087217922
 21
190.5829218026866
 31
0.0
 12
84.08688420551255
 22
183.5829218026866
 32
0.0
 13
84.08688420551255
 23
183.5829218026866
 33
0.0
  0
MTEXT
  5
EC7
330
EA1
100
AcDbEntity
  8
BEM
 62
     1
100
AcDbMText
 10
77.58688420551251
 20
235.0829218026866
 30
0.0
 40
7.0
 41
0.0
 71
     5
 72
     1
  1
\A1;%%c103
 11
0.0000000000000001
 21
1.0
 31
0.0
 73
     1
 44
1.0
  0
POINT
  5
EC8
330
EA1
100
AcDbEntity
  8
Defpoints
 62
     0
100
AcDbPoint
 10
96.68093905819251
 20
286.5829218026866
 30
0.0
  0
POINT
  5
EC9
330
EA1
100
AcDbEntity
  8
Defpoints
 62
     0
100
AcDbPoint
 10
96.68093905819251
 20
183.5829218026866
 30
0.0
  0
POINT
  5
ECA
330
EA1
100
AcDbEntity
  8
Defpoints
 62
     0
100
AcDbPoint
 10
84.08688420551255
 20
183.5829218026866
 30
0.0
  0
ENDBLK
  5
EAC
330
EA1
100
AcDbEntity
  8
0
100
AcDbBlockEnd
  0
BLOCK
  5
EB7
330
EAD
100
AcDbEntity
  8
0
100
AcDbBlockBegin
  2
*D4
 70
     1
 10
0.0
 20
0.0
 30
0.0
  3
*D4
  1

  0
LINE
  5
ECB
330
EAD
100
AcDbEntity
  8
BEM
 62
     0
370
    -2
100
AcDbLine
 10
96.68093905819251
 20
182.6327857649979
 30
0.0
 11
96.68093905819251
 21
159.1878104613985
 31
0.0
  0
LINE
  5
ECC
330
EAD
100
AcDbEntity
  8
BEM
 62
     0
370
    -2
100
AcDbLine
 10
455.4330459171557
 20
185.0829218026866
 30
0.0
 11
455.4330459171557
 21
159.1878104613985
 31
0.0
  0
LINE
  5
ECD
330
EAD
100
AcDbEntity
  8
BEM
 62
     0
370
    -2
100
AcDbLine
 10
103.6809390581925
 20
161.1878104613985
 30
0.0
 11
448.4330459171557
 21
161.1878104613985
 31
0.0
  0
SOLID
  5
ECE
330
EAD
100
AcDbEntity
  8
BEM
 62
     0
100
AcDbTrace
 10
103.6809390581925
 20
162.3544771280651
 30
0.0
 11
103.6809390581925
 21
160.0211437947318
 31
0.0
 12
96.68093905819251
 22
161.1878104613985
 32
0.0
 13
96.68093905819251
 23
161.1878104613985
 33
0.0
  0
SOLID
  5
ECF
330
EAD
100
AcDbEntity
  8
BEM
 62
     0
100
AcDbTrace
 10
448.4330459171557
 20
162.3544771280651
 30
0.0
 11
448.4330459171557
 21
160.0211437947318
 31
0.0
 12
455.4330459171557
 22
161.1878104613985
 32
0.0
 13
455.4330459171557
 23
161.1878104613985
 33
0.0
  0
MTEXT
  5
ED0
330
EAD
100
AcDbEntity
  8
BEM
 62
     1
100
AcDbMText
 10
276.0569924876742
 20
167.6878104613985
 30
0.0
 40
7.0
 41
0.0
 71
     5
 72
     1
  1
\A1;620
 73
     1
 44
1.0
  0
POINT
  5
ED1
330
EAD
100
AcDbEntity
  8
Defpoints
 62
     0
100
AcDbPoint
 10
96.68093905819251
 20
184.6327857649979
 30
0.0
  0
POINT
  5
ED2
330
EAD
100
AcDbEntity
  8
Defpoints
 62
     0
100
AcDbPoint
 10
455.4330459171557
 20
187.0829218026866
 30
0.0
  0
POINT
  5
ED3
330
EAD
100
AcDbEntity
  8
Defpoints
 62
     0
100
AcDbPoint
 10
455.4330459171557
 20
161.1878104613985
 30
0.0
  0
ENDBLK
  5
EB8
330
EAD
100
AcDbEntity
  8
0
100
AcDbBlockEnd
  0
BLOCK
  5
1095
330
108B
100
AcDbEntity
  8
0
100
AcDbBlockBegin
  2
*D5
 70
     1
 10
0.0
 20
0.0
 30
0.0
  3
*D5
  1

  0
LINE
  5
10AF
330
108B
100
AcDbEntity
  8
BEM
 62
     0
370
    -2
100
AcDbLine
 10
94.68093905819285
 20
489.1061175279291
 30
0.0
 11
82.08688420551291
 21
489.1061175279291
 31
0.0
  0
LINE
  5
10B0
330
108B
100
AcDbEntity
  8
BEM
 62
     0
370
    -2
100
AcDbLine
 10
94.68093905819285
 20
386.1061175279291
 30
0.0
 11
82.08688420551288
 21
386.1061175279291
 31
0.0
  0
LINE
  5
10B1
330
108B
100
AcDbEntity
  8
BEM
 62
     0
370
    -2
100
AcDbLine
 10
84.08688420551291
 20
482.106117527929
 30
0.0
 11
84.08688420551289
 21
393.1061175279291
 31
0.0
  0
SOLID
  5
10B2
330
108B
100
AcDbEntity
  8
BEM
 62
     0
100
AcDbTrace
 10
82.92021753884624
 20
482.106117527929
 30
0.0
 11
85.25355087217958
 21
482.106117527929
 31
0.0
 12
84.08688420551291
 22
489.1061175279291
 32
0.0
 13
84.08688420551291
 23
489.1061175279291
 33
0.0
  0
SOLID
  5
10B3
330
108B
100
AcDbEntity
  8
BEM
 62
     0
100
AcDbTrace
 10
82.92021753884622
 20
393.1061175279291
 30
0.0
 11
85.25355087217956
 21
393.1061175279291
 31
0.0
 12
84.08688420551289
 22
386.1061175279291
 32
0.0
 13
84.08688420551289
 23
386.1061175279291
 33
0.0
  0
MTEXT
  5
10B4
330
108B
100
AcDbEntity
  8
BEM
 62
     1
100
AcDbMText
 10
77.58688420551283
 20
437.606117527929
 30
0.0
 40
7.0
 41
0.0
 71
     5
 72
     1
  1
\A1;%%c103
 11
0.0000000000000001
 21
1.0
 31
0.0
 73
     1
 44
1.0
  0
POINT
  5
10B5
330
108B
100
AcDbEntity
  8
Defpoints
 62
     0
100
AcDbPoint
 10
96.68093905819285
 20
489.1061175279291
 30
0.0
  0
POINT
  5
10B6
330
108B
100
AcDbEntity
  8
Defpoints
 62
     0
100
AcDbPoint
 10
96.68093905819285
 20
386.1061175279291
 30
0.0
  0
POINT
  5
10B7
330
108B
100
AcDbEntity
  8
Defpoints
 62
     0
100
AcDbPoint
 10
84.08688420551289
 20
386.1061175279291
 30
0.0
  0
ENDBLK
  5
1096
330
108B
100
AcDbEntity
  8
0
100
AcDbBlockEnd
  0
BLOCK
  5
10D5
330
10CB
100
AcDbEntity
  8
0
100
AcDbBlockBegin
  2
*D6
 70
     1
 10
0.0
 20
0.0
 30
0.0
  3
*D6
  1

  0
LINE
  5
10E0
330
10CB
100
AcDbEntity
  8
BEM
 62
     0
370
    -2
100
AcDbLine
 10
96.68093905819285
 20
384.1061175279291
 30
0.0
 11
96.68093905819285
 21
356.5722238679418
 31
0.0
  0
LINE
  5
10E1
330
10CB
100
AcDbEntity
  8
BEM
 62
     0
370
    -2
100
AcDbLine
 10
786.029713355934
 20
380.1510506494852
 30
0.0
 11
786.029713355934
 21
356.5722238679418
 31
0.0
  0
LINE
  5
10E2
330
10CB
100
AcDbEntity
  8
BEM
 62
     0
370
    -2
100
AcDbLine
 10
103.6809390581928
 20
358.5722238679418
 30
0.0
 11
779.0297133559341
 21
358.5722238679418
 31
0.0
  0
SOLID
  5
10E3
330
10CB
100
AcDbEntity
  8
BEM
 62
     0
100
AcDbTrace
 10
103.6809390581928
 20
359.7388905346085
 30
0.0
 11
103.6809390581928
 21
357.4055572012751
 31
0.0
 12
96.68093905819285
 22
358.5722238679418
 32
0.0
 13
96.68093905819285
 23
358.5722238679418
 33
0.0
  0
SOLID
  5
10E4
330
10CB
100
AcDbEntity
  8
BEM
 62
     0
100
AcDbTrace
 10
779.0297133559341
 20
359.7388905346085
 30
0.0
 11
779.0297133559341
 21
357.4055572012751
 31
0.0
 12
786.029713355934
 22
358.5722238679418
 32
0.0
 13
786.029713355934
 23
358.5722238679418
 33
0.0
  0
MTEXT
  5
10E5
330
10CB
100
AcDbEntity
  8
BEM
 62
     1
100
AcDbMText
 10
441.3553262070634
 20
365.0722238679418
 30
0.0
 40
7.0
 41
0.0
 71
     5
 72
     1
  1
\A1;1000
 73
     1
 44
1.0
  0
POINT
  5
10E6
330
10CB
100
AcDbEntity
  8
Defpoints
 62
     0
100
AcDbPoint
 10
96.68093905819285
 20
386.1061175279291
 30
0.0
  0
POINT
  5
10E7
330
10CB
100
AcDbEntity
  8
Defpoints
 62
     0
100
AcDbPoint
 10
786.029713355934
 20
382.1510506494852
 30
0.0
  0
POINT
  5
10E8
330
10CB
100
AcDbEntity
  8
Defpoints
 62
     0
100
AcDbPoint
 10
786.029713355934
 20
358.5722238679418
 30
0.0
  0
ENDBLK
  5
10D6
330
10CB
100
AcDbEntity
  8
0
100
AcDbBlockEnd
  0
ENDSEC
  0
SECTION
  2
ENTITIES
  0
LINE
  5
58
330
1E
100
AcDbEntity
  8
STEMPEL
100
AcDbLine
 10
830.0000000000002
 20
110.0
 30
0.0
 11
470.0000000000001
 21
110.0
 31
0.0
  0
LINE
  5
59
330
1E
100
AcDbEntity
  8
STEMPEL
100
AcDbLine
 10
470.0000000000001
 20
110.0
 30
0.0
 11
470.0000000000001
 21
10.0
 31
0.0
  0
LINE
  5
5A
330
1E
100
AcDbEntity
  8
STEMPEL
100
AcDbLine
 10
566.0000000000002
 20
109.9999999999999
 30
0.0
 11
566.0000000000001
 21
9.999999999999886
 31
0.0
  0
LINE
  5
5B
330
1E
100
AcDbEntity
  8
STEMPEL
100
AcDbLine
 10
650.0
 20
110.0
 30
0.0
 11
650.0
 21
10.0
 31
0.0
  0
LINE
  5
5C
330
1E
100
AcDbEntity
  8
STEMPEL
100
AcDbLine
 10
752.0000000000002
 20
109.9999999999997
 30
0.0
 11
752.0000000000002
 21
40.0
 31
0.0
  0
LINE
  5
5D
330
1E
100
AcDbEntity
  8
STEMPEL
100
AcDbLine
 10
566.0
 20
30.0
 30
0.0
 11
470.0000000000001
 21
30.0
 31
0.0
  0
LINE
  5
5E
330
1E
100
AcDbEntity
  8
STEMPEL
100
AcDbLine
 10
830.0000000000002
 20
40.0
 30
0.0
 11
566.0000000000001
 21
40.0
 31
0.0
  0
LINE
  5
5F
330
1E
100
AcDbEntity
  8
STEMPEL
100
AcDbLine
 10
830.0000000000002
 20
80.0
 30
0.0
 11
566.0000000000002
 21
80.0
 31
0.0
  0
LINE
  5
60
330
1E
100
AcDbEntity
  8
VOLL
100
AcDbLine
 10
484.0000000000002
 20
110.0
 30
0.0
 11
484.0000000000001
 21
9.999999999999985
 31
0.0
  0
LINE
  5
61
330
1E
100
AcDbEntity
  8
VOLL
100
AcDbLine
 10
524.0000000000001
 20
109.9999999999999
 30
0.0
 11
524.0000000000001
 21
9.999999999999943
 31
0.0
  0
LINE
  5
62
330
1E
100
AcDbEntity
  8
VOLL
100
AcDbLine
 10
544.0000000000002
 20
109.9999999999999
 30
0.0
 11
544.0000000000001
 21
9.999999999999914
 31
0.0
  0
LINE
  5
63
330
1E
100
AcDbEntity
  8
VOLL
100
AcDbLine
 10
584.0000000000002
 20
80.0
 30
0.0
 11
584.0000000000002
 21
40.0
 31
0.0
  0
LINE
  5
64
330
1E
100
AcDbEntity
  8
VOLL
100
AcDbLine
 10
610.0000000000002
 20
109.9999999999998
 30
0.0
 11
610.0000000000001
 21
40.0
 31
0.0
  0
LINE
  5
65
330
1E
100
AcDbEntity
  8
HILF
100
AcDbLine
 10
470.0000000000001
 20
100.0
 30
0.0
 11
566.0000000000002
 21
100.0
 31
0.0
  0
LINE
  5
66
330
1E
100
AcDbEntity
  8
HILF
100
AcDbLine
 10
470.0000000000001
 20
90.0
 30
0.0
 11
566.0000000000002
 21
90.0
 31
0.0
  0
LINE
  5
67
330
1E
100
AcDbEntity
  8
HILF
100
AcDbLine
 10
470.0000000000001
 20
80.0
 30
0.0
 11
566.0000000000002
 21
80.0
 31
0.0
  0
LINE
  5
68
330
1E
100
AcDbEntity
  8
HILF
100
AcDbLine
 10
470.0000000000001
 20
70.0
 30
0.0
 11
566.0000000000002
 21
70.0
 31
0.0
  0
LINE
  5
69
330
1E
100
AcDbEntity
  8
HILF
100
AcDbLine
 10
470.0000000000001
 20
60.0
 30
0.0
 11
566.0000000000002
 21
60.0
 31
0.0
  0
LINE
  5
6A
330
1E
100
AcDbEntity
  8
HILF
100
AcDbLine
 10
470.0000000000001
 20
50.0
 30
0.0
 11
566.0000000000002
 21
50.0
 31
0.0
  0
LINE
  5
6B
330
1E
100
AcDbEntity
  8
HILF
100
AcDbLine
 10
470.0000000000001
 20
40.0
 30
0.0
 11
566.0000000000002
 21
40.0
 31
0.0
  0
LINE
  5
6C
330
1E
100
AcDbEntity
  8
HILF
100
AcDbLine
 10
566.0000000000002
 20
70.0
 30
0.0
 11
650.0
 21
70.0
 31
0.0
  0
LINE
  5
6D
330
1E
100
AcDbEntity
  8
HILF
100
AcDbLine
 10
566.0000000000002
 20
60.0
 30
0.0
 11
650.0
 21
60.0
 31
0.0
  0
LINE
  5
6E
330
1E
100
AcDbEntity
  8
HILF
100
AcDbLine
 10
566.0000000000002
 20
50.0
 30
0.0
 11
650.0
 21
50.0
 31
0.0
  0
LINE
  5
6F
330
1E
100
AcDbEntity
  8
HILF
100
AcDbLine
 10
654.7736801096948
 20
84.03758247564136
 30
0.0
 11
746.6297842514811
 21
84.03758247564136
 31
0.0
  0
LINE
  5
70
330
1E
100
AcDbEntity
  8
HILF
100
AcDbLine
 10
654.7736801096948
 20
70.0
 30
0.0
 11
746.6297842514811
 21
70.0
 31
0.0
  0
LINE
  5
71
330
1E
100
AcDbEntity
  8
HILF
100
AcDbLine
 10
654.7736801096948
 20
60.0
 30
0.0
 11
746.6297842514811
 21
60.0
 31
0.0
  0
LINE
  5
72
330
1E
100
AcDbEntity
  8
HILF
100
AcDbLine
 10
654.7736801096948
 20
50.0
 30
0.0
 11
746.6297842514811
 21
50.0
 31
0.0
  0
LINE
  5
73
330
1E
100
AcDbEntity
  8
VOLL
100
AcDbLine
 10
752.0000000000002
 20
60.0
 30
0.0
 11
830.0000000000002
 21
60.0
 31
0.0
  0
LINE
  5
74
330
1E
100
AcDbEntity
  8
HILF
100
AcDbLine
 10
756.7238616296995
 20
83.77983636955823
 30
0.0
 11
824.858883932673
 21
83.77983636955823
 31
0.0
  0
LINE
  5
75
330
1E
100
AcDbEntity
  8
HILF
100
AcDbLine
 10
654.7736801096948
 20
14.89398258028305
 30
0.0
 11
824.858883932673
 21
14.89398258028305
 31
0.0
  0
TEXT
  5
76
330
1E
100
AcDbEntity
  8
TEXT
100
AcDbText
 10
492.3998239263297
 20
18.67381894984129
 30
0.0
 40
4.0
  1
Änderung
 41
0.8
  7
GREEKS
 72
     1
 11
503.1426810691868
 21
18.67381894984129
 31
0.0
100
AcDbText
  0
TEXT
  5
78
330
1E
100
AcDbEntity
  8
TEXT
100
AcDbText
 10
573.5163572150378
 20
102.4620895087088
 30
0.0
 40
5.0
  1
Maßstab
 41
0.8
  7
GREEKS
100
AcDbText
  0
TEXT
  5
79
330
1E
100
AcDbEntity
  8
TEXT
100
AcDbText
 10
654.8779403809011
 20
102.5489328011779
 30
0.0
 40
5.0
  1
Benennung
 41
0.8
  7
GREEKS
100
AcDbText
  0
TEXT
  5
7A
330
1E
100
AcDbEntity
  8
TEXT
100
AcDbText
 10
756.1787549576343
 20
102.3132034537135
 30
0.0
 40
5.0
  1
Zeichnungs Nr.
 41
0.8
  7
GREEKS
100
AcDbText
  0
TEXT
  5
7B
330
1E
100
AcDbEntity
  8
TEXT
100
AcDbText
 10
654.742238391136
 20
30.84560570193055
 30
0.0
 40
5.0
  1
Bauvorhaben
 41
0.8
  7
GREEKS
100
AcDbText
  0
TEXT
  5
7C
330
1E
100
AcDbEntity
  8
TEXT
100
AcDbText
 10
756.7238616296995
 20
73.18118237099965
 30
0.0
 40
5.0
  1
Ersatz für:
 41
0.8
  7
GREEKS
100
AcDbText
  0
TEXT
  5
7D
330
1E
100
AcDbEntity
  8
TEXT
100
AcDbText
 10
478.2664110704577
 20
13.65465846027187
 30
0.0
 40
4.0
  1
Index
 50
90.0
 41
0.8
  7
GREEKS
100
AcDbText
  0
TEXT
  5
7E
330
1E
100
AcDbEntity
  8
TEXT
100
AcDbText
 10
529.8990113186979
 20
18.67156269339808
 30
0.0
 40
4.0
  1
Tag
 41
0.8
  7
GREEKS
 72
     1
 11
533.6323446520313
 21
18.67156269339808
 31
0.0
100
AcDbText
  0
TEXT
  5
7F
330
1E
100
AcDbEntity
  8
TEXT
100
AcDbText
 10
548.9795678138293
 20
18.59324216966404
 30
0.0
 40
4.0
  1
Name
 41
0.8
  7
GREEKS
 72
     1
 11
555.3033773376388
 21
18.59324216966404
 31
0.0
100
AcDbText
  0
TEXT
  5
80
330
1E
100
AcDbEntity
  8
TEXT
100
AcDbText
 10
592.3311673153651
 20
73.31880501229919
 30
0.0
 40
4.0
  1
Tag
 41
0.8
  7
GREEKS
100
AcDbText
  0
TEXT
  5
81
330
1E
100
AcDbEntity
  8
TEXT
100
AcDbText
 10
622.4626584226296
 20
73.3096109191522
 30
0.0
 40
4.0
  1
Name
 41
0.8
  7
GREEKS
100
AcDbText
  0
TEXT
  5
82
330
1E
100
AcDbEntity
  8
TEXT
100
AcDbText
 10
567.5836127167616
 20
63.62990369617961
 30
0.0
 40
4.0
  1
Gez.
 41
0.8
  7
GREEKS
100
AcDbText
  0
TEXT
  5
83
330
1E
100
AcDbEntity
  8
TEXT
100
AcDbText
 10
567.5515086571673
 20
53.68926291428373
 30
0.0
 40
4.0
  1
Gepr.
 41
0.8
  7
GREEKS
100
AcDbText
  0
TEXT
  5
84
330
1E
100
AcDbEntity
  8
TEXT
100
AcDbText
 10
567.6006777387304
 20
43.52946389649804
 30
0.0
 40
4.0
  1
Norm.
 41
0.8
  7
GREEKS
100
AcDbText
  0
TEXT
  5
85
330
1E
100
AcDbEntity
  8
TEXT
100
AcDbText
 10
757.2400861497007
 20
52.07416177878596
 30
0.0
 40
5.0
  1
ersetzt durch:
 41
0.8
  7
GREEKS
100
AcDbText
  0
TEXT
  5
86
330
1E
100
AcDbEntity
  8
TEXT
100
AcDbText
 10
568.8693027807324
 20
72.96682596523723
 30
0.0
 40
4.0
  1
2009
 41
0.8
  7
GREEKS
100
AcDbText
  0
LINE
  5
87
330
1E
100
AcDbEntity
  8
HILF
100
AcDbLine
 10
0.0
 20
0.0
 30
0.0
 11
840.0
 21
0.0
 31
0.0
  0
LINE
  5
88
330
1E
100
AcDbEntity
  8
HILF
100
AcDbLine
 10
840.0
 20
0.0
 30
0.0
 11
840.0
 21
594.0
 31
0.0
  0
LINE
  5
89
330
1E
100
AcDbEntity
  8
HILF
100
AcDbLine
 10
840.0
 20
594.0
 30
0.0
 11
0.0
 21
594.0
 31
0.0
  0
LINE
  5
8B
330
1E
100
AcDbEntity
  8
STEMPEL
100
AcDbLine
 10
830.0
 20
584.0
 30
0.0
 11
40.0
 21
584.0
 31
0.0
  0
LINE
  5
8D
330
1E
100
AcDbEntity
  8
STEMPEL
100
AcDbLine
 10
40.0
 20
10.0
 30
0.0
 11
830.0
 21
10.0
 31
0.0
  0
LINE
  5
8E
330
1E
100
AcDbEntity
  8
STEMPEL
100
AcDbLine
 10
830.0
 20
10.0
 30
0.0
 11
830.0
 21
584.0
 31
0.0
  0
TEXT
  5
8F
330
1E
100
AcDbEntity
  8
TEXT
 62
     1
100
AcDbText
 10
655.0390572473189
 20
87.37343075652544
 30
0.0
 40
7.0
  1
Regenstandrohr DN100
 41
0.75
  7
GREEKS
100
AcDbText
  0
TEXT
  5
90
330
1E
100
AcDbEntity
  8
TEXT
 62
     1
100
AcDbText
 10
767.1961422184136
 20
87.37343075652544
 30
0.0
 40
7.0
  1
45510100W
 41
0.8
  7
GREEKS
 72
     1
 11
790.1294755517469
 21
87.37343075652544
 31
0.0
100
AcDbText
  0
TEXT
  5
91
330
1E
100
AcDbEntity
  8
TEXT
100
AcDbText
 10
618.509022641583
 20
102.83989611379
 30
0.0
 40
5.0
  1
Zul.Abw.
 41
0.8
  7
GREEKS
100
AcDbText
  0
TEXT
  5
93
330
1E
100
AcDbEntity
  8
TEXT
100
AcDbText
 10
590.1565237511869
 20
63.1508587612022
 30
0.0
 40
4.0
  1
28.09.
 41
0.8
  7
GREEKS
 72
     1
 11
597.1660475607107
 21
63.1508587612022
 31
0.0
100
AcDbText
  0
TEXT
  5
94
330
1E
100
AcDbEntity
  8
TEXT
100
AcDbText
 10
624.023175322661
 20
62.94297655165468
 30
0.0
 40
4.0
  1
Koeh
 41
0.8
  7
GREEKS
 72
     1
 11
629.2803181798038
 21
62.94297655165468
 31
0.0
100
AcDbText
  0
TEXT
  5
95
330
1E
100
AcDbEntity
  8
TEXT
100
AcDbText
 10
654.3410940884992
 20
72.10021383107525
 30
0.0
 40
5.0
  1
mit Reinigungsöffnung
 41
0.8
  7
GREEKS
100
AcDbText
  0
TEXT
  5
96
330
1E
100
AcDbEntity
  8
TEXT
100
AcDbText
 10
654.3410940884992
 20
62.34559085209035
 30
0.0
 40
5.0
  1

 41
0.8
  7
GREEKS
100
AcDbText
  0
TEXT
  5
97
330
1E
100
AcDbEntity
  8
TEXT
100
AcDbText
 10
654.3410940884992
 20
52.59097337846058
 30
0.0
 40
5.0
  1

 41
0.8
  7
GREEKS
100
AcDbText
  0
TEXT
  5
98
330
1E
100
AcDbEntity
  8
TEXT
100
AcDbText
 10
654.1676050109348
 20
43.31127624791508
 30
0.0
 40
4.0
  1
45510100W.DWG
 41
0.8
  7
GREEKS
100
AcDbText
  0
TEXT
  5
99
330
1E
100
AcDbEntity
  8
TEXT
 62
     1
100
AcDbText
 10
582.7034912034222
 20
87.47077088414977
 30
0.0
 40
7.0
  1
1:2
 41
0.8
  7
GREEKS
100
AcDbText
  0
TEXT
  5
9A
330
1E
100
AcDbEntity
  8
TEXT
100
AcDbText
 10
470.0441139350127
 20
114.1143585051043
 30
0.0
 40
5.0
  1
Erstellt mit AUTOCAD 2004
 41
0.8
  7
GREEKS
100
AcDbText
  0
INSERT
  5
9B
330
1E
100
AcDbEntity
  8
HILF
100
AcDbBlockReference
  2
LORO
 10
573.0624985962354
 20
36.9805930029896
 30
0.0
 41
2.0
 42
2.0
 43
2.0
  0
LINE
  5
9C
330
1E
100
AcDbEntity
  8
BEM
100
AcDbLine
 10
456.0
 20
0.0
 30
0.0
 11
456.0
 21
10.0
 31
0.0
  0
LINE
  5
13E
330
1E
100
AcDbEntity
  8
HILF
100
AcDbLine
 10
0.0
 20
0.0
 30
0.0
 11
0.0
 21
594.0
 31
0.0
  0
LINE
  5
13F
330
1E
100
AcDbEntity
  8
STEMPEL
100
AcDbLine
 10
40.0
 20
10.0
 30
0.0
 11
40.0
 21
584.0
 31
0.0
  0
LINE
  5
14A
330
1E
100
AcDbEntity
  8
HILF
100
AcDbLine
 10
0.0
 20
297.0
 30
0.0
 11
40.0
 21
297.0
 31
0.0
  0
TEXT
  5
15B
330
1E
100
AcDbEntity
  8
BEM
100
AcDbText
 10
837.3022923857165
 20
10.16790107998861
 30
0.0
 40
4.0
  1
Diese Zeichnung ist urheberrechtlich geschützt und bleibt unser Eigentum. Sie darf weder ganz noch teilweise verfielfältigt und nicht an Dritte weitergegeben werden.
 50
90.0
 41
0.8
  7
GREEKS
100
AcDbText
  0
LINE
  5
188
330
1E
100
AcDbEntity
  8
BEM
100
AcDbLine
 10
456.0
 20
594.0
 30
0.0
 11
456.0
 21
584.0
 31
0.0
  0
TEXT
  5
26A
330
1E
100
AcDbEntity
  8
TEXT
 62
     1
100
AcDbText
 10
174.6412094465076
 20
81.54696998501753
 30
0.0
 40
7.0
  1
Rohrende leicht eingezogen
 41
0.8
  7
GREEKS
100
AcDbText
  0
TEXT
  5
794
330
1E
100
AcDbEntity
  8
TEXT
100
AcDbText
 10
612.2898419893276
 20
88.96844093997101
 30
0.0
 40
4.0
  1
DIN EN1124-3
 41
0.8
  7
GREEKS
 72
     1
 11
629.2803181798038
 21
88.96844093997101
 31
0.0
100
AcDbText
  0
LINE
  5
8C9
330
1E
100
AcDbEntity
  8
MITTEL
100
AcDbLine
 10
791.0297133559338
 20
235.0829218026866
 30
0.0
 11
91.68093905819251
 21
235.0829218026868
 31
0.0
  0
LINE
  5
8CA
330
1E
100
AcDbEntity
  8
MITTEL
100
AcDbLine
 10
791.0297133559338
 20
437.606117527929
 30
0.0
 11
91.68093905819251
 21
437.6061175279291
 31
0.0
  0
LINE
  5
B80
330
1E
100
AcDbEntity
  8
MITTEL
100
AcDbLine
 10
507.4330459171557
 20
223.5829218026868
 30
0.0
 11
507.4330459171557
 21
246.5829218026868
 31
0.0
  0
LINE
  5
B81
330
1E
100
AcDbEntity
  8
MITTEL
100
AcDbLine
 10
403.4330459171557
 20
223.5829218026868
 30
0.0
 11
403.4330459171557
 21
246.5829218026868
 31
0.0
  0
ARC
  5
B82
330
1E
100
AcDbEntity
  8
STEMPEL
100
AcDbCircle
 10
451.8747125838224
 20
229.3106344949315
 30
0.0
 40
2.294444444444444
100
AcDbArc
 50
99.99999999999861
 51
180.0
  0
ARC
  5
B83
330
1E
100
AcDbEntity
  8
STEMPEL
100
AcDbCircle
 10
452.4580459171557
 20
228.805272879346
 30
0.0
 40
0.3888888888888889
100
AcDbArc
 50
99.55500261065868
 51
180.0
  0
LINE
  5
B84
330
1E
100
AcDbEntity
  8
STEMPEL
100
AcDbLine
 10
452.0691570282668
 20
228.805272879346
 30
0.0
 11
452.0691570282669
 21
227.9821387017261
 31
0.0
  0
ARC
  5
B85
330
1E
100
AcDbEntity
  8
STEMPEL
100
AcDbCircle
 10
453.9358236949334
 20
232.642644024909
 30
0.0
 40
3.150000000000008
100
AcDbArc
 50
279.9999999999986
 51
308.6930109383339
  0
LINE
  5
B86
330
1E
100
AcDbEntity
  8
STEMPEL
100
AcDbLine
 10
452.393492562394
 20
229.1887665980563
 30
0.0
 11
454.4732906798365
 21
229.5388582401295
 31
0.0
  0
LINE
  5
B87
330
1E
100
AcDbEntity
  8
STEMPEL
100
AcDbLine
 10
451.4878630839835
 20
231.5602260749518
 30
0.0
 11
454.0601492093613
 21
231.9932180398753
 31
0.0
  0
LINE
  5
B88
330
1E
100
AcDbEntity
  8
STEMPEL
100
AcDbLine
 10
449.5802681393779
 20
229.3106344949315
 30
0.0
 11
449.5802681393779
 21
223.192644024909
 31
0.0
  0
CIRCLE
  5
B89
330
1E
100
AcDbEntity
  8
STEMPEL
100
AcDbCircle
 10
455.4330459171557
 20
223.192644024909
 30
0.0
 40
3.363888888888853
  0
ARC
  5
B8A
330
1E
100
AcDbEntity
  8
STEMPEL
100
AcDbCircle
 10
455.4330459171557
 20
223.192644024909
 30
0.0
 40
5.852777777777742
100
AcDbArc
 50
180.0
 51
125.082184575459
  0
LINE
  5
B8B
330
1E
100
AcDbEntity
  8
HILF
100
AcDbLine
 10
399.8357536462027
 20
225.7600262725467
 30
0.0
 11
422.1687626049344
 21
202.7696995469244
 31
0.0
  0
LINE
  5
B8C
330
1E
100
AcDbEntity
  8
STEMPEL
100
AcDbLine
 10
397.9547850475906
 20
223.9361945964522
 30
0.0
 11
420.2808720041123
 21
200.9460697335936
 31
0.0
  0
LINE
  5
B8D
330
1E
100
AcDbEntity
  8
HILF
100
AcDbLine
 10
488.697329229377
 20
202.7696995469243
 30
0.0
 11
511.0303381881088
 21
225.7600262725467
 31
0.0
  0
LINE
  5
B8E
330
1E
100
AcDbEntity
  8
STEMPEL
100
AcDbLine
 10
490.5852198301992
 20
200.9460697335935
 30
0.0
 11
512.911306786721
 21
223.9361945964522
 31
0.0
  0
ARC
  5
B8F
330
1E
100
AcDbEntity
  8
STEMPEL
100
AcDbCircle
 10
455.4330459171557
 20
235.0829218026868
 30
0.0
 40
48.99999999999997
100
AcDbArc
 50
224.1604804299514
 51
315.8395195700486
  0
ARC
  5
B90
330
1E
100
AcDbEntity
  8
HILF
100
AcDbCircle
 10
455.4330459171557
 20
235.0829218026868
 30
0.0
 40
46.37517522151287
100
AcDbArc
 50
224.169105867406
 51
315.8308941325934
  0
LINE
  5
B91
330
1E
100
AcDbEntity
  8
STEMPEL
100
AcDbLine
 10
457.0858236949335
 20
235.792644024909
 30
0.0
 11
457.0858236949335
 21
232.8370884693534
 31
0.0
  0
LINE
  5
B92
330
1E
100
AcDbEntity
  8
STEMPEL
100
AcDbLine
 10
454.5969348060445
 20
235.7926440249089
 30
0.0
 11
454.5969348060445
 21
232.642644024909
 31
0.0
  0
LINE
  5
B93
330
1E
100
AcDbEntity
  8
STEMPEL
100
AcDbLine
 10
454.5969348060445
 20
235.7926440249089
 30
0.0
 11
450.8247125838224
 21
235.7926440249089
 31
0.0
  0
LINE
  5
B94
330
1E
100
AcDbEntity
  8
STEMPEL
100
AcDbLine
 10
452.6216589631884
 20
238.2815329137979
 30
0.0
 11
450.8247125838224
 21
238.2815329137978
 31
0.0
  0
ARC
  5
B95
330
1E
100
AcDbEntity
  8
STEMPEL
100
AcDbCircle
 10
450.8247125838223
 20
237.0370884693534
 30
0.0
 40
1.244444444444462
100
AcDbArc
 50
89.99999999999998
 51
270.0
  0
ARC
  5
B96
330
1E
100
AcDbEntity
  8
STEMPEL
100
AcDbCircle
 10
455.4330459171557
 20
243.4148662471312
 30
0.0
 40
5.852777777777742
100
AcDbArc
 50
180.0
 51
241.291678977255
  0
LINE
  5
B97
330
1E
100
AcDbEntity
  8
STEMPEL
100
AcDbLine
 10
461.2858236949334
 20
237.5037551360201
 30
0.0
 11
461.2858236949334
 21
232.8370884693534
 31
0.0
  0
LINE
  5
B98
330
1E
100
AcDbEntity
  8
STEMPEL
100
AcDbLine
 10
458.7969348060446
 20
235.792644024909
 30
0.0
 11
458.7969348060446
 21
232.8370884693534
 31
0.0
  0
LINE
  5
B99
330
1E
100
AcDbEntity
  8
STEMPEL
100
AcDbLine
 10
460.5080459171558
 20
238.2815329137979
 30
0.0
 11
458.2444328711231
 21
238.2815329137979
 31
0.0
  0
ARC
  5
B9A
330
1E
100
AcDbEntity
  8
STEMPEL
100
AcDbCircle
 10
460.5080459171557
 20
237.5037551360201
 30
0.0
 40
0.7777777777777778
100
AcDbArc
 50
0.0
 51
89.99999999999998
  0
LINE
  5
B9B
330
1E
100
AcDbEntity
  8
STEMPEL
100
AcDbLine
 10
458.7969348060446
 20
235.792644024909
 30
0.0
 11
457.0858236949335
 21
235.792644024909
 31
0.0
  0
LINE
  5
B9C
330
1E
100
AcDbEntity
  8
STEMPEL
100
AcDbLine
 10
452.0691570282669
 20
249.9481995804645
 30
0.0
 11
452.0691570282669
 21
248.2043609239475
 31
0.0
  0
ARC
  5
B9D
330
1E
100
AcDbEntity
  8
STEMPEL
100
AcDbCircle
 10
451.8747125838225
 20
250.5315329137979
 30
0.0
 40
2.294444444444444
100
AcDbArc
 50
89.99999999999998
 51
180.0
  0
ARC
  5
B9E
330
1E
100
AcDbEntity
  8
STEMPEL
100
AcDbCircle
 10
452.4580459171558
 20
249.9481995804645
 30
0.0
 40
0.3888888888888889
100
AcDbArc
 50
89.99999999999998
 51
180.0
  0
ARC
  5
B9F
330
1E
100
AcDbEntity
  8
STEMPEL
100
AcDbCircle
 10
460.0413792504891
 20
251.5815329137979
 30
0.0
 40
1.244444444444462
100
AcDbArc
 50
270.0
 51
89.99999999999998
  0
LINE
  5
BA0
330
1E
100
AcDbEntity
  8
STEMPEL
100
AcDbLine
 10
460.0413792504891
 20
250.3370884693534
 30
0.0
 11
452.4580459171558
 21
250.3370884693534
 31
0.0
  0
LINE
  5
BA1
330
1E
100
AcDbEntity
  8
STEMPEL
100
AcDbLine
 10
460.0413792504891
 20
252.8259773582423
 30
0.0
 11
451.8747125838224
 21
252.8259773582423
 31
0.0
  0
ARC
  5
BA2
330
1E
100
AcDbEntity
  8
STEMPEL
100
AcDbCircle
 10
455.4330459171557
 20
243.4148662471312
 30
0.0
 40
5.852777777777742
100
AcDbArc
 50
298.7083210227502
 51
125.0821845754638
  0
CIRCLE
  5
BA3
330
1E
100
AcDbEntity
  8
STEMPEL
100
AcDbCircle
 10
455.4330459171557
 20
243.4148662471312
 30
0.0
 40
3.363888888888853
  0
LINE
  5
BA4
330
1E
100
AcDbEntity
  8
STEMPEL
100
AcDbLine
 10
449.5802681393779
 20
250.5315329137979
 30
0.0
 11
449.5802681393779
 21
243.4148662471312
 31
0.0
  0
LINE
  5
BA5
330
1E
100
AcDbEntity
  8
STEMPEL
100
AcDbLine
 10
420.2808720041123
 20
269.2197738717799
 30
0.0
 11
397.9547850475906
 21
246.2296490089212
 31
0.0
  0
LINE
  5
BA6
330
1E
100
AcDbEntity
  8
HILF
100
AcDbLine
 10
422.1687626049344
 20
267.3961440584491
 30
0.0
 11
399.8357536462027
 21
244.4058173328267
 31
0.0
  0
LINE
  5
BA7
330
1E
100
AcDbEntity
  8
STEMPEL
100
AcDbLine
 10
512.911306786721
 20
246.2296490089212
 30
0.0
 11
490.5852198301992
 21
269.2197738717798
 31
0.0
  0
LINE
  5
BA8
330
1E
100
AcDbEntity
  8
HILF
100
AcDbLine
 10
511.0303381881088
 20
244.4058173328266
 30
0.0
 11
488.697329229377
 21
267.3961440584491
 31
0.0
  0
ARC
  5
BA9
330
1E
100
AcDbEntity
  8
HILF
100
AcDbCircle
 10
455.4330459171557
 20
235.0829218026868
 30
0.0
 40
46.37517522151287
100
AcDbArc
 50
44.16910586740655
 51
135.8308941325934
  0
ARC
  5
BAA
330
1E
100
AcDbEntity
  8
STEMPEL
100
AcDbCircle
 10
455.4330459171557
 20
235.0829218026868
 30
0.0
 40
48.99999999999997
100
AcDbArc
 50
44.1604804299514
 51
135.8395195700486
  0
CIRCLE
  5
BAB
330
1E
100
AcDbEntity
  8
HILF
100
AcDbCircle
 10
455.4330459171557
 20
235.0829218026868
 30
0.0
 40
35.06111457868633
  0
CIRCLE
  5
BAC
330
1E
100
AcDbEntity
  8
STEMPEL
100
AcDbCircle
 10
455.4330459171557
 20
235.0829218026868
 30
0.0
 40
31.5
  0
ARC
  5
BAD
330
1E
100
AcDbEntity
  8
STEMPEL
100
AcDbCircle
 10
501.4330459171557
 20
235.0829218026868
 30
0.0
 40
16.0
100
AcDbArc
 50
315.8395195700486
 51
44.1604804299514
  0
ARC
  5
BAE
330
1E
100
AcDbEntity
  8
HILF
100
AcDbCircle
 10
501.4330459171557
 20
235.0829218026868
 30
0.0
 40
13.38
100
AcDbArc
 50
315.8308941325934
 51
44.16910586740655
  0
ARC
  5
BAF
330
1E
100
AcDbEntity
  8
HILF
100
AcDbCircle
 10
409.4330459171557
 20
235.0829218026868
 30
0.0
 40
13.38
100
AcDbArc
 50
135.8308941325934
 51
224.1691058674065
  0
ARC
  5
BB0
330
1E
100
AcDbEntity
  8
STEMPEL
100
AcDbCircle
 10
409.4330459171557
 20
235.0829218026868
 30
0.0
 40
16.0
100
AcDbArc
 50
135.8395195700486
 51
224.1604804299514
  0
ARC
  5
BB1
330
1E
100
AcDbEntity
  8
STEMPEL
100
AcDbCircle
 10
457.9413792504889
 20
232.8370884693534
 30
0.0
 40
3.344444444444391
100
AcDbArc
 50
232.4919601629154
 51
0.0
  0
ARC
  5
BB2
330
1E
100
AcDbEntity
  8
STEMPEL
100
AcDbCircle
 10
457.9413792504889
 20
232.8370884693534
 30
0.0
 40
0.8555555555555024
100
AcDbArc
 50
180.0
 51
0.0
  0
ARC
  5
BB3
330
1E
100
AcDbEntity
  8
STEMPEL
100
AcDbCircle
 10
453.9358236949334
 20
232.642644024909
 30
0.0
 40
0.6611111111111199
100
AcDbArc
 50
279.9999999999986
 51
0.0
  0
CIRCLE
  5
BB4
330
1E
100
AcDbEntity
  8
STEMPEL
100
AcDbCircle
 10
507.4330459171557
 20
235.0829218026868
 30
0.0
 40
5.650000000000019
  0
LWPOLYLINE
  5
BB5
330
1E
100
AcDbEntity
  8
STEMPEL
100
AcDbPolyline
 90
        6
 70
     1
 43
0.0
 10
503.6802691674232
 20
241.5829218026868
 10
499.9274924176906
 20
235.0829218026868
 10
503.6802691674232
 20
228.5829218026868
 10
511.1858226668883
 20
228.5829218026868
 10
514.9385994166209
 20
235.0829218026868
 10
511.1858226668883
 20
241.5829218026868
  0
CIRCLE
  5
BB6
330
1E
100
AcDbEntity
  8
STEMPEL
100
AcDbCircle
 10
507.4330459171557
 20
235.0829218026868
 30
0.0
 40
6.5
  0
CIRCLE
  5
BB7
330
1E
100
AcDbEntity
  8
STEMPEL
100
AcDbCircle
 10
403.4330459171557
 20
235.0829218026868
 30
0.0
 40
6.5
  0
LWPOLYLINE
  5
BB8
330
1E
100
AcDbEntity
  8
STEMPEL
100
AcDbPolyline
 90
        6
 70
     1
 43
0.0
 10
399.6802691674231
 20
241.5829218026868
 10
395.9274924176906
 20
235.0829218026868
 10
399.6802691674231
 20
228.5829218026868
 10
407.1858226668882
 20
228.5829218026868
 10
410.9385994166208
 20
235.0829218026868
 10
407.1858226668882
 20
241.5829218026868
  0
CIRCLE
  5
BB9
330
1E
100
AcDbEntity
  8
STEMPEL
100
AcDbCircle
 10
403.4330459171557
 20
235.0829218026868
 30
0.0
 40
5.650000000000019
  0
LINE
  5
BBA
330
1E
100
AcDbEntity
  8
MITTEL
100
AcDbLine
 10
455.4330459171557
 20
181.0829218026868
 30
0.0
 11
455.4330459171557
 21
289.0829218026867
 31
0.0
  0
LINE
  5
C5B
330
1E
100
AcDbEntity
  8
STEMPEL
100
AcDbLine
 10
407.7228486718034
 20
489.0433100917579
 30
0.0
 11
407.7228486718034
 21
492.6433100917578
 31
0.0
  0
LINE
  5
C5C
330
1E
100
AcDbEntity
  8
STEMPEL
100
AcDbLine
 10
399.7228486718035
 20
489.0433100917579
 30
0.0
 11
399.7228486718035
 21
492.6433100917578
 31
0.0
  0
LINE
  5
C5D
330
1E
100
AcDbEntity
  8
HILF
100
AcDbLine
 10
406.7228486718034
 20
489.0433100917579
 30
0.0
 11
406.7228486718036
 21
492.6433100917578
 31
0.0
  0
LINE
  5
C5E
330
1E
100
AcDbEntity
  8
HILF
100
AcDbLine
 10
400.7228486718035
 20
489.0433100917579
 30
0.0
 11
400.7228486718035
 21
492.6433100917578
 31
0.0
  0
LINE
  5
C5F
330
1E
100
AcDbEntity
  8
MITTEL
100
AcDbLine
 10
403.7228486718034
 20
489.0433100917579
 30
0.0
 11
403.7228486718036
 21
521.2433100917579
 31
0.0
  0
ARC
  5
C62
330
1E
100
AcDbEntity
  8
STEMPEL
100
AcDbCircle
 10
409.1144546379202
 20
505.2163591538946
 30
0.0
 40
2.926950985085932
100
AcDbArc
 50
58.53080547591954
 51
127.8806357171795
  0
ARC
  5
C63
330
1E
100
AcDbEntity
  8
STEMPEL
100
AcDbCircle
 10
409.1144546379202
 20
504.5702610296215
 30
0.0
 40
2.926950985085932
100
AcDbArc
 50
232.1193642828205
 51
301.4691945240804
  0
ARC
  5
C64
330
1E
100
AcDbEntity
  8
STEMPEL
100
AcDbCircle
 10
403.7228486718082
 20
497.3606048917581
 30
0.0
 40
10.7827052
100
AcDbArc
 50
70.52782738138624
 51
109.4721726186137
  0
ARC
  5
C65
330
1E
100
AcDbEntity
  8
STEMPEL
100
AcDbCircle
 10
403.7228486718082
 20
512.4260152917579
 30
0.0
 40
10.7827052
100
AcDbArc
 50
250.5278273813862
 51
289.4721726186137
  0
LINE
  5
C66
330
1E
100
AcDbEntity
  8
STEMPEL
100
AcDbLine
 10
400.1284446944002
 20
507.526577126488
 30
0.0
 11
400.1284446944002
 21
502.2600430570279
 31
0.0
  0
LINE
  5
C67
330
1E
100
AcDbEntity
  8
STEMPEL
100
AcDbLine
 10
407.3172526492163
 20
507.526577126488
 30
0.0
 11
407.3172526492162
 21
502.2600430570279
 31
0.0
  0
LINE
  5
C68
330
1E
100
AcDbEntity
  8
STEMPEL
100
AcDbLine
 10
410.9116566266242
 20
507.5573849026915
 30
0.0
 11
410.9116566266242
 21
502.2292352808246
 31
0.0
  0
LINE
  5
C69
330
1E
100
AcDbEntity
  8
STEMPEL
100
AcDbLine
 10
409.1092993965672
 20
501.6433100917579
 30
0.0
 11
409.1139288666139
 21
501.6433100917579
 31
0.0
  0
LINE
  5
C6A
330
1E
100
AcDbEntity
  8
STEMPEL
100
AcDbLine
 10
410.9116566266242
 20
502.2292352808245
 30
0.0
 11
410.5124577300276
 21
501.9987576904142
 31
0.0
  0
LINE
  5
C6B
330
1E
100
AcDbEntity
  8
STEMPEL
100
AcDbLine
 10
409.1092993965672
 20
508.1433100917581
 30
0.0
 11
409.1139288666139
 21
508.1433100917581
 31
0.0
  0
LINE
  5
C6C
330
1E
100
AcDbEntity
  8
STEMPEL
100
AcDbLine
 10
410.9116566266242
 20
507.5573849026914
 30
0.0
 11
410.5124577300276
 21
507.7878624931017
 31
0.0
  0
ARC
  5
C6F
330
1E
100
AcDbEntity
  8
STEMPEL
100
AcDbCircle
 10
398.1939100784988
 20
498.643310091758
 30
0.0
 40
3.0
100
AcDbArc
 50
89.99999999999998
 51
165.9637565320735
  0
LINE
  5
C70
330
1E
100
AcDbEntity
  8
STEMPEL
100
AcDbLine
 10
395.6631336720942
 20
492.643310091758
 30
0.0
 11
393.7228486718036
 21
493.1283813418306
 31
0.0
  0
LINE
  5
C71
330
1E
100
AcDbEntity
  8
STEMPEL
100
AcDbLine
 10
395.2834825780628
 20
499.370916966867
 30
0.0
 11
393.7228486718036
 21
493.1283813418306
 31
0.0
  0
ARC
  5
C75
330
1E
100
AcDbEntity
  8
STEMPEL
100
AcDbCircle
 10
398.3312427056964
 20
505.2163591538946
 30
0.0
 40
2.926950985085932
100
AcDbArc
 50
52.11936428282045
 51
121.4691945240804
  0
LINE
  5
C76
330
1E
100
AcDbEntity
  8
STEMPEL
100
AcDbLine
 10
398.3317684769829
 20
508.1433100917579
 30
0.0
 11
409.1139288666242
 21
508.1433100917581
 31
0.0
  0
ARC
  5
C77
330
1E
100
AcDbEntity
  8
STEMPEL
100
AcDbCircle
 10
398.3312427056964
 20
504.5702610296215
 30
0.0
 40
2.926950985085932
100
AcDbArc
 50
238.5308054759196
 51
307.8806357171795
  0
LINE
  5
C78
330
1E
100
AcDbEntity
  8
STEMPEL
100
AcDbLine
 10
398.3317684769829
 20
501.643310091758
 30
0.0
 11
409.1139288666242
 21
501.6433100917579
 31
0.0
  0
LINE
  5
C79
330
1E
100
AcDbEntity
  8
STEMPEL
100
AcDbLine
 10
396.5340407169923
 20
507.5573849026915
 30
0.0
 11
396.5340407169923
 21
502.2292352808244
 31
0.0
  0
LINE
  5
C7A
330
1E
100
AcDbEntity
  8
STEMPEL
100
AcDbLine
 10
396.5340407169923
 20
502.2292352808245
 30
0.0
 11
396.9332396135891
 21
501.9987576904142
 31
0.0
  0
LINE
  5
C7B
330
1E
100
AcDbEntity
  8
STEMPEL
100
AcDbLine
 10
396.5340407169923
 20
507.5573849026914
 30
0.0
 11
396.9332396135891
 21
507.7878624931017
 31
0.0
  0
LINE
  5
C7C
330
1E
100
AcDbEntity
  8
STEMPEL
100
AcDbLine
 10
398.0728486718036
 20
508.1318821931353
 30
0.0
 11
398.0728486718036
 21
510.5933100917579
 31
0.0
  0
ARC
  5
C7D
330
1E
100
AcDbEntity
  8
STEMPEL
100
AcDbCircle
 10
403.7228486718036
 20
510.593310091758
 30
0.0
 40
5.650000000000019
100
AcDbArc
 50
0.0
 51
180.0
  0
LINE
  5
CA1
330
1E
100
AcDbEntity
  8
MITTEL
100
AcDbLine
 10
507.7228486718033
 20
489.0433100917577
 30
0.0
 11
507.7228486718036
 21
521.2433100917579
 31
0.0
  0
LINE
  5
CA2
330
1E
100
AcDbEntity
  8
HILF
100
AcDbLine
 10
510.7228486718033
 20
489.0433100917577
 30
0.0
 11
510.7228486718034
 21
492.6433100917578
 31
0.0
  0
LINE
  5
CA3
330
1E
100
AcDbEntity
  8
HILF
100
AcDbLine
 10
504.7228486718033
 20
489.0433100917577
 30
0.0
 11
504.7228486718034
 21
492.6433100917578
 31
0.0
  0
LINE
  5
CA4
330
1E
100
AcDbEntity
  8
STEMPEL
100
AcDbLine
 10
511.7228486718033
 20
489.0433100917577
 30
0.0
 11
511.7228486718034
 21
492.6433100917578
 31
0.0
  0
LINE
  5
CA5
330
1E
100
AcDbEntity
  8
STEMPEL
100
AcDbLine
 10
503.7228486718033
 20
489.0433100917577
 30
0.0
 11
503.7228486718034
 21
492.6433100917578
 31
0.0
  0
LINE
  5
CA6
330
1E
100
AcDbEntity
  8
STEMPEL
100
AcDbLine
 10
515.7825636715129
 20
492.6433100917578
 30
0.0
 11
517.7228486718036
 21
493.1283813418305
 31
0.0
  0
LINE
  5
CA7
330
1E
100
AcDbEntity
  8
STEMPEL
100
AcDbLine
 10
516.1622147655446
 20
499.3709169668668
 30
0.0
 11
517.7228486718036
 21
493.1283813418305
 31
0.0
  0
ARC
  5
CAB
330
1E
100
AcDbEntity
  8
STEMPEL
100
AcDbCircle
 10
513.2517872651085
 20
498.6433100917579
 30
0.0
 40
3.0
100
AcDbArc
 50
14.03624346792646
 51
89.99999999999998
  0
LINE
  5
CAE
330
1E
100
AcDbEntity
  8
STEMPEL
100
AcDbLine
 10
398.1939100784988
 20
501.6433100917579
 30
0.0
 11
513.2517872651086
 21
501.6433100917579
 31
0.0
  0
LINE
  5
CB1
330
1E
100
AcDbEntity
  8
STEMPEL
100
AcDbLine
 10
395.6631336720946
 20
492.6433100917578
 30
0.0
 11
515.7825636715129
 21
492.6433100917578
 31
0.0
  0
ARC
  5
CB5
330
1E
100
AcDbEntity
  8
STEMPEL
100
AcDbCircle
 10
507.7228486717989
 20
510.5933100917578
 30
0.0
 40
5.650000000000019
100
AcDbArc
 50
0.0
 51
180.0
  0
LINE
  5
CB6
330
1E
100
AcDbEntity
  8
STEMPEL
100
AcDbLine
 10
513.3728486717989
 20
508.1318821931361
 30
0.0
 11
513.3728486717989
 21
510.5933100917579
 31
0.0
  0
LINE
  5
CB7
330
1E
100
AcDbEntity
  8
STEMPEL
100
AcDbLine
 10
502.0728486717988
 20
508.1318821931352
 30
0.0
 11
502.0728486717988
 21
510.5933100917579
 31
0.0
  0
LINE
  5
CB8
330
1E
100
AcDbEntity
  8
STEMPEL
100
AcDbLine
 10
514.9116566266196
 20
507.5573849026913
 30
0.0
 11
514.5124577300228
 21
507.7878624931017
 31
0.0
  0
LINE
  5
CB9
330
1E
100
AcDbEntity
  8
STEMPEL
100
AcDbLine
 10
513.1092993965625
 20
508.1433100917579
 30
0.0
 11
513.1139288666092
 21
508.1433100917579
 31
0.0
  0
LINE
  5
CBA
330
1E
100
AcDbEntity
  8
STEMPEL
100
AcDbLine
 10
514.9116566266196
 20
502.2292352808244
 30
0.0
 11
514.5124577300228
 21
501.9987576904141
 31
0.0
  0
LINE
  5
CBB
330
1E
100
AcDbEntity
  8
STEMPEL
100
AcDbLine
 10
513.1092993965625
 20
501.6433100917579
 30
0.0
 11
513.1139288666092
 21
501.6433100917579
 31
0.0
  0
LINE
  5
CBC
330
1E
100
AcDbEntity
  8
STEMPEL
100
AcDbLine
 10
514.9116566266196
 20
507.5573849026914
 30
0.0
 11
514.9116566266196
 21
502.2292352808245
 31
0.0
  0
LINE
  5
CBD
330
1E
100
AcDbEntity
  8
STEMPEL
100
AcDbLine
 10
511.3172526492116
 20
507.5265771264879
 30
0.0
 11
511.3172526492116
 21
502.2600430570278
 31
0.0
  0
LINE
  5
CBE
330
1E
100
AcDbEntity
  8
STEMPEL
100
AcDbLine
 10
504.1284446943956
 20
507.5265771264879
 30
0.0
 11
504.1284446943956
 21
502.2600430570278
 31
0.0
  0
ARC
  5
CBF
330
1E
100
AcDbEntity
  8
STEMPEL
100
AcDbCircle
 10
507.7228486718035
 20
512.4260152917577
 30
0.0
 40
10.7827052
100
AcDbArc
 50
250.5278273813862
 51
289.4721726186137
  0
ARC
  5
CC0
330
1E
100
AcDbEntity
  8
STEMPEL
100
AcDbCircle
 10
507.7228486718035
 20
497.360604891758
 30
0.0
 40
10.7827052
100
AcDbArc
 50
70.52782738138624
 51
109.4721726186137
  0
ARC
  5
CC1
330
1E
100
AcDbEntity
  8
STEMPEL
100
AcDbCircle
 10
513.1144546379155
 20
504.5702610296213
 30
0.0
 40
2.926950985085932
100
AcDbArc
 50
232.1193642828205
 51
301.4691945240804
  0
ARC
  5
CC2
330
1E
100
AcDbEntity
  8
STEMPEL
100
AcDbCircle
 10
513.1144546379155
 20
505.2163591538944
 30
0.0
 40
2.926950985085932
100
AcDbArc
 50
58.53080547591954
 51
127.8806357171795
  0
LINE
  5
CC3
330
1E
100
AcDbEntity
  8
STEMPEL
100
AcDbLine
 10
500.5340407169875
 20
507.5573849026913
 30
0.0
 11
500.9332396135842
 21
507.7878624931017
 31
0.0
  0
LINE
  5
CC4
330
1E
100
AcDbEntity
  8
STEMPEL
100
AcDbLine
 10
500.5340407169875
 20
502.2292352808244
 30
0.0
 11
500.9332396135842
 21
501.9987576904141
 31
0.0
  0
LINE
  5
CC5
330
1E
100
AcDbEntity
  8
STEMPEL
100
AcDbLine
 10
500.5340407169875
 20
507.5573849026914
 30
0.0
 11
500.5340407169875
 21
502.2292352808244
 31
0.0
  0
LINE
  5
CC6
330
1E
100
AcDbEntity
  8
STEMPEL
100
AcDbLine
 10
502.3317684769782
 20
501.6433100917579
 30
0.0
 11
513.1139288666196
 21
501.6433100917579
 31
0.0
  0
ARC
  5
CC7
330
1E
100
AcDbEntity
  8
STEMPEL
100
AcDbCircle
 10
502.3312427056914
 20
504.5702610296213
 30
0.0
 40
2.926950985085932
100
AcDbArc
 50
238.5308054759196
 51
307.8806357171795
  0
LINE
  5
CC8
330
1E
100
AcDbEntity
  8
STEMPEL
100
AcDbLine
 10
502.3317684769782
 20
508.1433100917578
 30
0.0
 11
513.1139288666196
 21
508.1433100917579
 31
0.0
  0
ARC
  5
CC9
330
1E
100
AcDbEntity
  8
STEMPEL
100
AcDbCircle
 10
502.3312427056914
 20
505.2163591538944
 30
0.0
 40
2.926950985085932
100
AcDbArc
 50
52.11936428282045
 51
121.4691945240804
  0
ARC
  5
CD0
330
1E
100
AcDbEntity
  8
STEMPEL
100
AcDbCircle
 10
502.7228486718035
 20
493.0433100917577
 30
0.0
 40
4.0
100
AcDbArc
 50
185.7391704772647
 51
270.0
  0
ARC
  5
CD1
330
1E
100
AcDbEntity
  8
STEMPEL
100
AcDbCircle
 10
408.7228486718034
 20
493.0433100917579
 30
0.0
 40
4.0
100
AcDbArc
 50
270.0
 51
354.2608295227319
  0
LINE
  5
CD8
330
1E
100
AcDbEntity
  8
MITTEL
100
AcDbLine
 10
455.4330459171558
 20
437.6061175279288
 30
0.0
 11
455.4330459171559
 21
506.0061175279291
 31
0.0
  0
TEXT
  5
CD9
330
1E
100
AcDbEntity
  8
TEXT
100
AcDbText
 10
654.3410940884992
 20
52.10021383107525
 30
0.0
 40
5.0
  1
EDV-Art.Nr. 4.5510.100C
 41
0.8
  7
GREEKS
100
AcDbText
  0
LINE
  5
DCE
330
1E
100
AcDbEntity
  8
STEMPEL
100
AcDbLine
 10
589.2161122960819
 20
183.5829218026866
 30
0.0
 11
291.8878936484166
 21
183.5829218026866
 31
0.0
  0
LINE
  5
DCF
330
1E
100
AcDbEntity
  8
STEMPEL
100
AcDbLine
 10
588.6649311937198
 20
286.5829218026866
 30
0.0
 11
291.3367125460545
 21
286.5829218026866
 31
0.0
  0
POLYLINE
  5
DD0
330
1E
100
AcDbEntity
  8
HILF
100
AcDb2dPolyline
 66
     1
 10
0.0
 20
0.0
 30
0.0
 70
     4
 75
     6
  0
VERTEX
  5
DD1
330
DD0
100
AcDbEntity
  8
HILF
100
AcDbVertex
100
AcDb2dVertex
 10
594.2161122960819
 20
183.5829218026866
 30
0.0
 70
    16
  0
VERTEX
  5
DD2
330
DD0
100
AcDbEntity
  8
HILF
100
AcDbVertex
100
AcDb2dVertex
 10
594.2161122960819
 20
183.5829218026866
 30
0.0
 70
     8
  0
VERTEX
  5
DD3
330
DD0
100
AcDbEntity
  8
HILF
100
AcDbVertex
100
AcDb2dVertex
 10
593.9086745295137
 20
184.3803501881032
 30
0.0
 70
     8
  0
VERTEX
  5
DD4
330
DD0
100
AcDbEntity
  8
HILF
100
AcDbVertex
100
AcDb2dVertex
 10
593.2625156753471
 20
186.1373488860199
 30
0.0
 70
     8
  0
VERTEX
  5
DD5
330
DD0
100
AcDbEntity
  8
HILF
100
AcDbVertex
100
AcDb2dVertex
 10
592.3818280318104
 20
188.6884882089366
 30
0.0
 70
     8
  0
VERTEX
  5
DD6
330
DD0
100
AcDbEntity
  8
HILF
100
AcDbVertex
100
AcDb2dVertex
 10
591.3708038971318
 20
191.8683384693532
 30
0.0
 70
     8
  0
VERTEX
  5
DD7
330
DD0
100
AcDbEntity
  8
HILF
100
AcDbVertex
100
AcDb2dVertex
 10
590.3336355695399
 20
195.5114699797699
 30
0.0
 70
     8
  0
VERTEX
  5
DD8
330
DD0
100
AcDbEntity
  8
HILF
100
AcDbVertex
100
AcDb2dVertex
 10
589.3745153472631
 20
199.4524530526866
 30
0.0
 70
     8
  0
VERTEX
  5
DD9
330
DD0
100
AcDbEntity
  8
HILF
100
AcDbVertex
100
AcDb2dVertex
 10
588.5976355285296
 20
203.5258580006033
 30
0.0
 70
     8
  0
VERTEX
  5
DDA
330
DD0
100
AcDbEntity
  8
HILF
100
AcDbVertex
100
AcDb2dVertex
 10
588.1071884115676
 20
207.5662551360199
 30
0.0
 70
     8
  0
VERTEX
  5
DDB
330
DD0
100
AcDbEntity
  8
HILF
100
AcDbVertex
100
AcDb2dVertex
 10
587.9818628907343
 20
211.4399205006032
 30
0.0
 70
     8
  0
VERTEX
  5
DDC
330
DD0
100
AcDbEntity
  8
HILF
100
AcDbVertex
100
AcDb2dVertex
 10
588.1983342449009
 20
215.1399530526866
 30
0.0
 70
     8
  0
VERTEX
  5
DDD
330
DD0
100
AcDbEntity
  8
HILF
100
AcDbVertex
100
AcDb2dVertex
 10
588.7077743490675
 20
218.6911574797699
 30
0.0
 70
     8
  0
VERTEX
  5
DDE
330
DD0
100
AcDbEntity
  8
HILF
100
AcDbVertex
100
AcDb2dVertex
 10
589.4613550782342
 20
222.1183384693532
 30
0.0
 70
     8
  0
VERTEX
  5
DDF
330
DD0
100
AcDbEntity
  8
HILF
100
AcDbVertex
100
AcDb2dVertex
 10
590.4102483074009
 20
225.4463007089365
 30
0.0
 70
     8
  0
VERTEX
  5
DE0
330
DD0
100
AcDbEntity
  8
HILF
100
AcDbVertex
100
AcDb2dVertex
 10
591.5056259115675
 20
228.6998488860198
 30
0.0
 70
     8
  0
VERTEX
  5
DE1
330
DD0
100
AcDbEntity
  8
HILF
100
AcDbVertex
100
AcDb2dVertex
 10
592.6986597657343
 20
231.9037876881032
 30
0.0
 70
     8
  0
VERTEX
  5
DE2
330
DD0
100
AcDbEntity
  8
HILF
100
AcDbVertex
100
AcDb2dVertex
 10
593.940521744901
 20
235.0829218026865
 30
0.0
 70
     8
  0
VERTEX
  5
DE3
330
DD0
100
AcDbEntity
  8
HILF
100
AcDbVertex
100
AcDb2dVertex
 10
595.1823837240676
 20
238.2620559172699
 30
0.0
 70
     8
  0
VERTEX
  5
DE4
330
DD0
100
AcDbEntity
  8
HILF
100
AcDbVertex
100
AcDb2dVertex
 10
596.3754175782343
 20
241.4659947193532
 30
0.0
 70
     8
  0
VERTEX
  5
DE5
330
DD0
100
AcDbEntity
  8
HILF
100
AcDbVertex
100
AcDb2dVertex
 10
597.470795182401
 20
244.7195428964366
 30
0.0
 70
     8
  0
VERTEX
  5
DE6
330
DD0
100
AcDbEntity
  8
HILF
100
AcDbVertex
100
AcDb2dVertex
 10
598.4196884115676
 20
248.0475051360199
 30
0.0
 70
     8
  0
VERTEX
  5
DE7
330
DD0
100
AcDbEntity
  8
HILF
100
AcDbVertex
100
AcDb2dVertex
 10
599.1732691407342
 20
251.4746861256032
 30
0.0
 70
     8
  0
VERTEX
  5
DE8
330
DD0
100
AcDbEntity
  8
HILF
100
AcDbVertex
100
AcDb2dVertex
 10
599.682709244901
 20
255.0258905526865
 30
0.0
 70
     8
  0
VERTEX
  5
DE9
330
DD0
100
AcDbEntity
  8
HILF
100
AcDbVertex
100
AcDb2dVertex
 10
599.8991805990677
 20
258.7259231047699
 30
0.0
 70
     8
  0
VERTEX
  5
DEA
330
DD0
100
AcDbEntity
  8
HILF
100
AcDbVertex
100
AcDb2dVertex
 10
599.7738550782343
 20
262.5995884693532
 30
0.0
 70
     8
  0
VERTEX
  5
DEB
330
DD0
100
AcDbEntity
  8
HILF
100
AcDbVertex
100
AcDb2dVertex
 10
599.2834079612724
 20
266.6399856047698
 30
0.0
 70
     8
  0
VERTEX
  5
DEC
330
DD0
100
AcDbEntity
  8
HILF
100
AcDbVertex
100
AcDb2dVertex
 10
598.5065281425387
 20
270.7133905526865
 30
0.0
 70
     8
  0
VERTEX
  5
DED
330
DD0
100
AcDbEntity
  8
HILF
100
AcDbVertex
100
AcDb2dVertex
 10
597.5474079202618
 20
274.6543736256032
 30
0.0
 70
     8
  0
VERTEX
  5
DEE
330
DD0
100
AcDbEntity
  8
HILF
100
AcDbVertex
100
AcDb2dVertex
 10
596.51023959267
 20
278.2975051360199
 30
0.0
 70
     8
  0
VERTEX
  5
DEF
330
DD0
100
AcDbEntity
  8
HILF
100
AcDbVertex
100
AcDb2dVertex
 10
595.4992154579915
 20
281.4773553964366
 30
0.0
 70
     8
  0
VERTEX
  5
DF0
330
DD0
100
AcDbEntity
  8
HILF
100
AcDbVertex
100
AcDb2dVertex
 10
594.6185278144549
 20
284.0284947193532
 30
0.0
 70
     8
  0
VERTEX
  5
DF1
330
DD0
100
AcDbEntity
  8
HILF
100
AcDbVertex
100
AcDb2dVertex
 10
593.9723689602882
 20
285.7854934172699
 30
0.0
 70
     8
  0
VERTEX
  5
DF2
330
DD0
100
AcDbEntity
  8
HILF
100
AcDbVertex
100
AcDb2dVertex
 10
593.6649311937198
 20
286.5829218026867
 30
0.0
 70
     8
  0
VERTEX
  5
DF3
330
DD0
100
AcDbEntity
  8
HILF
100
AcDbVertex
100
AcDb2dVertex
 10
593.9405217449009
 20
184.2829218026865
 30
0.0
 70
    16
  0
VERTEX
  5
DF4
330
DD0
100
AcDbEntity
  8
HILF
100
AcDbVertex
100
AcDb2dVertex
 10
583.9405217449009
 20
209.6829218026866
 30
0.0
 70
    16
  0
VERTEX
  5
DF5
330
DD0
100
AcDbEntity
  8
HILF
100
AcDbVertex
100
AcDb2dVertex
 10
593.940521744901
 20
235.0829218026865
 30
0.0
 70
    16
  0
VERTEX
  5
DF6
330
DD0
100
AcDbEntity
  8
HILF
100
AcDbVertex
100
AcDb2dVertex
 10
603.940521744901
 20
260.4829218026866
 30
0.0
 70
    16
  0
VERTEX
  5
DF7
330
DD0
100
AcDbEntity
  8
HILF
100
AcDbVertex
100
AcDb2dVertex
 10
593.940521744901
 20
285.8829218026865
 30
0.0
 70
    16
  0
VERTEX
  5
DF8
330
DD0
100
AcDbEntity
  8
HILF
100
AcDbVertex
100
AcDb2dVertex
 10
593.6649311937198
 20
286.5829218026867
 30
0.0
 70
    16
  0
SEQEND
  5
DF9
330
DD0
100
AcDbEntity
  8
HILF
  0
POLYLINE
  5
DFA
330
1E
100
AcDbEntity
  8
HILF
100
AcDb2dPolyline
 66
     1
 10
0.0
 20
0.0
 30
0.0
 70
     4
 75
     6
  0
VERTEX
  5
DFB
330
DFA
100
AcDbEntity
  8
HILF
100
AcDbVertex
100
AcDb2dVertex
 10
589.2161122960819
 20
183.5829218026866
 30
0.0
 70
    16
  0
VERTEX
  5
DFC
330
DFA
100
AcDbEntity
  8
HILF
100
AcDbVertex
100
AcDb2dVertex
 10
589.2161122960819
 20
183.5829218026866
 30
0.0
 70
     8
  0
VERTEX
  5
DFD
330
DFA
100
AcDbEntity
  8
HILF
100
AcDbVertex
100
AcDb2dVertex
 10
588.9086745295137
 20
184.3803501881032
 30
0.0
 70
     8
  0
VERTEX
  5
DFE
330
DFA
100
AcDbEntity
  8
HILF
100
AcDbVertex
100
AcDb2dVertex
 10
588.2625156753471
 20
186.1373488860199
 30
0.0
 70
     8
  0
VERTEX
  5
DFF
330
DFA
100
AcDbEntity
  8
HILF
100
AcDbVertex
100
AcDb2dVertex
 10
587.3818280318103
 20
188.6884882089366
 30
0.0
 70
     8
  0
VERTEX
  5
E00
330
DFA
100
AcDbEntity
  8
HILF
100
AcDbVertex
100
AcDb2dVertex
 10
586.3708038971318
 20
191.8683384693532
 30
0.0
 70
     8
  0
VERTEX
  5
E01
330
DFA
100
AcDbEntity
  8
HILF
100
AcDbVertex
100
AcDb2dVertex
 10
585.3336355695399
 20
195.5114699797699
 30
0.0
 70
     8
  0
VERTEX
  5
E02
330
DFA
100
AcDbEntity
  8
HILF
100
AcDbVertex
100
AcDb2dVertex
 10
584.3745153472631
 20
199.4524530526866
 30
0.0
 70
     8
  0
VERTEX
  5
E03
330
DFA
100
AcDbEntity
  8
HILF
100
AcDbVertex
100
AcDb2dVertex
 10
583.5976355285295
 20
203.5258580006033
 30
0.0
 70
     8
  0
VERTEX
  5
E04
330
DFA
100
AcDbEntity
  8
HILF
100
AcDbVertex
100
AcDb2dVertex
 10
583.1071884115675
 20
207.5662551360199
 30
0.0
 70
     8
  0
VERTEX
  5
E05
330
DFA
100
AcDbEntity
  8
HILF
100
AcDbVertex
100
AcDb2dVertex
 10
582.9818628907343
 20
211.4399205006032
 30
0.0
 70
     8
  0
VERTEX
  5
E06
330
DFA
100
AcDbEntity
  8
HILF
100
AcDbVertex
100
AcDb2dVertex
 10
583.1983342449009
 20
215.1399530526866
 30
0.0
 70
     8
  0
VERTEX
  5
E07
330
DFA
100
AcDbEntity
  8
HILF
100
AcDbVertex
100
AcDb2dVertex
 10
583.7077743490675
 20
218.6911574797699
 30
0.0
 70
     8
  0
VERTEX
  5
E08
330
DFA
100
AcDbEntity
  8
HILF
100
AcDbVertex
100
AcDb2dVertex
 10
584.4613550782343
 20
222.1183384693532
 30
0.0
 70
     8
  0
VERTEX
  5
E09
330
DFA
100
AcDbEntity
  8
HILF
100
AcDbVertex
100
AcDb2dVertex
 10
585.4102483074009
 20
225.4463007089365
 30
0.0
 70
     8
  0
VERTEX
  5
E0A
330
DFA
100
AcDbEntity
  8
HILF
100
AcDbVertex
100
AcDb2dVertex
 10
586.5056259115675
 20
228.6998488860198
 30
0.0
 70
     8
  0
VERTEX
  5
E0B
330
DFA
100
AcDbEntity
  8
HILF
100
AcDbVertex
100
AcDb2dVertex
 10
587.6986597657342
 20
231.9037876881032
 30
0.0
 70
     8
  0
VERTEX
  5
E0C
330
DFA
100
AcDbEntity
  8
HILF
100
AcDbVertex
100
AcDb2dVertex
 10
588.940521744901
 20
235.0829218026865
 30
0.0
 70
     8
  0
VERTEX
  5
E0D
330
DFA
100
AcDbEntity
  8
HILF
100
AcDbVertex
100
AcDb2dVertex
 10
590.1823837240677
 20
238.2620559172699
 30
0.0
 70
     8
  0
VERTEX
  5
E0E
330
DFA
100
AcDbEntity
  8
HILF
100
AcDbVertex
100
AcDb2dVertex
 10
591.3754175782343
 20
241.4659947193532
 30
0.0
 70
     8
  0
VERTEX
  5
E0F
330
DFA
100
AcDbEntity
  8
HILF
100
AcDbVertex
100
AcDb2dVertex
 10
592.470795182401
 20
244.7195428964366
 30
0.0
 70
     8
  0
VERTEX
  5
E10
330
DFA
100
AcDbEntity
  8
HILF
100
AcDbVertex
100
AcDb2dVertex
 10
593.4196884115676
 20
248.0475051360199
 30
0.0
 70
     8
  0
VERTEX
  5
E11
330
DFA
100
AcDbEntity
  8
HILF
100
AcDbVertex
100
AcDb2dVertex
 10
594.1732691407342
 20
251.4746861256032
 30
0.0
 70
     8
  0
VERTEX
  5
E12
330
DFA
100
AcDbEntity
  8
HILF
100
AcDbVertex
100
AcDb2dVertex
 10
594.682709244901
 20
255.0258905526865
 30
0.0
 70
     8
  0
VERTEX
  5
E13
330
DFA
100
AcDbEntity
  8
HILF
100
AcDbVertex
100
AcDb2dVertex
 10
594.8991805990677
 20
258.7259231047699
 30
0.0
 70
     8
  0
VERTEX
  5
E14
330
DFA
100
AcDbEntity
  8
HILF
100
AcDbVertex
100
AcDb2dVertex
 10
594.7738550782343
 20
262.5995884693532
 30
0.0
 70
     8
  0
VERTEX
  5
E15
330
DFA
100
AcDbEntity
  8
HILF
100
AcDbVertex
100
AcDb2dVertex
 10
594.2834079612724
 20
266.6399856047698
 30
0.0
 70
     8
  0
VERTEX
  5
E16
330
DFA
100
AcDbEntity
  8
HILF
100
AcDbVertex
100
AcDb2dVertex
 10
593.5065281425387
 20
270.7133905526865
 30
0.0
 70
     8
  0
VERTEX
  5
E17
330
DFA
100
AcDbEntity
  8
HILF
100
AcDbVertex
100
AcDb2dVertex
 10
592.5474079202619
 20
274.6543736256032
 30
0.0
 70
     8
  0
VERTEX
  5
E18
330
DFA
100
AcDbEntity
  8
HILF
100
AcDbVertex
100
AcDb2dVertex
 10
591.51023959267
 20
278.2975051360199
 30
0.0
 70
     8
  0
VERTEX
  5
E19
330
DFA
100
AcDbEntity
  8
HILF
100
AcDbVertex
100
AcDb2dVertex
 10
590.4992154579915
 20
281.4773553964366
 30
0.0
 70
     8
  0
VERTEX
  5
E1A
330
DFA
100
AcDbEntity
  8
HILF
100
AcDbVertex
100
AcDb2dVertex
 10
589.6185278144547
 20
284.0284947193532
 30
0.0
 70
     8
  0
VERTEX
  5
E1B
330
DFA
100
AcDbEntity
  8
HILF
100
AcDbVertex
100
AcDb2dVertex
 10
588.972368960288
 20
285.7854934172699
 30
0.0
 70
     8
  0
VERTEX
  5
E1C
330
DFA
100
AcDbEntity
  8
HILF
100
AcDbVertex
100
AcDb2dVertex
 10
588.6649311937198
 20
286.5829218026867
 30
0.0
 70
     8
  0
VERTEX
  5
E1D
330
DFA
100
AcDbEntity
  8
HILF
100
AcDbVertex
100
AcDb2dVertex
 10
588.9405217449009
 20
184.2829218026865
 30
0.0
 70
    16
  0
VERTEX
  5
E1E
330
DFA
100
AcDbEntity
  8
HILF
100
AcDbVertex
100
AcDb2dVertex
 10
578.9405217449009
 20
209.6829218026866
 30
0.0
 70
    16
  0
VERTEX
  5
E1F
330
DFA
100
AcDbEntity
  8
HILF
100
AcDbVertex
100
AcDb2dVertex
 10
588.940521744901
 20
235.0829218026865
 30
0.0
 70
    16
  0
VERTEX
  5
E20
330
DFA
100
AcDbEntity
  8
HILF
100
AcDbVertex
100
AcDb2dVertex
 10
598.940521744901
 20
260.4829218026866
 30
0.0
 70
    16
  0
VERTEX
  5
E21
330
DFA
100
AcDbEntity
  8
HILF
100
AcDbVertex
100
AcDb2dVertex
 10
588.940521744901
 20
285.8829218026865
 30
0.0
 70
    16
  0
VERTEX
  5
E22
330
DFA
100
AcDbEntity
  8
HILF
100
AcDbVertex
100
AcDb2dVertex
 10
588.6649311937198
 20
286.5829218026867
 30
0.0
 70
    16
  0
SEQEND
  5
E23
330
DFA
100
AcDbEntity
  8
HILF
  0
DIMENSION
  5
E24
330
1E
100
AcDbEntity
  8
BEM
100
AcDbDimension
  2
*D2
 10
636.0297133559335
 20
158.2154187784959
 30
0.0
 11
711.0297133559336
 21
164.7154187784959
 31
0.0
 70
    32
 71
     5
 42
150.0000000000002
  3
Standard
100
AcDbAlignedDimension
 13
786.0297133559337
 23
179.6278549242427
 33
0.0
 14
636.0297133559335
 24
181.8799370604734
 34
0.0
100
AcDbRotatedDimension
1001
ACAD
1000
DSTYLE
1002
{
1070
    40
1040
2.0
1070
    41
1040
3.5
1070
    42
1040
1.0
1070
    43
1040
7.0
1070
    44
1040
1.0
1070
    73
1070
     0
1070
    74
1070
     0
1070
    77
1070
     1
1070
    78
1070
     8
1070
    79
1070
     2
1070
   140
1040
3.5
1070
   141
1040
1.5
1070
   146
1040
0.5142857142857144
1070
   147
1040
1.5
1070
   172
1070
     1
1070
   178
1070
     1
1070
   179
1070
     2
1070
   271
1070
     2
1070
   272
1070
     2
1070
   284
1070
     8
1070
   285
1070
     8
1070
   286
1070
     8
1002
}
  0
LINE
  5
E25
330
1E
100
AcDbEntity
  8
STEMPEL
100
AcDbLine
 10
786.0297133559337
 20
179.6278549242427
 30
0.0
 11
783.7791093060096
 21
178.5783810202886
 31
0.0
  0
LINE
  5
E26
330
1E
100
AcDbEntity
  8
STEMPEL
100
AcDbLine
 10
773.4249618933626
 20
176.2829218026866
 30
0.0
 11
755.2627133559337
 21
176.2829218026866
 31
0.0
  0
ARC
  5
E27
330
1E
100
AcDbEntity
  8
STEMPEL
100
AcDbCircle
 10
738.5297133559337
 20
168.2829218026866
 30
0.0
 40
12.0
100
AcDbArc
 50
63.11222934098162
 51
90.0
  0
ARC
  5
E28
330
1E
100
AcDbEntity
  8
STEMPEL
100
AcDbCircle
 10
755.2627133559337
 20
201.2829218026866
 30
0.0
 40
24.99990931069965
100
AcDbArc
 50
243.1122293409817
 51
270.0
  0
ARC
  5
E29
330
1E
100
AcDbEntity
  8
STEMPEL
100
AcDbCircle
 10
773.4249618933626
 20
200.7829218026866
 30
0.0
 40
24.5
100
AcDbArc
 50
270.0
 51
294.9999999999994
  0
ARC
  5
E2A
330
1E
100
AcDbEntity
  8
STEMPEL
100
AcDbCircle
 10
630.8941448536635
 20
175.5829218026866
 30
0.0
 40
8.0
100
AcDbArc
 50
58.92825877185734
 51
90.0
  0
LINE
  5
E2B
330
1E
100
AcDbEntity
  8
STEMPEL
100
AcDbLine
 10
630.8941448536635
 20
183.5829218026866
 30
0.0
 11
594.2161122960818
 21
183.5829218026866
 31
0.0
  0
ARC
  5
E2C
330
1E
100
AcDbEntity
  8
STEMPEL
100
AcDbCircle
 10
642.7646966521266
 20
195.2829218026866
 30
0.0
 40
15.0
100
AcDbArc
 50
238.9282587718573
 51
270.0
  0
LINE
  5
E2D
330
1E
100
AcDbEntity
  8
STEMPEL
100
AcDbLine
 10
738.5297133559337
 20
180.2829218026866
 30
0.0
 11
642.7646966521266
 21
180.2829218026866
 31
0.0
  0
ARC
  5
E2E
330
1E
100
AcDbEntity
  8
STEMPEL
100
AcDbCircle
 10
773.4249618933626
 20
269.3829218026865
 30
0.0
 40
24.5
100
AcDbArc
 50
65.00000000000065
 51
90.0
  0
LINE
  5
E2F
330
1E
100
AcDbEntity
  8
STEMPEL
100
AcDbLine
 10
786.0297133559337
 20
290.5379886811303
 30
0.0
 11
783.7791093060096
 21
291.5874625850845
 31
0.0
  0
ARC
  5
E30
330
1E
100
AcDbEntity
  8
STEMPEL
100
AcDbCircle
 10
738.5297133559337
 20
301.8829218026866
 30
0.0
 40
12.0
100
AcDbArc
 50
270.0
 51
296.8877706590184
  0
LINE
  5
E31
330
1E
100
AcDbEntity
  8
STEMPEL
100
AcDbLine
 10
773.4249618933626
 20
293.8829218026866
 30
0.0
 11
755.2627133559337
 21
293.8829218026866
 31
0.0
  0
ARC
  5
E32
330
1E
100
AcDbEntity
  8
STEMPEL
100
AcDbCircle
 10
630.8941448536635
 20
294.5829218026866
 30
0.0
 40
8.0
100
AcDbArc
 50
270.0
 51
301.0717412281426
  0
LINE
  5
E33
330
1E
100
AcDbEntity
  8
STEMPEL
100
AcDbLine
 10
738.5297133559337
 20
289.8829218026865
 30
0.0
 11
642.7646966521268
 21
289.8829218026865
 31
0.0
  0
LINE
  5
E34
330
1E
100
AcDbEntity
  8
STEMPEL
100
AcDbLine
 10
630.8941448536635
 20
286.5829218026866
 30
0.0
 11
593.6649311937198
 21
286.5829218026866
 31
0.0
  0
ARC
  5
E35
330
1E
100
AcDbEntity
  8
STEMPEL
100
AcDbCircle
 10
755.2627133559337
 20
268.8829218026866
 30
0.0
 40
24.99990931069965
100
AcDbArc
 50
90.0
 51
116.8877706590183
  0
ARC
  5
E36
330
1E
100
AcDbEntity
  8
STEMPEL
100
AcDbCircle
 10
642.7646966521266
 20
274.8829218026866
 30
0.0
 40
15.0
100
AcDbArc
 50
90.0
 51
121.0717412281426
  0
LINE
  5
E37
330
1E
100
AcDbEntity
  8
HILF
100
AcDbLine
 10
741.3196284774848
 20
288.6743498278461
 30
0.0
 11
741.3196284774848
 21
181.4914937775268
 31
0.0
  0
LINE
  5
E38
330
1E
100
AcDbEntity
  8
HILF
100
AcDbLine
 10
638.7470724352759
 20
182.3946055568702
 30
0.0
 11
638.7470724352759
 21
287.771238048503
 31
0.0
  0
LINE
  5
E39
330
1E
100
AcDbEntity
  8
HILF
100
AcDbLine
 10
633.0368777693173
 20
285.3277234983728
 30
0.0
 11
633.0368777693173
 21
184.8381201070004
 31
0.0
  0
LINE
  5
E3A
330
1E
100
AcDbEntity
  8
STEMPEL
  6
Continuous
100
AcDbLine
 10
786.0297133559337
 20
290.5379886811303
 30
0.0
 11
786.0297133559337
 21
179.6278549242427
 31
0.0
  0
TEXT
  5
E3B
330
1E
100
AcDbEntity
  8
TEXT
 62
     1
100
AcDbText
 10
689.321735697592
 20
238.609068175279
 30
0.0
 40
7.0
  1
DN100
 41
0.8
  7
GREEKS
100
AcDbText
  0
LINE
  5
E3C
330
1E
100
AcDbEntity
  8
STEMPEL
100
AcDbLine
 10
286.3367125460546
 20
286.5829218026866
 30
0.0
 11
96.68093905819251
 21
286.5829218026866
 31
0.0
  0
LINE
  5
E3D
330
1E
100
AcDbEntity
  8
STEMPEL
100
AcDbLine
 10
286.8878936484167
 20
183.5829218026866
 30
0.0
 11
96.68093905819251
 21
183.5829218026866
 31
0.0
  0
POLYLINE
  5
E3E
330
1E
100
AcDbEntity
  8
HILF
100
AcDb2dPolyline
 66
     1
 10
0.0
 20
0.0
 30
0.0
 70
     4
 75
     6
  0
VERTEX
  5
E3F
330
E3E
100
AcDbEntity
  8
HILF
100
AcDbVertex
100
AcDb2dVertex
 10
286.8878936484167
 20
183.5829218026866
 30
0.0
 70
    16
  0
VERTEX
  5
E40
330
E3E
100
AcDbEntity
  8
HILF
100
AcDbVertex
100
AcDb2dVertex
 10
286.8878936484167
 20
183.5829218026866
 30
0.0
 70
     8
  0
VERTEX
  5
E41
330
E3E
100
AcDbEntity
  8
HILF
100
AcDbVertex
100
AcDb2dVertex
 10
286.5804558818484
 20
184.3803501881032
 30
0.0
 70
     8
  0
VERTEX
  5
E42
330
E3E
100
AcDbEntity
  8
HILF
100
AcDbVertex
100
AcDb2dVertex
 10
285.9342970276818
 20
186.1373488860199
 30
0.0
 70
     8
  0
VERTEX
  5
E43
330
E3E
100
AcDbEntity
  8
HILF
100
AcDbVertex
100
AcDb2dVertex
 10
285.0536093841451
 20
188.6884882089366
 30
0.0
 70
     8
  0
VERTEX
  5
E44
330
E3E
100
AcDbEntity
  8
HILF
100
AcDbVertex
100
AcDb2dVertex
 10
284.0425852494666
 20
191.8683384693532
 30
0.0
 70
     8
  0
VERTEX
  5
E45
330
E3E
100
AcDbEntity
  8
HILF
100
AcDbVertex
100
AcDb2dVertex
 10
283.0054169218747
 20
195.5114699797699
 30
0.0
 70
     8
  0
VERTEX
  5
E46
330
E3E
100
AcDbEntity
  8
HILF
100
AcDbVertex
100
AcDb2dVertex
 10
282.0462966995979
 20
199.4524530526866
 30
0.0
 70
     8
  0
VERTEX
  5
E47
330
E3E
100
AcDbEntity
  8
HILF
100
AcDbVertex
100
AcDb2dVertex
 10
281.2694168808643
 20
203.5258580006033
 30
0.0
 70
     8
  0
VERTEX
  5
E48
330
E3E
100
AcDbEntity
  8
HILF
100
AcDbVertex
100
AcDb2dVertex
 10
280.7789697639023
 20
207.5662551360199
 30
0.0
 70
     8
  0
VERTEX
  5
E49
330
E3E
100
AcDbEntity
  8
HILF
100
AcDbVertex
100
AcDb2dVertex
 10
280.6536442430689
 20
211.4399205006032
 30
0.0
 70
     8
  0
VERTEX
  5
E4A
330
E3E
100
AcDbEntity
  8
HILF
100
AcDbVertex
100
AcDb2dVertex
 10
280.8701155972356
 20
215.1399530526866
 30
0.0
 70
     8
  0
VERTEX
  5
E4B
330
E3E
100
AcDbEntity
  8
HILF
100
AcDbVertex
100
AcDb2dVertex
 10
281.3795557014022
 20
218.6911574797699
 30
0.0
 70
     8
  0
VERTEX
  5
E4C
330
E3E
100
AcDbEntity
  8
HILF
100
AcDbVertex
100
AcDb2dVertex
 10
282.1331364305689
 20
222.1183384693532
 30
0.0
 70
     8
  0
VERTEX
  5
E4D
330
E3E
100
AcDbEntity
  8
HILF
100
AcDbVertex
100
AcDb2dVertex
 10
283.0820296597356
 20
225.4463007089365
 30
0.0
 70
     8
  0
VERTEX
  5
E4E
330
E3E
100
AcDbEntity
  8
HILF
100
AcDbVertex
100
AcDb2dVertex
 10
284.1774072639022
 20
228.6998488860198
 30
0.0
 70
     8
  0
VERTEX
  5
E4F
330
E3E
100
AcDbEntity
  8
HILF
100
AcDbVertex
100
AcDb2dVertex
 10
285.370441118069
 20
231.9037876881032
 30
0.0
 70
     8
  0
VERTEX
  5
E50
330
E3E
100
AcDbEntity
  8
HILF
100
AcDbVertex
100
AcDb2dVertex
 10
286.6123030972356
 20
235.0829218026865
 30
0.0
 70
     8
  0
VERTEX
  5
E51
330
E3E
100
AcDbEntity
  8
HILF
100
AcDbVertex
100
AcDb2dVertex
 10
287.8541650764023
 20
238.2620559172699
 30
0.0
 70
     8
  0
VERTEX
  5
E52
330
E3E
100
AcDbEntity
  8
HILF
100
AcDbVertex
100
AcDb2dVertex
 10
289.047198930569
 20
241.4659947193532
 30
0.0
 70
     8
  0
VERTEX
  5
E53
330
E3E
100
AcDbEntity
  8
HILF
100
AcDbVertex
100
AcDb2dVertex
 10
290.1425765347356
 20
244.7195428964366
 30
0.0
 70
     8
  0
VERTEX
  5
E54
330
E3E
100
AcDbEntity
  8
HILF
100
AcDbVertex
100
AcDb2dVertex
 10
291.0914697639023
 20
248.0475051360199
 30
0.0
 70
     8
  0
VERTEX
  5
E55
330
E3E
100
AcDbEntity
  8
HILF
100
AcDbVertex
100
AcDb2dVertex
 10
291.845050493069
 20
251.4746861256032
 30
0.0
 70
     8
  0
VERTEX
  5
E56
330
E3E
100
AcDbEntity
  8
HILF
100
AcDbVertex
100
AcDb2dVertex
 10
292.3544905972357
 20
255.0258905526865
 30
0.0
 70
     8
  0
VERTEX
  5
E57
330
E3E
100
AcDbEntity
  8
HILF
100
AcDbVertex
100
AcDb2dVertex
 10
292.5709619514023
 20
258.7259231047699
 30
0.0
 70
     8
  0
VERTEX
  5
E58
330
E3E
100
AcDbEntity
  8
HILF
100
AcDbVertex
100
AcDb2dVertex
 10
292.445636430569
 20
262.5995884693532
 30
0.0
 70
     8
  0
VERTEX
  5
E59
330
E3E
100
AcDbEntity
  8
HILF
100
AcDbVertex
100
AcDb2dVertex
 10
291.955189313607
 20
266.6399856047698
 30
0.0
 70
     8
  0
VERTEX
  5
E5A
330
E3E
100
AcDbEntity
  8
HILF
100
AcDbVertex
100
AcDb2dVertex
 10
291.1783094948735
 20
270.7133905526865
 30
0.0
 70
     8
  0
VERTEX
  5
E5B
330
E3E
100
AcDbEntity
  8
HILF
100
AcDbVertex
100
AcDb2dVertex
 10
290.2191892725966
 20
274.6543736256032
 30
0.0
 70
     8
  0
VERTEX
  5
E5C
330
E3E
100
AcDbEntity
  8
HILF
100
AcDbVertex
100
AcDb2dVertex
 10
289.1820209450047
 20
278.2975051360199
 30
0.0
 70
     8
  0
VERTEX
  5
E5D
330
E3E
100
AcDbEntity
  8
HILF
100
AcDbVertex
100
AcDb2dVertex
 10
288.1709968103262
 20
281.4773553964366
 30
0.0
 70
     8
  0
VERTEX
  5
E5E
330
E3E
100
AcDbEntity
  8
HILF
100
AcDbVertex
100
AcDb2dVertex
 10
287.2903091667894
 20
284.0284947193532
 30
0.0
 70
     8
  0
VERTEX
  5
E5F
330
E3E
100
AcDbEntity
  8
HILF
100
AcDbVertex
100
AcDb2dVertex
 10
286.6441503126228
 20
285.7854934172699
 30
0.0
 70
     8
  0
VERTEX
  5
E60
330
E3E
100
AcDbEntity
  8
HILF
100
AcDbVertex
100
AcDb2dVertex
 10
286.3367125460545
 20
286.5829218026867
 30
0.0
 70
     8
  0
VERTEX
  5
E61
330
E3E
100
AcDbEntity
  8
HILF
100
AcDbVertex
100
AcDb2dVertex
 10
286.6123030972356
 20
184.2829218026865
 30
0.0
 70
    16
  0
VERTEX
  5
E62
330
E3E
100
AcDbEntity
  8
HILF
100
AcDbVertex
100
AcDb2dVertex
 10
276.6123030972356
 20
209.6829218026866
 30
0.0
 70
    16
  0
VERTEX
  5
E63
330
E3E
100
AcDbEntity
  8
HILF
100
AcDbVertex
100
AcDb2dVertex
 10
286.6123030972357
 20
235.0829218026865
 30
0.0
 70
    16
  0
VERTEX
  5
E64
330
E3E
100
AcDbEntity
  8
HILF
100
AcDbVertex
100
AcDb2dVertex
 10
296.6123030972357
 20
260.4829218026866
 30
0.0
 70
    16
  0
VERTEX
  5
E65
330
E3E
100
AcDbEntity
  8
HILF
100
AcDbVertex
100
AcDb2dVertex
 10
286.6123030972357
 20
285.8829218026865
 30
0.0
 70
    16
  0
VERTEX
  5
E66
330
E3E
100
AcDbEntity
  8
HILF
100
AcDbVertex
100
AcDb2dVertex
 10
286.3367125460545
 20
286.5829218026867
 30
0.0
 70
    16
  0
SEQEND
  5
E67
330
E3E
100
AcDbEntity
  8
HILF
  0
POLYLINE
  5
E68
330
1E
100
AcDbEntity
  8
HILF
100
AcDb2dPolyline
 66
     1
 10
0.0
 20
0.0
 30
0.0
 70
     4
 75
     6
  0
VERTEX
  5
E69
330
E68
100
AcDbEntity
  8
HILF
100
AcDbVertex
100
AcDb2dVertex
 10
291.8878936484166
 20
183.5829218026866
 30
0.0
 70
    16
  0
VERTEX
  5
E6A
330
E68
100
AcDbEntity
  8
HILF
100
AcDbVertex
100
AcDb2dVertex
 10
291.8878936484166
 20
183.5829218026866
 30
0.0
 70
     8
  0
VERTEX
  5
E6B
330
E68
100
AcDbEntity
  8
HILF
100
AcDbVertex
100
AcDb2dVertex
 10
291.5804558818484
 20
184.3803501881032
 30
0.0
 70
     8
  0
VERTEX
  5
E6C
330
E68
100
AcDbEntity
  8
HILF
100
AcDbVertex
100
AcDb2dVertex
 10
290.9342970276817
 20
186.1373488860199
 30
0.0
 70
     8
  0
VERTEX
  5
E6D
330
E68
100
AcDbEntity
  8
HILF
100
AcDbVertex
100
AcDb2dVertex
 10
290.053609384145
 20
188.6884882089366
 30
0.0
 70
     8
  0
VERTEX
  5
E6E
330
E68
100
AcDbEntity
  8
HILF
100
AcDbVertex
100
AcDb2dVertex
 10
289.0425852494666
 20
191.8683384693532
 30
0.0
 70
     8
  0
VERTEX
  5
E6F
330
E68
100
AcDbEntity
  8
HILF
100
AcDbVertex
100
AcDb2dVertex
 10
288.0054169218748
 20
195.5114699797699
 30
0.0
 70
     8
  0
VERTEX
  5
E70
330
E68
100
AcDbEntity
  8
HILF
100
AcDbVertex
100
AcDb2dVertex
 10
287.0462966995979
 20
199.4524530526866
 30
0.0
 70
     8
  0
VERTEX
  5
E71
330
E68
100
AcDbEntity
  8
HILF
100
AcDbVertex
100
AcDb2dVertex
 10
286.2694168808644
 20
203.5258580006033
 30
0.0
 70
     8
  0
VERTEX
  5
E72
330
E68
100
AcDbEntity
  8
HILF
100
AcDbVertex
100
AcDb2dVertex
 10
285.7789697639022
 20
207.5662551360199
 30
0.0
 70
     8
  0
VERTEX
  5
E73
330
E68
100
AcDbEntity
  8
HILF
100
AcDbVertex
100
AcDb2dVertex
 10
285.6536442430689
 20
211.4399205006032
 30
0.0
 70
     8
  0
VERTEX
  5
E74
330
E68
100
AcDbEntity
  8
HILF
100
AcDbVertex
100
AcDb2dVertex
 10
285.8701155972355
 20
215.1399530526866
 30
0.0
 70
     8
  0
VERTEX
  5
E75
330
E68
100
AcDbEntity
  8
HILF
100
AcDbVertex
100
AcDb2dVertex
 10
286.3795557014022
 20
218.6911574797699
 30
0.0
 70
     8
  0
VERTEX
  5
E76
330
E68
100
AcDbEntity
  8
HILF
100
AcDbVertex
100
AcDb2dVertex
 10
287.1331364305689
 20
222.1183384693532
 30
0.0
 70
     8
  0
VERTEX
  5
E77
330
E68
100
AcDbEntity
  8
HILF
100
AcDbVertex
100
AcDb2dVertex
 10
288.0820296597356
 20
225.4463007089365
 30
0.0
 70
     8
  0
VERTEX
  5
E78
330
E68
100
AcDbEntity
  8
HILF
100
AcDbVertex
100
AcDb2dVertex
 10
289.1774072639023
 20
228.6998488860198
 30
0.0
 70
     8
  0
VERTEX
  5
E79
330
E68
100
AcDbEntity
  8
HILF
100
AcDbVertex
100
AcDb2dVertex
 10
290.370441118069
 20
231.9037876881032
 30
0.0
 70
     8
  0
VERTEX
  5
E7A
330
E68
100
AcDbEntity
  8
HILF
100
AcDbVertex
100
AcDb2dVertex
 10
291.6123030972356
 20
235.0829218026865
 30
0.0
 70
     8
  0
VERTEX
  5
E7B
330
E68
100
AcDbEntity
  8
HILF
100
AcDbVertex
100
AcDb2dVertex
 10
292.8541650764023
 20
238.2620559172699
 30
0.0
 70
     8
  0
VERTEX
  5
E7C
330
E68
100
AcDbEntity
  8
HILF
100
AcDbVertex
100
AcDb2dVertex
 10
294.047198930569
 20
241.4659947193532
 30
0.0
 70
     8
  0
VERTEX
  5
E7D
330
E68
100
AcDbEntity
  8
HILF
100
AcDbVertex
100
AcDb2dVertex
 10
295.1425765347356
 20
244.7195428964366
 30
0.0
 70
     8
  0
VERTEX
  5
E7E
330
E68
100
AcDbEntity
  8
HILF
100
AcDbVertex
100
AcDb2dVertex
 10
296.0914697639024
 20
248.0475051360199
 30
0.0
 70
     8
  0
VERTEX
  5
E7F
330
E68
100
AcDbEntity
  8
HILF
100
AcDbVertex
100
AcDb2dVertex
 10
296.845050493069
 20
251.4746861256032
 30
0.0
 70
     8
  0
VERTEX
  5
E80
330
E68
100
AcDbEntity
  8
HILF
100
AcDbVertex
100
AcDb2dVertex
 10
297.3544905972357
 20
255.0258905526865
 30
0.0
 70
     8
  0
VERTEX
  5
E81
330
E68
100
AcDbEntity
  8
HILF
100
AcDbVertex
100
AcDb2dVertex
 10
297.5709619514024
 20
258.7259231047699
 30
0.0
 70
     8
  0
VERTEX
  5
E82
330
E68
100
AcDbEntity
  8
HILF
100
AcDbVertex
100
AcDb2dVertex
 10
297.445636430569
 20
262.5995884693532
 30
0.0
 70
     8
  0
VERTEX
  5
E83
330
E68
100
AcDbEntity
  8
HILF
100
AcDbVertex
100
AcDb2dVertex
 10
296.955189313607
 20
266.6399856047698
 30
0.0
 70
     8
  0
VERTEX
  5
E84
330
E68
100
AcDbEntity
  8
HILF
100
AcDbVertex
100
AcDb2dVertex
 10
296.1783094948735
 20
270.7133905526865
 30
0.0
 70
     8
  0
VERTEX
  5
E85
330
E68
100
AcDbEntity
  8
HILF
100
AcDbVertex
100
AcDb2dVertex
 10
295.2191892725966
 20
274.6543736256032
 30
0.0
 70
     8
  0
VERTEX
  5
E86
330
E68
100
AcDbEntity
  8
HILF
100
AcDbVertex
100
AcDb2dVertex
 10
294.1820209450047
 20
278.2975051360199
 30
0.0
 70
     8
  0
VERTEX
  5
E87
330
E68
100
AcDbEntity
  8
HILF
100
AcDbVertex
100
AcDb2dVertex
 10
293.1709968103262
 20
281.4773553964366
 30
0.0
 70
     8
  0
VERTEX
  5
E88
330
E68
100
AcDbEntity
  8
HILF
100
AcDbVertex
100
AcDb2dVertex
 10
292.2903091667894
 20
284.0284947193532
 30
0.0
 70
     8
  0
VERTEX
  5
E89
330
E68
100
AcDbEntity
  8
HILF
100
AcDbVertex
100
AcDb2dVertex
 10
291.6441503126227
 20
285.7854934172699
 30
0.0
 70
     8
  0
VERTEX
  5
E8A
330
E68
100
AcDbEntity
  8
HILF
100
AcDbVertex
100
AcDb2dVertex
 10
291.3367125460545
 20
286.5829218026867
 30
0.0
 70
     8
  0
VERTEX
  5
E8B
330
E68
100
AcDbEntity
  8
HILF
100
AcDbVertex
100
AcDb2dVertex
 10
291.6123030972356
 20
184.2829218026865
 30
0.0
 70
    16
  0
VERTEX
  5
E8C
330
E68
100
AcDbEntity
  8
HILF
100
AcDbVertex
100
AcDb2dVertex
 10
281.6123030972356
 20
209.6829218026866
 30
0.0
 70
    16
  0
VERTEX
  5
E8D
330
E68
100
AcDbEntity
  8
HILF
100
AcDbVertex
100
AcDb2dVertex
 10
291.6123030972357
 20
235.0829218026865
 30
0.0
 70
    16
  0
VERTEX
  5
E8E
330
E68
100
AcDbEntity
  8
HILF
100
AcDbVertex
100
AcDb2dVertex
 10
301.6123030972357
 20
260.4829218026866
 30
0.0
 70
    16
  0
VERTEX
  5
E8F
330
E68
100
AcDbEntity
  8
HILF
100
AcDbVertex
100
AcDb2dVertex
 10
291.6123030972357
 20
285.8829218026865
 30
0.0
 70
    16
  0
VERTEX
  5
E90
330
E68
100
AcDbEntity
  8
HILF
100
AcDbVertex
100
AcDb2dVertex
 10
291.3367125460545
 20
286.5829218026867
 30
0.0
 70
    16
  0
SEQEND
  5
E91
330
E68
100
AcDbEntity
  8
HILF
  0
LINE
  5
E92
330
1E
100
AcDbEntity
  8
STEMPEL
100
AcDbLine
 10
96.68093905819251
 20
183.5829218026866
 30
0.0
 11
96.68093905819251
 21
286.5829218026866
 31
0.0
  0
DIMENSION
  5
E93
330
1E
100
AcDbEntity
  8
BEM
100
AcDbDimension
  2
*D3
 10
84.08688420551255
 20
183.5829218026866
 30
0.0
 11
77.58688420551251
 21
235.0829218026866
 31
0.0
 70
    32
  1
%%c<>
 71
     5
 42
103.0
  3
Standard
100
AcDbAlignedDimension
 13
96.68093905819251
 23
286.5829218026866
 33
0.0
 14
96.68093905819251
 24
183.5829218026866
 34
0.0
 50
270.0
100
AcDbRotatedDimension
1001
ACAD
1000
DSTYLE
1002
{
1070
    40
1040
2.0
1070
    41
1040
3.5
1070
    42
1040
1.0
1070
    43
1040
7.0
1070
    44
1040
1.0
1070
    73
1070
     0
1070
    74
1070
     0
1070
    77
1070
     1
1070
    78
1070
     8
1070
    79
1070
     2
1070
   140
1040
3.5
1070
   141
1040
1.5
1070
   146
1040
0.5142857142857144
1070
   147
1040
1.5
1070
   172
1070
     1
1070
   178
1070
     1
1070
   179
1070
     2
1070
   271
1070
     2
1070
   272
1070
     2
1070
   284
1070
     8
1070
   285
1070
     8
1070
   286
1070
     8
1002
}
  0
DIMENSION
  5
E94
330
1E
100
AcDbEntity
  8
BEM
100
AcDbDimension
  2
*D4
 10
455.4330459171557
 20
161.1878104613985
 30
0.0
 11
276.0569924876742
 21
167.6878104613985
 31
0.0
 70
    32
  1
620
 71
     5
 42
358.7521068589633
  3
Standard
100
AcDbAlignedDimension
 13
96.68093905819251
 23
184.6327857649979
 33
0.0
 14
455.4330459171557
 24
187.0829218026866
 34
0.0
100
AcDbRotatedDimension
1001
ACAD
1000
DSTYLE
1002
{
1070
    40
1040
2.0
1070
    41
1040
3.5
1070
    42
1040
1.0
1070
    43
1040
7.0
1070
    44
1040
1.0
1070
    73
1070
     0
1070
    74
1070
     0
1070
    77
1070
     1
1070
    78
1070
     8
1070
    79
1070
     2
1070
   140
1040
3.5
1070
   141
1040
1.5
1070
   146
1040
0.5142857142857144
1070
   147
1040
1.5
1070
   172
1070
     1
1070
   178
1070
     1
1070
   179
1070
     2
1070
   271
1070
     2
1070
   272
1070
     2
1070
   284
1070
     8
1070
   285
1070
     8
1070
   286
1070
     8
1002
}
  0
LINE
  5
FC4
330
1E
100
AcDbEntity
  8
STEMPEL
100
AcDbLine
 10
589.2161122960821
 20
386.1061175279291
 30
0.0
 11
291.887893648417
 21
386.1061175279291
 31
0.0
  0
LINE
  5
FC5
330
1E
100
AcDbEntity
  8
STEMPEL
100
AcDbLine
 10
588.6649311937201
 20
489.1061175279291
 30
0.0
 11
502.0167929266016
 21
489.1061175279291
 31
0.0
  0
POLYLINE
  5
FC6
330
1E
100
AcDbEntity
  8
HILF
100
AcDb2dPolyline
 66
     1
 10
0.0
 20
0.0
 30
0.0
 70
     4
 75
     6
  0
VERTEX
  5
FC7
330
FC6
100
AcDbEntity
  8
HILF
100
AcDbVertex
100
AcDb2dVertex
 10
594.2161122960823
 20
386.1061175279291
 30
0.0
 70
    16
  0
VERTEX
  5
FC8
330
FC6
100
AcDbEntity
  8
HILF
100
AcDbVertex
100
AcDb2dVertex
 10
594.2161122960823
 20
386.1061175279291
 30
0.0
 70
     8
  0
VERTEX
  5
FC9
330
FC6
100
AcDbEntity
  8
HILF
100
AcDbVertex
100
AcDb2dVertex
 10
593.908674529514
 20
386.9035459133457
 30
0.0
 70
     8
  0
VERTEX
  5
FCA
330
FC6
100
AcDbEntity
  8
HILF
100
AcDbVertex
100
AcDb2dVertex
 10
593.2625156753474
 20
388.6605446112623
 30
0.0
 70
     8
  0
VERTEX
  5
FCB
330
FC6
100
AcDbEntity
  8
HILF
100
AcDbVertex
100
AcDb2dVertex
 10
592.3818280318108
 20
391.2116839341791
 30
0.0
 70
     8
  0
VERTEX
  5
FCC
330
FC6
100
AcDbEntity
  8
HILF
100
AcDbVertex
100
AcDb2dVertex
 10
591.3708038971321
 20
394.3915341945957
 30
0.0
 70
     8
  0
VERTEX
  5
FCD
330
FC6
100
AcDbEntity
  8
HILF
100
AcDbVertex
100
AcDb2dVertex
 10
590.3336355695403
 20
398.0346657050125
 30
0.0
 70
     8
  0
VERTEX
  5
FCE
330
FC6
100
AcDbEntity
  8
HILF
100
AcDbVertex
100
AcDb2dVertex
 10
589.3745153472634
 20
401.975648777929
 30
0.0
 70
     8
  0
VERTEX
  5
FCF
330
FC6
100
AcDbEntity
  8
HILF
100
AcDbVertex
100
AcDb2dVertex
 10
588.59763552853
 20
406.0490537258457
 30
0.0
 70
     8
  0
VERTEX
  5
FD0
330
FC6
100
AcDbEntity
  8
HILF
100
AcDbVertex
100
AcDb2dVertex
 10
588.1071884115678
 20
410.0894508612624
 30
0.0
 70
     8
  0
VERTEX
  5
FD1
330
FC6
100
AcDbEntity
  8
HILF
100
AcDbVertex
100
AcDb2dVertex
 10
587.9818628907346
 20
413.9631162258457
 30
0.0
 70
     8
  0
VERTEX
  5
FD2
330
FC6
100
AcDbEntity
  8
HILF
100
AcDbVertex
100
AcDb2dVertex
 10
588.1983342449013
 20
417.663148777929
 30
0.0
 70
     8
  0
VERTEX
  5
FD3
330
FC6
100
AcDbEntity
  8
HILF
100
AcDbVertex
100
AcDb2dVertex
 10
588.7077743490679
 20
421.2143532050123
 30
0.0
 70
     8
  0
VERTEX
  5
FD4
330
FC6
100
AcDbEntity
  8
HILF
100
AcDbVertex
100
AcDb2dVertex
 10
589.4613550782346
 20
424.6415341945956
 30
0.0
 70
     8
  0
VERTEX
  5
FD5
330
FC6
100
AcDbEntity
  8
HILF
100
AcDbVertex
100
AcDb2dVertex
 10
590.4102483074012
 20
427.969496434179
 30
0.0
 70
     8
  0
VERTEX
  5
FD6
330
FC6
100
AcDbEntity
  8
HILF
100
AcDbVertex
100
AcDb2dVertex
 10
591.5056259115679
 20
431.2230446112622
 30
0.0
 70
     8
  0
VERTEX
  5
FD7
330
FC6
100
AcDbEntity
  8
HILF
100
AcDbVertex
100
AcDb2dVertex
 10
592.6986597657346
 20
434.4269834133456
 30
0.0
 70
     8
  0
VERTEX
  5
FD8
330
FC6
100
AcDbEntity
  8
HILF
100
AcDbVertex
100
AcDb2dVertex
 10
593.9405217449014
 20
437.606117527929
 30
0.0
 70
     8
  0
VERTEX
  5
FD9
330
FC6
100
AcDbEntity
  8
HILF
100
AcDbVertex
100
AcDb2dVertex
 10
595.182383724068
 20
440.7852516425124
 30
0.0
 70
     8
  0
VERTEX
  5
FDA
330
FC6
100
AcDbEntity
  8
HILF
100
AcDbVertex
100
AcDb2dVertex
 10
596.3754175782346
 20
443.9891904445956
 30
0.0
 70
     8
  0
VERTEX
  5
FDB
330
FC6
100
AcDbEntity
  8
HILF
100
AcDbVertex
100
AcDb2dVertex
 10
597.4707951824013
 20
447.2427386216789
 30
0.0
 70
     8
  0
VERTEX
  5
FDC
330
FC6
100
AcDbEntity
  8
HILF
100
AcDbVertex
100
AcDb2dVertex
 10
598.419688411568
 20
450.5707008612623
 30
0.0
 70
     8
  0
VERTEX
  5
FDD
330
FC6
100
AcDbEntity
  8
HILF
100
AcDbVertex
100
AcDb2dVertex
 10
599.1732691407346
 20
453.9978818508457
 30
0.0
 70
     8
  0
VERTEX
  5
FDE
330
FC6
100
AcDbEntity
  8
HILF
100
AcDbVertex
100
AcDb2dVertex
 10
599.6827092449014
 20
457.549086277929
 30
0.0
 70
     8
  0
VERTEX
  5
FDF
330
FC6
100
AcDbEntity
  8
HILF
100
AcDbVertex
100
AcDb2dVertex
 10
599.899180599068
 20
461.2491188300124
 30
0.0
 70
     8
  0
VERTEX
  5
FE0
330
FC6
100
AcDbEntity
  8
HILF
100
AcDbVertex
100
AcDb2dVertex
 10
599.7738550782346
 20
465.1227841945956
 30
0.0
 70
     8
  0
VERTEX
  5
FE1
330
FC6
100
AcDbEntity
  8
HILF
100
AcDbVertex
100
AcDb2dVertex
 10
599.2834079612728
 20
469.1631813300123
 30
0.0
 70
     8
  0
VERTEX
  5
FE2
330
FC6
100
AcDbEntity
  8
HILF
100
AcDbVertex
100
AcDb2dVertex
 10
598.5065281425391
 20
473.236586277929
 30
0.0
 70
     8
  0
VERTEX
  5
FE3
330
FC6
100
AcDbEntity
  8
HILF
100
AcDbVertex
100
AcDb2dVertex
 10
597.5474079202622
 20
477.1775693508457
 30
0.0
 70
     8
  0
VERTEX
  5
FE4
330
FC6
100
AcDbEntity
  8
HILF
100
AcDbVertex
100
AcDb2dVertex
 10
596.5102395926703
 20
480.8207008612623
 30
0.0
 70
     8
  0
VERTEX
  5
FE5
330
FC6
100
AcDbEntity
  8
HILF
100
AcDbVertex
100
AcDb2dVertex
 10
595.4992154579919
 20
484.000551121679
 30
0.0
 70
     8
  0
VERTEX
  5
FE6
330
FC6
100
AcDbEntity
  8
HILF
100
AcDbVertex
100
AcDb2dVertex
 10
594.6185278144552
 20
486.5516904445957
 30
0.0
 70
     8
  0
VERTEX
  5
FE7
330
FC6
100
AcDbEntity
  8
HILF
100
AcDbVertex
100
AcDb2dVertex
 10
593.9723689602885
 20
488.3086891425124
 30
0.0
 70
     8
  0
VERTEX
  5
FE8
330
FC6
100
AcDbEntity
  8
HILF
100
AcDbVertex
100
AcDb2dVertex
 10
593.6649311937202
 20
489.1061175279292
 30
0.0
 70
     8
  0
VERTEX
  5
FE9
330
FC6
100
AcDbEntity
  8
HILF
100
AcDbVertex
100
AcDb2dVertex
 10
593.9405217449013
 20
386.806117527929
 30
0.0
 70
    16
  0
VERTEX
  5
FEA
330
FC6
100
AcDbEntity
  8
HILF
100
AcDbVertex
100
AcDb2dVertex
 10
583.9405217449012
 20
412.2061175279291
 30
0.0
 70
    16
  0
VERTEX
  5
FEB
330
FC6
100
AcDbEntity
  8
HILF
100
AcDbVertex
100
AcDb2dVertex
 10
593.9405217449014
 20
437.6061175279289
 30
0.0
 70
    16
  0
VERTEX
  5
FEC
330
FC6
100
AcDbEntity
  8
HILF
100
AcDbVertex
100
AcDb2dVertex
 10
603.9405217449013
 20
463.0061175279291
 30
0.0
 70
    16
  0
VERTEX
  5
FED
330
FC6
100
AcDbEntity
  8
HILF
100
AcDbVertex
100
AcDb2dVertex
 10
593.9405217449014
 20
488.4061175279289
 30
0.0
 70
    16
  0
VERTEX
  5
FEE
330
FC6
100
AcDbEntity
  8
HILF
100
AcDbVertex
100
AcDb2dVertex
 10
593.6649311937202
 20
489.1061175279291
 30
0.0
 70
    16
  0
SEQEND
  5
FEF
330
FC6
100
AcDbEntity
  8
HILF
  0
POLYLINE
  5
FF0
330
1E
100
AcDbEntity
  8
HILF
100
AcDb2dPolyline
 66
     1
 10
0.0
 20
0.0
 30
0.0
 70
     4
 75
     6
  0
VERTEX
  5
FF1
330
FF0
100
AcDbEntity
  8
HILF
100
AcDbVertex
100
AcDb2dVertex
 10
589.2161122960823
 20
386.1061175279291
 30
0.0
 70
    16
  0
VERTEX
  5
FF2
330
FF0
100
AcDbEntity
  8
HILF
100
AcDbVertex
100
AcDb2dVertex
 10
589.2161122960823
 20
386.1061175279291
 30
0.0
 70
     8
  0
VERTEX
  5
FF3
330
FF0
100
AcDbEntity
  8
HILF
100
AcDbVertex
100
AcDb2dVertex
 10
588.908674529514
 20
386.9035459133457
 30
0.0
 70
     8
  0
VERTEX
  5
FF4
330
FF0
100
AcDbEntity
  8
HILF
100
AcDbVertex
100
AcDb2dVertex
 10
588.2625156753475
 20
388.6605446112623
 30
0.0
 70
     8
  0
VERTEX
  5
FF5
330
FF0
100
AcDbEntity
  8
HILF
100
AcDbVertex
100
AcDb2dVertex
 10
587.3818280318107
 20
391.2116839341791
 30
0.0
 70
     8
  0
VERTEX
  5
FF6
330
FF0
100
AcDbEntity
  8
HILF
100
AcDbVertex
100
AcDb2dVertex
 10
586.3708038971322
 20
394.3915341945957
 30
0.0
 70
     8
  0
VERTEX
  5
FF7
330
FF0
100
AcDbEntity
  8
HILF
100
AcDbVertex
100
AcDb2dVertex
 10
585.3336355695403
 20
398.0346657050125
 30
0.0
 70
     8
  0
VERTEX
  5
FF8
330
FF0
100
AcDbEntity
  8
HILF
100
AcDbVertex
100
AcDb2dVertex
 10
584.3745153472634
 20
401.975648777929
 30
0.0
 70
     8
  0
VERTEX
  5
FF9
330
FF0
100
AcDbEntity
  8
HILF
100
AcDbVertex
100
AcDb2dVertex
 10
583.5976355285299
 20
406.0490537258457
 30
0.0
 70
     8
  0
VERTEX
  5
FFA
330
FF0
100
AcDbEntity
  8
HILF
100
AcDbVertex
100
AcDb2dVertex
 10
583.1071884115679
 20
410.0894508612624
 30
0.0
 70
     8
  0
VERTEX
  5
FFB
330
FF0
100
AcDbEntity
  8
HILF
100
AcDbVertex
100
AcDb2dVertex
 10
582.9818628907346
 20
413.9631162258457
 30
0.0
 70
     8
  0
VERTEX
  5
FFC
330
FF0
100
AcDbEntity
  8
HILF
100
AcDbVertex
100
AcDb2dVertex
 10
583.1983342449013
 20
417.663148777929
 30
0.0
 70
     8
  0
VERTEX
  5
FFD
330
FF0
100
AcDbEntity
  8
HILF
100
AcDbVertex
100
AcDb2dVertex
 10
583.7077743490679
 20
421.2143532050123
 30
0.0
 70
     8
  0
VERTEX
  5
FFE
330
FF0
100
AcDbEntity
  8
HILF
100
AcDbVertex
100
AcDb2dVertex
 10
584.4613550782346
 20
424.6415341945956
 30
0.0
 70
     8
  0
VERTEX
  5
FFF
330
FF0
100
AcDbEntity
  8
HILF
100
AcDbVertex
100
AcDb2dVertex
 10
585.4102483074012
 20
427.969496434179
 30
0.0
 70
     8
  0
VERTEX
  5
1000
330
FF0
100
AcDbEntity
  8
HILF
100
AcDbVertex
100
AcDb2dVertex
 10
586.5056259115679
 20
431.2230446112622
 30
0.0
 70
     8
  0
VERTEX
  5
1001
330
FF0
100
AcDbEntity
  8
HILF
100
AcDbVertex
100
AcDb2dVertex
 10
587.6986597657346
 20
434.4269834133456
 30
0.0
 70
     8
  0
VERTEX
  5
1002
330
FF0
100
AcDbEntity
  8
HILF
100
AcDbVertex
100
AcDb2dVertex
 10
588.9405217449014
 20
437.606117527929
 30
0.0
 70
     8
  0
VERTEX
  5
1003
330
FF0
100
AcDbEntity
  8
HILF
100
AcDbVertex
100
AcDb2dVertex
 10
590.182383724068
 20
440.7852516425124
 30
0.0
 70
     8
  0
VERTEX
  5
1004
330
FF0
100
AcDbEntity
  8
HILF
100
AcDbVertex
100
AcDb2dVertex
 10
591.3754175782346
 20
443.9891904445956
 30
0.0
 70
     8
  0
VERTEX
  5
1005
330
FF0
100
AcDbEntity
  8
HILF
100
AcDbVertex
100
AcDb2dVertex
 10
592.4707951824013
 20
447.2427386216789
 30
0.0
 70
     8
  0
VERTEX
  5
1006
330
FF0
100
AcDbEntity
  8
HILF
100
AcDbVertex
100
AcDb2dVertex
 10
593.419688411568
 20
450.5707008612623
 30
0.0
 70
     8
  0
VERTEX
  5
1007
330
FF0
100
AcDbEntity
  8
HILF
100
AcDbVertex
100
AcDb2dVertex
 10
594.1732691407346
 20
453.9978818508457
 30
0.0
 70
     8
  0
VERTEX
  5
1008
330
FF0
100
AcDbEntity
  8
HILF
100
AcDbVertex
100
AcDb2dVertex
 10
594.6827092449013
 20
457.549086277929
 30
0.0
 70
     8
  0
VERTEX
  5
1009
330
FF0
100
AcDbEntity
  8
HILF
100
AcDbVertex
100
AcDb2dVertex
 10
594.8991805990679
 20
461.2491188300124
 30
0.0
 70
     8
  0
VERTEX
  5
100A
330
FF0
100
AcDbEntity
  8
HILF
100
AcDbVertex
100
AcDb2dVertex
 10
594.7738550782346
 20
465.1227841945956
 30
0.0
 70
     8
  0
VERTEX
  5
100B
330
FF0
100
AcDbEntity
  8
HILF
100
AcDbVertex
100
AcDb2dVertex
 10
594.2834079612728
 20
469.1631813300123
 30
0.0
 70
     8
  0
VERTEX
  5
100C
330
FF0
100
AcDbEntity
  8
HILF
100
AcDbVertex
100
AcDb2dVertex
 10
593.5065281425391
 20
473.236586277929
 30
0.0
 70
     8
  0
VERTEX
  5
100D
330
FF0
100
AcDbEntity
  8
HILF
100
AcDbVertex
100
AcDb2dVertex
 10
592.5474079202622
 20
477.1775693508457
 30
0.0
 70
     8
  0
VERTEX
  5
100E
330
FF0
100
AcDbEntity
  8
HILF
100
AcDbVertex
100
AcDb2dVertex
 10
591.5102395926703
 20
480.8207008612623
 30
0.0
 70
     8
  0
VERTEX
  5
100F
330
FF0
100
AcDbEntity
  8
HILF
100
AcDbVertex
100
AcDb2dVertex
 10
590.4992154579919
 20
484.000551121679
 30
0.0
 70
     8
  0
VERTEX
  5
1010
330
FF0
100
AcDbEntity
  8
HILF
100
AcDbVertex
100
AcDb2dVertex
 10
589.618527814455
 20
486.5516904445957
 30
0.0
 70
     8
  0
VERTEX
  5
1011
330
FF0
100
AcDbEntity
  8
HILF
100
AcDbVertex
100
AcDb2dVertex
 10
588.9723689602883
 20
488.3086891425124
 30
0.0
 70
     8
  0
VERTEX
  5
1012
330
FF0
100
AcDbEntity
  8
HILF
100
AcDbVertex
100
AcDb2dVertex
 10
588.6649311937201
 20
489.1061175279292
 30
0.0
 70
     8
  0
VERTEX
  5
1013
330
FF0
100
AcDbEntity
  8
HILF
100
AcDbVertex
100
AcDb2dVertex
 10
588.9405217449012
 20
386.806117527929
 30
0.0
 70
    16
  0
VERTEX
  5
1014
330
FF0
100
AcDbEntity
  8
HILF
100
AcDbVertex
100
AcDb2dVertex
 10
578.9405217449012
 20
412.2061175279291
 30
0.0
 70
    16
  0
VERTEX
  5
1015
330
FF0
100
AcDbEntity
  8
HILF
100
AcDbVertex
100
AcDb2dVertex
 10
588.9405217449014
 20
437.6061175279289
 30
0.0
 70
    16
  0
VERTEX
  5
1016
330
FF0
100
AcDbEntity
  8
HILF
100
AcDbVertex
100
AcDb2dVertex
 10
598.9405217449013
 20
463.0061175279291
 30
0.0
 70
    16
  0
VERTEX
  5
1017
330
FF0
100
AcDbEntity
  8
HILF
100
AcDbVertex
100
AcDb2dVertex
 10
588.9405217449014
 20
488.4061175279289
 30
0.0
 70
    16
  0
VERTEX
  5
1018
330
FF0
100
AcDbEntity
  8
HILF
100
AcDbVertex
100
AcDb2dVertex
 10
588.6649311937201
 20
489.1061175279291
 30
0.0
 70
    16
  0
SEQEND
  5
1019
330
FF0
100
AcDbEntity
  8
HILF
  0
LINE
  5
101B
330
1E
100
AcDbEntity
  8
STEMPEL
100
AcDbLine
 10
786.029713355934
 20
382.1510506494852
 30
0.0
 11
783.77910930601
 21
381.1015767455312
 31
0.0
  0
LINE
  5
101C
330
1E
100
AcDbEntity
  8
STEMPEL
100
AcDbLine
 10
773.4249618933629
 20
378.8061175279291
 30
0.0
 11
755.262713355934
 21
378.8061175279291
 31
0.0
  0
ARC
  5
101D
330
1E
100
AcDbEntity
  8
STEMPEL
100
AcDbCircle
 10
738.529713355934
 20
370.8061175279291
 30
0.0
 40
12.0
100
AcDbArc
 50
63.11222934098088
 51
90.0
  0
ARC
  5
101E
330
1E
100
AcDbEntity
  8
STEMPEL
100
AcDbCircle
 10
755.262713355934
 20
403.8061175279291
 30
0.0
 40
24.99990931069965
100
AcDbArc
 50
243.1122293409809
 51
270.0
  0
ARC
  5
101F
330
1E
100
AcDbEntity
  8
STEMPEL
100
AcDbCircle
 10
773.4249618933629
 20
403.3061175279291
 30
0.0
 40
24.5
100
AcDbArc
 50
270.0
 51
294.9999999999994
  0
ARC
  5
1020
330
1E
100
AcDbEntity
  8
STEMPEL
100
AcDbCircle
 10
630.8941448536638
 20
378.1061175279291
 30
0.0
 40
8.0
100
AcDbArc
 50
58.92825877185734
 51
90.0
  0
LINE
  5
1021
330
1E
100
AcDbEntity
  8
STEMPEL
100
AcDbLine
 10
630.8941448536638
 20
386.1061175279291
 30
0.0
 11
594.2161122960822
 21
386.1061175279291
 31
0.0
  0
ARC
  5
1022
330
1E
100
AcDbEntity
  8
STEMPEL
100
AcDbCircle
 10
642.764696652127
 20
397.8061175279291
 30
0.0
 40
15.0
100
AcDbArc
 50
238.9282587718573
 51
270.0
  0
LINE
  5
1023
330
1E
100
AcDbEntity
  8
STEMPEL
100
AcDbLine
 10
738.529713355934
 20
382.8061175279291
 30
0.0
 11
642.764696652127
 21
382.8061175279291
 31
0.0
  0
ARC
  5
1024
330
1E
100
AcDbEntity
  8
STEMPEL
100
AcDbCircle
 10
773.4249618933629
 20
471.906117527929
 30
0.0
 40
24.5
100
AcDbArc
 50
65.00000000000065
 51
90.0
  0
LINE
  5
1025
330
1E
100
AcDbEntity
  8
STEMPEL
100
AcDbLine
 10
786.029713355934
 20
493.0611844063727
 30
0.0
 11
783.77910930601
 21
494.110658310327
 31
0.0
  0
ARC
  5
1026
330
1E
100
AcDbEntity
  8
STEMPEL
100
AcDbCircle
 10
738.529713355934
 20
504.406117527929
 30
0.0
 40
12.0
100
AcDbArc
 50
270.0
 51
296.8877706590191
  0
LINE
  5
1027
330
1E
100
AcDbEntity
  8
STEMPEL
100
AcDbLine
 10
773.4249618933629
 20
496.406117527929
 30
0.0
 11
755.262713355934
 21
496.406117527929
 31
0.0
  0
ARC
  5
1028
330
1E
100
AcDbEntity
  8
STEMPEL
100
AcDbCircle
 10
630.8941448536638
 20
497.1061175279291
 30
0.0
 40
8.0
100
AcDbArc
 50
270.0
 51
301.0717412281426
  0
LINE
  5
1029
330
1E
100
AcDbEntity
  8
STEMPEL
100
AcDbLine
 10
738.529713355934
 20
492.406117527929
 30
0.0
 11
642.7646966521272
 21
492.406117527929
 31
0.0
  0
LINE
  5
102A
330
1E
100
AcDbEntity
  8
STEMPEL
100
AcDbLine
 10
630.8941448536638
 20
489.1061175279291
 30
0.0
 11
593.6649311937202
 21
489.1061175279291
 31
0.0
  0
ARC
  5
102B
330
1E
100
AcDbEntity
  8
STEMPEL
100
AcDbCircle
 10
755.262713355934
 20
471.406117527929
 30
0.0
 40
24.99990931069965
100
AcDbArc
 50
90.0
 51
116.8877706590191
  0
ARC
  5
102C
330
1E
100
AcDbEntity
  8
STEMPEL
100
AcDbCircle
 10
642.764696652127
 20
477.406117527929
 30
0.0
 40
15.0
100
AcDbArc
 50
90.0
 51
121.0717412281426
  0
LINE
  5
102D
330
1E
100
AcDbEntity
  8
HILF
100
AcDbLine
 10
741.3196284774851
 20
491.1975455530885
 30
0.0
 11
741.3196284774851
 21
384.0146895027693
 31
0.0
  0
LINE
  5
102E
330
1E
100
AcDbEntity
  8
HILF
100
AcDbLine
 10
638.7470724352763
 20
384.9178012821127
 30
0.0
 11
638.7470724352763
 21
490.2944337737454
 31
0.0
  0
LINE
  5
102F
330
1E
100
AcDbEntity
  8
HILF
100
AcDbLine
 10
633.0368777693177
 20
487.8509192236152
 30
0.0
 11
633.0368777693177
 21
387.3613158322429
 31
0.0
  0
LINE
  5
1030
330
1E
100
AcDbEntity
  8
STEMPEL
  6
Continuous
100
AcDbLine
 10
786.029713355934
 20
493.0611844063727
 30
0.0
 11
786.029713355934
 21
382.1510506494852
 31
0.0
  0
TEXT
  5
1031
330
1E
100
AcDbEntity
  8
TEXT
 62
     1
100
AcDbText
 10
689.3217356975924
 20
441.1322639005214
 30
0.0
 40
7.0
  1
DN100
 41
0.8
  7
GREEKS
100
AcDbText
  0
LINE
  5
1032
330
1E
100
AcDbEntity
  8
STEMPEL
100
AcDbLine
 10
286.3367125460549
 20
489.1061175279291
 30
0.0
 11
96.68093905819285
 21
489.1061175279291
 31
0.0
  0
LINE
  5
1033
330
1E
100
AcDbEntity
  8
STEMPEL
100
AcDbLine
 10
286.887893648417
 20
386.1061175279291
 30
0.0
 11
96.68093905819285
 21
386.1061175279291
 31
0.0
  0
POLYLINE
  5
1034
330
1E
100
AcDbEntity
  8
HILF
100
AcDb2dPolyline
 66
     1
 10
0.0
 20
0.0
 30
0.0
 70
     4
 75
     6
  0
VERTEX
  5
1035
330
1034
100
AcDbEntity
  8
HILF
100
AcDbVertex
100
AcDb2dVertex
 10
286.887893648417
 20
386.1061175279291
 30
0.0
 70
    16
  0
VERTEX
  5
1036
330
1034
100
AcDbEntity
  8
HILF
100
AcDbVertex
100
AcDb2dVertex
 10
286.887893648417
 20
386.1061175279291
 30
0.0
 70
     8
  0
VERTEX
  5
1037
330
1034
100
AcDbEntity
  8
HILF
100
AcDbVertex
100
AcDb2dVertex
 10
286.5804558818488
 20
386.9035459133457
 30
0.0
 70
     8
  0
VERTEX
  5
1038
330
1034
100
AcDbEntity
  8
HILF
100
AcDbVertex
100
AcDb2dVertex
 10
285.9342970276821
 20
388.6605446112623
 30
0.0
 70
     8
  0
VERTEX
  5
1039
330
1034
100
AcDbEntity
  8
HILF
100
AcDbVertex
100
AcDb2dVertex
 10
285.0536093841455
 20
391.2116839341791
 30
0.0
 70
     8
  0
VERTEX
  5
103A
330
1034
100
AcDbEntity
  8
HILF
100
AcDbVertex
100
AcDb2dVertex
 10
284.042585249467
 20
394.3915341945957
 30
0.0
 70
     8
  0
VERTEX
  5
103B
330
1034
100
AcDbEntity
  8
HILF
100
AcDbVertex
100
AcDb2dVertex
 10
283.0054169218751
 20
398.0346657050125
 30
0.0
 70
     8
  0
VERTEX
  5
103C
330
1034
100
AcDbEntity
  8
HILF
100
AcDbVertex
100
AcDb2dVertex
 10
282.0462966995982
 20
401.975648777929
 30
0.0
 70
     8
  0
VERTEX
  5
103D
330
1034
100
AcDbEntity
  8
HILF
100
AcDbVertex
100
AcDb2dVertex
 10
281.2694168808647
 20
406.0490537258457
 30
0.0
 70
     8
  0
VERTEX
  5
103E
330
1034
100
AcDbEntity
  8
HILF
100
AcDbVertex
100
AcDb2dVertex
 10
280.7789697639026
 20
410.0894508612624
 30
0.0
 70
     8
  0
VERTEX
  5
103F
330
1034
100
AcDbEntity
  8
HILF
100
AcDbVertex
100
AcDb2dVertex
 10
280.6536442430692
 20
413.9631162258457
 30
0.0
 70
     8
  0
VERTEX
  5
1040
330
1034
100
AcDbEntity
  8
HILF
100
AcDbVertex
100
AcDb2dVertex
 10
280.8701155972359
 20
417.663148777929
 30
0.0
 70
     8
  0
VERTEX
  5
1041
330
1034
100
AcDbEntity
  8
HILF
100
AcDbVertex
100
AcDb2dVertex
 10
281.3795557014026
 20
421.2143532050123
 30
0.0
 70
     8
  0
VERTEX
  5
1042
330
1034
100
AcDbEntity
  8
HILF
100
AcDbVertex
100
AcDb2dVertex
 10
282.1331364305692
 20
424.6415341945956
 30
0.0
 70
     8
  0
VERTEX
  5
1043
330
1034
100
AcDbEntity
  8
HILF
100
AcDbVertex
100
AcDb2dVertex
 10
283.082029659736
 20
427.969496434179
 30
0.0
 70
     8
  0
VERTEX
  5
1044
330
1034
100
AcDbEntity
  8
HILF
100
AcDbVertex
100
AcDb2dVertex
 10
284.1774072639026
 20
431.2230446112622
 30
0.0
 70
     8
  0
VERTEX
  5
1045
330
1034
100
AcDbEntity
  8
HILF
100
AcDbVertex
100
AcDb2dVertex
 10
285.3704411180693
 20
434.4269834133456
 30
0.0
 70
     8
  0
VERTEX
  5
1046
330
1034
100
AcDbEntity
  8
HILF
100
AcDbVertex
100
AcDb2dVertex
 10
286.612303097236
 20
437.606117527929
 30
0.0
 70
     8
  0
VERTEX
  5
1047
330
1034
100
AcDbEntity
  8
HILF
100
AcDbVertex
100
AcDb2dVertex
 10
287.8541650764026
 20
440.7852516425124
 30
0.0
 70
     8
  0
VERTEX
  5
1048
330
1034
100
AcDbEntity
  8
HILF
100
AcDbVertex
100
AcDb2dVertex
 10
289.0471989305693
 20
443.9891904445956
 30
0.0
 70
     8
  0
VERTEX
  5
1049
330
1034
100
AcDbEntity
  8
HILF
100
AcDbVertex
100
AcDb2dVertex
 10
290.1425765347359
 20
447.2427386216789
 30
0.0
 70
     8
  0
VERTEX
  5
104A
330
1034
100
AcDbEntity
  8
HILF
100
AcDbVertex
100
AcDb2dVertex
 10
291.0914697639027
 20
450.5707008612623
 30
0.0
 70
     8
  0
VERTEX
  5
104B
330
1034
100
AcDbEntity
  8
HILF
100
AcDbVertex
100
AcDb2dVertex
 10
291.8450504930693
 20
453.9978818508457
 30
0.0
 70
     8
  0
VERTEX
  5
104C
330
1034
100
AcDbEntity
  8
HILF
100
AcDbVertex
100
AcDb2dVertex
 10
292.354490597236
 20
457.549086277929
 30
0.0
 70
     8
  0
VERTEX
  5
104D
330
1034
100
AcDbEntity
  8
HILF
100
AcDbVertex
100
AcDb2dVertex
 10
292.5709619514027
 20
461.2491188300124
 30
0.0
 70
     8
  0
VERTEX
  5
104E
330
1034
100
AcDbEntity
  8
HILF
100
AcDbVertex
100
AcDb2dVertex
 10
292.4456364305693
 20
465.1227841945956
 30
0.0
 70
     8
  0
VERTEX
  5
104F
330
1034
100
AcDbEntity
  8
HILF
100
AcDbVertex
100
AcDb2dVertex
 10
291.9551893136074
 20
469.1631813300123
 30
0.0
 70
     8
  0
VERTEX
  5
1050
330
1034
100
AcDbEntity
  8
HILF
100
AcDbVertex
100
AcDb2dVertex
 10
291.1783094948738
 20
473.236586277929
 30
0.0
 70
     8
  0
VERTEX
  5
1051
330
1034
100
AcDbEntity
  8
HILF
100
AcDbVertex
100
AcDb2dVertex
 10
290.2191892725969
 20
477.1775693508457
 30
0.0
 70
     8
  0
VERTEX
  5
1052
330
1034
100
AcDbEntity
  8
HILF
100
AcDbVertex
100
AcDb2dVertex
 10
289.182020945005
 20
480.8207008612623
 30
0.0
 70
     8
  0
VERTEX
  5
1053
330
1034
100
AcDbEntity
  8
HILF
100
AcDbVertex
100
AcDb2dVertex
 10
288.1709968103266
 20
484.000551121679
 30
0.0
 70
     8
  0
VERTEX
  5
1054
330
1034
100
AcDbEntity
  8
HILF
100
AcDbVertex
100
AcDb2dVertex
 10
287.2903091667898
 20
486.5516904445957
 30
0.0
 70
     8
  0
VERTEX
  5
1055
330
1034
100
AcDbEntity
  8
HILF
100
AcDbVertex
100
AcDb2dVertex
 10
286.6441503126231
 20
488.3086891425124
 30
0.0
 70
     8
  0
VERTEX
  5
1056
330
1034
100
AcDbEntity
  8
HILF
100
AcDbVertex
100
AcDb2dVertex
 10
286.3367125460548
 20
489.1061175279292
 30
0.0
 70
     8
  0
VERTEX
  5
1057
330
1034
100
AcDbEntity
  8
HILF
100
AcDbVertex
100
AcDb2dVertex
 10
286.6123030972359
 20
386.806117527929
 30
0.0
 70
    16
  0
VERTEX
  5
1058
330
1034
100
AcDbEntity
  8
HILF
100
AcDbVertex
100
AcDb2dVertex
 10
276.6123030972359
 20
412.2061175279291
 30
0.0
 70
    16
  0
VERTEX
  5
1059
330
1034
100
AcDbEntity
  8
HILF
100
AcDbVertex
100
AcDb2dVertex
 10
286.612303097236
 20
437.6061175279289
 30
0.0
 70
    16
  0
VERTEX
  5
105A
330
1034
100
AcDbEntity
  8
HILF
100
AcDbVertex
100
AcDb2dVertex
 10
296.612303097236
 20
463.0061175279291
 30
0.0
 70
    16
  0
VERTEX
  5
105B
330
1034
100
AcDbEntity
  8
HILF
100
AcDbVertex
100
AcDb2dVertex
 10
286.612303097236
 20
488.4061175279289
 30
0.0
 70
    16
  0
VERTEX
  5
105C
330
1034
100
AcDbEntity
  8
HILF
100
AcDbVertex
100
AcDb2dVertex
 10
286.3367125460548
 20
489.1061175279291
 30
0.0
 70
    16
  0
SEQEND
  5
105D
330
1034
100
AcDbEntity
  8
HILF
  0
POLYLINE
  5
105E
330
1E
100
AcDbEntity
  8
HILF
100
AcDb2dPolyline
 66
     1
 10
0.0
 20
0.0
 30
0.0
 70
     4
 75
     6
  0
VERTEX
  5
105F
330
105E
100
AcDbEntity
  8
HILF
100
AcDbVertex
100
AcDb2dVertex
 10
291.8878936484169
 20
386.1061175279291
 30
0.0
 70
    16
  0
VERTEX
  5
1060
330
105E
100
AcDbEntity
  8
HILF
100
AcDbVertex
100
AcDb2dVertex
 10
291.8878936484169
 20
386.1061175279291
 30
0.0
 70
     8
  0
VERTEX
  5
1061
330
105E
100
AcDbEntity
  8
HILF
100
AcDbVertex
100
AcDb2dVertex
 10
291.5804558818487
 20
386.9035459133457
 30
0.0
 70
     8
  0
VERTEX
  5
1062
330
105E
100
AcDbEntity
  8
HILF
100
AcDbVertex
100
AcDb2dVertex
 10
290.9342970276821
 20
388.6605446112623
 30
0.0
 70
     8
  0
VERTEX
  5
1063
330
105E
100
AcDbEntity
  8
HILF
100
AcDbVertex
100
AcDb2dVertex
 10
290.0536093841454
 20
391.2116839341791
 30
0.0
 70
     8
  0
VERTEX
  5
1064
330
105E
100
AcDbEntity
  8
HILF
100
AcDbVertex
100
AcDb2dVertex
 10
289.0425852494669
 20
394.3915341945957
 30
0.0
 70
     8
  0
VERTEX
  5
1065
330
105E
100
AcDbEntity
  8
HILF
100
AcDbVertex
100
AcDb2dVertex
 10
288.0054169218751
 20
398.0346657050125
 30
0.0
 70
     8
  0
VERTEX
  5
1066
330
105E
100
AcDbEntity
  8
HILF
100
AcDbVertex
100
AcDb2dVertex
 10
287.0462966995983
 20
401.975648777929
 30
0.0
 70
     8
  0
VERTEX
  5
1067
330
105E
100
AcDbEntity
  8
HILF
100
AcDbVertex
100
AcDb2dVertex
 10
286.2694168808647
 20
406.0490537258457
 30
0.0
 70
     8
  0
VERTEX
  5
1068
330
105E
100
AcDbEntity
  8
HILF
100
AcDbVertex
100
AcDb2dVertex
 10
285.7789697639026
 20
410.0894508612624
 30
0.0
 70
     8
  0
VERTEX
  5
1069
330
105E
100
AcDbEntity
  8
HILF
100
AcDbVertex
100
AcDb2dVertex
 10
285.6536442430692
 20
413.9631162258457
 30
0.0
 70
     8
  0
VERTEX
  5
106A
330
105E
100
AcDbEntity
  8
HILF
100
AcDbVertex
100
AcDb2dVertex
 10
285.8701155972359
 20
417.663148777929
 30
0.0
 70
     8
  0
VERTEX
  5
106B
330
105E
100
AcDbEntity
  8
HILF
100
AcDbVertex
100
AcDb2dVertex
 10
286.3795557014026
 20
421.2143532050123
 30
0.0
 70
     8
  0
VERTEX
  5
106C
330
105E
100
AcDbEntity
  8
HILF
100
AcDbVertex
100
AcDb2dVertex
 10
287.1331364305693
 20
424.6415341945956
 30
0.0
 70
     8
  0
VERTEX
  5
106D
330
105E
100
AcDbEntity
  8
HILF
100
AcDbVertex
100
AcDb2dVertex
 10
288.0820296597359
 20
427.969496434179
 30
0.0
 70
     8
  0
VERTEX
  5
106E
330
105E
100
AcDbEntity
  8
HILF
100
AcDbVertex
100
AcDb2dVertex
 10
289.1774072639026
 20
431.2230446112622
 30
0.0
 70
     8
  0
VERTEX
  5
106F
330
105E
100
AcDbEntity
  8
HILF
100
AcDbVertex
100
AcDb2dVertex
 10
290.3704411180693
 20
434.4269834133456
 30
0.0
 70
     8
  0
VERTEX
  5
1070
330
105E
100
AcDbEntity
  8
HILF
100
AcDbVertex
100
AcDb2dVertex
 10
291.6123030972359
 20
437.606117527929
 30
0.0
 70
     8
  0
VERTEX
  5
1071
330
105E
100
AcDbEntity
  8
HILF
100
AcDbVertex
100
AcDb2dVertex
 10
292.8541650764026
 20
440.7852516425124
 30
0.0
 70
     8
  0
VERTEX
  5
1072
330
105E
100
AcDbEntity
  8
HILF
100
AcDbVertex
100
AcDb2dVertex
 10
294.0471989305693
 20
443.9891904445956
 30
0.0
 70
     8
  0
VERTEX
  5
1073
330
105E
100
AcDbEntity
  8
HILF
100
AcDbVertex
100
AcDb2dVertex
 10
295.142576534736
 20
447.2427386216789
 30
0.0
 70
     8
  0
VERTEX
  5
1074
330
105E
100
AcDbEntity
  8
HILF
100
AcDbVertex
100
AcDb2dVertex
 10
296.0914697639027
 20
450.5707008612623
 30
0.0
 70
     8
  0
VERTEX
  5
1075
330
105E
100
AcDbEntity
  8
HILF
100
AcDbVertex
100
AcDb2dVertex
 10
296.8450504930693
 20
453.9978818508457
 30
0.0
 70
     8
  0
VERTEX
  5
1076
330
105E
100
AcDbEntity
  8
HILF
100
AcDbVertex
100
AcDb2dVertex
 10
297.354490597236
 20
457.549086277929
 30
0.0
 70
     8
  0
VERTEX
  5
1077
330
105E
100
AcDbEntity
  8
HILF
100
AcDbVertex
100
AcDb2dVertex
 10
297.5709619514027
 20
461.2491188300124
 30
0.0
 70
     8
  0
VERTEX
  5
1078
330
105E
100
AcDbEntity
  8
HILF
100
AcDbVertex
100
AcDb2dVertex
 10
297.4456364305693
 20
465.1227841945956
 30
0.0
 70
     8
  0
VERTEX
  5
1079
330
105E
100
AcDbEntity
  8
HILF
100
AcDbVertex
100
AcDb2dVertex
 10
296.9551893136074
 20
469.1631813300123
 30
0.0
 70
     8
  0
VERTEX
  5
107A
330
105E
100
AcDbEntity
  8
HILF
100
AcDbVertex
100
AcDb2dVertex
 10
296.1783094948738
 20
473.236586277929
 30
0.0
 70
     8
  0
VERTEX
  5
107B
330
105E
100
AcDbEntity
  8
HILF
100
AcDbVertex
100
AcDb2dVertex
 10
295.2191892725969
 20
477.1775693508457
 30
0.0
 70
     8
  0
VERTEX
  5
107C
330
105E
100
AcDbEntity
  8
HILF
100
AcDbVertex
100
AcDb2dVertex
 10
294.182020945005
 20
480.8207008612623
 30
0.0
 70
     8
  0
VERTEX
  5
107D
330
105E
100
AcDbEntity
  8
HILF
100
AcDbVertex
100
AcDb2dVertex
 10
293.1709968103265
 20
484.000551121679
 30
0.0
 70
     8
  0
VERTEX
  5
107E
330
105E
100
AcDbEntity
  8
HILF
100
AcDbVertex
100
AcDb2dVertex
 10
292.2903091667897
 20
486.5516904445957
 30
0.0
 70
     8
  0
VERTEX
  5
107F
330
105E
100
AcDbEntity
  8
HILF
100
AcDbVertex
100
AcDb2dVertex
 10
291.6441503126231
 20
488.3086891425124
 30
0.0
 70
     8
  0
VERTEX
  5
1080
330
105E
100
AcDbEntity
  8
HILF
100
AcDbVertex
100
AcDb2dVertex
 10
291.3367125460548
 20
489.1061175279292
 30
0.0
 70
     8
  0
VERTEX
  5
1081
330
105E
100
AcDbEntity
  8
HILF
100
AcDbVertex
100
AcDb2dVertex
 10
291.6123030972359
 20
386.806117527929
 30
0.0
 70
    16
  0
VERTEX
  5
1082
330
105E
100
AcDbEntity
  8
HILF
100
AcDbVertex
100
AcDb2dVertex
 10
281.6123030972359
 20
412.2061175279291
 30
0.0
 70
    16
  0
VERTEX
  5
1083
330
105E
100
AcDbEntity
  8
HILF
100
AcDbVertex
100
AcDb2dVertex
 10
291.612303097236
 20
437.6061175279289
 30
0.0
 70
    16
  0
VERTEX
  5
1084
330
105E
100
AcDbEntity
  8
HILF
100
AcDbVertex
100
AcDb2dVertex
 10
301.612303097236
 20
463.0061175279291
 30
0.0
 70
    16
  0
VERTEX
  5
1085
330
105E
100
AcDbEntity
  8
HILF
100
AcDbVertex
100
AcDb2dVertex
 10
291.612303097236
 20
488.4061175279289
 30
0.0
 70
    16
  0
VERTEX
  5
1086
330
105E
100
AcDbEntity
  8
HILF
100
AcDbVertex
100
AcDb2dVertex
 10
291.3367125460548
 20
489.1061175279291
 30
0.0
 70
    16
  0
SEQEND
  5
1087
330
105E
100
AcDbEntity
  8
HILF
  0
LINE
  5
1088
330
1E
100
AcDbEntity
  8
STEMPEL
100
AcDbLine
 10
96.68093905819285
 20
386.1061175279291
 30
0.0
 11
96.68093905819285
 21
489.1061175279291
 31
0.0
  0
DIMENSION
  5
1089
330
1E
100
AcDbEntity
  8
BEM
100
AcDbDimension
  2
*D5
 10
84.08688420551289
 20
386.1061175279291
 30
0.0
 11
77.58688420551283
 21
437.606117527929
 31
0.0
 70
    32
  1
%%c<>
 71
     5
 42
103.0
  3
Standard
100
AcDbAlignedDimension
 13
96.68093905819285
 23
489.1061175279291
 33
0.0
 14
96.68093905819285
 24
386.1061175279291
 34
0.0
 50
270.0
100
AcDbRotatedDimension
1001
ACAD
1000
DSTYLE
1002
{
1070
    40
1040
2.0
1070
    41
1040
3.5
1070
    42
1040
1.0
1070
    43
1040
7.0
1070
    44
1040
1.0
1070
    73
1070
     0
1070
    74
1070
     0
1070
    77
1070
     1
1070
    78
1070
     8
1070
    79
1070
     2
1070
   140
1040
3.5
1070
   141
1040
1.5
1070
   146
1040
0.5142857142857144
1070
   147
1040
1.5
1070
   172
1070
     1
1070
   178
1070
     1
1070
   179
1070
     2
1070
   271
1070
     2
1070
   272
1070
     2
1070
   284
1070
     8
1070
   285
1070
     8
1070
   286
1070
     8
1002
}
  0
DIMENSION
  5
10CA
330
1E
100
AcDbEntity
  8
BEM
100
AcDbDimension
  2
*D6
 10
786.029713355934
 20
358.5722238679418
 30
0.0
 11
441.3553262070634
 21
365.0722238679418
 31
0.0
 70
    32
  1
1000
 71
     5
 42
689.3487742977412
  3
Standard
100
AcDbAlignedDimension
 13
96.68093905819285
 23
386.1061175279291
 33
0.0
 14
786.029713355934
 24
382.1510506494852
 34
0.0
100
AcDbRotatedDimension
1001
ACAD
1000
DSTYLE
1002
{
1070
    40
1040
2.0
1070
    41
1040
3.5
1070
    42
1040
1.0
1070
    43
1040
7.0
1070
    44
1040
1.0
1070
    73
1070
     0
1070
    74
1070
     0
1070
    77
1070
     1
1070
    78
1070
     8
1070
    79
1070
     2
1070
   140
1040
3.5
1070
   141
1040
1.5
1070
   146
1040
0.5142857142857144
1070
   147
1040
1.5
1070
   172
1070
     1
1070
   178
1070
     1
1070
   179
1070
     2
1070
   271
1070
     2
1070
   272
1070
     2
1070
   284
1070
     8
1070
   285
1070
     8
1070
   286
1070
     8
1002
}
  0
LINE
  5
10ED
330
1E
100
AcDbEntity
  8
STEMPEL
100
AcDbLine
 10
393.7228486718039
 20
493.1283813418304
 30
0.0
 11
517.7228486718036
 21
493.1283813418305
 31
0.0
  0
ARC
  5
10F1
330
1E
100
AcDbEntity
  8
HILF
100
AcDbCircle
 10
455.7228486718034
 20
517.7491008235771
 30
0.0
 40
52.24678043765702
100
AcDbArc
 50
213.6424366335349
 51
326.3575633664651
  0
LINE
  5
10F2
330
1E
100
AcDbEntity
  8
STEMPEL
100
AcDbLine
 10
409.4289044170036
 20
489.106117527929
 30
0.0
 11
291.3367125460549
 21
489.1061175279291
 31
0.0
  0
LINE
  5
10F3
330
1E
100
AcDbEntity
  8
STEMPEL
100
AcDbLine
 10
409.3728486718037
 20
508.1318821931353
 30
0.0
 11
409.3728486718037
 21
510.5933100917579
 31
0.0
  0
ENDSEC
  0
SECTION
  2
OBJECTS
  0
DICTIONARY
  5
C
330
0
100
AcDbDictionary
281
     1
  3
ACAD_COLOR
350
11A
  3
ACAD_GROUP
350
D
  3
ACAD_LAYOUT
350
19
  3
ACAD_MATERIAL
350
119
  3
ACAD_MLINESTYLE
350
16
  3
ACAD_PLOTSETTINGS
350
18
  3
ACAD_PLOTSTYLENAME
350
E
  3
AcDbVariableDictionary
350
125
  0
DICTIONARY
  5
DB
330
1E
100
AcDbDictionary
280
     1
281
     1
  3
ACAD_LAYOUTSELFREF
360
10F
  0
DICTIONARY
  5
DD
330
1A
100
AcDbDictionary
280
     1
281
     1
  3
ACAD_LAYOUTSELFREF
360
10E
  0
DICTIONARY
  5
11A
102
{ACAD_REACTORS
330
C
102
}
330
C
100
AcDbDictionary
281
     1
  0
DICTIONARY
  5
D
102
{ACAD_REACTORS
330
C
102
}
330
C
100
AcDbDictionary
281
     1
  0
DICTIONARY
  5
19
102
{ACAD_REACTORS
330
C
102
}
330
C
100
AcDbDictionary
281
     1
  3
Layout1
350
1D
  3
Model
350
21
  0
DICTIONARY
  5
119
102
{ACAD_REACTORS
330
C
102
}
330
C
100
AcDbDictionary
281
     1
  0
DICTIONARY
  5
16
102
{ACAD_REACTORS
330
C
102
}
330
C
100
AcDbDictionary
281
     1
  3
Standard
350
17
  0
DICTIONARY
  5
18
102
{ACAD_REACTORS
330
C
102
}
330
C
100
AcDbDictionary
281
     1
  0
ACDBDICTIONARYWDFLT
  5
E
102
{ACAD_REACTORS
330
C
102
}
330
C
100
AcDbDictionary
281
     1
  3
Normal
350
F
100
AcDbDictionaryWithDefault
340
F
  0
DICTIONARY
  5
125
102
{ACAD_REACTORS
330
C
102
}
330
C
100
AcDbDictionary
281
     1
  3
DIMASSOC
350
126
  3
PROJECTNAME
350
127
  0
XRECORD
  5
10F
102
{ACAD_REACTORS
330
DB
102
}
330
DB
100
AcDbXrecord
280
     1
340
1E
  0
XRECORD
  5
10E
102
{ACAD_REACTORS
330
DD
102
}
330
DD
100
AcDbXrecord
280
     1
340
1A
  0
LAYOUT
  5
1D
102
{ACAD_REACTORS
330
19
102
}
330
19
100
AcDbPlotSettings
  1

  2
\\NT_WORK01\HP LaserJet 5000 PCL 6
  4

  6

 40
0.0
 41
0.0
 42
0.0
 43
0.0
 44
0.0
 45
0.0
 46
0.0
 47
0.0
 48
0.0
 49
0.0
140
0.0
141
0.0
142
1.0
143
1.0
 70
   688
 72
     0
 73
     0
 74
     5
  7

 75
    16
147
1.0
 76
     0
 77
     2
 78
   300
148
0.0
149
0.0
100
AcDbLayout
  1
Layout1
 70
     0
 71
     1
 10
0.0
 20
0.0
 11
12.0
 21
9.0
 12
0.0
 22
0.0
 32
0.0
 14
1.000000000000000E+20
 24
1.000000000000000E+20
 34
1.000000000000000E+20
 15
-1.000000000000000E+20
 25
-1.000000000000000E+20
 35
-1.000000000000000E+20
146
0.0
 13
0.0
 23
0.0
 33
0.0
 16
1.0
 26
0.0
 36
0.0
 17
0.0
 27
1.0
 37
0.0
 76
     0
330
1A
  0
LAYOUT
  5
21
102
{ACAD_REACTORS
330
19
102
}
330
19
100
AcDbPlotSettings
  1

  2
none_device
  4
Letter_(8.50_x_11.00_Inches)
  6

 40
6.349999904632568
 41
6.349999904632568
 42
6.350006103515625
 43
6.350006103515625
 44
215.8999938964844
 45
279.3999938964844
 46
0.0
 47
0.0
 48
0.0
 49
0.0
140
0.0
141
0.0
142
1.0
143
1.0
 70
 11952
 72
     0
 73
     1
 74
     0
  7

 75
     0
147
1.0
 76
     0
 77
     2
 78
   300
148
-3124.200000000001
149
0.0
100
AcDbLayout
  1
Model
 70
     1
 71
     0
 10
0.0
 20
0.0
 11
12.0
 21
9.0
 12
0.0
 22
0.0
 32
0.0
 14
0.0
 24
0.0
 34
0.0
 15
0.0
 25
0.0
 35
0.0
146
0.0
 13
0.0
 23
0.0
 33
0.0
 16
1.0
 26
0.0
 36
0.0
 17
0.0
 27
1.0
 37
0.0
 76
     0
330
1E
  0
MLINESTYLE
  5
17
102
{ACAD_REACTORS
330
16
102
}
330
16
100
AcDbMlineStyle
  2
STANDARD
 70
     0
  3

 62
   256
 51
90.0
 52
90.0
 71
     2
 49
0.5
 62
   256
  6
BYLAYER
 49
-0.5
 62
   256
  6
BYLAYER
  0
ACDBPLACEHOLDER
  5
F
102
{ACAD_REACTORS
330
E
102
}
330
E
  0
DICTIONARYVAR
  5
126
102
{ACAD_REACTORS
330
125
102
}
330
125
100
DictionaryVariables
280
     0
  1
1
  0
DICTIONARYVAR
  5
127
102
{ACAD_REACTORS
330
125
102
}
330
125
100
DictionaryVariables
280
     0
  1

  0
ENDSEC
  0
EOF
