  0
SECTION
  2
HEADER
  9
$ACADVER
  1
AC1018
  9
$ACADMAINTVER
 70
     2
  9
$DWGCODEPAGE
  3
ANSI_1252
  9
$INSBASE
 10
0.0
 20
0.0
 30
0.0
  9
$EXTMIN
 10
-0.038441977687171
 20
-0.0271839699360044
 30
-0.0000000000000058
  9
$EXTMAX
 10
840.038457624743
 20
594.0271950346393
 30
0.0000000000000104
  9
$LIMMIN
 10
0.0
 20
0.0
  9
$LIMMAX
 10
840.0
 20
594.0
  9
$ORTHOMODE
 70
     1
  9
$REGENMODE
 70
     1
  9
$FILLMODE
 70
     1
  9
$QTEXTMODE
 70
     0
  9
$MIRRTEXT
 70
     1
  9
$LTSCALE
 40
20.0
  9
$ATTMODE
 70
     1
  9
$TEXTSIZE
 40
3.5
  9
$TRACEWID
 40
1.0
  9
$TEXTSTYLE
  7
STANDARD
  9
$CLAYER
  8
VOLL
  9
$CELTYPE
  6
ByLayer
  9
$CECOLOR
 62
   256
  9
$CELTSCALE
 40
1.0
  9
$DISPSILH
 70
     0
  9
$DIMSCALE
 40
2.0
  9
$DIMASZ
 40
3.5
  9
$DIMEXO
 40
1.0
  9
$DIMDLI
 40
7.0
  9
$DIMRND
 40
0.0
  9
$DIMDLE
 40
0.0
  9
$DIMEXE
 40
1.0
  9
$DIMTP
 40
0.0
  9
$DIMTM
 40
0.0
  9
$DIMTXT
 40
3.5
  9
$DIMCEN
 40
1.5
  9
$DIMTSZ
 40
0.0
  9
$DIMTOL
 70
     0
  9
$DIMLIM
 70
     0
  9
$DIMTIH
 70
     0
  9
$DIMTOH
 70
     0
  9
$DIMSE1
 70
     0
  9
$DIMSE2
 70
     0
  9
$DIMTAD
 70
     1
  9
$DIMZIN
 70
     8
  9
$DIMBLK
  1

  9
$DIMASO
 70
     1
  9
$DIMSHO
 70
     0
  9
$DIMPOST
  1

  9
$DIMAPOST
  1

  9
$DIMALT
 70
     0
  9
$DIMALTD
 70
     2
  9
$DIMALTF
 40
25.4
  9
$DIMLFAC
 40
1.0
  9
$DIMTOFL
 70
     1
  9
$DIMTVP
 40
0.0
  9
$DIMTIX
 70
     0
  9
$DIMSOXD
 70
     0
  9
$DIMSAH
 70
     0
  9
$DIMBLK1
  1

  9
$DIMBLK2
  1

  9
$DIMSTYLE
  2
Standard
  9
$DIMCLRD
 70
     0
  9
$DIMCLRE
 70
     0
  9
$DIMCLRT
 70
     1
  9
$DIMTFAC
 40
0.5142857142857144
  9
$DIMGAP
 40
1.5
  9
$DIMJUST
 70
     0
  9
$DIMSD1
 70
     0
  9
$DIMSD2
 70
     0
  9
$DIMTOLJ
 70
     1
  9
$DIMTZIN
 70
     8
  9
$DIMALTZ
 70
     8
  9
$DIMALTTZ
 70
     8
  9
$DIMUPT
 70
     0
  9
$DIMDEC
 70
     2
  9
$DIMTDEC
 70
     2
  9
$DIMALTU
 70
     2
  9
$DIMALTTD
 70
     2
  9
$DIMTXSTY
  7
STANDARD
  9
$DIMAUNIT
 70
     0
  9
$DIMADEC
 70
     2
  9
$DIMALTRND
 40
0.0
  9
$DIMAZIN
 70
     2
  9
$DIMDSEP
 70
    46
  9
$DIMATFIT
 70
     3
  9
$DIMFRAC
 70
     0
  9
$DIMLDRBLK
  1

  9
$DIMLUNIT
 70
     2
  9
$DIMLWD
 70
    -2
  9
$DIMLWE
 70
    -2
  9
$DIMTMOVE
 70
     0
  9
$LUNITS
 70
     2
  9
$LUPREC
 70
     2
  9
$SKETCHINC
 40
1.0
  9
$FILLETRAD
 40
0.0
  9
$AUNITS
 70
     0
  9
$AUPREC
 70
     0
  9
$MENU
  1
ACAD
  9
$ELEVATION
 40
0.0
  9
$PELEVATION
 40
0.0
  9
$THICKNESS
 40
0.0
  9
$LIMCHECK
 70
     0
  9
$CHAMFERA
 40
0.0
  9
$CHAMFERB
 40
0.0
  9
$CHAMFERC
 40
0.0
  9
$CHAMFERD
 40
0.0
  9
$SKPOLY
 70
     0
  9
$TDCREATE
 40
2455397.867059838
  9
$TDUCREATE
 40
2455397.783726505
  9
$TDUPDATE
 40
2455443.403471215
  9
$TDUUPDATE
 40
2455443.320137882
  9
$TDINDWG
 40
0.0712657292
  9
$TDUSRTIMER
 40
0.0712657292
  9
$USRTIMER
 70
     1
  9
$ANGBASE
 50
0.0
  9
$ANGDIR
 70
     0
  9
$PDMODE
 70
     0
  9
$PDSIZE
 40
0.0
  9
$PLINEWID
 40
0.0
  9
$SPLFRAME
 70
     0
  9
$SPLINETYPE
 70
     6
  9
$SPLINESEGS
 70
     8
  9
$HANDSEED
  5
98F
  9
$SURFTAB1
 70
     6
  9
$SURFTAB2
 70
     6
  9
$SURFTYPE
 70
     6
  9
$SURFU
 70
     6
  9
$SURFV
 70
     6
  9
$UCSBASE
  2

  9
$UCSNAME
  2

  9
$UCSORG
 10
0.0
 20
0.0
 30
0.0
  9
$UCSXDIR
 10
1.0
 20
0.0
 30
0.0
  9
$UCSYDIR
 10
0.0
 20
1.0
 30
0.0
  9
$UCSORTHOREF
  2

  9
$UCSORTHOVIEW
 70
     0
  9
$UCSORGTOP
 10
0.0
 20
0.0
 30
0.0
  9
$UCSORGBOTTOM
 10
0.0
 20
0.0
 30
0.0
  9
$UCSORGLEFT
 10
0.0
 20
0.0
 30
0.0
  9
$UCSORGRIGHT
 10
0.0
 20
0.0
 30
0.0
  9
$UCSORGFRONT
 10
0.0
 20
0.0
 30
0.0
  9
$UCSORGBACK
 10
0.0
 20
0.0
 30
0.0
  9
$PUCSBASE
  2

  9
$PUCSNAME
  2

  9
$PUCSORG
 10
0.0
 20
0.0
 30
0.0
  9
$PUCSXDIR
 10
1.0
 20
0.0
 30
0.0
  9
$PUCSYDIR
 10
0.0
 20
1.0
 30
0.0
  9
$PUCSORTHOREF
  2

  9
$PUCSORTHOVIEW
 70
     0
  9
$PUCSORGTOP
 10
0.0
 20
0.0
 30
0.0
  9
$PUCSORGBOTTOM
 10
0.0
 20
0.0
 30
0.0
  9
$PUCSORGLEFT
 10
0.0
 20
0.0
 30
0.0
  9
$PUCSORGRIGHT
 10
0.0
 20
0.0
 30
0.0
  9
$PUCSORGFRONT
 10
0.0
 20
0.0
 30
0.0
  9
$PUCSORGBACK
 10
0.0
 20
0.0
 30
0.0
  9
$USERI1
 70
     0
  9
$USERI2
 70
     0
  9
$USERI3
 70
     0
  9
$USERI4
 70
     0
  9
$USERI5
 70
     0
  9
$USERR1
 40
0.0
  9
$USERR2
 40
0.0
  9
$USERR3
 40
0.0
  9
$USERR4
 40
0.0
  9
$USERR5
 40
0.0
  9
$WORLDVIEW
 70
     1
  9
$SHADEDGE
 70
     3
  9
$SHADEDIF
 70
    70
  9
$TILEMODE
 70
     1
  9
$MAXACTVP
 70
    16
  9
$PINSBASE
 10
0.0
 20
0.0
 30
0.0
  9
$PLIMCHECK
 70
     0
  9
$PEXTMIN
 10
1.000000000000000E+20
 20
1.000000000000000E+20
 30
1.000000000000000E+20
  9
$PEXTMAX
 10
-1.000000000000000E+20
 20
-1.000000000000000E+20
 30
-1.000000000000000E+20
  9
$PLIMMIN
 10
0.0
 20
0.0
  9
$PLIMMAX
 10
12.0
 20
9.0
  9
$UNITMODE
 70
     0
  9
$VISRETAIN
 70
     0
  9
$PLINEGEN
 70
     0
  9
$PSLTSCALE
 70
     0
  9
$TREEDEPTH
 70
  3020
  9
$CMLSTYLE
  2
Standard
  9
$CMLJUST
 70
     0
  9
$CMLSCALE
 40
1.0
  9
$PROXYGRAPHICS
 70
     1
  9
$MEASUREMENT
 70
     0
  9
$CELWEIGHT
370
    -1
  9
$ENDCAPS
280
     0
  9
$JOINSTYLE
280
     0
  9
$LWDISPLAY
290
     0
  9
$INSUNITS
 70
     0
  9
$HYPERLINKBASE
  1

  9
$STYLESHEET
  1
monochrome 1.ctb
  9
$XEDIT
290
     1
  9
$CEPSNTYPE
380
     0
  9
$PSTYLEMODE
290
     1
  9
$FINGERPRINTGUID
  2
{D68B0D0D-A558-11D7-B632-000102183313}
  9
$VERSIONGUID
  2
{C4036297-D6B6-4A37-A204-0048C4A4E066}
  9
$EXTNAMES
290
     1
  9
$PSVPSCALE
 40
0.0
  9
$OLESTARTUP
290
     0
  9
$SORTENTS
280
   127
  9
$INDEXCTL
280
     0
  9
$HIDETEXT
280
     0
  9
$XCLIPFRAME
290
     0
  9
$HALOGAP
280
     0
  9
$OBSCOLOR
 70
   257
  9
$OBSLTYPE
280
     0
  9
$INTERSECTIONDISPLAY
280
     0
  9
$INTERSECTIONCOLOR
 70
   257
  9
$DIMASSOC
280
     1
  9
$PROJECTNAME
  1

  0
ENDSEC
  0
SECTION
  2
CLASSES
  0
CLASS
  1
ACDBDICTIONARYWDFLT
  2
AcDbDictionaryWithDefault
  3
ObjectDBX Classes
 90
        0
 91
        1
280
     0
281
     0
  0
CLASS
  1
DICTIONARYVAR
  2
AcDbDictionaryVar
  3
ObjectDBX Classes
 90
        0
 91
        2
280
     0
281
     0
  0
ENDSEC
  0
SECTION
  2
TABLES
  0
TABLE
  2
VPORT
  5
8
330
0
100
AcDbSymbolTable
 70
     2
  0
VPORT
  5
98E
330
8
100
AcDbSymbolTableRecord
100
AcDbViewportTableRecord
  2
*Active
 70
     0
 10
0.0
 20
0.0
 11
1.0
 21
1.0
 12
420.0000078235278
 22
297.0000055323516
 13
0.0
 23
0.0
 14
1.0
 24
1.0
 15
10.0
 25
10.0
 16
0.0
 26
0.0
 36
1.0
 17
0.0
 27
0.0
 37
0.0
 40
632.1594446179592
 41
1.336927223719676
 42
50.0
 43
0.0
 44
0.0
 50
0.0
 51
0.0
 71
     0
 72
  1500
 73
     1
 74
     0
 75
     0
 76
     0
 77
     0
 78
     0
281
     0
 65
     1
110
0.0
120
0.0
130
0.0
111
1.0
121
0.0
131
0.0
112
0.0
122
1.0
132
0.0
 79
     0
146
0.0
  0
ENDTAB
  0
TABLE
  2
LTYPE
  5
5
330
0
100
AcDbSymbolTable
 70
     2
  0
LTYPE
  5
13
330
5
100
AcDbSymbolTableRecord
100
AcDbLinetypeTableRecord
  2
ByBlock
 70
     0
  3

 72
    65
 73
     0
 40
0.0
  0
LTYPE
  5
14
330
5
100
AcDbSymbolTableRecord
100
AcDbLinetypeTableRecord
  2
ByLayer
 70
     0
  3

 72
    65
 73
     0
 40
0.0
  0
LTYPE
  5
15
330
5
100
AcDbSymbolTableRecord
100
AcDbLinetypeTableRecord
  2
Continuous
 70
     0
  3
Solid line
 72
    65
 73
     0
 40
0.0
  0
LTYPE
  5
25
330
5
100
AcDbSymbolTableRecord
100
AcDbLinetypeTableRecord
  2
STRICHPUNKT
 70
     0
  3
__ . __ . __ . __ . __ . __ . __ . __ . __ . __
 72
    65
 73
     4
 40
1.0
 49
0.5
 74
     0
 49
-0.25
 74
     0
 49
0.0
 74
     0
 49
-0.25
 74
     0
  0
ENDTAB
  0
TABLE
  2
LAYER
  5
2
330
0
100
AcDbSymbolTable
 70
     8
  0
LAYER
  5
10
330
2
100
AcDbSymbolTableRecord
100
AcDbLayerTableRecord
  2
0
 70
     0
 62
     7
  6
Continuous
370
    -3
390
F
  0
LAYER
  5
2B
330
2
100
AcDbSymbolTableRecord
100
AcDbLayerTableRecord
  2
VOLL
 70
     0
 62
     1
  6
Continuous
370
    -3
390
F
  0
LAYER
  5
2C
330
2
100
AcDbSymbolTableRecord
100
AcDbLayerTableRecord
  2
HILF
 70
     0
 62
     2
  6
Continuous
370
    -3
390
F
  0
LAYER
  5
2D
330
2
100
AcDbSymbolTableRecord
100
AcDbLayerTableRecord
  2
MITTEL
 70
     0
 62
     2
  6
STRICHPUNKT
370
    -3
390
F
  0
LAYER
  5
2F
330
2
100
AcDbSymbolTableRecord
100
AcDbLayerTableRecord
  2
BEM
 70
     0
 62
     7
  6
Continuous
370
    -3
390
F
  0
LAYER
  5
30
330
2
100
AcDbSymbolTableRecord
100
AcDbLayerTableRecord
  2
STEMPEL
 70
     0
 62
     3
  6
Continuous
370
    -3
390
F
  0
LAYER
  5
33
330
2
100
AcDbSymbolTableRecord
100
AcDbLayerTableRecord
  2
TEXT
 70
     0
 62
     7
  6
Continuous
370
    -3
390
F
  0
LAYER
  5
1E9
330
2
100
AcDbSymbolTableRecord
100
AcDbLayerTableRecord
  2
Defpoints
 70
     0
 62
     7
  6
Continuous
290
     0
370
    -3
390
F
  0
ENDTAB
  0
TABLE
  2
STYLE
  5
3
330
0
100
AcDbSymbolTable
 70
     2
  0
STYLE
  5
11
330
3
100
AcDbSymbolTableRecord
100
AcDbTextStyleTableRecord
  2
STANDARD
 70
     0
 40
0.0
 41
0.8
 50
0.0
 71
     0
 42
3.5
  3
simplex.shx
  4

  0
STYLE
  5
24
330
3
100
AcDbSymbolTableRecord
100
AcDbTextStyleTableRecord
  2
GREEKS
 70
     0
 40
0.0
 41
0.8
 50
0.0
 71
     0
 42
2.5
  3
SIMPLEX.shx
  4

  0
ENDTAB
  0
TABLE
  2
VIEW
  5
6
330
0
100
AcDbSymbolTable
 70
     0
  0
ENDTAB
  0
TABLE
  2
UCS
  5
7
330
0
100
AcDbSymbolTable
 70
     0
  0
ENDTAB
  0
TABLE
  2
APPID
  5
9
330
0
100
AcDbSymbolTable
 70
     1
  0
APPID
  5
12
330
9
100
AcDbSymbolTableRecord
100
AcDbRegAppTableRecord
  2
ACAD
 70
     0
  0
ENDTAB
  0
TABLE
  2
DIMSTYLE
  5
A
330
0
100
AcDbSymbolTable
 70
     1
100
AcDbDimStyleTable
 71
     1
340
A2
  0
DIMSTYLE
105
A2
102
{ACAD_REACTORS
330
28A
330
28B
330
4A6
330
6A4
330
6AC
330
6AD
102
}
330
A
100
AcDbSymbolTableRecord
100
AcDbDimStyleTableRecord
  2
Standard
 70
     0
340
11
  0
ENDTAB
  0
TABLE
  2
BLOCK_RECORD
  5
1
330
0
100
AcDbSymbolTable
 70
     8
  0
BLOCK_RECORD
  5
1E
102
{ACAD_XDICTIONARY
360
DB
102
}
330
1
100
AcDbSymbolTableRecord
100
AcDbBlockTableRecord
  2
*Model_Space
340
21
  0
BLOCK_RECORD
  5
1A
102
{ACAD_XDICTIONARY
360
DD
102
}
330
1
100
AcDbSymbolTableRecord
100
AcDbBlockTableRecord
  2
*Paper_Space
340
1D
  0
BLOCK_RECORD
  5
22
330
1
100
AcDbSymbolTableRecord
100
AcDbBlockTableRecord
  2
LOGO
340
0
102
{BLKREFS
331
56
102
}
  0
BLOCK_RECORD
  5
23
330
1
100
AcDbSymbolTableRecord
100
AcDbBlockTableRecord
  2
LORO
340
0
102
{BLKREFS
331
9B
102
}
  0
BLOCK_RECORD
  5
304
330
1
100
AcDbSymbolTableRecord
100
AcDbBlockTableRecord
  2
*D2
340
0
  0
BLOCK_RECORD
  5
310
330
1
100
AcDbSymbolTableRecord
100
AcDbBlockTableRecord
  2
*D3
340
0
  0
BLOCK_RECORD
  5
4A7
330
1
100
AcDbSymbolTableRecord
100
AcDbBlockTableRecord
  2
*D4
340
0
  0
BLOCK_RECORD
  5
6B0
330
1
100
AcDbSymbolTableRecord
100
AcDbBlockTableRecord
  2
*D5
340
0
  0
BLOCK_RECORD
  5
6BC
330
1
100
AcDbSymbolTableRecord
100
AcDbBlockTableRecord
  2
*D6
340
0
  0
BLOCK_RECORD
  5
6C8
330
1
100
AcDbSymbolTableRecord
100
AcDbBlockTableRecord
  2
*D7
340
0
  0
ENDTAB
  0
ENDSEC
  0
SECTION
  2
BLOCKS
  0
BLOCK
  5
37
330
1E
100
AcDbEntity
  8
0
100
AcDbBlockBegin
  2
*Model_Space
 70
     0
 10
0.0
 20
0.0
 30
0.0
  3
*Model_Space
  1

  0
ENDBLK
  5
38
330
1E
100
AcDbEntity
  8
0
100
AcDbBlockEnd
  0
BLOCK
  5
35
330
1A
100
AcDbEntity
 67
     1
  8
0
100
AcDbBlockBegin
  2
*Paper_Space
 70
     0
 10
0.0
 20
0.0
 30
0.0
  3
*Paper_Space
  1

  0
ENDBLK
  5
36
330
1A
100
AcDbEntity
 67
     1
  8
0
100
AcDbBlockEnd
  0
BLOCK
  5
39
330
22
100
AcDbEntity
  8
0
100
AcDbBlockBegin
  2
LOGO
 70
     0
 10
0.0
 20
0.0
 30
0.0
  3
LOGO
  1

  0
ARC
  5
3A
330
22
100
AcDbEntity
  8
0
100
AcDbCircle
 10
11.59973089678112
 20
-9.271599258481501
 30
0.0
 40
4.5
100
AcDbArc
 50
270.0
 51
231.0575587310159
  0
LINE
  5
3B
330
22
100
AcDbEntity
  8
0
100
AcDbLine
 10
3.599730896781125
 20
-4.771599258481529
 30
0.0
 11
3.599730896781153
 21
-11.77159925848133
 31
0.0
  0
LINE
  5
3C
330
22
100
AcDbEntity
  8
0
100
AcDbLine
 10
2.599730896781125
 20
-4.771599258481529
 30
0.0
 11
2.599730896781153
 21
-11.77159925848133
 31
0.0
  0
CIRCLE
  5
3D
330
22
100
AcDbEntity
  8
0
100
AcDbCircle
 10
11.59973089678112
 20
-9.271599258481501
 30
0.0
 40
3.5
  0
ARC
  5
3E
330
22
100
AcDbEntity
  8
0
100
AcDbCircle
 10
31.59973089678115
 20
-9.271599258481472
 30
0.0
 40
4.5
100
AcDbArc
 50
270.0
 51
231.0575587310182
  0
LINE
  5
3F
330
22
100
AcDbEntity
  8
0
100
AcDbLine
 10
17.59973089678112
 20
-4.771599258481472
 30
0.0
 11
17.59973089678115
 21
-13.77159925848147
 31
0.0
  0
ARC
  5
40
330
22
100
AcDbEntity
  8
0
100
AcDbCircle
 10
22.59973089678116
 20
-7.271599258481472
 30
0.0
 40
2.5
100
AcDbArc
 50
293.1161887722295
 51
90.0
  0
CIRCLE
  5
41
330
22
100
AcDbEntity
  8
0
100
AcDbCircle
 10
31.59973089678115
 20
-9.271599258481472
 30
0.0
 40
3.5
  0
ARC
  5
42
330
22
100
AcDbEntity
  8
0
100
AcDbCircle
 10
4.599730896781153
 20
-11.77159925848133
 30
0.0
 40
1.0
100
AcDbArc
 50
180.0
 51
270.0
  0
ARC
  5
43
330
22
100
AcDbEntity
  8
0
100
AcDbCircle
 10
4.599730896781153
 20
-11.77159925848133
 30
0.0
 40
2.0
100
AcDbArc
 50
179.9999999999992
 51
270.0
  0
LINE
  5
44
330
22
100
AcDbEntity
  8
0
100
AcDbLine
 10
11.59973089678115
 20
-13.77159925848144
 30
0.0
 11
4.599730896781153
 21
-13.77159925848147
 31
0.0
  0
LINE
  5
45
330
22
100
AcDbEntity
  8
0
100
AcDbLine
 10
8.771303772034769
 20
-12.77159925848136
 30
0.0
 11
4.599730896781153
 21
-12.77159925848133
 31
0.0
  0
LINE
  5
46
330
22
100
AcDbEntity
  8
0
100
AcDbLine
 10
31.59973089678115
 20
-13.77159925848147
 30
0.0
 11
23.6715276665056
 21
-13.77159925848144
 31
0.0
  0
LINE
  5
47
330
22
100
AcDbEntity
  8
0
100
AcDbLine
 10
23.56565672307022
 20
-9.51278021337896
 30
0.0
 11
24.4388546544846
 21
-12.77159925848144
 31
0.0
  0
LINE
  5
48
330
22
100
AcDbEntity
  8
0
100
AcDbLine
 10
22.59973089678116
 20
-9.771599258481472
 30
0.0
 11
18.59973089678112
 21
-9.771599258481472
 31
0.0
  0
LINE
  5
49
330
22
100
AcDbEntity
  8
0
100
AcDbLine
 10
18.59973089678115
 20
-13.77159925848144
 30
0.0
 11
17.59973089678115
 21
-13.77159925848144
 31
0.0
  0
LINE
  5
4A
330
22
100
AcDbEntity
  8
0
100
AcDbLine
 10
18.59973089678115
 20
-9.771599258481472
 30
0.0
 11
18.59973089678115
 21
-13.77159925848144
 31
0.0
  0
LINE
  5
4B
330
22
100
AcDbEntity
  8
0
100
AcDbLine
 10
22.59973089678116
 20
-9.771599258481472
 30
0.0
 11
23.67152766650562
 21
-13.77159925848147
 31
0.0
  0
ARC
  5
4C
330
22
100
AcDbEntity
  8
0
100
AcDbCircle
 10
22.59973089678116
 20
-7.271599258481472
 30
0.0
 40
2.5
100
AcDbArc
 50
270.0
 51
270.0000000000007
  0
LINE
  5
4D
330
22
100
AcDbEntity
  8
0
100
AcDbLine
 10
28.77130377203494
 20
-12.77159925848147
 30
0.0
 11
24.43885465448463
 21
-12.77159925848144
 31
0.0
  0
LINE
  5
4E
330
22
100
AcDbEntity
  8
0
100
AcDbLine
 10
3.599730896781125
 20
-4.771599258481472
 30
0.0
 11
2.599730896781125
 21
-4.771599258481472
 31
0.0
  0
LINE
  5
4F
330
22
100
AcDbEntity
  8
0
100
AcDbLine
 10
22.59973089678116
 20
-8.771599258481472
 30
0.0
 11
18.59973089678115
 21
-8.771599258481472
 31
0.0
  0
LINE
  5
50
330
22
100
AcDbEntity
  8
0
100
AcDbLine
 10
22.59973089678116
 20
-5.771599258481472
 30
0.0
 11
18.59973089678115
 21
-5.771599258481472
 31
0.0
  0
LINE
  5
51
330
22
100
AcDbEntity
  8
0
100
AcDbLine
 10
22.59973089678116
 20
-4.771599258481472
 30
0.0
 11
17.59973089678115
 21
-4.771599258481472
 31
0.0
  0
LINE
  5
52
330
22
100
AcDbEntity
  8
0
100
AcDbLine
 10
18.59973089678115
 20
-5.771599258481472
 30
0.0
 11
18.59973089678115
 21
-8.771599258481472
 31
0.0
  0
ARC
  5
53
330
22
100
AcDbEntity
  8
0
100
AcDbCircle
 10
22.59973089678116
 20
-7.271599258481472
 30
0.0
 40
1.5
100
AcDbArc
 50
270.0
 51
90.0
  0
ENDBLK
  5
54
330
22
100
AcDbEntity
  8
0
100
AcDbBlockEnd
  0
BLOCK
  5
55
330
23
100
AcDbEntity
  8
0
100
AcDbBlockBegin
  2
LORO
 70
     0
 10
0.0
 20
0.0
 30
0.0
  3
LORO
  1

  0
INSERT
  5
56
330
23
100
AcDbEntity
  8
STEMPEL
100
AcDbBlockReference
  2
LOGO
 10
-1.748032802467321
 20
3.771489518552062
 30
0.0
  0
ENDBLK
  5
57
330
23
100
AcDbEntity
  8
0
100
AcDbBlockEnd
  0
BLOCK
  5
30E
330
304
100
AcDbEntity
  8
0
100
AcDbBlockBegin
  2
*D2
 70
     1
 10
0.0
 20
0.0
 30
0.0
  3
*D2
  1

  0
LINE
  5
812
330
304
100
AcDbEntity
  8
BEM
 62
     0
370
    -2
100
AcDbLine
 10
102.1568451835616
 20
190.5774764856086
 30
0.0
 11
102.1568451835616
 21
175.2797035215613
 31
0.0
  0
LINE
  5
813
330
304
100
AcDbEntity
  8
BEM
 62
     0
370
    -2
100
AcDbLine
 10
502.1554782619293
 20
187.5774764856087
 30
0.0
 11
502.1554782619293
 21
175.2797035215613
 31
0.0
  0
LINE
  5
814
330
304
100
AcDbEntity
  8
BEM
 62
     0
370
    -2
100
AcDbLine
 10
109.1568451835616
 20
177.2797035215613
 30
0.0
 11
495.1554782619293
 21
177.2797035215613
 31
0.0
  0
SOLID
  5
815
330
304
100
AcDbEntity
  8
BEM
 62
     0
100
AcDbTrace
 10
109.1568451835616
 20
178.446370188228
 30
0.0
 11
109.1568451835616
 21
176.1130368548947
 31
0.0
 12
102.1568451835616
 22
177.2797035215613
 32
0.0
 13
102.1568451835616
 23
177.2797035215613
 33
0.0
  0
SOLID
  5
816
330
304
100
AcDbEntity
  8
BEM
 62
     0
100
AcDbTrace
 10
495.1554782619293
 20
178.446370188228
 30
0.0
 11
495.1554782619293
 21
176.1130368548947
 31
0.0
 12
502.1554782619293
 22
177.2797035215613
 32
0.0
 13
502.1554782619293
 23
177.2797035215613
 33
0.0
  0
MTEXT
  5
817
330
304
100
AcDbEntity
  8
BEM
 62
     1
100
AcDbMText
 10
302.1561617227454
 20
183.7797035215613
 30
0.0
 40
7.0
 41
0.0
 71
     5
 72
     1
  1
\A1;620
 73
     1
 44
1.0
  0
POINT
  5
818
330
304
100
AcDbEntity
  8
Defpoints
 62
     0
100
AcDbPoint
 10
102.1568451835616
 20
192.5774764856086
 30
0.0
  0
POINT
  5
819
330
304
100
AcDbEntity
  8
Defpoints
 62
     0
100
AcDbPoint
 10
502.1554782619293
 20
189.5774764856087
 30
0.0
  0
POINT
  5
81A
330
304
100
AcDbEntity
  8
Defpoints
 62
     0
100
AcDbPoint
 10
502.1554782619293
 20
177.2797035215613
 30
0.0
  0
ENDBLK
  5
30F
330
304
100
AcDbEntity
  8
0
100
AcDbBlockEnd
  0
BLOCK
  5
31A
330
310
100
AcDbEntity
  8
0
100
AcDbBlockBegin
  2
*D3
 70
     1
 10
0.0
 20
0.0
 30
0.0
  3
*D3
  1

  0
LINE
  5
782
330
310
100
AcDbEntity
  8
BEM
 62
     0
370
    -2
100
AcDbLine
 10
102.1568451835618
 20
384.0538764600911
 30
0.0
 11
102.1568451835618
 21
351.5162941925965
 31
0.0
  0
LINE
  5
783
330
310
100
AcDbEntity
  8
BEM
 62
     0
370
    -2
100
AcDbLine
 10
802.1527805208155
 20
387.2884717897507
 30
0.0
 11
802.1527805208155
 21
351.5162941925965
 31
0.0
  0
LINE
  5
784
330
310
100
AcDbEntity
  8
BEM
 62
     0
370
    -2
100
AcDbLine
 10
109.1568451835619
 20
353.5162941925965
 30
0.0
 11
795.1527805208154
 21
353.5162941925965
 31
0.0
  0
SOLID
  5
785
330
310
100
AcDbEntity
  8
BEM
 62
     0
100
AcDbTrace
 10
109.1568451835619
 20
354.6829608592632
 30
0.0
 11
109.1568451835619
 21
352.3496275259299
 31
0.0
 12
102.1568451835618
 22
353.5162941925965
 32
0.0
 13
102.1568451835618
 23
353.5162941925965
 33
0.0
  0
SOLID
  5
786
330
310
100
AcDbEntity
  8
BEM
 62
     0
100
AcDbTrace
 10
795.1527805208154
 20
354.6829608592632
 30
0.0
 11
795.1527805208154
 21
352.3496275259299
 31
0.0
 12
802.1527805208155
 22
353.5162941925965
 32
0.0
 13
802.1527805208155
 23
353.5162941925965
 33
0.0
  0
MTEXT
  5
787
330
310
100
AcDbEntity
  8
BEM
 62
     1
100
AcDbMText
 10
453.2782334249325
 20
360.0162941925966
 30
0.0
 40
7.0
 41
0.0
 71
     5
 72
     1
  1
\A1;1000
 73
     1
 44
1.0
  0
POINT
  5
788
330
310
100
AcDbEntity
  8
Defpoints
 62
     0
100
AcDbPoint
 10
102.1568451835618
 20
386.0538764600911
 30
0.0
  0
POINT
  5
789
330
310
100
AcDbEntity
  8
Defpoints
 62
     0
100
AcDbPoint
 10
802.1527805208155
 20
389.2884717897507
 30
0.0
  0
POINT
  5
78A
330
310
100
AcDbEntity
  8
Defpoints
 62
     0
100
AcDbPoint
 10
802.1527805208155
 20
353.5162941925965
 30
0.0
  0
ENDBLK
  5
31B
330
310
100
AcDbEntity
  8
0
100
AcDbBlockEnd
  0
BLOCK
  5
4B1
330
4A7
100
AcDbEntity
  8
0
100
AcDbBlockBegin
  2
*D4
 70
     1
 10
0.0
 20
0.0
 30
0.0
  3
*D4
  1

  0
LINE
  5
524
330
4A7
100
AcDbEntity
  8
BEM
 62
     0
370
    -2
100
AcDbLine
 10
802.1527805208155
 20
193.8120718152682
 30
0.0
 11
802.1527805208155
 21
174.926733201511
 31
0.0
  0
LINE
  5
525
330
4A7
100
AcDbEntity
  8
BEM
 62
     0
370
    -2
100
AcDbLine
 10
672.1527805208155
 20
195.2554604625733
 30
0.0
 11
672.1527805208155
 21
174.926733201511
 31
0.0
  0
LINE
  5
526
330
4A7
100
AcDbEntity
  8
BEM
 62
     0
370
    -2
100
AcDbLine
 10
795.1527805208154
 20
176.926733201511
 30
0.0
 11
679.1527805208155
 21
176.926733201511
 31
0.0
  0
SOLID
  5
527
330
4A7
100
AcDbEntity
  8
BEM
 62
     0
100
AcDbTrace
 10
795.1527805208154
 20
178.0933998681777
 30
0.0
 11
795.1527805208154
 21
175.7600665348444
 31
0.0
 12
802.1527805208155
 22
176.926733201511
 32
0.0
 13
802.1527805208155
 23
176.926733201511
 33
0.0
  0
SOLID
  5
528
330
4A7
100
AcDbEntity
  8
BEM
 62
     0
100
AcDbTrace
 10
679.1527805208155
 20
178.0933998681777
 30
0.0
 11
679.1527805208155
 21
175.7600665348444
 31
0.0
 12
672.1527805208155
 22
176.926733201511
 32
0.0
 13
672.1527805208155
 23
176.926733201511
 33
0.0
  0
MTEXT
  5
529
330
4A7
100
AcDbEntity
  8
BEM
 62
     1
100
AcDbMText
 10
737.1527805208154
 20
183.4267332015111
 30
0.0
 40
7.0
 41
0.0
 71
     5
 72
     1
  1
\A1;130
 73
     1
 44
1.0
  0
POINT
  5
52A
330
4A7
100
AcDbEntity
  8
Defpoints
 62
     0
100
AcDbPoint
 10
802.1527805208155
 20
195.8120718152683
 30
0.0
  0
POINT
  5
52B
330
4A7
100
AcDbEntity
  8
Defpoints
 62
     0
100
AcDbPoint
 10
672.1527805208155
 20
197.2554604625734
 30
0.0
  0
POINT
  5
52C
330
4A7
100
AcDbEntity
  8
Defpoints
 62
     0
100
AcDbPoint
 10
672.1527805208155
 20
176.926733201511
 30
0.0
  0
ENDBLK
  5
4B2
330
4A7
100
AcDbEntity
  8
0
100
AcDbBlockEnd
  0
BLOCK
  5
6BA
330
6B0
100
AcDbEntity
  8
0
100
AcDbBlockBegin
  2
*D5
 70
     1
 10
0.0
 20
0.0
 30
0.0
  3
*D5
  1

  0
LINE
  5
701
330
6B0
100
AcDbEntity
  8
BEM
 62
     0
370
    -2
100
AcDbLine
 10
191.5809128892188
 20
392.5538764600912
 30
0.0
 11
85.66392519923354
 21
392.5538764600913
 31
0.0
  0
LINE
  5
702
330
6B0
100
AcDbEntity
  8
BEM
 62
     0
370
    -2
100
AcDbLine
 10
191.5809128892188
 20
481.5538764600909
 30
0.0
 11
85.66392519923358
 21
481.553876460091
 31
0.0
  0
LINE
  5
703
330
6B0
100
AcDbEntity
  8
BEM
 62
     0
370
    -2
100
AcDbLine
 10
87.66392519923355
 20
399.5538764600913
 30
0.0
 11
87.66392519923355
 21
474.553876460091
 31
0.0
  0
SOLID
  5
704
330
6B0
100
AcDbEntity
  8
BEM
 62
     0
100
AcDbTrace
 10
86.49725853256688
 20
399.5538764600913
 30
0.0
 11
88.83059186590022
 21
399.5538764600913
 31
0.0
 12
87.66392519923355
 22
392.5538764600913
 32
0.0
 13
87.66392519923355
 23
392.5538764600913
 33
0.0
  0
SOLID
  5
705
330
6B0
100
AcDbEntity
  8
BEM
 62
     0
100
AcDbTrace
 10
86.49725853256688
 20
474.553876460091
 30
0.0
 11
88.83059186590022
 21
474.553876460091
 31
0.0
 12
87.66392519923357
 22
481.553876460091
 32
0.0
 13
87.66392519923357
 23
481.553876460091
 33
0.0
  0
MTEXT
  5
706
330
6B0
100
AcDbEntity
  8
BEM
 62
     1
100
AcDbMText
 10
81.16392519923349
 20
437.0538764600911
 30
0.0
 40
7.0
 41
0.0
 71
     5
 72
     1
  1
\A1;%%c89
 11
0.0000000000000001
 21
1.0
 31
0.0
 73
     1
 44
1.0
  0
POINT
  5
707
330
6B0
100
AcDbEntity
  8
Defpoints
 62
     0
100
AcDbPoint
 10
193.5809128892188
 20
392.5538764600912
 30
0.0
  0
POINT
  5
708
330
6B0
100
AcDbEntity
  8
Defpoints
 62
     0
100
AcDbPoint
 10
193.5809128892188
 20
481.5538764600909
 30
0.0
  0
POINT
  5
709
330
6B0
100
AcDbEntity
  8
Defpoints
 62
     0
100
AcDbPoint
 10
87.66392519923357
 20
481.553876460091
 30
0.0
  0
ENDBLK
  5
6BB
330
6B0
100
AcDbEntity
  8
0
100
AcDbBlockEnd
  0
BLOCK
  5
6C6
330
6BC
100
AcDbEntity
  8
0
100
AcDbBlockBegin
  2
*D6
 70
     1
 10
0.0
 20
0.0
 30
0.0
  3
*D6
  1

  0
LINE
  5
6F8
330
6BC
100
AcDbEntity
  8
BEM
 62
     0
370
    -2
100
AcDbLine
 10
100.1568451835618
 20
386.0538764600911
 30
0.0
 11
68.00835074680427
 21
386.0538764600911
 31
0.0
  0
LINE
  5
6F9
330
6BC
100
AcDbEntity
  8
BEM
 62
     0
370
    -2
100
AcDbLine
 10
100.1568451835618
 20
488.0538764600911
 30
0.0
 11
68.0083507468043
 21
488.0538764600911
 31
0.0
  0
LINE
  5
6FA
330
6BC
100
AcDbEntity
  8
BEM
 62
     0
370
    -2
100
AcDbLine
 10
70.00835074680427
 20
393.0538764600911
 30
0.0
 11
70.0083507468043
 21
481.053876460091
 31
0.0
  0
SOLID
  5
6FB
330
6BC
100
AcDbEntity
  8
BEM
 62
     0
100
AcDbTrace
 10
68.8416840801376
 20
393.0538764600911
 30
0.0
 11
71.17501741347094
 21
393.0538764600911
 31
0.0
 12
70.00835074680427
 22
386.0538764600911
 32
0.0
 13
70.00835074680427
 23
386.0538764600911
 33
0.0
  0
SOLID
  5
6FC
330
6BC
100
AcDbEntity
  8
BEM
 62
     0
100
AcDbTrace
 10
68.84168408013763
 20
481.053876460091
 30
0.0
 11
71.17501741347097
 21
481.053876460091
 31
0.0
 12
70.0083507468043
 22
488.0538764600911
 32
0.0
 13
70.0083507468043
 23
488.0538764600911
 33
0.0
  0
MTEXT
  5
6FD
330
6BC
100
AcDbEntity
  8
BEM
 62
     1
100
AcDbMText
 10
63.50835074680421
 20
437.0538764600911
 30
0.0
 40
7.0
 41
0.0
 71
     5
 72
     1
  1
\A1;%%c102
 11
0.0000000000000001
 21
1.0
 31
0.0
 73
     1
 44
1.0
  0
POINT
  5
6FE
330
6BC
100
AcDbEntity
  8
Defpoints
 62
     0
100
AcDbPoint
 10
102.1568451835618
 20
386.0538764600911
 30
0.0
  0
POINT
  5
6FF
330
6BC
100
AcDbEntity
  8
Defpoints
 62
     0
100
AcDbPoint
 10
102.1568451835618
 20
488.0538764600911
 30
0.0
  0
POINT
  5
700
330
6BC
100
AcDbEntity
  8
Defpoints
 62
     0
100
AcDbPoint
 10
70.0083507468043
 20
488.0538764600911
 30
0.0
  0
ENDBLK
  5
6C7
330
6BC
100
AcDbEntity
  8
0
100
AcDbBlockEnd
  0
BLOCK
  5
6D2
330
6C8
100
AcDbEntity
  8
0
100
AcDbBlockBegin
  2
*D7
 70
     1
 10
0.0
 20
0.0
 30
0.0
  3
*D7
  1

  0
LINE
  5
75E
330
6C8
100
AcDbEntity
  8
BEM
 62
     0
370
    -2
100
AcDbLine
 10
102.156845183562
 20
384.0538764600911
 30
0.0
 11
102.156845183562
 21
368.3291674163092
 31
0.0
  0
LINE
  5
75F
330
6C8
100
AcDbEntity
  8
BEM
 62
     0
370
    -2
100
AcDbLine
 10
177.156845183562
 20
384.0538764600911
 30
0.0
 11
177.156845183562
 21
368.3291674163092
 31
0.0
  0
LINE
  5
760
330
6C8
100
AcDbEntity
  8
BEM
 62
     0
370
    -2
100
AcDbLine
 10
109.156845183562
 20
370.3291674163092
 30
0.0
 11
170.1568451835619
 21
370.3291674163092
 31
0.0
  0
SOLID
  5
761
330
6C8
100
AcDbEntity
  8
BEM
 62
     0
100
AcDbTrace
 10
109.156845183562
 20
371.4958340829759
 30
0.0
 11
109.156845183562
 21
369.1625007496425
 31
0.0
 12
102.156845183562
 22
370.3291674163092
 32
0.0
 13
102.156845183562
 23
370.3291674163092
 33
0.0
  0
SOLID
  5
762
330
6C8
100
AcDbEntity
  8
BEM
 62
     0
100
AcDbTrace
 10
170.1568451835619
 20
371.4958340829759
 30
0.0
 11
170.1568451835619
 21
369.1625007496425
 31
0.0
 12
177.156845183562
 22
370.3291674163092
 32
0.0
 13
177.156845183562
 23
370.3291674163092
 33
0.0
  0
MTEXT
  5
763
330
6C8
100
AcDbEntity
  8
BEM
 62
     1
100
AcDbMText
 10
139.656845183562
 20
376.8291674163092
 30
0.0
 40
7.0
 41
0.0
 71
     5
 72
     1
  1
\A1;75
 73
     1
 44
1.0
  0
POINT
  5
764
330
6C8
100
AcDbEntity
  8
Defpoints
 62
     0
100
AcDbPoint
 10
102.156845183562
 20
386.0538764600911
 30
0.0
  0
POINT
  5
765
330
6C8
100
AcDbEntity
  8
Defpoints
 62
     0
100
AcDbPoint
 10
177.156845183562
 20
386.0538764600911
 30
0.0
  0
POINT
  5
766
330
6C8
100
AcDbEntity
  8
Defpoints
 62
     0
100
AcDbPoint
 10
177.156845183562
 20
370.3291674163092
 30
0.0
  0
ENDBLK
  5
6D3
330
6C8
100
AcDbEntity
  8
0
100
AcDbBlockEnd
  0
ENDSEC
  0
SECTION
  2
ENTITIES
  0
LINE
  5
58
330
1E
100
AcDbEntity
  8
STEMPEL
100
AcDbLine
 10
830.0000000000002
 20
110.0
 30
0.0
 11
470.0000000000001
 21
110.0
 31
0.0
  0
LINE
  5
59
330
1E
100
AcDbEntity
  8
STEMPEL
100
AcDbLine
 10
470.0000000000001
 20
110.0
 30
0.0
 11
470.0000000000001
 21
10.0
 31
0.0
  0
LINE
  5
5A
330
1E
100
AcDbEntity
  8
STEMPEL
100
AcDbLine
 10
566.0000000000002
 20
109.9999999999999
 30
0.0
 11
566.0000000000001
 21
9.999999999999886
 31
0.0
  0
LINE
  5
5B
330
1E
100
AcDbEntity
  8
STEMPEL
100
AcDbLine
 10
650.0
 20
110.0
 30
0.0
 11
650.0
 21
10.0
 31
0.0
  0
LINE
  5
5C
330
1E
100
AcDbEntity
  8
STEMPEL
100
AcDbLine
 10
752.0000000000002
 20
109.9999999999997
 30
0.0
 11
752.0000000000002
 21
40.0
 31
0.0
  0
LINE
  5
5D
330
1E
100
AcDbEntity
  8
STEMPEL
100
AcDbLine
 10
566.0
 20
30.0
 30
0.0
 11
470.0000000000001
 21
30.0
 31
0.0
  0
LINE
  5
5E
330
1E
100
AcDbEntity
  8
STEMPEL
100
AcDbLine
 10
830.0000000000002
 20
40.0
 30
0.0
 11
566.0000000000001
 21
40.0
 31
0.0
  0
LINE
  5
5F
330
1E
100
AcDbEntity
  8
STEMPEL
100
AcDbLine
 10
830.0000000000002
 20
80.0
 30
0.0
 11
566.0000000000002
 21
80.0
 31
0.0
  0
LINE
  5
60
330
1E
100
AcDbEntity
  8
VOLL
100
AcDbLine
 10
484.0000000000002
 20
110.0
 30
0.0
 11
484.0000000000001
 21
9.999999999999985
 31
0.0
  0
LINE
  5
61
330
1E
100
AcDbEntity
  8
VOLL
100
AcDbLine
 10
524.0000000000001
 20
109.9999999999999
 30
0.0
 11
524.0000000000001
 21
9.999999999999943
 31
0.0
  0
LINE
  5
62
330
1E
100
AcDbEntity
  8
VOLL
100
AcDbLine
 10
544.0000000000002
 20
109.9999999999999
 30
0.0
 11
544.0000000000001
 21
9.999999999999914
 31
0.0
  0
LINE
  5
63
330
1E
100
AcDbEntity
  8
VOLL
100
AcDbLine
 10
584.0000000000002
 20
80.0
 30
0.0
 11
584.0000000000002
 21
40.0
 31
0.0
  0
LINE
  5
64
330
1E
100
AcDbEntity
  8
VOLL
100
AcDbLine
 10
610.0000000000002
 20
109.9999999999998
 30
0.0
 11
610.0000000000001
 21
40.0
 31
0.0
  0
LINE
  5
65
330
1E
100
AcDbEntity
  8
HILF
100
AcDbLine
 10
470.0000000000001
 20
100.0
 30
0.0
 11
566.0000000000002
 21
100.0
 31
0.0
  0
LINE
  5
66
330
1E
100
AcDbEntity
  8
HILF
100
AcDbLine
 10
470.0000000000001
 20
90.0
 30
0.0
 11
566.0000000000002
 21
90.0
 31
0.0
  0
LINE
  5
67
330
1E
100
AcDbEntity
  8
HILF
100
AcDbLine
 10
470.0000000000001
 20
80.0
 30
0.0
 11
566.0000000000002
 21
80.0
 31
0.0
  0
LINE
  5
68
330
1E
100
AcDbEntity
  8
HILF
100
AcDbLine
 10
470.0000000000001
 20
70.0
 30
0.0
 11
566.0000000000002
 21
70.0
 31
0.0
  0
LINE
  5
69
330
1E
100
AcDbEntity
  8
HILF
100
AcDbLine
 10
470.0000000000001
 20
60.0
 30
0.0
 11
566.0000000000002
 21
60.0
 31
0.0
  0
LINE
  5
6A
330
1E
100
AcDbEntity
  8
HILF
100
AcDbLine
 10
470.0000000000001
 20
50.0
 30
0.0
 11
566.0000000000002
 21
50.0
 31
0.0
  0
LINE
  5
6B
330
1E
100
AcDbEntity
  8
HILF
100
AcDbLine
 10
470.0000000000001
 20
40.0
 30
0.0
 11
566.0000000000002
 21
40.0
 31
0.0
  0
LINE
  5
6C
330
1E
100
AcDbEntity
  8
HILF
100
AcDbLine
 10
566.0000000000002
 20
70.0
 30
0.0
 11
650.0
 21
70.0
 31
0.0
  0
LINE
  5
6D
330
1E
100
AcDbEntity
  8
HILF
100
AcDbLine
 10
566.0000000000002
 20
60.0
 30
0.0
 11
650.0
 21
60.0
 31
0.0
  0
LINE
  5
6E
330
1E
100
AcDbEntity
  8
HILF
100
AcDbLine
 10
566.0000000000002
 20
50.0
 30
0.0
 11
650.0
 21
50.0
 31
0.0
  0
LINE
  5
6F
330
1E
100
AcDbEntity
  8
HILF
100
AcDbLine
 10
654.7736801096948
 20
84.03758247564136
 30
0.0
 11
746.6297842514811
 21
84.03758247564136
 31
0.0
  0
LINE
  5
70
330
1E
100
AcDbEntity
  8
HILF
100
AcDbLine
 10
654.7736801096948
 20
70.0
 30
0.0
 11
746.6297842514811
 21
70.0
 31
0.0
  0
LINE
  5
71
330
1E
100
AcDbEntity
  8
HILF
100
AcDbLine
 10
654.7736801096948
 20
60.0
 30
0.0
 11
746.6297842514811
 21
60.0
 31
0.0
  0
LINE
  5
72
330
1E
100
AcDbEntity
  8
HILF
100
AcDbLine
 10
654.7736801096948
 20
50.0
 30
0.0
 11
746.6297842514811
 21
50.0
 31
0.0
  0
LINE
  5
73
330
1E
100
AcDbEntity
  8
VOLL
100
AcDbLine
 10
752.0000000000002
 20
60.0
 30
0.0
 11
830.0000000000002
 21
60.0
 31
0.0
  0
LINE
  5
74
330
1E
100
AcDbEntity
  8
HILF
100
AcDbLine
 10
756.7238616296995
 20
83.77983636955823
 30
0.0
 11
824.858883932673
 21
83.77983636955823
 31
0.0
  0
LINE
  5
75
330
1E
100
AcDbEntity
  8
HILF
100
AcDbLine
 10
654.7736801096948
 20
14.89398258028305
 30
0.0
 11
824.858883932673
 21
14.89398258028305
 31
0.0
  0
TEXT
  5
76
330
1E
100
AcDbEntity
  8
TEXT
100
AcDbText
 10
492.3998239263297
 20
18.67381894984129
 30
0.0
 40
4.0
  1
Änderung
 41
0.8
  7
GREEKS
 72
     1
 11
503.1426810691868
 21
18.67381894984129
 31
0.0
100
AcDbText
  0
TEXT
  5
78
330
1E
100
AcDbEntity
  8
TEXT
100
AcDbText
 10
573.5163572150378
 20
102.4620895087088
 30
0.0
 40
5.0
  1
Maßstab
 41
0.8
  7
GREEKS
100
AcDbText
  0
TEXT
  5
79
330
1E
100
AcDbEntity
  8
TEXT
100
AcDbText
 10
654.8779403809011
 20
102.5489328011779
 30
0.0
 40
5.0
  1
Benennung
 41
0.8
  7
GREEKS
100
AcDbText
  0
TEXT
  5
7A
330
1E
100
AcDbEntity
  8
TEXT
100
AcDbText
 10
756.1787549576343
 20
102.3132034537135
 30
0.0
 40
5.0
  1
Zeichnungs Nr.
 41
0.8
  7
GREEKS
100
AcDbText
  0
TEXT
  5
7B
330
1E
100
AcDbEntity
  8
TEXT
100
AcDbText
 10
654.742238391136
 20
30.84560570193055
 30
0.0
 40
5.0
  1
Bauvorhaben
 41
0.8
  7
GREEKS
100
AcDbText
  0
TEXT
  5
7C
330
1E
100
AcDbEntity
  8
TEXT
100
AcDbText
 10
756.7238616296995
 20
73.18118237099965
 30
0.0
 40
5.0
  1
Ersatz für:
 41
0.8
  7
GREEKS
100
AcDbText
  0
TEXT
  5
7D
330
1E
100
AcDbEntity
  8
TEXT
100
AcDbText
 10
478.2664110704577
 20
13.65465846027187
 30
0.0
 40
4.0
  1
Index
 50
90.0
 41
0.8
  7
GREEKS
100
AcDbText
  0
TEXT
  5
7E
330
1E
100
AcDbEntity
  8
TEXT
100
AcDbText
 10
529.8990113186979
 20
18.67156269339808
 30
0.0
 40
4.0
  1
Tag
 41
0.8
  7
GREEKS
 72
     1
 11
533.6323446520313
 21
18.67156269339808
 31
0.0
100
AcDbText
  0
TEXT
  5
7F
330
1E
100
AcDbEntity
  8
TEXT
100
AcDbText
 10
548.9795678138293
 20
18.59324216966404
 30
0.0
 40
4.0
  1
Name
 41
0.8
  7
GREEKS
 72
     1
 11
555.3033773376388
 21
18.59324216966404
 31
0.0
100
AcDbText
  0
TEXT
  5
80
330
1E
100
AcDbEntity
  8
TEXT
100
AcDbText
 10
592.3311673153651
 20
73.31880501229919
 30
0.0
 40
4.0
  1
Tag
 41
0.8
  7
GREEKS
100
AcDbText
  0
TEXT
  5
81
330
1E
100
AcDbEntity
  8
TEXT
100
AcDbText
 10
622.4626584226296
 20
73.3096109191522
 30
0.0
 40
4.0
  1
Name
 41
0.8
  7
GREEKS
100
AcDbText
  0
TEXT
  5
82
330
1E
100
AcDbEntity
  8
TEXT
100
AcDbText
 10
567.5836127167616
 20
63.62990369617961
 30
0.0
 40
4.0
  1
Gez.
 41
0.8
  7
GREEKS
100
AcDbText
  0
TEXT
  5
83
330
1E
100
AcDbEntity
  8
TEXT
100
AcDbText
 10
567.5515086571673
 20
53.68926291428373
 30
0.0
 40
4.0
  1
Gepr.
 41
0.8
  7
GREEKS
100
AcDbText
  0
TEXT
  5
84
330
1E
100
AcDbEntity
  8
TEXT
100
AcDbText
 10
567.6006777387304
 20
43.52946389649804
 30
0.0
 40
4.0
  1
Norm.
 41
0.8
  7
GREEKS
100
AcDbText
  0
TEXT
  5
85
330
1E
100
AcDbEntity
  8
TEXT
100
AcDbText
 10
757.2400861497007
 20
52.07416177878596
 30
0.0
 40
5.0
  1
ersetzt durch:
 41
0.8
  7
GREEKS
100
AcDbText
  0
TEXT
  5
86
330
1E
100
AcDbEntity
  8
TEXT
100
AcDbText
 10
568.8693027807324
 20
72.96682596523723
 30
0.0
 40
4.0
  1
2009
 41
0.8
  7
GREEKS
100
AcDbText
  0
LINE
  5
87
330
1E
100
AcDbEntity
  8
HILF
100
AcDbLine
 10
0.0
 20
0.0
 30
0.0
 11
840.0
 21
0.0
 31
0.0
  0
LINE
  5
88
330
1E
100
AcDbEntity
  8
HILF
100
AcDbLine
 10
840.0
 20
0.0
 30
0.0
 11
840.0
 21
594.0
 31
0.0
  0
LINE
  5
89
330
1E
100
AcDbEntity
  8
HILF
100
AcDbLine
 10
840.0
 20
594.0
 30
0.0
 11
0.0
 21
594.0
 31
0.0
  0
LINE
  5
8B
330
1E
100
AcDbEntity
  8
STEMPEL
100
AcDbLine
 10
830.0
 20
584.0
 30
0.0
 11
40.0
 21
584.0
 31
0.0
  0
LINE
  5
8D
330
1E
100
AcDbEntity
  8
STEMPEL
100
AcDbLine
 10
40.0
 20
10.0
 30
0.0
 11
830.0
 21
10.0
 31
0.0
  0
LINE
  5
8E
330
1E
100
AcDbEntity
  8
STEMPEL
100
AcDbLine
 10
830.0
 20
10.0
 30
0.0
 11
830.0
 21
584.0
 31
0.0
  0
TEXT
  5
8F
330
1E
100
AcDbEntity
  8
TEXT
 62
     1
100
AcDbText
 10
655.0390572473189
 20
87.37343075652544
 30
0.0
 40
7.0
  1
Regenstandrohr DN80
 41
0.8
  7
GREEKS
100
AcDbText
  0
TEXT
  5
90
330
1E
100
AcDbEntity
  8
TEXT
 62
     1
100
AcDbText
 10
766.6628088850802
 20
87.37343075652544
 30
0.0
 40
7.0
  1
45510080W
 41
0.8
  7
GREEKS
 72
     1
 11
790.1294755517469
 21
87.37343075652544
 31
0.0
100
AcDbText
  0
TEXT
  5
91
330
1E
100
AcDbEntity
  8
TEXT
100
AcDbText
 10
618.509022641583
 20
102.83989611379
 30
0.0
 40
5.0
  1
Zul.Abw.
 41
0.8
  7
GREEKS
100
AcDbText
  0
TEXT
  5
93
330
1E
100
AcDbEntity
  8
TEXT
100
AcDbText
 10
590.1565237511869
 20
63.1508587612022
 30
0.0
 40
4.0
  1
28.09.
 41
0.8
  7
GREEKS
 72
     1
 11
597.1660475607107
 21
63.1508587612022
 31
0.0
100
AcDbText
  0
TEXT
  5
94
330
1E
100
AcDbEntity
  8
TEXT
100
AcDbText
 10
624.023175322661
 20
62.94297655165468
 30
0.0
 40
4.0
  1
Koeh
 41
0.8
  7
GREEKS
 72
     1
 11
629.2803181798038
 21
62.94297655165468
 31
0.0
100
AcDbText
  0
TEXT
  5
95
330
1E
100
AcDbEntity
  8
TEXT
100
AcDbText
 10
654.3410940884992
 20
72.10021383107525
 30
0.0
 40
5.0
  1
mit Reinigungsöffnung
 41
0.8
  7
GREEKS
100
AcDbText
  0
TEXT
  5
96
330
1E
100
AcDbEntity
  8
TEXT
100
AcDbText
 10
654.3410940884992
 20
62.34559085209035
 30
0.0
 40
5.0
  1

 41
0.8
  7
GREEKS
100
AcDbText
  0
TEXT
  5
97
330
1E
100
AcDbEntity
  8
TEXT
100
AcDbText
 10
654.3410940884992
 20
52.59097337846058
 30
0.0
 40
5.0
  1

 41
0.8
  7
GREEKS
100
AcDbText
  0
TEXT
  5
98
330
1E
100
AcDbEntity
  8
TEXT
100
AcDbText
 10
654.1676050109348
 20
43.31127624791508
 30
0.0
 40
4.0
  1
45510080W.DWG
 41
0.8
  7
GREEKS
100
AcDbText
  0
TEXT
  5
99
330
1E
100
AcDbEntity
  8
TEXT
 62
     1
100
AcDbText
 10
582.7034912034222
 20
87.47077088414977
 30
0.0
 40
7.0
  1
1:2
 41
0.8
  7
GREEKS
100
AcDbText
  0
TEXT
  5
9A
330
1E
100
AcDbEntity
  8
TEXT
100
AcDbText
 10
470.0441139350127
 20
114.1143585051043
 30
0.0
 40
5.0
  1
Erstellt mit AUTOCAD 2004
 41
0.8
  7
GREEKS
100
AcDbText
  0
INSERT
  5
9B
330
1E
100
AcDbEntity
  8
HILF
100
AcDbBlockReference
  2
LORO
 10
573.0624985962354
 20
36.9805930029896
 30
0.0
 41
2.0
 42
2.0
 43
2.0
  0
LINE
  5
9C
330
1E
100
AcDbEntity
  8
BEM
100
AcDbLine
 10
456.0
 20
0.0
 30
0.0
 11
456.0
 21
10.0
 31
0.0
  0
LINE
  5
13E
330
1E
100
AcDbEntity
  8
HILF
100
AcDbLine
 10
0.0
 20
0.0
 30
0.0
 11
0.0
 21
594.0
 31
0.0
  0
LINE
  5
13F
330
1E
100
AcDbEntity
  8
STEMPEL
100
AcDbLine
 10
40.0
 20
10.0
 30
0.0
 11
40.0
 21
584.0
 31
0.0
  0
LINE
  5
14A
330
1E
100
AcDbEntity
  8
HILF
100
AcDbLine
 10
0.0
 20
297.0
 30
0.0
 11
40.0
 21
297.0
 31
0.0
  0
TEXT
  5
15B
330
1E
100
AcDbEntity
  8
BEM
100
AcDbText
 10
837.3022923857165
 20
10.16790107998861
 30
0.0
 40
4.0
  1
Diese Zeichnung ist urheberrechtlich geschützt und bleibt unser Eigentum. Sie darf weder ganz noch teilweise verfielfältigt und nicht an Dritte weitergegeben werden.
 50
90.0
 41
0.8
  7
GREEKS
100
AcDbText
  0
LINE
  5
188
330
1E
100
AcDbEntity
  8
BEM
100
AcDbLine
 10
456.0
 20
594.0
 30
0.0
 11
456.0
 21
584.0
 31
0.0
  0
TEXT
  5
26A
330
1E
100
AcDbEntity
  8
TEXT
 62
     1
100
AcDbText
 10
174.6412094465076
 20
81.54696998501753
 30
0.0
 40
7.0
  1
Rohrende leicht eingezogen
 41
0.8
  7
GREEKS
100
AcDbText
  0
DIMENSION
  5
28A
330
1E
100
AcDbEntity
  8
BEM
100
AcDbDimension
  2
*D2
 10
502.1554782619293
 20
177.2797035215613
 30
0.0
 11
302.1561617227454
 21
183.7797035215613
 31
0.0
 70
    32
  1
620
 71
     5
 42
399.9986330783677
  3
Standard
100
AcDbAlignedDimension
 13
102.1568451835616
 23
192.5774764856086
 33
0.0
 14
502.1554782619293
 24
189.5774764856087
 34
0.0
100
AcDbRotatedDimension
1001
ACAD
1000
DSTYLE
1002
{
1070
    40
1040
2.0
1070
    41
1040
3.5
1070
    42
1040
1.0
1070
    43
1040
7.0
1070
    44
1040
1.0
1070
    73
1070
     0
1070
    74
1070
     0
1070
    77
1070
     1
1070
    78
1070
     8
1070
    79
1070
     2
1070
   140
1040
3.5
1070
   141
1040
1.5
1070
   146
1040
0.5142857142857144
1070
   147
1040
1.5
1070
   172
1070
     1
1070
   178
1070
     1
1070
   179
1070
     2
1070
   271
1070
     2
1070
   272
1070
     2
1070
   284
1070
     8
1070
   285
1070
     8
1070
   286
1070
     8
1002
}
  0
DIMENSION
  5
28B
330
1E
100
AcDbEntity
  8
BEM
100
AcDbDimension
  2
*D3
 10
802.1527805208155
 20
353.5162941925965
 30
0.0
 11
453.2782334249325
 21
353.5162941925965
 31
0.0
 70
   160
  1
1000
 71
     5
 42
699.9959353372535
  3
Standard
100
AcDbAlignedDimension
 13
102.1568451835618
 23
386.0538764600911
 33
0.0
 14
802.1527805208155
 24
389.2884717897507
 34
0.0
100
AcDbRotatedDimension
1001
ACAD
1000
DSTYLE
1002
{
1070
    40
1040
2.0
1070
    41
1040
3.5
1070
    42
1040
1.0
1070
    43
1040
7.0
1070
    44
1040
1.0
1070
    73
1070
     0
1070
    74
1070
     0
1070
    77
1070
     1
1070
    78
1070
     8
1070
    79
1070
     2
1070
   140
1040
3.5
1070
   141
1040
1.5
1070
   146
1040
0.5142857142857144
1070
   147
1040
1.5
1070
   172
1070
     1
1070
   178
1070
     1
1070
   179
1070
     2
1070
   271
1070
     2
1070
   272
1070
     2
1070
   284
1070
     8
1070
   285
1070
     8
1070
   286
1070
     8
1002
}
  0
LINE
  5
28E
330
1E
100
AcDbEntity
  8
STEMPEL
100
AcDbLine
 10
455.1554782619294
 20
481.553876460091
 30
0.0
 11
333.3257516512471
 21
481.553876460091
 31
0.0
  0
LINE
  5
294
330
1E
100
AcDbEntity
  8
MITTEL
100
AcDbLine
 10
502.1554782619293
 20
437.0538764600911
 30
0.0
 11
502.1554782619296
 21
499.1538764600909
 31
0.0
  0
LINE
  5
295
330
1E
100
AcDbEntity
  8
MITTEL
100
AcDbLine
 10
502.1554782619293
 20
189.5774764856087
 30
0.0
 11
502.1554782619296
 21
297.5774764856086
 31
0.0
  0
LINE
  5
296
330
1E
100
AcDbEntity
  8
MITTEL
100
AcDbLine
 10
807.1527805208193
 20
243.5774764856086
 30
0.0
 11
97.15684518356184
 21
243.5774764856087
 31
0.0
  0
TEXT
  5
298
330
1E
100
AcDbEntity
  8
TEXT
 62
     1
100
AcDbText
 10
722.8978759696092
 20
250.0382369614285
 30
0.0
 40
7.0
  1
DN80
 41
0.8
  7
GREEKS
100
AcDbText
  0
LINE
  5
299
330
1E
100
AcDbEntity
  8
STEMPEL
100
AcDbLine
 10
802.1527805208172
 20
291.342881155948
 30
0.0
 11
802.1527805208155
 21
195.8120718152683
 31
0.0
  0
LINE
  5
29A
330
1E
100
AcDbEntity
  8
STEMPEL
100
AcDbLine
 10
789.5480290582452
 20
192.4774764856087
 30
0.0
 11
782.589205578215
 21
192.4774764856087
 31
0.0
  0
LINE
  5
29B
330
1E
100
AcDbEntity
  8
STEMPEL
100
AcDbLine
 10
789.5480290582452
 20
294.6774764856085
 30
0.0
 11
782.5892055782152
 21
294.6774764856085
 31
0.0
  0
LINE
  5
29C
330
1E
100
AcDbEntity
  8
HILF
100
AcDbLine
 10
669.518707750406
 20
286.8569775837053
 30
0.0
 11
669.518707750406
 21
200.297975387512
 31
0.0
  0
LINE
  5
29D
330
1E
100
AcDbEntity
  8
HILF
100
AcDbLine
 10
674.6462694695615
 20
289.1663502960038
 30
0.0
 11
674.6462694695614
 21
197.9886026752134
 31
0.0
  0
LINE
  5
29E
330
1E
100
AcDbEntity
  8
HILF
100
AcDbLine
 10
769.7899099402634
 20
289.9073631436114
 30
0.0
 11
769.7899099402634
 21
197.2475898276058
 31
0.0
  0
LINE
  5
29F
330
1E
100
AcDbEntity
  8
STEMPEL
100
AcDbLine
 10
766.8126474576211
 20
291.1774764856085
 30
0.0
 11
677.5415069382333
 21
291.1774764856085
 31
0.0
  0
ARC
  5
2A0
330
1E
100
AcDbEntity
  8
STEMPEL
100
AcDbCircle
 10
677.5415069382333
 20
279.1774764856086
 30
0.0
 40
12.0
100
AcDbArc
 50
89.99999999999998
 51
122.3280641221617
  0
ARC
  5
2A1
330
1E
100
AcDbEntity
  8
STEMPEL
100
AcDbCircle
 10
666.8461808562476
 20
296.0774764856086
 30
0.0
 40
8.0
100
AcDbArc
 50
270.0
 51
302.3280641221617
  0
ARC
  5
2A2
330
1E
100
AcDbEntity
  8
STEMPEL
100
AcDbCircle
 10
766.8126474576211
 20
303.1774764856086
 30
0.0
 40
12.0
100
AcDbArc
 50
270.0
 51
295.3077230980227
  0
ARC
  5
2A3
330
1E
100
AcDbEntity
  8
STEMPEL
100
AcDbCircle
 10
782.5209255300259
 20
269.6774764856086
 30
0.0
 40
25.00009324312574
100
AcDbArc
 50
89.84351404565261
 51
115.0329424415662
  0
LINE
  5
2A4
330
1E
100
AcDbEntity
  8
STEMPEL
100
AcDbLine
 10
766.8126474576211
 20
195.9774764856085
 30
0.0
 11
677.5415069382331
 21
195.9774764856085
 31
0.0
  0
ARC
  5
2A5
330
1E
100
AcDbEntity
  8
STEMPEL
100
AcDbCircle
 10
677.5415069382333
 20
207.9774764856086
 30
0.0
 40
12.0
100
AcDbArc
 50
237.6719358778383
 51
270.0
  0
ARC
  5
2A6
330
1E
100
AcDbEntity
  8
STEMPEL
100
AcDbCircle
 10
666.8461808562476
 20
191.0774764856086
 30
0.0
 40
8.0
100
AcDbArc
 50
57.67193587783829
 51
89.99999999999998
  0
ARC
  5
2A7
330
1E
100
AcDbEntity
  8
STEMPEL
100
AcDbCircle
 10
766.812647457621
 20
183.9774764856086
 30
0.0
 40
12.0
100
AcDbArc
 50
64.6922769019809
 51
89.99999999999998
  0
ARC
  5
2A8
330
1E
100
AcDbEntity
  8
STEMPEL
100
AcDbCircle
 10
782.5209255300259
 20
217.4774764856087
 30
0.0
 40
25.00009324312574
100
AcDbArc
 50
244.9670575584352
 51
270.1564859543474
  0
ARC
  5
2A9
330
1E
100
AcDbEntity
  8
STEMPEL
100
AcDbCircle
 10
789.5480290582451
 20
270.0774764856086
 30
0.0
 40
24.6
100
AcDbArc
 50
65.00000000000574
 51
89.99999999999998
  0
LINE
  5
2AA
330
1E
100
AcDbEntity
  8
STEMPEL
100
AcDbLine
 10
802.1527805208162
 20
291.3428811559485
 30
0.0
 11
799.9444382970664
 21
292.3726480467102
 31
0.0
  0
ARC
  5
2AB
330
1E
100
AcDbEntity
  8
STEMPEL
100
AcDbCircle
 10
789.5480290582451
 20
217.0774764856087
 30
0.0
 40
24.6
100
AcDbArc
 50
270.0
 51
294.9999999999906
  0
LINE
  5
2AC
330
1E
100
AcDbEntity
  8
STEMPEL
100
AcDbLine
 10
802.1527805208162
 20
195.8120718152687
 30
0.0
 11
799.9444382970664
 21
194.7823049245071
 31
0.0
  0
LINE
  5
2B0
330
1E
100
AcDbEntity
  8
STEMPEL
100
AcDbLine
 10
666.8461808562476
 20
199.0774764856086
 30
0.0
 11
630.8935001150407
 21
199.0774764856086
 31
0.0
  0
LINE
  5
2B1
330
1E
100
AcDbEntity
  8
STEMPEL
100
AcDbLine
 10
666.8461808562476
 20
288.0774764856086
 30
0.0
 11
630.8935001150405
 21
288.0774764856086
 31
0.0
  0
LINE
  5
2B3
330
1E
100
AcDbEntity
  8
STEMPEL
100
AcDbLine
 10
666.8461808562476
 20
481.553876460091
 30
0.0
 11
630.8935001150406
 21
481.5538764600909
 31
0.0
  0
LINE
  5
2B4
330
1E
100
AcDbEntity
  8
STEMPEL
100
AcDbLine
 10
666.8461808562476
 20
392.5538764600911
 30
0.0
 11
630.8935001150407
 21
392.5538764600911
 31
0.0
  0
LINE
  5
2B8
330
1E
100
AcDbEntity
  8
STEMPEL
100
AcDbLine
 10
802.1527805208162
 20
389.2884717897512
 30
0.0
 11
799.9444382970664
 21
388.2587048989896
 31
0.0
  0
ARC
  5
2B9
330
1E
100
AcDbEntity
  8
STEMPEL
100
AcDbCircle
 10
789.5480290582452
 20
410.5538764600911
 30
0.0
 40
24.6
100
AcDbArc
 50
270.0
 51
294.9999999999906
  0
LINE
  5
2BA
330
1E
100
AcDbEntity
  8
STEMPEL
100
AcDbLine
 10
802.1527805208163
 20
484.819281130431
 30
0.0
 11
799.9444382970664
 21
485.8490480211925
 31
0.0
  0
ARC
  5
2BB
330
1E
100
AcDbEntity
  8
STEMPEL
100
AcDbCircle
 10
789.5480290582452
 20
463.553876460091
 30
0.0
 40
24.6
100
AcDbArc
 50
65.00000000000574
 51
89.99999999999998
  0
ARC
  5
2BC
330
1E
100
AcDbEntity
  8
STEMPEL
100
AcDbCircle
 10
782.520925530026
 20
410.9538764600911
 30
0.0
 40
25.00009324312574
100
AcDbArc
 50
244.9670575584352
 51
270.1564859543474
  0
ARC
  5
2BD
330
1E
100
AcDbEntity
  8
STEMPEL
100
AcDbCircle
 10
766.8126474576211
 20
377.453876460091
 30
0.0
 40
12.0
100
AcDbArc
 50
64.6922769019809
 51
89.99999999999998
  0
ARC
  5
2BE
330
1E
100
AcDbEntity
  8
STEMPEL
100
AcDbCircle
 10
666.8461808562476
 20
384.553876460091
 30
0.0
 40
8.0
100
AcDbArc
 50
57.67193587783829
 51
89.99999999999998
  0
ARC
  5
2BF
330
1E
100
AcDbEntity
  8
STEMPEL
100
AcDbCircle
 10
677.5415069382333
 20
401.453876460091
 30
0.0
 40
12.0
100
AcDbArc
 50
237.6719358778383
 51
270.0
  0
LINE
  5
2C0
330
1E
100
AcDbEntity
  8
STEMPEL
100
AcDbLine
 10
766.8126474576211
 20
389.453876460091
 30
0.0
 11
677.5415069382333
 21
389.453876460091
 31
0.0
  0
ARC
  5
2C1
330
1E
100
AcDbEntity
  8
STEMPEL
100
AcDbCircle
 10
782.520925530026
 20
463.153876460091
 30
0.0
 40
25.00009324312574
100
AcDbArc
 50
89.84351404565261
 51
115.0329424415662
  0
ARC
  5
2C2
330
1E
100
AcDbEntity
  8
STEMPEL
100
AcDbCircle
 10
766.8126474576211
 20
496.653876460091
 30
0.0
 40
12.0
100
AcDbArc
 50
270.0
 51
295.3077230980227
  0
ARC
  5
2C3
330
1E
100
AcDbEntity
  8
STEMPEL
100
AcDbCircle
 10
666.8461808562476
 20
489.5538764600909
 30
0.0
 40
8.0
100
AcDbArc
 50
270.0
 51
302.3280641221617
  0
ARC
  5
2C4
330
1E
100
AcDbEntity
  8
STEMPEL
100
AcDbCircle
 10
677.5415069382333
 20
472.653876460091
 30
0.0
 40
12.0
100
AcDbArc
 50
89.99999999999998
 51
122.3280641221617
  0
LINE
  5
2C5
330
1E
100
AcDbEntity
  8
STEMPEL
100
AcDbLine
 10
766.8126474576211
 20
484.653876460091
 30
0.0
 11
677.5415069382333
 21
484.653876460091
 31
0.0
  0
LINE
  5
2C6
330
1E
100
AcDbEntity
  8
HILF
100
AcDbLine
 10
769.7899099402634
 20
483.3837631180939
 30
0.0
 11
769.7899099402634
 21
390.7239898020882
 31
0.0
  0
LINE
  5
2C7
330
1E
100
AcDbEntity
  8
HILF
100
AcDbLine
 10
674.6462694695615
 20
482.6427502704862
 30
0.0
 11
674.6462694695615
 21
391.4650026496959
 31
0.0
  0
LINE
  5
2C8
330
1E
100
AcDbEntity
  8
HILF
100
AcDbLine
 10
669.518707750406
 20
480.3333775581877
 30
0.0
 11
669.518707750406
 21
393.7743753619944
 31
0.0
  0
LINE
  5
2C9
330
1E
100
AcDbEntity
  8
STEMPEL
100
AcDbLine
 10
789.5480290582452
 20
488.153876460091
 30
0.0
 11
782.5892055782152
 21
488.153876460091
 31
0.0
  0
LINE
  5
2CA
330
1E
100
AcDbEntity
  8
STEMPEL
100
AcDbLine
 10
789.5480290582452
 20
385.9538764600911
 30
0.0
 11
782.5892055782152
 21
385.9538764600911
 31
0.0
  0
LINE
  5
2CB
330
1E
100
AcDbEntity
  8
STEMPEL
100
AcDbLine
 10
802.1527805208172
 20
484.8192811304305
 30
0.0
 11
802.1527805208155
 21
389.2884717897507
 31
0.0
  0
TEXT
  5
2CC
330
1E
100
AcDbEntity
  8
TEXT
 62
     1
100
AcDbText
 10
722.8978759696093
 20
443.5146369359109
 30
0.0
 40
7.0
  1
DN80
 41
0.8
  7
GREEKS
100
AcDbText
  0
LINE
  5
2CE
330
1E
100
AcDbEntity
  8
MITTEL
100
AcDbLine
 10
807.1527805208193
 20
437.053876460091
 30
0.0
 11
97.15684518356184
 21
437.0538764600911
 31
0.0
  0
DIMENSION
  5
4A6
330
1E
100
AcDbEntity
  8
BEM
100
AcDbDimension
  2
*D4
 10
672.1527805208155
 20
176.926733201511
 30
0.0
 11
737.1527805208154
 21
183.4267332015111
 31
0.0
 70
    32
 71
     5
 42
129.9999999999999
  3
Standard
100
AcDbAlignedDimension
 13
802.1527805208155
 23
195.8120718152683
 33
0.0
 14
672.1527805208155
 24
197.2554604625734
 34
0.0
100
AcDbRotatedDimension
1001
ACAD
1000
DSTYLE
1002
{
1070
    40
1040
2.0
1070
    41
1040
3.5
1070
    42
1040
1.0
1070
    43
1040
7.0
1070
    44
1040
1.0
1070
    73
1070
     0
1070
    74
1070
     0
1070
    77
1070
     1
1070
    78
1070
     8
1070
    79
1070
     2
1070
   140
1040
3.5
1070
   141
1040
1.5
1070
   146
1040
0.5142857142857144
1070
   147
1040
1.5
1070
   172
1070
     1
1070
   178
1070
     1
1070
   179
1070
     2
1070
   271
1070
     2
1070
   272
1070
     2
1070
   284
1070
     8
1070
   285
1070
     8
1070
   286
1070
     8
1002
}
  0
POLYLINE
  5
58D
330
1E
100
AcDbEntity
  8
HILF
100
AcDb2dPolyline
 66
     1
 10
0.0
 20
0.0
 30
0.0
 70
     4
 75
     6
  0
VERTEX
  5
58E
330
58D
100
AcDbEntity
  8
HILF
100
AcDbVertex
100
AcDb2dVertex
 10
630.8935001150407
 20
392.5538764600911
 30
0.0
 70
    16
  0
VERTEX
  5
594
330
58D
100
AcDbEntity
  8
HILF
100
AcDbVertex
100
AcDb2dVertex
 10
630.8935001150407
 20
392.5538764600911
 30
0.0
 70
     8
  0
VERTEX
  5
596
330
58D
100
AcDbEntity
  8
HILF
100
AcDbVertex
100
AcDb2dVertex
 10
627.8173282400407
 20
400.397870600716
 30
0.0
 70
     8
  0
VERTEX
  5
597
330
58D
100
AcDbEntity
  8
HILF
100
AcDbVertex
100
AcDb2dVertex
 10
625.9716251150408
 20
407.329267085091
 30
0.0
 70
     8
  0
VERTEX
  5
598
330
58D
100
AcDbEntity
  8
HILF
100
AcDbVertex
100
AcDb2dVertex
 10
625.1806094900407
 20
413.478437006966
 30
0.0
 70
     8
  0
VERTEX
  5
599
330
58D
100
AcDbEntity
  8
HILF
100
AcDbVertex
100
AcDb2dVertex
 10
625.2685001150407
 20
418.975751460091
 30
0.0
 70
     8
  0
VERTEX
  5
59A
330
58D
100
AcDbEntity
  8
HILF
100
AcDbVertex
100
AcDb2dVertex
 10
626.0595157400407
 20
423.951581538216
 30
0.0
 70
     8
  0
VERTEX
  5
59B
330
58D
100
AcDbEntity
  8
HILF
100
AcDbVertex
100
AcDb2dVertex
 10
627.3778751150407
 20
428.536298335091
 30
0.0
 70
     8
  0
VERTEX
  5
59C
330
58D
100
AcDbEntity
  8
HILF
100
AcDbVertex
100
AcDb2dVertex
 10
629.0477969900408
 20
432.860272944466
 30
0.0
 70
     8
  0
VERTEX
  5
59D
330
58D
100
AcDbEntity
  8
HILF
100
AcDbVertex
100
AcDb2dVertex
 10
630.8935001150407
 20
437.053876460091
 30
0.0
 70
     8
  0
VERTEX
  5
59E
330
58D
100
AcDbEntity
  8
HILF
100
AcDbVertex
100
AcDb2dVertex
 10
632.7392032400407
 20
441.247479975716
 30
0.0
 70
     8
  0
VERTEX
  5
59F
330
58D
100
AcDbEntity
  8
HILF
100
AcDbVertex
100
AcDb2dVertex
 10
634.4091251150407
 20
445.571454585091
 30
0.0
 70
     8
  0
VERTEX
  5
5A0
330
58D
100
AcDbEntity
  8
HILF
100
AcDbVertex
100
AcDb2dVertex
 10
635.7274844900407
 20
450.156171381966
 30
0.0
 70
     8
  0
VERTEX
  5
5A1
330
58D
100
AcDbEntity
  8
HILF
100
AcDbVertex
100
AcDb2dVertex
 10
636.5185001150408
 20
455.132001460091
 30
0.0
 70
     8
  0
VERTEX
  5
5A2
330
58D
100
AcDbEntity
  8
HILF
100
AcDbVertex
100
AcDb2dVertex
 10
636.6063907400407
 20
460.629315913216
 30
0.0
 70
     8
  0
VERTEX
  5
5A3
330
58D
100
AcDbEntity
  8
HILF
100
AcDbVertex
100
AcDb2dVertex
 10
635.8153751150407
 20
466.778485835091
 30
0.0
 70
     8
  0
VERTEX
  5
5A4
330
58D
100
AcDbEntity
  8
HILF
100
AcDbVertex
100
AcDb2dVertex
 10
633.9696719900406
 20
473.709882319466
 30
0.0
 70
     8
  0
VERTEX
  5
5A5
330
58D
100
AcDbEntity
  8
HILF
100
AcDbVertex
100
AcDb2dVertex
 10
630.8935001150406
 20
481.553876460091
 30
0.0
 70
     8
  0
VERTEX
  5
58F
330
58D
100
AcDbEntity
  8
HILF
100
AcDbVertex
100
AcDb2dVertex
 10
620.8935001150408
 20
414.803876460091
 30
0.0
 70
    16
  0
VERTEX
  5
590
330
58D
100
AcDbEntity
  8
HILF
100
AcDbVertex
100
AcDb2dVertex
 10
630.8935001150407
 20
437.053876460091
 30
0.0
 70
    16
  0
VERTEX
  5
591
330
58D
100
AcDbEntity
  8
HILF
100
AcDbVertex
100
AcDb2dVertex
 10
640.8935001150407
 20
459.3038764600909
 30
0.0
 70
    16
  0
VERTEX
  5
592
330
58D
100
AcDbEntity
  8
HILF
100
AcDbVertex
100
AcDb2dVertex
 10
630.8935001150407
 20
481.5538764600909
 30
0.0
 70
    16
  0
SEQEND
  5
593
330
58D
100
AcDbEntity
  8
HILF
  0
POLYLINE
  5
5BE
330
1E
100
AcDbEntity
  8
HILF
100
AcDb2dPolyline
 66
     1
 10
0.0
 20
0.0
 30
0.0
 70
     4
 75
     6
  0
VERTEX
  5
5BF
330
5BE
100
AcDbEntity
  8
HILF
100
AcDbVertex
100
AcDb2dVertex
 10
625.8935001150407
 20
392.5538764600911
 30
0.0
 70
    16
  0
VERTEX
  5
5C0
330
5BE
100
AcDbEntity
  8
HILF
100
AcDbVertex
100
AcDb2dVertex
 10
625.8935001150407
 20
392.5538764600911
 30
0.0
 70
     8
  0
VERTEX
  5
5C1
330
5BE
100
AcDbEntity
  8
HILF
100
AcDbVertex
100
AcDb2dVertex
 10
622.8173282400407
 20
400.397870600716
 30
0.0
 70
     8
  0
VERTEX
  5
5C2
330
5BE
100
AcDbEntity
  8
HILF
100
AcDbVertex
100
AcDb2dVertex
 10
620.9716251150407
 20
407.329267085091
 30
0.0
 70
     8
  0
VERTEX
  5
5C3
330
5BE
100
AcDbEntity
  8
HILF
100
AcDbVertex
100
AcDb2dVertex
 10
620.1806094900407
 20
413.478437006966
 30
0.0
 70
     8
  0
VERTEX
  5
5C4
330
5BE
100
AcDbEntity
  8
HILF
100
AcDbVertex
100
AcDb2dVertex
 10
620.2685001150407
 20
418.975751460091
 30
0.0
 70
     8
  0
VERTEX
  5
5C5
330
5BE
100
AcDbEntity
  8
HILF
100
AcDbVertex
100
AcDb2dVertex
 10
621.0595157400407
 20
423.951581538216
 30
0.0
 70
     8
  0
VERTEX
  5
5C6
330
5BE
100
AcDbEntity
  8
HILF
100
AcDbVertex
100
AcDb2dVertex
 10
622.3778751150407
 20
428.536298335091
 30
0.0
 70
     8
  0
VERTEX
  5
5C7
330
5BE
100
AcDbEntity
  8
HILF
100
AcDbVertex
100
AcDb2dVertex
 10
624.0477969900407
 20
432.860272944466
 30
0.0
 70
     8
  0
VERTEX
  5
5C8
330
5BE
100
AcDbEntity
  8
HILF
100
AcDbVertex
100
AcDb2dVertex
 10
625.8935001150407
 20
437.053876460091
 30
0.0
 70
     8
  0
VERTEX
  5
5C9
330
5BE
100
AcDbEntity
  8
HILF
100
AcDbVertex
100
AcDb2dVertex
 10
627.7392032400407
 20
441.247479975716
 30
0.0
 70
     8
  0
VERTEX
  5
5CA
330
5BE
100
AcDbEntity
  8
HILF
100
AcDbVertex
100
AcDb2dVertex
 10
629.4091251150407
 20
445.571454585091
 30
0.0
 70
     8
  0
VERTEX
  5
5CB
330
5BE
100
AcDbEntity
  8
HILF
100
AcDbVertex
100
AcDb2dVertex
 10
630.7274844900407
 20
450.156171381966
 30
0.0
 70
     8
  0
VERTEX
  5
5CC
330
5BE
100
AcDbEntity
  8
HILF
100
AcDbVertex
100
AcDb2dVertex
 10
631.5185001150407
 20
455.132001460091
 30
0.0
 70
     8
  0
VERTEX
  5
5CD
330
5BE
100
AcDbEntity
  8
HILF
100
AcDbVertex
100
AcDb2dVertex
 10
631.6063907400407
 20
460.629315913216
 30
0.0
 70
     8
  0
VERTEX
  5
5CE
330
5BE
100
AcDbEntity
  8
HILF
100
AcDbVertex
100
AcDb2dVertex
 10
630.8153751150407
 20
466.778485835091
 30
0.0
 70
     8
  0
VERTEX
  5
5CF
330
5BE
100
AcDbEntity
  8
HILF
100
AcDbVertex
100
AcDb2dVertex
 10
628.9696719900406
 20
473.709882319466
 30
0.0
 70
     8
  0
VERTEX
  5
5D0
330
5BE
100
AcDbEntity
  8
HILF
100
AcDbVertex
100
AcDb2dVertex
 10
625.8935001150406
 20
481.553876460091
 30
0.0
 70
     8
  0
VERTEX
  5
5D1
330
5BE
100
AcDbEntity
  8
HILF
100
AcDbVertex
100
AcDb2dVertex
 10
615.8935001150407
 20
414.803876460091
 30
0.0
 70
    16
  0
VERTEX
  5
5D2
330
5BE
100
AcDbEntity
  8
HILF
100
AcDbVertex
100
AcDb2dVertex
 10
625.8935001150407
 20
437.053876460091
 30
0.0
 70
    16
  0
VERTEX
  5
5D3
330
5BE
100
AcDbEntity
  8
HILF
100
AcDbVertex
100
AcDb2dVertex
 10
635.8935001150407
 20
459.3038764600909
 30
0.0
 70
    16
  0
VERTEX
  5
5D4
330
5BE
100
AcDbEntity
  8
HILF
100
AcDbVertex
100
AcDb2dVertex
 10
625.8935001150407
 20
481.5538764600909
 30
0.0
 70
    16
  0
SEQEND
  5
5D5
330
5BE
100
AcDbEntity
  8
HILF
  0
POLYLINE
  5
5D6
330
1E
100
AcDbEntity
  8
HILF
100
AcDb2dPolyline
 66
     1
 10
0.0
 20
0.0
 30
0.0
 70
     4
 75
     6
  0
VERTEX
  5
5D7
330
5D6
100
AcDbEntity
  8
HILF
100
AcDbVertex
100
AcDb2dVertex
 10
328.3257516512472
 20
392.5538764600911
 30
0.0
 70
    16
  0
VERTEX
  5
5D8
330
5D6
100
AcDbEntity
  8
HILF
100
AcDbVertex
100
AcDb2dVertex
 10
328.3257516512472
 20
392.5538764600911
 30
0.0
 70
     8
  0
VERTEX
  5
5D9
330
5D6
100
AcDbEntity
  8
HILF
100
AcDbVertex
100
AcDb2dVertex
 10
325.2495797762472
 20
400.397870600716
 30
0.0
 70
     8
  0
VERTEX
  5
5DA
330
5D6
100
AcDbEntity
  8
HILF
100
AcDbVertex
100
AcDb2dVertex
 10
323.4038766512472
 20
407.329267085091
 30
0.0
 70
     8
  0
VERTEX
  5
5DB
330
5D6
100
AcDbEntity
  8
HILF
100
AcDbVertex
100
AcDb2dVertex
 10
322.6128610262472
 20
413.478437006966
 30
0.0
 70
     8
  0
VERTEX
  5
5DC
330
5D6
100
AcDbEntity
  8
HILF
100
AcDbVertex
100
AcDb2dVertex
 10
322.7007516512472
 20
418.975751460091
 30
0.0
 70
     8
  0
VERTEX
  5
5DD
330
5D6
100
AcDbEntity
  8
HILF
100
AcDbVertex
100
AcDb2dVertex
 10
323.4917672762472
 20
423.951581538216
 30
0.0
 70
     8
  0
VERTEX
  5
5DE
330
5D6
100
AcDbEntity
  8
HILF
100
AcDbVertex
100
AcDb2dVertex
 10
324.8101266512472
 20
428.536298335091
 30
0.0
 70
     8
  0
VERTEX
  5
5DF
330
5D6
100
AcDbEntity
  8
HILF
100
AcDbVertex
100
AcDb2dVertex
 10
326.4800485262472
 20
432.860272944466
 30
0.0
 70
     8
  0
VERTEX
  5
5E0
330
5D6
100
AcDbEntity
  8
HILF
100
AcDbVertex
100
AcDb2dVertex
 10
328.3257516512472
 20
437.053876460091
 30
0.0
 70
     8
  0
VERTEX
  5
5E1
330
5D6
100
AcDbEntity
  8
HILF
100
AcDbVertex
100
AcDb2dVertex
 10
330.1714547762472
 20
441.247479975716
 30
0.0
 70
     8
  0
VERTEX
  5
5E2
330
5D6
100
AcDbEntity
  8
HILF
100
AcDbVertex
100
AcDb2dVertex
 10
331.8413766512472
 20
445.571454585091
 30
0.0
 70
     8
  0
VERTEX
  5
5E3
330
5D6
100
AcDbEntity
  8
HILF
100
AcDbVertex
100
AcDb2dVertex
 10
333.1597360262472
 20
450.156171381966
 30
0.0
 70
     8
  0
VERTEX
  5
5E4
330
5D6
100
AcDbEntity
  8
HILF
100
AcDbVertex
100
AcDb2dVertex
 10
333.9507516512472
 20
455.132001460091
 30
0.0
 70
     8
  0
VERTEX
  5
5E5
330
5D6
100
AcDbEntity
  8
HILF
100
AcDbVertex
100
AcDb2dVertex
 10
334.0386422762472
 20
460.629315913216
 30
0.0
 70
     8
  0
VERTEX
  5
5E6
330
5D6
100
AcDbEntity
  8
HILF
100
AcDbVertex
100
AcDb2dVertex
 10
333.2476266512472
 20
466.778485835091
 30
0.0
 70
     8
  0
VERTEX
  5
5E7
330
5D6
100
AcDbEntity
  8
HILF
100
AcDbVertex
100
AcDb2dVertex
 10
331.4019235262471
 20
473.709882319466
 30
0.0
 70
     8
  0
VERTEX
  5
5E8
330
5D6
100
AcDbEntity
  8
HILF
100
AcDbVertex
100
AcDb2dVertex
 10
328.3257516512471
 20
481.553876460091
 30
0.0
 70
     8
  0
VERTEX
  5
5E9
330
5D6
100
AcDbEntity
  8
HILF
100
AcDbVertex
100
AcDb2dVertex
 10
318.3257516512472
 20
414.803876460091
 30
0.0
 70
    16
  0
VERTEX
  5
5EA
330
5D6
100
AcDbEntity
  8
HILF
100
AcDbVertex
100
AcDb2dVertex
 10
328.3257516512472
 20
437.053876460091
 30
0.0
 70
    16
  0
VERTEX
  5
5EB
330
5D6
100
AcDbEntity
  8
HILF
100
AcDbVertex
100
AcDb2dVertex
 10
338.3257516512472
 20
459.3038764600909
 30
0.0
 70
    16
  0
VERTEX
  5
5EC
330
5D6
100
AcDbEntity
  8
HILF
100
AcDbVertex
100
AcDb2dVertex
 10
328.3257516512472
 20
481.5538764600909
 30
0.0
 70
    16
  0
SEQEND
  5
5ED
330
5D6
100
AcDbEntity
  8
HILF
  0
POLYLINE
  5
5EE
330
1E
100
AcDbEntity
  8
HILF
100
AcDb2dPolyline
 66
     1
 10
0.0
 20
0.0
 30
0.0
 70
     4
 75
     6
  0
VERTEX
  5
5EF
330
5EE
100
AcDbEntity
  8
HILF
100
AcDbVertex
100
AcDb2dVertex
 10
333.3257516512472
 20
392.5538764600911
 30
0.0
 70
    16
  0
VERTEX
  5
5F0
330
5EE
100
AcDbEntity
  8
HILF
100
AcDbVertex
100
AcDb2dVertex
 10
333.3257516512472
 20
392.5538764600911
 30
0.0
 70
     8
  0
VERTEX
  5
5F1
330
5EE
100
AcDbEntity
  8
HILF
100
AcDbVertex
100
AcDb2dVertex
 10
330.2495797762472
 20
400.397870600716
 30
0.0
 70
     8
  0
VERTEX
  5
5F2
330
5EE
100
AcDbEntity
  8
HILF
100
AcDbVertex
100
AcDb2dVertex
 10
328.4038766512472
 20
407.329267085091
 30
0.0
 70
     8
  0
VERTEX
  5
5F3
330
5EE
100
AcDbEntity
  8
HILF
100
AcDbVertex
100
AcDb2dVertex
 10
327.6128610262472
 20
413.478437006966
 30
0.0
 70
     8
  0
VERTEX
  5
5F4
330
5EE
100
AcDbEntity
  8
HILF
100
AcDbVertex
100
AcDb2dVertex
 10
327.7007516512472
 20
418.975751460091
 30
0.0
 70
     8
  0
VERTEX
  5
5F5
330
5EE
100
AcDbEntity
  8
HILF
100
AcDbVertex
100
AcDb2dVertex
 10
328.4917672762472
 20
423.951581538216
 30
0.0
 70
     8
  0
VERTEX
  5
5F6
330
5EE
100
AcDbEntity
  8
HILF
100
AcDbVertex
100
AcDb2dVertex
 10
329.8101266512472
 20
428.536298335091
 30
0.0
 70
     8
  0
VERTEX
  5
5F7
330
5EE
100
AcDbEntity
  8
HILF
100
AcDbVertex
100
AcDb2dVertex
 10
331.4800485262472
 20
432.860272944466
 30
0.0
 70
     8
  0
VERTEX
  5
5F8
330
5EE
100
AcDbEntity
  8
HILF
100
AcDbVertex
100
AcDb2dVertex
 10
333.3257516512472
 20
437.053876460091
 30
0.0
 70
     8
  0
VERTEX
  5
5F9
330
5EE
100
AcDbEntity
  8
HILF
100
AcDbVertex
100
AcDb2dVertex
 10
335.1714547762472
 20
441.247479975716
 30
0.0
 70
     8
  0
VERTEX
  5
5FA
330
5EE
100
AcDbEntity
  8
HILF
100
AcDbVertex
100
AcDb2dVertex
 10
336.8413766512472
 20
445.571454585091
 30
0.0
 70
     8
  0
VERTEX
  5
5FB
330
5EE
100
AcDbEntity
  8
HILF
100
AcDbVertex
100
AcDb2dVertex
 10
338.1597360262472
 20
450.156171381966
 30
0.0
 70
     8
  0
VERTEX
  5
5FC
330
5EE
100
AcDbEntity
  8
HILF
100
AcDbVertex
100
AcDb2dVertex
 10
338.9507516512472
 20
455.132001460091
 30
0.0
 70
     8
  0
VERTEX
  5
5FD
330
5EE
100
AcDbEntity
  8
HILF
100
AcDbVertex
100
AcDb2dVertex
 10
339.0386422762472
 20
460.629315913216
 30
0.0
 70
     8
  0
VERTEX
  5
5FE
330
5EE
100
AcDbEntity
  8
HILF
100
AcDbVertex
100
AcDb2dVertex
 10
338.2476266512472
 20
466.778485835091
 30
0.0
 70
     8
  0
VERTEX
  5
5FF
330
5EE
100
AcDbEntity
  8
HILF
100
AcDbVertex
100
AcDb2dVertex
 10
336.4019235262471
 20
473.709882319466
 30
0.0
 70
     8
  0
VERTEX
  5
600
330
5EE
100
AcDbEntity
  8
HILF
100
AcDbVertex
100
AcDb2dVertex
 10
333.3257516512471
 20
481.553876460091
 30
0.0
 70
     8
  0
VERTEX
  5
601
330
5EE
100
AcDbEntity
  8
HILF
100
AcDbVertex
100
AcDb2dVertex
 10
323.3257516512472
 20
414.803876460091
 30
0.0
 70
    16
  0
VERTEX
  5
602
330
5EE
100
AcDbEntity
  8
HILF
100
AcDbVertex
100
AcDb2dVertex
 10
333.3257516512472
 20
437.053876460091
 30
0.0
 70
    16
  0
VERTEX
  5
603
330
5EE
100
AcDbEntity
  8
HILF
100
AcDbVertex
100
AcDb2dVertex
 10
343.3257516512472
 20
459.3038764600909
 30
0.0
 70
    16
  0
VERTEX
  5
604
330
5EE
100
AcDbEntity
  8
HILF
100
AcDbVertex
100
AcDb2dVertex
 10
333.3257516512472
 20
481.5538764600909
 30
0.0
 70
    16
  0
SEQEND
  5
605
330
5EE
100
AcDbEntity
  8
HILF
  0
POLYLINE
  5
606
330
1E
100
AcDbEntity
  8
HILF
100
AcDb2dPolyline
 66
     1
 10
0.0
 20
0.0
 30
0.0
 70
     4
 75
     6
  0
VERTEX
  5
607
330
606
100
AcDbEntity
  8
HILF
100
AcDbVertex
100
AcDb2dVertex
 10
333.3257516512472
 20
199.0774764856086
 30
0.0
 70
    16
  0
VERTEX
  5
608
330
606
100
AcDbEntity
  8
HILF
100
AcDbVertex
100
AcDb2dVertex
 10
333.3257516512472
 20
199.0774764856086
 30
0.0
 70
     8
  0
VERTEX
  5
609
330
606
100
AcDbEntity
  8
HILF
100
AcDbVertex
100
AcDb2dVertex
 10
330.2495797762472
 20
206.9214706262336
 30
0.0
 70
     8
  0
VERTEX
  5
60A
330
606
100
AcDbEntity
  8
HILF
100
AcDbVertex
100
AcDb2dVertex
 10
328.4038766512472
 20
213.8528671106086
 30
0.0
 70
     8
  0
VERTEX
  5
60B
330
606
100
AcDbEntity
  8
HILF
100
AcDbVertex
100
AcDb2dVertex
 10
327.6128610262472
 20
220.0020370324836
 30
0.0
 70
     8
  0
VERTEX
  5
60C
330
606
100
AcDbEntity
  8
HILF
100
AcDbVertex
100
AcDb2dVertex
 10
327.7007516512472
 20
225.4993514856086
 30
0.0
 70
     8
  0
VERTEX
  5
60D
330
606
100
AcDbEntity
  8
HILF
100
AcDbVertex
100
AcDb2dVertex
 10
328.4917672762472
 20
230.4751815637336
 30
0.0
 70
     8
  0
VERTEX
  5
60E
330
606
100
AcDbEntity
  8
HILF
100
AcDbVertex
100
AcDb2dVertex
 10
329.8101266512472
 20
235.0598983606086
 30
0.0
 70
     8
  0
VERTEX
  5
60F
330
606
100
AcDbEntity
  8
HILF
100
AcDbVertex
100
AcDb2dVertex
 10
331.4800485262472
 20
239.3838729699836
 30
0.0
 70
     8
  0
VERTEX
  5
610
330
606
100
AcDbEntity
  8
HILF
100
AcDbVertex
100
AcDb2dVertex
 10
333.3257516512472
 20
243.5774764856086
 30
0.0
 70
     8
  0
VERTEX
  5
611
330
606
100
AcDbEntity
  8
HILF
100
AcDbVertex
100
AcDb2dVertex
 10
335.1714547762472
 20
247.7710800012336
 30
0.0
 70
     8
  0
VERTEX
  5
612
330
606
100
AcDbEntity
  8
HILF
100
AcDbVertex
100
AcDb2dVertex
 10
336.8413766512472
 20
252.0950546106086
 30
0.0
 70
     8
  0
VERTEX
  5
613
330
606
100
AcDbEntity
  8
HILF
100
AcDbVertex
100
AcDb2dVertex
 10
338.1597360262472
 20
256.6797714074836
 30
0.0
 70
     8
  0
VERTEX
  5
614
330
606
100
AcDbEntity
  8
HILF
100
AcDbVertex
100
AcDb2dVertex
 10
338.9507516512472
 20
261.6556014856086
 30
0.0
 70
     8
  0
VERTEX
  5
615
330
606
100
AcDbEntity
  8
HILF
100
AcDbVertex
100
AcDb2dVertex
 10
339.0386422762472
 20
267.1529159387336
 30
0.0
 70
     8
  0
VERTEX
  5
616
330
606
100
AcDbEntity
  8
HILF
100
AcDbVertex
100
AcDb2dVertex
 10
338.2476266512472
 20
273.3020858606086
 30
0.0
 70
     8
  0
VERTEX
  5
617
330
606
100
AcDbEntity
  8
HILF
100
AcDbVertex
100
AcDb2dVertex
 10
336.4019235262471
 20
280.2334823449836
 30
0.0
 70
     8
  0
VERTEX
  5
618
330
606
100
AcDbEntity
  8
HILF
100
AcDbVertex
100
AcDb2dVertex
 10
333.3257516512471
 20
288.0774764856086
 30
0.0
 70
     8
  0
VERTEX
  5
619
330
606
100
AcDbEntity
  8
HILF
100
AcDbVertex
100
AcDb2dVertex
 10
323.3257516512472
 20
221.3274764856086
 30
0.0
 70
    16
  0
VERTEX
  5
61A
330
606
100
AcDbEntity
  8
HILF
100
AcDbVertex
100
AcDb2dVertex
 10
333.3257516512472
 20
243.5774764856086
 30
0.0
 70
    16
  0
VERTEX
  5
61B
330
606
100
AcDbEntity
  8
HILF
100
AcDbVertex
100
AcDb2dVertex
 10
343.3257516512472
 20
265.8274764856086
 30
0.0
 70
    16
  0
VERTEX
  5
61C
330
606
100
AcDbEntity
  8
HILF
100
AcDbVertex
100
AcDb2dVertex
 10
333.3257516512472
 20
288.0774764856085
 30
0.0
 70
    16
  0
SEQEND
  5
61D
330
606
100
AcDbEntity
  8
HILF
  0
POLYLINE
  5
61E
330
1E
100
AcDbEntity
  8
HILF
100
AcDb2dPolyline
 66
     1
 10
0.0
 20
0.0
 30
0.0
 70
     4
 75
     6
  0
VERTEX
  5
61F
330
61E
100
AcDbEntity
  8
HILF
100
AcDbVertex
100
AcDb2dVertex
 10
328.3257516512472
 20
199.0774764856086
 30
0.0
 70
    16
  0
VERTEX
  5
620
330
61E
100
AcDbEntity
  8
HILF
100
AcDbVertex
100
AcDb2dVertex
 10
328.3257516512472
 20
199.0774764856086
 30
0.0
 70
     8
  0
VERTEX
  5
621
330
61E
100
AcDbEntity
  8
HILF
100
AcDbVertex
100
AcDb2dVertex
 10
325.2495797762472
 20
206.9214706262336
 30
0.0
 70
     8
  0
VERTEX
  5
622
330
61E
100
AcDbEntity
  8
HILF
100
AcDbVertex
100
AcDb2dVertex
 10
323.4038766512472
 20
213.8528671106086
 30
0.0
 70
     8
  0
VERTEX
  5
623
330
61E
100
AcDbEntity
  8
HILF
100
AcDbVertex
100
AcDb2dVertex
 10
322.6128610262472
 20
220.0020370324836
 30
0.0
 70
     8
  0
VERTEX
  5
624
330
61E
100
AcDbEntity
  8
HILF
100
AcDbVertex
100
AcDb2dVertex
 10
322.7007516512472
 20
225.4993514856086
 30
0.0
 70
     8
  0
VERTEX
  5
625
330
61E
100
AcDbEntity
  8
HILF
100
AcDbVertex
100
AcDb2dVertex
 10
323.4917672762472
 20
230.4751815637336
 30
0.0
 70
     8
  0
VERTEX
  5
626
330
61E
100
AcDbEntity
  8
HILF
100
AcDbVertex
100
AcDb2dVertex
 10
324.8101266512472
 20
235.0598983606086
 30
0.0
 70
     8
  0
VERTEX
  5
627
330
61E
100
AcDbEntity
  8
HILF
100
AcDbVertex
100
AcDb2dVertex
 10
326.4800485262472
 20
239.3838729699836
 30
0.0
 70
     8
  0
VERTEX
  5
628
330
61E
100
AcDbEntity
  8
HILF
100
AcDbVertex
100
AcDb2dVertex
 10
328.3257516512472
 20
243.5774764856086
 30
0.0
 70
     8
  0
VERTEX
  5
629
330
61E
100
AcDbEntity
  8
HILF
100
AcDbVertex
100
AcDb2dVertex
 10
330.1714547762472
 20
247.7710800012336
 30
0.0
 70
     8
  0
VERTEX
  5
62A
330
61E
100
AcDbEntity
  8
HILF
100
AcDbVertex
100
AcDb2dVertex
 10
331.8413766512472
 20
252.0950546106086
 30
0.0
 70
     8
  0
VERTEX
  5
62B
330
61E
100
AcDbEntity
  8
HILF
100
AcDbVertex
100
AcDb2dVertex
 10
333.1597360262472
 20
256.6797714074836
 30
0.0
 70
     8
  0
VERTEX
  5
62C
330
61E
100
AcDbEntity
  8
HILF
100
AcDbVertex
100
AcDb2dVertex
 10
333.9507516512472
 20
261.6556014856086
 30
0.0
 70
     8
  0
VERTEX
  5
62D
330
61E
100
AcDbEntity
  8
HILF
100
AcDbVertex
100
AcDb2dVertex
 10
334.0386422762472
 20
267.1529159387336
 30
0.0
 70
     8
  0
VERTEX
  5
62E
330
61E
100
AcDbEntity
  8
HILF
100
AcDbVertex
100
AcDb2dVertex
 10
333.2476266512472
 20
273.3020858606086
 30
0.0
 70
     8
  0
VERTEX
  5
62F
330
61E
100
AcDbEntity
  8
HILF
100
AcDbVertex
100
AcDb2dVertex
 10
331.4019235262471
 20
280.2334823449836
 30
0.0
 70
     8
  0
VERTEX
  5
630
330
61E
100
AcDbEntity
  8
HILF
100
AcDbVertex
100
AcDb2dVertex
 10
328.3257516512471
 20
288.0774764856086
 30
0.0
 70
     8
  0
VERTEX
  5
631
330
61E
100
AcDbEntity
  8
HILF
100
AcDbVertex
100
AcDb2dVertex
 10
318.3257516512472
 20
221.3274764856086
 30
0.0
 70
    16
  0
VERTEX
  5
632
330
61E
100
AcDbEntity
  8
HILF
100
AcDbVertex
100
AcDb2dVertex
 10
328.3257516512472
 20
243.5774764856086
 30
0.0
 70
    16
  0
VERTEX
  5
633
330
61E
100
AcDbEntity
  8
HILF
100
AcDbVertex
100
AcDb2dVertex
 10
338.3257516512472
 20
265.8274764856086
 30
0.0
 70
    16
  0
VERTEX
  5
634
330
61E
100
AcDbEntity
  8
HILF
100
AcDbVertex
100
AcDb2dVertex
 10
328.3257516512472
 20
288.0774764856085
 30
0.0
 70
    16
  0
SEQEND
  5
635
330
61E
100
AcDbEntity
  8
HILF
  0
POLYLINE
  5
636
330
1E
100
AcDbEntity
  8
HILF
100
AcDb2dPolyline
 66
     1
 10
0.0
 20
0.0
 30
0.0
 70
     4
 75
     6
  0
VERTEX
  5
637
330
636
100
AcDbEntity
  8
HILF
100
AcDbVertex
100
AcDb2dVertex
 10
625.8935001150407
 20
199.0774764856086
 30
0.0
 70
    16
  0
VERTEX
  5
638
330
636
100
AcDbEntity
  8
HILF
100
AcDbVertex
100
AcDb2dVertex
 10
625.8935001150407
 20
199.0774764856086
 30
0.0
 70
     8
  0
VERTEX
  5
639
330
636
100
AcDbEntity
  8
HILF
100
AcDbVertex
100
AcDb2dVertex
 10
622.8173282400407
 20
206.9214706262336
 30
0.0
 70
     8
  0
VERTEX
  5
63A
330
636
100
AcDbEntity
  8
HILF
100
AcDbVertex
100
AcDb2dVertex
 10
620.9716251150407
 20
213.8528671106086
 30
0.0
 70
     8
  0
VERTEX
  5
63B
330
636
100
AcDbEntity
  8
HILF
100
AcDbVertex
100
AcDb2dVertex
 10
620.1806094900407
 20
220.0020370324836
 30
0.0
 70
     8
  0
VERTEX
  5
63C
330
636
100
AcDbEntity
  8
HILF
100
AcDbVertex
100
AcDb2dVertex
 10
620.2685001150407
 20
225.4993514856086
 30
0.0
 70
     8
  0
VERTEX
  5
63D
330
636
100
AcDbEntity
  8
HILF
100
AcDbVertex
100
AcDb2dVertex
 10
621.0595157400407
 20
230.4751815637336
 30
0.0
 70
     8
  0
VERTEX
  5
63E
330
636
100
AcDbEntity
  8
HILF
100
AcDbVertex
100
AcDb2dVertex
 10
622.3778751150407
 20
235.0598983606086
 30
0.0
 70
     8
  0
VERTEX
  5
63F
330
636
100
AcDbEntity
  8
HILF
100
AcDbVertex
100
AcDb2dVertex
 10
624.0477969900407
 20
239.3838729699836
 30
0.0
 70
     8
  0
VERTEX
  5
640
330
636
100
AcDbEntity
  8
HILF
100
AcDbVertex
100
AcDb2dVertex
 10
625.8935001150407
 20
243.5774764856086
 30
0.0
 70
     8
  0
VERTEX
  5
641
330
636
100
AcDbEntity
  8
HILF
100
AcDbVertex
100
AcDb2dVertex
 10
627.7392032400407
 20
247.7710800012336
 30
0.0
 70
     8
  0
VERTEX
  5
642
330
636
100
AcDbEntity
  8
HILF
100
AcDbVertex
100
AcDb2dVertex
 10
629.4091251150407
 20
252.0950546106086
 30
0.0
 70
     8
  0
VERTEX
  5
643
330
636
100
AcDbEntity
  8
HILF
100
AcDbVertex
100
AcDb2dVertex
 10
630.7274844900407
 20
256.6797714074836
 30
0.0
 70
     8
  0
VERTEX
  5
644
330
636
100
AcDbEntity
  8
HILF
100
AcDbVertex
100
AcDb2dVertex
 10
631.5185001150407
 20
261.6556014856086
 30
0.0
 70
     8
  0
VERTEX
  5
645
330
636
100
AcDbEntity
  8
HILF
100
AcDbVertex
100
AcDb2dVertex
 10
631.6063907400407
 20
267.1529159387336
 30
0.0
 70
     8
  0
VERTEX
  5
646
330
636
100
AcDbEntity
  8
HILF
100
AcDbVertex
100
AcDb2dVertex
 10
630.8153751150407
 20
273.3020858606086
 30
0.0
 70
     8
  0
VERTEX
  5
647
330
636
100
AcDbEntity
  8
HILF
100
AcDbVertex
100
AcDb2dVertex
 10
628.9696719900406
 20
280.2334823449836
 30
0.0
 70
     8
  0
VERTEX
  5
648
330
636
100
AcDbEntity
  8
HILF
100
AcDbVertex
100
AcDb2dVertex
 10
625.8935001150406
 20
288.0774764856086
 30
0.0
 70
     8
  0
VERTEX
  5
649
330
636
100
AcDbEntity
  8
HILF
100
AcDbVertex
100
AcDb2dVertex
 10
615.8935001150407
 20
221.3274764856086
 30
0.0
 70
    16
  0
VERTEX
  5
64A
330
636
100
AcDbEntity
  8
HILF
100
AcDbVertex
100
AcDb2dVertex
 10
625.8935001150407
 20
243.5774764856086
 30
0.0
 70
    16
  0
VERTEX
  5
64B
330
636
100
AcDbEntity
  8
HILF
100
AcDbVertex
100
AcDb2dVertex
 10
635.8935001150407
 20
265.8274764856086
 30
0.0
 70
    16
  0
VERTEX
  5
64C
330
636
100
AcDbEntity
  8
HILF
100
AcDbVertex
100
AcDb2dVertex
 10
625.8935001150407
 20
288.0774764856085
 30
0.0
 70
    16
  0
SEQEND
  5
64D
330
636
100
AcDbEntity
  8
HILF
  0
POLYLINE
  5
64E
330
1E
100
AcDbEntity
  8
HILF
100
AcDb2dPolyline
 66
     1
 10
0.0
 20
0.0
 30
0.0
 70
     4
 75
     6
  0
VERTEX
  5
64F
330
64E
100
AcDbEntity
  8
HILF
100
AcDbVertex
100
AcDb2dVertex
 10
630.8935001150407
 20
199.0774764856086
 30
0.0
 70
    16
  0
VERTEX
  5
650
330
64E
100
AcDbEntity
  8
HILF
100
AcDbVertex
100
AcDb2dVertex
 10
630.8935001150407
 20
199.0774764856086
 30
0.0
 70
     8
  0
VERTEX
  5
651
330
64E
100
AcDbEntity
  8
HILF
100
AcDbVertex
100
AcDb2dVertex
 10
627.8173282400407
 20
206.9214706262336
 30
0.0
 70
     8
  0
VERTEX
  5
652
330
64E
100
AcDbEntity
  8
HILF
100
AcDbVertex
100
AcDb2dVertex
 10
625.9716251150408
 20
213.8528671106086
 30
0.0
 70
     8
  0
VERTEX
  5
653
330
64E
100
AcDbEntity
  8
HILF
100
AcDbVertex
100
AcDb2dVertex
 10
625.1806094900407
 20
220.0020370324836
 30
0.0
 70
     8
  0
VERTEX
  5
654
330
64E
100
AcDbEntity
  8
HILF
100
AcDbVertex
100
AcDb2dVertex
 10
625.2685001150407
 20
225.4993514856086
 30
0.0
 70
     8
  0
VERTEX
  5
655
330
64E
100
AcDbEntity
  8
HILF
100
AcDbVertex
100
AcDb2dVertex
 10
626.0595157400407
 20
230.4751815637336
 30
0.0
 70
     8
  0
VERTEX
  5
656
330
64E
100
AcDbEntity
  8
HILF
100
AcDbVertex
100
AcDb2dVertex
 10
627.3778751150407
 20
235.0598983606086
 30
0.0
 70
     8
  0
VERTEX
  5
657
330
64E
100
AcDbEntity
  8
HILF
100
AcDbVertex
100
AcDb2dVertex
 10
629.0477969900408
 20
239.3838729699836
 30
0.0
 70
     8
  0
VERTEX
  5
658
330
64E
100
AcDbEntity
  8
HILF
100
AcDbVertex
100
AcDb2dVertex
 10
630.8935001150407
 20
243.5774764856086
 30
0.0
 70
     8
  0
VERTEX
  5
659
330
64E
100
AcDbEntity
  8
HILF
100
AcDbVertex
100
AcDb2dVertex
 10
632.7392032400407
 20
247.7710800012336
 30
0.0
 70
     8
  0
VERTEX
  5
65A
330
64E
100
AcDbEntity
  8
HILF
100
AcDbVertex
100
AcDb2dVertex
 10
634.4091251150407
 20
252.0950546106086
 30
0.0
 70
     8
  0
VERTEX
  5
65B
330
64E
100
AcDbEntity
  8
HILF
100
AcDbVertex
100
AcDb2dVertex
 10
635.7274844900407
 20
256.6797714074836
 30
0.0
 70
     8
  0
VERTEX
  5
65C
330
64E
100
AcDbEntity
  8
HILF
100
AcDbVertex
100
AcDb2dVertex
 10
636.5185001150408
 20
261.6556014856086
 30
0.0
 70
     8
  0
VERTEX
  5
65D
330
64E
100
AcDbEntity
  8
HILF
100
AcDbVertex
100
AcDb2dVertex
 10
636.6063907400407
 20
267.1529159387336
 30
0.0
 70
     8
  0
VERTEX
  5
65E
330
64E
100
AcDbEntity
  8
HILF
100
AcDbVertex
100
AcDb2dVertex
 10
635.8153751150407
 20
273.3020858606086
 30
0.0
 70
     8
  0
VERTEX
  5
65F
330
64E
100
AcDbEntity
  8
HILF
100
AcDbVertex
100
AcDb2dVertex
 10
633.9696719900406
 20
280.2334823449836
 30
0.0
 70
     8
  0
VERTEX
  5
660
330
64E
100
AcDbEntity
  8
HILF
100
AcDbVertex
100
AcDb2dVertex
 10
630.8935001150406
 20
288.0774764856086
 30
0.0
 70
     8
  0
VERTEX
  5
661
330
64E
100
AcDbEntity
  8
HILF
100
AcDbVertex
100
AcDb2dVertex
 10
620.8935001150408
 20
221.3274764856086
 30
0.0
 70
    16
  0
VERTEX
  5
662
330
64E
100
AcDbEntity
  8
HILF
100
AcDbVertex
100
AcDb2dVertex
 10
630.8935001150407
 20
243.5774764856086
 30
0.0
 70
    16
  0
VERTEX
  5
663
330
64E
100
AcDbEntity
  8
HILF
100
AcDbVertex
100
AcDb2dVertex
 10
640.8935001150407
 20
265.8274764856086
 30
0.0
 70
    16
  0
VERTEX
  5
664
330
64E
100
AcDbEntity
  8
HILF
100
AcDbVertex
100
AcDb2dVertex
 10
630.8935001150407
 20
288.0774764856085
 30
0.0
 70
    16
  0
SEQEND
  5
665
330
64E
100
AcDbEntity
  8
HILF
  0
LINE
  5
666
330
1E
100
AcDbEntity
  8
STEMPEL
100
AcDbLine
 10
328.3257516512469
 20
481.553876460091
 30
0.0
 11
193.5809128892188
 21
481.553876460091
 31
0.0
  0
LINE
  5
667
330
1E
100
AcDbEntity
  8
STEMPEL
100
AcDbLine
 10
328.3257516512471
 20
392.5538764600911
 30
0.0
 11
193.5809128892188
 21
392.5538764600911
 31
0.0
  0
LINE
  5
668
330
1E
100
AcDbEntity
  8
STEMPEL
100
AcDbLine
 10
625.8935001150406
 20
481.5538764600909
 30
0.0
 11
549.1554782619296
 21
481.5538764600909
 31
0.0
  0
LINE
  5
669
330
1E
100
AcDbEntity
  8
STEMPEL
100
AcDbLine
 10
625.8935001150407
 20
392.5538764600911
 30
0.0
 11
333.3257516512471
 21
392.5538764600911
 31
0.0
  0
LINE
  5
66A
330
1E
100
AcDbEntity
  8
STEMPEL
100
AcDbLine
 10
328.325751651247
 20
288.0774764856086
 30
0.0
 11
193.5809128892185
 21
288.0774764856086
 31
0.0
  0
LINE
  5
66B
330
1E
100
AcDbEntity
  8
STEMPEL
100
AcDbLine
 10
328.3257516512471
 20
199.0774764856086
 30
0.0
 11
193.5809128892185
 21
199.0774764856087
 31
0.0
  0
LINE
  5
66C
330
1E
100
AcDbEntity
  8
STEMPEL
100
AcDbLine
 10
625.8935001150406
 20
288.0774764856086
 30
0.0
 11
522.6676697586953
 21
288.0774764856086
 31
0.0
  0
LINE
  5
66D
330
1E
100
AcDbEntity
  8
STEMPEL
100
AcDbLine
 10
625.8935001150408
 20
199.0774764856086
 30
0.0
 11
522.6676697586952
 21
199.0774764856086
 31
0.0
  0
DIMENSION
  5
6A4
330
1E
100
AcDbEntity
  8
BEM
100
AcDbDimension
  2
*D5
 10
87.66392519923357
 20
481.553876460091
 30
0.0
 11
81.16392519923349
 21
437.0538764600911
 31
0.0
 70
    32
  1
%%c<>
 71
     5
 42
88.99999999999977
  3
Standard
100
AcDbAlignedDimension
 13
193.5809128892188
 23
392.5538764600912
 33
0.0
 14
193.5809128892188
 24
481.5538764600909
 34
0.0
 50
90.0
100
AcDbRotatedDimension
1001
ACAD
1000
DSTYLE
1002
{
1070
    40
1040
2.0
1070
    41
1040
3.5
1070
    42
1040
1.0
1070
    43
1040
7.0
1070
    44
1040
1.0
1070
    73
1070
     0
1070
    74
1070
     0
1070
    77
1070
     1
1070
    78
1070
     8
1070
    79
1070
     2
1070
   140
1040
3.5
1070
   141
1040
1.5
1070
   146
1040
0.5142857142857144
1070
   147
1040
1.5
1070
   172
1070
     1
1070
   178
1070
     1
1070
   179
1070
     2
1070
   271
1070
     2
1070
   272
1070
     2
1070
   284
1070
     8
1070
   285
1070
     8
1070
   286
1070
     8
1002
}
  0
LINE
  5
6A5
330
1E
100
AcDbEntity
  8
STEMPEL
100
AcDbLine
 10
102.1568451835618
 20
488.0538764600911
 30
0.0
 11
102.156845183562
 21
386.0538764600911
 31
0.0
  0
LINE
  5
6A6
330
1E
100
AcDbEntity
  8
STEMPEL
100
AcDbLine
 10
177.1568451835618
 20
488.0538764600911
 30
0.0
 11
102.1568451835618
 21
488.0538764600911
 31
0.0
  0
ARC
  5
6A7
330
1E
100
AcDbEntity
  8
STEMPEL
100
AcDbCircle
 10
177.1568451835618
 20
476.053876460091
 30
0.0
 40
12.0
100
AcDbArc
 50
46.81657820382667
 51
90.0
  0
ARC
  5
6A8
330
1E
100
AcDbEntity
  8
STEMPEL
100
AcDbCircle
 10
193.5809128892188
 20
493.5538764600909
 30
0.0
 40
12.0
100
AcDbArc
 50
226.8165782038267
 51
270.0
  0
LINE
  5
6A9
330
1E
100
AcDbEntity
  8
STEMPEL
100
AcDbLine
 10
177.1568451835618
 20
386.0538764600911
 30
0.0
 11
102.1568451835618
 21
386.0538764600911
 31
0.0
  0
ARC
  5
6AA
330
1E
100
AcDbEntity
  8
STEMPEL
100
AcDbCircle
 10
177.1568451835618
 20
398.0538764600911
 30
0.0
 40
12.0
100
AcDbArc
 50
270.0
 51
313.1834217961733
  0
ARC
  5
6AB
330
1E
100
AcDbEntity
  8
STEMPEL
100
AcDbCircle
 10
193.5809128892188
 20
380.5538764600912
 30
0.0
 40
12.0
100
AcDbArc
 50
90.0
 51
133.1834217961733
  0
DIMENSION
  5
6AC
330
1E
100
AcDbEntity
  8
BEM
100
AcDbDimension
  2
*D6
 10
70.0083507468043
 20
488.0538764600911
 30
0.0
 11
63.50835074680421
 21
437.0538764600911
 31
0.0
 70
    32
  1
%%c<>
 71
     5
 42
102.0
  3
Standard
100
AcDbAlignedDimension
 13
102.1568451835618
 23
386.0538764600911
 33
0.0
 14
102.1568451835618
 24
488.0538764600911
 34
0.0
 50
90.0
100
AcDbRotatedDimension
1001
ACAD
1000
DSTYLE
1002
{
1070
    40
1040
2.0
1070
    41
1040
3.5
1070
    42
1040
1.0
1070
    43
1040
7.0
1070
    44
1040
1.0
1070
    73
1070
     0
1070
    74
1070
     0
1070
    77
1070
     1
1070
    78
1070
     8
1070
    79
1070
     2
1070
   140
1040
3.5
1070
   141
1040
1.5
1070
   146
1040
0.5142857142857144
1070
   147
1040
1.5
1070
   172
1070
     1
1070
   178
1070
     1
1070
   179
1070
     2
1070
   271
1070
     2
1070
   272
1070
     2
1070
   284
1070
     8
1070
   285
1070
     8
1070
   286
1070
     8
1002
}
  0
DIMENSION
  5
6AD
330
1E
100
AcDbEntity
  8
BEM
100
AcDbDimension
  2
*D7
 10
177.156845183562
 20
370.3291674163092
 30
0.0
 11
139.656845183562
 21
376.8291674163092
 31
0.0
 70
    32
 71
     5
 42
75.0
  3
Standard
100
AcDbAlignedDimension
 13
102.156845183562
 23
386.0538764600911
 33
0.0
 14
177.156845183562
 24
386.0538764600911
 34
0.0
100
AcDbRotatedDimension
1001
ACAD
1000
DSTYLE
1002
{
1070
    40
1040
2.0
1070
    41
1040
3.5
1070
    42
1040
1.0
1070
    43
1040
7.0
1070
    44
1040
1.0
1070
    73
1070
     0
1070
    74
1070
     0
1070
    77
1070
     1
1070
    78
1070
     8
1070
    79
1070
     2
1070
   140
1040
3.5
1070
   141
1040
1.5
1070
   146
1040
0.5142857142857144
1070
   147
1040
1.5
1070
   172
1070
     1
1070
   178
1070
     1
1070
   179
1070
     2
1070
   271
1070
     2
1070
   272
1070
     2
1070
   284
1070
     8
1070
   285
1070
     8
1070
   286
1070
     8
1002
}
  0
LINE
  5
6AE
330
1E
100
AcDbEntity
  8
HILF
100
AcDbLine
 10
189.1650324560548
 20
480.690750867918
 30
0.0
 11
189.1650324560548
 21
393.4170020522639
 31
0.0
  0
LINE
  5
6AF
330
1E
100
AcDbEntity
  8
HILF
100
AcDbLine
 10
181.5727256167258
 20
388.6379325350244
 30
0.0
 11
181.5727256167258
 21
485.4698203851576
 31
0.0
  0
LINE
  5
70A
330
1E
100
AcDbEntity
  8
HILF
100
AcDbLine
 10
181.5727256167255
 20
195.1615325605419
 30
0.0
 11
181.5727256167255
 21
291.9934204106752
 31
0.0
  0
LINE
  5
70B
330
1E
100
AcDbEntity
  8
HILF
100
AcDbLine
 10
189.1650324560545
 20
287.2143508934356
 30
0.0
 11
189.1650324560545
 21
199.9406020777815
 31
0.0
  0
ARC
  5
70E
330
1E
100
AcDbEntity
  8
STEMPEL
100
AcDbCircle
 10
193.5809128892185
 20
187.0774764856087
 30
0.0
 40
12.0
100
AcDbArc
 50
90.0
 51
133.1834217961733
  0
ARC
  5
70F
330
1E
100
AcDbEntity
  8
STEMPEL
100
AcDbCircle
 10
177.1568451835616
 20
204.5774764856087
 30
0.0
 40
12.0
100
AcDbArc
 50
270.0
 51
313.1834217961733
  0
LINE
  5
710
330
1E
100
AcDbEntity
  8
STEMPEL
100
AcDbLine
 10
177.1568451835616
 20
192.5774764856086
 30
0.0
 11
102.1568451835616
 21
192.5774764856086
 31
0.0
  0
ARC
  5
711
330
1E
100
AcDbEntity
  8
STEMPEL
100
AcDbCircle
 10
193.5809128892185
 20
300.0774764856085
 30
0.0
 40
12.0
100
AcDbArc
 50
226.8165782038267
 51
270.0
  0
ARC
  5
712
330
1E
100
AcDbEntity
  8
STEMPEL
100
AcDbCircle
 10
177.1568451835616
 20
282.5774764856086
 30
0.0
 40
12.0
100
AcDbArc
 50
46.81657820382667
 51
90.0
  0
LINE
  5
713
330
1E
100
AcDbEntity
  8
STEMPEL
100
AcDbLine
 10
177.1568451835616
 20
294.5774764856087
 30
0.0
 11
102.1568451835616
 21
294.5774764856087
 31
0.0
  0
LINE
  5
714
330
1E
100
AcDbEntity
  8
STEMPEL
100
AcDbLine
 10
102.1568451835616
 20
294.5774764856087
 30
0.0
 11
102.1568451835617
 21
192.5774764856086
 31
0.0
  0
TEXT
  5
794
330
1E
100
AcDbEntity
  8
TEXT
100
AcDbText
 10
612.2898419893276
 20
88.96844093997101
 30
0.0
 40
4.0
  1
DIN EN1124-3
 41
0.8
  7
GREEKS
 72
     1
 11
629.2803181798038
 21
88.96844093997101
 31
0.0
100
AcDbText
  0
CIRCLE
  5
7D6
330
1E
100
AcDbEntity
  8
STEMPEL
100
AcDbCircle
 10
450.1554782619293
 20
243.5774764856087
 30
0.0
 40
5.650000000000019
  0
LWPOLYLINE
  5
7D7
330
1E
100
AcDbEntity
  8
STEMPEL
100
AcDbPolyline
 90
        6
 70
     1
 43
0.0
 10
446.4027015121968
 20
250.0774764856087
 10
442.6499247624642
 20
243.5774764856087
 10
446.4027015121968
 20
237.0774764856087
 10
453.9082550116619
 20
237.0774764856087
 10
457.6610317613945
 20
243.5774764856087
 10
453.9082550116619
 20
250.0774764856087
  0
CIRCLE
  5
7D8
330
1E
100
AcDbEntity
  8
STEMPEL
100
AcDbCircle
 10
450.1554782619293
 20
243.5774764856087
 30
0.0
 40
6.5
  0
CIRCLE
  5
7D9
330
1E
100
AcDbEntity
  8
STEMPEL
100
AcDbCircle
 10
554.1554782619293
 20
243.5774764856087
 30
0.0
 40
6.5
  0
LWPOLYLINE
  5
7DA
330
1E
100
AcDbEntity
  8
STEMPEL
100
AcDbPolyline
 90
        6
 70
     1
 43
0.0
 10
550.4027015121969
 20
250.0774764856087
 10
546.6499247624642
 20
243.5774764856087
 10
550.4027015121969
 20
237.0774764856086
 10
557.908255011662
 20
237.0774764856086
 10
561.6610317613945
 20
243.5774764856086
 10
557.908255011662
 20
250.0774764856087
  0
CIRCLE
  5
7DB
330
1E
100
AcDbEntity
  8
STEMPEL
100
AcDbCircle
 10
554.1554782619293
 20
243.5774764856087
 30
0.0
 40
5.650000000000019
  0
ARC
  5
7DC
330
1E
100
AcDbEntity
  8
STEMPEL
100
AcDbCircle
 10
500.6582560397071
 20
241.1371987078309
 30
0.0
 40
0.6611111111111199
100
AcDbArc
 50
279.9999999999986
 51
0.0
  0
ARC
  5
7DD
330
1E
100
AcDbEntity
  8
STEMPEL
100
AcDbCircle
 10
504.6638115952625
 20
241.3316431522753
 30
0.0
 40
0.8555555555555024
100
AcDbArc
 50
180.0
 51
0.0
  0
ARC
  5
7DE
330
1E
100
AcDbEntity
  8
STEMPEL
100
AcDbCircle
 10
504.6638115952625
 20
241.3316431522753
 30
0.0
 40
3.344444444444391
100
AcDbArc
 50
232.4919601629154
 51
0.0
  0
ARC
  5
7DF
330
1E
100
AcDbEntity
  8
STEMPEL
100
AcDbCircle
 10
456.1554782619294
 20
243.5774764856087
 30
0.0
 40
16.0
100
AcDbArc
 50
135.8395195700484
 51
224.1604804299516
  0
ARC
  5
7E0
330
1E
100
AcDbEntity
  8
HILF
100
AcDbCircle
 10
456.1554782619294
 20
243.5774764856087
 30
0.0
 40
13.38
100
AcDbArc
 50
135.8308941325905
 51
224.1691058674095
  0
ARC
  5
7E1
330
1E
100
AcDbEntity
  8
HILF
100
AcDbCircle
 10
548.1554782619293
 20
243.5774764856087
 30
0.0
 40
13.38
100
AcDbArc
 50
315.8308941325905
 51
44.16910586740946
  0
ARC
  5
7E2
330
1E
100
AcDbEntity
  8
STEMPEL
100
AcDbCircle
 10
548.1554782619293
 20
243.5774764856087
 30
0.0
 40
16.0
100
AcDbArc
 50
315.8395195700484
 51
44.16048042995155
  0
CIRCLE
  5
7E3
330
1E
100
AcDbEntity
  8
STEMPEL
100
AcDbCircle
 10
502.1554782619294
 20
243.5774764856087
 30
0.0
 40
31.5
  0
CIRCLE
  5
7E4
330
1E
100
AcDbEntity
  8
HILF
100
AcDbCircle
 10
502.1554782619294
 20
243.5774764856087
 30
0.0
 40
35.06111457868633
  0
ARC
  5
7E5
330
1E
100
AcDbEntity
  8
STEMPEL
100
AcDbCircle
 10
502.1554782619294
 20
243.5774764856087
 30
0.0
 40
48.99999999999997
100
AcDbArc
 50
44.16048042995155
 51
135.8395195700484
  0
ARC
  5
7E6
330
1E
100
AcDbEntity
  8
HILF
100
AcDbCircle
 10
502.1554782619294
 20
243.5774764856087
 30
0.0
 40
46.37517522151287
100
AcDbArc
 50
44.16910586740946
 51
135.8308941325905
  0
LINE
  5
7E7
330
1E
100
AcDbEntity
  8
HILF
100
AcDbLine
 10
557.7527705328825
 20
252.9003720157485
 30
0.0
 11
535.4197615741506
 21
275.8906987413709
 31
0.0
  0
LINE
  5
7E8
330
1E
100
AcDbEntity
  8
STEMPEL
100
AcDbLine
 10
559.6337391314945
 20
254.724203691843
 30
0.0
 11
537.3076521749728
 21
277.7143285547017
 31
0.0
  0
LINE
  5
7E9
330
1E
100
AcDbEntity
  8
HILF
100
AcDbLine
 10
468.8911949497081
 20
275.890698741371
 30
0.0
 11
446.5581859909764
 21
252.9003720157486
 31
0.0
  0
LINE
  5
7EA
330
1E
100
AcDbEntity
  8
STEMPEL
100
AcDbLine
 10
467.003304348886
 20
277.7143285547018
 30
0.0
 11
444.6772173923642
 21
254.7242036918431
 31
0.0
  0
LINE
  5
7EB
330
1E
100
AcDbEntity
  8
STEMPEL
100
AcDbLine
 10
496.3027004841516
 20
259.0260875967198
 30
0.0
 11
496.3027004841516
 21
251.9094209300531
 31
0.0
  0
CIRCLE
  5
7EC
330
1E
100
AcDbEntity
  8
STEMPEL
100
AcDbCircle
 10
502.1554782619294
 20
251.9094209300531
 30
0.0
 40
3.363888888888853
  0
ARC
  5
7ED
330
1E
100
AcDbEntity
  8
STEMPEL
100
AcDbCircle
 10
502.1554782619294
 20
251.9094209300531
 30
0.0
 40
5.852777777777742
100
AcDbArc
 50
298.7083210227502
 51
125.0821845754638
  0
LINE
  5
7EE
330
1E
100
AcDbEntity
  8
STEMPEL
100
AcDbLine
 10
506.7638115952627
 20
261.3205320411641
 30
0.0
 11
498.5971449285961
 21
261.3205320411641
 31
0.0
  0
LINE
  5
7EF
330
1E
100
AcDbEntity
  8
STEMPEL
100
AcDbLine
 10
506.7638115952627
 20
258.8316431522752
 30
0.0
 11
499.1804782619295
 21
258.8316431522752
 31
0.0
  0
ARC
  5
7F0
330
1E
100
AcDbEntity
  8
STEMPEL
100
AcDbCircle
 10
506.7638115952627
 20
260.0760875967198
 30
0.0
 40
1.244444444444462
100
AcDbArc
 50
270.0
 51
89.99999999999998
  0
ARC
  5
7F1
330
1E
100
AcDbEntity
  8
STEMPEL
100
AcDbCircle
 10
499.1804782619295
 20
258.4427542633863
 30
0.0
 40
0.3888888888888889
100
AcDbArc
 50
89.99999999999998
 51
180.0
  0
ARC
  5
7F2
330
1E
100
AcDbEntity
  8
STEMPEL
100
AcDbCircle
 10
498.5971449285962
 20
259.0260875967198
 30
0.0
 40
2.294444444444444
100
AcDbArc
 50
89.99999999999998
 51
180.0
  0
LINE
  5
7F3
330
1E
100
AcDbEntity
  8
STEMPEL
100
AcDbLine
 10
498.7915893730406
 20
258.4427542633863
 30
0.0
 11
498.7915893730406
 21
256.6989156068694
 31
0.0
  0
LINE
  5
7F4
330
1E
100
AcDbEntity
  8
STEMPEL
100
AcDbLine
 10
505.5193671508182
 20
244.2871987078309
 30
0.0
 11
503.8082560397071
 21
244.2871987078309
 31
0.0
  0
ARC
  5
7F5
330
1E
100
AcDbEntity
  8
STEMPEL
100
AcDbCircle
 10
507.2304782619294
 20
245.998309818942
 30
0.0
 40
0.7777777777777778
100
AcDbArc
 50
0.0
 51
89.99999999999998
  0
LINE
  5
7F6
330
1E
100
AcDbEntity
  8
STEMPEL
100
AcDbLine
 10
507.2304782619294
 20
246.7760875967198
 30
0.0
 11
504.9668652158968
 21
246.7760875967198
 31
0.0
  0
LINE
  5
7F7
330
1E
100
AcDbEntity
  8
STEMPEL
100
AcDbLine
 10
505.5193671508182
 20
244.2871987078309
 30
0.0
 11
505.5193671508182
 21
241.3316431522753
 31
0.0
  0
LINE
  5
7F8
330
1E
100
AcDbEntity
  8
STEMPEL
100
AcDbLine
 10
508.0082560397071
 20
245.998309818942
 30
0.0
 11
508.0082560397071
 21
241.3316431522753
 31
0.0
  0
ARC
  5
7F9
330
1E
100
AcDbEntity
  8
STEMPEL
100
AcDbCircle
 10
502.1554782619294
 20
251.9094209300531
 30
0.0
 40
5.852777777777742
100
AcDbArc
 50
180.0
 51
241.291678977255
  0
ARC
  5
7FA
330
1E
100
AcDbEntity
  8
STEMPEL
100
AcDbCircle
 10
497.547144928596
 20
245.5316431522753
 30
0.0
 40
1.244444444444462
100
AcDbArc
 50
89.99999999999998
 51
270.0
  0
LINE
  5
7FB
330
1E
100
AcDbEntity
  8
STEMPEL
100
AcDbLine
 10
499.344091307962
 20
246.7760875967198
 30
0.0
 11
497.5471449285961
 21
246.7760875967197
 31
0.0
  0
LINE
  5
7FC
330
1E
100
AcDbEntity
  8
STEMPEL
100
AcDbLine
 10
501.3193671508182
 20
244.2871987078308
 30
0.0
 11
497.5471449285961
 21
244.2871987078308
 31
0.0
  0
LINE
  5
7FD
330
1E
100
AcDbEntity
  8
STEMPEL
100
AcDbLine
 10
501.3193671508182
 20
244.2871987078308
 30
0.0
 11
501.3193671508182
 21
241.1371987078309
 31
0.0
  0
LINE
  5
7FE
330
1E
100
AcDbEntity
  8
STEMPEL
100
AcDbLine
 10
503.8082560397071
 20
244.2871987078309
 30
0.0
 11
503.8082560397071
 21
241.3316431522753
 31
0.0
  0
ARC
  5
7FF
330
1E
100
AcDbEntity
  8
HILF
100
AcDbCircle
 10
502.1554782619294
 20
243.5774764856087
 30
0.0
 40
46.37517522151287
100
AcDbArc
 50
224.169105867406
 51
315.8308941325905
  0
ARC
  5
800
330
1E
100
AcDbEntity
  8
STEMPEL
100
AcDbCircle
 10
502.1554782619294
 20
243.5774764856087
 30
0.0
 40
48.99999999999997
100
AcDbArc
 50
224.1604804299516
 51
315.8395195700484
  0
LINE
  5
801
330
1E
100
AcDbEntity
  8
STEMPEL
100
AcDbLine
 10
537.3076521749728
 20
209.4406244165154
 30
0.0
 11
559.6337391314945
 21
232.430749279374
 31
0.0
  0
LINE
  5
802
330
1E
100
AcDbEntity
  8
HILF
100
AcDbLine
 10
535.4197615741506
 20
211.2642542298462
 30
0.0
 11
557.7527705328825
 21
234.2545809554685
 31
0.0
  0
LINE
  5
803
330
1E
100
AcDbEntity
  8
STEMPEL
100
AcDbLine
 10
444.6772173923642
 20
232.4307492793741
 30
0.0
 11
467.0033043488859
 21
209.4406244165155
 31
0.0
  0
LINE
  5
804
330
1E
100
AcDbEntity
  8
HILF
100
AcDbLine
 10
446.5581859909764
 20
234.2545809554686
 30
0.0
 11
468.8911949497081
 21
211.2642542298462
 31
0.0
  0
ARC
  5
805
330
1E
100
AcDbEntity
  8
STEMPEL
100
AcDbCircle
 10
502.1554782619294
 20
231.6871987078309
 30
0.0
 40
5.852777777777742
100
AcDbArc
 50
180.0
 51
125.082184575459
  0
CIRCLE
  5
806
330
1E
100
AcDbEntity
  8
STEMPEL
100
AcDbCircle
 10
502.1554782619294
 20
231.6871987078309
 30
0.0
 40
3.363888888888853
  0
LINE
  5
807
330
1E
100
AcDbEntity
  8
STEMPEL
100
AcDbLine
 10
496.3027004841516
 20
237.8051891778534
 30
0.0
 11
496.3027004841516
 21
231.6871987078309
 31
0.0
  0
LINE
  5
808
330
1E
100
AcDbEntity
  8
STEMPEL
100
AcDbLine
 10
498.2102954287571
 20
240.0547807578736
 30
0.0
 11
500.782581554135
 21
240.4877727227971
 31
0.0
  0
LINE
  5
809
330
1E
100
AcDbEntity
  8
STEMPEL
100
AcDbLine
 10
499.1159249071677
 20
237.6833212809782
 30
0.0
 11
501.1957230246101
 21
238.0334129230513
 31
0.0
  0
ARC
  5
80A
330
1E
100
AcDbEntity
  8
STEMPEL
100
AcDbCircle
 10
500.6582560397071
 20
241.1371987078309
 30
0.0
 40
3.150000000000008
100
AcDbArc
 50
279.9999999999986
 51
308.6930109383339
  0
LINE
  5
80B
330
1E
100
AcDbEntity
  8
STEMPEL
100
AcDbLine
 10
498.7915893730405
 20
237.2998275622679
 30
0.0
 11
498.7915893730406
 21
236.476693384648
 31
0.0
  0
ARC
  5
80C
330
1E
100
AcDbEntity
  8
STEMPEL
100
AcDbCircle
 10
499.1804782619293
 20
237.2998275622679
 30
0.0
 40
0.3888888888888889
100
AcDbArc
 50
99.55500261065868
 51
180.0
  0
ARC
  5
80D
330
1E
100
AcDbEntity
  8
STEMPEL
100
AcDbCircle
 10
498.5971449285961
 20
237.8051891778534
 30
0.0
 40
2.294444444444444
100
AcDbArc
 50
99.99999999999861
 51
180.0
  0
LINE
  5
80E
330
1E
100
AcDbEntity
  8
MITTEL
100
AcDbLine
 10
450.1554782619293
 20
232.0774764856087
 30
0.0
 11
450.1554782619293
 21
255.0774764856087
 31
0.0
  0
LINE
  5
80F
330
1E
100
AcDbEntity
  8
MITTEL
100
AcDbLine
 10
554.1554782619293
 20
232.0774764856087
 30
0.0
 11
554.1554782619293
 21
255.0774764856087
 31
0.0
  0
LINE
  5
81B
330
1E
100
AcDbEntity
  8
STEMPEL
100
AcDbLine
 10
481.6432867651635
 20
199.0774764856086
 30
0.0
 11
333.3257516512471
 21
199.0774764856086
 31
0.0
  0
LINE
  5
81C
330
1E
100
AcDbEntity
  8
STEMPEL
100
AcDbLine
 10
481.6432867651633
 20
288.0774764856086
 30
0.0
 11
333.325751651247
 21
288.0774764856086
 31
0.0
  0
ARC
  5
8D1
330
1E
100
AcDbEntity
  8
STEMPEL
100
AcDbCircle
 10
548.7638722958174
 20
497.7269255222276
 30
0.0
 40
2.926950985085932
100
AcDbArc
 50
52.11936428281843
 51
121.4691945240804
  0
LINE
  5
8D2
330
1E
100
AcDbEntity
  8
STEMPEL
100
AcDbLine
 10
548.7643980671041
 20
500.653876460091
 30
0.0
 11
559.5465584567455
 21
500.6538764600911
 31
0.0
  0
ARC
  5
8D3
330
1E
100
AcDbEntity
  8
STEMPEL
100
AcDbCircle
 10
548.7638722958174
 20
497.0808273979545
 30
0.0
 40
2.926950985085932
100
AcDbArc
 50
238.5308054759196
 51
307.8806357171815
  0
LINE
  5
8D4
330
1E
100
AcDbEntity
  8
STEMPEL
100
AcDbLine
 10
548.7643980671041
 20
494.153876460091
 30
0.0
 11
559.5465584567455
 21
494.153876460091
 31
0.0
  0
LINE
  5
8D5
330
1E
100
AcDbEntity
  8
STEMPEL
100
AcDbLine
 10
546.9666703071133
 20
500.0679512710245
 30
0.0
 11
546.9666703071133
 21
494.7398016491574
 31
0.0
  0
LINE
  5
8D6
330
1E
100
AcDbEntity
  8
STEMPEL
100
AcDbLine
 10
546.9666703071133
 20
494.7398016491574
 30
0.0
 11
547.3658692037101
 21
494.5093240587472
 31
0.0
  0
LINE
  5
8D7
330
1E
100
AcDbEntity
  8
STEMPEL
100
AcDbLine
 10
546.9666703071133
 20
500.0679512710244
 30
0.0
 11
547.3658692037101
 21
500.2984288614348
 31
0.0
  0
ARC
  5
8D8
330
1E
100
AcDbEntity
  8
STEMPEL
100
AcDbCircle
 10
559.5470842280414
 20
497.7269255222276
 30
0.0
 40
2.926950985085932
100
AcDbArc
 50
58.53080547591954
 51
127.8806357171815
  0
ARC
  5
8D9
330
1E
100
AcDbEntity
  8
STEMPEL
100
AcDbCircle
 10
559.5470842280414
 20
497.0808273979545
 30
0.0
 40
2.926950985085932
100
AcDbArc
 50
232.1193642828185
 51
301.4691945240804
  0
ARC
  5
8DA
330
1E
100
AcDbEntity
  8
STEMPEL
100
AcDbCircle
 10
554.1554782619296
 20
489.8711712600911
 30
0.0
 40
10.7827052
100
AcDbArc
 50
70.52782738138624
 51
109.4721726186137
  0
ARC
  5
8DB
330
1E
100
AcDbEntity
  8
STEMPEL
100
AcDbCircle
 10
554.1554782619296
 20
504.936581660091
 30
0.0
 40
10.7827052
100
AcDbArc
 50
250.5278273813862
 51
289.4721726186137
  0
LINE
  5
8DC
330
1E
100
AcDbEntity
  8
STEMPEL
100
AcDbLine
 10
550.5610742845215
 20
500.0371434948211
 30
0.0
 11
550.5610742845215
 21
494.7706094253611
 31
0.0
  0
LINE
  5
8DD
330
1E
100
AcDbEntity
  8
STEMPEL
100
AcDbLine
 10
557.7498822393375
 20
500.0371434948211
 30
0.0
 11
557.7498822393375
 21
494.7706094253611
 31
0.0
  0
LINE
  5
8DE
330
1E
100
AcDbEntity
  8
STEMPEL
100
AcDbLine
 10
561.3442862167455
 20
500.0679512710245
 30
0.0
 11
561.3442862167455
 21
494.7398016491576
 31
0.0
  0
LINE
  5
8DF
330
1E
100
AcDbEntity
  8
STEMPEL
100
AcDbLine
 10
559.5419289866883
 20
494.153876460091
 30
0.0
 11
559.546558456735
 21
494.153876460091
 31
0.0
  0
LINE
  5
8E0
330
1E
100
AcDbEntity
  8
STEMPEL
100
AcDbLine
 10
561.3442862167455
 20
494.7398016491574
 30
0.0
 11
560.9450873201487
 21
494.5093240587472
 31
0.0
  0
LINE
  5
8E1
330
1E
100
AcDbEntity
  8
STEMPEL
100
AcDbLine
 10
559.5419289866883
 20
500.6538764600911
 30
0.0
 11
559.546558456735
 21
500.6538764600911
 31
0.0
  0
LINE
  5
8E2
330
1E
100
AcDbEntity
  8
STEMPEL
100
AcDbLine
 10
561.3442862167455
 20
500.0679512710244
 30
0.0
 11
560.9450873201487
 21
500.2984288614348
 31
0.0
  0
LINE
  5
8E3
330
1E
100
AcDbEntity
  8
STEMPEL
100
AcDbLine
 10
548.5054782619247
 20
500.6424485614685
 30
0.0
 11
548.5054782619247
 21
503.103876460091
 31
0.0
  0
LINE
  5
8E4
330
1E
100
AcDbEntity
  8
STEMPEL
100
AcDbLine
 10
559.8054782619249
 20
500.6424485614693
 30
0.0
 11
559.8054782619249
 21
503.103876460091
 31
0.0
  0
ARC
  5
8E5
330
1E
100
AcDbEntity
  8
STEMPEL
100
AcDbCircle
 10
554.1554782619248
 20
503.103876460091
 30
0.0
 40
5.650000000000019
100
AcDbArc
 50
0.0
 51
180.0
  0
ARC
  5
8E6
330
1E
100
AcDbEntity
  8
STEMPEL
100
AcDbCircle
 10
450.1554782619296
 20
503.1038764600912
 30
0.0
 40
5.650000000000019
100
AcDbArc
 50
0.0
 51
180.0
  0
LINE
  5
8E7
330
1E
100
AcDbEntity
  8
STEMPEL
100
AcDbLine
 10
455.8054782619294
 20
500.6424485614694
 30
0.0
 11
455.8054782619294
 21
503.1038764600912
 31
0.0
  0
LINE
  5
8E8
330
1E
100
AcDbEntity
  8
STEMPEL
100
AcDbLine
 10
444.5054782619294
 20
500.6424485614686
 30
0.0
 11
444.5054782619294
 21
503.1038764600912
 31
0.0
  0
LINE
  5
8E9
330
1E
100
AcDbEntity
  8
STEMPEL
100
AcDbLine
 10
457.3442862167502
 20
500.0679512710247
 30
0.0
 11
456.9450873201534
 21
500.2984288614349
 31
0.0
  0
LINE
  5
8EA
330
1E
100
AcDbEntity
  8
STEMPEL
100
AcDbLine
 10
455.5419289866931
 20
500.6538764600912
 30
0.0
 11
455.5465584567397
 21
500.6538764600912
 31
0.0
  0
LINE
  5
8EB
330
1E
100
AcDbEntity
  8
STEMPEL
100
AcDbLine
 10
457.3442862167502
 20
494.7398016491577
 30
0.0
 11
456.9450873201534
 21
494.5093240587474
 31
0.0
  0
LINE
  5
8EC
330
1E
100
AcDbEntity
  8
STEMPEL
100
AcDbLine
 10
455.5419289866931
 20
494.1538764600911
 30
0.0
 11
455.5465584567397
 21
494.1538764600911
 31
0.0
  0
LINE
  5
8ED
330
1E
100
AcDbEntity
  8
STEMPEL
100
AcDbLine
 10
457.3442862167502
 20
500.0679512710247
 30
0.0
 11
457.3442862167502
 21
494.7398016491577
 31
0.0
  0
LINE
  5
8EE
330
1E
100
AcDbEntity
  8
STEMPEL
100
AcDbLine
 10
453.7498822393422
 20
500.0371434948212
 30
0.0
 11
453.7498822393422
 21
494.7706094253612
 31
0.0
  0
LINE
  5
8EF
330
1E
100
AcDbEntity
  8
STEMPEL
100
AcDbLine
 10
446.5610742845262
 20
500.0371434948212
 30
0.0
 11
446.5610742845262
 21
494.7706094253612
 31
0.0
  0
ARC
  5
8F0
330
1E
100
AcDbEntity
  8
STEMPEL
100
AcDbCircle
 10
450.1554782619343
 20
504.9365816600911
 30
0.0
 40
10.7827052
100
AcDbArc
 50
250.5278273813862
 51
289.4721726186137
  0
ARC
  5
8F1
330
1E
100
AcDbEntity
  8
STEMPEL
100
AcDbCircle
 10
450.1554782619343
 20
489.8711712600912
 30
0.0
 40
10.7827052
100
AcDbArc
 50
70.52782738138624
 51
109.4721726186137
  0
ARC
  5
8F2
330
1E
100
AcDbEntity
  8
STEMPEL
100
AcDbCircle
 10
455.5470842280462
 20
497.0808273979545
 30
0.0
 40
2.926950985085932
100
AcDbArc
 50
232.1193642828185
 51
301.4691945240804
  0
ARC
  5
8F3
330
1E
100
AcDbEntity
  8
STEMPEL
100
AcDbCircle
 10
455.5470842280462
 20
497.7269255222276
 30
0.0
 40
2.926950985085932
100
AcDbArc
 50
58.53080547591954
 51
127.8806357171815
  0
LINE
  5
8F4
330
1E
100
AcDbEntity
  8
STEMPEL
100
AcDbLine
 10
442.9666703071181
 20
500.0679512710247
 30
0.0
 11
443.3658692037148
 21
500.2984288614349
 31
0.0
  0
LINE
  5
8F5
330
1E
100
AcDbEntity
  8
STEMPEL
100
AcDbLine
 10
442.9666703071181
 20
494.7398016491577
 30
0.0
 11
443.3658692037148
 21
494.5093240587474
 31
0.0
  0
LINE
  5
8F6
330
1E
100
AcDbEntity
  8
STEMPEL
100
AcDbLine
 10
442.9666703071181
 20
500.0679512710247
 30
0.0
 11
442.9666703071181
 21
494.7398016491576
 31
0.0
  0
LINE
  5
8F7
330
1E
100
AcDbEntity
  8
STEMPEL
100
AcDbLine
 10
444.7643980671088
 20
494.1538764600912
 30
0.0
 11
455.5465584567502
 21
494.1538764600911
 31
0.0
  0
ARC
  5
8F8
330
1E
100
AcDbEntity
  8
STEMPEL
100
AcDbCircle
 10
444.7638722958222
 20
497.0808273979545
 30
0.0
 40
2.926950985085932
100
AcDbArc
 50
238.5308054759196
 51
307.8806357171815
  0
LINE
  5
8F9
330
1E
100
AcDbEntity
  8
STEMPEL
100
AcDbLine
 10
444.7643980671088
 20
500.6538764600912
 30
0.0
 11
455.5465584567502
 21
500.6538764600912
 31
0.0
  0
ARC
  5
8FA
330
1E
100
AcDbEntity
  8
STEMPEL
100
AcDbCircle
 10
444.7638722958222
 20
497.7269255222276
 30
0.0
 40
2.926950985085932
100
AcDbArc
 50
52.11936428281843
 51
121.4691945240804
  0
LINE
  5
901
330
1E
100
AcDbEntity
  8
STEMPEL
100
AcDbLine
 10
442.0957632622208
 20
485.1538764600911
 30
0.0
 11
562.2151932616389
 21
485.153876460091
 31
0.0
  0
LINE
  5
906
330
1E
100
AcDbEntity
  8
STEMPEL
100
AcDbLine
 10
444.6265396686245
 20
494.1538764600911
 30
0.0
 11
559.6844168552345
 21
494.153876460091
 31
0.0
  0
LINE
  5
90C
330
1E
100
AcDbEntity
  8
STEMPEL
100
AcDbLine
 10
441.7161121681887
 20
491.8814833352
 30
0.0
 11
440.1554782619295
 21
485.6389477101639
 31
0.0
  0
LINE
  5
90D
330
1E
100
AcDbEntity
  8
STEMPEL
100
AcDbLine
 10
442.0957632622203
 20
485.1538764600912
 30
0.0
 11
440.1554782619295
 21
485.6389477101639
 31
0.0
  0
ARC
  5
90E
330
1E
100
AcDbEntity
  8
STEMPEL
100
AcDbCircle
 10
444.6265396686246
 20
491.1538764600912
 30
0.0
 40
3.0
100
AcDbArc
 50
89.99999999999998
 51
165.9637565320735
  0
ARC
  5
932
330
1E
100
AcDbEntity
  8
STEMPEL
100
AcDbCircle
 10
559.6844168552345
 20
491.1538764600911
 30
0.0
 40
3.0
100
AcDbArc
 50
14.03624346792646
 51
89.99999999999998
  0
LINE
  5
936
330
1E
100
AcDbEntity
  8
STEMPEL
100
AcDbLine
 10
562.5948443556706
 20
491.8814833351999
 30
0.0
 11
564.1554782619295
 21
485.6389477101636
 31
0.0
  0
LINE
  5
937
330
1E
100
AcDbEntity
  8
STEMPEL
100
AcDbLine
 10
562.2151932616389
 20
485.153876460091
 30
0.0
 11
564.1554782619295
 21
485.6389477101636
 31
0.0
  0
LINE
  5
93C
330
1E
100
AcDbEntity
  8
MITTEL
100
AcDbLine
 10
450.1554782619295
 20
481.553876460091
 30
0.0
 11
450.1554782619295
 21
513.753876460091
 31
0.0
  0
LINE
  5
93D
330
1E
100
AcDbEntity
  8
HILF
100
AcDbLine
 10
447.1554782619295
 20
481.553876460091
 30
0.0
 11
447.1554782619295
 21
485.1538764600911
 31
0.0
  0
LINE
  5
93E
330
1E
100
AcDbEntity
  8
HILF
100
AcDbLine
 10
453.1554782619295
 20
481.553876460091
 30
0.0
 11
453.1554782619296
 21
485.1538764600911
 31
0.0
  0
LINE
  5
93F
330
1E
100
AcDbEntity
  8
STEMPEL
100
AcDbLine
 10
446.1554782619295
 20
481.553876460091
 30
0.0
 11
446.1554782619295
 21
485.1538764600912
 31
0.0
  0
LINE
  5
940
330
1E
100
AcDbEntity
  8
STEMPEL
100
AcDbLine
 10
454.1554782619295
 20
481.553876460091
 30
0.0
 11
454.1554782619295
 21
485.1538764600911
 31
0.0
  0
LINE
  5
941
330
1E
100
AcDbEntity
  8
STEMPEL
100
AcDbLine
 10
550.1554782619293
 20
481.5538764600908
 30
0.0
 11
550.1554782619295
 21
485.153876460091
 31
0.0
  0
LINE
  5
942
330
1E
100
AcDbEntity
  8
STEMPEL
100
AcDbLine
 10
558.1554782619293
 20
481.5538764600908
 30
0.0
 11
558.1554782619293
 21
485.153876460091
 31
0.0
  0
LINE
  5
943
330
1E
100
AcDbEntity
  8
HILF
100
AcDbLine
 10
551.1554782619294
 20
481.5538764600908
 30
0.0
 11
551.1554782619294
 21
485.153876460091
 31
0.0
  0
LINE
  5
944
330
1E
100
AcDbEntity
  8
HILF
100
AcDbLine
 10
557.1554782619293
 20
481.5538764600908
 30
0.0
 11
557.1554782619294
 21
485.153876460091
 31
0.0
  0
LINE
  5
945
330
1E
100
AcDbEntity
  8
MITTEL
100
AcDbLine
 10
554.1554782619293
 20
481.5538764600908
 30
0.0
 11
554.1554782619296
 21
513.753876460091
 31
0.0
  0
ARC
  5
948
330
1E
100
AcDbEntity
  8
STEMPEL
100
AcDbCircle
 10
455.0554782619294
 20
485.553876460091
 30
0.0
 40
4.0
100
AcDbArc
 50
270.0
 51
354.2608295227335
  0
ARC
  5
949
330
1E
100
AcDbEntity
  8
STEMPEL
100
AcDbCircle
 10
549.2554782619294
 20
485.5538764600909
 30
0.0
 40
4.0
100
AcDbArc
 50
185.7391704772664
 51
270.0
  0
TEXT
  5
96D
330
1E
100
AcDbEntity
  8
TEXT
100
AcDbText
 10
654.3410940884992
 20
52.10021383107525
 30
0.0
 40
5.0
  1
EDV-Art.Nr. 4.5510.080C
 41
0.8
  7
GREEKS
100
AcDbText
  0
LINE
  5
985
330
1E
100
AcDbEntity
  8
STEMPEL
100
AcDbLine
 10
440.15547826193
 20
485.6389477101638
 30
0.0
 11
564.1554782619297
 21
485.6389477101636
 31
0.0
  0
ARC
  5
989
330
1E
100
AcDbEntity
  8
HILF
100
AcDbCircle
 10
502.1554782619294
 20
493.9835702578204
 30
0.0
 40
45.85539923780436
100
AcDbArc
 50
196.5517540982564
 51
343.4482459017435
  0
ENDSEC
  0
SECTION
  2
OBJECTS
  0
DICTIONARY
  5
C
330
0
100
AcDbDictionary
281
     1
  3
ACAD_COLOR
350
11A
  3
ACAD_GROUP
350
D
  3
ACAD_LAYOUT
350
19
  3
ACAD_MATERIAL
350
119
  3
ACAD_MLINESTYLE
350
16
  3
ACAD_PLOTSETTINGS
350
18
  3
ACAD_PLOTSTYLENAME
350
E
  3
AcDbVariableDictionary
350
125
  0
DICTIONARY
  5
DB
330
1E
100
AcDbDictionary
280
     1
281
     1
  3
ACAD_LAYOUTSELFREF
360
10F
  0
DICTIONARY
  5
DD
330
1A
100
AcDbDictionary
280
     1
281
     1
  3
ACAD_LAYOUTSELFREF
360
10E
  0
DICTIONARY
  5
11A
102
{ACAD_REACTORS
330
C
102
}
330
C
100
AcDbDictionary
281
     1
  0
DICTIONARY
  5
D
102
{ACAD_REACTORS
330
C
102
}
330
C
100
AcDbDictionary
281
     1
  0
DICTIONARY
  5
19
102
{ACAD_REACTORS
330
C
102
}
330
C
100
AcDbDictionary
281
     1
  3
Layout1
350
1D
  3
Model
350
21
  0
DICTIONARY
  5
119
102
{ACAD_REACTORS
330
C
102
}
330
C
100
AcDbDictionary
281
     1
  0
DICTIONARY
  5
16
102
{ACAD_REACTORS
330
C
102
}
330
C
100
AcDbDictionary
281
     1
  3
Standard
350
17
  0
DICTIONARY
  5
18
102
{ACAD_REACTORS
330
C
102
}
330
C
100
AcDbDictionary
281
     1
  0
ACDBDICTIONARYWDFLT
  5
E
102
{ACAD_REACTORS
330
C
102
}
330
C
100
AcDbDictionary
281
     1
  3
Normal
350
F
100
AcDbDictionaryWithDefault
340
F
  0
DICTIONARY
  5
125
102
{ACAD_REACTORS
330
C
102
}
330
C
100
AcDbDictionary
281
     1
  3
DIMASSOC
350
126
  3
PROJECTNAME
350
127
  0
XRECORD
  5
10F
102
{ACAD_REACTORS
330
DB
102
}
330
DB
100
AcDbXrecord
280
     1
340
1E
  0
XRECORD
  5
10E
102
{ACAD_REACTORS
330
DD
102
}
330
DD
100
AcDbXrecord
280
     1
340
1A
  0
LAYOUT
  5
1D
102
{ACAD_REACTORS
330
19
102
}
330
19
100
AcDbPlotSettings
  1

  2
\\NT_WORK01\HP LaserJet 5000 PCL 6
  4

  6

 40
0.0
 41
0.0
 42
0.0
 43
0.0
 44
0.0
 45
0.0
 46
0.0
 47
0.0
 48
0.0
 49
0.0
140
0.0
141
0.0
142
1.0
143
1.0
 70
   688
 72
     0
 73
     0
 74
     5
  7

 75
    16
147
1.0
 76
     0
 77
     2
 78
   300
148
0.0
149
0.0
100
AcDbLayout
  1
Layout1
 70
     0
 71
     1
 10
0.0
 20
0.0
 11
12.0
 21
9.0
 12
0.0
 22
0.0
 32
0.0
 14
1.000000000000000E+20
 24
1.000000000000000E+20
 34
1.000000000000000E+20
 15
-1.000000000000000E+20
 25
-1.000000000000000E+20
 35
-1.000000000000000E+20
146
0.0
 13
0.0
 23
0.0
 33
0.0
 16
1.0
 26
0.0
 36
0.0
 17
0.0
 27
1.0
 37
0.0
 76
     0
330
1A
  0
LAYOUT
  5
21
102
{ACAD_REACTORS
330
19
102
}
330
19
100
AcDbPlotSettings
  1

  2
none_device
  4
Letter_(8.50_x_11.00_Inches)
  6

 40
6.349999904632568
 41
6.349999904632568
 42
6.350006103515625
 43
6.350006103515625
 44
215.8999938964844
 45
279.3999938964844
 46
0.0
 47
0.0
 48
0.0
 49
0.0
140
0.0
141
0.0
142
1.0
143
1.0
 70
 11952
 72
     0
 73
     1
 74
     0
  7

 75
     0
147
1.0
 76
     0
 77
     2
 78
   300
148
-3121.515850206571
149
2.68414979343023
100
AcDbLayout
  1
Model
 70
     1
 71
     0
 10
0.0
 20
0.0
 11
12.0
 21
9.0
 12
0.0
 22
0.0
 32
0.0
 14
0.0
 24
0.0
 34
0.0
 15
0.0
 25
0.0
 35
0.0
146
0.0
 13
0.0
 23
0.0
 33
0.0
 16
1.0
 26
0.0
 36
0.0
 17
0.0
 27
1.0
 37
0.0
 76
     0
330
1E
  0
MLINESTYLE
  5
17
102
{ACAD_REACTORS
330
16
102
}
330
16
100
AcDbMlineStyle
  2
STANDARD
 70
     0
  3

 62
   256
 51
90.0
 52
90.0
 71
     2
 49
0.5
 62
   256
  6
BYLAYER
 49
-0.5
 62
   256
  6
BYLAYER
  0
ACDBPLACEHOLDER
  5
F
102
{ACAD_REACTORS
330
E
102
}
330
E
  0
DICTIONARYVAR
  5
126
102
{ACAD_REACTORS
330
125
102
}
330
125
100
DictionaryVariables
280
     0
  1
1
  0
DICTIONARYVAR
  5
127
102
{ACAD_REACTORS
330
125
102
}
330
125
100
DictionaryVariables
280
     0
  1

  0
ENDSEC
  0
EOF
