  0
SECTION
  2
HEADER
  9
$ACADVER
  1
AC1018
  9
$ACADMAINTVER
 70
     2
  9
$DWGCODEPAGE
  3
ANSI_1252
  9
$INSBASE
 10
0.0
 20
0.0
 30
0.0
  9
$EXTMIN
 10
-0.0106542304463346
 20
-0.0105924609117665
 30
-0.0000000000000099
  9
$EXTMAX
 10
420.0290968630792
 20
594.0091254540257
 30
0.0000000000000054
  9
$LIMMIN
 10
0.0
 20
0.0
  9
$LIMMAX
 10
419.9999999999999
 20
594.0
  9
$ORTHOMODE
 70
     1
  9
$REGENMODE
 70
     1
  9
$FILLMODE
 70
     1
  9
$QTEXTMODE
 70
     0
  9
$MIRRTEXT
 70
     1
  9
$LTSCALE
 40
20.0
  9
$ATTMODE
 70
     1
  9
$TEXTSIZE
 40
3.5
  9
$TRACEWID
 40
0.5
  9
$TEXTSTYLE
  7
STANDARD
  9
$CLAYER
  8
VOLL
  9
$CELTYPE
  6
ByLayer
  9
$CECOLOR
 62
   256
  9
$CELTSCALE
 40
1.0
  9
$DISPSILH
 70
     0
  9
$DIMSCALE
 40
2.0
  9
$DIMASZ
 40
3.5
  9
$DIMEXO
 40
1.0
  9
$DIMDLI
 40
7.0
  9
$DIMRND
 40
0.0
  9
$DIMDLE
 40
0.0
  9
$DIMEXE
 40
1.0
  9
$DIMTP
 40
0.0
  9
$DIMTM
 40
0.0
  9
$DIMTXT
 40
3.5
  9
$DIMCEN
 40
1.5
  9
$DIMTSZ
 40
0.0
  9
$DIMTOL
 70
     0
  9
$DIMLIM
 70
     0
  9
$DIMTIH
 70
     0
  9
$DIMTOH
 70
     0
  9
$DIMSE1
 70
     0
  9
$DIMSE2
 70
     0
  9
$DIMTAD
 70
     1
  9
$DIMZIN
 70
     8
  9
$DIMBLK
  1

  9
$DIMASO
 70
     1
  9
$DIMSHO
 70
     0
  9
$DIMPOST
  1

  9
$DIMAPOST
  1

  9
$DIMALT
 70
     0
  9
$DIMALTD
 70
     2
  9
$DIMALTF
 40
25.4
  9
$DIMLFAC
 40
1.0
  9
$DIMTOFL
 70
     1
  9
$DIMTVP
 40
0.0
  9
$DIMTIX
 70
     0
  9
$DIMSOXD
 70
     0
  9
$DIMSAH
 70
     0
  9
$DIMBLK1
  1

  9
$DIMBLK2
  1

  9
$DIMSTYLE
  2
Standard
  9
$DIMCLRD
 70
     0
  9
$DIMCLRE
 70
     0
  9
$DIMCLRT
 70
     1
  9
$DIMTFAC
 40
0.5142857142857144
  9
$DIMGAP
 40
1.5
  9
$DIMJUST
 70
     0
  9
$DIMSD1
 70
     0
  9
$DIMSD2
 70
     0
  9
$DIMTOLJ
 70
     1
  9
$DIMTZIN
 70
     8
  9
$DIMALTZ
 70
     8
  9
$DIMALTTZ
 70
     8
  9
$DIMUPT
 70
     0
  9
$DIMDEC
 70
     2
  9
$DIMTDEC
 70
     2
  9
$DIMALTU
 70
     2
  9
$DIMALTTD
 70
     2
  9
$DIMTXSTY
  7
STANDARD
  9
$DIMAUNIT
 70
     0
  9
$DIMADEC
 70
     2
  9
$DIMALTRND
 40
0.0
  9
$DIMAZIN
 70
     2
  9
$DIMDSEP
 70
    46
  9
$DIMATFIT
 70
     3
  9
$DIMFRAC
 70
     0
  9
$DIMLDRBLK
  1

  9
$DIMLUNIT
 70
     2
  9
$DIMLWD
 70
    -2
  9
$DIMLWE
 70
    -2
  9
$DIMTMOVE
 70
     0
  9
$LUNITS
 70
     2
  9
$LUPREC
 70
     2
  9
$SKETCHINC
 40
1.0
  9
$FILLETRAD
 40
70.0
  9
$AUNITS
 70
     1
  9
$AUPREC
 70
     3
  9
$MENU
  1
ACAD
  9
$ELEVATION
 40
0.0
  9
$PELEVATION
 40
0.0
  9
$THICKNESS
 40
0.0
  9
$LIMCHECK
 70
     0
  9
$CHAMFERA
 40
0.0
  9
$CHAMFERB
 40
0.0
  9
$CHAMFERC
 40
0.0
  9
$CHAMFERD
 40
0.0
  9
$SKPOLY
 70
     0
  9
$TDCREATE
 40
2452040.637099653
  9
$TDUCREATE
 40
2452040.553766320
  9
$TDUPDATE
 40
2455666.558623067
  9
$TDUUPDATE
 40
2455666.475289734
  9
$TDINDWG
 40
0.4485782755
  9
$TDUSRTIMER
 40
0.4485782755
  9
$USRTIMER
 70
     1
  9
$ANGBASE
 50
0.0
  9
$ANGDIR
 70
     0
  9
$PDMODE
 70
     0
  9
$PDSIZE
 40
0.0
  9
$PLINEWID
 40
0.0
  9
$SPLFRAME
 70
     0
  9
$SPLINETYPE
 70
     6
  9
$SPLINESEGS
 70
     8
  9
$HANDSEED
  5
1C02
  9
$SURFTAB1
 70
     6
  9
$SURFTAB2
 70
     6
  9
$SURFTYPE
 70
     6
  9
$SURFU
 70
     6
  9
$SURFV
 70
     6
  9
$UCSBASE
  2

  9
$UCSNAME
  2

  9
$UCSORG
 10
0.0
 20
0.0
 30
0.0
  9
$UCSXDIR
 10
1.0
 20
0.0
 30
0.0
  9
$UCSYDIR
 10
0.0
 20
1.0
 30
0.0
  9
$UCSORTHOREF
  2

  9
$UCSORTHOVIEW
 70
     0
  9
$UCSORGTOP
 10
0.0
 20
0.0
 30
0.0
  9
$UCSORGBOTTOM
 10
0.0
 20
0.0
 30
0.0
  9
$UCSORGLEFT
 10
0.0
 20
0.0
 30
0.0
  9
$UCSORGRIGHT
 10
0.0
 20
0.0
 30
0.0
  9
$UCSORGFRONT
 10
0.0
 20
0.0
 30
0.0
  9
$UCSORGBACK
 10
0.0
 20
0.0
 30
0.0
  9
$PUCSBASE
  2

  9
$PUCSNAME
  2

  9
$PUCSORG
 10
0.0
 20
0.0
 30
0.0
  9
$PUCSXDIR
 10
1.0
 20
0.0
 30
0.0
  9
$PUCSYDIR
 10
0.0
 20
1.0
 30
0.0
  9
$PUCSORTHOREF
  2

  9
$PUCSORTHOVIEW
 70
     0
  9
$PUCSORGTOP
 10
0.0
 20
0.0
 30
0.0
  9
$PUCSORGBOTTOM
 10
0.0
 20
0.0
 30
0.0
  9
$PUCSORGLEFT
 10
0.0
 20
0.0
 30
0.0
  9
$PUCSORGRIGHT
 10
0.0
 20
0.0
 30
0.0
  9
$PUCSORGFRONT
 10
0.0
 20
0.0
 30
0.0
  9
$PUCSORGBACK
 10
0.0
 20
0.0
 30
0.0
  9
$USERI1
 70
     0
  9
$USERI2
 70
     0
  9
$USERI3
 70
     0
  9
$USERI4
 70
     0
  9
$USERI5
 70
     0
  9
$USERR1
 40
0.0
  9
$USERR2
 40
0.0
  9
$USERR3
 40
0.0
  9
$USERR4
 40
0.0
  9
$USERR5
 40
0.0
  9
$WORLDVIEW
 70
     1
  9
$SHADEDGE
 70
     3
  9
$SHADEDIF
 70
    70
  9
$TILEMODE
 70
     1
  9
$MAXACTVP
 70
    16
  9
$PINSBASE
 10
0.0
 20
0.0
 30
0.0
  9
$PLIMCHECK
 70
     0
  9
$PEXTMIN
 10
1.000000000000000E+20
 20
1.000000000000000E+20
 30
1.000000000000000E+20
  9
$PEXTMAX
 10
-1.000000000000000E+20
 20
-1.000000000000000E+20
 30
-1.000000000000000E+20
  9
$PLIMMIN
 10
0.0
 20
0.0
  9
$PLIMMAX
 10
12.0
 20
9.0
  9
$UNITMODE
 70
     0
  9
$VISRETAIN
 70
     0
  9
$PLINEGEN
 70
     0
  9
$PSLTSCALE
 70
     0
  9
$TREEDEPTH
 70
  3020
  9
$CMLSTYLE
  2
Standard
  9
$CMLJUST
 70
     0
  9
$CMLSCALE
 40
1.0
  9
$PROXYGRAPHICS
 70
     1
  9
$MEASUREMENT
 70
     0
  9
$CELWEIGHT
370
    -1
  9
$ENDCAPS
280
     0
  9
$JOINSTYLE
280
     0
  9
$LWDISPLAY
290
     0
  9
$INSUNITS
 70
     0
  9
$HYPERLINKBASE
  1

  9
$STYLESHEET
  1
monochrome 1.ctb
  9
$XEDIT
290
     1
  9
$CEPSNTYPE
380
     0
  9
$PSTYLEMODE
290
     1
  9
$FINGERPRINTGUID
  2
{7AADB5C8-6110-11D8-B72B-000102183313}
  9
$VERSIONGUID
  2
{8E7AD44D-0C54-4589-A0A0-2757CBC9FEDB}
  9
$EXTNAMES
290
     1
  9
$PSVPSCALE
 40
0.0
  9
$OLESTARTUP
290
     0
  9
$SORTENTS
280
    96
  9
$INDEXCTL
280
     0
  9
$HIDETEXT
280
     0
  9
$XCLIPFRAME
290
     0
  9
$HALOGAP
280
     0
  9
$OBSCOLOR
 70
   257
  9
$OBSLTYPE
280
     0
  9
$INTERSECTIONDISPLAY
280
     0
  9
$INTERSECTIONCOLOR
 70
   257
  9
$DIMASSOC
280
     1
  9
$PROJECTNAME
  1

  0
ENDSEC
  0
SECTION
  2
CLASSES
  0
CLASS
  1
ACDBDICTIONARYWDFLT
  2
AcDbDictionaryWithDefault
  3
ObjectDBX Classes
 90
        0
 91
        1
280
     0
281
     0
  0
CLASS
  1
DICTIONARYVAR
  2
AcDbDictionaryVar
  3
ObjectDBX Classes
 90
        0
 91
        3
280
     0
281
     0
  0
ENDSEC
  0
SECTION
  2
TABLES
  0
TABLE
  2
VPORT
  5
8
330
0
100
AcDbSymbolTable
 70
     3
  0
VPORT
  5
1C01
330
8
100
AcDbSymbolTableRecord
100
AcDbViewportTableRecord
  2
*Active
 70
     0
 10
0.0
 20
0.0
 11
1.0
 21
1.0
 12
210.0
 22
297.0
 13
0.0
 23
0.0
 14
1.0
 24
1.0
 15
10.0
 25
10.0
 16
0.0
 26
0.0
 36
1.0
 17
0.0
 27
0.0
 37
0.0
 40
594.0
 41
1.334231805929919
 42
50.0
 43
0.0
 44
0.0
 50
0.0
 51
0.0
 71
     0
 72
  1500
 73
     1
 74
     0
 75
     0
 76
     0
 77
     0
 78
     0
281
     0
 65
     1
110
0.0
120
0.0
130
0.0
111
1.0
121
0.0
131
0.0
112
0.0
122
1.0
132
0.0
 79
     0
146
0.0
  0
ENDTAB
  0
TABLE
  2
LTYPE
  5
5
330
0
100
AcDbSymbolTable
 70
     2
  0
LTYPE
  5
13
330
5
100
AcDbSymbolTableRecord
100
AcDbLinetypeTableRecord
  2
ByBlock
 70
     0
  3

 72
    65
 73
     0
 40
0.0
  0
LTYPE
  5
14
330
5
100
AcDbSymbolTableRecord
100
AcDbLinetypeTableRecord
  2
ByLayer
 70
     0
  3

 72
    65
 73
     0
 40
0.0
  0
LTYPE
  5
15
330
5
100
AcDbSymbolTableRecord
100
AcDbLinetypeTableRecord
  2
Continuous
 70
     0
  3
Solid line
 72
    65
 73
     0
 40
0.0
  0
LTYPE
  5
35
330
5
100
AcDbSymbolTableRecord
100
AcDbLinetypeTableRecord
  2
STRICHPUNKT
 70
     0
  3
__ . __ . __ . __ . __ . __ . __ . __ . __ . __
 72
    65
 73
     4
 40
1.0
 49
0.5
 74
     0
 49
-0.25
 74
     0
 49
0.0
 74
     0
 49
-0.25
 74
     0
  0
ENDTAB
  0
TABLE
  2
LAYER
  5
2
330
0
100
AcDbSymbolTable
 70
     9
  0
LAYER
  5
10
330
2
100
AcDbSymbolTableRecord
100
AcDbLayerTableRecord
  2
0
 70
     0
 62
     7
  6
Continuous
370
    -3
390
F
  0
LAYER
  5
38
330
2
100
AcDbSymbolTableRecord
100
AcDbLayerTableRecord
  2
VOLL
 70
     0
 62
     1
  6
Continuous
370
    -3
390
F
  0
LAYER
  5
39
330
2
100
AcDbSymbolTableRecord
100
AcDbLayerTableRecord
  2
HILF
 70
     0
 62
     2
  6
Continuous
370
    -3
390
F
  0
LAYER
  5
3A
330
2
100
AcDbSymbolTableRecord
100
AcDbLayerTableRecord
  2
MITTEL
 70
     0
 62
     2
  6
STRICHPUNKT
370
    -3
390
F
  0
LAYER
  5
3B
330
2
100
AcDbSymbolTableRecord
100
AcDbLayerTableRecord
  2
BEM
 70
     0
 62
     7
  6
Continuous
370
    -3
390
F
  0
LAYER
  5
3C
330
2
100
AcDbSymbolTableRecord
100
AcDbLayerTableRecord
  2
STEMPEL
 70
     0
 62
     3
  6
Continuous
370
    -3
390
F
  0
LAYER
  5
3D
330
2
100
AcDbSymbolTableRecord
100
AcDbLayerTableRecord
  2
TEXT
 70
     0
 62
     7
  6
Continuous
370
    -3
390
F
  0
LAYER
  5
3E
330
2
100
AcDbSymbolTableRecord
100
AcDbLayerTableRecord
  2
DEFPOINTS
 70
     0
 62
     7
  6
Continuous
290
     0
370
    -3
390
F
  0
LAYER
  5
3F
330
2
100
AcDbSymbolTableRecord
100
AcDbLayerTableRecord
  2
SCHRAFF
 70
     0
 62
     7
  6
Continuous
370
    -3
390
F
  0
ENDTAB
  0
TABLE
  2
STYLE
  5
3
330
0
100
AcDbSymbolTable
 70
     2
  0
STYLE
  5
11
330
3
100
AcDbSymbolTableRecord
100
AcDbTextStyleTableRecord
  2
STANDARD
 70
     0
 40
0.0
 41
0.8
 50
0.0
 71
     0
 42
3.5
  3
simplex.shx
  4

  0
STYLE
  5
34
330
3
100
AcDbSymbolTableRecord
100
AcDbTextStyleTableRecord
  2
GREEKS
 70
     0
 40
0.0
 41
0.8
 50
0.0
 71
     0
 42
2.5
  3
SIMPLEX.shx
  4

  0
ENDTAB
  0
TABLE
  2
VIEW
  5
6
330
0
100
AcDbSymbolTable
 70
     0
  0
ENDTAB
  0
TABLE
  2
UCS
  5
7
330
0
100
AcDbSymbolTable
 70
     0
  0
ENDTAB
  0
TABLE
  2
APPID
  5
9
330
0
100
AcDbSymbolTable
 70
     2
  0
APPID
  5
12
330
9
100
AcDbSymbolTableRecord
100
AcDbRegAppTableRecord
  2
ACAD
 70
     0
  0
APPID
  5
DDB
330
9
100
AcDbSymbolTableRecord
100
AcDbRegAppTableRecord
  2
AVE_RENDER
 70
     0
  0
ENDTAB
  0
TABLE
  2
DIMSTYLE
  5
A
330
0
100
AcDbSymbolTable
 70
     1
100
AcDbDimStyleTable
 71
     1
340
1CB
  0
DIMSTYLE
105
1CB
102
{ACAD_REACTORS
330
17DE
330
19BD
330
19EE
330
1A82
102
}
330
A
100
AcDbSymbolTableRecord
100
AcDbDimStyleTableRecord
  2
Standard
 70
     0
340
11
  0
ENDTAB
  0
TABLE
  2
BLOCK_RECORD
  5
1
330
0
100
AcDbSymbolTable
 70
     8
  0
BLOCK_RECORD
  5
1E
330
1
100
AcDbSymbolTableRecord
100
AcDbBlockTableRecord
  2
*Model_Space
340
21
  0
BLOCK_RECORD
  5
1A
330
1
100
AcDbSymbolTableRecord
100
AcDbBlockTableRecord
  2
*Paper_Space
340
1D
  0
BLOCK_RECORD
  5
22
330
1
100
AcDbSymbolTableRecord
100
AcDbBlockTableRecord
  2
LOGO
340
0
102
{BLKREFS
331
135
102
}
  0
BLOCK_RECORD
  5
17FF
330
1
100
AcDbSymbolTableRecord
100
AcDbBlockTableRecord
  2
*D1
340
0
  0
BLOCK_RECORD
  5
19BE
330
1
100
AcDbSymbolTableRecord
100
AcDbBlockTableRecord
  2
*D3
340
0
  0
BLOCK_RECORD
  5
19EF
330
1
100
AcDbSymbolTableRecord
100
AcDbBlockTableRecord
  2
*D4
340
0
  0
BLOCK_RECORD
  5
1A83
330
1
100
AcDbSymbolTableRecord
100
AcDbBlockTableRecord
  2
*D5
340
0
  0
ENDTAB
  0
ENDSEC
  0
SECTION
  2
BLOCKS
  0
BLOCK
  5
43
330
1E
100
AcDbEntity
  8
0
100
AcDbBlockBegin
  2
*Model_Space
 70
     0
 10
0.0
 20
0.0
 30
0.0
  3
*Model_Space
  1

  0
ENDBLK
  5
44
330
1E
100
AcDbEntity
  8
0
100
AcDbBlockEnd
  0
BLOCK
  5
41
330
1A
100
AcDbEntity
 67
     1
  8
0
100
AcDbBlockBegin
  2
*Paper_Space
 70
     0
 10
0.0
 20
0.0
 30
0.0
  3
*Paper_Space
  1

  0
ENDBLK
  5
42
330
1A
100
AcDbEntity
 67
     1
  8
0
100
AcDbBlockEnd
  0
BLOCK
  5
45
330
22
100
AcDbEntity
  8
0
100
AcDbBlockBegin
  2
LOGO
 70
     0
 10
0.0
 20
0.0
 30
0.0
  3
LOGO
  1

  0
ARC
  5
46
330
22
100
AcDbEntity
  8
0
100
AcDbCircle
 10
11.59973089678112
 20
-9.271599258481501
 30
0.0
 40
4.5
100
AcDbArc
 50
270.0
 51
231.0575587310159
  0
LINE
  5
47
330
22
100
AcDbEntity
  8
0
100
AcDbLine
 10
3.599730896781125
 20
-4.771599258481529
 30
0.0
 11
3.599730896781153
 21
-11.77159925848133
 31
0.0
  0
LINE
  5
48
330
22
100
AcDbEntity
  8
0
100
AcDbLine
 10
2.599730896781125
 20
-4.771599258481529
 30
0.0
 11
2.599730896781153
 21
-11.77159925848133
 31
0.0
  0
CIRCLE
  5
49
330
22
100
AcDbEntity
  8
0
100
AcDbCircle
 10
11.59973089678112
 20
-9.271599258481501
 30
0.0
 40
3.5
  0
ARC
  5
4A
330
22
100
AcDbEntity
  8
0
100
AcDbCircle
 10
31.59973089678115
 20
-9.271599258481472
 30
0.0
 40
4.5
100
AcDbArc
 50
270.0
 51
231.0575587310182
  0
LINE
  5
4B
330
22
100
AcDbEntity
  8
0
100
AcDbLine
 10
17.59973089678112
 20
-4.771599258481472
 30
0.0
 11
17.59973089678115
 21
-13.77159925848147
 31
0.0
  0
ARC
  5
4C
330
22
100
AcDbEntity
  8
0
100
AcDbCircle
 10
22.59973089678116
 20
-7.271599258481472
 30
0.0
 40
2.5
100
AcDbArc
 50
293.1161887722295
 51
90.0
  0
CIRCLE
  5
4D
330
22
100
AcDbEntity
  8
0
100
AcDbCircle
 10
31.59973089678115
 20
-9.271599258481472
 30
0.0
 40
3.5
  0
ARC
  5
4E
330
22
100
AcDbEntity
  8
0
100
AcDbCircle
 10
4.599730896781153
 20
-11.77159925848133
 30
0.0
 40
1.0
100
AcDbArc
 50
180.0
 51
270.0
  0
ARC
  5
4F
330
22
100
AcDbEntity
  8
0
100
AcDbCircle
 10
4.599730896781153
 20
-11.77159925848133
 30
0.0
 40
2.0
100
AcDbArc
 50
179.9999999999992
 51
270.0
  0
LINE
  5
50
330
22
100
AcDbEntity
  8
0
100
AcDbLine
 10
11.59973089678115
 20
-13.77159925848144
 30
0.0
 11
4.599730896781153
 21
-13.77159925848147
 31
0.0
  0
LINE
  5
51
330
22
100
AcDbEntity
  8
0
100
AcDbLine
 10
8.771303772034769
 20
-12.77159925848136
 30
0.0
 11
4.599730896781153
 21
-12.77159925848133
 31
0.0
  0
LINE
  5
52
330
22
100
AcDbEntity
  8
0
100
AcDbLine
 10
31.59973089678115
 20
-13.77159925848147
 30
0.0
 11
23.6715276665056
 21
-13.77159925848144
 31
0.0
  0
LINE
  5
53
330
22
100
AcDbEntity
  8
0
100
AcDbLine
 10
23.56565672307022
 20
-9.51278021337896
 30
0.0
 11
24.4388546544846
 21
-12.77159925848144
 31
0.0
  0
LINE
  5
54
330
22
100
AcDbEntity
  8
0
100
AcDbLine
 10
22.59973089678116
 20
-9.771599258481472
 30
0.0
 11
18.59973089678112
 21
-9.771599258481472
 31
0.0
  0
LINE
  5
55
330
22
100
AcDbEntity
  8
0
100
AcDbLine
 10
18.59973089678115
 20
-13.77159925848144
 30
0.0
 11
17.59973089678115
 21
-13.77159925848144
 31
0.0
  0
LINE
  5
56
330
22
100
AcDbEntity
  8
0
100
AcDbLine
 10
18.59973089678115
 20
-9.771599258481472
 30
0.0
 11
18.59973089678115
 21
-13.77159925848144
 31
0.0
  0
LINE
  5
57
330
22
100
AcDbEntity
  8
0
100
AcDbLine
 10
22.59973089678116
 20
-9.771599258481472
 30
0.0
 11
23.67152766650562
 21
-13.77159925848147
 31
0.0
  0
ARC
  5
58
330
22
100
AcDbEntity
  8
0
100
AcDbCircle
 10
22.59973089678116
 20
-7.271599258481472
 30
0.0
 40
2.5
100
AcDbArc
 50
270.0
 51
270.0000000000007
  0
LINE
  5
59
330
22
100
AcDbEntity
  8
0
100
AcDbLine
 10
28.77130377203494
 20
-12.77159925848147
 30
0.0
 11
24.43885465448463
 21
-12.77159925848144
 31
0.0
  0
LINE
  5
5A
330
22
100
AcDbEntity
  8
0
100
AcDbLine
 10
3.599730896781125
 20
-4.771599258481472
 30
0.0
 11
2.599730896781125
 21
-4.771599258481472
 31
0.0
  0
LINE
  5
5B
330
22
100
AcDbEntity
  8
0
100
AcDbLine
 10
22.59973089678116
 20
-8.771599258481472
 30
0.0
 11
18.59973089678115
 21
-8.771599258481472
 31
0.0
  0
LINE
  5
5C
330
22
100
AcDbEntity
  8
0
100
AcDbLine
 10
22.59973089678116
 20
-5.771599258481472
 30
0.0
 11
18.59973089678115
 21
-5.771599258481472
 31
0.0
  0
LINE
  5
5D
330
22
100
AcDbEntity
  8
0
100
AcDbLine
 10
22.59973089678116
 20
-4.771599258481472
 30
0.0
 11
17.59973089678115
 21
-4.771599258481472
 31
0.0
  0
LINE
  5
5E
330
22
100
AcDbEntity
  8
0
100
AcDbLine
 10
18.59973089678115
 20
-5.771599258481472
 30
0.0
 11
18.59973089678115
 21
-8.771599258481472
 31
0.0
  0
ARC
  5
5F
330
22
100
AcDbEntity
  8
0
100
AcDbCircle
 10
22.59973089678116
 20
-7.271599258481472
 30
0.0
 40
1.5
100
AcDbArc
 50
270.0
 51
90.0
  0
ENDBLK
  5
60
330
22
100
AcDbEntity
  8
0
100
AcDbBlockEnd
  0
BLOCK
  5
1809
330
17FF
100
AcDbEntity
  8
0
100
AcDbBlockBegin
  2
*D1
 70
     1
 10
0.0
 20
0.0
 30
0.0
  3
*D1
  1

  0
LINE
  5
1BCD
330
17FF
100
AcDbEntity
  8
BEM
 62
     0
370
    -2
100
AcDbLine
 10
168.9525772965797
 20
247.7912918656155
 30
0.0
 11
168.9525772965797
 21
218.7014026125383
 31
0.0
  0
LINE
  5
1BCE
330
17FF
100
AcDbEntity
  8
BEM
 62
     0
370
    -2
100
AcDbLine
 10
270.5525772965797
 20
247.791291865615
 30
0.0
 11
270.5525772965797
 21
218.7014026125383
 31
0.0
  0
LINE
  5
1BCF
330
17FF
100
AcDbEntity
  8
BEM
 62
     0
370
    -2
100
AcDbLine
 10
175.9525772965797
 20
220.7014026125383
 30
0.0
 11
263.5525772965797
 21
220.7014026125383
 31
0.0
  0
SOLID
  5
1BD0
330
17FF
100
AcDbEntity
  8
BEM
 62
     0
100
AcDbTrace
 10
175.9525772965797
 20
221.8680692792049
 30
0.0
 11
175.9525772965797
 21
219.5347359458716
 31
0.0
 12
168.9525772965797
 22
220.7014026125383
 32
0.0
 13
168.9525772965797
 23
220.7014026125383
 33
0.0
  0
SOLID
  5
1BD1
330
17FF
100
AcDbEntity
  8
BEM
 62
     0
100
AcDbTrace
 10
263.5525772965797
 20
221.8680692792049
 30
0.0
 11
263.5525772965797
 21
219.5347359458716
 31
0.0
 12
270.5525772965797
 22
220.7014026125383
 32
0.0
 13
270.5525772965797
 23
220.7014026125383
 33
0.0
  0
MTEXT
  5
1BD2
330
17FF
100
AcDbEntity
  8
BEM
 62
     1
100
AcDbMText
 10
219.7525772965797
 20
227.2014026125383
 30
0.0
 40
7.0
 41
0.0
 71
     5
 72
     1
  1
\A1;%%c101.6
 73
     1
 44
1.0
  0
POINT
  5
1BD3
330
17FF
100
AcDbEntity
  8
DEFPOINTS
 62
     0
100
AcDbPoint
 10
168.9525772965797
 20
249.7912918656155
 30
0.0
  0
POINT
  5
1BD4
330
17FF
100
AcDbEntity
  8
DEFPOINTS
 62
     0
100
AcDbPoint
 10
270.5525772965797
 20
249.791291865615
 30
0.0
  0
POINT
  5
1BD5
330
17FF
100
AcDbEntity
  8
DEFPOINTS
 62
     0
100
AcDbPoint
 10
270.5525772965797
 20
220.7014026125383
 30
0.0
  0
ENDBLK
  5
180A
330
17FF
100
AcDbEntity
  8
0
100
AcDbBlockEnd
  0
BLOCK
  5
19C8
330
19BE
100
AcDbEntity
  8
0
100
AcDbBlockBegin
  2
*D3
 70
     1
 10
0.0
 20
0.0
 30
0.0
  3
*D3
  1

  0
LINE
  5
1BBB
330
19BE
100
AcDbEntity
  8
BEM
 62
     0
370
    -2
100
AcDbLine
 10
167.652486604787
 20
241.7912918656155
 30
0.0
 11
144.2960884640485
 21
241.7912918656155
 31
0.0
  0
LINE
  5
1BBC
330
19BE
100
AcDbEntity
  8
BEM
 62
     0
370
    -2
100
AcDbLine
 10
217.7525772965798
 20
356.7905232265544
 30
0.0
 11
144.2960884640485
 21
356.7905232265544
 31
0.0
  0
LINE
  5
1BBD
330
19BE
100
AcDbEntity
  8
BEM
 62
     0
370
    -2
100
AcDbLine
 10
146.2960884640485
 20
248.7912918656155
 30
0.0
 11
146.2960884640486
 21
349.7905232265544
 31
0.0
  0
SOLID
  5
1BBE
330
19BE
100
AcDbEntity
  8
BEM
 62
     0
100
AcDbTrace
 10
145.1294217973819
 20
248.7912918656155
 30
0.0
 11
147.4627551307152
 21
248.7912918656155
 31
0.0
 12
146.2960884640485
 22
241.7912918656155
 32
0.0
 13
146.2960884640485
 23
241.7912918656155
 33
0.0
  0
SOLID
  5
1BBF
330
19BE
100
AcDbEntity
  8
BEM
 62
     0
100
AcDbTrace
 10
145.1294217973819
 20
349.7905232265544
 30
0.0
 11
147.4627551307152
 21
349.7905232265544
 31
0.0
 12
146.2960884640486
 22
356.7905232265544
 32
0.0
 13
146.2960884640486
 23
356.7905232265544
 33
0.0
  0
MTEXT
  5
1BC0
330
19BE
100
AcDbEntity
  8
BEM
 62
     1
100
AcDbMText
 10
139.7960884640485
 20
299.290907546085
 30
0.0
 40
7.0
 41
0.0
 71
     5
 72
     1
  1
\A1;115
 11
0.0000000000000001
 21
1.0
 31
0.0
 73
     1
 44
1.0
  0
POINT
  5
1BC1
330
19BE
100
AcDbEntity
  8
DEFPOINTS
 62
     0
100
AcDbPoint
 10
169.652486604787
 20
241.7912918656155
 30
0.0
  0
POINT
  5
1BC2
330
19BE
100
AcDbEntity
  8
DEFPOINTS
 62
     0
100
AcDbPoint
 10
219.7525772965798
 20
356.7905232265544
 30
0.0
  0
POINT
  5
1BC3
330
19BE
100
AcDbEntity
  8
DEFPOINTS
 62
     0
100
AcDbPoint
 10
146.2960884640486
 20
356.7905232265544
 30
0.0
  0
ENDBLK
  5
19C9
330
19BE
100
AcDbEntity
  8
0
100
AcDbBlockEnd
  0
BLOCK
  5
19F9
330
19EF
100
AcDbEntity
  8
0
100
AcDbBlockBegin
  2
*D4
 70
     1
 10
0.0
 20
0.0
 30
0.0
  3
*D4
  1

  0
LINE
  5
1BC4
330
19EF
100
AcDbEntity
  8
BEM
 62
     0
370
    -2
100
AcDbLine
 10
217.8207256440016
 20
357.3081613167595
 30
0.0
 11
146.4676986623698
 21
376.4271472740037
 31
0.0
  0
LINE
  5
1BC5
330
19EF
100
AcDbEntity
  8
BEM
 62
     0
370
    -2
100
AcDbLine
 10
194.7874209118149
 20
482.5358817122173
 30
0.0
 11
176.2316899107318
 21
487.5078748489267
 31
0.0
  0
LINE
  5
1BC6
330
19EF
100
AcDbEntity
  8
BEM
 62
     0
370
    -2
100
AcDbLine
 10
150.2112836306656
 20
382.6709899678221
 30
0.0
 11
176.3518082475923
 21
480.2287559746981
 31
0.0
  0
SOLID
  5
1BC7
330
19EF
100
AcDbEntity
  8
BEM
 62
     0
100
AcDbTrace
 10
149.0843701666616
 20
382.9729455204418
 30
0.0
 11
151.3381970946695
 21
382.3690344152026
 31
0.0
 12
148.3995503149479
 22
375.9095091837987
 32
0.0
 13
148.3995503149479
 23
375.9095091837987
 33
0.0
  0
SOLID
  5
1BC8
330
19EF
100
AcDbEntity
  8
BEM
 62
     0
100
AcDbTrace
 10
175.2248947835883
 20
480.5307115273178
 30
0.0
 11
177.4787217115962
 21
479.9268004220786
 31
0.0
 12
178.1635415633099
 22
486.9902367587216
 32
0.0
 13
178.1635415633099
 23
486.9902367587216
 33
0.0
  0
MTEXT
  5
1BC9
330
19EF
100
AcDbEntity
  8
BEM
 62
     1
100
AcDbMText
 10
157.00302806825
 20
433.1321967644266
 30
0.0
 40
7.0
 41
0.0
 71
     5
 72
     1
  1
\A1;115
 11
0.2588190451025194
 21
0.9659258262890686
 31
0.0
 73
     1
 44
1.0
  0
POINT
  5
1BCA
330
19EF
100
AcDbEntity
  8
DEFPOINTS
 62
     0
100
AcDbPoint
 10
219.7525772965798
 20
356.7905232265544
 30
0.0
  0
POINT
  5
1BCB
330
19EF
100
AcDbEntity
  8
DEFPOINTS
 62
     0
100
AcDbPoint
 10
196.7192725643931
 20
482.0182436220123
 30
0.0
  0
POINT
  5
1BCC
330
19EF
100
AcDbEntity
  8
DEFPOINTS
 62
     0
100
AcDbPoint
 10
178.1635415633099
 20
486.9902367587216
 30
0.0
  0
ENDBLK
  5
19FA
330
19EF
100
AcDbEntity
  8
0
100
AcDbBlockEnd
  0
BLOCK
  5
1A8F
330
1A83
100
AcDbEntity
  8
0
100
AcDbBlockBegin
  2
*D5
 70
     1
 10
0.0
 20
0.0
 30
0.0
  3
*D5
  1

  0
LINE
  5
1BD6
330
1A83
100
AcDbEntity
  8
SCHRAFF
 62
     0
370
    -2
100
AcDbLine
 10
251.3283018606594
 20
474.6327315855007
 30
0.0
 11
254.4881423270063
 21
486.4254167497192
 31
0.0
  0
LINE
  5
1BD7
330
1A83
100
AcDbEntity
  8
SCHRAFF
 62
     0
370
    -2
100
AcDbLine
 10
219.7525772965798
 20
358.7905232265545
 30
0.0
 11
219.7525772965798
 21
490.9984406410843
 31
0.0
  0
ARC
  5
1BD8
330
1A83
100
AcDbEntity
  8
SCHRAFF
 62
     0
370
    -2
100
AcDbCircle
 10
219.7525772965798
 20
356.7905232265545
 30
0.0
 40
132.20791741453
100
AcDbArc
 50
78.03398863824459
 51
86.96601136175544
  0
SOLID
  5
1BD9
330
1A83
100
AcDbEntity
  8
SCHRAFF
 62
     0
100
AcDbTrace
 10
247.4354468353963
 20
487.2601759970426
 30
0.0
 11
246.8914139706394
 21
484.9911513857815
 31
0.0
 12
253.9705042368013
 22
484.4935650971412
 32
0.0
 13
253.9705042368013
 23
484.4935650971412
 33
0.0
  0
SOLID
  5
1BDA
330
1A83
100
AcDbEntity
  8
SCHRAFF
 62
     0
100
AcDbTrace
 10
226.7192382193791
 20
487.6468687052068
 30
0.0
 11
226.7810096081611
 21
489.9793842442702
 31
0.0
 12
219.7525772965798
 22
488.9984406410843
 32
0.0
 13
219.7525772965798
 23
488.9984406410843
 33
0.0
  0
MTEXT
  5
1BDB
330
1A83
100
AcDbEntity
  8
SCHRAFF
 62
     1
100
AcDbMText
 10
237.8575935874717
 20
494.3117751790531
 30
0.0
 40
7.0
 41
0.0
 71
     5
 72
     1
  1
\A1;15°
 11
0.9914448613738105
 21
-0.1305261922200512
 31
0.0
 73
     1
 44
1.0
  0
POINT
  5
1BDC
330
1A83
100
AcDbEntity
  8
DEFPOINTS
 62
     0
100
AcDbPoint
 10
242.7102412287529
 20
486.9899053059813
 30
0.0
  0
POINT
  5
1BDD
330
1A83
100
AcDbEntity
  8
DEFPOINTS
 62
     0
100
AcDbPoint
 10
219.7525772965798
 20
356.7905232265545
 30
0.0
  0
POINT
  5
1BDE
330
1A83
100
AcDbEntity
  8
DEFPOINTS
 62
     0
100
AcDbPoint
 10
250.8106637704544
 20
472.7008799329225
 30
0.0
  0
POINT
  5
1BDF
330
1A83
100
AcDbEntity
  8
DEFPOINTS
 62
     0
100
AcDbPoint
 10
219.7525772965798
 20
356.7905232265545
 30
0.0
  0
POINT
  5
1BE0
330
1A83
100
AcDbEntity
  8
DEFPOINTS
 62
     0
100
AcDbPoint
 10
219.7525772965798
 20
236.7912918656155
 30
0.0
  0
ENDBLK
  5
1A90
330
1A83
100
AcDbEntity
  8
0
100
AcDbBlockEnd
  0
ENDSEC
  0
SECTION
  2
ENTITIES
  0
TEXT
  5
134
330
1E
100
AcDbEntity
  8
TEXT
100
AcDbText
 10
204.4216048581257
 20
63.0896391972351
 30
0.0
 40
4.0
  1
Koeh
 41
0.8
  7
GREEKS
 72
     1
 11
209.6787477152686
 21
63.0896391972351
 31
0.0
100
AcDbText
  0
INSERT
  5
135
330
1E
100
AcDbEntity
  8
STEMPEL
100
AcDbBlockReference
  2
LOGO
 10
150.9955485457794
 20
45.02105276448322
 30
0.0
 41
2.0
 42
2.0
 43
2.0
  0
LINE
  5
136
330
1E
100
AcDbEntity
  8
HILF
100
AcDbLine
 10
420.0
 20
0.0
 30
0.0
 11
0.0
 21
0.0
 31
0.0
  0
LINE
  5
137
330
1E
100
AcDbEntity
  8
HILF
100
AcDbLine
 10
419.9999999999999
 20
594.0000000000002
 30
0.0
 11
0.0
 21
594.0
 31
0.0
  0
LINE
  5
138
330
1E
100
AcDbEntity
  8
STEMPEL
100
AcDbLine
 10
410.0
 20
584.0
 30
0.0
 11
39.99999999999989
 21
584.0
 31
0.0
  0
LINE
  5
139
330
1E
100
AcDbEntity
  8
STEMPEL
100
AcDbLine
 10
410.0
 20
10.0
 30
0.0
 11
39.99999999999989
 21
10.0
 31
0.0
  0
LINE
  5
13A
330
1E
100
AcDbEntity
  8
STEMPEL
100
AcDbLine
 10
49.99999999999989
 20
10.0
 30
0.0
 11
410.0
 21
10.0
 31
0.0
  0
TEXT
  5
13B
330
1E
100
AcDbEntity
  8
TEXT
100
AcDbText
 10
202.4626584226295
 20
73.30961091915225
 30
0.0
 40
4.0
  1
Name
 41
0.8
  7
GREEKS
100
AcDbText
  0
TEXT
  5
13C
330
1E
100
AcDbEntity
  8
TEXT
100
AcDbText
 10
196.5498279101549
 20
102.6506227776589
 30
0.0
 40
5.0
  1
Zul. Abw.
 41
0.8
  7
GREEKS
 72
     4
 11
209.9783993387263
 21
105.1506227776589
 31
0.0
100
AcDbText
  0
LINE
  5
13D
330
1E
100
AcDbEntity
  8
HILF
100
AcDbLine
 10
146.0000000000001
 20
49.99999999999997
 30
0.0
 11
230.0
 21
49.99999999999997
 31
0.0
  0
LINE
  5
13E
330
1E
100
AcDbEntity
  8
HILF
100
AcDbLine
 10
146.0000000000001
 20
59.99999999999997
 30
0.0
 11
230.0
 21
59.99999999999997
 31
0.0
  0
LINE
  5
13F
330
1E
100
AcDbEntity
  8
HILF
100
AcDbLine
 10
146.0000000000001
 20
69.99999999999994
 30
0.0
 11
230.0
 21
69.99999999999994
 31
0.0
  0
LINE
  5
140
330
1E
100
AcDbEntity
  8
STEMPEL
100
AcDbLine
 10
410.0
 20
80.0
 30
0.0
 11
146.0000000000001
 21
79.99999999999994
 31
0.0
  0
LINE
  5
141
330
1E
100
AcDbEntity
  8
STEMPEL
100
AcDbLine
 10
410.0
 20
40.0
 30
0.0
 11
146.0000000000001
 21
39.99999999999997
 31
0.0
  0
LINE
  5
142
330
1E
100
AcDbEntity
  8
STEMPEL
100
AcDbLine
 10
410.0
 20
110.0
 30
0.0
 11
39.99999999999997
 21
110.0
 31
0.0
  0
LINE
  5
144
330
1E
100
AcDbEntity
  8
HILF
100
AcDbLine
 10
0.0
 20
0.0
 30
0.0
 11
-0.0000000000001137
 21
594.0
 31
0.0
  0
LINE
  5
145
330
1E
100
AcDbEntity
  8
STEMPEL
100
AcDbLine
 10
40.0
 20
10.0
 30
0.0
 11
39.99999999999989
 21
584.0
 31
0.0
  0
LINE
  5
148
330
1E
100
AcDbEntity
  8
HILF
100
AcDbLine
 10
40.00000000000008
 20
39.99999999999997
 30
0.0
 11
146.0000000000001
 21
39.99999999999997
 31
0.0
  0
LINE
  5
149
330
1E
100
AcDbEntity
  8
HILF
100
AcDbLine
 10
40.00000000000008
 20
49.99999999999997
 30
0.0
 11
146.0000000000001
 21
49.99999999999997
 31
0.0
  0
LINE
  5
14A
330
1E
100
AcDbEntity
  8
HILF
100
AcDbLine
 10
40.00000000000008
 20
59.99999999999997
 30
0.0
 11
146.0000000000001
 21
59.99999999999997
 31
0.0
  0
LINE
  5
14B
330
1E
100
AcDbEntity
  8
HILF
100
AcDbLine
 10
40.00000000000008
 20
69.99999999999994
 30
0.0
 11
146.0000000000001
 21
69.99999999999994
 31
0.0
  0
LINE
  5
14C
330
1E
100
AcDbEntity
  8
HILF
100
AcDbLine
 10
40.00000000000008
 20
79.99999999999994
 30
0.0
 11
146.0000000000001
 21
79.99999999999994
 31
0.0
  0
LINE
  5
14D
330
1E
100
AcDbEntity
  8
HILF
100
AcDbLine
 10
40.00000000000008
 20
90.00000000000005
 30
0.0
 11
146.0000000000001
 21
90.00000000000005
 31
0.0
  0
LINE
  5
14E
330
1E
100
AcDbEntity
  8
HILF
100
AcDbLine
 10
40.00000000000008
 20
100.0
 30
0.0
 11
146.0000000000001
 21
100.0
 31
0.0
  0
LINE
  5
14F
330
1E
100
AcDbEntity
  8
STEMPEL
100
AcDbLine
 10
145.9999999999999
 20
29.99999999999997
 30
0.0
 11
39.99999999999997
 21
29.99999999999997
 31
0.0
  0
TEXT
  5
150
330
1E
100
AcDbEntity
  8
TEXT
100
AcDbText
 10
48.26641107045756
 20
13.65465846027192
 30
0.0
 40
4.0
  1
Index
 50
90.0
 41
0.8
  7
GREEKS
100
AcDbText
  0
LINE
  5
151
330
1E
100
AcDbEntity
  8
VOLL
100
AcDbLine
 10
54.00000000000009
 20
110.0
 30
0.0
 11
53.99999999999997
 21
9.999999999999971
 31
0.0
  0
LINE
  5
152
330
1E
100
AcDbEntity
  8
HILF
100
AcDbLine
 10
31.08767135713856
 20
297.0
 30
0.0
 11
0.0000000000001137
 21
297.0
 31
0.0
  0
LINE
  5
154
330
1E
100
AcDbEntity
  8
VOLL
100
AcDbLine
 10
124.0000000000001
 20
109.9999999999999
 30
0.0
 11
124.0
 21
9.999999999999971
 31
0.0
  0
LINE
  5
155
330
1E
100
AcDbEntity
  8
VOLL
100
AcDbLine
 10
104.0000000000001
 20
109.9999999999999
 30
0.0
 11
104.0
 21
9.999999999999971
 31
0.0
  0
LINE
  5
157
330
1E
100
AcDbEntity
  8
STEMPEL
100
AcDbLine
 10
146.0000000000001
 20
109.9999999999999
 30
0.0
 11
146.0
 21
9.999999999999971
 31
0.0
  0
TEXT
  5
159
330
1E
100
AcDbEntity
  8
TEXT
100
AcDbText
 10
172.331167315365
 20
73.31880501229926
 30
0.0
 40
4.0
  1
Tag
 41
0.8
  7
GREEKS
100
AcDbText
  0
TEXT
  5
15A
330
1E
100
AcDbEntity
  8
TEXT
100
AcDbText
 10
147.5836127167615
 20
63.62990369617964
 30
0.0
 40
4.0
  1
Gez.
 41
0.8
  7
GREEKS
100
AcDbText
  0
LINE
  5
15B
330
1E
100
AcDbEntity
  8
VOLL
100
AcDbLine
 10
164.0000000000001
 20
79.99999999999994
 30
0.0
 11
164.0000000000001
 21
39.99999999999997
 31
0.0
  0
TEXT
  5
15C
330
1E
100
AcDbEntity
  8
TEXT
100
AcDbText
 10
147.6006777387303
 20
43.52946389649807
 30
0.0
 40
4.0
  1
Norm.
 41
0.8
  7
GREEKS
100
AcDbText
  0
TEXT
  5
15D
330
1E
100
AcDbEntity
  8
TEXT
100
AcDbText
 10
147.5515086571672
 20
53.68926291428377
 30
0.0
 40
4.0
  1
Gepr.
 41
0.8
  7
GREEKS
100
AcDbText
  0
TEXT
  5
15E
330
1E
100
AcDbEntity
  8
TEXT
 62
     1
100
AcDbText
 10
160.5006306481887
 20
88.14901428913959
 30
0.0
 40
7.0
  1
1:2
 41
0.8
  7
GREEKS
100
AcDbText
  0
TEXT
  5
160
330
1E
100
AcDbEntity
  8
TEXT
100
AcDbText
 10
148.622109822104
 20
73.14025471151666
 30
0.0
 40
4.0
  1
2011
 41
0.8
  7
GREEKS
100
AcDbText
  0
LINE
  5
161
330
1E
100
AcDbEntity
  8
VOLL
100
AcDbLine
 10
190.0000000000001
 20
109.9999999999998
 30
0.0
 11
190.0
 21
39.99999999999997
 31
0.0
  0
LINE
  5
186
330
1E
100
AcDbEntity
  8
HILF
100
AcDbLine
 10
420.0
 20
-0.0000000000001137
 30
0.0
 11
419.9999999999999
 21
594.0
 31
0.0
  0
LINE
  5
187
330
1E
100
AcDbEntity
  8
STEMPEL
100
AcDbLine
 10
410.0
 20
10.0
 30
0.0
 11
410.0
 21
584.0
 31
0.0
  0
TEXT
  5
188
330
1E
100
AcDbEntity
  8
TEXT
100
AcDbText
 10
337.2400861497006
 20
52.07416177878602
 30
0.0
 40
5.0
  1
ersetzt durch:
 41
0.8
  7
GREEKS
100
AcDbText
  0
TEXT
  5
18A
330
1E
100
AcDbEntity
  8
TEXT
100
AcDbText
 10
336.178754957634
 20
102.3132034537136
 30
0.0
 40
5.0
  1
Zeichnungs Nr.
 41
0.8
  7
GREEKS
100
AcDbText
  0
LINE
  5
18B
330
1E
100
AcDbEntity
  8
HILF
100
AcDbLine
 10
233.4909699289885
 20
14.89398258028314
 30
0.0
 11
404.8588839326728
 21
14.89398258028314
 31
0.0
  0
LINE
  5
18C
330
1E
100
AcDbEntity
  8
HILF
100
AcDbLine
 10
336.7238616296993
 20
83.77983636955827
 30
0.0
 11
404.8588839326728
 21
83.77983636955827
 31
0.0
  0
LINE
  5
18D
330
1E
100
AcDbEntity
  8
VOLL
100
AcDbLine
 10
332.0
 20
60.0
 30
0.0
 11
410.0
 21
60.0
 31
0.0
  0
TEXT
  5
18E
330
1E
100
AcDbEntity
  8
TEXT
 62
     1
100
AcDbText
 10
234.9283864320014
 20
87.41748789253779
 30
0.0
 40
7.0
  1
Bogen DN100 15°
 41
0.8
  7
GREEKS
100
AcDbText
  0
LINE
  5
18F
330
1E
100
AcDbEntity
  8
HILF
100
AcDbLine
 10
234.7736801096947
 20
49.99999999999997
 30
0.0
 11
324.835391655631
 21
49.99999999999997
 31
0.0
  0
LINE
  5
190
330
1E
100
AcDbEntity
  8
HILF
100
AcDbLine
 10
234.7736801096947
 20
59.99999999999997
 30
0.0
 11
324.835391655631
 21
59.99999999999997
 31
0.0
  0
LINE
  5
191
330
1E
100
AcDbEntity
  8
HILF
100
AcDbLine
 10
234.7736801096947
 20
69.99999999999994
 30
0.0
 11
324.835391655631
 21
69.99999999999994
 31
0.0
  0
LINE
  5
192
330
1E
100
AcDbEntity
  8
HILF
100
AcDbLine
 10
234.7736801096947
 20
84.03758247564139
 30
0.0
 11
324.8353916556311
 21
84.03758247564139
 31
0.0
  0
LINE
  5
193
330
1E
100
AcDbEntity
  8
STEMPEL
100
AcDbLine
 10
230.0
 20
110.0
 30
0.0
 11
230.0
 21
9.999999999999971
 31
0.0
  0
TEXT
  5
194
330
1E
100
AcDbEntity
  8
TEXT
100
AcDbText
 10
235.1296391125315
 20
71.50334417585288
 30
0.0
 40
5.0
  1
dünnwandig
 41
0.8
  7
GREEKS
100
AcDbText
  0
TEXT
  5
195
330
1E
100
AcDbEntity
  8
TEXT
100
AcDbText
 10
234.9837501577827
 20
42.62974153022632
 30
0.0
 40
4.0
  1
4340100W.DWG
 41
0.8
  7
GREEKS
100
AcDbText
  0
TEXT
  5
196
330
1E
100
AcDbEntity
  8
TEXT
100
AcDbText
 10
234.742238391136
 20
30.84560570193057
 30
0.0
 40
5.0
  1
Bauvorhaben
 41
0.8
  7
GREEKS
100
AcDbText
  0
TEXT
  5
197
330
1E
100
AcDbEntity
  8
TEXT
100
AcDbText
 10
234.877940380901
 20
102.5489328011779
 30
0.0
 40
5.0
  1
Benennung
 41
0.8
  7
GREEKS
100
AcDbText
  0
LINE
  5
198
330
1E
100
AcDbEntity
  8
STEMPEL
100
AcDbLine
 10
332.0
 20
109.9999999999997
 30
0.0
 11
332.0
 21
40.0
 31
0.0
  0
TEXT
  5
19A
330
1E
100
AcDbEntity
  8
TEXT
 62
     1
100
AcDbText
 10
348.0209001885017
 20
88.14901428913959
 30
0.0
 40
7.0
  1
4340100W
 41
0.8
  7
GREEKS
 72
     1
 11
368.8209001885017
 21
88.14901428913959
 31
0.0
100
AcDbText
  0
TEXT
  5
212
330
1E
100
AcDbEntity
  8
TEXT
100
AcDbText
 10
235.1296391125315
 20
51.50334417585291
 30
0.0
 40
5.0
  1
EDV-Art.Nr. 4.340.100C
 41
0.8
  7
GREEKS
100
AcDbText
  0
TEXT
  5
E61
330
1E
100
AcDbEntity
  8
TEXT
 62
     1
100
AcDbText
 10
297.0573649355706
 20
132.2248663682012
 30
0.0
 40
7.0
  1
Werkstoff: 1.4301
 41
0.8
  7
GREEKS
100
AcDbText
  0
TEXT
  5
12CF
330
1E
100
AcDbEntity
  8
VOLL
100
AcDbText
 10
1383.918177163095
 20
253.7900361884587
 30
0.0
 40
1.8
  1

  7
GREEKS
100
AcDbText
  0
TEXT
  5
1574
330
1E
100
AcDbEntity
  8
BEM
100
AcDbText
 10
416.5811541437437
 20
12.14804815338303
 30
0.0
 40
4.0
  1
Diese Zeichnung ist urheberrechtlich geschützt und bleibt unser Eigentum. Sie darf weder ganz noch teilweise vervielfältigt und nicht an Dritte weitergegeben werden.
 50
90.0
 41
0.8
  7
GREEKS
100
AcDbText
  0
TEXT
  5
1575
330
1E
100
AcDbEntity
  8
TEXT
100
AcDbText
 10
336.7238616296993
 20
73.1811823709997
 30
0.0
 40
5.0
  1
Ersatz für:
 41
0.8
  7
GREEKS
100
AcDbText
  0
TEXT
  5
1576
330
1E
100
AcDbEntity
  8
TEXT
100
AcDbText
 10
192.6882715247924
 20
89.50150693558043
 30
0.0
 40
4.0
  1
DIN EN1124-3
 41
0.8
  7
GREEKS
 72
     1
 11
209.6787477152686
 21
89.50150693558043
 31
0.0
100
AcDbText
  0
TEXT
  5
1577
330
1E
100
AcDbEntity
  8
TEXT
100
AcDbText
 10
153.5163572150377
 20
102.4620895087088
 30
0.0
 40
5.0
  1
Maßstab
 41
0.8
  7
GREEKS
100
AcDbText
  0
TEXT
  5
1578
330
1E
100
AcDbEntity
  8
TEXT
100
AcDbText
 10
41.85509950977674
 20
111.6719999999999
 30
0.0
 40
5.0
  1
Erstellt mit AUTOCAD 2004
 41
0.8
  7
GREEKS
100
AcDbText
  0
TEXT
  5
1579
330
1E
100
AcDbEntity
  8
TEXT
100
AcDbText
 10
129.3020371565846
 20
18.59324216966408
 30
0.0
 40
4.0
  1
Name
 41
0.8
  7
GREEKS
 72
     1
 11
135.6258466803941
 21
18.59324216966408
 31
0.0
100
AcDbText
  0
TEXT
  5
157A
330
1E
100
AcDbEntity
  8
TEXT
100
AcDbText
 10
110.2468354498985
 20
18.6715626933981
 30
0.0
 40
4.0
  1
Tag
 41
0.8
  7
GREEKS
 72
     1
 11
113.9801687832318
 21
18.6715626933981
 31
0.0
100
AcDbText
  0
TEXT
  5
157B
330
1E
100
AcDbEntity
  8
TEXT
100
AcDbText
 10
66.72469466776535
 20
18.67381894984132
 30
0.0
 40
4.0
  1
Änderung
 41
0.8
  7
GREEKS
 72
     1
 11
77.46755181062249
 21
18.67381894984132
 31
0.0
100
AcDbText
  0
LINE
  5
16B5
330
1E
100
AcDbEntity
  8
MITTEL
100
AcDbLine
 10
219.7525772965798
 20
356.7905232265544
 30
0.0
 11
219.7525772965798
 21
236.7912918656155
 31
0.0
  0
LINE
  5
1707
330
1E
100
AcDbEntity
  8
MITTEL
100
AcDbLine
 10
250.8106637704544
 20
472.7008799329225
 30
0.0
 11
219.7525772965798
 21
356.7905232265544
 31
0.0
  0
LINE
  5
17DB
330
1E
100
AcDbEntity
  8
STEMPEL
100
AcDbLine
 10
270.5525772965793
 20
350.1025763491123
 30
0.0
 11
270.5525772965797
 21
249.791291865615
 31
0.0
  0
LINE
  5
17DC
330
1E
100
AcDbEntity
  8
STEMPEL
100
AcDbLine
 10
269.8526679883723
 20
241.791291865615
 30
0.0
 11
169.652486604787
 21
241.7912918656155
 31
0.0
  0
LINE
  5
17DD
330
1E
100
AcDbEntity
  8
HILF
100
AcDbLine
 10
269.2978024996502
 20
249.791291865615
 30
0.0
 11
170.2073520935089
 21
249.7912918656155
 31
0.0
  0
DIMENSION
  5
17DE
330
1E
100
AcDbEntity
  8
BEM
100
AcDbDimension
  2
*D1
 10
270.5525772965797
 20
220.7014026125383
 30
0.0
 11
219.7525772965797
 21
227.2014026125383
 31
0.0
 70
    32
  1
%%c<>
 71
     5
 42
101.5999999999999
  3
Standard
100
AcDbAlignedDimension
 13
168.9525772965797
 23
249.7912918656155
 33
0.0
 14
270.5525772965797
 24
249.791291865615
 34
0.0
100
AcDbRotatedDimension
1001
ACAD
1000
DSTYLE
1002
{
1070
    40
1040
2.0
1070
    41
1040
3.5
1070
    42
1040
1.0
1070
    43
1040
7.0
1070
    44
1040
1.0
1070
    73
1070
     0
1070
    74
1070
     0
1070
    77
1070
     1
1070
    78
1070
     8
1070
    79
1070
     2
1070
   140
1040
3.5
1070
   141
1040
1.5
1070
   146
1040
0.5142857142857144
1070
   147
1040
1.5
1070
   172
1070
     1
1070
   178
1070
     1
1070
   179
1070
     2
1070
   271
1070
     2
1070
   272
1070
     2
1070
   284
1070
     8
1070
   285
1070
     8
1070
   286
1070
     8
1002
}
  0
LINE
  5
17DF
330
1E
100
AcDbEntity
  8
STEMPEL
100
AcDbLine
 10
270.5525772965798
 20
249.7912918656162
 30
0.0
 11
269.8526679883723
 21
241.791291865615
 31
0.0
  0
LINE
  5
17FD
330
1E
100
AcDbEntity
  8
STEMPEL
100
AcDbLine
 10
168.9525772965798
 20
363.4784701039939
 30
0.0
 11
168.9525772965797
 21
249.7912918656155
 31
0.0
  0
LINE
  5
17FE
330
1E
100
AcDbEntity
  8
STEMPEL
100
AcDbLine
 10
168.9525772965797
 20
249.7912918656155
 30
0.0
 11
169.652486604787
 21
241.7912918656155
 31
0.0
  0
TEXT
  5
1839
330
1E
100
AcDbEntity
  8
TEXT
 62
     1
100
AcDbText
 10
234.2160774296378
 20
438.098514093463
 30
0.0
 40
7.0
  1
DN100
 50
74.99999999999971
 41
0.8
  7
GREEKS
100
AcDbText
  0
LINE
  5
183E
330
1E
100
AcDbEntity
  8
STEMPEL
100
AcDbLine
 10
270.5525772965797
 20
350.1025763491139
 30
0.0
 11
168.9525772965797
 21
363.4784701039938
 31
0.0
  0
ARC
  5
187A
330
1E
100
AcDbEntity
  8
SCHRAFF
100
AcDbCircle
 10
166.3624494422554
 20
363.8194669050865
 30
0.0
 40
5.0
100
AcDbArc
 50
315.6301023541563
 51
29.36989764584361
  0
ARC
  5
187B
330
1E
100
AcDbEntity
  8
SCHRAFF
100
AcDbCircle
 10
171.3196737491244
 20
363.1668359439861
 30
0.0
 40
5.0
100
AcDbArc
 50
315.6301023541563
 51
29.36989764584361
  0
ARC
  5
187C
330
1E
100
AcDbEntity
  8
SCHRAFF
100
AcDbCircle
 10
176.2768980559935
 20
362.514204982886
 30
0.0
 40
5.0
100
AcDbArc
 50
315.6301023541563
 51
29.36989764584361
  0
ARC
  5
187D
330
1E
100
AcDbEntity
  8
SCHRAFF
100
AcDbCircle
 10
181.2341223628625
 20
361.8615740217856
 30
0.0
 40
5.0
100
AcDbArc
 50
315.6301023541563
 51
29.36989764584361
  0
ARC
  5
187E
330
1E
100
AcDbEntity
  8
SCHRAFF
100
AcDbCircle
 10
186.1913466697316
 20
361.2089430606852
 30
0.0
 40
5.0
100
AcDbArc
 50
315.6301023541563
 51
29.36989764584361
  0
ARC
  5
187F
330
1E
100
AcDbEntity
  8
SCHRAFF
100
AcDbCircle
 10
191.1485709766006
 20
360.556312099585
 30
0.0
 40
5.0
100
AcDbArc
 50
315.6301023541563
 51
29.36989764584361
  0
ARC
  5
1880
330
1E
100
AcDbEntity
  8
SCHRAFF
100
AcDbCircle
 10
196.1057952834697
 20
359.9036811384848
 30
0.0
 40
5.0
100
AcDbArc
 50
315.6301023541563
 51
29.36989764584361
  0
ARC
  5
1881
330
1E
100
AcDbEntity
  8
SCHRAFF
100
AcDbCircle
 10
201.0630195903388
 20
359.2510501773845
 30
0.0
 40
5.0
100
AcDbArc
 50
315.6301023541563
 51
29.36989764584361
  0
ARC
  5
1882
330
1E
100
AcDbEntity
  8
SCHRAFF
100
AcDbCircle
 10
206.0202438972078
 20
358.5984192162841
 30
0.0
 40
5.0
100
AcDbArc
 50
315.6301023541563
 51
29.36989764584361
  0
ARC
  5
1883
330
1E
100
AcDbEntity
  8
SCHRAFF
100
AcDbCircle
 10
210.9774682040769
 20
357.9457882551839
 30
0.0
 40
5.0
100
AcDbArc
 50
315.6301023541563
 51
29.36989764584361
  0
ARC
  5
1884
330
1E
100
AcDbEntity
  8
SCHRAFF
100
AcDbCircle
 10
215.9300495472893
 20
357.2588107891313
 30
0.0
 40
5.0
100
AcDbArc
 50
315.6301023541563
 51
29.36989764584361
  0
ARC
  5
1885
330
1E
100
AcDbEntity
  8
SCHRAFF
100
AcDbCircle
 10
220.8916786252663
 20
356.6405576916273
 30
0.0
 40
5.0
100
AcDbArc
 50
315.6301023541563
 51
29.36989764584361
  0
ARC
  5
1886
330
1E
100
AcDbEntity
  8
SCHRAFF
100
AcDbCircle
 10
225.8489029321353
 20
355.987926730527
 30
0.0
 40
5.0
100
AcDbArc
 50
315.6301023541563
 51
29.36989764584361
  0
ARC
  5
1887
330
1E
100
AcDbEntity
  8
SCHRAFF
100
AcDbCircle
 10
230.8061272390044
 20
355.3352957694267
 30
0.0
 40
5.0
100
AcDbArc
 50
315.6301023541563
 51
29.36989764584361
  0
ARC
  5
1888
330
1E
100
AcDbEntity
  8
SCHRAFF
100
AcDbCircle
 10
235.7633515458735
 20
354.6826648083264
 30
0.0
 40
5.0
100
AcDbArc
 50
315.6301023541563
 51
29.36989764584361
  0
ARC
  5
1889
330
1E
100
AcDbEntity
  8
SCHRAFF
100
AcDbCircle
 10
240.7205758527426
 20
354.030033847226
 30
0.0
 40
5.0
100
AcDbArc
 50
315.6301023541563
 51
29.36989764584361
  0
ARC
  5
188A
330
1E
100
AcDbEntity
  8
SCHRAFF
100
AcDbCircle
 10
245.6778001596115
 20
353.3774028861259
 30
0.0
 40
5.0
100
AcDbArc
 50
315.6301023541563
 51
29.36989764584361
  0
ARC
  5
188B
330
1E
100
AcDbEntity
  8
SCHRAFF
100
AcDbCircle
 10
250.6350244664806
 20
352.7247719250254
 30
0.0
 40
5.0
100
AcDbArc
 50
315.6301023541563
 51
29.36989764584361
  0
ARC
  5
188C
330
1E
100
AcDbEntity
  8
SCHRAFF
100
AcDbCircle
 10
255.5922487733497
 20
352.0721409639252
 30
0.0
 40
5.0
100
AcDbArc
 50
315.6301023541563
 51
29.36989764584361
  0
ARC
  5
188D
330
1E
100
AcDbEntity
  8
SCHRAFF
100
AcDbCircle
 10
260.5494730802186
 20
351.419510002825
 30
0.0
 40
5.0
100
AcDbArc
 50
315.6301023541563
 51
29.36989764584361
  0
ARC
  5
1977
330
1E
100
AcDbEntity
  8
SCHRAFF
100
AcDbCircle
 10
170.7468806633445
 20
363.2422455843299
 30
0.0
 40
3.164160677633741
100
AcDbArc
 50
109.5462205533086
 51
235.4537794466911
  0
ARC
  5
1978
330
1E
100
AcDbEntity
  8
SCHRAFF
100
AcDbCircle
 10
268.5487140344667
 20
350.3663899523949
 30
0.0
 40
3.788364566918895
100
AcDbArc
 50
301.9346774180754
 51
43.06532258191598
  0
HATCH
  5
19BC
330
1E
100
AcDbEntity
  8
SCHRAFF
100
AcDbHatch
 10
0.0
 20
0.0
 30
0.0
210
0.0
220
0.0
230
1.0
  2
_USER
 70
     0
 71
     0
 91
        2
 92
        7
 72
     1
 73
     1
 93
        3
 10
270.5525772965791
 20
350.1025763491123
 42
0.0
 10
270.5525772965791
 20
347.1513879121712
 42
0.472327651980549
 10
271.3164010697468
 20
352.9532054786026
 42
0.0
 97
        0
 92
        7
 72
     1
 73
     1
 93
        3
 10
168.9525772965797
 20
363.4784701039938
 42
0.0
 10
169.6882563476771
 20
366.2240617007532
 42
0.6122461067060147
 10
168.9525772965798
 20
360.636024522735
 42
0.0
 97
        0
 75
     0
 76
     0
 52
0.0000000000000032
 41
0.1
 77
     0
 78
     1
 53
0.0000000000000016
 43
14.4122660853875
 44
6.320369746375121
 45
0.0
 46
0.1
 79
     0
 47
0.1846379755301301
 98
        2
 10
271.318319075456
 20
350.4760204172599
 10
168.4024627722208
 20
363.7699548904214
  0
DIMENSION
  5
19BD
330
1E
100
AcDbEntity
  8
BEM
100
AcDbDimension
  2
*D3
 10
146.2960884640486
 20
356.7905232265544
 30
0.0
 11
139.7960884640485
 21
299.290907546085
 31
0.0
 70
    32
 71
     5
 42
114.9992313609389
  3
Standard
100
AcDbAlignedDimension
 13
169.652486604787
 23
241.7912918656155
 33
0.0
 14
219.7525772965798
 24
356.7905232265544
 34
0.0
 50
90.0
100
AcDbRotatedDimension
1001
ACAD
1000
DSTYLE
1002
{
1070
    40
1040
2.0
1070
    41
1040
3.5
1070
    42
1040
1.0
1070
    43
1040
7.0
1070
    44
1040
1.0
1070
    73
1070
     0
1070
    74
1070
     0
1070
    77
1070
     1
1070
    78
1070
     8
1070
    79
1070
     2
1070
   140
1040
3.5
1070
   141
1040
1.5
1070
   146
1040
0.5142857142857144
1070
   147
1040
1.5
1070
   172
1070
     1
1070
   178
1070
     1
1070
   179
1070
     2
1070
   271
1070
     2
1070
   272
1070
     2
1070
   284
1070
     8
1070
   285
1070
     8
1070
   286
1070
     8
1002
}
  0
DIMENSION
  5
19EE
330
1E
100
AcDbEntity
  8
BEM
100
AcDbDimension
  2
*D4
 10
178.1635415633099
 20
486.9902367587216
 30
0.0
 11
157.00302806825
 21
433.1321967644266
 31
0.0
 70
    32
 71
     5
 42
114.9992313609392
 51
285.0
  3
Standard
100
AcDbAlignedDimension
 13
219.7525772965798
 23
356.7905232265544
 33
0.0
 14
196.7192725643931
 24
482.0182436220123
 34
0.0
 50
74.99999999999963
100
AcDbRotatedDimension
1001
ACAD
1000
DSTYLE
1002
{
1070
    40
1040
2.0
1070
    41
1040
3.5
1070
    42
1040
1.0
1070
    43
1040
7.0
1070
    44
1040
1.0
1070
    73
1070
     0
1070
    74
1070
     0
1070
    77
1070
     1
1070
    78
1070
     8
1070
    79
1070
     2
1070
   140
1040
3.5
1070
   141
1040
1.5
1070
   146
1040
0.5142857142857144
1070
   147
1040
1.5
1070
   172
1070
     1
1070
   178
1070
     1
1070
   179
1070
     2
1070
   271
1070
     2
1070
   272
1070
     2
1070
   284
1070
     8
1070
   285
1070
     8
1070
   286
1070
     8
1002
}
  0
DIMENSION
  5
1A82
330
1E
100
AcDbEntity
  8
SCHRAFF
100
AcDbDimension
  2
*D5
 10
219.7525772965798
 20
236.7912918656155
 30
0.0
 11
237.8575935874717
 21
494.3117751790531
 31
0.0
 70
    34
 71
     5
 42
0.2617993877991487
  3
Standard
100
AcDb2LineAngularDimension
 13
250.8106637704544
 23
472.7008799329225
 33
0.0
 14
219.7525772965798
 24
356.7905232265544
 34
0.0
 15
219.7525772965798
 25
356.7905232265544
 35
0.0
 16
242.7102412287529
 26
486.9899053059813
 36
0.0
1001
ACAD
1000
DSTYLE
1002
{
1070
    40
1040
2.0
1070
    41
1040
3.5
1070
    42
1040
1.0
1070
    43
1040
7.0
1070
    44
1040
1.0
1070
    73
1070
     0
1070
    74
1070
     0
1070
    77
1070
     1
1070
    78
1070
     8
1070
    79
1070
     2
1070
   140
1040
3.5
1070
   141
1040
1.5
1070
   146
1040
0.5142857142857144
1070
   147
1040
1.5
1070
   172
1070
     1
1070
   178
1070
     1
1070
   179
1070
     2
1070
   271
1070
     2
1070
   272
1070
     2
1070
   284
1070
     8
1070
   285
1070
     8
1070
   286
1070
     8
1002
}
  0
LINE
  5
1ABE
330
1E
100
AcDbEntity
  8
STEMPEL
100
AcDbLine
 10
302.2870363415991
 20
441.1048963892316
 30
0.0
 11
297.4798118692744
 21
423.1640904151268
 31
0.0
  0
ARC
  5
1ABF
330
1E
100
AcDbEntity
  8
STEMPEL
100
AcDbCircle
 10
301.6490881577581
 20
404.7234522691653
 30
0.0
 40
12.8
100
AcDbArc
 50
138.1119523822754
 51
165.0
  0
ARC
  5
1AC0
330
1E
100
AcDbEntity
  8
STEMPEL
100
AcDbCircle
 10
287.0198262653348
 20
380.6495597201447
 30
0.0
 40
8.0
100
AcDbArc
 50
134.1404189093777
 51
165.0
  0
ARC
  5
1AC1
330
1E
100
AcDbEntity
  8
STEMPEL
100
AcDbCircle
 10
271.4991893422011
 20
396.522487285665
 30
0.0
 40
14.2
100
AcDbArc
 50
314.3570682370605
 51
345.0
  0
LINE
  5
1AC2
330
1E
100
AcDbEntity
  8
STEMPEL
100
AcDbLine
 10
279.2664297638013
 20
382.6231164864447
 30
0.0
 11
270.5525772965796
 21
350.1025763491138
 31
0.0
  0
LINE
  5
1AC3
330
1E
100
AcDbEntity
  8
STEMPEL
100
AcDbLine
 10
289.2852375812581
 20
408.0363360464776
 30
0.0
 11
285.2153360755059
 21
392.8472568452093
 31
0.0
  0
ARC
  5
1AC4
330
1E
100
AcDbEntity
  8
STEMPEL
100
AcDbCircle
 10
274.1044068730789
 20
429.4275113066076
 30
0.0
 40
24.2
100
AcDbArc
 50
318.1119523822754
 51
345.0
  0
ARC
  5
1AC5
330
1E
100
AcDbEntity
  8
STEMPEL
100
AcDbCircle
 10
278.9116313454037
 20
447.3683172807124
 30
0.0
 40
24.2
100
AcDbArc
 50
345.0
 51
15.26365194209988
  0
ARC
  5
1AC7
330
1E
100
AcDbEntity
  8
STEMPEL
100
AcDbCircle
 10
172.7945829307964
 20
439.2499128858414
 30
0.0
 40
12.8
100
AcDbArc
 50
345.0
 51
11.88804761772463
  0
ARC
  5
1AC8
330
1E
100
AcDbEntity
  8
STEMPEL
100
AcDbCircle
 10
209.0010061811957
 20
446.8719149465174
 30
0.0
 40
24.2
100
AcDbArc
 50
165.0
 51
191.8880476177246
  0
LINE
  5
1AC9
330
1E
100
AcDbEntity
  8
STEMPEL
100
AcDbLine
 10
190.4328256573251
 20
471.0761418121032
 30
0.0
 11
185.6256011850003
 21
453.1353358379986
 31
0.0
  0
ARC
  5
1ACA
330
1E
100
AcDbEntity
  8
STEMPEL
100
AcDbCircle
 10
173.4269490937404
 20
411.086679424201
 30
0.0
 40
8.0
100
AcDbArc
 50
345.0
 51
15.85958109062227
  0
ARC
  5
1ACB
330
1E
100
AcDbEntity
  8
STEMPEL
100
AcDbCircle
 10
194.8046787348491
 20
417.072719466805
 30
0.0
 40
14.2
100
AcDbArc
 50
165.0
 51
195.6429317629395
  0
LINE
  5
1ACC
330
1E
100
AcDbEntity
  8
STEMPEL
100
AcDbLine
 10
181.1283658128319
 20
408.9191314688606
 30
0.0
 11
168.9525772965797
 21
363.4784701039938
 31
0.0
  0
LINE
  5
1ACD
330
1E
100
AcDbEntity
  8
STEMPEL
100
AcDbLine
 10
185.1584335072966
 20
435.9370291085291
 30
0.0
 11
181.0885320015443
 21
420.7479499072609
 31
0.0
  0
ARC
  5
1ACE
330
1E
100
AcDbEntity
  8
STEMPEL
100
AcDbCircle
 10
213.8082306535205
 20
464.8127209206222
 30
0.0
 40
24.2
100
AcDbArc
 50
134.7363480579001
 51
165.0
  0
LINE
  5
1AD0
330
1E
100
AcDbEntity
  8
STEMPEL
100
AcDbLine
 10
302.2579672375575
 20
453.7392356141027
 30
0.0
 11
196.7192725643931
 21
482.0182436220123
 31
0.0
  0
LINE
  5
1AD1
330
1E
100
AcDbEntity
  8
HILF
100
AcDbLine
 10
278.9252892879645
 20
385.022027115333
 30
0.0
 11
182.6232574456098
 21
410.8260787769681
 31
0.0
  0
LINE
  5
1AD2
330
1E
100
AcDbEntity
  8
HILF
100
AcDbLine
 10
282.5507022020823
 20
389.6767540518997
 30
0.0
 11
181.8109212310588
 21
416.6698970087735
 31
0.0
  0
LINE
  5
1AD3
330
1E
100
AcDbEntity
  8
HILF
100
AcDbLine
 10
289.2054038337777
 20
411.1386467670057
 30
0.0
 11
186.7787269209579
 21
438.5837921291994
 31
0.0
  0
TEXT
  5
1AF4
330
1E
100
AcDbEntity
  8
TEXT
100
AcDbText
 10
171.1059845537778
 20
63.29410943275274
 30
0.0
 40
4.24
  1
14.04.
 41
0.8
  7
GREEKS
 72
     1
 11
178.2130321728255
 21
63.29410943275274
 31
0.0
100
AcDbText
  0
ENDSEC
  0
SECTION
  2
OBJECTS
  0
DICTIONARY
  5
C
330
0
100
AcDbDictionary
281
     1
  3
ACAD_COLOR
350
FE6
  3
ACAD_GROUP
350
D
  3
ACAD_LAYOUT
350
19
  3
ACAD_MATERIAL
350
FE5
  3
ACAD_MLINESTYLE
350
16
  3
ACAD_PLOTSETTINGS
350
18
  3
ACAD_PLOTSTYLENAME
350
E
  3
AcDbVariableDictionary
350
246
  0
DICTIONARY
  5
FE6
102
{ACAD_REACTORS
330
C
102
}
330
C
100
AcDbDictionary
281
     1
  0
DICTIONARY
  5
D
102
{ACAD_REACTORS
330
C
102
}
330
C
100
AcDbDictionary
281
     1
  0
DICTIONARY
  5
19
102
{ACAD_REACTORS
330
C
102
}
330
C
100
AcDbDictionary
281
     1
  3
Layout1
350
1D
  3
Model
350
21
  0
DICTIONARY
  5
FE5
102
{ACAD_REACTORS
330
C
102
}
330
C
100
AcDbDictionary
281
     1
  0
DICTIONARY
  5
16
102
{ACAD_REACTORS
330
C
102
}
330
C
100
AcDbDictionary
281
     1
  3
Standard
350
17
  0
DICTIONARY
  5
18
102
{ACAD_REACTORS
330
C
102
}
330
C
100
AcDbDictionary
281
     1
  0
ACDBDICTIONARYWDFLT
  5
E
102
{ACAD_REACTORS
330
C
102
}
330
C
100
AcDbDictionary
281
     1
  3
Normal
350
F
100
AcDbDictionaryWithDefault
340
F
  0
DICTIONARY
  5
246
102
{ACAD_REACTORS
330
C
102
}
330
C
100
AcDbDictionary
281
     1
  3
DIMASSOC
350
1595
  3
PROJECTNAME
350
1596
  3
SORTENTS
350
247
  0
LAYOUT
  5
1D
102
{ACAD_REACTORS
330
19
102
}
330
19
100
AcDbPlotSettings
  1

  2
Tektronix Phaser 740
  4

  6

 40
0.0
 41
0.0
 42
0.0
 43
0.0
 44
0.0
 45
0.0
 46
0.0
 47
0.0
 48
0.0
 49
0.0
140
0.0
141
0.0
142
1.0
143
1.0
 70
   688
 72
     0
 73
     0
 74
     5
  7
monochrome.ctb
 75
    16
147
1.0
 76
     0
 77
     2
 78
   300
148
0.0
149
0.0
100
AcDbLayout
  1
Layout1
 70
     0
 71
     1
 10
0.0
 20
0.0
 11
12.0
 21
9.0
 12
0.0
 22
0.0
 32
0.0
 14
1.000000000000000E+20
 24
1.000000000000000E+20
 34
1.000000000000000E+20
 15
-1.000000000000000E+20
 25
-1.000000000000000E+20
 35
-1.000000000000000E+20
146
0.0
 13
0.0
 23
0.0
 33
0.0
 16
1.0
 26
0.0
 36
0.0
 17
0.0
 27
1.0
 37
0.0
 76
     0
330
1A
  0
LAYOUT
  5
21
102
{ACAD_REACTORS
330
19
102
}
330
19
100
AcDbPlotSettings
  1

  2
Tektronix Phaser 740
  4
A4
  6

 40
5.873749732971191
 41
6.085414409637451
 42
5.577407836914062
 43
5.662078857421875
 44
209.9733276367187
 45
296.9683227539062
 46
0.0
 47
0.0
 48
0.0
 49
0.0
140
0.0
141
0.0
142
1.0
143
1.0
 70
 11952
 72
     0
 73
     1
 74
     0
  7
monochrome.ctb
 75
     0
147
1.0
 76
     0
 77
     2
 78
   300
148
1150.120678237584
149
45.30495740799864
100
AcDbLayout
  1
Model
 70
     1
 71
     0
 10
0.0
 20
0.0
 11
12.0
 21
9.0
 12
0.0
 22
0.0
 32
0.0
 14
0.0
 24
0.0
 34
0.0
 15
0.0
 25
0.0
 35
0.0
146
0.0
 13
0.0
 23
0.0
 33
0.0
 16
1.0
 26
0.0
 36
0.0
 17
0.0
 27
1.0
 37
0.0
 76
     0
330
1E
  0
MLINESTYLE
  5
17
102
{ACAD_REACTORS
330
16
102
}
330
16
100
AcDbMlineStyle
  2
STANDARD
 70
     0
  3

 62
   256
 51
90.0
 52
90.0
 71
     2
 49
0.5
 62
   256
  6
BYLAYER
 49
-0.5
 62
   256
  6
BYLAYER
  0
ACDBPLACEHOLDER
  5
F
102
{ACAD_REACTORS
330
E
102
}
330
E
  0
DICTIONARYVAR
  5
1595
102
{ACAD_REACTORS
330
246
102
}
330
246
100
DictionaryVariables
280
     0
  1
1
  0
DICTIONARYVAR
  5
1596
102
{ACAD_REACTORS
330
246
102
}
330
246
100
DictionaryVariables
280
     0
  1

  0
DICTIONARYVAR
  5
247
102
{ACAD_REACTORS
330
246
102
}
330
246
100
DictionaryVariables
280
     0
  1
96
  0
ENDSEC
  0
EOF
