  0
SECTION
  2
HEADER
  9
$ACADVER
  1
AC1018
  9
$ACADMAINTVER
 70
     2
  9
$DWGCODEPAGE
  3
ANSI_1252
  9
$INSBASE
 10
0.0
 20
0.0
 30
0.0
  9
$EXTMIN
 10
-0.0192209888436992
 20
-0.0271839699362317
 30
-0.0000000000000058
  9
$EXTMAX
 10
420.0192288123714
 20
594.0271950346398
 30
0.0000000000000104
  9
$LIMMIN
 10
0.0
 20
0.0
  9
$LIMMAX
 10
419.9999999999999
 20
594.0000000000002
  9
$ORTHOMODE
 70
     1
  9
$REGENMODE
 70
     1
  9
$FILLMODE
 70
     1
  9
$QTEXTMODE
 70
     0
  9
$MIRRTEXT
 70
     1
  9
$LTSCALE
 40
20.0
  9
$ATTMODE
 70
     1
  9
$TEXTSIZE
 40
3.5
  9
$TRACEWID
 40
0.5
  9
$TEXTSTYLE
  7
STANDARD
  9
$CLAYER
  8
VOLL
  9
$CELTYPE
  6
ByLayer
  9
$CECOLOR
 62
   256
  9
$CELTSCALE
 40
1.0
  9
$DISPSILH
 70
     0
  9
$DIMSCALE
 40
2.0
  9
$DIMASZ
 40
3.5
  9
$DIMEXO
 40
1.0
  9
$DIMDLI
 40
7.0
  9
$DIMRND
 40
0.0
  9
$DIMDLE
 40
0.0
  9
$DIMEXE
 40
1.0
  9
$DIMTP
 40
0.0
  9
$DIMTM
 40
0.0
  9
$DIMTXT
 40
3.5
  9
$DIMCEN
 40
1.5
  9
$DIMTSZ
 40
0.0
  9
$DIMTOL
 70
     0
  9
$DIMLIM
 70
     0
  9
$DIMTIH
 70
     0
  9
$DIMTOH
 70
     0
  9
$DIMSE1
 70
     0
  9
$DIMSE2
 70
     0
  9
$DIMTAD
 70
     1
  9
$DIMZIN
 70
     8
  9
$DIMBLK
  1

  9
$DIMASO
 70
     1
  9
$DIMSHO
 70
     0
  9
$DIMPOST
  1

  9
$DIMAPOST
  1

  9
$DIMALT
 70
     0
  9
$DIMALTD
 70
     2
  9
$DIMALTF
 40
25.4
  9
$DIMLFAC
 40
1.0
  9
$DIMTOFL
 70
     1
  9
$DIMTVP
 40
0.0
  9
$DIMTIX
 70
     0
  9
$DIMSOXD
 70
     0
  9
$DIMSAH
 70
     0
  9
$DIMBLK1
  1

  9
$DIMBLK2
  1

  9
$DIMSTYLE
  2
Standard
  9
$DIMCLRD
 70
     0
  9
$DIMCLRE
 70
     0
  9
$DIMCLRT
 70
     1
  9
$DIMTFAC
 40
0.5142857142857144
  9
$DIMGAP
 40
1.5
  9
$DIMJUST
 70
     0
  9
$DIMSD1
 70
     0
  9
$DIMSD2
 70
     0
  9
$DIMTOLJ
 70
     1
  9
$DIMTZIN
 70
     8
  9
$DIMALTZ
 70
     8
  9
$DIMALTTZ
 70
     8
  9
$DIMUPT
 70
     0
  9
$DIMDEC
 70
     2
  9
$DIMTDEC
 70
     2
  9
$DIMALTU
 70
     2
  9
$DIMALTTD
 70
     2
  9
$DIMTXSTY
  7
STANDARD
  9
$DIMAUNIT
 70
     0
  9
$DIMADEC
 70
     2
  9
$DIMALTRND
 40
0.0
  9
$DIMAZIN
 70
     2
  9
$DIMDSEP
 70
    46
  9
$DIMATFIT
 70
     3
  9
$DIMFRAC
 70
     0
  9
$DIMLDRBLK
  1

  9
$DIMLUNIT
 70
     2
  9
$DIMLWD
 70
    -2
  9
$DIMLWE
 70
    -2
  9
$DIMTMOVE
 70
     0
  9
$LUNITS
 70
     2
  9
$LUPREC
 70
     2
  9
$SKETCHINC
 40
1.0
  9
$FILLETRAD
 40
117.5
  9
$AUNITS
 70
     1
  9
$AUPREC
 70
     3
  9
$MENU
  1
ACAD
  9
$ELEVATION
 40
0.0
  9
$PELEVATION
 40
0.0
  9
$THICKNESS
 40
0.0
  9
$LIMCHECK
 70
     0
  9
$CHAMFERA
 40
0.0
  9
$CHAMFERB
 40
0.0
  9
$CHAMFERC
 40
0.0
  9
$CHAMFERD
 40
0.0
  9
$SKPOLY
 70
     0
  9
$TDCREATE
 40
2452040.637099653
  9
$TDUCREATE
 40
2452040.553766320
  9
$TDUPDATE
 40
2455666.557363310
  9
$TDUUPDATE
 40
2455666.474029977
  9
$TDINDWG
 40
0.1554250000
  9
$TDUSRTIMER
 40
0.1554250000
  9
$USRTIMER
 70
     1
  9
$ANGBASE
 50
0.0
  9
$ANGDIR
 70
     0
  9
$PDMODE
 70
     0
  9
$PDSIZE
 40
0.0
  9
$PLINEWID
 40
0.0
  9
$SPLFRAME
 70
     0
  9
$SPLINETYPE
 70
     6
  9
$SPLINESEGS
 70
     8
  9
$HANDSEED
  5
A6A
  9
$SURFTAB1
 70
     6
  9
$SURFTAB2
 70
     6
  9
$SURFTYPE
 70
     6
  9
$SURFU
 70
     6
  9
$SURFV
 70
     6
  9
$UCSBASE
  2

  9
$UCSNAME
  2

  9
$UCSORG
 10
0.0
 20
0.0
 30
0.0
  9
$UCSXDIR
 10
1.0
 20
0.0
 30
0.0
  9
$UCSYDIR
 10
0.0
 20
1.0
 30
0.0
  9
$UCSORTHOREF
  2

  9
$UCSORTHOVIEW
 70
     0
  9
$UCSORGTOP
 10
0.0
 20
0.0
 30
0.0
  9
$UCSORGBOTTOM
 10
0.0
 20
0.0
 30
0.0
  9
$UCSORGLEFT
 10
0.0
 20
0.0
 30
0.0
  9
$UCSORGRIGHT
 10
0.0
 20
0.0
 30
0.0
  9
$UCSORGFRONT
 10
0.0
 20
0.0
 30
0.0
  9
$UCSORGBACK
 10
0.0
 20
0.0
 30
0.0
  9
$PUCSBASE
  2

  9
$PUCSNAME
  2

  9
$PUCSORG
 10
0.0
 20
0.0
 30
0.0
  9
$PUCSXDIR
 10
1.0
 20
0.0
 30
0.0
  9
$PUCSYDIR
 10
0.0
 20
1.0
 30
0.0
  9
$PUCSORTHOREF
  2

  9
$PUCSORTHOVIEW
 70
     0
  9
$PUCSORGTOP
 10
0.0
 20
0.0
 30
0.0
  9
$PUCSORGBOTTOM
 10
0.0
 20
0.0
 30
0.0
  9
$PUCSORGLEFT
 10
0.0
 20
0.0
 30
0.0
  9
$PUCSORGRIGHT
 10
0.0
 20
0.0
 30
0.0
  9
$PUCSORGFRONT
 10
0.0
 20
0.0
 30
0.0
  9
$PUCSORGBACK
 10
0.0
 20
0.0
 30
0.0
  9
$USERI1
 70
     0
  9
$USERI2
 70
     0
  9
$USERI3
 70
     0
  9
$USERI4
 70
     0
  9
$USERI5
 70
     0
  9
$USERR1
 40
0.0
  9
$USERR2
 40
0.0
  9
$USERR3
 40
0.0
  9
$USERR4
 40
0.0
  9
$USERR5
 40
0.0
  9
$WORLDVIEW
 70
     1
  9
$SHADEDGE
 70
     3
  9
$SHADEDIF
 70
    70
  9
$TILEMODE
 70
     1
  9
$MAXACTVP
 70
    16
  9
$PINSBASE
 10
0.0
 20
0.0
 30
0.0
  9
$PLIMCHECK
 70
     0
  9
$PEXTMIN
 10
1.000000000000000E+20
 20
1.000000000000000E+20
 30
1.000000000000000E+20
  9
$PEXTMAX
 10
-1.000000000000000E+20
 20
-1.000000000000000E+20
 30
-1.000000000000000E+20
  9
$PLIMMIN
 10
0.0
 20
0.0
  9
$PLIMMAX
 10
12.0
 20
9.0
  9
$UNITMODE
 70
     0
  9
$VISRETAIN
 70
     0
  9
$PLINEGEN
 70
     0
  9
$PSLTSCALE
 70
     0
  9
$TREEDEPTH
 70
  3020
  9
$CMLSTYLE
  2
Standard
  9
$CMLJUST
 70
     0
  9
$CMLSCALE
 40
1.0
  9
$PROXYGRAPHICS
 70
     1
  9
$MEASUREMENT
 70
     0
  9
$CELWEIGHT
370
    -1
  9
$ENDCAPS
280
     0
  9
$JOINSTYLE
280
     0
  9
$LWDISPLAY
290
     0
  9
$INSUNITS
 70
     0
  9
$HYPERLINKBASE
  1

  9
$STYLESHEET
  1
monochrome 1.ctb
  9
$XEDIT
290
     1
  9
$CEPSNTYPE
380
     0
  9
$PSTYLEMODE
290
     1
  9
$FINGERPRINTGUID
  2
{7AADB5C8-6110-11D8-B72B-000102183313}
  9
$VERSIONGUID
  2
{5D54D9A5-0814-4CD0-A37A-3B8990CB0DB6}
  9
$EXTNAMES
290
     1
  9
$PSVPSCALE
 40
0.0
  9
$OLESTARTUP
290
     0
  9
$SORTENTS
280
    96
  9
$INDEXCTL
280
     0
  9
$HIDETEXT
280
     0
  9
$XCLIPFRAME
290
     0
  9
$HALOGAP
280
     0
  9
$OBSCOLOR
 70
   257
  9
$OBSLTYPE
280
     0
  9
$INTERSECTIONDISPLAY
280
     0
  9
$INTERSECTIONCOLOR
 70
   257
  9
$DIMASSOC
280
     1
  9
$PROJECTNAME
  1

  0
ENDSEC
  0
SECTION
  2
CLASSES
  0
CLASS
  1
ACDBDICTIONARYWDFLT
  2
AcDbDictionaryWithDefault
  3
ObjectDBX Classes
 90
        0
 91
        1
280
     0
281
     0
  0
CLASS
  1
DICTIONARYVAR
  2
AcDbDictionaryVar
  3
ObjectDBX Classes
 90
        0
 91
        3
280
     0
281
     0
  0
ENDSEC
  0
SECTION
  2
TABLES
  0
TABLE
  2
VPORT
  5
8
330
0
100
AcDbSymbolTable
 70
     3
  0
VPORT
  5
A69
330
8
100
AcDbSymbolTableRecord
100
AcDbViewportTableRecord
  2
*Active
 70
     0
 10
0.0
 20
0.0
 11
1.0
 21
1.0
 12
210.0
 22
297.0
 13
0.0
 23
0.0
 14
1.0
 24
1.0
 15
10.0
 25
10.0
 16
0.0
 26
0.0
 36
1.0
 17
0.0
 27
0.0
 37
0.0
 40
594.0
 41
1.334231805929919
 42
50.0
 43
0.0
 44
0.0
 50
0.0
 51
0.0
 71
     0
 72
  1500
 73
     1
 74
     0
 75
     0
 76
     0
 77
     0
 78
     0
281
     0
 65
     1
110
0.0
120
0.0
130
0.0
111
1.0
121
0.0
131
0.0
112
0.0
122
1.0
132
0.0
 79
     0
146
0.0
  0
ENDTAB
  0
TABLE
  2
LTYPE
  5
5
330
0
100
AcDbSymbolTable
 70
     2
  0
LTYPE
  5
13
330
5
100
AcDbSymbolTableRecord
100
AcDbLinetypeTableRecord
  2
ByBlock
 70
     0
  3

 72
    65
 73
     0
 40
0.0
  0
LTYPE
  5
14
330
5
100
AcDbSymbolTableRecord
100
AcDbLinetypeTableRecord
  2
ByLayer
 70
     0
  3

 72
    65
 73
     0
 40
0.0
  0
LTYPE
  5
15
330
5
100
AcDbSymbolTableRecord
100
AcDbLinetypeTableRecord
  2
Continuous
 70
     0
  3
Solid line
 72
    65
 73
     0
 40
0.0
  0
LTYPE
  5
35
330
5
100
AcDbSymbolTableRecord
100
AcDbLinetypeTableRecord
  2
STRICHPUNKT
 70
     0
  3
__ . __ . __ . __ . __ . __ . __ . __ . __ . __
 72
    65
 73
     4
 40
1.0
 49
0.5
 74
     0
 49
-0.25
 74
     0
 49
0.0
 74
     0
 49
-0.25
 74
     0
  0
ENDTAB
  0
TABLE
  2
LAYER
  5
2
330
0
100
AcDbSymbolTable
 70
     9
  0
LAYER
  5
10
330
2
100
AcDbSymbolTableRecord
100
AcDbLayerTableRecord
  2
0
 70
     0
 62
     7
  6
Continuous
370
    -3
390
F
  0
LAYER
  5
38
330
2
100
AcDbSymbolTableRecord
100
AcDbLayerTableRecord
  2
VOLL
 70
     0
 62
     1
  6
Continuous
370
    -3
390
F
  0
LAYER
  5
39
330
2
100
AcDbSymbolTableRecord
100
AcDbLayerTableRecord
  2
HILF
 70
     0
 62
     2
  6
Continuous
370
    -3
390
F
  0
LAYER
  5
3A
330
2
100
AcDbSymbolTableRecord
100
AcDbLayerTableRecord
  2
MITTEL
 70
     0
 62
     2
  6
STRICHPUNKT
370
    -3
390
F
  0
LAYER
  5
3B
330
2
100
AcDbSymbolTableRecord
100
AcDbLayerTableRecord
  2
BEM
 70
     0
 62
     7
  6
Continuous
370
    -3
390
F
  0
LAYER
  5
3C
330
2
100
AcDbSymbolTableRecord
100
AcDbLayerTableRecord
  2
STEMPEL
 70
     0
 62
     3
  6
Continuous
370
    -3
390
F
  0
LAYER
  5
3D
330
2
100
AcDbSymbolTableRecord
100
AcDbLayerTableRecord
  2
TEXT
 70
     0
 62
     7
  6
Continuous
370
    -3
390
F
  0
LAYER
  5
3E
330
2
100
AcDbSymbolTableRecord
100
AcDbLayerTableRecord
  2
DEFPOINTS
 70
     0
 62
     7
  6
Continuous
290
     0
370
    -3
390
F
  0
LAYER
  5
3F
330
2
100
AcDbSymbolTableRecord
100
AcDbLayerTableRecord
  2
SCHRAFF
 70
     0
 62
     7
  6
Continuous
370
    -3
390
F
  0
ENDTAB
  0
TABLE
  2
STYLE
  5
3
330
0
100
AcDbSymbolTable
 70
     2
  0
STYLE
  5
11
330
3
100
AcDbSymbolTableRecord
100
AcDbTextStyleTableRecord
  2
STANDARD
 70
     0
 40
0.0
 41
0.8
 50
0.0
 71
     0
 42
3.5
  3
simplex.shx
  4

  0
STYLE
  5
34
330
3
100
AcDbSymbolTableRecord
100
AcDbTextStyleTableRecord
  2
GREEKS
 70
     0
 40
0.0
 41
0.8
 50
0.0
 71
     0
 42
2.5
  3
SIMPLEX.shx
  4

  0
ENDTAB
  0
TABLE
  2
VIEW
  5
6
330
0
100
AcDbSymbolTable
 70
     0
  0
ENDTAB
  0
TABLE
  2
UCS
  5
7
330
0
100
AcDbSymbolTable
 70
     0
  0
ENDTAB
  0
TABLE
  2
APPID
  5
9
330
0
100
AcDbSymbolTable
 70
     2
  0
APPID
  5
12
330
9
100
AcDbSymbolTableRecord
100
AcDbRegAppTableRecord
  2
ACAD
 70
     0
  0
APPID
  5
98F
330
9
100
AcDbSymbolTableRecord
100
AcDbRegAppTableRecord
  2
DCO15
 70
     0
  0
ENDTAB
  0
TABLE
  2
DIMSTYLE
  5
A
330
0
100
AcDbSymbolTable
 70
     1
100
AcDbDimStyleTable
 71
     1
340
1CB
  0
DIMSTYLE
105
1CB
102
{ACAD_REACTORS
330
695
330
741
330
75C
330
8BD
102
}
330
A
100
AcDbSymbolTableRecord
100
AcDbDimStyleTableRecord
  2
Standard
 70
     0
340
11
  0
ENDTAB
  0
TABLE
  2
BLOCK_RECORD
  5
1
330
0
100
AcDbSymbolTable
 70
     8
  0
BLOCK_RECORD
  5
1E
330
1
100
AcDbSymbolTableRecord
100
AcDbBlockTableRecord
  2
*Model_Space
340
21
  0
BLOCK_RECORD
  5
1A
330
1
100
AcDbSymbolTableRecord
100
AcDbBlockTableRecord
  2
*Paper_Space
340
1D
  0
BLOCK_RECORD
  5
22
330
1
100
AcDbSymbolTableRecord
100
AcDbBlockTableRecord
  2
LOGO
340
0
102
{BLKREFS
331
135
102
}
  0
BLOCK_RECORD
  5
6B2
330
1
100
AcDbSymbolTableRecord
100
AcDbBlockTableRecord
  2
*D2
340
0
  0
BLOCK_RECORD
  5
742
330
1
100
AcDbSymbolTableRecord
100
AcDbBlockTableRecord
  2
*D3
340
0
  0
BLOCK_RECORD
  5
75D
330
1
100
AcDbSymbolTableRecord
100
AcDbBlockTableRecord
  2
*D4
340
0
  0
BLOCK_RECORD
  5
8BE
330
1
100
AcDbSymbolTableRecord
100
AcDbBlockTableRecord
  2
*D5
340
0
  0
ENDTAB
  0
ENDSEC
  0
SECTION
  2
BLOCKS
  0
BLOCK
  5
43
330
1E
100
AcDbEntity
  8
0
100
AcDbBlockBegin
  2
*Model_Space
 70
     0
 10
0.0
 20
0.0
 30
0.0
  3
*Model_Space
  1

  0
ENDBLK
  5
44
330
1E
100
AcDbEntity
  8
0
100
AcDbBlockEnd
  0
BLOCK
  5
41
330
1A
100
AcDbEntity
 67
     1
  8
0
100
AcDbBlockBegin
  2
*Paper_Space
 70
     0
 10
0.0
 20
0.0
 30
0.0
  3
*Paper_Space
  1

  0
ENDBLK
  5
42
330
1A
100
AcDbEntity
 67
     1
  8
0
100
AcDbBlockEnd
  0
BLOCK
  5
45
330
22
100
AcDbEntity
  8
0
100
AcDbBlockBegin
  2
LOGO
 70
     0
 10
0.0
 20
0.0
 30
0.0
  3
LOGO
  1

  0
ARC
  5
46
330
22
100
AcDbEntity
  8
0
100
AcDbCircle
 10
11.59973089678112
 20
-9.271599258481501
 30
0.0
 40
4.5
100
AcDbArc
 50
270.0
 51
231.0575587310159
  0
LINE
  5
47
330
22
100
AcDbEntity
  8
0
100
AcDbLine
 10
3.599730896781125
 20
-4.771599258481529
 30
0.0
 11
3.599730896781153
 21
-11.77159925848133
 31
0.0
  0
LINE
  5
48
330
22
100
AcDbEntity
  8
0
100
AcDbLine
 10
2.599730896781125
 20
-4.771599258481529
 30
0.0
 11
2.599730896781153
 21
-11.77159925848133
 31
0.0
  0
CIRCLE
  5
49
330
22
100
AcDbEntity
  8
0
100
AcDbCircle
 10
11.59973089678112
 20
-9.271599258481501
 30
0.0
 40
3.5
  0
ARC
  5
4A
330
22
100
AcDbEntity
  8
0
100
AcDbCircle
 10
31.59973089678115
 20
-9.271599258481472
 30
0.0
 40
4.5
100
AcDbArc
 50
270.0
 51
231.0575587310182
  0
LINE
  5
4B
330
22
100
AcDbEntity
  8
0
100
AcDbLine
 10
17.59973089678112
 20
-4.771599258481472
 30
0.0
 11
17.59973089678115
 21
-13.77159925848147
 31
0.0
  0
ARC
  5
4C
330
22
100
AcDbEntity
  8
0
100
AcDbCircle
 10
22.59973089678116
 20
-7.271599258481472
 30
0.0
 40
2.5
100
AcDbArc
 50
293.1161887722295
 51
90.0
  0
CIRCLE
  5
4D
330
22
100
AcDbEntity
  8
0
100
AcDbCircle
 10
31.59973089678115
 20
-9.271599258481472
 30
0.0
 40
3.5
  0
ARC
  5
4E
330
22
100
AcDbEntity
  8
0
100
AcDbCircle
 10
4.599730896781153
 20
-11.77159925848133
 30
0.0
 40
1.0
100
AcDbArc
 50
180.0
 51
270.0
  0
ARC
  5
4F
330
22
100
AcDbEntity
  8
0
100
AcDbCircle
 10
4.599730896781153
 20
-11.77159925848133
 30
0.0
 40
2.0
100
AcDbArc
 50
179.9999999999992
 51
270.0
  0
LINE
  5
50
330
22
100
AcDbEntity
  8
0
100
AcDbLine
 10
11.59973089678115
 20
-13.77159925848144
 30
0.0
 11
4.599730896781153
 21
-13.77159925848147
 31
0.0
  0
LINE
  5
51
330
22
100
AcDbEntity
  8
0
100
AcDbLine
 10
8.771303772034769
 20
-12.77159925848136
 30
0.0
 11
4.599730896781153
 21
-12.77159925848133
 31
0.0
  0
LINE
  5
52
330
22
100
AcDbEntity
  8
0
100
AcDbLine
 10
31.59973089678115
 20
-13.77159925848147
 30
0.0
 11
23.6715276665056
 21
-13.77159925848144
 31
0.0
  0
LINE
  5
53
330
22
100
AcDbEntity
  8
0
100
AcDbLine
 10
23.56565672307022
 20
-9.51278021337896
 30
0.0
 11
24.4388546544846
 21
-12.77159925848144
 31
0.0
  0
LINE
  5
54
330
22
100
AcDbEntity
  8
0
100
AcDbLine
 10
22.59973089678116
 20
-9.771599258481472
 30
0.0
 11
18.59973089678112
 21
-9.771599258481472
 31
0.0
  0
LINE
  5
55
330
22
100
AcDbEntity
  8
0
100
AcDbLine
 10
18.59973089678115
 20
-13.77159925848144
 30
0.0
 11
17.59973089678115
 21
-13.77159925848144
 31
0.0
  0
LINE
  5
56
330
22
100
AcDbEntity
  8
0
100
AcDbLine
 10
18.59973089678115
 20
-9.771599258481472
 30
0.0
 11
18.59973089678115
 21
-13.77159925848144
 31
0.0
  0
LINE
  5
57
330
22
100
AcDbEntity
  8
0
100
AcDbLine
 10
22.59973089678116
 20
-9.771599258481472
 30
0.0
 11
23.67152766650562
 21
-13.77159925848147
 31
0.0
  0
ARC
  5
58
330
22
100
AcDbEntity
  8
0
100
AcDbCircle
 10
22.59973089678116
 20
-7.271599258481472
 30
0.0
 40
2.5
100
AcDbArc
 50
270.0
 51
270.0000000000007
  0
LINE
  5
59
330
22
100
AcDbEntity
  8
0
100
AcDbLine
 10
28.77130377203494
 20
-12.77159925848147
 30
0.0
 11
24.43885465448463
 21
-12.77159925848144
 31
0.0
  0
LINE
  5
5A
330
22
100
AcDbEntity
  8
0
100
AcDbLine
 10
3.599730896781125
 20
-4.771599258481472
 30
0.0
 11
2.599730896781125
 21
-4.771599258481472
 31
0.0
  0
LINE
  5
5B
330
22
100
AcDbEntity
  8
0
100
AcDbLine
 10
22.59973089678116
 20
-8.771599258481472
 30
0.0
 11
18.59973089678115
 21
-8.771599258481472
 31
0.0
  0
LINE
  5
5C
330
22
100
AcDbEntity
  8
0
100
AcDbLine
 10
22.59973089678116
 20
-5.771599258481472
 30
0.0
 11
18.59973089678115
 21
-5.771599258481472
 31
0.0
  0
LINE
  5
5D
330
22
100
AcDbEntity
  8
0
100
AcDbLine
 10
22.59973089678116
 20
-4.771599258481472
 30
0.0
 11
17.59973089678115
 21
-4.771599258481472
 31
0.0
  0
LINE
  5
5E
330
22
100
AcDbEntity
  8
0
100
AcDbLine
 10
18.59973089678115
 20
-5.771599258481472
 30
0.0
 11
18.59973089678115
 21
-8.771599258481472
 31
0.0
  0
ARC
  5
5F
330
22
100
AcDbEntity
  8
0
100
AcDbCircle
 10
22.59973089678116
 20
-7.271599258481472
 30
0.0
 40
1.5
100
AcDbArc
 50
270.0
 51
90.0
  0
ENDBLK
  5
60
330
22
100
AcDbEntity
  8
0
100
AcDbBlockEnd
  0
BLOCK
  5
6BC
330
6B2
100
AcDbEntity
  8
0
100
AcDbBlockBegin
  2
*D2
 70
     1
 10
0.0
 20
0.0
 30
0.0
  3
*D2
  1

  0
LINE
  5
8DE
330
6B2
100
AcDbEntity
  8
BEM
 62
     0
370
    -2
100
AcDbLine
 10
180.2941199618018
 20
249.1851570565826
 30
0.0
 11
180.2941199618018
 21
223.2695291171735
 31
0.0
  0
LINE
  5
8DF
330
6B2
100
AcDbEntity
  8
BEM
 62
     0
370
    -2
100
AcDbLine
 10
253.2941199618018
 20
249.185157056583
 30
0.0
 11
253.2941199618018
 21
223.2695291171735
 31
0.0
  0
LINE
  5
8E0
330
6B2
100
AcDbEntity
  8
BEM
 62
     0
370
    -2
100
AcDbLine
 10
187.2941199618018
 20
225.2695291171735
 30
0.0
 11
246.2941199618018
 21
225.2695291171735
 31
0.0
  0
SOLID
  5
8E1
330
6B2
100
AcDbEntity
  8
BEM
 62
     0
100
AcDbTrace
 10
187.2941199618018
 20
226.4361957838402
 30
0.0
 11
187.2941199618018
 21
224.1028624505069
 31
0.0
 12
180.2941199618018
 22
225.2695291171735
 32
0.0
 13
180.2941199618018
 23
225.2695291171735
 33
0.0
  0
SOLID
  5
8E2
330
6B2
100
AcDbEntity
  8
BEM
 62
     0
100
AcDbTrace
 10
246.2941199618018
 20
226.4361957838402
 30
0.0
 11
246.2941199618018
 21
224.1028624505069
 31
0.0
 12
253.2941199618018
 22
225.2695291171735
 32
0.0
 13
253.2941199618018
 23
225.2695291171735
 33
0.0
  0
MTEXT
  5
8E3
330
6B2
100
AcDbEntity
  8
BEM
 62
     1
100
AcDbMText
 10
216.7941199618018
 20
231.7695291171735
 30
0.0
 40
7.0
 41
0.0
 71
     5
 72
     1
  1
\A1;%%c73
 73
     1
 44
1.0
  0
POINT
  5
8E4
330
6B2
100
AcDbEntity
  8
DEFPOINTS
 62
     0
100
AcDbPoint
 10
180.2941199618018
 20
251.1851570565826
 30
0.0
  0
POINT
  5
8E5
330
6B2
100
AcDbEntity
  8
DEFPOINTS
 62
     0
100
AcDbPoint
 10
253.2941199618018
 20
251.185157056583
 30
0.0
  0
POINT
  5
8E6
330
6B2
100
AcDbEntity
  8
DEFPOINTS
 62
     0
100
AcDbPoint
 10
253.2941199618018
 20
225.2695291171735
 30
0.0
  0
ENDBLK
  5
6BD
330
6B2
100
AcDbEntity
  8
0
100
AcDbBlockEnd
  0
BLOCK
  5
74C
330
742
100
AcDbEntity
  8
0
100
AcDbBlockBegin
  2
*D3
 70
     1
 10
0.0
 20
0.0
 30
0.0
  3
*D3
  1

  0
LINE
  5
8D5
330
742
100
AcDbEntity
  8
BEM
 62
     0
370
    -2
100
AcDbLine
 10
178.7315632794314
 20
246.1851570565824
 30
0.0
 11
158.7239788364825
 21
246.1851570565824
 31
0.0
  0
LINE
  5
8D6
330
742
100
AcDbEntity
  8
BEM
 62
     0
370
    -2
100
AcDbLine
 10
214.7941199618019
 20
335.1851570565825
 30
0.0
 11
158.7239788364825
 21
335.1851570565825
 31
0.0
  0
LINE
  5
8D7
330
742
100
AcDbEntity
  8
BEM
 62
     0
370
    -2
100
AcDbLine
 10
160.7239788364825
 20
253.1851570565824
 30
0.0
 11
160.7239788364825
 21
328.1851570565824
 31
0.0
  0
SOLID
  5
8D8
330
742
100
AcDbEntity
  8
BEM
 62
     0
100
AcDbTrace
 10
159.5573121698158
 20
253.1851570565824
 30
0.0
 11
161.8906455031491
 21
253.1851570565824
 31
0.0
 12
160.7239788364825
 22
246.1851570565824
 32
0.0
 13
160.7239788364825
 23
246.1851570565824
 33
0.0
  0
SOLID
  5
8D9
330
742
100
AcDbEntity
  8
BEM
 62
     0
100
AcDbTrace
 10
159.5573121698158
 20
328.1851570565824
 30
0.0
 11
161.8906455031491
 21
328.1851570565824
 31
0.0
 12
160.7239788364825
 22
335.1851570565825
 32
0.0
 13
160.7239788364825
 23
335.1851570565825
 33
0.0
  0
MTEXT
  5
8DA
330
742
100
AcDbEntity
  8
BEM
 62
     1
100
AcDbMText
 10
154.2239788364824
 20
290.6851570565824
 30
0.0
 40
7.0
 41
0.0
 71
     5
 72
     1
  1
\A1;89
 11
0.0000000000000001
 21
1.0
 31
0.0
 73
     1
 44
1.0
  0
POINT
  5
8DB
330
742
100
AcDbEntity
  8
DEFPOINTS
 62
     0
100
AcDbPoint
 10
180.7315632794314
 20
246.1851570565824
 30
0.0
  0
POINT
  5
8DC
330
742
100
AcDbEntity
  8
DEFPOINTS
 62
     0
100
AcDbPoint
 10
216.7941199618019
 20
335.1851570565825
 30
0.0
  0
POINT
  5
8DD
330
742
100
AcDbEntity
  8
DEFPOINTS
 62
     0
100
AcDbPoint
 10
160.7239788364825
 20
335.1851570565825
 30
0.0
  0
ENDBLK
  5
74D
330
742
100
AcDbEntity
  8
0
100
AcDbBlockEnd
  0
BLOCK
  5
767
330
75D
100
AcDbEntity
  8
0
100
AcDbBlockBegin
  2
*D4
 70
     1
 10
0.0
 20
0.0
 30
0.0
  3
*D4
  1

  0
LINE
  5
91C
330
75D
100
AcDbEntity
  8
BEM
 62
     0
370
    -2
100
AcDbLine
 10
214.8622683092236
 20
335.7027951467876
 30
0.0
 11
158.7577815591473
 21
350.7359470632327
 31
0.0
  0
LINE
  5
91D
330
75D
100
AcDbEntity
  8
BEM
 62
     0
370
    -2
100
AcDbLine
 10
204.0864261770365
 20
447.2941722869308
 30
0.0
 11
185.9337812949114
 21
452.1581588235851
 31
0.0
  0
LINE
  5
91E
330
75D
100
AcDbEntity
  8
BEM
 62
     0
370
    -2
100
AcDbLine
 10
162.5013665274431
 20
356.9797897570512
 30
0.0
 11
186.0538996317719
 21
444.8790399493566
 31
0.0
  0
SOLID
  5
91F
330
75D
100
AcDbEntity
  8
BEM
 62
     0
100
AcDbTrace
 10
161.3744530634392
 20
357.2817453096707
 30
0.0
 11
163.628279991447
 21
356.6778342044315
 31
0.0
 12
160.6896332117255
 22
350.2183089730277
 32
0.0
 13
160.6896332117255
 23
350.2183089730277
 33
0.0
  0
SOLID
  5
920
330
75D
100
AcDbEntity
  8
BEM
 62
     0
100
AcDbTrace
 10
184.926986167768
 20
445.1809955019761
 30
0.0
 11
187.1808130957758
 21
444.5770843967369
 31
0.0
 12
187.8656329474895
 22
451.64052073338
 32
0.0
 13
187.8656329474895
 23
451.64052073338
 33
0.0
  0
MTEXT
  5
921
330
75D
100
AcDbEntity
  8
BEM
 62
     1
100
AcDbMText
 10
167.9991152087286
 20
402.6117386463701
 30
0.0
 40
7.0
 41
0.0
 71
     5
 72
     1
  1
\A1;105
 11
0.2588190451025143
 21
0.9659258262890698
 31
0.0
 73
     1
 44
1.0
  0
POINT
  5
922
330
75D
100
AcDbEntity
  8
DEFPOINTS
 62
     0
100
AcDbPoint
 10
216.7941199618018
 20
335.1851570565825
 30
0.0
  0
POINT
  5
923
330
75D
100
AcDbEntity
  8
DEFPOINTS
 62
     0
100
AcDbPoint
 10
206.0182778296147
 20
446.7765341967258
 30
0.0
  0
POINT
  5
924
330
75D
100
AcDbEntity
  8
DEFPOINTS
 62
     0
100
AcDbPoint
 10
187.8656329474896
 20
451.64052073338
 30
0.0
  0
ENDBLK
  5
768
330
75D
100
AcDbEntity
  8
0
100
AcDbBlockEnd
  0
BLOCK
  5
8CA
330
8BE
100
AcDbEntity
  8
0
100
AcDbBlockBegin
  2
*D5
 70
     1
 10
0.0
 20
0.0
 30
0.0
  3
*D5
  1

  0
LINE
  5
8E7
330
8BE
100
AcDbEntity
  8
BEM
 62
     0
370
    -2
100
AcDbLine
 10
245.781853013284
 20
443.3688496009579
 30
0.0
 11
249.3226786772716
 21
456.5833908797033
 31
0.0
  0
LINE
  5
8E8
330
8BE
100
AcDbEntity
  8
BEM
 62
     0
370
    -2
100
AcDbLine
 10
216.7941199618019
 20
337.1851570565823
 30
0.0
 11
216.7941199618019
 21
460.8658568775131
 31
0.0
  0
ARC
  5
8E9
330
8BE
100
AcDbEntity
  8
BEM
 62
     0
370
    -2
100
AcDbCircle
 10
216.7941199618019
 20
335.1851570565822
 30
0.0
 40
123.6806998209308
100
AcDbArc
 50
78.24322232178868
 51
86.75677767821145
  0
SOLID
  5
8EA
330
8BE
100
AcDbEntity
  8
BEM
 62
     0
100
AcDbTrace
 10
242.2649425042932
 20
457.4062131059746
 30
0.0
 11
241.7250535750865
 21
455.1361989235157
 31
0.0
 12
248.8050405870665
 22
454.6515392271252
 32
0.0
 13
248.8050405870665
 23
454.6515392271252
 33
0.0
  0
SOLID
  5
8EB
330
8BE
100
AcDbEntity
  8
BEM
 62
     0
100
AcDbTrace
 10
223.7583014262841
 20
457.5015667174393
 30
0.0
 11
223.824331669309
 21
459.8339655794375
 31
0.0
 12
216.7941199618019
 22
458.8658568775131
 32
0.0
 13
216.7941199618019
 23
458.8658568775131
 33
0.0
  0
MTEXT
  5
8EC
330
8BE
100
AcDbEntity
  8
BEM
 62
     1
100
AcDbMText
 10
233.7861110099694
 20
464.2521429440907
 30
0.0
 40
7.0
 41
0.0
 71
     5
 72
     1
  1
\A1;15°
 11
0.9914448613738105
 21
-0.1305261922200501
 31
0.0
 73
     1
 44
1.0
  0
POINT
  5
8ED
330
8BE
100
AcDbEntity
  8
DEFPOINTS
 62
     0
100
AcDbPoint
 10
238.271048098277
 20
456.9868691382105
 30
0.0
  0
POINT
  5
8EE
330
8BE
100
AcDbEntity
  8
DEFPOINTS
 62
     0
100
AcDbPoint
 10
216.7941199618019
 20
335.1851570565822
 30
0.0
  0
POINT
  5
8EF
330
8BE
100
AcDbEntity
  8
DEFPOINTS
 62
     0
100
AcDbPoint
 10
245.2642149230789
 20
441.4369979483798
 30
0.0
  0
POINT
  5
8F0
330
8BE
100
AcDbEntity
  8
DEFPOINTS
 62
     0
100
AcDbPoint
 10
216.7941199618019
 20
335.1851570565822
 30
0.0
  0
POINT
  5
8F1
330
8BE
100
AcDbEntity
  8
DEFPOINTS
 62
     0
100
AcDbPoint
 10
216.7941199618019
 20
241.1851570565827
 30
0.0
  0
ENDBLK
  5
8CB
330
8BE
100
AcDbEntity
  8
0
100
AcDbBlockEnd
  0
ENDSEC
  0
SECTION
  2
ENTITIES
  0
TEXT
  5
134
330
1E
100
AcDbEntity
  8
TEXT
100
AcDbText
 10
204.4216048581257
 20
63.0896391972351
 30
0.0
 40
4.0
  1
Koeh
 41
0.8
  7
GREEKS
 72
     1
 11
209.6787477152686
 21
63.0896391972351
 31
0.0
100
AcDbText
  0
INSERT
  5
135
330
1E
100
AcDbEntity
  8
STEMPEL
100
AcDbBlockReference
  2
LOGO
 10
150.9955485457794
 20
45.02105276448322
 30
0.0
 41
2.0
 42
2.0
 43
2.0
  0
LINE
  5
136
330
1E
100
AcDbEntity
  8
HILF
100
AcDbLine
 10
420.0
 20
0.0
 30
0.0
 11
0.0
 21
0.0
 31
0.0
  0
LINE
  5
137
330
1E
100
AcDbEntity
  8
HILF
100
AcDbLine
 10
419.9999999999999
 20
594.0000000000002
 30
0.0
 11
0.0
 21
594.0
 31
0.0
  0
LINE
  5
138
330
1E
100
AcDbEntity
  8
STEMPEL
100
AcDbLine
 10
410.0
 20
584.0
 30
0.0
 11
39.99999999999989
 21
584.0
 31
0.0
  0
LINE
  5
139
330
1E
100
AcDbEntity
  8
STEMPEL
100
AcDbLine
 10
410.0
 20
10.0
 30
0.0
 11
39.99999999999989
 21
10.0
 31
0.0
  0
LINE
  5
13A
330
1E
100
AcDbEntity
  8
STEMPEL
100
AcDbLine
 10
49.99999999999989
 20
10.0
 30
0.0
 11
410.0
 21
10.0
 31
0.0
  0
TEXT
  5
13B
330
1E
100
AcDbEntity
  8
TEXT
100
AcDbText
 10
202.4626584226295
 20
73.30961091915225
 30
0.0
 40
4.0
  1
Name
 41
0.8
  7
GREEKS
100
AcDbText
  0
TEXT
  5
13C
330
1E
100
AcDbEntity
  8
TEXT
100
AcDbText
 10
196.5498279101549
 20
102.6506227776589
 30
0.0
 40
5.0
  1
Zul. Abw.
 41
0.8
  7
GREEKS
 72
     4
 11
209.9783993387263
 21
105.1506227776589
 31
0.0
100
AcDbText
  0
LINE
  5
13D
330
1E
100
AcDbEntity
  8
HILF
100
AcDbLine
 10
146.0000000000001
 20
49.99999999999997
 30
0.0
 11
230.0
 21
49.99999999999997
 31
0.0
  0
LINE
  5
13E
330
1E
100
AcDbEntity
  8
HILF
100
AcDbLine
 10
146.0000000000001
 20
59.99999999999997
 30
0.0
 11
230.0
 21
59.99999999999997
 31
0.0
  0
LINE
  5
13F
330
1E
100
AcDbEntity
  8
HILF
100
AcDbLine
 10
146.0000000000001
 20
69.99999999999994
 30
0.0
 11
230.0
 21
69.99999999999994
 31
0.0
  0
LINE
  5
140
330
1E
100
AcDbEntity
  8
STEMPEL
100
AcDbLine
 10
410.0
 20
80.0
 30
0.0
 11
146.0000000000001
 21
79.99999999999994
 31
0.0
  0
LINE
  5
141
330
1E
100
AcDbEntity
  8
STEMPEL
100
AcDbLine
 10
410.0
 20
40.0
 30
0.0
 11
146.0000000000001
 21
39.99999999999997
 31
0.0
  0
LINE
  5
142
330
1E
100
AcDbEntity
  8
STEMPEL
100
AcDbLine
 10
410.0
 20
110.0
 30
0.0
 11
39.99999999999997
 21
110.0
 31
0.0
  0
LINE
  5
144
330
1E
100
AcDbEntity
  8
HILF
100
AcDbLine
 10
0.0
 20
0.0
 30
0.0
 11
-0.0000000000001137
 21
594.0
 31
0.0
  0
LINE
  5
145
330
1E
100
AcDbEntity
  8
STEMPEL
100
AcDbLine
 10
40.0
 20
10.0
 30
0.0
 11
39.99999999999989
 21
584.0
 31
0.0
  0
LINE
  5
148
330
1E
100
AcDbEntity
  8
HILF
100
AcDbLine
 10
40.00000000000008
 20
39.99999999999997
 30
0.0
 11
146.0000000000001
 21
39.99999999999997
 31
0.0
  0
LINE
  5
149
330
1E
100
AcDbEntity
  8
HILF
100
AcDbLine
 10
40.00000000000008
 20
49.99999999999997
 30
0.0
 11
146.0000000000001
 21
49.99999999999997
 31
0.0
  0
LINE
  5
14A
330
1E
100
AcDbEntity
  8
HILF
100
AcDbLine
 10
40.00000000000008
 20
59.99999999999997
 30
0.0
 11
146.0000000000001
 21
59.99999999999997
 31
0.0
  0
LINE
  5
14B
330
1E
100
AcDbEntity
  8
HILF
100
AcDbLine
 10
40.00000000000008
 20
69.99999999999994
 30
0.0
 11
146.0000000000001
 21
69.99999999999994
 31
0.0
  0
LINE
  5
14C
330
1E
100
AcDbEntity
  8
HILF
100
AcDbLine
 10
40.00000000000008
 20
79.99999999999994
 30
0.0
 11
146.0000000000001
 21
79.99999999999994
 31
0.0
  0
LINE
  5
14D
330
1E
100
AcDbEntity
  8
HILF
100
AcDbLine
 10
40.00000000000008
 20
90.00000000000005
 30
0.0
 11
146.0000000000001
 21
90.00000000000005
 31
0.0
  0
LINE
  5
14E
330
1E
100
AcDbEntity
  8
HILF
100
AcDbLine
 10
40.00000000000008
 20
100.0
 30
0.0
 11
146.0000000000001
 21
100.0
 31
0.0
  0
LINE
  5
14F
330
1E
100
AcDbEntity
  8
STEMPEL
100
AcDbLine
 10
145.9999999999999
 20
29.99999999999997
 30
0.0
 11
39.99999999999997
 21
29.99999999999997
 31
0.0
  0
TEXT
  5
150
330
1E
100
AcDbEntity
  8
TEXT
100
AcDbText
 10
48.26641107045756
 20
13.65465846027192
 30
0.0
 40
4.0
  1
Index
 50
90.0
 41
0.8
  7
GREEKS
100
AcDbText
  0
LINE
  5
151
330
1E
100
AcDbEntity
  8
VOLL
100
AcDbLine
 10
54.00000000000009
 20
110.0
 30
0.0
 11
53.99999999999997
 21
9.999999999999971
 31
0.0
  0
LINE
  5
152
330
1E
100
AcDbEntity
  8
HILF
100
AcDbLine
 10
31.08767135713856
 20
297.0
 30
0.0
 11
0.0000000000001137
 21
297.0
 31
0.0
  0
LINE
  5
154
330
1E
100
AcDbEntity
  8
VOLL
100
AcDbLine
 10
124.0000000000001
 20
109.9999999999999
 30
0.0
 11
124.0
 21
9.999999999999971
 31
0.0
  0
LINE
  5
155
330
1E
100
AcDbEntity
  8
VOLL
100
AcDbLine
 10
104.0000000000001
 20
109.9999999999999
 30
0.0
 11
104.0
 21
9.999999999999971
 31
0.0
  0
LINE
  5
157
330
1E
100
AcDbEntity
  8
STEMPEL
100
AcDbLine
 10
146.0000000000001
 20
109.9999999999999
 30
0.0
 11
146.0
 21
9.999999999999971
 31
0.0
  0
TEXT
  5
159
330
1E
100
AcDbEntity
  8
TEXT
100
AcDbText
 10
172.331167315365
 20
73.31880501229926
 30
0.0
 40
4.0
  1
Tag
 41
0.8
  7
GREEKS
100
AcDbText
  0
TEXT
  5
15A
330
1E
100
AcDbEntity
  8
TEXT
100
AcDbText
 10
147.5836127167615
 20
63.62990369617964
 30
0.0
 40
4.0
  1
Gez.
 41
0.8
  7
GREEKS
100
AcDbText
  0
LINE
  5
15B
330
1E
100
AcDbEntity
  8
VOLL
100
AcDbLine
 10
164.0000000000001
 20
79.99999999999994
 30
0.0
 11
164.0000000000001
 21
39.99999999999997
 31
0.0
  0
TEXT
  5
15C
330
1E
100
AcDbEntity
  8
TEXT
100
AcDbText
 10
147.6006777387303
 20
43.52946389649807
 30
0.0
 40
4.0
  1
Norm.
 41
0.8
  7
GREEKS
100
AcDbText
  0
TEXT
  5
15D
330
1E
100
AcDbEntity
  8
TEXT
100
AcDbText
 10
147.5515086571672
 20
53.68926291428377
 30
0.0
 40
4.0
  1
Gepr.
 41
0.8
  7
GREEKS
100
AcDbText
  0
TEXT
  5
15E
330
1E
100
AcDbEntity
  8
TEXT
 62
     1
100
AcDbText
 10
160.5006306481887
 20
88.14901428913959
 30
0.0
 40
7.0
  1
1:2
 41
0.8
  7
GREEKS
100
AcDbText
  0
TEXT
  5
160
330
1E
100
AcDbEntity
  8
TEXT
100
AcDbText
 10
148.622109822104
 20
73.14025471151666
 30
0.0
 40
4.0
  1
2011
 41
0.8
  7
GREEKS
100
AcDbText
  0
LINE
  5
161
330
1E
100
AcDbEntity
  8
VOLL
100
AcDbLine
 10
190.0000000000001
 20
109.9999999999998
 30
0.0
 11
190.0
 21
39.99999999999997
 31
0.0
  0
LINE
  5
186
330
1E
100
AcDbEntity
  8
HILF
100
AcDbLine
 10
420.0
 20
-0.0000000000001137
 30
0.0
 11
419.9999999999999
 21
594.0
 31
0.0
  0
LINE
  5
187
330
1E
100
AcDbEntity
  8
STEMPEL
100
AcDbLine
 10
410.0
 20
10.0
 30
0.0
 11
410.0
 21
584.0
 31
0.0
  0
TEXT
  5
188
330
1E
100
AcDbEntity
  8
TEXT
100
AcDbText
 10
337.2400861497006
 20
52.07416177878602
 30
0.0
 40
5.0
  1
ersetzt durch:
 41
0.8
  7
GREEKS
100
AcDbText
  0
TEXT
  5
18A
330
1E
100
AcDbEntity
  8
TEXT
100
AcDbText
 10
336.178754957634
 20
102.3132034537136
 30
0.0
 40
5.0
  1
Zeichnungs Nr.
 41
0.8
  7
GREEKS
100
AcDbText
  0
LINE
  5
18B
330
1E
100
AcDbEntity
  8
HILF
100
AcDbLine
 10
233.4909699289885
 20
14.89398258028314
 30
0.0
 11
404.8588839326728
 21
14.89398258028314
 31
0.0
  0
LINE
  5
18C
330
1E
100
AcDbEntity
  8
HILF
100
AcDbLine
 10
336.7238616296993
 20
83.77983636955827
 30
0.0
 11
404.8588839326728
 21
83.77983636955827
 31
0.0
  0
LINE
  5
18D
330
1E
100
AcDbEntity
  8
VOLL
100
AcDbLine
 10
332.0
 20
60.0
 30
0.0
 11
410.0
 21
60.0
 31
0.0
  0
TEXT
  5
18E
330
1E
100
AcDbEntity
  8
TEXT
 62
     1
100
AcDbText
 10
234.9283864320014
 20
87.41748789253779
 30
0.0
 40
7.0
  1
Bogen DN70 15°
 41
0.8
  7
GREEKS
100
AcDbText
  0
LINE
  5
18F
330
1E
100
AcDbEntity
  8
HILF
100
AcDbLine
 10
234.7736801096947
 20
49.99999999999997
 30
0.0
 11
324.835391655631
 21
49.99999999999997
 31
0.0
  0
LINE
  5
190
330
1E
100
AcDbEntity
  8
HILF
100
AcDbLine
 10
234.7736801096947
 20
59.99999999999997
 30
0.0
 11
324.835391655631
 21
59.99999999999997
 31
0.0
  0
LINE
  5
191
330
1E
100
AcDbEntity
  8
HILF
100
AcDbLine
 10
234.7736801096947
 20
69.99999999999994
 30
0.0
 11
324.835391655631
 21
69.99999999999994
 31
0.0
  0
LINE
  5
192
330
1E
100
AcDbEntity
  8
HILF
100
AcDbLine
 10
234.7736801096947
 20
84.03758247564139
 30
0.0
 11
324.8353916556311
 21
84.03758247564139
 31
0.0
  0
LINE
  5
193
330
1E
100
AcDbEntity
  8
STEMPEL
100
AcDbLine
 10
230.0
 20
110.0
 30
0.0
 11
230.0
 21
9.999999999999971
 31
0.0
  0
TEXT
  5
194
330
1E
100
AcDbEntity
  8
TEXT
100
AcDbText
 10
235.1296391125315
 20
71.50334417585288
 30
0.0
 40
5.0
  1
dünnwandig
 41
0.8
  7
GREEKS
100
AcDbText
  0
TEXT
  5
195
330
1E
100
AcDbEntity
  8
TEXT
100
AcDbText
 10
234.9837501577827
 20
42.62974153022632
 30
0.0
 40
4.0
  1
4340070W.DWG
 41
0.8
  7
GREEKS
100
AcDbText
  0
TEXT
  5
196
330
1E
100
AcDbEntity
  8
TEXT
100
AcDbText
 10
234.742238391136
 20
30.84560570193057
 30
0.0
 40
5.0
  1
Bauvorhaben
 41
0.8
  7
GREEKS
100
AcDbText
  0
TEXT
  5
197
330
1E
100
AcDbEntity
  8
TEXT
100
AcDbText
 10
234.877940380901
 20
102.5489328011779
 30
0.0
 40
5.0
  1
Benennung
 41
0.8
  7
GREEKS
100
AcDbText
  0
LINE
  5
198
330
1E
100
AcDbEntity
  8
STEMPEL
100
AcDbLine
 10
332.0
 20
109.9999999999997
 30
0.0
 11
332.0
 21
40.0
 31
0.0
  0
TEXT
  5
19A
330
1E
100
AcDbEntity
  8
TEXT
 62
     1
100
AcDbText
 10
349.9464393166347
 20
88.14901428913959
 30
0.0
 40
7.0
  1
4340070W
 41
0.8
  7
GREEKS
 72
     1
 11
371.2797726499681
 21
88.14901428913959
 31
0.0
100
AcDbText
  0
TEXT
  5
212
330
1E
100
AcDbEntity
  8
TEXT
100
AcDbText
 10
235.1296391125315
 20
51.50334417585291
 30
0.0
 40
5.0
  1
EDV-Art.Nr. 4.340.070C
 41
0.8
  7
GREEKS
100
AcDbText
  0
TEXT
  5
255
330
1E
100
AcDbEntity
  8
TEXT
 62
     1
100
AcDbText
 10
297.9974873842989
 20
131.2276367653921
 30
0.0
 40
7.0
  1
Werkstoff: 1.4301
 41
0.8
  7
GREEKS
100
AcDbText
  0
TEXT
  5
269
330
1E
100
AcDbEntity
  8
TEXT
 62
     1
100
AcDbText
 10
234.0479460710899
 20
414.4158199738414
 30
0.0
 40
7.0
  1
DN70
 50
74.99999999999999
 41
0.8
  7
GREEKS
100
AcDbText
  0
LINE
  5
644
330
1E
100
AcDbEntity
  8
MITTEL
100
AcDbLine
 10
216.7941199618019
 20
335.1851570565822
 30
0.0
 11
216.7941199618019
 21
241.1851570565827
 31
0.0
  0
LINE
  5
678
330
1E
100
AcDbEntity
  8
STEMPEL
100
AcDbLine
 10
252.8566766441723
 20
246.1851570565826
 30
0.0
 11
180.7315632794314
 21
246.1851570565824
 31
0.0
  0
LINE
  5
679
330
1E
100
AcDbEntity
  8
STEMPEL
100
AcDbLine
 10
180.2941199618018
 20
251.1851570565824
 30
0.0
 11
180.7315632794314
 21
246.1851570565824
 31
0.0
  0
LINE
  5
67A
330
1E
100
AcDbEntity
  8
STEMPEL
100
AcDbLine
 10
253.2941199618018
 20
251.1851570565831
 30
0.0
 11
252.8566766441723
 21
246.1851570565826
 31
0.0
  0
LINE
  5
692
330
1E
100
AcDbEntity
  8
HILF
100
AcDbLine
 10
252.0441199618018
 20
251.1851570565827
 30
0.0
 11
181.5441199618018
 21
251.1851570565827
 31
0.0
  0
DIMENSION
  5
695
330
1E
100
AcDbEntity
  8
BEM
100
AcDbDimension
  2
*D2
 10
253.2941199618018
 20
225.2695291171735
 30
0.0
 11
216.7941199618018
 21
231.7695291171735
 31
0.0
 70
    32
  1
%%c<>
 71
     5
 42
73.0
  3
Standard
100
AcDbAlignedDimension
 13
180.2941199618018
 23
251.1851570565826
 33
0.0
 14
253.2941199618018
 24
251.185157056583
 34
0.0
100
AcDbRotatedDimension
1001
ACAD
1000
DSTYLE
1002
{
1070
    40
1040
2.0
1070
    41
1040
3.5
1070
    42
1040
1.0
1070
    43
1040
7.0
1070
    44
1040
1.0
1070
    73
1070
     0
1070
    74
1070
     0
1070
    77
1070
     1
1070
    78
1070
     8
1070
    79
1070
     2
1070
   140
1040
3.5
1070
   141
1040
1.5
1070
   146
1040
0.5142857142857144
1070
   147
1040
1.5
1070
   172
1070
     1
1070
   178
1070
     1
1070
   179
1070
     2
1070
   271
1070
     2
1070
   272
1070
     2
1070
   284
1070
     8
1070
   285
1070
     8
1070
   286
1070
     8
1002
}
  0
LINE
  5
696
102
{ACAD_REACTORS
330
97E
102
}
330
1E
100
AcDbEntity
  8
STEMPEL
100
AcDbLine
 10
253.2941199618019
 20
330.3798408946426
 30
0.0
 11
253.2941199618018
 21
251.185157056583
 31
0.0
  0
LINE
  5
697
102
{ACAD_REACTORS
330
987
102
}
330
1E
100
AcDbEntity
  8
STEMPEL
100
AcDbLine
 10
180.2941199618018
 20
339.9904732185241
 30
0.0
 11
180.2941199618018
 21
251.1851570565826
 31
0.0
  0
LINE
  5
6F4
330
1E
100
AcDbEntity
  8
MITTEL
100
AcDbLine
 10
245.2642149230789
 20
441.4369979483798
 30
0.0
 11
216.7941199618019
 21
335.1851570565822
 31
0.0
  0
LINE
  5
6F6
102
{ACAD_REACTORS
330
97E
102
}
330
1E
100
AcDbEntity
  8
STEMPEL
100
AcDbLine
 10
263.7895272770299
 20
369.5492342412038
 30
0.0
 11
253.2941199618019
 21
330.3798408946426
 31
0.0
  0
LINE
  5
6F7
102
{ACAD_REACTORS
330
987
102
}
330
1E
100
AcDbEntity
  8
STEMPEL
100
AcDbLine
 10
193.2769419579278
 20
388.4430245336878
 30
0.0
 11
180.2941199618018
 21
339.9904732185241
 31
0.0
  0
LINE
  5
6F8
330
1E
100
AcDbEntity
  8
STEMPEL
100
AcDbLine
 10
281.9219615655179
 20
426.4382034371432
 30
0.0
 11
206.0182778296147
 21
446.7765341967257
 31
0.0
  0
LINE
  5
6F9
330
1E
100
AcDbEntity
  8
HILF
  6
Continuous
100
AcDbLine
 10
194.1217628432933
 20
395.7625125189599
 30
0.0
 11
266.7176349212918
 21
376.3105072218271
 31
0.0
  0
LINE
  5
6FA
330
1E
100
AcDbEntity
  8
HILF
  6
Continuous
100
AcDbLine
 10
199.2442499148778
 20
417.0177706171469
 30
0.0
 11
272.9090600358357
 21
397.2793442346441
 31
0.0
  0
LINE
  5
6FB
330
1E
100
AcDbEntity
  8
HILF
  6
Continuous
100
AcDbLine
 10
194.7913824675057
 20
390.9018574793585
 30
0.0
 11
263.7073997960503
 21
372.4358662906057
 31
0.0
  0
LINE
  5
6FC
330
1E
100
AcDbEntity
  8
STEMPEL
100
AcDbLine
 10
197.6136699683597
 20
414.866727565891
 30
0.0
 11
193.267919576425
 21
398.6481663061782
 31
0.0
  0
ARC
  5
6FD
330
1E
100
AcDbEntity
  8
STEMPEL
100
AcDbCircle
 10
204.5209554526927
 20
395.6329244307338
 30
0.0
 40
11.65
100
AcDbArc
 50
165.0
 51
195.1013105468017
  0
ARC
  5
6FE
330
1E
100
AcDbEntity
  8
STEMPEL
100
AcDbCircle
 10
185.5495353476153
 20
390.513576894508
 30
0.0
 40
8.0
100
AcDbArc
 50
344.9999999999999
 51
15.10131054680261
  0
LINE
  5
700
330
1E
100
AcDbEntity
  8
STEMPEL
100
AcDbLine
 10
201.0220464820181
 20
437.2462201490789
 30
0.0
 11
198.6763633541365
 21
428.4920115373678
 31
0.0
  0
ARC
  5
701
330
1E
100
AcDbEntity
  8
STEMPEL
100
AcDbCircle
 10
222.4693376536833
 20
422.0483140143549
 30
0.0
 40
24.65009324312573
100
AcDbArc
 50
164.8382525687444
 51
186.1831543930339
  0
ARC
  5
702
330
1E
100
AcDbEntity
  8
STEMPEL
100
AcDbCircle
 10
185.6844860136899
 20
418.0631427729073
 30
0.0
 40
12.35
100
AcDbArc
 50
344.9999999999999
 51
6.183154393033856
  0
ARC
  5
703
330
1E
100
AcDbEntity
  8
STEMPEL
100
AcDbCircle
 10
224.8256053466229
 20
430.8420768269879
 30
0.0
 40
24.65
100
AcDbArc
 50
139.7271515321634
 51
165.0614902701031
  0
LINE
  5
704
330
1E
100
AcDbEntity
  8
STEMPEL
100
AcDbLine
 10
273.2456621667936
 20
394.6011963343636
 30
0.0
 11
268.8999117748589
 21
378.3826350746509
 31
0.0
  0
ARC
  5
705
330
1E
100
AcDbEntity
  8
STEMPEL
100
AcDbCircle
 10
257.6468758985913
 20
381.3978769500951
 30
0.0
 40
11.65
100
AcDbArc
 50
314.8986894531983
 51
344.9999999999999
  0
ARC
  5
706
330
1E
100
AcDbEntity
  8
STEMPEL
100
AcDbCircle
 10
271.5169338873424
 20
367.4786818803836
 30
0.0
 40
8.0
100
AcDbArc
 50
134.8986894531973
 51
165.0
  0
LINE
  5
707
330
1E
100
AcDbEntity
  8
STEMPEL
100
AcDbLine
 10
281.4836678118974
 20
415.6865936920389
 30
0.0
 11
279.1379846840158
 21
406.9323850803278
 31
0.0
  0
ARC
  5
708
330
1E
100
AcDbEntity
  8
STEMPEL
100
AcDbCircle
 10
255.3108157475118
 20
413.2484664808694
 30
0.0
 40
24.65009324312573
100
AcDbArc
 50
323.816845606966
 51
345.1617474312556
  0
ARC
  5
709
330
1E
100
AcDbEntity
  8
STEMPEL
100
AcDbCircle
 10
285.1748461214638
 20
391.4047811273475
 30
0.0
 40
12.35
100
AcDbArc
 50
143.8168456069661
 51
165.0
  0
ARC
  5
70A
330
1E
100
AcDbEntity
  8
STEMPEL
100
AcDbCircle
 10
257.6671094736259
 20
422.0422223179342
 30
0.0
 40
24.65
100
AcDbArc
 50
344.9385097298968
 51
10.27284846783661
  0
DIMENSION
  5
741
330
1E
100
AcDbEntity
  8
BEM
100
AcDbDimension
  2
*D3
 10
160.7239788364825
 20
335.1851570565825
 30
0.0
 11
154.2239788364824
 21
290.6851570565824
 31
0.0
 70
    32
 71
     5
 42
89.00000000000009
  3
Standard
100
AcDbAlignedDimension
 13
180.7315632794314
 23
246.1851570565824
 33
0.0
 14
216.7941199618019
 24
335.1851570565825
 34
0.0
 50
90.0
100
AcDbRotatedDimension
1001
ACAD
1000
DSTYLE
1002
{
1070
    40
1040
2.0
1070
    41
1040
3.5
1070
    42
1040
1.0
1070
    43
1040
7.0
1070
    44
1040
1.0
1070
    73
1070
     0
1070
    74
1070
     0
1070
    77
1070
     1
1070
    78
1070
     8
1070
    79
1070
     2
1070
   140
1040
3.5
1070
   141
1040
1.5
1070
   146
1040
0.5142857142857144
1070
   147
1040
1.5
1070
   172
1070
     1
1070
   178
1070
     1
1070
   179
1070
     2
1070
   271
1070
     2
1070
   272
1070
     2
1070
   284
1070
     8
1070
   285
1070
     8
1070
   286
1070
     8
1002
}
  0
DIMENSION
  5
75C
330
1E
100
AcDbEntity
  8
BEM
100
AcDbDimension
  2
*D4
 10
187.8656329474896
 20
451.64052073338
 30
0.0
 11
167.9991152087286
 21
402.6117386463701
 31
0.0
 70
    32
 71
     5
 42
105.0
 51
356.9999999999999
  3
Standard
100
AcDbAlignedDimension
 13
216.7941199618018
 23
335.1851570565825
 33
0.0
 14
206.0182778296147
 24
446.7765341967257
 34
0.0
 50
75.00000000000037
100
AcDbRotatedDimension
1001
ACAD
1000
DSTYLE
1002
{
1070
    40
1040
2.0
1070
    41
1040
3.5
1070
    42
1040
1.0
1070
    43
1040
7.0
1070
    44
1040
1.0
1070
    73
1070
     0
1070
    74
1070
     0
1070
    77
1070
     1
1070
    78
1070
     8
1070
    79
1070
     2
1070
   140
1040
3.5
1070
   141
1040
1.5
1070
   146
1040
0.5142857142857144
1070
   147
1040
1.5
1070
   172
1070
     1
1070
   178
1070
     1
1070
   179
1070
     2
1070
   271
1070
     2
1070
   272
1070
     2
1070
   284
1070
     8
1070
   285
1070
     8
1070
   286
1070
     8
1002
}
  0
DIMENSION
  5
8BD
330
1E
100
AcDbEntity
  8
BEM
100
AcDbDimension
  2
*D5
 10
216.7941199618019
 20
241.1851570565827
 30
0.0
 11
233.7861110099694
 21
464.2521429440907
 31
0.0
 70
    34
 71
     5
 42
0.2617993877991478
  3
Standard
100
AcDb2LineAngularDimension
 13
245.2642149230789
 23
441.4369979483798
 33
0.0
 14
216.7941199618019
 24
335.1851570565822
 34
0.0
 15
216.7941199618019
 25
335.1851570565822
 35
0.0
 16
238.271048098277
 26
456.9868691382105
 36
0.0
1001
ACAD
1000
DSTYLE
1002
{
1070
    40
1040
2.0
1070
    41
1040
3.5
1070
    42
1040
1.0
1070
    43
1040
7.0
1070
    44
1040
1.0
1070
    73
1070
     0
1070
    74
1070
     0
1070
    77
1070
     1
1070
    78
1070
     8
1070
    79
1070
     2
1070
   140
1040
3.5
1070
   141
1040
1.5
1070
   146
1040
0.5142857142857144
1070
   147
1040
1.5
1070
   172
1070
     1
1070
   178
1070
     1
1070
   179
1070
     2
1070
   271
1070
     2
1070
   272
1070
     2
1070
   284
1070
     8
1070
   285
1070
     8
1070
   286
1070
     8
1002
}
  0
TEXT
  5
931
330
1E
100
AcDbEntity
  8
TEXT
100
AcDbText
 10
41.85509950977674
 20
111.6719999999999
 30
0.0
 40
5.0
  1
Erstellt mit AUTOCAD 2004
 41
0.8
  7
GREEKS
100
AcDbText
  0
TEXT
  5
932
330
1E
100
AcDbEntity
  8
TEXT
100
AcDbText
 10
192.6882715247924
 20
89.00646370679282
 30
0.0
 40
4.0
  1
DIN EN1124-3
 41
0.8
  7
GREEKS
 72
     1
 11
209.6787477152686
 21
89.00646370679282
 31
0.0
100
AcDbText
  0
TEXT
  5
933
330
1E
100
AcDbEntity
  8
TEXT
100
AcDbText
 10
110.3496319666763
 20
18.6715626933981
 30
0.0
 40
4.0
  1
Tag
 41
0.8
  7
GREEKS
 72
     1
 11
114.0829653000096
 21
18.6715626933981
 31
0.0
100
AcDbText
  0
TEXT
  5
934
330
1E
100
AcDbEntity
  8
TEXT
100
AcDbText
 10
66.99867878482315
 20
18.67381894984132
 30
0.0
 40
4.0
  1
Änderung
 41
0.8
  7
GREEKS
 72
     1
 11
77.7415359276803
 21
18.67381894984132
 31
0.0
100
AcDbText
  0
TEXT
  5
935
330
1E
100
AcDbEntity
  8
TEXT
100
AcDbText
 10
129.2391668299012
 20
18.59324216966408
 30
0.0
 40
4.0
  1
Name
 41
0.8
  7
GREEKS
 72
     1
 11
135.5629763537107
 21
18.59324216966408
 31
0.0
100
AcDbText
  0
TEXT
  5
936
330
1E
100
AcDbEntity
  8
TEXT
100
AcDbText
 10
153.5163572150377
 20
102.4620895087088
 30
0.0
 40
5.0
  1
Maßstab
 41
0.8
  7
GREEKS
100
AcDbText
  0
TEXT
  5
937
330
1E
100
AcDbEntity
  8
TEXT
100
AcDbText
 10
336.7238616296993
 20
73.1811823709997
 30
0.0
 40
5.0
  1
Ersatz für:
 41
0.8
  7
GREEKS
100
AcDbText
  0
TEXT
  5
938
330
1E
100
AcDbEntity
  8
BEM
100
AcDbText
 10
416.5811541437437
 20
12.14804815338303
 30
0.0
 40
4.0
  1
Diese Zeichnung ist urheberrechtlich geschützt und bleibt unser Eigentum. Sie darf weder ganz noch teilweise vervielfältigt und nicht an Dritte weitergegeben werden.
 50
90.0
 41
0.8
  7
GREEKS
100
AcDbText
  0
LINE
  5
950
330
1E
100
AcDbEntity
  8
STEMPEL
100
AcDbLine
 10
180.2941199618018
 20
339.9904732185241
 30
0.0
 11
253.2941199618019
 21
330.3798408946426
 31
0.0
  0
ARC
  5
96A
330
1E
100
AcDbEntity
  8
SCHRAFF
100
AcDbCircle
 10
190.2085685755399
 20
338.6852112963235
 30
0.0
 40
5.0
100
AcDbArc
 50
315.630102354156
 51
29.36989764584346
  0
ARC
  5
96B
330
1E
100
AcDbEntity
  8
SCHRAFF
100
AcDbCircle
 10
180.2941199618018
 20
339.9904732185241
 30
0.0
 40
5.0
100
AcDbArc
 50
315.630102354156
 51
29.36989764584346
  0
ARC
  5
96D
330
1E
100
AcDbEntity
  8
SCHRAFF
100
AcDbCircle
 10
185.2513442686709
 20
339.3378422574238
 30
0.0
 40
5.0
100
AcDbArc
 50
315.630102354156
 51
29.36989764584346
  0
ARC
  5
96E
330
1E
100
AcDbEntity
  8
SCHRAFF
100
AcDbCircle
 10
195.165792882409
 20
338.0325803352233
 30
0.0
 40
5.0
100
AcDbArc
 50
315.630102354156
 51
29.36989764584346
  0
ARC
  5
96F
330
1E
100
AcDbEntity
  8
SCHRAFF
100
AcDbCircle
 10
200.1230171892781
 20
337.3799493741229
 30
0.0
 40
5.0
100
AcDbArc
 50
315.630102354156
 51
29.36989764584346
  0
ARC
  5
970
330
1E
100
AcDbEntity
  8
SCHRAFF
100
AcDbCircle
 10
205.080241496147
 20
336.7273184130226
 30
0.0
 40
5.0
100
AcDbArc
 50
315.630102354156
 51
29.36989764584346
  0
ARC
  5
971
330
1E
100
AcDbEntity
  8
SCHRAFF
100
AcDbCircle
 10
224.9091387236232
 20
334.1167945686214
 30
0.0
 40
5.0
100
AcDbArc
 50
315.630102354156
 51
29.36989764584346
  0
ARC
  5
972
330
1E
100
AcDbEntity
  8
SCHRAFF
100
AcDbCircle
 10
219.9519144167542
 20
334.7694255297218
 30
0.0
 40
5.0
100
AcDbArc
 50
315.630102354156
 51
29.36989764584346
  0
ARC
  5
973
330
1E
100
AcDbEntity
  8
SCHRAFF
100
AcDbCircle
 10
214.9946901098851
 20
335.4220564908221
 30
0.0
 40
5.0
100
AcDbArc
 50
315.630102354156
 51
29.36989764584346
  0
ARC
  5
974
330
1E
100
AcDbEntity
  8
SCHRAFF
100
AcDbCircle
 10
210.0374658030161
 20
336.0746874519223
 30
0.0
 40
5.0
100
AcDbArc
 50
315.630102354156
 51
29.36989764584346
  0
ARC
  5
975
330
1E
100
AcDbEntity
  8
SCHRAFF
100
AcDbCircle
 10
234.8235873373614
 20
332.8115326464208
 30
0.0
 40
5.0
100
AcDbArc
 50
315.630102354156
 51
29.36989764584346
  0
ARC
  5
976
330
1E
100
AcDbEntity
  8
SCHRAFF
100
AcDbCircle
 10
229.8663630304923
 20
333.4641636075212
 30
0.0
 40
5.0
100
AcDbArc
 50
315.630102354156
 51
29.36989764584346
  0
ARC
  5
977
330
1E
100
AcDbEntity
  8
SCHRAFF
100
AcDbCircle
 10
239.7808116442303
 20
332.1589016853205
 30
0.0
 40
5.0
100
AcDbArc
 50
315.630102354156
 51
29.36989764584346
  0
ARC
  5
978
102
{ACAD_REACTORS
330
97E
102
}
330
1E
100
AcDbEntity
  8
SCHRAFF
100
AcDbCircle
 10
249.6952602579684
 20
330.8536397631199
 30
0.0
 40
5.0
100
AcDbArc
 50
316.035654654918
 51
28.96434534507682
  0
ARC
  5
979
330
1E
100
AcDbEntity
  8
SCHRAFF
100
AcDbCircle
 10
244.7380359510994
 20
331.5062707242202
 30
0.0
 40
5.0
100
AcDbArc
 50
315.630102354156
 51
29.36989764584346
  0
HATCH
  5
97E
330
1E
100
AcDbEntity
  8
SCHRAFF
100
AcDbHatch
 10
0.0
 20
0.0
 30
0.0
210
0.0
220
0.0
230
1.0
  2
_USER
 70
     0
 71
     1
 91
        1
 92
        7
 72
     1
 73
     1
 93
        3
 10
254.0698664104479
 20
333.2749660547809
 42
0.0
 10
253.2941199618018
 20
330.3798408946425
 42
0.0
 10
253.2941199618018
 20
327.3825867770472
 42
0.3294056044151508
 97
        3
330
6F6
330
696
330
978
 75
     0
 76
     0
 52
0.0
 41
0.1
 77
     0
 78
     1
 53
0.0
 43
0.0
 44
0.0
 45
0.0
 46
0.1
 79
     0
 47
0.0198204766861129
 98
        1
 10
254.2622309052613
 20
330.4700685826142
  0
ARC
  5
981
102
{ACAD_REACTORS
330
987
102
}
330
1E
100
AcDbEntity
  8
SCHRAFF
100
AcDbCircle
 10
182.3288598657903
 20
339.7225946282233
 30
0.0
 40
3.427357030210448
100
AcDbArc
 50
111.4183106464346
 51
233.5816893535651
  0
HATCH
  5
987
330
1E
100
AcDbEntity
  8
SCHRAFF
100
AcDbHatch
 10
0.0
 20
0.0
 30
0.0
210
0.0
220
0.0
230
1.0
  2
_USER
 70
     0
 71
     1
 91
        1
 92
        7
 72
     1
 73
     1
 93
        3
 10
180.2941199618018
 20
339.9904732185241
 42
0.0
 10
181.0772771151221
 20
342.9132555050265
 42
0.5900056428539103
 10
180.2941199618018
 20
336.9645863367836
 42
0.0
 97
        3
330
6F7
330
981
330
697
 75
     0
 76
     0
 52
0.0
 41
0.1
 77
     0
 78
     1
 53
0.0
 43
0.0
 44
0.0
 45
0.0
 46
0.1
 79
     0
 47
0.0787237835728846
 98
        1
 10
179.342082637524
 20
339.9390561793171
  0
TEXT
  5
9CD
330
1E
100
AcDbEntity
  8
TEXT
100
AcDbText
 10
171.1059845537778
 20
63.29410943275274
 30
0.0
 40
4.24
  1
14.04.
 41
0.8
  7
GREEKS
 72
     1
 11
178.2130321728255
 21
63.29410943275274
 31
0.0
100
AcDbText
  0
ENDSEC
  0
SECTION
  2
OBJECTS
  0
DICTIONARY
  5
C
330
0
100
AcDbDictionary
281
     1
  3
ACAD_COLOR
350
911
  3
ACAD_GROUP
350
D
  3
ACAD_LAYOUT
350
19
  3
ACAD_MATERIAL
350
910
  3
ACAD_MLINESTYLE
350
16
  3
ACAD_PLOTSETTINGS
350
18
  3
ACAD_PLOTSTYLENAME
350
E
  3
AcDbVariableDictionary
350
246
  3
ASE_INDEX_DICTIONARY
350
98E
  0
DICTIONARY
  5
911
102
{ACAD_REACTORS
330
C
102
}
330
C
100
AcDbDictionary
281
     1
  0
DICTIONARY
  5
D
102
{ACAD_REACTORS
330
C
102
}
330
C
100
AcDbDictionary
281
     1
  0
DICTIONARY
  5
19
102
{ACAD_REACTORS
330
C
102
}
330
C
100
AcDbDictionary
281
     1
  3
Layout1
350
1D
  3
Model
350
21
  0
DICTIONARY
  5
910
102
{ACAD_REACTORS
330
C
102
}
330
C
100
AcDbDictionary
281
     1
  0
DICTIONARY
  5
16
102
{ACAD_REACTORS
330
C
102
}
330
C
100
AcDbDictionary
281
     1
  3
Standard
350
17
  0
DICTIONARY
  5
18
102
{ACAD_REACTORS
330
C
102
}
330
C
100
AcDbDictionary
281
     1
  0
ACDBDICTIONARYWDFLT
  5
E
102
{ACAD_REACTORS
330
C
102
}
330
C
100
AcDbDictionary
281
     1
  3
Normal
350
F
100
AcDbDictionaryWithDefault
340
F
  0
DICTIONARY
  5
246
102
{ACAD_REACTORS
330
C
102
}
330
C
100
AcDbDictionary
281
     1
  3
DIMASSOC
350
94C
  3
PROJECTNAME
350
94D
  3
SORTENTS
350
247
  0
DICTIONARY
  5
98E
102
{ACAD_REACTORS
330
C
102
}
330
C
100
AcDbDictionary
281
     1
  3
ASEBlockHierarchyIndexRecord
350
990
1001
DCO15
1040
1558863305.843
  0
LAYOUT
  5
1D
102
{ACAD_REACTORS
330
19
102
}
330
19
100
AcDbPlotSettings
  1

  2
Tektronix Phaser 740
  4

  6

 40
0.0
 41
0.0
 42
0.0
 43
0.0
 44
0.0
 45
0.0
 46
0.0
 47
0.0
 48
0.0
 49
0.0
140
0.0
141
0.0
142
1.0
143
1.0
 70
   688
 72
     0
 73
     0
 74
     5
  7
monochrome1.ctb
 75
    16
147
1.0
 76
     0
 77
     2
 78
   300
148
0.0
149
0.0
100
AcDbLayout
  1
Layout1
 70
     0
 71
     1
 10
0.0
 20
0.0
 11
12.0
 21
9.0
 12
0.0
 22
0.0
 32
0.0
 14
1.000000000000000E+20
 24
1.000000000000000E+20
 34
1.000000000000000E+20
 15
-1.000000000000000E+20
 25
-1.000000000000000E+20
 35
-1.000000000000000E+20
146
0.0
 13
0.0
 23
0.0
 33
0.0
 16
1.0
 26
0.0
 36
0.0
 17
0.0
 27
1.0
 37
0.0
 76
     0
330
1A
  0
LAYOUT
  5
21
102
{ACAD_REACTORS
330
19
102
}
330
19
100
AcDbPlotSettings
  1

  2
Tektronix Phaser 740
  4
A4
  6

 40
5.873749732971191
 41
6.085414409637451
 42
5.577407836914062
 43
5.662078857421875
 44
209.9733276367187
 45
296.9683227539062
 46
0.0
 47
0.0
 48
0.0
 49
0.0
140
0.0
141
0.0
142
1.0
143
1.0
 70
 11952
 72
     0
 73
     1
 74
     0
  7
monochrome.ctb
 75
     0
147
1.0
 76
     0
 77
     2
 78
   300
148
1150.120678237584
149
45.30495740799864
100
AcDbLayout
  1
Model
 70
     1
 71
     0
 10
0.0
 20
0.0
 11
12.0
 21
9.0
 12
0.0
 22
0.0
 32
0.0
 14
0.0
 24
0.0
 34
0.0
 15
0.0
 25
0.0
 35
0.0
146
0.0
 13
0.0
 23
0.0
 33
0.0
 16
1.0
 26
0.0
 36
0.0
 17
0.0
 27
1.0
 37
0.0
 76
     0
330
1E
  0
MLINESTYLE
  5
17
102
{ACAD_REACTORS
330
16
102
}
330
16
100
AcDbMlineStyle
  2
STANDARD
 70
     0
  3

 62
   256
 51
90.0
 52
90.0
 71
     2
 49
0.5
 62
   256
  6
BYLAYER
 49
-0.5
 62
   256
  6
BYLAYER
  0
ACDBPLACEHOLDER
  5
F
102
{ACAD_REACTORS
330
E
102
}
330
E
  0
DICTIONARYVAR
  5
94C
102
{ACAD_REACTORS
330
246
102
}
330
246
100
DictionaryVariables
280
     0
  1
1
  0
DICTIONARYVAR
  5
94D
102
{ACAD_REACTORS
330
246
102
}
330
246
100
DictionaryVariables
280
     0
  1

  0
DICTIONARYVAR
  5
247
102
{ACAD_REACTORS
330
246
102
}
330
246
100
DictionaryVariables
280
     0
  1
96
  0
XRECORD
  5
990
102
{ACAD_REACTORS
330
98E
102
}
330
98E
100
AcDbXrecord
280
     1
330
135
  0
ENDSEC
  0
EOF
