  0
SECTION
  2
HEADER
  9
$ACADVER
  1
AC1018
  9
$ACADMAINTVER
 70
     2
  9
$DWGCODEPAGE
  3
ANSI_1252
  9
$INSBASE
 10
0.0
 20
0.0
 30
0.0
  9
$EXTMIN
 10
-0.0175935301393793
 20
-0.0452802902616441
 30
-0.0000000000000096
  9
$EXTMAX
 10
420.0025100847162
 20
594.0090755479139
 30
0.0000000000000056
  9
$LIMMIN
 10
0.0
 20
0.0
  9
$LIMMAX
 10
419.9999999999999
 20
594.0000000000002
  9
$ORTHOMODE
 70
     1
  9
$REGENMODE
 70
     1
  9
$FILLMODE
 70
     1
  9
$QTEXTMODE
 70
     0
  9
$MIRRTEXT
 70
     1
  9
$LTSCALE
 40
20.0
  9
$ATTMODE
 70
     1
  9
$TEXTSIZE
 40
3.5
  9
$TRACEWID
 40
0.5
  9
$TEXTSTYLE
  7
STANDARD
  9
$CLAYER
  8
VOLL
  9
$CELTYPE
  6
ByLayer
  9
$CECOLOR
 62
   256
  9
$CELTSCALE
 40
1.0
  9
$DISPSILH
 70
     0
  9
$DIMSCALE
 40
2.0
  9
$DIMASZ
 40
3.5
  9
$DIMEXO
 40
1.0
  9
$DIMDLI
 40
7.0
  9
$DIMRND
 40
0.0
  9
$DIMDLE
 40
0.0
  9
$DIMEXE
 40
1.0
  9
$DIMTP
 40
0.0
  9
$DIMTM
 40
0.0
  9
$DIMTXT
 40
3.5
  9
$DIMCEN
 40
1.5
  9
$DIMTSZ
 40
0.0
  9
$DIMTOL
 70
     0
  9
$DIMLIM
 70
     0
  9
$DIMTIH
 70
     0
  9
$DIMTOH
 70
     0
  9
$DIMSE1
 70
     0
  9
$DIMSE2
 70
     0
  9
$DIMTAD
 70
     1
  9
$DIMZIN
 70
     8
  9
$DIMBLK
  1

  9
$DIMASO
 70
     1
  9
$DIMSHO
 70
     0
  9
$DIMPOST
  1

  9
$DIMAPOST
  1

  9
$DIMALT
 70
     0
  9
$DIMALTD
 70
     2
  9
$DIMALTF
 40
25.4
  9
$DIMLFAC
 40
1.0
  9
$DIMTOFL
 70
     1
  9
$DIMTVP
 40
0.0
  9
$DIMTIX
 70
     0
  9
$DIMSOXD
 70
     0
  9
$DIMSAH
 70
     0
  9
$DIMBLK1
  1

  9
$DIMBLK2
  1

  9
$DIMSTYLE
  2
Standard
  9
$DIMCLRD
 70
     0
  9
$DIMCLRE
 70
     0
  9
$DIMCLRT
 70
     1
  9
$DIMTFAC
 40
0.5142857142857144
  9
$DIMGAP
 40
1.5
  9
$DIMJUST
 70
     0
  9
$DIMSD1
 70
     0
  9
$DIMSD2
 70
     0
  9
$DIMTOLJ
 70
     1
  9
$DIMTZIN
 70
     8
  9
$DIMALTZ
 70
     8
  9
$DIMALTTZ
 70
     8
  9
$DIMUPT
 70
     0
  9
$DIMDEC
 70
     2
  9
$DIMTDEC
 70
     2
  9
$DIMALTU
 70
     2
  9
$DIMALTTD
 70
     2
  9
$DIMTXSTY
  7
STANDARD
  9
$DIMAUNIT
 70
     0
  9
$DIMADEC
 70
     2
  9
$DIMALTRND
 40
0.0
  9
$DIMAZIN
 70
     2
  9
$DIMDSEP
 70
    46
  9
$DIMATFIT
 70
     3
  9
$DIMFRAC
 70
     0
  9
$DIMLDRBLK
  1

  9
$DIMLUNIT
 70
     2
  9
$DIMLWD
 70
    -2
  9
$DIMLWE
 70
    -2
  9
$DIMTMOVE
 70
     0
  9
$LUNITS
 70
     2
  9
$LUPREC
 70
     2
  9
$SKETCHINC
 40
1.0
  9
$FILLETRAD
 40
0.0
  9
$AUNITS
 70
     1
  9
$AUPREC
 70
     3
  9
$MENU
  1
ACAD
  9
$ELEVATION
 40
0.0
  9
$PELEVATION
 40
0.0
  9
$THICKNESS
 40
0.0
  9
$LIMCHECK
 70
     0
  9
$CHAMFERA
 40
0.0
  9
$CHAMFERB
 40
0.0
  9
$CHAMFERC
 40
0.0
  9
$CHAMFERD
 40
0.0
  9
$SKPOLY
 70
     0
  9
$TDCREATE
 40
2452040.637099653
  9
$TDUCREATE
 40
2452040.553766320
  9
$TDUPDATE
 40
2455666.553789248
  9
$TDUUPDATE
 40
2455666.470455915
  9
$TDINDWG
 40
0.3661881713
  9
$TDUSRTIMER
 40
0.3661881713
  9
$USRTIMER
 70
     1
  9
$ANGBASE
 50
0.0
  9
$ANGDIR
 70
     0
  9
$PDMODE
 70
     0
  9
$PDSIZE
 40
0.0
  9
$PLINEWID
 40
0.0
  9
$SPLFRAME
 70
     0
  9
$SPLINETYPE
 70
     6
  9
$SPLINESEGS
 70
     8
  9
$HANDSEED
  5
11E1
  9
$SURFTAB1
 70
     6
  9
$SURFTAB2
 70
     6
  9
$SURFTYPE
 70
     6
  9
$SURFU
 70
     6
  9
$SURFV
 70
     6
  9
$UCSBASE
  2

  9
$UCSNAME
  2

  9
$UCSORG
 10
0.0
 20
0.0
 30
0.0
  9
$UCSXDIR
 10
1.0
 20
0.0
 30
0.0
  9
$UCSYDIR
 10
0.0
 20
1.0
 30
0.0
  9
$UCSORTHOREF
  2

  9
$UCSORTHOVIEW
 70
     0
  9
$UCSORGTOP
 10
0.0
 20
0.0
 30
0.0
  9
$UCSORGBOTTOM
 10
0.0
 20
0.0
 30
0.0
  9
$UCSORGLEFT
 10
0.0
 20
0.0
 30
0.0
  9
$UCSORGRIGHT
 10
0.0
 20
0.0
 30
0.0
  9
$UCSORGFRONT
 10
0.0
 20
0.0
 30
0.0
  9
$UCSORGBACK
 10
0.0
 20
0.0
 30
0.0
  9
$PUCSBASE
  2

  9
$PUCSNAME
  2

  9
$PUCSORG
 10
0.0
 20
0.0
 30
0.0
  9
$PUCSXDIR
 10
1.0
 20
0.0
 30
0.0
  9
$PUCSYDIR
 10
0.0
 20
1.0
 30
0.0
  9
$PUCSORTHOREF
  2

  9
$PUCSORTHOVIEW
 70
     0
  9
$PUCSORGTOP
 10
0.0
 20
0.0
 30
0.0
  9
$PUCSORGBOTTOM
 10
0.0
 20
0.0
 30
0.0
  9
$PUCSORGLEFT
 10
0.0
 20
0.0
 30
0.0
  9
$PUCSORGRIGHT
 10
0.0
 20
0.0
 30
0.0
  9
$PUCSORGFRONT
 10
0.0
 20
0.0
 30
0.0
  9
$PUCSORGBACK
 10
0.0
 20
0.0
 30
0.0
  9
$USERI1
 70
     0
  9
$USERI2
 70
     0
  9
$USERI3
 70
     0
  9
$USERI4
 70
     0
  9
$USERI5
 70
     0
  9
$USERR1
 40
0.0
  9
$USERR2
 40
0.0
  9
$USERR3
 40
0.0
  9
$USERR4
 40
0.0
  9
$USERR5
 40
0.0
  9
$WORLDVIEW
 70
     1
  9
$SHADEDGE
 70
     3
  9
$SHADEDIF
 70
    70
  9
$TILEMODE
 70
     1
  9
$MAXACTVP
 70
    16
  9
$PINSBASE
 10
0.0
 20
0.0
 30
0.0
  9
$PLIMCHECK
 70
     0
  9
$PEXTMIN
 10
1.000000000000000E+20
 20
1.000000000000000E+20
 30
1.000000000000000E+20
  9
$PEXTMAX
 10
-1.000000000000000E+20
 20
-1.000000000000000E+20
 30
-1.000000000000000E+20
  9
$PLIMMIN
 10
0.0
 20
0.0
  9
$PLIMMAX
 10
12.0
 20
9.0
  9
$UNITMODE
 70
     0
  9
$VISRETAIN
 70
     0
  9
$PLINEGEN
 70
     0
  9
$PSLTSCALE
 70
     0
  9
$TREEDEPTH
 70
  3020
  9
$CMLSTYLE
  2
Standard
  9
$CMLJUST
 70
     0
  9
$CMLSCALE
 40
1.0
  9
$PROXYGRAPHICS
 70
     1
  9
$MEASUREMENT
 70
     0
  9
$CELWEIGHT
370
    -1
  9
$ENDCAPS
280
     0
  9
$JOINSTYLE
280
     0
  9
$LWDISPLAY
290
     0
  9
$INSUNITS
 70
     0
  9
$HYPERLINKBASE
  1

  9
$STYLESHEET
  1
monochrome 1.ctb
  9
$XEDIT
290
     1
  9
$CEPSNTYPE
380
     0
  9
$PSTYLEMODE
290
     1
  9
$FINGERPRINTGUID
  2
{7AADB5C8-6110-11D8-B72B-000102183313}
  9
$VERSIONGUID
  2
{F0E561B6-387E-46DE-8FB4-86E06D0AD16B}
  9
$EXTNAMES
290
     1
  9
$PSVPSCALE
 40
0.0
  9
$OLESTARTUP
290
     0
  9
$SORTENTS
280
    96
  9
$INDEXCTL
280
     0
  9
$HIDETEXT
280
     0
  9
$XCLIPFRAME
290
     0
  9
$HALOGAP
280
     0
  9
$OBSCOLOR
 70
   257
  9
$OBSLTYPE
280
     0
  9
$INTERSECTIONDISPLAY
280
     0
  9
$INTERSECTIONCOLOR
 70
   257
  9
$DIMASSOC
280
     1
  9
$PROJECTNAME
  1

  0
ENDSEC
  0
SECTION
  2
CLASSES
  0
CLASS
  1
ACDBDICTIONARYWDFLT
  2
AcDbDictionaryWithDefault
  3
ObjectDBX Classes
 90
        0
 91
        1
280
     0
281
     0
  0
CLASS
  1
DICTIONARYVAR
  2
AcDbDictionaryVar
  3
ObjectDBX Classes
 90
        0
 91
        3
280
     0
281
     0
  0
ENDSEC
  0
SECTION
  2
TABLES
  0
TABLE
  2
VPORT
  5
8
330
0
100
AcDbSymbolTable
 70
     3
  0
VPORT
  5
11E0
330
8
100
AcDbSymbolTableRecord
100
AcDbViewportTableRecord
  2
*Active
 70
     0
 10
0.0
 20
0.0
 11
1.0
 21
1.0
 12
210.0
 22
297.0
 13
0.0
 23
0.0
 14
1.0
 24
1.0
 15
10.0
 25
10.0
 16
0.0
 26
0.0
 36
1.0
 17
0.0
 27
0.0
 37
0.0
 40
594.0
 41
1.334231805929919
 42
50.0
 43
0.0
 44
0.0
 50
0.0
 51
0.0
 71
     0
 72
  1500
 73
     1
 74
     0
 75
     0
 76
     0
 77
     0
 78
     0
281
     0
 65
     1
110
0.0
120
0.0
130
0.0
111
1.0
121
0.0
131
0.0
112
0.0
122
1.0
132
0.0
 79
     0
146
0.0
  0
ENDTAB
  0
TABLE
  2
LTYPE
  5
5
330
0
100
AcDbSymbolTable
 70
     2
  0
LTYPE
  5
13
330
5
100
AcDbSymbolTableRecord
100
AcDbLinetypeTableRecord
  2
ByBlock
 70
     0
  3

 72
    65
 73
     0
 40
0.0
  0
LTYPE
  5
14
330
5
100
AcDbSymbolTableRecord
100
AcDbLinetypeTableRecord
  2
ByLayer
 70
     0
  3

 72
    65
 73
     0
 40
0.0
  0
LTYPE
  5
15
330
5
100
AcDbSymbolTableRecord
100
AcDbLinetypeTableRecord
  2
Continuous
 70
     0
  3
Solid line
 72
    65
 73
     0
 40
0.0
  0
LTYPE
  5
35
330
5
100
AcDbSymbolTableRecord
100
AcDbLinetypeTableRecord
  2
STRICHPUNKT
 70
     0
  3
__ . __ . __ . __ . __ . __ . __ . __ . __ . __
 72
    65
 73
     4
 40
1.0
 49
0.5
 74
     0
 49
-0.25
 74
     0
 49
0.0
 74
     0
 49
-0.25
 74
     0
  0
ENDTAB
  0
TABLE
  2
LAYER
  5
2
330
0
100
AcDbSymbolTable
 70
     9
  0
LAYER
  5
10
330
2
100
AcDbSymbolTableRecord
100
AcDbLayerTableRecord
  2
0
 70
     0
 62
     7
  6
Continuous
370
    -3
390
F
  0
LAYER
  5
38
330
2
100
AcDbSymbolTableRecord
100
AcDbLayerTableRecord
  2
VOLL
 70
     0
 62
     1
  6
Continuous
370
    -3
390
F
  0
LAYER
  5
39
330
2
100
AcDbSymbolTableRecord
100
AcDbLayerTableRecord
  2
HILF
 70
     0
 62
     2
  6
Continuous
370
    -3
390
F
  0
LAYER
  5
3A
330
2
100
AcDbSymbolTableRecord
100
AcDbLayerTableRecord
  2
MITTEL
 70
     0
 62
     2
  6
STRICHPUNKT
370
    -3
390
F
  0
LAYER
  5
3B
330
2
100
AcDbSymbolTableRecord
100
AcDbLayerTableRecord
  2
BEM
 70
     0
 62
     7
  6
Continuous
370
    -3
390
F
  0
LAYER
  5
3C
330
2
100
AcDbSymbolTableRecord
100
AcDbLayerTableRecord
  2
STEMPEL
 70
     0
 62
     3
  6
Continuous
370
    -3
390
F
  0
LAYER
  5
3D
330
2
100
AcDbSymbolTableRecord
100
AcDbLayerTableRecord
  2
TEXT
 70
     0
 62
     7
  6
Continuous
370
    -3
390
F
  0
LAYER
  5
3E
330
2
100
AcDbSymbolTableRecord
100
AcDbLayerTableRecord
  2
DEFPOINTS
 70
     0
 62
     7
  6
Continuous
290
     0
370
    -3
390
F
  0
LAYER
  5
3F
330
2
100
AcDbSymbolTableRecord
100
AcDbLayerTableRecord
  2
SCHRAFF
 70
     0
 62
     7
  6
Continuous
370
    -3
390
F
  0
ENDTAB
  0
TABLE
  2
STYLE
  5
3
330
0
100
AcDbSymbolTable
 70
     2
  0
STYLE
  5
11
330
3
100
AcDbSymbolTableRecord
100
AcDbTextStyleTableRecord
  2
STANDARD
 70
     0
 40
0.0
 41
0.8
 50
0.0
 71
     0
 42
3.5
  3
simplex.shx
  4

  0
STYLE
  5
34
330
3
100
AcDbSymbolTableRecord
100
AcDbTextStyleTableRecord
  2
GREEKS
 70
     0
 40
0.0
 41
0.8
 50
0.0
 71
     0
 42
2.5
  3
SIMPLEX.shx
  4

  0
ENDTAB
  0
TABLE
  2
VIEW
  5
6
330
0
100
AcDbSymbolTable
 70
     0
  0
ENDTAB
  0
TABLE
  2
UCS
  5
7
330
0
100
AcDbSymbolTable
 70
     0
  0
ENDTAB
  0
TABLE
  2
APPID
  5
9
330
0
100
AcDbSymbolTable
 70
     1
  0
APPID
  5
12
330
9
100
AcDbSymbolTableRecord
100
AcDbRegAppTableRecord
  2
ACAD
 70
     0
  0
ENDTAB
  0
TABLE
  2
DIMSTYLE
  5
A
330
0
100
AcDbSymbolTable
 70
     1
100
AcDbDimStyleTable
 71
     1
340
1CB
  0
DIMSTYLE
105
1CB
102
{ACAD_REACTORS
330
BC9
330
CC5
330
1E8
330
1007
102
}
330
A
100
AcDbSymbolTableRecord
100
AcDbDimStyleTableRecord
  2
Standard
 70
     0
340
11
  0
ENDTAB
  0
TABLE
  2
BLOCK_RECORD
  5
1
330
0
100
AcDbSymbolTable
 70
     8
  0
BLOCK_RECORD
  5
1E
330
1
100
AcDbSymbolTableRecord
100
AcDbBlockTableRecord
  2
*Model_Space
340
21
  0
BLOCK_RECORD
  5
1A
330
1
100
AcDbSymbolTableRecord
100
AcDbBlockTableRecord
  2
*Paper_Space
340
1D
  0
BLOCK_RECORD
  5
22
330
1
100
AcDbSymbolTableRecord
100
AcDbBlockTableRecord
  2
LOGO
340
0
102
{BLKREFS
331
135
102
}
  0
BLOCK_RECORD
  5
1E9
330
1
100
AcDbSymbolTableRecord
100
AcDbBlockTableRecord
  2
*D1
340
0
  0
BLOCK_RECORD
  5
BCA
330
1
100
AcDbSymbolTableRecord
100
AcDbBlockTableRecord
  2
*D3
340
0
  0
BLOCK_RECORD
  5
CC6
330
1
100
AcDbSymbolTableRecord
100
AcDbBlockTableRecord
  2
*D4
340
0
  0
BLOCK_RECORD
  5
1008
330
1
100
AcDbSymbolTableRecord
100
AcDbBlockTableRecord
  2
*D5
340
0
  0
ENDTAB
  0
ENDSEC
  0
SECTION
  2
BLOCKS
  0
BLOCK
  5
43
330
1E
100
AcDbEntity
  8
0
100
AcDbBlockBegin
  2
*Model_Space
 70
     0
 10
0.0
 20
0.0
 30
0.0
  3
*Model_Space
  1

  0
ENDBLK
  5
44
330
1E
100
AcDbEntity
  8
0
100
AcDbBlockEnd
  0
BLOCK
  5
41
330
1A
100
AcDbEntity
 67
     1
  8
0
100
AcDbBlockBegin
  2
*Paper_Space
 70
     0
 10
0.0
 20
0.0
 30
0.0
  3
*Paper_Space
  1

  0
ENDBLK
  5
42
330
1A
100
AcDbEntity
 67
     1
  8
0
100
AcDbBlockEnd
  0
BLOCK
  5
45
330
22
100
AcDbEntity
  8
0
100
AcDbBlockBegin
  2
LOGO
 70
     0
 10
0.0
 20
0.0
 30
0.0
  3
LOGO
  1

  0
ARC
  5
46
330
22
100
AcDbEntity
  8
0
100
AcDbCircle
 10
11.59973089678112
 20
-9.271599258481501
 30
0.0
 40
4.5
100
AcDbArc
 50
270.0
 51
231.0575587310159
  0
LINE
  5
47
330
22
100
AcDbEntity
  8
0
100
AcDbLine
 10
3.599730896781125
 20
-4.771599258481529
 30
0.0
 11
3.599730896781153
 21
-11.77159925848133
 31
0.0
  0
LINE
  5
48
330
22
100
AcDbEntity
  8
0
100
AcDbLine
 10
2.599730896781125
 20
-4.771599258481529
 30
0.0
 11
2.599730896781153
 21
-11.77159925848133
 31
0.0
  0
CIRCLE
  5
49
330
22
100
AcDbEntity
  8
0
100
AcDbCircle
 10
11.59973089678112
 20
-9.271599258481501
 30
0.0
 40
3.5
  0
ARC
  5
4A
330
22
100
AcDbEntity
  8
0
100
AcDbCircle
 10
31.59973089678115
 20
-9.271599258481472
 30
0.0
 40
4.5
100
AcDbArc
 50
270.0
 51
231.0575587310182
  0
LINE
  5
4B
330
22
100
AcDbEntity
  8
0
100
AcDbLine
 10
17.59973089678112
 20
-4.771599258481472
 30
0.0
 11
17.59973089678115
 21
-13.77159925848147
 31
0.0
  0
ARC
  5
4C
330
22
100
AcDbEntity
  8
0
100
AcDbCircle
 10
22.59973089678116
 20
-7.271599258481472
 30
0.0
 40
2.5
100
AcDbArc
 50
293.1161887722295
 51
90.0
  0
CIRCLE
  5
4D
330
22
100
AcDbEntity
  8
0
100
AcDbCircle
 10
31.59973089678115
 20
-9.271599258481472
 30
0.0
 40
3.5
  0
ARC
  5
4E
330
22
100
AcDbEntity
  8
0
100
AcDbCircle
 10
4.599730896781153
 20
-11.77159925848133
 30
0.0
 40
1.0
100
AcDbArc
 50
180.0
 51
270.0
  0
ARC
  5
4F
330
22
100
AcDbEntity
  8
0
100
AcDbCircle
 10
4.599730896781153
 20
-11.77159925848133
 30
0.0
 40
2.0
100
AcDbArc
 50
179.9999999999992
 51
270.0
  0
LINE
  5
50
330
22
100
AcDbEntity
  8
0
100
AcDbLine
 10
11.59973089678115
 20
-13.77159925848144
 30
0.0
 11
4.599730896781153
 21
-13.77159925848147
 31
0.0
  0
LINE
  5
51
330
22
100
AcDbEntity
  8
0
100
AcDbLine
 10
8.771303772034769
 20
-12.77159925848136
 30
0.0
 11
4.599730896781153
 21
-12.77159925848133
 31
0.0
  0
LINE
  5
52
330
22
100
AcDbEntity
  8
0
100
AcDbLine
 10
31.59973089678115
 20
-13.77159925848147
 30
0.0
 11
23.6715276665056
 21
-13.77159925848144
 31
0.0
  0
LINE
  5
53
330
22
100
AcDbEntity
  8
0
100
AcDbLine
 10
23.56565672307022
 20
-9.51278021337896
 30
0.0
 11
24.4388546544846
 21
-12.77159925848144
 31
0.0
  0
LINE
  5
54
330
22
100
AcDbEntity
  8
0
100
AcDbLine
 10
22.59973089678116
 20
-9.771599258481472
 30
0.0
 11
18.59973089678112
 21
-9.771599258481472
 31
0.0
  0
LINE
  5
55
330
22
100
AcDbEntity
  8
0
100
AcDbLine
 10
18.59973089678115
 20
-13.77159925848144
 30
0.0
 11
17.59973089678115
 21
-13.77159925848144
 31
0.0
  0
LINE
  5
56
330
22
100
AcDbEntity
  8
0
100
AcDbLine
 10
18.59973089678115
 20
-9.771599258481472
 30
0.0
 11
18.59973089678115
 21
-13.77159925848144
 31
0.0
  0
LINE
  5
57
330
22
100
AcDbEntity
  8
0
100
AcDbLine
 10
22.59973089678116
 20
-9.771599258481472
 30
0.0
 11
23.67152766650562
 21
-13.77159925848147
 31
0.0
  0
ARC
  5
58
330
22
100
AcDbEntity
  8
0
100
AcDbCircle
 10
22.59973089678116
 20
-7.271599258481472
 30
0.0
 40
2.5
100
AcDbArc
 50
270.0
 51
270.0000000000007
  0
LINE
  5
59
330
22
100
AcDbEntity
  8
0
100
AcDbLine
 10
28.77130377203494
 20
-12.77159925848147
 30
0.0
 11
24.43885465448463
 21
-12.77159925848144
 31
0.0
  0
LINE
  5
5A
330
22
100
AcDbEntity
  8
0
100
AcDbLine
 10
3.599730896781125
 20
-4.771599258481472
 30
0.0
 11
2.599730896781125
 21
-4.771599258481472
 31
0.0
  0
LINE
  5
5B
330
22
100
AcDbEntity
  8
0
100
AcDbLine
 10
22.59973089678116
 20
-8.771599258481472
 30
0.0
 11
18.59973089678115
 21
-8.771599258481472
 31
0.0
  0
LINE
  5
5C
330
22
100
AcDbEntity
  8
0
100
AcDbLine
 10
22.59973089678116
 20
-5.771599258481472
 30
0.0
 11
18.59973089678115
 21
-5.771599258481472
 31
0.0
  0
LINE
  5
5D
330
22
100
AcDbEntity
  8
0
100
AcDbLine
 10
22.59973089678116
 20
-4.771599258481472
 30
0.0
 11
17.59973089678115
 21
-4.771599258481472
 31
0.0
  0
LINE
  5
5E
330
22
100
AcDbEntity
  8
0
100
AcDbLine
 10
18.59973089678115
 20
-5.771599258481472
 30
0.0
 11
18.59973089678115
 21
-8.771599258481472
 31
0.0
  0
ARC
  5
5F
330
22
100
AcDbEntity
  8
0
100
AcDbCircle
 10
22.59973089678116
 20
-7.271599258481472
 30
0.0
 40
1.5
100
AcDbArc
 50
270.0
 51
90.0
  0
ENDBLK
  5
60
330
22
100
AcDbEntity
  8
0
100
AcDbBlockEnd
  0
BLOCK
  5
1F3
330
1E9
100
AcDbEntity
  8
0
100
AcDbBlockBegin
  2
*D1
 70
     1
 10
0.0
 20
0.0
 30
0.0
  3
*D1
  1

  0
LINE
  5
11BE
330
1E9
100
AcDbEntity
  8
BEM
 62
     0
370
    -2
100
AcDbLine
 10
141.3674407568186
 20
215.8455749896798
 30
0.0
 11
141.3674407568186
 21
183.7937244778023
 31
0.0
  0
LINE
  5
11BF
330
1E9
100
AcDbEntity
  8
BEM
 62
     0
370
    -2
100
AcDbLine
 10
274.3674407568191
 20
215.84557498968
 30
0.0
 11
274.3674407568191
 21
183.7937244778023
 31
0.0
  0
LINE
  5
11C0
330
1E9
100
AcDbEntity
  8
BEM
 62
     0
370
    -2
100
AcDbLine
 10
148.3674407568186
 20
185.7937244778023
 30
0.0
 11
267.3674407568191
 21
185.7937244778023
 31
0.0
  0
SOLID
  5
11C1
330
1E9
100
AcDbEntity
  8
BEM
 62
     0
100
AcDbTrace
 10
148.3674407568186
 20
186.960391144469
 30
0.0
 11
148.3674407568186
 21
184.6270578111357
 31
0.0
 12
141.3674407568186
 22
185.7937244778023
 32
0.0
 13
141.3674407568186
 23
185.7937244778023
 33
0.0
  0
SOLID
  5
11C2
330
1E9
100
AcDbEntity
  8
BEM
 62
     0
100
AcDbTrace
 10
267.3674407568191
 20
186.960391144469
 30
0.0
 11
267.3674407568191
 21
184.6270578111357
 31
0.0
 12
274.3674407568191
 22
185.7937244778023
 32
0.0
 13
274.3674407568191
 23
185.7937244778023
 33
0.0
  0
MTEXT
  5
11C3
330
1E9
100
AcDbEntity
  8
BEM
 62
     1
100
AcDbMText
 10
207.8674407568188
 20
192.2937244778023
 30
0.0
 40
7.0
 41
0.0
 71
     5
 72
     1
  1
\A1;%%c133
 73
     1
 44
1.0
  0
POINT
  5
11C4
330
1E9
100
AcDbEntity
  8
DEFPOINTS
 62
     0
100
AcDbPoint
 10
141.3674407568186
 20
217.8455749896798
 30
0.0
  0
POINT
  5
11C5
330
1E9
100
AcDbEntity
  8
DEFPOINTS
 62
     0
100
AcDbPoint
 10
274.3674407568191
 20
217.84557498968
 30
0.0
  0
POINT
  5
11C6
330
1E9
100
AcDbEntity
  8
DEFPOINTS
 62
     0
100
AcDbPoint
 10
274.3674407568191
 20
185.7937244778023
 30
0.0
  0
ENDBLK
  5
1F4
330
1E9
100
AcDbEntity
  8
0
100
AcDbBlockEnd
  0
BLOCK
  5
BD4
330
BCA
100
AcDbEntity
  8
0
100
AcDbBlockBegin
  2
*D3
 70
     1
 10
0.0
 20
0.0
 30
0.0
  3
*D3
  1

  0
LINE
  5
11B5
330
BCA
100
AcDbEntity
  8
BEM
 62
     0
370
    -2
100
AcDbLine
 10
206.1353899492499
 20
358.84557498968
 30
0.0
 11
114.6616200541972
 21
411.6579806623902
 31
0.0
  0
LINE
  5
11B6
330
BCA
100
AcDbEntity
  8
BEM
 62
     0
370
    -2
100
AcDbLine
 10
219.0802817226447
 20
524.5769189965677
 30
0.0
 11
189.6616200542064
 21
541.5617912300429
 31
0.0
  0
LINE
  5
11B7
330
BCA
100
AcDbEntity
  8
BEM
 62
     0
370
    -2
100
AcDbLine
 10
119.8936708617666
 20
416.7201584888809
 30
0.0
 11
187.8936708617746
 21
534.4996134035519
 31
0.0
  0
SOLID
  5
11B8
330
BCA
100
AcDbEntity
  8
BEM
 62
     0
100
AcDbTrace
 10
118.8833078906848
 20
417.3034918222144
 30
0.0
 11
120.9040338328484
 21
416.1368251555475
 31
0.0
 12
116.393670861766
 22
410.6579806623901
 32
0.0
 13
116.393670861766
 23
410.6579806623901
 33
0.0
  0
SOLID
  5
11B9
330
BCA
100
AcDbEntity
  8
BEM
 62
     0
100
AcDbTrace
 10
186.8833078906927
 20
535.0829467368854
 30
0.0
 11
188.9040338328564
 21
533.9162800702186
 31
0.0
 12
191.3936708617752
 22
540.5617912300427
 32
0.0
 13
191.3936708617752
 23
540.5617912300427
 33
0.0
  0
MTEXT
  5
11BA
330
BCA
100
AcDbEntity
  8
BEM
 62
     1
100
AcDbMText
 10
148.264505737172
 20
478.859885946217
 30
0.0
 40
7.0
 41
0.0
 71
     5
 72
     1
  1
\A1;150
 11
0.500000000000084
 21
0.8660254037843902
 31
0.0
 73
     1
 44
1.0
  0
POINT
  5
11BB
330
BCA
100
AcDbEntity
  8
DEFPOINTS
 62
     0
100
AcDbPoint
 10
207.8674407568186
 20
357.8455749896798
 30
0.0
  0
POINT
  5
11BC
330
BCA
100
AcDbEntity
  8
DEFPOINTS
 62
     0
100
AcDbPoint
 10
220.8123325302135
 20
523.5769189965675
 30
0.0
  0
POINT
  5
11BD
330
BCA
100
AcDbEntity
  8
DEFPOINTS
 62
     0
100
AcDbPoint
 10
191.3936708617752
 20
540.5617912300427
 30
0.0
  0
ENDBLK
  5
BD5
330
BCA
100
AcDbEntity
  8
0
100
AcDbBlockEnd
  0
BLOCK
  5
CD0
330
CC6
100
AcDbEntity
  8
0
100
AcDbBlockBegin
  2
*D4
 70
     1
 10
0.0
 20
0.0
 30
0.0
  3
*D4
  1

  0
LINE
  5
1196
330
CC6
100
AcDbEntity
  8
BEM
 62
     0
370
    -2
100
AcDbLine
 10
140.2423273920777
 20
207.8455749896797
 30
0.0
 11
106.0849069036274
 21
207.8455749896797
 31
0.0
  0
LINE
  5
1197
330
CC6
100
AcDbEntity
  8
BEM
 62
     0
370
    -2
100
AcDbLine
 10
205.8674407568186
 20
357.8455749896798
 30
0.0
 11
106.0849069036275
 21
357.8455749896798
 31
0.0
  0
LINE
  5
1198
330
CC6
100
AcDbEntity
  8
BEM
 62
     0
370
    -2
100
AcDbLine
 10
108.0849069036274
 20
214.8455749896797
 30
0.0
 11
108.0849069036274
 21
350.8455749896798
 31
0.0
  0
SOLID
  5
1199
330
CC6
100
AcDbEntity
  8
BEM
 62
     0
100
AcDbTrace
 10
106.9182402369607
 20
214.8455749896797
 30
0.0
 11
109.2515735702941
 21
214.8455749896797
 31
0.0
 12
108.0849069036274
 22
207.8455749896797
 32
0.0
 13
108.0849069036274
 23
207.8455749896797
 33
0.0
  0
SOLID
  5
119A
330
CC6
100
AcDbEntity
  8
BEM
 62
     0
100
AcDbTrace
 10
106.9182402369608
 20
350.8455749896798
 30
0.0
 11
109.2515735702941
 21
350.8455749896798
 31
0.0
 12
108.0849069036275
 22
357.8455749896798
 32
0.0
 13
108.0849069036275
 23
357.8455749896798
 33
0.0
  0
MTEXT
  5
119B
330
CC6
100
AcDbEntity
  8
BEM
 62
     1
100
AcDbMText
 10
101.5849069036274
 20
282.8455749896798
 30
0.0
 40
7.0
 41
0.0
 71
     5
 72
     1
  1
\A1;150
 11
0.0000000000000001
 21
1.0
 31
0.0
 73
     1
 44
1.0
  0
POINT
  5
119C
330
CC6
100
AcDbEntity
  8
DEFPOINTS
 62
     0
100
AcDbPoint
 10
142.2423273920777
 20
207.8455749896797
 30
0.0
  0
POINT
  5
119D
330
CC6
100
AcDbEntity
  8
DEFPOINTS
 62
     0
100
AcDbPoint
 10
207.8674407568186
 20
357.8455749896798
 30
0.0
  0
POINT
  5
119E
330
CC6
100
AcDbEntity
  8
DEFPOINTS
 62
     0
100
AcDbPoint
 10
108.0849069036275
 20
357.8455749896798
 30
0.0
  0
ENDBLK
  5
CD1
330
CC6
100
AcDbEntity
  8
0
100
AcDbBlockEnd
  0
BLOCK
  5
1014
330
1008
100
AcDbEntity
  8
0
100
AcDbBlockBegin
  2
*D5
 70
     1
 10
0.0
 20
0.0
 30
0.0
  3
*D5
  1

  0
LINE
  5
118B
330
1008
100
AcDbEntity
  8
BEM
 62
     0
370
    -2
100
AcDbLine
 10
286.3674407568186
 20
493.8115633838365
 30
0.0
 11
304.3365106644375
 21
524.9349054285898
 31
0.0
  0
LINE
  5
118C
330
1008
100
AcDbEntity
  8
BEM
 62
     0
370
    -2
100
AcDbLine
 10
207.8674407568186
 20
359.8455749896798
 30
0.0
 11
207.8674407568187
 21
550.7837148049178
 31
0.0
  0
ARC
  5
118D
330
1008
100
AcDbEntity
  8
BEM
 62
     0
370
    -2
100
AcDbCircle
 10
207.8674407568186
 20
357.8455749896797
 30
0.0
 40
190.9381398152379
100
AcDbArc
 50
62.10064328118808
 51
87.89935671881194
  0
SOLID
  5
118E
330
1008
100
AcDbEntity
  8
BEM
 62
     0
100
AcDbTrace
 10
297.7759093111976
 20
527.6120295666832
 30
0.0
 11
296.6464796722389
 21
525.5702575091099
 31
0.0
 12
303.3365106644375
 22
523.2028546210208
 32
0.0
 13
303.3365106644375
 23
523.2028546210208
 33
0.0
  0
SOLID
  5
118F
330
1008
100
AcDbEntity
  8
BEM
 62
     0
100
AcDbTrace
 10
214.8448789922124
 20
547.4889303508963
 30
0.0
 11
214.8876502618738
 21
549.8218716409712
 31
0.0
 12
207.8674407568186
 22
548.7837148049177
 32
0.0
 13
207.8674407568186
 23
548.7837148049177
 33
0.0
  0
MTEXT
  5
1190
330
1008
100
AcDbEntity
  8
BEM
 62
     1
100
AcDbMText
 10
258.9681915706165
 20
548.55617333169
 30
0.0
 40
7.0
 41
0.0
 71
     5
 72
     1
  1
\A1;30°
 11
0.9659258262890681
 21
-0.2588190451025211
 31
0.0
 73
     1
 44
1.0
  0
POINT
  5
1191
330
1008
100
AcDbEntity
  8
DEFPOINTS
 62
     0
100
AcDbPoint
 10
273.1721307027628
 20
537.2687360006469
 30
0.0
  0
POINT
  5
1192
330
1008
100
AcDbEntity
  8
DEFPOINTS
 62
     0
100
AcDbPoint
 10
207.8674407568186
 20
357.8455749896797
 30
0.0
  0
POINT
  5
1193
330
1008
100
AcDbEntity
  8
DEFPOINTS
 62
     0
100
AcDbPoint
 10
285.3674407568186
 20
492.0795125762675
 30
0.0
  0
POINT
  5
1194
330
1008
100
AcDbEntity
  8
DEFPOINTS
 62
     0
100
AcDbPoint
 10
207.8674407568186
 20
357.8455749896797
 30
0.0
  0
POINT
  5
1195
330
1008
100
AcDbEntity
  8
DEFPOINTS
 62
     0
100
AcDbPoint
 10
207.8674407568186
 20
202.8455749896801
 30
0.0
  0
ENDBLK
  5
1015
330
1008
100
AcDbEntity
  8
0
100
AcDbBlockEnd
  0
ENDSEC
  0
SECTION
  2
ENTITIES
  0
TEXT
  5
134
330
1E
100
AcDbEntity
  8
TEXT
100
AcDbText
 10
204.4216048581257
 20
63.0896391972351
 30
0.0
 40
4.0
  1
Koeh
 41
0.8
  7
GREEKS
 72
     1
 11
209.6787477152686
 21
63.0896391972351
 31
0.0
100
AcDbText
  0
INSERT
  5
135
330
1E
100
AcDbEntity
  8
STEMPEL
100
AcDbBlockReference
  2
LOGO
 10
150.9955485457794
 20
45.02105276448322
 30
0.0
 41
2.0
 42
2.0
 43
2.0
  0
LINE
  5
136
330
1E
100
AcDbEntity
  8
HILF
100
AcDbLine
 10
420.0
 20
0.0
 30
0.0
 11
0.0
 21
0.0
 31
0.0
  0
LINE
  5
137
330
1E
100
AcDbEntity
  8
HILF
100
AcDbLine
 10
419.9999999999999
 20
594.0000000000002
 30
0.0
 11
0.0
 21
594.0
 31
0.0
  0
LINE
  5
138
330
1E
100
AcDbEntity
  8
STEMPEL
100
AcDbLine
 10
410.0
 20
584.0
 30
0.0
 11
39.99999999999989
 21
584.0
 31
0.0
  0
LINE
  5
139
330
1E
100
AcDbEntity
  8
STEMPEL
100
AcDbLine
 10
410.0
 20
10.0
 30
0.0
 11
39.99999999999989
 21
10.0
 31
0.0
  0
LINE
  5
13A
330
1E
100
AcDbEntity
  8
STEMPEL
100
AcDbLine
 10
49.99999999999989
 20
10.0
 30
0.0
 11
410.0
 21
10.0
 31
0.0
  0
TEXT
  5
13B
330
1E
100
AcDbEntity
  8
TEXT
100
AcDbText
 10
202.4626584226295
 20
73.30961091915225
 30
0.0
 40
4.0
  1
Name
 41
0.8
  7
GREEKS
100
AcDbText
  0
TEXT
  5
13C
330
1E
100
AcDbEntity
  8
TEXT
100
AcDbText
 10
196.5498279101549
 20
102.6506227776589
 30
0.0
 40
5.0
  1
Zul. Abw.
 41
0.8
  7
GREEKS
 72
     4
 11
209.9783993387263
 21
105.1506227776589
 31
0.0
100
AcDbText
  0
LINE
  5
13D
330
1E
100
AcDbEntity
  8
HILF
100
AcDbLine
 10
146.0000000000001
 20
49.99999999999997
 30
0.0
 11
230.0
 21
49.99999999999997
 31
0.0
  0
LINE
  5
13E
330
1E
100
AcDbEntity
  8
HILF
100
AcDbLine
 10
146.0000000000001
 20
59.99999999999998
 30
0.0
 11
230.0
 21
59.99999999999998
 31
0.0
  0
LINE
  5
13F
330
1E
100
AcDbEntity
  8
HILF
100
AcDbLine
 10
146.0000000000001
 20
69.99999999999994
 30
0.0
 11
230.0
 21
69.99999999999994
 31
0.0
  0
LINE
  5
140
330
1E
100
AcDbEntity
  8
STEMPEL
100
AcDbLine
 10
410.0
 20
80.0
 30
0.0
 11
146.0000000000001
 21
79.99999999999994
 31
0.0
  0
LINE
  5
141
330
1E
100
AcDbEntity
  8
STEMPEL
100
AcDbLine
 10
410.0
 20
40.0
 30
0.0
 11
146.0000000000001
 21
39.99999999999997
 31
0.0
  0
LINE
  5
142
330
1E
100
AcDbEntity
  8
STEMPEL
100
AcDbLine
 10
410.0
 20
110.0
 30
0.0
 11
39.99999999999997
 21
110.0
 31
0.0
  0
LINE
  5
143
330
1E
100
AcDbEntity
  8
MITTEL
100
AcDbLine
 10
207.8674407568186
 20
357.8455749896798
 30
0.0
 11
207.8674407568186
 21
202.84557498968
 31
0.0
  0
LINE
  5
144
330
1E
100
AcDbEntity
  8
HILF
100
AcDbLine
 10
0.0
 20
0.0
 30
0.0
 11
-0.0000000000001137
 21
594.0
 31
0.0
  0
LINE
  5
145
330
1E
100
AcDbEntity
  8
STEMPEL
100
AcDbLine
 10
40.0
 20
10.0
 30
0.0
 11
39.99999999999989
 21
584.0
 31
0.0
  0
LINE
  5
148
330
1E
100
AcDbEntity
  8
HILF
100
AcDbLine
 10
40.00000000000008
 20
39.99999999999997
 30
0.0
 11
146.0000000000001
 21
39.99999999999997
 31
0.0
  0
LINE
  5
149
330
1E
100
AcDbEntity
  8
HILF
100
AcDbLine
 10
40.00000000000008
 20
49.99999999999997
 30
0.0
 11
146.0000000000001
 21
49.99999999999997
 31
0.0
  0
LINE
  5
14A
330
1E
100
AcDbEntity
  8
HILF
100
AcDbLine
 10
40.00000000000008
 20
59.99999999999998
 30
0.0
 11
146.0000000000001
 21
59.99999999999998
 31
0.0
  0
LINE
  5
14B
330
1E
100
AcDbEntity
  8
HILF
100
AcDbLine
 10
40.00000000000008
 20
69.99999999999994
 30
0.0
 11
146.0000000000001
 21
69.99999999999994
 31
0.0
  0
LINE
  5
14C
330
1E
100
AcDbEntity
  8
HILF
100
AcDbLine
 10
40.00000000000008
 20
79.99999999999994
 30
0.0
 11
146.0000000000001
 21
79.99999999999994
 31
0.0
  0
LINE
  5
14D
330
1E
100
AcDbEntity
  8
HILF
100
AcDbLine
 10
40.00000000000008
 20
90.00000000000005
 30
0.0
 11
146.0000000000001
 21
90.00000000000005
 31
0.0
  0
LINE
  5
14E
330
1E
100
AcDbEntity
  8
HILF
100
AcDbLine
 10
40.00000000000008
 20
100.0
 30
0.0
 11
146.0000000000001
 21
100.0
 31
0.0
  0
LINE
  5
14F
330
1E
100
AcDbEntity
  8
STEMPEL
100
AcDbLine
 10
145.9999999999999
 20
29.99999999999997
 30
0.0
 11
39.99999999999997
 21
29.99999999999997
 31
0.0
  0
TEXT
  5
150
330
1E
100
AcDbEntity
  8
TEXT
100
AcDbText
 10
48.26641107045756
 20
13.65465846027192
 30
0.0
 40
4.0
  1
Index
 50
90.0
 41
0.8
  7
GREEKS
100
AcDbText
  0
LINE
  5
151
330
1E
100
AcDbEntity
  8
VOLL
100
AcDbLine
 10
54.00000000000009
 20
110.0
 30
0.0
 11
53.99999999999998
 21
9.999999999999971
 31
0.0
  0
LINE
  5
152
330
1E
100
AcDbEntity
  8
HILF
100
AcDbLine
 10
31.08767135713856
 20
297.0
 30
0.0
 11
0.0000000000001137
 21
297.0
 31
0.0
  0
LINE
  5
154
330
1E
100
AcDbEntity
  8
VOLL
100
AcDbLine
 10
124.0000000000001
 20
109.9999999999999
 30
0.0
 11
124.0
 21
9.999999999999971
 31
0.0
  0
LINE
  5
155
330
1E
100
AcDbEntity
  8
VOLL
100
AcDbLine
 10
104.0000000000001
 20
109.9999999999999
 30
0.0
 11
104.0
 21
9.999999999999971
 31
0.0
  0
LINE
  5
157
330
1E
100
AcDbEntity
  8
STEMPEL
100
AcDbLine
 10
146.0000000000001
 20
109.9999999999999
 30
0.0
 11
146.0
 21
9.999999999999971
 31
0.0
  0
TEXT
  5
159
330
1E
100
AcDbEntity
  8
TEXT
100
AcDbText
 10
172.331167315365
 20
73.31880501229926
 30
0.0
 40
4.0
  1
Tag
 41
0.8
  7
GREEKS
100
AcDbText
  0
TEXT
  5
15A
330
1E
100
AcDbEntity
  8
TEXT
100
AcDbText
 10
147.5836127167615
 20
63.62990369617964
 30
0.0
 40
4.0
  1
Gez.
 41
0.8
  7
GREEKS
100
AcDbText
  0
LINE
  5
15B
330
1E
100
AcDbEntity
  8
VOLL
100
AcDbLine
 10
164.0000000000001
 20
79.99999999999994
 30
0.0
 11
164.0000000000001
 21
39.99999999999997
 31
0.0
  0
TEXT
  5
15C
330
1E
100
AcDbEntity
  8
TEXT
100
AcDbText
 10
147.6006777387303
 20
43.52946389649807
 30
0.0
 40
4.0
  1
Norm.
 41
0.8
  7
GREEKS
100
AcDbText
  0
TEXT
  5
15D
330
1E
100
AcDbEntity
  8
TEXT
100
AcDbText
 10
147.5515086571672
 20
53.68926291428377
 30
0.0
 40
4.0
  1
Gepr.
 41
0.8
  7
GREEKS
100
AcDbText
  0
TEXT
  5
15E
330
1E
100
AcDbEntity
  8
TEXT
 62
     1
100
AcDbText
 10
160.5006306481887
 20
88.14901428913959
 30
0.0
 40
7.0
  1
1:2
 41
0.8
  7
GREEKS
100
AcDbText
  0
TEXT
  5
160
330
1E
100
AcDbEntity
  8
TEXT
100
AcDbText
 10
148.622109822104
 20
73.14025471151666
 30
0.0
 40
4.0
  1
2011
 41
0.8
  7
GREEKS
100
AcDbText
  0
LINE
  5
161
330
1E
100
AcDbEntity
  8
VOLL
100
AcDbLine
 10
190.0000000000001
 20
109.9999999999998
 30
0.0
 11
190.0
 21
39.99999999999997
 31
0.0
  0
LINE
  5
186
330
1E
100
AcDbEntity
  8
HILF
100
AcDbLine
 10
420.0
 20
-0.0000000000001137
 30
0.0
 11
419.9999999999999
 21
594.0
 31
0.0
  0
LINE
  5
187
330
1E
100
AcDbEntity
  8
STEMPEL
100
AcDbLine
 10
410.0
 20
10.0
 30
0.0
 11
410.0
 21
584.0
 31
0.0
  0
TEXT
  5
188
330
1E
100
AcDbEntity
  8
TEXT
100
AcDbText
 10
337.2400861497006
 20
52.07416177878602
 30
0.0
 40
5.0
  1
ersetzt durch:
 41
0.8
  7
GREEKS
100
AcDbText
  0
TEXT
  5
18A
330
1E
100
AcDbEntity
  8
TEXT
100
AcDbText
 10
336.178754957634
 20
102.3132034537136
 30
0.0
 40
5.0
  1
Zeichnungs Nr.
 41
0.8
  7
GREEKS
100
AcDbText
  0
LINE
  5
18B
330
1E
100
AcDbEntity
  8
HILF
100
AcDbLine
 10
233.4909699289885
 20
14.89398258028314
 30
0.0
 11
404.8588839326728
 21
14.89398258028314
 31
0.0
  0
LINE
  5
18C
330
1E
100
AcDbEntity
  8
HILF
100
AcDbLine
 10
336.7238616296993
 20
83.77983636955827
 30
0.0
 11
404.8588839326728
 21
83.77983636955827
 31
0.0
  0
LINE
  5
18D
330
1E
100
AcDbEntity
  8
VOLL
100
AcDbLine
 10
332.0
 20
60.0
 30
0.0
 11
410.0
 21
60.0
 31
0.0
  0
TEXT
  5
18E
330
1E
100
AcDbEntity
  8
TEXT
 62
     1
100
AcDbText
 10
234.9283864320014
 20
87.41748789253779
 30
0.0
 40
7.0
  1
Bogen DN125 30°
 41
0.8
  7
GREEKS
100
AcDbText
  0
LINE
  5
18F
330
1E
100
AcDbEntity
  8
HILF
100
AcDbLine
 10
234.7736801096948
 20
49.99999999999997
 30
0.0
 11
324.835391655631
 21
49.99999999999997
 31
0.0
  0
LINE
  5
190
330
1E
100
AcDbEntity
  8
HILF
100
AcDbLine
 10
234.7736801096948
 20
59.99999999999998
 30
0.0
 11
324.835391655631
 21
59.99999999999998
 31
0.0
  0
LINE
  5
191
330
1E
100
AcDbEntity
  8
HILF
100
AcDbLine
 10
234.7736801096948
 20
69.99999999999994
 30
0.0
 11
324.835391655631
 21
69.99999999999994
 31
0.0
  0
LINE
  5
192
330
1E
100
AcDbEntity
  8
HILF
100
AcDbLine
 10
234.7736801096948
 20
84.03758247564139
 30
0.0
 11
324.8353916556311
 21
84.03758247564139
 31
0.0
  0
LINE
  5
193
330
1E
100
AcDbEntity
  8
STEMPEL
100
AcDbLine
 10
230.0
 20
110.0
 30
0.0
 11
230.0
 21
9.999999999999971
 31
0.0
  0
TEXT
  5
194
330
1E
100
AcDbEntity
  8
TEXT
100
AcDbText
 10
235.1296391125315
 20
71.50334417585288
 30
0.0
 40
5.0
  1
dünnwandig
 41
0.8
  7
GREEKS
100
AcDbText
  0
TEXT
  5
195
330
1E
100
AcDbEntity
  8
TEXT
100
AcDbText
 10
234.9837501577827
 20
42.62974153022633
 30
0.0
 40
4.0
  1
4330125W.DWG
 41
0.8
  7
GREEKS
100
AcDbText
  0
TEXT
  5
196
330
1E
100
AcDbEntity
  8
TEXT
100
AcDbText
 10
234.742238391136
 20
30.84560570193057
 30
0.0
 40
5.0
  1
Bauvorhaben
 41
0.8
  7
GREEKS
100
AcDbText
  0
TEXT
  5
197
330
1E
100
AcDbEntity
  8
TEXT
100
AcDbText
 10
234.877940380901
 20
102.5489328011779
 30
0.0
 40
5.0
  1
Benennung
 41
0.8
  7
GREEKS
100
AcDbText
  0
LINE
  5
198
330
1E
100
AcDbEntity
  8
STEMPEL
100
AcDbLine
 10
332.0
 20
109.9999999999997
 30
0.0
 11
332.0
 21
40.0
 31
0.0
  0
TEXT
  5
19A
330
1E
100
AcDbEntity
  8
TEXT
 62
     1
100
AcDbText
 10
348.3953973800475
 20
88.14901428913959
 30
0.0
 40
7.0
  1
4330125W
 41
0.8
  7
GREEKS
 72
     1
 11
369.1953973800474
 21
88.14901428913959
 31
0.0
100
AcDbText
  0
LINE
  5
1D4
330
1E
100
AcDbEntity
  8
STEMPEL
100
AcDbLine
 10
273.4925541215594
 20
207.84557498968
 30
0.0
 11
142.2423273920777
 21
207.8455749896797
 31
0.0
  0
LINE
  5
1D6
330
1E
100
AcDbEntity
  8
HILF
100
AcDbLine
 10
272.8674407568186
 20
217.84557498968
 30
0.0
 11
142.8674407568185
 21
217.8455749896801
 31
0.0
  0
LINE
  5
1D7
330
1E
100
AcDbEntity
  8
STEMPEL
100
AcDbLine
 10
141.3674407568186
 20
217.8455749896796
 30
0.0
 11
142.2423273920777
 21
207.8455749896797
 31
0.0
  0
LINE
  5
1D8
330
1E
100
AcDbEntity
  8
STEMPEL
100
AcDbLine
 10
274.3674407568185
 20
217.8455749896804
 30
0.0
 11
273.4925541215594
 21
207.84557498968
 31
0.0
  0
DIMENSION
  5
1E8
330
1E
100
AcDbEntity
  8
BEM
100
AcDbDimension
  2
*D1
 10
274.3674407568191
 20
185.7937244778023
 30
0.0
 11
207.8674407568188
 21
192.2937244778023
 31
0.0
 70
    32
  1
%%c<>
 71
     5
 42
133.0000000000004
  3
Standard
100
AcDbAlignedDimension
 13
141.3674407568186
 23
217.8455749896798
 33
0.0
 14
274.3674407568191
 24
217.84557498968
 34
0.0
100
AcDbRotatedDimension
1001
ACAD
1000
DSTYLE
1002
{
1070
    40
1040
2.0
1070
    41
1040
3.5
1070
    42
1040
1.0
1070
    43
1040
7.0
1070
    44
1040
1.0
1070
    73
1070
     0
1070
    74
1070
     0
1070
    77
1070
     1
1070
    78
1070
     8
1070
    79
1070
     2
1070
   140
1040
3.5
1070
   141
1040
1.5
1070
   146
1040
0.5142857142857144
1070
   147
1040
1.5
1070
   172
1070
     1
1070
   178
1070
     1
1070
   179
1070
     2
1070
   271
1070
     2
1070
   272
1070
     2
1070
   284
1070
     8
1070
   285
1070
     8
1070
   286
1070
     8
1002
}
  0
TEXT
  5
212
330
1E
100
AcDbEntity
  8
TEXT
100
AcDbText
 10
235.1296391125315
 20
51.50334417585292
 30
0.0
 40
5.0
  1
EDV-Art.Nr. 4.330.125C
 41
0.8
  7
GREEKS
100
AcDbText
  0
TEXT
  5
255
330
1E
100
AcDbEntity
  8
TEXT
 62
     1
100
AcDbText
 10
297.9974873842989
 20
131.2276367653921
 30
0.0
 40
7.0
  1
Werkstoff: 1.4301
 41
0.8
  7
GREEKS
100
AcDbText
  0
LINE
  5
952
102
{ACAD_REACTORS
330
101E
102
}
330
1E
100
AcDbEntity
  8
STEMPEL
100
AcDbLine
 10
141.3674407568187
 20
375.6641962863497
 30
0.0
 11
141.3674407568185
 21
217.8455749896798
 31
0.0
  0
LINE
  5
953
102
{ACAD_REACTORS
330
1024
102
}
330
1E
100
AcDbEntity
  8
STEMPEL
100
AcDbLine
 10
274.3674407568186
 20
340.0269536930105
 30
0.0
 11
274.3674407568186
 21
217.8455749896802
 31
0.0
  0
LINE
  5
9FA
330
1E
100
AcDbEntity
  8
STEMPEL
100
AcDbLine
 10
344.922548983424
 20
451.9218521181236
 30
0.0
 11
220.8123325302133
 21
523.5769189965675
 31
0.0
  0
TEXT
  5
9FB
330
1E
100
AcDbEntity
  8
TEXT
 62
     1
100
AcDbText
 10
252.6003174253406
 20
459.4694056608106
 30
0.0
 40
7.0
  1
DN125
 50
59.99999999999996
 41
0.8
  7
GREEKS
100
AcDbText
  0
LINE
  5
9FC
330
1E
100
AcDbEntity
  8
HILF
100
AcDbLine
 10
306.7387973308548
 20
392.2660240810387
 30
0.0
 11
188.2407457925865
 21
460.6809060351042
 31
0.0
  0
LINE
  5
9FD
330
1E
100
AcDbEntity
  8
HILF
100
AcDbLine
 10
300.760548420206
 20
387.8729174545687
 30
0.0
 11
187.4253283078536
 21
453.3070372951009
 31
0.0
  0
LINE
  5
9FE
330
1E
100
AcDbEntity
  8
HILF
100
AcDbLine
 10
318.7900114596862
 20
410.9795706519516
 30
0.0
 11
198.4215454534844
 21
480.4743369025747
 31
0.0
  0
LINE
  5
A00
102
{ACAD_REACTORS
330
101E
102
}
330
1E
100
AcDbEntity
  8
STEMPEL
100
AcDbLine
 10
184.9372972322535
 20
451.1294013802862
 30
0.0
 11
141.3674407568187
 21
375.6641962863497
 31
0.0
  0
ARC
  5
A01
330
1E
100
AcDbEntity
  8
STEMPEL
100
AcDbCircle
 10
236.2290834605025
 20
498.9693811385751
 30
0.0
 40
29.0
100
AcDbArc
 50
125.0000000000069
 51
149.9999999999999
  0
LINE
  5
A02
330
1E
100
AcDbEntity
  8
STEMPEL
100
AcDbLine
 10
195.3126497900157
 20
477.1000391567705
 30
0.0
 11
188.5442634289811
 21
465.3768500942022
 31
0.0
  0
ARC
  5
A03
330
1E
100
AcDbEntity
  8
STEMPEL
100
AcDbCircle
 10
203.2666952933166
 20
456.8768500942019
 30
0.0
 40
17.0
100
AcDbArc
 50
149.9999999999999
 51
181.586338096528
  0
ARC
  5
A04
330
1E
100
AcDbEntity
  8
STEMPEL
100
AcDbCircle
 10
176.2770431944089
 20
456.1294013802863
 30
0.0
 40
10.0
100
AcDbArc
 50
330.0
 51
1.586338096527933
  0
ARC
  5
A05
330
1E
100
AcDbEntity
  8
STEMPEL
100
AcDbCircle
 10
226.6757721827346
 20
482.4225606249604
 30
0.0
 40
29.0
100
AcDbArc
 50
149.9999999999999
 51
175.1711477430577
  0
ARC
  5
A06
330
1E
100
AcDbEntity
  8
STEMPEL
100
AcDbCircle
 10
178.8581671181116
 20
486.6000391567705
 30
0.0
 40
19.0
100
AcDbArc
 50
330.0
 51
355.2271443659078
  0
LINE
  5
A07
330
1E
100
AcDbEntity
  8
STEMPEL
100
AcDbLine
 10
211.1143467507538
 20
513.4693811385751
 30
0.0
 11
201.5610354729858
 21
496.9225606249603
 31
0.0
  0
LINE
  5
A08
330
1E
100
AcDbEntity
  8
STEMPEL
100
AcDbLine
 10
220.8123325302135
 20
523.5769189965675
 30
0.0
 11
219.5953668063222
 21
522.7247904229558
 31
0.0
  0
POINT
  5
A09
330
1E
100
AcDbEntity
  8
STEMPEL
100
AcDbPoint
 10
222.245662491908
 20
522.7493855573455
 30
0.0
  0
LINE
  5
A0A
330
1E
100
AcDbEntity
  8
MITTEL
100
AcDbLine
 10
285.3674407568186
 20
492.0795125762675
 30
0.0
 11
207.8674407568186
 21
357.8455749896798
 31
0.0
  0
LINE
  5
A0B
102
{ACAD_REACTORS
330
1024
102
}
330
1E
100
AcDbEntity
  8
STEMPEL
100
AcDbLine
 10
300.1186759355837
 20
384.6294013802864
 30
0.0
 11
274.3674407568186
 21
340.0269536930105
 31
0.0
  0
ARC
  5
A0C
330
1E
100
AcDbEntity
  8
STEMPEL
100
AcDbCircle
 10
315.9034206086707
 20
452.9693811385747
 30
0.0
 40
29.0
100
AcDbArc
 50
330.0
 51
354.999999999993
  0
LINE
  5
A0D
330
1E
100
AcDbEntity
  8
STEMPEL
100
AcDbLine
 10
317.4222317236215
 20
406.6000391567703
 30
0.0
 11
310.6538453625869
 21
394.8768500942019
 31
0.0
  0
ARC
  5
A0E
330
1E
100
AcDbEntity
  8
STEMPEL
100
AcDbCircle
 10
308.778929973428
 20
379.6294013802861
 30
0.0
 40
10.0
100
AcDbArc
 50
118.4136619034719
 51
149.9999999999999
  0
ARC
  5
A0F
330
1E
100
AcDbEntity
  8
STEMPEL
100
AcDbCircle
 10
295.9314134982514
 20
403.3768500942022
 30
0.0
 40
17.0
100
AcDbArc
 50
298.4136619034718
 51
330.0
  0
ARC
  5
A10
330
1E
100
AcDbEntity
  8
STEMPEL
100
AcDbCircle
 10
306.350109330903
 20
436.4225606249602
 30
0.0
 40
29.0
100
AcDbArc
 50
304.8288522569422
 51
330.0
  0
ARC
  5
A11
330
1E
100
AcDbEntity
  8
STEMPEL
100
AcDbCircle
 10
333.8767143955261
 20
397.1000391567704
 30
0.0
 40
19.0
100
AcDbArc
 50
124.772855634092
 51
149.9999999999999
  0
LINE
  5
A12
330
1E
100
AcDbEntity
  8
STEMPEL
100
AcDbLine
 10
341.0181573184194
 20
438.4693811385748
 30
0.0
 11
331.4648460406516
 21
421.9225606249601
 31
0.0
  0
LINE
  5
A13
330
1E
100
AcDbEntity
  8
STEMPEL
100
AcDbLine
 10
344.9225489834238
 20
451.9218521181235
 30
0.0
 11
344.7930668533313
 21
450.4418645988929
 31
0.0
  0
ARC
  5
B9A
330
1E
100
AcDbEntity
  8
SCHRAFF
100
AcDbCircle
 10
255.9439968154159
 20
344.9635006189092
 30
0.0
 40
10.0
100
AcDbArc
 50
324.5126848852786
 51
5.487315114723283
  0
ARC
  5
B9B
330
1E
100
AcDbEntity
  8
SCHRAFF
100
AcDbCircle
 10
246.2847385525253
 20
347.5516910699348
 30
0.0
 40
10.0
100
AcDbArc
 50
324.5126848852773
 51
5.487315114722641
  0
ARC
  5
B9C
330
1E
100
AcDbEntity
  8
SCHRAFF
100
AcDbCircle
 10
236.6254802896345
 20
350.1398815209599
 30
0.0
 40
10.0
100
AcDbArc
 50
324.5126848852773
 51
5.487315114722641
  0
ARC
  5
B9D
330
1E
100
AcDbEntity
  8
SCHRAFF
100
AcDbCircle
 10
226.9662220267437
 20
352.728071971985
 30
0.0
 40
10.0
100
AcDbArc
 50
324.5126848852784
 51
5.487315114723283
  0
ARC
  5
B9E
330
1E
100
AcDbEntity
  8
SCHRAFF
100
AcDbCircle
 10
217.3069637638531
 20
355.3162624230103
 30
0.0
 40
10.0
100
AcDbArc
 50
324.5126848852775
 51
5.487315114722641
  0
ARC
  5
B9F
330
1E
100
AcDbEntity
  8
SCHRAFF
100
AcDbCircle
 10
178.6699307122904
 20
365.6690242271113
 30
0.0
 40
10.0
100
AcDbArc
 50
324.5126848852775
 51
5.487315114722641
  0
ARC
  5
BA0
330
1E
100
AcDbEntity
  8
SCHRAFF
100
AcDbCircle
 10
188.3291889751811
 20
363.0808337760858
 30
0.0
 40
10.0
100
AcDbArc
 50
324.5126848852784
 51
5.487315114723283
  0
ARC
  5
BA1
330
1E
100
AcDbEntity
  8
SCHRAFF
100
AcDbCircle
 10
207.6477055009625
 20
357.9044528740356
 30
0.0
 40
10.0
100
AcDbArc
 50
324.5126848852773
 51
5.487315114722641
  0
ARC
  5
BA2
330
1E
100
AcDbEntity
  8
SCHRAFF
100
AcDbCircle
 10
197.9884472380717
 20
360.4926433250609
 30
0.0
 40
10.0
100
AcDbArc
 50
324.5126848852773
 51
5.487315114722641
  0
ARC
  5
BA5
330
1E
100
AcDbEntity
  8
SCHRAFF
100
AcDbCircle
 10
140.0328976607277
 20
376.0217860312123
 30
0.0
 40
10.0
100
AcDbArc
 50
324.5126848852773
 51
5.487315114722641
  0
ARC
  5
BA6
330
1E
100
AcDbEntity
  8
SCHRAFF
100
AcDbCircle
 10
149.6921559236183
 20
373.4335955801871
 30
0.0
 40
10.0
100
AcDbArc
 50
324.5126848852773
 51
5.487315114722641
  0
ARC
  5
BA7
330
1E
100
AcDbEntity
  8
SCHRAFF
100
AcDbCircle
 10
159.3514141865089
 20
370.8454051291619
 30
0.0
 40
10.0
100
AcDbArc
 50
324.5126848852775
 51
5.487315114722641
  0
ARC
  5
BA8
330
1E
100
AcDbEntity
  8
SCHRAFF
100
AcDbCircle
 10
169.0106724493996
 20
368.2572146781364
 30
0.0
 40
10.0
100
AcDbArc
 50
324.5126848852784
 51
5.487315114723283
  0
DIMENSION
  5
BC9
330
1E
100
AcDbEntity
  8
BEM
100
AcDbDimension
  2
*D3
 10
191.3936708617752
 20
540.5617912300427
 30
0.0
 11
148.264505737172
 21
478.859885946217
 31
0.0
 70
    32
 71
     5
 42
149.9999999999931
 51
357.0
  3
Standard
100
AcDbAlignedDimension
 13
207.8674407568186
 23
357.8455749896798
 33
0.0
 14
220.8123325302135
 24
523.5769189965675
 34
0.0
 50
59.99999999999441
100
AcDbRotatedDimension
1001
ACAD
1000
DSTYLE
1002
{
1070
    40
1040
2.0
1070
    41
1040
3.5
1070
    42
1040
1.0
1070
    43
1040
7.0
1070
    44
1040
1.0
1070
    73
1070
     0
1070
    74
1070
     0
1070
    77
1070
     1
1070
    78
1070
     8
1070
    79
1070
     2
1070
   140
1040
3.5
1070
   141
1040
1.5
1070
   146
1040
0.5142857142857144
1070
   147
1040
1.5
1070
   172
1070
     1
1070
   178
1070
     1
1070
   179
1070
     2
1070
   271
1070
     2
1070
   272
1070
     2
1070
   284
1070
     8
1070
   285
1070
     8
1070
   286
1070
     8
1002
}
  0
DIMENSION
  5
CC5
330
1E
100
AcDbEntity
  8
BEM
100
AcDbDimension
  2
*D4
 10
108.0849069036275
 20
357.8455749896798
 30
0.0
 11
101.5849069036274
 21
282.8455749896798
 31
0.0
 70
    32
 71
     5
 42
150.0000000000001
  3
Standard
100
AcDbAlignedDimension
 13
142.2423273920777
 23
207.8455749896797
 33
0.0
 14
207.8674407568186
 24
357.8455749896798
 34
0.0
 50
90.0
100
AcDbRotatedDimension
1001
ACAD
1000
DSTYLE
1002
{
1070
    40
1040
2.0
1070
    41
1040
3.5
1070
    42
1040
1.0
1070
    43
1040
7.0
1070
    44
1040
1.0
1070
    73
1070
     0
1070
    74
1070
     0
1070
    77
1070
     1
1070
    78
1070
     8
1070
    79
1070
     2
1070
   140
1040
3.5
1070
   141
1040
1.5
1070
   146
1040
0.5142857142857144
1070
   147
1040
1.5
1070
   172
1070
     1
1070
   178
1070
     1
1070
   179
1070
     2
1070
   271
1070
     2
1070
   272
1070
     2
1070
   284
1070
     8
1070
   285
1070
     8
1070
   286
1070
     8
1002
}
  0
LINE
  5
FAA
330
1E
100
AcDbEntity
  8
STEMPEL
100
AcDbLine
 10
274.3674407568186
 20
340.0269536930105
 30
0.0
 11
141.3674407568187
 21
375.6641962863497
 31
0.0
  0
DIMENSION
  5
1007
330
1E
100
AcDbEntity
  8
BEM
100
AcDbDimension
  2
*D5
 10
207.8674407568186
 20
202.84557498968
 30
0.0
 11
258.9681915706165
 21
548.55617333169
 31
0.0
 70
    34
 71
     5
 42
0.5235987755982983
  3
Standard
100
AcDb2LineAngularDimension
 13
285.3674407568186
 23
492.0795125762675
 33
0.0
 14
207.8674407568186
 24
357.8455749896798
 34
0.0
 15
207.8674407568186
 25
357.8455749896798
 35
0.0
 16
273.1721307027628
 26
537.2687360006469
 36
0.0
1001
ACAD
1000
DSTYLE
1002
{
1070
    40
1040
2.0
1070
    41
1040
3.5
1070
    42
1040
1.0
1070
    43
1040
7.0
1070
    44
1040
1.0
1070
    73
1070
     0
1070
    74
1070
     0
1070
    77
1070
     1
1070
    78
1070
     8
1070
    79
1070
     2
1070
   140
1040
3.5
1070
   141
1040
1.5
1070
   146
1040
0.5142857142857144
1070
   147
1040
1.5
1070
   172
1070
     1
1070
   178
1070
     1
1070
   179
1070
     2
1070
   271
1070
     2
1070
   272
1070
     2
1070
   284
1070
     8
1070
   285
1070
     8
1070
   286
1070
     8
1002
}
  0
ARC
  5
1018
102
{ACAD_REACTORS
330
101E
102
}
330
1E
100
AcDbEntity
  8
SCHRAFF
100
AcDbCircle
 10
144.1634936665712
 20
374.9149961671868
 30
0.0
 40
4.009902724219852
100
AcDbArc
 50
104.2097402601402
 51
225.7902597398596
  0
HATCH
  5
101E
330
1E
100
AcDbEntity
  8
SCHRAFF
100
AcDbHatch
 10
0.0
 20
0.0
 30
0.0
210
0.0
220
0.0
230
1.0
  2
_USER
 70
     0
 71
     1
 91
        1
 92
        7
 72
     1
 73
     1
 93
        3
 10
141.3674407568187
 20
372.0407296549144
 42
0.0
 10
141.3674407568187
 20
375.6641962863497
 42
0.0
 10
143.1791740725363
 20
378.8022104389378
 42
0.5865822631702171
 97
        3
330
1018
330
952
330
A00
 75
     0
 76
     0
 52
-0.0000000000000318
 41
0.1
 77
     0
 78
     1
 53
360.0
 43
-0.0000000000002842
 44
0.0000000000001421
 45
0.0000000000000001
 46
0.1
 79
     0
 47
0.0510978215611377
 98
        1
 10
141.0369870733634
 20
376.4387506076608
  0
ARC
  5
101F
102
{ACAD_REACTORS
330
1024
102
}
330
1E
100
AcDbEntity
  8
SCHRAFF
100
AcDbCircle
 10
272.3329000423066
 20
340.572107234432
 30
0.0
 40
4.63861510200601
100
AcDbArc
 50
296.0151962580186
 51
33.98480374198208
  0
HATCH
  5
1024
330
1E
100
AcDbEntity
  8
SCHRAFF
100
AcDbHatch
 10
0.0
 20
0.0
 30
0.0
210
0.0
220
0.0
230
1.0
  2
_USER
 70
     0
 71
     1
 91
        1
 92
        7
 72
     1
 73
     1
 93
        3
 10
276.1791740725363
 20
343.1649678455987
 42
0.0
 10
274.3674407568186
 20
340.0269536930105
 42
0.0
 10
274.3674407568186
 20
336.403487061575
 42
0.4555661110537824
 97
        3
330
A0B
330
953
330
101F
 75
     0
 76
     0
 52
-0.0000000000000318
 41
0.1
 77
     0
 78
     1
 53
360.0
 43
-0.0000000000002842
 44
0.0000000000001421
 45
0.0000000000000001
 46
0.1
 79
     0
 47
0.1079996391014894
 98
        1
 10
275.9189151610221
 20
339.8804070274448
  0
TEXT
  5
104D
330
1E
100
AcDbEntity
  8
TEXT
100
AcDbText
 10
41.85509950977674
 20
111.6719999999999
 30
0.0
 40
5.0
  1
Erstellt mit AUTOCAD 2004
 41
0.8
  7
GREEKS
100
AcDbText
  0
TEXT
  5
104E
330
1E
100
AcDbEntity
  8
TEXT
100
AcDbText
 10
153.5163572150377
 20
102.4620895087088
 30
0.0
 40
5.0
  1
Maßstab
 41
0.8
  7
GREEKS
100
AcDbText
  0
TEXT
  5
104F
330
1E
100
AcDbEntity
  8
TEXT
100
AcDbText
 10
192.6882715247924
 20
89.7791437153694
 30
0.0
 40
4.0
  1
DIN EN1124-3
 41
0.8
  7
GREEKS
 72
     1
 11
209.6787477152686
 21
89.7791437153694
 31
0.0
100
AcDbText
  0
TEXT
  5
1050
330
1E
100
AcDbEntity
  8
TEXT
100
AcDbText
 10
67.65811831396264
 20
18.34829198486668
 30
0.0
 40
4.0
  1
Änderung
 41
0.8
  7
GREEKS
 72
     1
 11
78.40097545681979
 21
18.34829198486668
 31
0.0
100
AcDbText
  0
TEXT
  5
1051
330
1E
100
AcDbEntity
  8
TEXT
100
AcDbText
 10
110.462610504336
 20
18.6715626933981
 30
0.0
 40
4.0
  1
Tag
 41
0.8
  7
GREEKS
 72
     1
 11
114.1959438376693
 21
18.6715626933981
 31
0.0
100
AcDbText
  0
TEXT
  5
1052
330
1E
100
AcDbEntity
  8
TEXT
100
AcDbText
 10
128.9002860979178
 20
18.59324216966408
 30
0.0
 40
4.0
  1
Name
 41
0.8
  7
GREEKS
 72
     1
 11
135.2240956217273
 21
18.59324216966408
 31
0.0
100
AcDbText
  0
TEXT
  5
1053
330
1E
100
AcDbEntity
  8
BEM
100
AcDbText
 10
416.5811541437436
 20
12.14804815338303
 30
0.0
 40
4.0
  1
Diese Zeichnung ist urheberrechtlich geschützt und bleibt unser Eigentum. Sie darf weder ganz noch teilweise vervielfältigt und nicht an Dritte weitergegeben werden.
 50
90.0
 41
0.8
  7
GREEKS
100
AcDbText
  0
TEXT
  5
1054
330
1E
100
AcDbEntity
  8
TEXT
100
AcDbText
 10
336.7238616296993
 20
73.1811823709997
 30
0.0
 40
5.0
  1
Ersatz für:
 41
0.8
  7
GREEKS
100
AcDbText
  0
TEXT
  5
1083
330
1E
100
AcDbEntity
  8
TEXT
100
AcDbText
 10
171.1059845537778
 20
63.29410943275277
 30
0.0
 40
4.24
  1
14.04.
 41
0.8
  7
GREEKS
 72
     1
 11
178.2130321728255
 21
63.29410943275277
 31
0.0
100
AcDbText
  0
LINE
  5
108F
330
1E
100
AcDbEntity
  8
VOLL
100
AcDbLine
 10
206.1353899492498
 20
358.84557498968
 30
0.0
 11
203.5373137378965
 21
360.3455749896804
 31
0.0
  0
LINE
  5
1090
330
1E
100
AcDbEntity
  8
VOLL
100
AcDbLine
 10
205.8674407568186
 20
357.8455749896798
 30
0.0
 11
202.8674407568186
 21
357.8455749896798
 31
0.0
  0
ENDSEC
  0
SECTION
  2
OBJECTS
  0
DICTIONARY
  5
C
330
0
100
AcDbDictionary
281
     1
  3
ACAD_COLOR
350
102D
  3
ACAD_GROUP
350
D
  3
ACAD_LAYOUT
350
19
  3
ACAD_MATERIAL
350
102C
  3
ACAD_MLINESTYLE
350
16
  3
ACAD_PLOTSETTINGS
350
18
  3
ACAD_PLOTSTYLENAME
350
E
  3
AcDbVariableDictionary
350
246
  0
DICTIONARY
  5
102D
102
{ACAD_REACTORS
330
C
102
}
330
C
100
AcDbDictionary
281
     1
  0
DICTIONARY
  5
D
102
{ACAD_REACTORS
330
C
102
}
330
C
100
AcDbDictionary
281
     1
  0
DICTIONARY
  5
19
102
{ACAD_REACTORS
330
C
102
}
330
C
100
AcDbDictionary
281
     1
  3
Layout1
350
1D
  3
Model
350
21
  0
DICTIONARY
  5
102C
102
{ACAD_REACTORS
330
C
102
}
330
C
100
AcDbDictionary
281
     1
  0
DICTIONARY
  5
16
102
{ACAD_REACTORS
330
C
102
}
330
C
100
AcDbDictionary
281
     1
  3
Standard
350
17
  0
DICTIONARY
  5
18
102
{ACAD_REACTORS
330
C
102
}
330
C
100
AcDbDictionary
281
     1
  0
ACDBDICTIONARYWDFLT
  5
E
102
{ACAD_REACTORS
330
C
102
}
330
C
100
AcDbDictionary
281
     1
  3
Normal
350
F
100
AcDbDictionaryWithDefault
340
F
  0
DICTIONARY
  5
246
102
{ACAD_REACTORS
330
C
102
}
330
C
100
AcDbDictionary
281
     1
  3
DIMASSOC
350
1067
  3
PROJECTNAME
350
1068
  3
SORTENTS
350
247
  0
LAYOUT
  5
1D
102
{ACAD_REACTORS
330
19
102
}
330
19
100
AcDbPlotSettings
  1

  2
Tektronix Phaser 740
  4

  6

 40
0.0
 41
0.0
 42
0.0
 43
0.0
 44
0.0
 45
0.0
 46
0.0
 47
0.0
 48
0.0
 49
0.0
140
0.0
141
0.0
142
1.0
143
1.0
 70
   688
 72
     0
 73
     0
 74
     5
  7
monochrome.ctb
 75
    16
147
1.0
 76
     0
 77
     2
 78
   300
148
0.0
149
0.0
100
AcDbLayout
  1
Layout1
 70
     0
 71
     1
 10
0.0
 20
0.0
 11
12.0
 21
9.0
 12
0.0
 22
0.0
 32
0.0
 14
1.000000000000000E+20
 24
1.000000000000000E+20
 34
1.000000000000000E+20
 15
-1.000000000000000E+20
 25
-1.000000000000000E+20
 35
-1.000000000000000E+20
146
0.0
 13
0.0
 23
0.0
 33
0.0
 16
1.0
 26
0.0
 36
0.0
 17
0.0
 27
1.0
 37
0.0
 76
     0
330
1A
  0
LAYOUT
  5
21
102
{ACAD_REACTORS
330
19
102
}
330
19
100
AcDbPlotSettings
  1

  2
Tektronix Phaser 740
  4
A4
  6

 40
5.873749732971191
 41
6.085414409637451
 42
5.577407836914062
 43
5.662078857421875
 44
209.9733276367187
 45
296.9683227539062
 46
0.0
 47
0.0
 48
0.0
 49
0.0
140
0.0
141
0.0
142
1.0
143
1.0
 70
 11952
 72
     0
 73
     1
 74
     0
  7
monochrome.ctb
 75
     0
147
1.0
 76
     0
 77
     2
 78
   300
148
1150.120678237584
149
45.30495740799864
100
AcDbLayout
  1
Model
 70
     1
 71
     0
 10
0.0
 20
0.0
 11
12.0
 21
9.0
 12
0.0
 22
0.0
 32
0.0
 14
0.0
 24
0.0
 34
0.0
 15
0.0
 25
0.0
 35
0.0
146
0.0
 13
0.0
 23
0.0
 33
0.0
 16
1.0
 26
0.0
 36
0.0
 17
0.0
 27
1.0
 37
0.0
 76
     0
330
1E
  0
MLINESTYLE
  5
17
102
{ACAD_REACTORS
330
16
102
}
330
16
100
AcDbMlineStyle
  2
STANDARD
 70
     0
  3

 62
   256
 51
90.0
 52
90.0
 71
     2
 49
0.5
 62
   256
  6
BYLAYER
 49
-0.5
 62
   256
  6
BYLAYER
  0
ACDBPLACEHOLDER
  5
F
102
{ACAD_REACTORS
330
E
102
}
330
E
  0
DICTIONARYVAR
  5
1067
102
{ACAD_REACTORS
330
246
102
}
330
246
100
DictionaryVariables
280
     0
  1
1
  0
DICTIONARYVAR
  5
1068
102
{ACAD_REACTORS
330
246
102
}
330
246
100
DictionaryVariables
280
     0
  1

  0
DICTIONARYVAR
  5
247
102
{ACAD_REACTORS
330
246
102
}
330
246
100
DictionaryVariables
280
     0
  1
96
  0
ENDSEC
  0
EOF
