  0
SECTION
  2
HEADER
  9
$ACADVER
  1
AC1018
  9
$ACADMAINTVER
 70
     2
  9
$DWGCODEPAGE
  3
ANSI_1252
  9
$INSBASE
 10
0.0
 20
0.0
 30
0.0
  9
$EXTMIN
 10
-0.0302383873529379
 20
-0.0181260584133725
 30
-0.0015258207003583
  9
$EXTMAX
 10
420.0131314603662
 20
594.0181288244416
 30
0.0000000349246037
  9
$LIMMIN
 10
0.0
 20
0.0
  9
$LIMMAX
 10
419.9999999999999
 20
594.0000000000002
  9
$ORTHOMODE
 70
     0
  9
$REGENMODE
 70
     1
  9
$FILLMODE
 70
     1
  9
$QTEXTMODE
 70
     0
  9
$MIRRTEXT
 70
     1
  9
$LTSCALE
 40
20.0
  9
$ATTMODE
 70
     1
  9
$TEXTSIZE
 40
3.5
  9
$TRACEWID
 40
0.5
  9
$TEXTSTYLE
  7
STANDARD
  9
$CLAYER
  8
BEM
  9
$CELTYPE
  6
ByLayer
  9
$CECOLOR
 62
   256
  9
$CELTSCALE
 40
1.0
  9
$DISPSILH
 70
     0
  9
$DIMSCALE
 40
2.0
  9
$DIMASZ
 40
3.5
  9
$DIMEXO
 40
1.0
  9
$DIMDLI
 40
7.0
  9
$DIMRND
 40
0.0
  9
$DIMDLE
 40
0.0
  9
$DIMEXE
 40
1.0
  9
$DIMTP
 40
0.0
  9
$DIMTM
 40
0.0
  9
$DIMTXT
 40
3.5
  9
$DIMCEN
 40
1.5
  9
$DIMTSZ
 40
0.0
  9
$DIMTOL
 70
     0
  9
$DIMLIM
 70
     0
  9
$DIMTIH
 70
     0
  9
$DIMTOH
 70
     0
  9
$DIMSE1
 70
     0
  9
$DIMSE2
 70
     0
  9
$DIMTAD
 70
     1
  9
$DIMZIN
 70
     8
  9
$DIMBLK
  1

  9
$DIMASO
 70
     1
  9
$DIMSHO
 70
     0
  9
$DIMPOST
  1

  9
$DIMAPOST
  1

  9
$DIMALT
 70
     0
  9
$DIMALTD
 70
     2
  9
$DIMALTF
 40
25.4
  9
$DIMLFAC
 40
1.0
  9
$DIMTOFL
 70
     1
  9
$DIMTVP
 40
0.0
  9
$DIMTIX
 70
     0
  9
$DIMSOXD
 70
     0
  9
$DIMSAH
 70
     0
  9
$DIMBLK1
  1

  9
$DIMBLK2
  1

  9
$DIMSTYLE
  2
Standard
  9
$DIMCLRD
 70
     0
  9
$DIMCLRE
 70
     0
  9
$DIMCLRT
 70
     1
  9
$DIMTFAC
 40
0.5142857142857144
  9
$DIMGAP
 40
1.5
  9
$DIMJUST
 70
     0
  9
$DIMSD1
 70
     0
  9
$DIMSD2
 70
     0
  9
$DIMTOLJ
 70
     1
  9
$DIMTZIN
 70
     8
  9
$DIMALTZ
 70
     8
  9
$DIMALTTZ
 70
     8
  9
$DIMUPT
 70
     0
  9
$DIMDEC
 70
     2
  9
$DIMTDEC
 70
     2
  9
$DIMALTU
 70
     2
  9
$DIMALTTD
 70
     2
  9
$DIMTXSTY
  7
STANDARD
  9
$DIMAUNIT
 70
     0
  9
$DIMADEC
 70
     2
  9
$DIMALTRND
 40
0.0
  9
$DIMAZIN
 70
     2
  9
$DIMDSEP
 70
    46
  9
$DIMATFIT
 70
     3
  9
$DIMFRAC
 70
     0
  9
$DIMLDRBLK
  1

  9
$DIMLUNIT
 70
     2
  9
$DIMLWD
 70
    -2
  9
$DIMLWE
 70
    -2
  9
$DIMTMOVE
 70
     0
  9
$LUNITS
 70
     2
  9
$LUPREC
 70
     2
  9
$SKETCHINC
 40
1.0
  9
$FILLETRAD
 40
0.0
  9
$AUNITS
 70
     1
  9
$AUPREC
 70
     3
  9
$MENU
  1
ACAD
  9
$ELEVATION
 40
0.0
  9
$PELEVATION
 40
0.0
  9
$THICKNESS
 40
0.0
  9
$LIMCHECK
 70
     0
  9
$CHAMFERA
 40
0.0
  9
$CHAMFERB
 40
0.0
  9
$CHAMFERC
 40
0.0
  9
$CHAMFERD
 40
0.0
  9
$SKPOLY
 70
     0
  9
$TDCREATE
 40
2452040.637099653
  9
$TDUCREATE
 40
2452040.553766320
  9
$TDUPDATE
 40
2455666.537262801
  9
$TDUUPDATE
 40
2455666.453929468
  9
$TDINDWG
 40
0.4023375347
  9
$TDUSRTIMER
 40
0.4023375347
  9
$USRTIMER
 70
     1
  9
$ANGBASE
 50
0.0
  9
$ANGDIR
 70
     0
  9
$PDMODE
 70
     0
  9
$PDSIZE
 40
0.0
  9
$PLINEWID
 40
0.0
  9
$SPLFRAME
 70
     0
  9
$SPLINETYPE
 70
     6
  9
$SPLINESEGS
 70
     8
  9
$HANDSEED
  5
1A46
  9
$SURFTAB1
 70
     6
  9
$SURFTAB2
 70
     6
  9
$SURFTYPE
 70
     6
  9
$SURFU
 70
     6
  9
$SURFV
 70
     6
  9
$UCSBASE
  2

  9
$UCSNAME
  2

  9
$UCSORG
 10
0.0
 20
0.0
 30
0.0
  9
$UCSXDIR
 10
1.0
 20
0.0
 30
0.0
  9
$UCSYDIR
 10
0.0
 20
1.0
 30
0.0
  9
$UCSORTHOREF
  2

  9
$UCSORTHOVIEW
 70
     0
  9
$UCSORGTOP
 10
0.0
 20
0.0
 30
0.0
  9
$UCSORGBOTTOM
 10
0.0
 20
0.0
 30
0.0
  9
$UCSORGLEFT
 10
0.0
 20
0.0
 30
0.0
  9
$UCSORGRIGHT
 10
0.0
 20
0.0
 30
0.0
  9
$UCSORGFRONT
 10
0.0
 20
0.0
 30
0.0
  9
$UCSORGBACK
 10
0.0
 20
0.0
 30
0.0
  9
$PUCSBASE
  2

  9
$PUCSNAME
  2

  9
$PUCSORG
 10
0.0
 20
0.0
 30
0.0
  9
$PUCSXDIR
 10
1.0
 20
0.0
 30
0.0
  9
$PUCSYDIR
 10
0.0
 20
1.0
 30
0.0
  9
$PUCSORTHOREF
  2

  9
$PUCSORTHOVIEW
 70
     0
  9
$PUCSORGTOP
 10
0.0
 20
0.0
 30
0.0
  9
$PUCSORGBOTTOM
 10
0.0
 20
0.0
 30
0.0
  9
$PUCSORGLEFT
 10
0.0
 20
0.0
 30
0.0
  9
$PUCSORGRIGHT
 10
0.0
 20
0.0
 30
0.0
  9
$PUCSORGFRONT
 10
0.0
 20
0.0
 30
0.0
  9
$PUCSORGBACK
 10
0.0
 20
0.0
 30
0.0
  9
$USERI1
 70
     0
  9
$USERI2
 70
     0
  9
$USERI3
 70
     0
  9
$USERI4
 70
     0
  9
$USERI5
 70
     0
  9
$USERR1
 40
0.0
  9
$USERR2
 40
0.0
  9
$USERR3
 40
0.0
  9
$USERR4
 40
0.0
  9
$USERR5
 40
0.0
  9
$WORLDVIEW
 70
     1
  9
$SHADEDGE
 70
     3
  9
$SHADEDIF
 70
    70
  9
$TILEMODE
 70
     1
  9
$MAXACTVP
 70
    16
  9
$PINSBASE
 10
0.0
 20
0.0
 30
0.0
  9
$PLIMCHECK
 70
     0
  9
$PEXTMIN
 10
1.000000000000000E+20
 20
1.000000000000000E+20
 30
1.000000000000000E+20
  9
$PEXTMAX
 10
-1.000000000000000E+20
 20
-1.000000000000000E+20
 30
-1.000000000000000E+20
  9
$PLIMMIN
 10
0.0
 20
0.0
  9
$PLIMMAX
 10
12.0
 20
9.0
  9
$UNITMODE
 70
     0
  9
$VISRETAIN
 70
     0
  9
$PLINEGEN
 70
     0
  9
$PSLTSCALE
 70
     0
  9
$TREEDEPTH
 70
  3020
  9
$CMLSTYLE
  2
Standard
  9
$CMLJUST
 70
     0
  9
$CMLSCALE
 40
1.0
  9
$PROXYGRAPHICS
 70
     1
  9
$MEASUREMENT
 70
     0
  9
$CELWEIGHT
370
    -1
  9
$ENDCAPS
280
     0
  9
$JOINSTYLE
280
     0
  9
$LWDISPLAY
290
     0
  9
$INSUNITS
 70
     0
  9
$HYPERLINKBASE
  1

  9
$STYLESHEET
  1
monochrome 1.ctb
  9
$XEDIT
290
     1
  9
$CEPSNTYPE
380
     0
  9
$PSTYLEMODE
290
     1
  9
$FINGERPRINTGUID
  2
{7AADB5C8-6110-11D8-B72B-000102183313}
  9
$VERSIONGUID
  2
{E369586A-6C50-42C4-B5DB-CFA0E32D3807}
  9
$EXTNAMES
290
     1
  9
$PSVPSCALE
 40
0.0
  9
$OLESTARTUP
290
     0
  9
$SORTENTS
280
    96
  9
$INDEXCTL
280
     0
  9
$HIDETEXT
280
     0
  9
$XCLIPFRAME
290
     0
  9
$HALOGAP
280
     0
  9
$OBSCOLOR
 70
   257
  9
$OBSLTYPE
280
     0
  9
$INTERSECTIONDISPLAY
280
     0
  9
$INTERSECTIONCOLOR
 70
   257
  9
$DIMASSOC
280
     1
  9
$PROJECTNAME
  1

  0
ENDSEC
  0
SECTION
  2
CLASSES
  0
CLASS
  1
ACDBDICTIONARYWDFLT
  2
AcDbDictionaryWithDefault
  3
ObjectDBX Classes
 90
        0
 91
        1
280
     0
281
     0
  0
CLASS
  1
DICTIONARYVAR
  2
AcDbDictionaryVar
  3
ObjectDBX Classes
 90
        0
 91
        3
280
     0
281
     0
  0
ENDSEC
  0
SECTION
  2
TABLES
  0
TABLE
  2
VPORT
  5
8
330
0
100
AcDbSymbolTable
 70
     3
  0
VPORT
  5
1A45
330
8
100
AcDbSymbolTableRecord
100
AcDbViewportTableRecord
  2
*Active
 70
     0
 10
0.0
 20
0.0
 11
1.0
 21
1.0
 12
210.0
 22
297.0
 13
0.0
 23
0.0
 14
1.0
 24
1.0
 15
10.0
 25
10.0
 16
0.0
 26
0.0
 36
1.0
 17
0.0
 27
0.0
 37
0.0
 40
594.0
 41
1.334231805929919
 42
50.0
 43
0.0
 44
0.0
 50
0.0
 51
0.0
 71
     0
 72
  1500
 73
     1
 74
     0
 75
     0
 76
     0
 77
     0
 78
     0
281
     0
 65
     1
110
0.0
120
0.0
130
0.0
111
1.0
121
0.0
131
0.0
112
0.0
122
1.0
132
0.0
 79
     0
146
0.0
  0
ENDTAB
  0
TABLE
  2
LTYPE
  5
5
330
0
100
AcDbSymbolTable
 70
     2
  0
LTYPE
  5
13
330
5
100
AcDbSymbolTableRecord
100
AcDbLinetypeTableRecord
  2
ByBlock
 70
     0
  3

 72
    65
 73
     0
 40
0.0
  0
LTYPE
  5
14
330
5
100
AcDbSymbolTableRecord
100
AcDbLinetypeTableRecord
  2
ByLayer
 70
     0
  3

 72
    65
 73
     0
 40
0.0
  0
LTYPE
  5
15
330
5
100
AcDbSymbolTableRecord
100
AcDbLinetypeTableRecord
  2
Continuous
 70
     0
  3
Solid line
 72
    65
 73
     0
 40
0.0
  0
LTYPE
  5
35
330
5
100
AcDbSymbolTableRecord
100
AcDbLinetypeTableRecord
  2
STRICHPUNKT
 70
     0
  3
__ . __ . __ . __ . __ . __ . __ . __ . __ . __
 72
    65
 73
     4
 40
1.0
 49
0.5
 74
     0
 49
-0.25
 74
     0
 49
0.0
 74
     0
 49
-0.25
 74
     0
  0
ENDTAB
  0
TABLE
  2
LAYER
  5
2
330
0
100
AcDbSymbolTable
 70
     9
  0
LAYER
  5
10
330
2
100
AcDbSymbolTableRecord
100
AcDbLayerTableRecord
  2
0
 70
     0
 62
     7
  6
Continuous
370
    -3
390
F
  0
LAYER
  5
38
330
2
100
AcDbSymbolTableRecord
100
AcDbLayerTableRecord
  2
VOLL
 70
     0
 62
     1
  6
Continuous
370
    -3
390
F
  0
LAYER
  5
39
330
2
100
AcDbSymbolTableRecord
100
AcDbLayerTableRecord
  2
HILF
 70
     0
 62
     2
  6
Continuous
370
    -3
390
F
  0
LAYER
  5
3A
330
2
100
AcDbSymbolTableRecord
100
AcDbLayerTableRecord
  2
MITTEL
 70
     0
 62
     2
  6
STRICHPUNKT
370
    -3
390
F
  0
LAYER
  5
3B
330
2
100
AcDbSymbolTableRecord
100
AcDbLayerTableRecord
  2
BEM
 70
     0
 62
     7
  6
Continuous
370
    -3
390
F
  0
LAYER
  5
3C
330
2
100
AcDbSymbolTableRecord
100
AcDbLayerTableRecord
  2
STEMPEL
 70
     0
 62
     3
  6
Continuous
370
    -3
390
F
  0
LAYER
  5
3D
330
2
100
AcDbSymbolTableRecord
100
AcDbLayerTableRecord
  2
TEXT
 70
     0
 62
     7
  6
Continuous
370
    -3
390
F
  0
LAYER
  5
3E
330
2
100
AcDbSymbolTableRecord
100
AcDbLayerTableRecord
  2
DEFPOINTS
 70
     0
 62
     7
  6
Continuous
290
     0
370
    -3
390
F
  0
LAYER
  5
3F
330
2
100
AcDbSymbolTableRecord
100
AcDbLayerTableRecord
  2
SCHRAFF
 70
     0
 62
     7
  6
Continuous
370
    -3
390
F
  0
ENDTAB
  0
TABLE
  2
STYLE
  5
3
330
0
100
AcDbSymbolTable
 70
     2
  0
STYLE
  5
11
330
3
100
AcDbSymbolTableRecord
100
AcDbTextStyleTableRecord
  2
STANDARD
 70
     0
 40
0.0
 41
0.8
 50
0.0
 71
     0
 42
3.5
  3
simplex.shx
  4

  0
STYLE
  5
34
330
3
100
AcDbSymbolTableRecord
100
AcDbTextStyleTableRecord
  2
GREEKS
 70
     0
 40
0.0
 41
0.8
 50
0.0
 71
     0
 42
2.5
  3
SIMPLEX.shx
  4

  0
ENDTAB
  0
TABLE
  2
VIEW
  5
6
330
0
100
AcDbSymbolTable
 70
     0
  0
ENDTAB
  0
TABLE
  2
UCS
  5
7
330
0
100
AcDbSymbolTable
 70
     0
  0
ENDTAB
  0
TABLE
  2
APPID
  5
9
330
0
100
AcDbSymbolTable
 70
     1
  0
APPID
  5
12
330
9
100
AcDbSymbolTableRecord
100
AcDbRegAppTableRecord
  2
ACAD
 70
     0
  0
ENDTAB
  0
TABLE
  2
DIMSTYLE
  5
A
330
0
100
AcDbSymbolTable
 70
     1
100
AcDbDimStyleTable
 71
     1
340
1CB
  0
DIMSTYLE
105
1CB
102
{ACAD_REACTORS
330
107C
330
17B1
330
1862
330
1A20
102
}
330
A
100
AcDbSymbolTableRecord
100
AcDbDimStyleTableRecord
  2
Standard
 70
     0
340
11
  0
ENDTAB
  0
TABLE
  2
BLOCK_RECORD
  5
1
330
0
100
AcDbSymbolTable
 70
     9
  0
BLOCK_RECORD
  5
1E
330
1
100
AcDbSymbolTableRecord
100
AcDbBlockTableRecord
  2
*Model_Space
340
21
  0
BLOCK_RECORD
  5
1A
330
1
100
AcDbSymbolTableRecord
100
AcDbBlockTableRecord
  2
*Paper_Space
340
1D
  0
BLOCK_RECORD
  5
22
330
1
100
AcDbSymbolTableRecord
100
AcDbBlockTableRecord
  2
LOGO
340
0
102
{BLKREFS
331
135
102
}
  0
BLOCK_RECORD
  5
1093
330
1
100
AcDbSymbolTableRecord
100
AcDbBlockTableRecord
  2
*D1
340
0
  0
BLOCK_RECORD
  5
17B2
330
1
100
AcDbSymbolTableRecord
100
AcDbBlockTableRecord
  2
*D5
340
0
  0
BLOCK_RECORD
  5
1863
330
1
100
AcDbSymbolTableRecord
100
AcDbBlockTableRecord
  2
*D6
340
0
  0
BLOCK_RECORD
  5
1A21
330
1
100
AcDbSymbolTableRecord
100
AcDbBlockTableRecord
  2
*D8
340
0
  0
ENDTAB
  0
ENDSEC
  0
SECTION
  2
BLOCKS
  0
BLOCK
  5
43
330
1E
100
AcDbEntity
  8
0
100
AcDbBlockBegin
  2
*Model_Space
 70
     0
 10
0.0
 20
0.0
 30
0.0
  3
*Model_Space
  1

  0
ENDBLK
  5
44
330
1E
100
AcDbEntity
  8
0
100
AcDbBlockEnd
  0
BLOCK
  5
41
330
1A
100
AcDbEntity
 67
     1
  8
0
100
AcDbBlockBegin
  2
*Paper_Space
 70
     0
 10
0.0
 20
0.0
 30
0.0
  3
*Paper_Space
  1

  0
ENDBLK
  5
42
330
1A
100
AcDbEntity
 67
     1
  8
0
100
AcDbBlockEnd
  0
BLOCK
  5
45
330
22
100
AcDbEntity
  8
0
100
AcDbBlockBegin
  2
LOGO
 70
     0
 10
0.0
 20
0.0
 30
0.0
  3
LOGO
  1

  0
ARC
  5
46
330
22
100
AcDbEntity
  8
0
100
AcDbCircle
 10
11.59973089678112
 20
-9.271599258481501
 30
0.0
 40
4.5
100
AcDbArc
 50
270.0
 51
231.0575587310159
  0
LINE
  5
47
330
22
100
AcDbEntity
  8
0
100
AcDbLine
 10
3.599730896781125
 20
-4.771599258481529
 30
0.0
 11
3.599730896781153
 21
-11.77159925848133
 31
0.0
  0
LINE
  5
48
330
22
100
AcDbEntity
  8
0
100
AcDbLine
 10
2.599730896781125
 20
-4.771599258481529
 30
0.0
 11
2.599730896781153
 21
-11.77159925848133
 31
0.0
  0
CIRCLE
  5
49
330
22
100
AcDbEntity
  8
0
100
AcDbCircle
 10
11.59973089678112
 20
-9.271599258481501
 30
0.0
 40
3.5
  0
ARC
  5
4A
330
22
100
AcDbEntity
  8
0
100
AcDbCircle
 10
31.59973089678115
 20
-9.271599258481472
 30
0.0
 40
4.5
100
AcDbArc
 50
270.0
 51
231.0575587310182
  0
LINE
  5
4B
330
22
100
AcDbEntity
  8
0
100
AcDbLine
 10
17.59973089678112
 20
-4.771599258481472
 30
0.0
 11
17.59973089678115
 21
-13.77159925848147
 31
0.0
  0
ARC
  5
4C
330
22
100
AcDbEntity
  8
0
100
AcDbCircle
 10
22.59973089678116
 20
-7.271599258481472
 30
0.0
 40
2.5
100
AcDbArc
 50
293.1161887722295
 51
90.0
  0
CIRCLE
  5
4D
330
22
100
AcDbEntity
  8
0
100
AcDbCircle
 10
31.59973089678115
 20
-9.271599258481472
 30
0.0
 40
3.5
  0
ARC
  5
4E
330
22
100
AcDbEntity
  8
0
100
AcDbCircle
 10
4.599730896781153
 20
-11.77159925848133
 30
0.0
 40
1.0
100
AcDbArc
 50
180.0
 51
270.0
  0
ARC
  5
4F
330
22
100
AcDbEntity
  8
0
100
AcDbCircle
 10
4.599730896781153
 20
-11.77159925848133
 30
0.0
 40
2.0
100
AcDbArc
 50
179.9999999999992
 51
270.0
  0
LINE
  5
50
330
22
100
AcDbEntity
  8
0
100
AcDbLine
 10
11.59973089678115
 20
-13.77159925848144
 30
0.0
 11
4.599730896781153
 21
-13.77159925848147
 31
0.0
  0
LINE
  5
51
330
22
100
AcDbEntity
  8
0
100
AcDbLine
 10
8.771303772034769
 20
-12.77159925848136
 30
0.0
 11
4.599730896781153
 21
-12.77159925848133
 31
0.0
  0
LINE
  5
52
330
22
100
AcDbEntity
  8
0
100
AcDbLine
 10
31.59973089678115
 20
-13.77159925848147
 30
0.0
 11
23.6715276665056
 21
-13.77159925848144
 31
0.0
  0
LINE
  5
53
330
22
100
AcDbEntity
  8
0
100
AcDbLine
 10
23.56565672307022
 20
-9.51278021337896
 30
0.0
 11
24.4388546544846
 21
-12.77159925848144
 31
0.0
  0
LINE
  5
54
330
22
100
AcDbEntity
  8
0
100
AcDbLine
 10
22.59973089678116
 20
-9.771599258481472
 30
0.0
 11
18.59973089678112
 21
-9.771599258481472
 31
0.0
  0
LINE
  5
55
330
22
100
AcDbEntity
  8
0
100
AcDbLine
 10
18.59973089678115
 20
-13.77159925848144
 30
0.0
 11
17.59973089678115
 21
-13.77159925848144
 31
0.0
  0
LINE
  5
56
330
22
100
AcDbEntity
  8
0
100
AcDbLine
 10
18.59973089678115
 20
-9.771599258481472
 30
0.0
 11
18.59973089678115
 21
-13.77159925848144
 31
0.0
  0
LINE
  5
57
330
22
100
AcDbEntity
  8
0
100
AcDbLine
 10
22.59973089678116
 20
-9.771599258481472
 30
0.0
 11
23.67152766650562
 21
-13.77159925848147
 31
0.0
  0
ARC
  5
58
330
22
100
AcDbEntity
  8
0
100
AcDbCircle
 10
22.59973089678116
 20
-7.271599258481472
 30
0.0
 40
2.5
100
AcDbArc
 50
270.0
 51
270.0000000000007
  0
LINE
  5
59
330
22
100
AcDbEntity
  8
0
100
AcDbLine
 10
28.77130377203494
 20
-12.77159925848147
 30
0.0
 11
24.43885465448463
 21
-12.77159925848144
 31
0.0
  0
LINE
  5
5A
330
22
100
AcDbEntity
  8
0
100
AcDbLine
 10
3.599730896781125
 20
-4.771599258481472
 30
0.0
 11
2.599730896781125
 21
-4.771599258481472
 31
0.0
  0
LINE
  5
5B
330
22
100
AcDbEntity
  8
0
100
AcDbLine
 10
22.59973089678116
 20
-8.771599258481472
 30
0.0
 11
18.59973089678115
 21
-8.771599258481472
 31
0.0
  0
LINE
  5
5C
330
22
100
AcDbEntity
  8
0
100
AcDbLine
 10
22.59973089678116
 20
-5.771599258481472
 30
0.0
 11
18.59973089678115
 21
-5.771599258481472
 31
0.0
  0
LINE
  5
5D
330
22
100
AcDbEntity
  8
0
100
AcDbLine
 10
22.59973089678116
 20
-4.771599258481472
 30
0.0
 11
17.59973089678115
 21
-4.771599258481472
 31
0.0
  0
LINE
  5
5E
330
22
100
AcDbEntity
  8
0
100
AcDbLine
 10
18.59973089678115
 20
-5.771599258481472
 30
0.0
 11
18.59973089678115
 21
-8.771599258481472
 31
0.0
  0
ARC
  5
5F
330
22
100
AcDbEntity
  8
0
100
AcDbCircle
 10
22.59973089678116
 20
-7.271599258481472
 30
0.0
 40
1.5
100
AcDbArc
 50
270.0
 51
90.0
  0
ENDBLK
  5
60
330
22
100
AcDbEntity
  8
0
100
AcDbBlockEnd
  0
BLOCK
  5
109D
330
1093
100
AcDbEntity
  8
0
100
AcDbBlockBegin
  2
*D1
 70
     1
 10
0.0
 20
0.0
 30
0.0
  3
*D1
  1

  0
LINE
  5
1941
330
1093
100
AcDbEntity
  8
BEM
 62
     0
370
    -2
100
AcDbLine
 10
51.34246729089477
 20
160.2275131312615
 30
0.0
 11
51.34246729089477
 21
129.8037406498336
 31
0.0
  0
LINE
  5
1942
330
1093
100
AcDbEntity
  8
BEM
 62
     0
370
    -2
100
AcDbLine
 10
210.342467290895
 20
160.2275131312606
 30
0.0
 11
210.342467290895
 21
129.8037406498336
 31
0.0
  0
LINE
  5
1943
330
1093
100
AcDbEntity
  8
BEM
 62
     0
370
    -2
100
AcDbLine
 10
58.34246729089477
 20
131.8037406498336
 30
0.0
 11
203.342467290895
 21
131.8037406498336
 31
0.0
  0
SOLID
  5
1944
330
1093
100
AcDbEntity
  8
BEM
 62
     0
100
AcDbTrace
 10
58.34246729089477
 20
132.9704073165003
 30
0.0
 11
58.34246729089477
 21
130.6370739831669
 31
0.0
 12
51.34246729089477
 22
131.8037406498336
 32
0.0
 13
51.34246729089477
 23
131.8037406498336
 33
0.0
  0
SOLID
  5
1945
330
1093
100
AcDbEntity
  8
BEM
 62
     0
100
AcDbTrace
 10
203.342467290895
 20
132.9704073165003
 30
0.0
 11
203.342467290895
 21
130.6370739831669
 31
0.0
 12
210.342467290895
 22
131.8037406498336
 32
0.0
 13
210.342467290895
 23
131.8037406498336
 33
0.0
  0
MTEXT
  5
1946
330
1093
100
AcDbEntity
  8
BEM
 62
     1
100
AcDbMText
 10
130.8424672908949
 20
138.3037406498336
 30
0.0
 40
7.0
 41
0.0
 71
     5
 72
     1
  1
\A1;%%c159
 73
     1
 44
1.0
  0
POINT
  5
1947
330
1093
100
AcDbEntity
  8
DEFPOINTS
 62
     0
100
AcDbPoint
 10
51.34246729089477
 20
162.2275131312615
 30
0.0
  0
POINT
  5
1948
330
1093
100
AcDbEntity
  8
DEFPOINTS
 62
     0
100
AcDbPoint
 10
210.342467290895
 20
162.2275131312606
 30
0.0
  0
POINT
  5
1949
330
1093
100
AcDbEntity
  8
DEFPOINTS
 62
     0
100
AcDbPoint
 10
210.342467290895
 20
131.8037406498336
 30
0.0
  0
ENDBLK
  5
109E
330
1093
100
AcDbEntity
  8
0
100
AcDbBlockEnd
  0
BLOCK
  5
17BC
330
17B2
100
AcDbEntity
  8
0
100
AcDbBlockBegin
  2
*D5
 70
     1
 10
0.0
 20
0.0
 30
0.0
  3
*D5
  1

  0
LINE
  5
1954
330
17B2
100
AcDbEntity
  8
BEM
 62
     0
370
    -2
100
AcDbLine
 10
128.8424672908945
 20
409.2322119119699
 30
0.0
 11
94.53307450522078
 21
409.23221191197
 31
0.0
  0
LINE
  5
1955
330
17B2
100
AcDbEntity
  8
BEM
 62
     0
370
    -2
100
AcDbLine
 10
54.21735392615392
 20
152.227513131261
 30
0.0
 11
98.53307450522073
 21
152.227513131261
 31
0.0
  0
LINE
  5
1956
330
17B2
100
AcDbEntity
  8
BEM
 62
     0
370
    -2
100
AcDbLine
 10
96.53307450522078
 20
402.2322119119699
 30
0.0
 11
96.53307450522072
 21
159.227513131261
 31
0.0
  0
SOLID
  5
1957
330
17B2
100
AcDbEntity
  8
BEM
 62
     0
100
AcDbTrace
 10
95.36640783855411
 20
402.2322119119699
 30
0.0
 11
97.69974117188745
 21
402.2322119119699
 31
0.0
 12
96.53307450522078
 22
409.23221191197
 32
0.0
 13
96.53307450522078
 23
409.23221191197
 33
0.0
  0
SOLID
  5
1958
330
17B2
100
AcDbEntity
  8
BEM
 62
     0
100
AcDbTrace
 10
95.36640783855405
 20
159.227513131261
 30
0.0
 11
97.69974117188739
 21
159.227513131261
 31
0.0
 12
96.53307450522072
 22
152.227513131261
 32
0.0
 13
96.53307450522072
 23
152.227513131261
 33
0.0
  0
MTEXT
  5
1959
330
17B2
100
AcDbEntity
  8
BEM
 62
     1
100
AcDbMText
 10
90.0330745052207
 20
280.7298625216155
 30
0.0
 40
7.0
 41
0.0
 71
     5
 72
     1
  1
\A1;257
 11
0.0000000000000001
 21
1.0
 31
0.0
 73
     1
 44
1.0
  0
POINT
  5
195A
330
17B2
100
AcDbEntity
  8
DEFPOINTS
 62
     0
100
AcDbPoint
 10
130.8424672908945
 20
409.2322119119699
 30
0.0
  0
POINT
  5
195B
330
17B2
100
AcDbEntity
  8
DEFPOINTS
 62
     0
100
AcDbPoint
 10
52.21735392615392
 20
152.227513131261
 30
0.0
  0
POINT
  5
195C
330
17B2
100
AcDbEntity
  8
DEFPOINTS
 62
     0
100
AcDbPoint
 10
96.53307450522072
 20
152.227513131261
 30
0.0
  0
ENDBLK
  5
17BD
330
17B2
100
AcDbEntity
  8
0
100
AcDbBlockEnd
  0
BLOCK
  5
186D
330
1863
100
AcDbEntity
  8
0
100
AcDbBlockBegin
  2
*D6
 70
     1
 10
0.0
 20
0.0
 30
0.0
  3
*D6
  1

  0
LINE
  5
1938
330
1863
100
AcDbEntity
  8
BEM
 62
     0
370
    -2
100
AcDbLine
 10
130.1584270042432
 20
411.1115971535417
 30
0.0
 11
110.5930330231193
 21
464.8670753194109
 31
0.0
  0
LINE
  5
1939
330
1863
100
AcDbEntity
  8
BEM
 62
     0
370
    -2
100
AcDbLine
 10
343.7361682787483
 20
575.7430448613438
 30
0.0
 11
353.4665325479595
 21
549.0090887486189
 31
0.0
  0
LINE
  5
193A
330
1863
100
AcDbEntity
  8
BEM
 62
     0
370
    -2
100
AcDbLine
 10
117.854921655272
 20
465.3818310811188
 30
0.0
 11
346.2046439158068
 21
548.494332986911
 31
0.0
  0
SOLID
  5
193B
330
1863
100
AcDbEntity
  8
BEM
 62
     0
100
AcDbTrace
 10
117.4558981547254
 20
466.4781391387024
 30
0.0
 11
118.2539451558186
 21
464.2855230235353
 31
0.0
 12
111.2770733097707
 22
462.9876900778391
 32
0.0
 13
111.2770733097707
 23
462.9876900778391
 33
0.0
  0
SOLID
  5
193C
330
1863
100
AcDbEntity
  8
BEM
 62
     0
100
AcDbTrace
 10
345.8056204152602
 20
549.5906410444945
 30
0.0
 11
346.6036674163535
 21
547.3980249293274
 31
0.0
 12
352.7824922613081
 22
550.8884739901907
 32
0.0
 13
352.7824922613081
 23
550.8884739901907
 33
0.0
  0
MTEXT
  5
193D
330
1863
100
AcDbEntity
  8
BEM
 62
     1
100
AcDbMText
 10
229.8066518539225
 20
513.0460840691232
 30
0.0
 40
7.0
 41
0.0
 71
     5
 72
     1
  1
\A1;257
 11
0.9396926207859044
 21
0.3420201433256796
 31
0.0
 73
     1
 44
1.0
  0
POINT
  5
193E
330
1863
100
AcDbEntity
  8
DEFPOINTS
 62
     0
100
AcDbPoint
 10
130.8424672908945
 20
409.2322119119699
 30
0.0
  0
POINT
  5
193F
330
1863
100
AcDbEntity
  8
DEFPOINTS
 62
     0
100
AcDbPoint
 10
343.052127992097
 20
577.6224301029156
 30
0.0
  0
POINT
  5
1940
330
1863
100
AcDbEntity
  8
DEFPOINTS
 62
     0
100
AcDbPoint
 10
352.7824922613081
 20
550.8884739901907
 30
0.0
  0
ENDBLK
  5
186E
330
1863
100
AcDbEntity
  8
0
100
AcDbBlockEnd
  0
BLOCK
  5
1A2C
330
1A21
100
AcDbEntity
  8
0
100
AcDbBlockBegin
  2
*D8
 70
     1
 10
0.0
 20
0.0
 30
0.0
  3
*D8
  1

  0
LINE
  5
1A22
330
1A21
100
AcDbEntity
  8
BEM
 62
     0
370
    -2
100
AcDbLine
 10
130.8424672908945
 20
411.2322119119699
 30
0.0
 11
130.8424672908945
 21
454.7311047655781
 31
0.0
  0
ARC
  5
1A23
330
1A21
100
AcDbEntity
  8
BEM
 62
     0
370
    -2
100
AcDbCircle
 10
130.8424672908945
 20
409.2322119119699
 30
0.0
 40
43.49889285360818
100
AcDbArc
 50
29.23022306782991
 51
80.76977693217003
  0
SOLID
  5
1A24
330
1A21
100
AcDbEntity
  8
BEM
 62
     0
100
AcDbTrace
 10
169.8630591540124
 20
430.9595341581345
 30
0.0
 11
167.7417644889627
 21
429.9876527927013
 31
0.0
 12
171.718055917787
 22
424.1097094802688
 32
0.0
 13
171.718055917787
 23
424.1097094802688
 33
0.0
  0
SOLID
  5
1A25
330
1A21
100
AcDbEntity
  8
BEM
 62
     0
100
AcDbTrace
 10
137.7258990113763
 20
451.0049880659959
 30
0.0
 11
137.9136432533769
 21
453.3307560131566
 31
0.0
 12
130.8424672908945
 22
452.731104765578
 32
0.0
 13
130.8424672908945
 23
452.731104765578
 33
0.0
  0
MTEXT
  5
1A26
330
1A21
100
AcDbEntity
  8
BEM
 62
     1
100
AcDbMText
 10
159.5206540753649
 20
450.1889072051893
 30
0.0
 40
7.0
 41
0.0
 71
     5
 72
     1
  1
\A1;70°
 11
0.8191520442889917
 21
-0.5735764363510463
 31
0.0
 73
     1
 44
1.0
  0
POINT
  5
1A27
330
1A21
100
AcDbEntity
  8
DEFPOINTS
 62
     0
100
AcDbPoint
 10
162.4824153902194
 20
439.0829633893065
 30
0.0
  0
POINT
  5
1A28
330
1A21
100
AcDbEntity
  8
DEFPOINTS
 62
     0
100
AcDbPoint
 10
130.8424672908945
 20
409.2322119119699
 30
0.0
  0
POINT
  5
1A29
330
1A21
100
AcDbEntity
  8
DEFPOINTS
 62
     0
100
AcDbPoint
 10
377.0463493463617
 20
498.8430965409467
 30
0.0
  0
POINT
  5
1A2A
330
1A21
100
AcDbEntity
  8
DEFPOINTS
 62
     0
100
AcDbPoint
 10
130.8424672908945
 20
409.2322119119699
 30
0.0
  0
POINT
  5
1A2B
330
1A21
100
AcDbEntity
  8
DEFPOINTS
 62
     0
100
AcDbPoint
 10
130.8424672908945
 20
147.2275131312614
 30
0.0
  0
ENDBLK
  5
1A2D
330
1A21
100
AcDbEntity
  8
0
100
AcDbBlockEnd
  0
ENDSEC
  0
SECTION
  2
ENTITIES
  0
TEXT
  5
134
330
1E
100
AcDbEntity
  8
TEXT
100
AcDbText
 10
204.4216048581257
 20
63.0896391972351
 30
0.0
 40
4.0
  1
Koeh
 41
0.8
  7
GREEKS
 72
     1
 11
209.6787477152686
 21
63.0896391972351
 31
0.0
100
AcDbText
  0
INSERT
  5
135
330
1E
100
AcDbEntity
  8
STEMPEL
100
AcDbBlockReference
  2
LOGO
 10
150.9955485457794
 20
45.02105276448322
 30
0.0
 41
2.0
 42
2.0
 43
2.0
  0
LINE
  5
136
330
1E
100
AcDbEntity
  8
HILF
100
AcDbLine
 10
420.0
 20
0.0
 30
0.0
 11
0.0
 21
0.0
 31
0.0
  0
LINE
  5
137
330
1E
100
AcDbEntity
  8
HILF
100
AcDbLine
 10
419.9999999999999
 20
594.0000000000002
 30
0.0
 11
0.0
 21
594.0
 31
0.0
  0
LINE
  5
138
330
1E
100
AcDbEntity
  8
STEMPEL
100
AcDbLine
 10
410.0
 20
584.0
 30
0.0
 11
39.99999999999989
 21
584.0
 31
0.0
  0
LINE
  5
139
330
1E
100
AcDbEntity
  8
STEMPEL
100
AcDbLine
 10
410.0
 20
10.0
 30
0.0
 11
39.99999999999989
 21
10.0
 31
0.0
  0
LINE
  5
13A
330
1E
100
AcDbEntity
  8
STEMPEL
100
AcDbLine
 10
49.99999999999989
 20
10.0
 30
0.0
 11
410.0
 21
10.0
 31
0.0
  0
TEXT
  5
13B
330
1E
100
AcDbEntity
  8
TEXT
100
AcDbText
 10
202.4626584226295
 20
73.30961091915225
 30
0.0
 40
4.0
  1
Name
 41
0.8
  7
GREEKS
100
AcDbText
  0
TEXT
  5
13C
330
1E
100
AcDbEntity
  8
TEXT
100
AcDbText
 10
196.5498279101549
 20
102.6506227776589
 30
0.0
 40
5.0
  1
Zul. Abw.
 41
0.8
  7
GREEKS
 72
     4
 11
209.9783993387263
 21
105.1506227776589
 31
0.0
100
AcDbText
  0
LINE
  5
13D
330
1E
100
AcDbEntity
  8
HILF
100
AcDbLine
 10
146.0000000000001
 20
49.99999999999997
 30
0.0
 11
230.0
 21
49.99999999999997
 31
0.0
  0
LINE
  5
13E
330
1E
100
AcDbEntity
  8
HILF
100
AcDbLine
 10
146.0000000000001
 20
59.99999999999998
 30
0.0
 11
230.0
 21
59.99999999999998
 31
0.0
  0
LINE
  5
13F
330
1E
100
AcDbEntity
  8
HILF
100
AcDbLine
 10
146.0000000000001
 20
69.99999999999994
 30
0.0
 11
230.0
 21
69.99999999999994
 31
0.0
  0
LINE
  5
140
330
1E
100
AcDbEntity
  8
STEMPEL
100
AcDbLine
 10
410.0
 20
80.0
 30
0.0
 11
146.0000000000001
 21
79.99999999999994
 31
0.0
  0
LINE
  5
141
330
1E
100
AcDbEntity
  8
STEMPEL
100
AcDbLine
 10
410.0
 20
40.0
 30
0.0
 11
146.0000000000001
 21
39.99999999999997
 31
0.0
  0
LINE
  5
142
330
1E
100
AcDbEntity
  8
STEMPEL
100
AcDbLine
 10
410.0
 20
110.0
 30
0.0
 11
39.99999999999997
 21
110.0
 31
0.0
  0
LINE
  5
144
330
1E
100
AcDbEntity
  8
HILF
100
AcDbLine
 10
0.0
 20
0.0
 30
0.0
 11
-0.0000000000001137
 21
594.0
 31
0.0
  0
LINE
  5
145
330
1E
100
AcDbEntity
  8
STEMPEL
100
AcDbLine
 10
40.0
 20
10.0
 30
0.0
 11
39.99999999999989
 21
584.0
 31
0.0
  0
TEXT
  5
146
330
1E
100
AcDbEntity
  8
TEXT
100
AcDbText
 10
41.85509950977674
 20
111.6719999999999
 30
0.0
 40
5.0
  1
Erstellt mit AUTOCAD 2004
 41
0.8
  7
GREEKS
100
AcDbText
  0
TEXT
  5
147
330
1E
100
AcDbEntity
  8
TEXT
100
AcDbText
 10
67.18675857092764
 20
18.67381894984132
 30
0.0
 40
4.0
  1
Änderung
 41
0.8
  7
GREEKS
 72
     1
 11
77.92961571378478
 21
18.67381894984132
 31
0.0
100
AcDbText
  0
LINE
  5
148
330
1E
100
AcDbEntity
  8
HILF
100
AcDbLine
 10
40.00000000000008
 20
39.99999999999997
 30
0.0
 11
146.0000000000001
 21
39.99999999999997
 31
0.0
  0
LINE
  5
149
330
1E
100
AcDbEntity
  8
HILF
100
AcDbLine
 10
40.00000000000008
 20
49.99999999999997
 30
0.0
 11
146.0000000000001
 21
49.99999999999997
 31
0.0
  0
LINE
  5
14A
330
1E
100
AcDbEntity
  8
HILF
100
AcDbLine
 10
40.00000000000008
 20
59.99999999999998
 30
0.0
 11
146.0000000000001
 21
59.99999999999998
 31
0.0
  0
LINE
  5
14B
330
1E
100
AcDbEntity
  8
HILF
100
AcDbLine
 10
40.00000000000008
 20
69.99999999999994
 30
0.0
 11
146.0000000000001
 21
69.99999999999994
 31
0.0
  0
LINE
  5
14C
330
1E
100
AcDbEntity
  8
HILF
100
AcDbLine
 10
40.00000000000008
 20
79.99999999999994
 30
0.0
 11
146.0000000000001
 21
79.99999999999994
 31
0.0
  0
LINE
  5
14D
330
1E
100
AcDbEntity
  8
HILF
100
AcDbLine
 10
40.00000000000008
 20
90.00000000000005
 30
0.0
 11
146.0000000000001
 21
90.00000000000005
 31
0.0
  0
LINE
  5
14E
330
1E
100
AcDbEntity
  8
HILF
100
AcDbLine
 10
40.00000000000008
 20
100.0
 30
0.0
 11
146.0000000000001
 21
100.0
 31
0.0
  0
LINE
  5
14F
330
1E
100
AcDbEntity
  8
STEMPEL
100
AcDbLine
 10
145.9999999999999
 20
29.99999999999997
 30
0.0
 11
39.99999999999997
 21
29.99999999999997
 31
0.0
  0
TEXT
  5
150
330
1E
100
AcDbEntity
  8
TEXT
100
AcDbText
 10
48.26641107045756
 20
13.65465846027192
 30
0.0
 40
4.0
  1
Index
 50
90.0
 41
0.8
  7
GREEKS
100
AcDbText
  0
LINE
  5
151
330
1E
100
AcDbEntity
  8
VOLL
100
AcDbLine
 10
54.00000000000009
 20
110.0
 30
0.0
 11
53.99999999999998
 21
9.999999999999971
 31
0.0
  0
LINE
  5
152
330
1E
100
AcDbEntity
  8
HILF
100
AcDbLine
 10
31.08767135713839
 20
297.0
 30
0.0
 11
-0.0000000000000568
 21
297.0
 31
0.0
  0
TEXT
  5
153
330
1E
100
AcDbEntity
  8
TEXT
100
AcDbText
 10
110.5329027008845
 20
18.6715626933981
 30
0.0
 40
4.0
  1
Tag
 41
0.8
  7
GREEKS
 72
     1
 11
114.2662360342178
 21
18.6715626933981
 31
0.0
100
AcDbText
  0
LINE
  5
154
330
1E
100
AcDbEntity
  8
VOLL
100
AcDbLine
 10
124.0000000000001
 20
109.9999999999999
 30
0.0
 11
124.0
 21
9.999999999999971
 31
0.0
  0
LINE
  5
155
330
1E
100
AcDbEntity
  8
VOLL
100
AcDbLine
 10
104.0000000000001
 20
109.9999999999999
 30
0.0
 11
104.0
 21
9.999999999999971
 31
0.0
  0
TEXT
  5
156
330
1E
100
AcDbEntity
  8
TEXT
100
AcDbText
 10
129.3050679443042
 20
18.59324216966408
 30
0.0
 40
4.0
  1
Name
 41
0.8
  7
GREEKS
 72
     1
 11
135.6288774681137
 21
18.59324216966408
 31
0.0
100
AcDbText
  0
LINE
  5
157
330
1E
100
AcDbEntity
  8
STEMPEL
100
AcDbLine
 10
146.0000000000001
 20
109.9999999999999
 30
0.0
 11
146.0
 21
9.999999999999971
 31
0.0
  0
TEXT
  5
159
330
1E
100
AcDbEntity
  8
TEXT
100
AcDbText
 10
172.331167315365
 20
73.31880501229926
 30
0.0
 40
4.0
  1
Tag
 41
0.8
  7
GREEKS
100
AcDbText
  0
TEXT
  5
15A
330
1E
100
AcDbEntity
  8
TEXT
100
AcDbText
 10
147.5836127167615
 20
63.62990369617964
 30
0.0
 40
4.0
  1
Gez.
 41
0.8
  7
GREEKS
100
AcDbText
  0
LINE
  5
15B
330
1E
100
AcDbEntity
  8
VOLL
100
AcDbLine
 10
164.0000000000001
 20
79.99999999999994
 30
0.0
 11
164.0000000000001
 21
39.99999999999997
 31
0.0
  0
TEXT
  5
15C
330
1E
100
AcDbEntity
  8
TEXT
100
AcDbText
 10
147.6006777387303
 20
43.52946389649807
 30
0.0
 40
4.0
  1
Norm.
 41
0.8
  7
GREEKS
100
AcDbText
  0
TEXT
  5
15D
330
1E
100
AcDbEntity
  8
TEXT
100
AcDbText
 10
147.5515086571672
 20
53.68926291428377
 30
0.0
 40
4.0
  1
Gepr.
 41
0.8
  7
GREEKS
100
AcDbText
  0
TEXT
  5
15E
330
1E
100
AcDbEntity
  8
TEXT
 62
     1
100
AcDbText
 10
160.5006306481887
 20
88.14901428913959
 30
0.0
 40
7.0
  1
1:2
 41
0.8
  7
GREEKS
100
AcDbText
  0
TEXT
  5
15F
330
1E
100
AcDbEntity
  8
TEXT
100
AcDbText
 10
153.5163572150377
 20
102.4620895087088
 30
0.0
 40
5.0
  1
Maßstab
 41
0.8
  7
GREEKS
100
AcDbText
  0
TEXT
  5
160
330
1E
100
AcDbEntity
  8
TEXT
100
AcDbText
 10
148.622109822104
 20
73.14025471151666
 30
0.0
 40
4.0
  1
2011
 41
0.8
  7
GREEKS
100
AcDbText
  0
LINE
  5
161
330
1E
100
AcDbEntity
  8
VOLL
100
AcDbLine
 10
190.0000000000001
 20
109.9999999999998
 30
0.0
 11
190.0
 21
39.99999999999997
 31
0.0
  0
LINE
  5
186
330
1E
100
AcDbEntity
  8
HILF
100
AcDbLine
 10
420.0
 20
-0.0000000000001137
 30
0.0
 11
419.9999999999999
 21
594.0
 31
0.0
  0
LINE
  5
187
330
1E
100
AcDbEntity
  8
STEMPEL
100
AcDbLine
 10
410.0
 20
10.0
 30
0.0
 11
410.0
 21
584.0
 31
0.0
  0
TEXT
  5
188
330
1E
100
AcDbEntity
  8
TEXT
100
AcDbText
 10
337.2400861497006
 20
52.07416177878602
 30
0.0
 40
5.0
  1
ersetzt durch:
 41
0.8
  7
GREEKS
100
AcDbText
  0
TEXT
  5
189
330
1E
100
AcDbEntity
  8
TEXT
100
AcDbText
 10
336.7238616296993
 20
73.1811823709997
 30
0.0
 40
5.0
  1
Ersatz für:
 41
0.8
  7
GREEKS
100
AcDbText
  0
TEXT
  5
18A
330
1E
100
AcDbEntity
  8
TEXT
100
AcDbText
 10
336.178754957634
 20
102.3132034537136
 30
0.0
 40
5.0
  1
Zeichnungs Nr.
 41
0.8
  7
GREEKS
100
AcDbText
  0
LINE
  5
18B
330
1E
100
AcDbEntity
  8
HILF
100
AcDbLine
 10
233.4909699289885
 20
14.89398258028314
 30
0.0
 11
404.8588839326728
 21
14.89398258028314
 31
0.0
  0
LINE
  5
18C
330
1E
100
AcDbEntity
  8
HILF
100
AcDbLine
 10
336.7238616296993
 20
83.77983636955827
 30
0.0
 11
404.8588839326728
 21
83.77983636955827
 31
0.0
  0
LINE
  5
18D
330
1E
100
AcDbEntity
  8
VOLL
100
AcDbLine
 10
332.0
 20
60.0
 30
0.0
 11
410.0
 21
60.0
 31
0.0
  0
TEXT
  5
18E
330
1E
100
AcDbEntity
  8
TEXT
 62
     1
100
AcDbText
 10
234.9283864320014
 20
87.41748789253779
 30
0.0
 40
7.0
  1
Bogen DN150 70°
 41
0.8
  7
GREEKS
100
AcDbText
  0
LINE
  5
18F
330
1E
100
AcDbEntity
  8
HILF
100
AcDbLine
 10
234.7736801096948
 20
49.99999999999997
 30
0.0
 11
324.835391655631
 21
49.99999999999997
 31
0.0
  0
LINE
  5
190
330
1E
100
AcDbEntity
  8
HILF
100
AcDbLine
 10
234.7736801096948
 20
59.99999999999998
 30
0.0
 11
324.835391655631
 21
59.99999999999998
 31
0.0
  0
LINE
  5
191
330
1E
100
AcDbEntity
  8
HILF
100
AcDbLine
 10
234.7736801096948
 20
69.99999999999994
 30
0.0
 11
324.835391655631
 21
69.99999999999994
 31
0.0
  0
LINE
  5
192
330
1E
100
AcDbEntity
  8
HILF
100
AcDbLine
 10
234.7736801096948
 20
84.03758247564139
 30
0.0
 11
324.8353916556311
 21
84.03758247564139
 31
0.0
  0
LINE
  5
193
330
1E
100
AcDbEntity
  8
STEMPEL
100
AcDbLine
 10
230.0
 20
110.0
 30
0.0
 11
230.0
 21
9.999999999999971
 31
0.0
  0
TEXT
  5
194
330
1E
100
AcDbEntity
  8
TEXT
100
AcDbText
 10
235.1296391125315
 20
71.50334417585288
 30
0.0
 40
5.0
  1
dünnwandig
 41
0.8
  7
GREEKS
100
AcDbText
  0
TEXT
  5
195
330
1E
100
AcDbEntity
  8
TEXT
100
AcDbText
 10
234.9837501577827
 20
42.62974153022633
 30
0.0
 40
4.0
  1
4320150W.DWG
 41
0.8
  7
GREEKS
100
AcDbText
  0
TEXT
  5
196
330
1E
100
AcDbEntity
  8
TEXT
100
AcDbText
 10
234.742238391136
 20
30.84560570193057
 30
0.0
 40
5.0
  1
Bauvorhaben
 41
0.8
  7
GREEKS
100
AcDbText
  0
TEXT
  5
197
330
1E
100
AcDbEntity
  8
TEXT
100
AcDbText
 10
234.877940380901
 20
102.5489328011779
 30
0.0
 40
5.0
  1
Benennung
 41
0.8
  7
GREEKS
100
AcDbText
  0
LINE
  5
198
330
1E
100
AcDbEntity
  8
STEMPEL
100
AcDbLine
 10
332.0
 20
109.9999999999997
 30
0.0
 11
332.0
 21
40.0
 31
0.0
  0
TEXT
  5
19A
330
1E
100
AcDbEntity
  8
TEXT
 62
     1
100
AcDbText
 10
350.4205526553954
 20
88.14901428913959
 30
0.0
 40
7.0
  1
4310150W
 41
0.8
  7
GREEKS
 72
     1
 11
370.6872193220621
 21
88.14901428913959
 31
0.0
100
AcDbText
  0
TEXT
  5
212
330
1E
100
AcDbEntity
  8
TEXT
100
AcDbText
 10
235.1296391125315
 20
51.50334417585292
 30
0.0
 40
5.0
  1
EDV-Art.Nr. 4.310.150C
 41
0.8
  7
GREEKS
100
AcDbText
  0
LINE
  5
EFF
102
{ACAD_REACTORS
330
19D4
102
}
330
1E
100
AcDbEntity
  8
STEMPEL
100
AcDbLine
 10
210.3424672908948
 20
301.025668340654
 30
0.0
 11
210.3424672908944
 21
162.2275131312603
 31
0.0
  0
LINE
  5
F3D
102
{ACAD_REACTORS
330
19D4
102
}
330
1E
100
AcDbEntity
  8
STEMPEL
100
AcDbLine
 10
51.34246729089454
 20
351.1581757724123
 30
0.0
 11
51.34246729089477
 21
162.2275131312615
 31
0.0
  0
LINE
  5
107B
330
1E
100
AcDbEntity
  8
STEMPEL
100
AcDbLine
 10
209.4675806556354
 20
152.2275131312611
 30
0.0
 11
52.21735392615392
 21
152.227513131261
 31
0.0
  0
DIMENSION
  5
107C
330
1E
100
AcDbEntity
  8
BEM
100
AcDbDimension
  2
*D1
 10
210.342467290895
 20
131.8037406498336
 30
0.0
 11
130.8424672908949
 21
138.3037406498336
 31
0.0
 70
    32
  1
%%c<>
 71
     5
 42
159.0000000000002
  3
Standard
100
AcDbAlignedDimension
 13
51.34246729089477
 23
162.2275131312615
 33
0.0
 14
210.342467290895
 24
162.2275131312606
 34
0.0
100
AcDbRotatedDimension
1001
ACAD
1000
DSTYLE
1002
{
1070
    40
1040
2.0
1070
    41
1040
3.5
1070
    42
1040
1.0
1070
    43
1040
7.0
1070
    44
1040
1.0
1070
    73
1070
     0
1070
    74
1070
     0
1070
    77
1070
     1
1070
    78
1070
     8
1070
    79
1070
     2
1070
   140
1040
3.5
1070
   141
1040
1.5
1070
   146
1040
0.5142857142857144
1070
   147
1040
1.5
1070
   172
1070
     1
1070
   178
1070
     1
1070
   179
1070
     2
1070
   271
1070
     2
1070
   272
1070
     2
1070
   284
1070
     8
1070
   285
1070
     8
1070
   286
1070
     8
1002
}
  0
LINE
  5
107D
330
1E
100
AcDbEntity
  8
HILF
100
AcDbLine
 10
208.8424672908944
 20
162.2275131312606
 30
0.0
 11
52.84246729089478
 21
162.227513131262
 31
0.0
  0
LINE
  5
107F
330
1E
100
AcDbEntity
  8
STEMPEL
100
AcDbLine
 10
51.34246729089477
 20
162.2275131312615
 30
0.0
 11
52.21735392615392
 21
152.2275131312615
 31
0.0
  0
LINE
  5
1084
330
1E
100
AcDbEntity
  8
STEMPEL
100
AcDbLine
 10
210.3424672908944
 20
162.2275131312611
 30
0.0
 11
209.4675806556353
 21
152.2275131312606
 31
0.0
  0
LINE
  5
1086
330
1E
100
AcDbEntity
  8
MITTEL
100
AcDbLine
 10
130.8424672908945
 20
409.2322119119699
 30
0.0
 11
130.8424672908945
 21
147.2275131312614
 31
0.0
  0
TEXT
  5
1179
330
1E
100
AcDbEntity
  8
TEXT
 62
     1
100
AcDbText
 10
297.8270354556041
 20
120.2189432904659
 30
0.0
 40
7.0
  1
Werkstoff: 1.4301
 41
0.8
  7
GREEKS
100
AcDbText
  0
LINE
  5
1207
330
1E
100
AcDbEntity
  8
STEMPEL
100
AcDbLine
 10
319.026649707282
 20
393.1235199594211
 30
0.0
 11
259.7139592
 21
371.5354661005271
 31
0.0
  0
LINE
  5
1209
330
1E
100
AcDbEntity
  8
STEMPEL
100
AcDbLine
 10
264.6454469185008
 20
542.5346466643807
 30
0.0
 11
158.2236091161006
 21
503.8002654284013
 31
0.0
  0
LINE
  5
120A
330
1E
100
AcDbEntity
  8
MITTEL
100
AcDbLine
 10
377.0463493463617
 20
498.8430965409466
 30
0.0
 11
130.8424672908945
 21
409.2322119119699
 31
0.0
  0
LINE
  5
120B
330
1E
100
AcDbEntity
  8
HILF
100
AcDbLine
 10
352.1489029841093
 20
401.8758892566106
 30
0.0
 11
295.6444795244281
 21
557.1205168113874
 31
0.0
  0
LINE
  5
120C
330
1E
100
AcDbEntity
  8
HILF
100
AcDbLine
 10
329.0066833667971
 20
394.7181803360283
 30
0.0
 11
273.3156241772537
 21
547.72810792481
 31
0.0
  0
LINE
  5
120D
330
1E
100
AcDbEntity
  8
HILF
100
AcDbLine
 10
321.6032445016856
 20
395.1956097441786
 30
0.0
 11
267.9511466827228
 21
542.6035370081499
 31
0.0
  0
LINE
  5
120E
330
1E
100
AcDbEntity
  8
STEMPEL
100
AcDbLine
 10
401.643644492767
 20
416.6435615457212
 30
0.0
 11
343.052127992097
 21
577.6224301029156
 31
0.0
  0
TEXT
  5
120F
330
1E
100
AcDbEntity
  8
TEXT
 62
     1
100
AcDbText
 10
336.4329461641802
 20
495.1370917272094
 30
0.0
 40
7.0
  1
DN150
 50
19.99999999999993
 41
0.8
  7
GREEKS
100
AcDbText
  0
ARC
  5
1210
330
1E
100
AcDbEntity
  8
STEMPEL
100
AcDbCircle
 10
284.1981884771472
 20
574.1273513569736
 30
0.0
 40
19.0
100
AcDbArc
 50
290.0
 51
317.9064081148547
  0
ARC
  5
1211
330
1E
100
AcDbEntity
  8
STEMPEL
100
AcDbCircle
 10
261.2252454852442
 20
551.9315728722394
 30
0.0
 40
10.0
100
AcDbArc
 50
290.0
 51
321.5863380965278
  0
ARC
  5
1212
330
1E
100
AcDbEntity
  8
STEMPEL
100
AcDbCircle
 10
282.3809692695081
 20
535.1555378471232
 30
0.0
 40
17.0
100
AcDbArc
 50
109.9999999999999
 51
141.5863380965277
  0
LINE
  5
1213
330
1E
100
AcDbEntity
  8
STEMPEL
100
AcDbLine
 10
290.6965712003348
 20
556.2731915620413
 30
0.0
 11
276.5666268329714
 21
551.1303124004839
 31
0.0
  0
LINE
  5
1214
330
1E
100
AcDbEntity
  8
STEMPEL
100
AcDbLine
 10
326.9058168480973
 20
575.8373458179155
 30
0.0
 11
311.6080895958694
 21
570.2694284461817
 31
0.0
  0
ARC
  5
1215
330
1E
100
AcDbEntity
  8
STEMPEL
100
AcDbCircle
 10
323.2923941070388
 20
538.3422221315299
 30
0.0
 40
34.0
100
AcDbArc
 50
109.9999999999999
 51
137.3202406357856
  0
LINE
  5
1216
330
1E
100
AcDbEntity
  8
STEMPEL
100
AcDbLine
 10
343.052127992097
 20
577.6224301029156
 30
0.0
 11
341.4977969745905
 21
577.758416446314
 31
0.0
  0
ARC
  5
1217
330
1E
100
AcDbEntity
  8
STEMPEL
100
AcDbCircle
 10
338.5345017211703
 20
543.8877967111945
 30
0.0
 40
34.0
100
AcDbArc
 50
85.00000000000737
 51
109.9999999999999
  0
ARC
  5
1218
330
1E
100
AcDbEntity
  8
STEMPEL
100
AcDbCircle
 10
354.3123178589092
 20
381.4903640958626
 30
0.0
 40
19.0
100
AcDbArc
 50
82.84565715161864
 51
109.9999999999999
  0
ARC
  5
1219
330
1E
100
AcDbEntity
  8
STEMPEL
100
AcDbCircle
 10
322.4468511405384
 20
383.726593751562
 30
0.0
 40
10.0
100
AcDbArc
 50
78.413661903472
 51
109.9999999999999
  0
ARC
  5
121A
330
1E
100
AcDbEntity
  8
STEMPEL
100
AcDbCircle
 10
327.8696483318217
 20
410.1764192825976
 30
0.0
 40
17.0
100
AcDbArc
 50
258.4136619034723
 51
290.0
  0
LINE
  5
121B
330
1E
100
AcDbEntity
  8
STEMPEL
100
AcDbLine
 10
347.8139351357213
 20
399.3445238907946
 30
0.0
 11
333.6839907683582
 21
394.2016447292372
 31
0.0
  0
ARC
  5
121C
330
1E
100
AcDbEntity
  8
STEMPEL
100
AcDbCircle
 10
376.4987376303193
 20
439.5819158039587
 30
0.0
 40
34.0
100
AcDbArc
 50
290.0
 51
314.9999999999926
  0
ARC
  5
121D
330
1E
100
AcDbEntity
  8
STEMPEL
100
AcDbCircle
 10
361.2579791626915
 20
434.0326344747401
 30
0.0
 40
34.0
100
AcDbArc
 50
262.2594896725498
 51
290.0
  0
LINE
  5
121E
330
1E
100
AcDbEntity
  8
STEMPEL
100
AcDbLine
 10
388.1274225033919
 20
407.6323666972381
 30
0.0
 11
372.8296952511638
 21
402.0644493255042
 31
0.0
  0
LINE
  5
121F
330
1E
100
AcDbEntity
  8
STEMPEL
100
AcDbLine
 10
401.643644492767
 20
416.6435615457212
 30
0.0
 11
400.5403681906617
 21
415.5402852436163
 31
0.0
  0
TEXT
  5
1655
330
1E
100
AcDbEntity
  8
BEM
100
AcDbText
 10
416.5811541437437
 20
12.14804815338303
 30
0.0
 40
4.0
  1
Diese Zeichnung ist urheberrechtlich geschützt und bleibt unser Eigentum. Sie darf weder ganz noch teilweise vervielfältigt und nicht an Dritte weitergegeben werden.
 50
90.0
 41
0.8
  7
GREEKS
100
AcDbText
  0
TEXT
  5
16CF
330
1E
100
AcDbEntity
  8
TEXT
100
AcDbText
 10
192.6882715247924
 20
88.30381894129255
 30
0.0
 40
4.0
  1
DIN EN1124-3
 41
0.8
  7
GREEKS
 72
     1
 11
209.6787477152686
 21
88.30381894129255
 31
0.0
100
AcDbText
  0
TEXT
  5
170C
330
1E
100
AcDbEntity
  8
TEXT
100
AcDbText
 10
170.7037590129979
 20
63.10765040825732
 30
0.0
 40
4.0
  1
14.04.
 41
0.8
  7
GREEKS
 72
     1
 11
177.4085209177598
 21
63.10765040825732
 31
0.0
100
AcDbText
  0
LINE
  5
1798
330
1E
100
AcDbEntity
  8
MITTEL
100
AcDbLine
 10
208.9687841580501
 20
437.667865764464
 30
0.0
 11
130.8424672908944
 21
326.0919220565329
 31
0.0
  0
LINE
  5
179A
102
{ACAD_REACTORS
330
19D4
102
}
330
1E
100
AcDbEntity
  8
STEMPEL
100
AcDbLine
 10
158.2236091161006
 20
503.8002654284013
 30
0.0
 11
51.34246729089454
 21
351.1581757724123
 31
0.0
  0
LINE
  5
179B
102
{ACAD_REACTORS
330
19D4
102
}
330
1E
100
AcDbEntity
  8
STEMPEL
100
AcDbLine
 10
259.7139592
 20
371.5354661005271
 30
0.0
 11
210.3424672908948
 21
301.025668340654
 31
0.0
  0
LINE
  5
179C
330
1E
100
AcDbEntity
  8
STEMPEL
100
AcDbLine
 10
158.2236091161006
 20
503.8002654284013
 30
0.0
 11
259.7139592
 21
371.5354661005271
 31
0.0
  0
LINE
  5
179E
330
1E
100
AcDbEntity
  8
STEMPEL
100
AcDbLine
 10
51.34246729089454
 20
351.1581757724123
 30
0.0
 11
210.3424672908948
 21
301.025668340654
 31
0.0
  0
DIMENSION
  5
17B1
330
1E
100
AcDbEntity
  8
BEM
100
AcDbDimension
  2
*D5
 10
96.53307450522072
 20
152.227513131261
 30
0.0
 11
90.0330745052207
 21
280.7298625216155
 31
0.0
 70
    32
  1
<>
 71
     5
 42
257.0046987807089
  3
Standard
100
AcDbAlignedDimension
 13
130.8424672908945
 23
409.2322119119699
 33
0.0
 14
52.21735392615392
 24
152.227513131261
 34
0.0
 50
90.0
100
AcDbRotatedDimension
1001
ACAD
1000
DSTYLE
1002
{
1070
    40
1040
2.0
1070
    41
1040
3.5
1070
    42
1040
1.0
1070
    43
1040
7.0
1070
    44
1040
1.0
1070
    73
1070
     0
1070
    74
1070
     0
1070
    77
1070
     1
1070
    78
1070
     8
1070
    79
1070
     2
1070
   140
1040
3.5
1070
   141
1040
1.5
1070
   146
1040
0.5142857142857144
1070
   147
1040
1.5
1070
   172
1070
     1
1070
   178
1070
     1
1070
   179
1070
     2
1070
   271
1070
     2
1070
   272
1070
     2
1070
   284
1070
     8
1070
   285
1070
     8
1070
   286
1070
     8
1002
}
  0
DIMENSION
  5
1862
330
1E
100
AcDbEntity
  8
BEM
100
AcDbDimension
  2
*D6
 10
352.7824922613081
 20
550.8884739901907
 30
0.0
 11
229.8066518539225
 21
513.0460840691232
 31
0.0
 70
    32
 71
     5
 42
257.0046987807101
  3
Standard
100
AcDbAlignedDimension
 13
130.8424672908945
 23
409.2322119119699
 33
0.0
 14
343.052127992097
 24
577.6224301029156
 34
0.0
 50
20.00000000000067
100
AcDbRotatedDimension
1001
ACAD
1000
DSTYLE
1002
{
1070
    40
1040
2.0
1070
    41
1040
3.5
1070
    42
1040
1.0
1070
    43
1040
7.0
1070
    44
1040
1.0
1070
    73
1070
     0
1070
    74
1070
     0
1070
    77
1070
     1
1070
    78
1070
     8
1070
    79
1070
     2
1070
   140
1040
3.5
1070
   141
1040
1.5
1070
   146
1040
0.5142857142857144
1070
   147
1040
1.5
1070
   172
1070
     1
1070
   178
1070
     1
1070
   179
1070
     2
1070
   271
1070
     2
1070
   272
1070
     2
1070
   284
1070
     8
1070
   285
1070
     8
1070
   286
1070
     8
1002
}
  0
ARC
  5
19A2
102
{ACAD_REACTORS
330
19D4
102
}
330
1E
100
AcDbEntity
  8
SCHRAFF
100
AcDbCircle
 10
209.8448993149824
 20
301.1825509208441
 30
0.0
 40
3.339742759312058
100
AcDbArc
 50
278.5680479726238
 51
46.43195202737679
  0
ARC
  5
19A3
102
{ACAD_REACTORS
330
19D4
102
}
330
1E
100
AcDbEntity
  8
SCHRAFF
100
AcDbCircle
 10
52.71326755305886
 20
350.7259641099569
 30
0.0
 40
3.03998373654688
100
AcDbArc
 50
81.80295349090416
 51
243.1970465090965
  0
ARC
  5
19A4
330
1E
100
AcDbEntity
  8
SCHRAFF
100
AcDbCircle
 10
51.34246729089454
 20
351.1581757724123
 30
0.0
 40
5.0
100
AcDbArc
 50
305.6301023541568
 51
19.3698976458442
  0
ARC
  5
19A5
330
1E
100
AcDbEntity
  8
SCHRAFF
100
AcDbCircle
 10
56.11105204463568
 20
349.654646774891
 30
0.0
 40
5.0
100
AcDbArc
 50
305.6301023541568
 51
19.3698976458442
  0
ARC
  5
19A6
330
1E
100
AcDbEntity
  8
SCHRAFF
100
AcDbCircle
 10
60.87963679837682
 20
348.1511177773696
 30
0.0
 40
5.0
100
AcDbArc
 50
305.6301023541568
 51
19.3698976458442
  0
ARC
  5
19A7
330
1E
100
AcDbEntity
  8
SCHRAFF
100
AcDbCircle
 10
65.64822155211796
 20
346.6475887798483
 30
0.0
 40
5.0
100
AcDbArc
 50
305.6301023541568
 51
19.3698976458442
  0
ARC
  5
19A8
330
1E
100
AcDbEntity
  8
SCHRAFF
100
AcDbCircle
 10
70.4168063058591
 20
345.1440597823269
 30
0.0
 40
5.0
100
AcDbArc
 50
305.6301023541568
 51
19.3698976458442
  0
ARC
  5
19A9
330
1E
100
AcDbEntity
  8
SCHRAFF
100
AcDbCircle
 10
75.18539105960022
 20
343.6405307848055
 30
0.0
 40
5.0
100
AcDbArc
 50
305.6301023541568
 51
19.3698976458442
  0
ARC
  5
19AA
330
1E
100
AcDbEntity
  8
SCHRAFF
100
AcDbCircle
 10
79.95397581334137
 20
342.1370017872842
 30
0.0
 40
5.0
100
AcDbArc
 50
305.6301023541568
 51
19.3698976458442
  0
ARC
  5
19AB
330
1E
100
AcDbEntity
  8
SCHRAFF
100
AcDbCircle
 10
84.7225605670825
 20
340.6334727897628
 30
0.0
 40
5.0
100
AcDbArc
 50
305.6301023541568
 51
19.3698976458442
  0
ARC
  5
19AC
330
1E
100
AcDbEntity
  8
SCHRAFF
100
AcDbCircle
 10
89.49114532082365
 20
339.1299437922415
 30
0.0
 40
5.0
100
AcDbArc
 50
305.6301023541568
 51
19.3698976458442
  0
ARC
  5
19AD
330
1E
100
AcDbEntity
  8
SCHRAFF
100
AcDbCircle
 10
94.25973007456477
 20
337.6264147947201
 30
0.0
 40
5.0
100
AcDbArc
 50
305.6301023541568
 51
19.3698976458442
  0
ARC
  5
19AE
330
1E
100
AcDbEntity
  8
SCHRAFF
100
AcDbCircle
 10
99.02831482830592
 20
336.1228857971988
 30
0.0
 40
5.0
100
AcDbArc
 50
305.6301023541568
 51
19.3698976458442
  0
ARC
  5
19AF
330
1E
100
AcDbEntity
  8
SCHRAFF
100
AcDbCircle
 10
103.796899582047
 20
334.6193567996774
 30
0.0
 40
5.0
100
AcDbArc
 50
305.6301023541568
 51
19.3698976458442
  0
ARC
  5
19B0
330
1E
100
AcDbEntity
  8
SCHRAFF
100
AcDbCircle
 10
108.5654843357882
 20
333.115827802156
 30
0.0
 40
5.0
100
AcDbArc
 50
305.6301023541568
 51
19.3698976458442
  0
ARC
  5
19B1
330
1E
100
AcDbEntity
  8
SCHRAFF
100
AcDbCircle
 10
113.3340690895293
 20
331.6122988046346
 30
0.0
 40
5.0
100
AcDbArc
 50
305.6301023541568
 51
19.3698976458442
  0
ARC
  5
19B2
330
1E
100
AcDbEntity
  8
SCHRAFF
100
AcDbCircle
 10
118.1026538432704
 20
330.1087698071133
 30
0.0
 40
5.0
100
AcDbArc
 50
305.6301023541568
 51
19.3698976458442
  0
ARC
  5
19B3
330
1E
100
AcDbEntity
  8
SCHRAFF
100
AcDbCircle
 10
122.8712385970116
 20
328.6052408095919
 30
0.0
 40
5.0
100
AcDbArc
 50
305.6301023541568
 51
19.3698976458442
  0
ARC
  5
19B4
330
1E
100
AcDbEntity
  8
SCHRAFF
100
AcDbCircle
 10
127.6398233507527
 20
327.1017118120706
 30
0.0
 40
5.0
100
AcDbArc
 50
305.6301023541568
 51
19.3698976458442
  0
ARC
  5
19B5
330
1E
100
AcDbEntity
  8
SCHRAFF
100
AcDbCircle
 10
132.4807713794725
 20
324.9447691838311
 30
0.0
 40
5.0
100
AcDbArc
 50
305.6301023541568
 51
19.3698976458442
  0
ARC
  5
19B6
330
1E
100
AcDbEntity
  8
SCHRAFF
100
AcDbCircle
 10
137.3955828569351
 20
324.0257326551766
 30
0.0
 40
5.0
100
AcDbArc
 50
305.6301023541568
 51
19.3698976458442
  0
ARC
  5
19B7
330
1E
100
AcDbEntity
  8
SCHRAFF
100
AcDbCircle
 10
142.1641676106763
 20
322.5222036576552
 30
0.0
 40
5.0
100
AcDbArc
 50
305.6301023541568
 51
19.3698976458442
  0
ARC
  5
19B8
330
1E
100
AcDbEntity
  8
SCHRAFF
100
AcDbCircle
 10
146.9327523644174
 20
321.0186746601339
 30
0.0
 40
5.0
100
AcDbArc
 50
305.6301023541568
 51
19.3698976458442
  0
ARC
  5
19B9
330
1E
100
AcDbEntity
  8
SCHRAFF
100
AcDbCircle
 10
151.7013371181585
 20
319.5151456626125
 30
0.0
 40
5.0
100
AcDbArc
 50
305.6301023541568
 51
19.3698976458442
  0
ARC
  5
19BA
330
1E
100
AcDbEntity
  8
SCHRAFF
100
AcDbCircle
 10
156.4699218718997
 20
318.0116166650912
 30
0.0
 40
5.0
100
AcDbArc
 50
305.6301023541568
 51
19.3698976458442
  0
ARC
  5
19BC
330
1E
100
AcDbEntity
  8
SCHRAFF
100
AcDbCircle
 10
161.2385066256408
 20
316.5080876675698
 30
0.0
 40
5.0
100
AcDbArc
 50
305.6301023541568
 51
19.3698976458442
  0
ARC
  5
19BD
330
1E
100
AcDbEntity
  8
SCHRAFF
100
AcDbCircle
 10
166.007091379382
 20
315.0045586700485
 30
0.0
 40
5.0
100
AcDbArc
 50
305.6301023541568
 51
19.3698976458442
  0
ARC
  5
19BE
330
1E
100
AcDbEntity
  8
SCHRAFF
100
AcDbCircle
 10
170.7756761331231
 20
313.5010296725271
 30
0.0
 40
5.0
100
AcDbArc
 50
305.6301023541568
 51
19.3698976458442
  0
ARC
  5
19BF
330
1E
100
AcDbEntity
  8
SCHRAFF
100
AcDbCircle
 10
175.5442608868642
 20
311.9975006750057
 30
0.0
 40
5.0
100
AcDbArc
 50
305.6301023541568
 51
19.3698976458442
  0
ARC
  5
19C0
330
1E
100
AcDbEntity
  8
SCHRAFF
100
AcDbCircle
 10
175.5442608868642
 20
311.9975006750057
 30
0.0
 40
5.0
100
AcDbArc
 50
305.6301023541568
 51
19.3698976458442
  0
ARC
  5
19C1
330
1E
100
AcDbEntity
  8
SCHRAFF
100
AcDbCircle
 10
180.3128456406054
 20
310.4939716774844
 30
0.0
 40
5.0
100
AcDbArc
 50
305.6301023541568
 51
19.3698976458442
  0
ARC
  5
19C2
330
1E
100
AcDbEntity
  8
SCHRAFF
100
AcDbCircle
 10
185.0814303943465
 20
308.990442679963
 30
0.0
 40
5.0
100
AcDbArc
 50
305.6301023541568
 51
19.3698976458442
  0
ARC
  5
19C3
330
1E
100
AcDbEntity
  8
SCHRAFF
100
AcDbCircle
 10
189.8500151480876
 20
307.4869136824416
 30
0.0
 40
5.0
100
AcDbArc
 50
305.6301023541568
 51
19.3698976458442
  0
ARC
  5
19C4
330
1E
100
AcDbEntity
  8
SCHRAFF
100
AcDbCircle
 10
194.6185999018288
 20
305.9833846849202
 30
0.0
 40
5.0
100
AcDbArc
 50
305.6301023541568
 51
19.3698976458442
  0
ARC
  5
19C5
330
1E
100
AcDbEntity
  8
SCHRAFF
100
AcDbCircle
 10
199.3871846555699
 20
304.4798556873989
 30
0.0
 40
5.0
100
AcDbArc
 50
305.6301023541568
 51
19.3698976458442
  0
ARC
  5
19C6
330
1E
100
AcDbEntity
  8
SCHRAFF
100
AcDbCircle
 10
204.1557694093111
 20
302.9763266898775
 30
0.0
 40
5.0
100
AcDbArc
 50
305.6301023541568
 51
19.3698976458442
  0
HATCH
  5
19D4
330
1E
100
AcDbEntity
  8
SCHRAFF
100
AcDbHatch
 10
0.0
 20
0.0
 30
0.0
210
0.0
220
0.0
230
1.0
  2
_USER
 70
     0
 71
     1
 91
        2
 92
        7
 72
     1
 73
     1
 93
        3
 10
212.1467020879204
 20
303.6023826697209
 42
0.0
 10
210.3424672908948
 20
301.025668340654
 42
0.0
 10
210.3424672908948
 20
297.8800809652314
 42
0.6240439593978753
 97
        3
330
179B
330
EFF
330
19A2
 92
        7
 72
     1
 73
     1
 93
        3
 10
51.34246729089454
 20
351.1581757724123
 42
0.0
 10
53.14670208792017
 20
353.7348901014793
 42
0.8495187011846009
 10
51.34246729089455
 20
348.0125883969898
 42
0.0
 97
        3
330
179A
330
19A3
330
F3D
 75
     0
 76
     0
 52
0.0
 41
0.1
 77
     0
 78
     1
 53
0.0
 43
0.0
 44
0.0
 45
0.0
 46
0.1
 79
     0
 47
0.206030305609201
 98
        2
 10
212.3467680198128
 20
300.715593060195
 10
50.51540984714847
 20
350.986987978672
  0
ARC
  5
19FB
330
1E
100
AcDbEntity
  8
SCHRAFF
100
AcDbCircle
 10
173.4426448413184
 20
483.9664319211206
 30
0.0
 40
5.0
100
AcDbArc
 50
270.6301023541559
 51
344.3698976458433
  0
ARC
  5
19FC
330
1E
100
AcDbEntity
  8
SCHRAFF
100
AcDbCircle
 10
170.3988376962748
 20
487.9331986225768
 30
0.0
 40
5.0
100
AcDbArc
 50
270.6301023541559
 51
344.3698976458433
  0
ARC
  5
19FD
330
1E
100
AcDbEntity
  8
SCHRAFF
100
AcDbCircle
 10
167.3550305512312
 20
491.8999653240329
 30
0.0
 40
5.0
100
AcDbArc
 50
270.6301023541559
 51
344.3698976458433
  0
ARC
  5
19FE
330
1E
100
AcDbEntity
  8
SCHRAFF
100
AcDbCircle
 10
159.0985965280637
 20
502.6599596322143
 30
0.0
 40
3.03998373654688
100
AcDbArc
 50
46.80295349090359
 51
208.1970465090959
  0
ARC
  5
19FF
330
1E
100
AcDbEntity
  8
SCHRAFF
100
AcDbCircle
 10
158.2236091161003
 20
503.8002654284015
 30
0.0
 40
5.0
100
AcDbArc
 50
270.6301023541559
 51
344.3698976458433
  0
ARC
  5
1A00
330
1E
100
AcDbEntity
  8
SCHRAFF
100
AcDbCircle
 10
161.267416261144
 20
499.8334987269453
 30
0.0
 40
5.0
100
AcDbArc
 50
270.6301023541559
 51
344.3698976458433
  0
ARC
  5
1A01
330
1E
100
AcDbEntity
  8
SCHRAFF
100
AcDbCircle
 10
164.3112234061876
 20
495.8667320254892
 30
0.0
 40
5.0
100
AcDbArc
 50
270.6301023541559
 51
344.3698976458433
  0
ARC
  5
1A02
330
1E
100
AcDbEntity
  8
SCHRAFF
100
AcDbCircle
 10
194.7492948566236
 20
456.1990650109274
 30
0.0
 40
5.0
100
AcDbArc
 50
270.6301023541559
 51
344.3698976458433
  0
ARC
  5
1A03
330
1E
100
AcDbEntity
  8
SCHRAFF
100
AcDbCircle
 10
176.486451986362
 20
479.9996652196644
 30
0.0
 40
5.0
100
AcDbArc
 50
270.6301023541559
 51
344.3698976458433
  0
ARC
  5
1A04
330
1E
100
AcDbEntity
  8
SCHRAFF
100
AcDbCircle
 10
182.5740662764492
 20
472.0661318167521
 30
0.0
 40
5.0
100
AcDbArc
 50
270.6301023541559
 51
344.3698976458433
  0
ARC
  5
1A05
330
1E
100
AcDbEntity
  8
SCHRAFF
100
AcDbCircle
 10
179.5302591314056
 20
476.0328985182082
 30
0.0
 40
5.0
100
AcDbArc
 50
270.6301023541559
 51
344.3698976458433
  0
ARC
  5
1A06
330
1E
100
AcDbEntity
  8
SCHRAFF
100
AcDbCircle
 10
188.6616805665363
 20
464.1325984138397
 30
0.0
 40
5.0
100
AcDbArc
 50
270.6301023541559
 51
344.3698976458433
  0
ARC
  5
1A07
330
1E
100
AcDbEntity
  8
SCHRAFF
100
AcDbCircle
 10
185.6178734214928
 20
468.0993651152959
 30
0.0
 40
5.0
100
AcDbArc
 50
270.6301023541559
 51
344.3698976458433
  0
ARC
  5
1A08
330
1E
100
AcDbEntity
  8
SCHRAFF
100
AcDbCircle
 10
191.70548771158
 20
460.1658317123836
 30
0.0
 40
5.0
100
AcDbArc
 50
270.6301023541559
 51
344.3698976458433
  0
ARC
  5
1A09
330
1E
100
AcDbEntity
  8
SCHRAFF
100
AcDbCircle
 10
203.8807162917545
 20
444.2987649065588
 30
0.0
 40
5.0
100
AcDbArc
 50
270.6301023541559
 51
344.3698976458433
  0
ARC
  5
1A0A
330
1E
100
AcDbEntity
  8
SCHRAFF
100
AcDbCircle
 10
197.7931020016672
 20
452.2322983094712
 30
0.0
 40
5.0
100
AcDbArc
 50
270.6301023541559
 51
344.3698976458433
  0
ARC
  5
1A0B
330
1E
100
AcDbEntity
  8
SCHRAFF
100
AcDbCircle
 10
200.8369091467109
 20
448.265531608015
 30
0.0
 40
5.0
100
AcDbArc
 50
270.6301023541559
 51
344.3698976458433
  0
ARC
  5
1A0C
330
1E
100
AcDbEntity
  8
SCHRAFF
100
AcDbCircle
 10
213.1516646167778
 20
432.2166298190887
 30
0.0
 40
5.0
100
AcDbArc
 50
270.6301023541559
 51
344.3698976458433
  0
ARC
  5
1A0D
330
1E
100
AcDbEntity
  8
SCHRAFF
100
AcDbCircle
 10
210.607088246628
 20
436.5207128917623
 30
0.0
 40
5.0
100
AcDbArc
 50
270.6301023541559
 51
344.3698976458433
  0
ARC
  5
1A0E
330
1E
100
AcDbEntity
  8
SCHRAFF
100
AcDbCircle
 10
206.9245234367981
 20
440.3319982051026
 30
0.0
 40
5.0
100
AcDbArc
 50
270.6301023541559
 51
344.3698976458433
  0
ARC
  5
1A0F
330
1E
100
AcDbEntity
  8
SCHRAFF
100
AcDbCircle
 10
225.3268931969522
 20
416.349563013264
 30
0.0
 40
5.0
100
AcDbArc
 50
270.6301023541559
 51
344.3698976458433
  0
ARC
  5
1A10
330
1E
100
AcDbEntity
  8
SCHRAFF
100
AcDbCircle
 10
222.2830860519086
 20
420.3163297147201
 30
0.0
 40
5.0
100
AcDbArc
 50
270.6301023541559
 51
344.3698976458433
  0
ARC
  5
1A11
330
1E
100
AcDbEntity
  8
SCHRAFF
100
AcDbCircle
 10
219.239278906865
 20
424.2830964161763
 30
0.0
 40
5.0
100
AcDbArc
 50
270.6301023541559
 51
344.3698976458433
  0
ARC
  5
1A12
330
1E
100
AcDbEntity
  8
SCHRAFF
100
AcDbCircle
 10
216.1954717618215
 20
428.2498631176325
 30
0.0
 40
5.0
100
AcDbArc
 50
270.6301023541559
 51
344.3698976458433
  0
ARC
  5
1A13
330
1E
100
AcDbEntity
  8
SCHRAFF
100
AcDbCircle
 10
231.4145074870394
 20
408.4160296103516
 30
0.0
 40
5.0
100
AcDbArc
 50
270.6301023541559
 51
344.3698976458433
  0
ARC
  5
1A14
330
1E
100
AcDbEntity
  8
SCHRAFF
100
AcDbCircle
 10
228.3707003419959
 20
412.3827963118078
 30
0.0
 40
5.0
100
AcDbArc
 50
270.6301023541559
 51
344.3698976458433
  0
ARC
  5
1A15
330
1E
100
AcDbEntity
  8
SCHRAFF
100
AcDbCircle
 10
234.4583146320831
 20
404.4492629088955
 30
0.0
 40
5.0
100
AcDbArc
 50
270.6301023541559
 51
344.3698976458433
  0
ARC
  5
1A16
330
1E
100
AcDbEntity
  8
SCHRAFF
100
AcDbCircle
 10
246.6335432122574
 20
388.5821961030708
 30
0.0
 40
5.0
100
AcDbArc
 50
270.6301023541559
 51
344.3698976458433
  0
ARC
  5
1A17
330
1E
100
AcDbEntity
  8
SCHRAFF
100
AcDbCircle
 10
240.5459289221703
 20
396.5157295059831
 30
0.0
 40
5.0
100
AcDbArc
 50
270.6301023541559
 51
344.3698976458433
  0
ARC
  5
1A18
330
1E
100
AcDbEntity
  8
SCHRAFF
100
AcDbCircle
 10
237.5021217771267
 20
400.4824962074393
 30
0.0
 40
5.0
100
AcDbArc
 50
270.6301023541559
 51
344.3698976458433
  0
ARC
  5
1A19
330
1E
100
AcDbEntity
  8
SCHRAFF
100
AcDbCircle
 10
237.5021217771267
 20
400.4824962074393
 30
0.0
 40
5.0
100
AcDbArc
 50
270.6301023541559
 51
344.3698976458433
  0
ARC
  5
1A1A
330
1E
100
AcDbEntity
  8
SCHRAFF
100
AcDbCircle
 10
243.5897360672139
 20
392.548962804527
 30
0.0
 40
5.0
100
AcDbArc
 50
270.6301023541559
 51
344.3698976458433
  0
ARC
  5
1A1B
330
1E
100
AcDbEntity
  8
SCHRAFF
100
AcDbCircle
 10
249.6773503573011
 20
384.6154294016147
 30
0.0
 40
5.0
100
AcDbArc
 50
270.6301023541559
 51
344.3698976458433
  0
ARC
  5
1A1C
330
1E
100
AcDbEntity
  8
SCHRAFF
100
AcDbCircle
 10
252.7211575023447
 20
380.6486627001585
 30
0.0
 40
5.0
100
AcDbArc
 50
270.6301023541559
 51
344.3698976458433
  0
ARC
  5
1A1D
330
1E
100
AcDbEntity
  8
SCHRAFF
100
AcDbCircle
 10
255.7649646473883
 20
376.6818959987023
 30
0.0
 40
5.0
100
AcDbArc
 50
270.6301023541559
 51
344.3698976458433
  0
ARC
  5
1A1E
330
1E
100
AcDbEntity
  8
SCHRAFF
100
AcDbCircle
 10
259.3963595266297
 20
371.9493700532695
 30
0.0
 40
3.339742759312058
100
AcDbArc
 50
243.5680479726233
 51
11.43195202737626
  0
HATCH
  5
1A1F
330
1E
100
AcDbEntity
  8
SCHRAFF
100
AcDbHatch
 10
0.0
 20
0.0
 30
0.0
210
0.0
220
0.0
230
1.0
  2
_USER
 70
     0
 71
     0
 91
        2
 92
        7
 72
     1
 73
     1
 93
        3
 10
257.9097244029743
 20
368.9587517714603
 42
0.0
 10
259.7139591999999
 20
371.5354661005271
 42
0.0
 10
262.6698444447218
 20
372.6113203455125
 42
-0.6240439593978753
 97
        0
 92
        7
 72
     1
 73
     1
 93
        3
 10
158.2236091161003
 20
503.8002654284015
 42
0.0
 10
156.4193743190747
 20
501.2235510993345
 42
-0.8495187011846009
 10
161.1794943608223
 20
504.8761196733869
 42
0.0
 97
        0
 75
     0
 76
     0
 52
0.0
 41
0.1
 77
     0
 78
     1
 53
290.0000000000001
 43
470.6441975965518
 44
672.1495726822581
 45
-0.0939692620785908
 46
-0.034202014332567
 79
     0
 47
0.206030305609201
 98
        2
 10
260.6908458755076
 20
369.7580914875914
 10
158.1016027171982
 20
504.6359948790064
  0
DIMENSION
  5
1A20
330
1E
100
AcDbEntity
  8
BEM
100
AcDbDimension
  2
*D8
 10
130.8424672908945
 20
147.2275131312614
 30
0.0
 11
159.5206540753649
 21
450.1889072051893
 31
0.0
 70
    34
 71
     5
 42
1.221730476396031
  3
Standard
100
AcDb2LineAngularDimension
 13
377.0463493463617
 23
498.8430965409466
 33
0.0
 14
130.8424672908945
 24
409.2322119119699
 34
0.0
 15
130.8424672908945
 25
409.2322119119699
 35
0.0
 16
162.4824153902194
 26
439.0829633893065
 36
0.0
1001
ACAD
1000
DSTYLE
1002
{
1070
    40
1040
2.0
1070
    41
1040
3.5
1070
    42
1040
1.0
1070
    43
1040
7.0
1070
    44
1040
1.0
1070
    73
1070
     0
1070
    74
1070
     0
1070
    77
1070
     1
1070
    78
1070
     8
1070
    79
1070
     2
1070
   140
1040
3.5
1070
   141
1040
1.5
1070
   146
1040
0.5142857142857144
1070
   147
1040
1.5
1070
   172
1070
     1
1070
   178
1070
     1
1070
   179
1070
     2
1070
   271
1070
     2
1070
   272
1070
     2
1070
   284
1070
     8
1070
   285
1070
     8
1070
   286
1070
     8
1002
}
  0
ENDSEC
  0
SECTION
  2
OBJECTS
  0
DICTIONARY
  5
C
330
0
100
AcDbDictionary
281
     1
  3
ACAD_COLOR
350
1607
  3
ACAD_GROUP
350
D
  3
ACAD_LAYOUT
350
19
  3
ACAD_MATERIAL
350
1606
  3
ACAD_MLINESTYLE
350
16
  3
ACAD_PLOTSETTINGS
350
18
  3
ACAD_PLOTSTYLENAME
350
E
  3
AcDbVariableDictionary
350
246
  0
DICTIONARY
  5
1607
102
{ACAD_REACTORS
330
C
102
}
330
C
100
AcDbDictionary
281
     1
  0
DICTIONARY
  5
D
102
{ACAD_REACTORS
330
C
102
}
330
C
100
AcDbDictionary
281
     1
  0
DICTIONARY
  5
19
102
{ACAD_REACTORS
330
C
102
}
330
C
100
AcDbDictionary
281
     1
  3
Layout1
350
1D
  3
Model
350
21
  0
DICTIONARY
  5
1606
102
{ACAD_REACTORS
330
C
102
}
330
C
100
AcDbDictionary
281
     1
  0
DICTIONARY
  5
16
102
{ACAD_REACTORS
330
C
102
}
330
C
100
AcDbDictionary
281
     1
  3
Standard
350
17
  0
DICTIONARY
  5
18
102
{ACAD_REACTORS
330
C
102
}
330
C
100
AcDbDictionary
281
     1
  0
ACDBDICTIONARYWDFLT
  5
E
102
{ACAD_REACTORS
330
C
102
}
330
C
100
AcDbDictionary
281
     1
  3
Normal
350
F
100
AcDbDictionaryWithDefault
340
F
  0
DICTIONARY
  5
246
102
{ACAD_REACTORS
330
C
102
}
330
C
100
AcDbDictionary
281
     1
  3
DIMASSOC
350
16CB
  3
PROJECTNAME
350
16CC
  3
SORTENTS
350
247
  0
LAYOUT
  5
1D
102
{ACAD_REACTORS
330
19
102
}
330
19
100
AcDbPlotSettings
  1

  2
Tektronix Phaser 740
  4

  6

 40
0.0
 41
0.0
 42
0.0
 43
0.0
 44
0.0
 45
0.0
 46
0.0
 47
0.0
 48
0.0
 49
0.0
140
0.0
141
0.0
142
1.0
143
1.0
 70
   688
 72
     0
 73
     0
 74
     5
  7
monochrome.ctb
 75
    16
147
1.0
 76
     0
 77
     2
 78
   300
148
0.0
149
0.0
100
AcDbLayout
  1
Layout1
 70
     0
 71
     1
 10
0.0
 20
0.0
 11
12.0
 21
9.0
 12
0.0
 22
0.0
 32
0.0
 14
1.000000000000000E+20
 24
1.000000000000000E+20
 34
1.000000000000000E+20
 15
-1.000000000000000E+20
 25
-1.000000000000000E+20
 35
-1.000000000000000E+20
146
0.0
 13
0.0
 23
0.0
 33
0.0
 16
1.0
 26
0.0
 36
0.0
 17
0.0
 27
1.0
 37
0.0
 76
     0
330
1A
  0
LAYOUT
  5
21
102
{ACAD_REACTORS
330
19
102
}
330
19
100
AcDbPlotSettings
  1

  2
Tektronix Phaser 740
  4
A4
  6

 40
5.873749732971191
 41
6.085414409637451
 42
5.577407836914062
 43
5.662078857421875
 44
209.9733276367187
 45
296.9683227539062
 46
0.0
 47
0.0
 48
0.0
 49
0.0
140
0.0
141
0.0
142
1.0
143
1.0
 70
 11952
 72
     0
 73
     1
 74
     0
  7
monochrome.ctb
 75
     0
147
1.0
 76
     0
 77
     2
 78
   300
148
1150.120678237584
149
45.30495740799864
100
AcDbLayout
  1
Model
 70
     1
 71
     0
 10
0.0
 20
0.0
 11
12.0
 21
9.0
 12
0.0
 22
0.0
 32
0.0
 14
0.0
 24
0.0
 34
0.0
 15
0.0
 25
0.0
 35
0.0
146
0.0
 13
0.0
 23
0.0
 33
0.0
 16
1.0
 26
0.0
 36
0.0
 17
0.0
 27
1.0
 37
0.0
 76
     0
330
1E
  0
MLINESTYLE
  5
17
102
{ACAD_REACTORS
330
16
102
}
330
16
100
AcDbMlineStyle
  2
STANDARD
 70
     0
  3

 62
   256
 51
90.0
 52
90.0
 71
     2
 49
0.5
 62
   256
  6
BYLAYER
 49
-0.5
 62
   256
  6
BYLAYER
  0
ACDBPLACEHOLDER
  5
F
102
{ACAD_REACTORS
330
E
102
}
330
E
  0
DICTIONARYVAR
  5
16CB
102
{ACAD_REACTORS
330
246
102
}
330
246
100
DictionaryVariables
280
     0
  1
1
  0
DICTIONARYVAR
  5
16CC
102
{ACAD_REACTORS
330
246
102
}
330
246
100
DictionaryVariables
280
     0
  1

  0
DICTIONARYVAR
  5
247
102
{ACAD_REACTORS
330
246
102
}
330
246
100
DictionaryVariables
280
     0
  1
96
  0
ENDSEC
  0
EOF
