  0
SECTION
  2
HEADER
  9
$ACADVER
  1
AC1018
  9
$ACADMAINTVER
 70
     2
  9
$DWGCODEPAGE
  3
ANSI_1252
  9
$INSBASE
 10
0.0
 20
0.0
 30
0.0
  9
$EXTMIN
 10
-0.0288151514591846
 20
-0.0407528570631257
 30
-0.0000000000000097
  9
$EXTMAX
 10
1050.035263205503
 20
1485.049872247784
 30
0.0000000000000055
  9
$LIMMIN
 10
0.0
 20
0.0
  9
$LIMMAX
 10
1050.0
 20
1485.0
  9
$ORTHOMODE
 70
     1
  9
$REGENMODE
 70
     1
  9
$FILLMODE
 70
     1
  9
$QTEXTMODE
 70
     0
  9
$MIRRTEXT
 70
     1
  9
$LTSCALE
 40
50.0
  9
$ATTMODE
 70
     1
  9
$TEXTSIZE
 40
3.5
  9
$TRACEWID
 40
0.5
  9
$TEXTSTYLE
  7
STANDARD
  9
$CLAYER
  8
BEM
  9
$CELTYPE
  6
ByLayer
  9
$CECOLOR
 62
   256
  9
$CELTSCALE
 40
1.0
  9
$DISPSILH
 70
     0
  9
$DIMSCALE
 40
5.0
  9
$DIMASZ
 40
3.5
  9
$DIMEXO
 40
1.0
  9
$DIMDLI
 40
7.0
  9
$DIMRND
 40
0.0
  9
$DIMDLE
 40
0.0
  9
$DIMEXE
 40
1.0
  9
$DIMTP
 40
0.0
  9
$DIMTM
 40
0.0
  9
$DIMTXT
 40
3.5
  9
$DIMCEN
 40
1.5
  9
$DIMTSZ
 40
0.0
  9
$DIMTOL
 70
     0
  9
$DIMLIM
 70
     0
  9
$DIMTIH
 70
     0
  9
$DIMTOH
 70
     0
  9
$DIMSE1
 70
     0
  9
$DIMSE2
 70
     0
  9
$DIMTAD
 70
     1
  9
$DIMZIN
 70
     8
  9
$DIMBLK
  1

  9
$DIMASO
 70
     1
  9
$DIMSHO
 70
     0
  9
$DIMPOST
  1

  9
$DIMAPOST
  1

  9
$DIMALT
 70
     0
  9
$DIMALTD
 70
     2
  9
$DIMALTF
 40
25.4
  9
$DIMLFAC
 40
1.0
  9
$DIMTOFL
 70
     1
  9
$DIMTVP
 40
0.0
  9
$DIMTIX
 70
     0
  9
$DIMSOXD
 70
     0
  9
$DIMSAH
 70
     0
  9
$DIMBLK1
  1

  9
$DIMBLK2
  1

  9
$DIMSTYLE
  2
Standard
  9
$DIMCLRD
 70
     0
  9
$DIMCLRE
 70
     0
  9
$DIMCLRT
 70
     1
  9
$DIMTFAC
 40
0.5142857142857144
  9
$DIMGAP
 40
1.5
  9
$DIMJUST
 70
     0
  9
$DIMSD1
 70
     0
  9
$DIMSD2
 70
     0
  9
$DIMTOLJ
 70
     1
  9
$DIMTZIN
 70
     8
  9
$DIMALTZ
 70
     8
  9
$DIMALTTZ
 70
     8
  9
$DIMUPT
 70
     0
  9
$DIMDEC
 70
     2
  9
$DIMTDEC
 70
     2
  9
$DIMALTU
 70
     2
  9
$DIMALTTD
 70
     2
  9
$DIMTXSTY
  7
STANDARD
  9
$DIMAUNIT
 70
     0
  9
$DIMADEC
 70
     2
  9
$DIMALTRND
 40
0.0
  9
$DIMAZIN
 70
     2
  9
$DIMDSEP
 70
    46
  9
$DIMATFIT
 70
     3
  9
$DIMFRAC
 70
     0
  9
$DIMLDRBLK
  1

  9
$DIMLUNIT
 70
     2
  9
$DIMLWD
 70
    -2
  9
$DIMLWE
 70
    -2
  9
$DIMTMOVE
 70
     0
  9
$LUNITS
 70
     2
  9
$LUPREC
 70
     2
  9
$SKETCHINC
 40
1.0
  9
$FILLETRAD
 40
0.0
  9
$AUNITS
 70
     1
  9
$AUPREC
 70
     3
  9
$MENU
  1
ACAD
  9
$ELEVATION
 40
0.0
  9
$PELEVATION
 40
0.0
  9
$THICKNESS
 40
0.0
  9
$LIMCHECK
 70
     0
  9
$CHAMFERA
 40
0.0
  9
$CHAMFERB
 40
0.0
  9
$CHAMFERC
 40
0.0
  9
$CHAMFERD
 40
0.0
  9
$SKPOLY
 70
     0
  9
$TDCREATE
 40
2452040.637099653
  9
$TDUCREATE
 40
2452040.553766320
  9
$TDUPDATE
 40
2455666.529586701
  9
$TDUUPDATE
 40
2455666.446253368
  9
$TDINDWG
 40
0.2569154861
  9
$TDUSRTIMER
 40
0.2569154861
  9
$USRTIMER
 70
     1
  9
$ANGBASE
 50
0.0
  9
$ANGDIR
 70
     0
  9
$PDMODE
 70
     0
  9
$PDSIZE
 40
0.0
  9
$PLINEWID
 40
0.0
  9
$SPLFRAME
 70
     0
  9
$SPLINETYPE
 70
     6
  9
$SPLINESEGS
 70
     8
  9
$HANDSEED
  5
C84
  9
$SURFTAB1
 70
     6
  9
$SURFTAB2
 70
     6
  9
$SURFTYPE
 70
     6
  9
$SURFU
 70
     6
  9
$SURFV
 70
     6
  9
$UCSBASE
  2

  9
$UCSNAME
  2

  9
$UCSORG
 10
0.0
 20
0.0
 30
0.0
  9
$UCSXDIR
 10
1.0
 20
0.0
 30
0.0
  9
$UCSYDIR
 10
0.0
 20
1.0
 30
0.0
  9
$UCSORTHOREF
  2

  9
$UCSORTHOVIEW
 70
     0
  9
$UCSORGTOP
 10
0.0
 20
0.0
 30
0.0
  9
$UCSORGBOTTOM
 10
0.0
 20
0.0
 30
0.0
  9
$UCSORGLEFT
 10
0.0
 20
0.0
 30
0.0
  9
$UCSORGRIGHT
 10
0.0
 20
0.0
 30
0.0
  9
$UCSORGFRONT
 10
0.0
 20
0.0
 30
0.0
  9
$UCSORGBACK
 10
0.0
 20
0.0
 30
0.0
  9
$PUCSBASE
  2

  9
$PUCSNAME
  2

  9
$PUCSORG
 10
0.0
 20
0.0
 30
0.0
  9
$PUCSXDIR
 10
1.0
 20
0.0
 30
0.0
  9
$PUCSYDIR
 10
0.0
 20
1.0
 30
0.0
  9
$PUCSORTHOREF
  2

  9
$PUCSORTHOVIEW
 70
     0
  9
$PUCSORGTOP
 10
0.0
 20
0.0
 30
0.0
  9
$PUCSORGBOTTOM
 10
0.0
 20
0.0
 30
0.0
  9
$PUCSORGLEFT
 10
0.0
 20
0.0
 30
0.0
  9
$PUCSORGRIGHT
 10
0.0
 20
0.0
 30
0.0
  9
$PUCSORGFRONT
 10
0.0
 20
0.0
 30
0.0
  9
$PUCSORGBACK
 10
0.0
 20
0.0
 30
0.0
  9
$USERI1
 70
     0
  9
$USERI2
 70
     0
  9
$USERI3
 70
     0
  9
$USERI4
 70
     0
  9
$USERI5
 70
     0
  9
$USERR1
 40
0.0
  9
$USERR2
 40
0.0
  9
$USERR3
 40
0.0
  9
$USERR4
 40
0.0
  9
$USERR5
 40
0.0
  9
$WORLDVIEW
 70
     1
  9
$SHADEDGE
 70
     3
  9
$SHADEDIF
 70
    70
  9
$TILEMODE
 70
     1
  9
$MAXACTVP
 70
    16
  9
$PINSBASE
 10
0.0
 20
0.0
 30
0.0
  9
$PLIMCHECK
 70
     0
  9
$PEXTMIN
 10
1.000000000000000E+20
 20
1.000000000000000E+20
 30
1.000000000000000E+20
  9
$PEXTMAX
 10
-1.000000000000000E+20
 20
-1.000000000000000E+20
 30
-1.000000000000000E+20
  9
$PLIMMIN
 10
0.0
 20
0.0
  9
$PLIMMAX
 10
12.0
 20
9.0
  9
$UNITMODE
 70
     0
  9
$VISRETAIN
 70
     0
  9
$PLINEGEN
 70
     0
  9
$PSLTSCALE
 70
     0
  9
$TREEDEPTH
 70
  3020
  9
$CMLSTYLE
  2
Standard
  9
$CMLJUST
 70
     0
  9
$CMLSCALE
 40
1.0
  9
$PROXYGRAPHICS
 70
     1
  9
$MEASUREMENT
 70
     0
  9
$CELWEIGHT
370
    -1
  9
$ENDCAPS
280
     0
  9
$JOINSTYLE
280
     0
  9
$LWDISPLAY
290
     0
  9
$INSUNITS
 70
     0
  9
$HYPERLINKBASE
  1

  9
$STYLESHEET
  1
monochrome 1.ctb
  9
$XEDIT
290
     1
  9
$CEPSNTYPE
380
     0
  9
$PSTYLEMODE
290
     1
  9
$FINGERPRINTGUID
  2
{7AADB5C8-6110-11D8-B72B-000102183313}
  9
$VERSIONGUID
  2
{256CB311-B93D-4AA3-BD2C-91CC8A14A2C6}
  9
$EXTNAMES
290
     1
  9
$PSVPSCALE
 40
0.0
  9
$OLESTARTUP
290
     0
  9
$SORTENTS
280
    96
  9
$INDEXCTL
280
     0
  9
$HIDETEXT
280
     0
  9
$XCLIPFRAME
290
     0
  9
$HALOGAP
280
     0
  9
$OBSCOLOR
 70
   257
  9
$OBSLTYPE
280
     0
  9
$INTERSECTIONDISPLAY
280
     0
  9
$INTERSECTIONCOLOR
 70
   257
  9
$DIMASSOC
280
     1
  9
$PROJECTNAME
  1

  0
ENDSEC
  0
SECTION
  2
CLASSES
  0
CLASS
  1
ACDBDICTIONARYWDFLT
  2
AcDbDictionaryWithDefault
  3
ObjectDBX Classes
 90
        0
 91
        1
280
     0
281
     0
  0
CLASS
  1
DICTIONARYVAR
  2
AcDbDictionaryVar
  3
ObjectDBX Classes
 90
        0
 91
        3
280
     0
281
     0
  0
ENDSEC
  0
SECTION
  2
TABLES
  0
TABLE
  2
VPORT
  5
8
330
0
100
AcDbSymbolTable
 70
     3
  0
VPORT
  5
C83
330
8
100
AcDbSymbolTableRecord
100
AcDbViewportTableRecord
  2
*Active
 70
     0
 10
0.0
 20
0.0
 11
1.0
 21
1.0
 12
524.9999999999998
 22
742.4999999999999
 13
0.0
 23
0.0
 14
1.0
 24
1.0
 15
10.0
 25
10.0
 16
0.0
 26
0.0
 36
1.0
 17
0.0
 27
0.0
 37
0.0
 40
1485.0
 41
1.334231805929919
 42
50.0
 43
0.0
 44
0.0
 50
0.0
 51
0.0
 71
     0
 72
  1500
 73
     1
 74
     0
 75
     0
 76
     0
 77
     0
 78
     0
281
     0
 65
     1
110
0.0
120
0.0
130
0.0
111
1.0
121
0.0
131
0.0
112
0.0
122
1.0
132
0.0
 79
     0
146
0.0
  0
ENDTAB
  0
TABLE
  2
LTYPE
  5
5
330
0
100
AcDbSymbolTable
 70
     2
  0
LTYPE
  5
13
330
5
100
AcDbSymbolTableRecord
100
AcDbLinetypeTableRecord
  2
ByBlock
 70
     0
  3

 72
    65
 73
     0
 40
0.0
  0
LTYPE
  5
14
330
5
100
AcDbSymbolTableRecord
100
AcDbLinetypeTableRecord
  2
ByLayer
 70
     0
  3

 72
    65
 73
     0
 40
0.0
  0
LTYPE
  5
15
330
5
100
AcDbSymbolTableRecord
100
AcDbLinetypeTableRecord
  2
Continuous
 70
     0
  3
Solid line
 72
    65
 73
     0
 40
0.0
  0
LTYPE
  5
35
330
5
100
AcDbSymbolTableRecord
100
AcDbLinetypeTableRecord
  2
STRICHPUNKT
 70
     0
  3
__ . __ . __ . __ . __ . __ . __ . __ . __ . __
 72
    65
 73
     4
 40
1.0
 49
0.5
 74
     0
 49
-0.25
 74
     0
 49
0.0
 74
     0
 49
-0.25
 74
     0
  0
ENDTAB
  0
TABLE
  2
LAYER
  5
2
330
0
100
AcDbSymbolTable
 70
     9
  0
LAYER
  5
10
330
2
100
AcDbSymbolTableRecord
100
AcDbLayerTableRecord
  2
0
 70
     0
 62
     7
  6
Continuous
370
    -3
390
F
  0
LAYER
  5
38
330
2
100
AcDbSymbolTableRecord
100
AcDbLayerTableRecord
  2
VOLL
 70
     0
 62
     1
  6
Continuous
370
    -3
390
F
  0
LAYER
  5
39
330
2
100
AcDbSymbolTableRecord
100
AcDbLayerTableRecord
  2
HILF
 70
     0
 62
     2
  6
Continuous
370
    -3
390
F
  0
LAYER
  5
3A
330
2
100
AcDbSymbolTableRecord
100
AcDbLayerTableRecord
  2
MITTEL
 70
     0
 62
     2
  6
STRICHPUNKT
370
    -3
390
F
  0
LAYER
  5
3B
330
2
100
AcDbSymbolTableRecord
100
AcDbLayerTableRecord
  2
BEM
 70
     0
 62
     7
  6
Continuous
370
    -3
390
F
  0
LAYER
  5
3C
330
2
100
AcDbSymbolTableRecord
100
AcDbLayerTableRecord
  2
STEMPEL
 70
     0
 62
     3
  6
Continuous
370
    -3
390
F
  0
LAYER
  5
3D
330
2
100
AcDbSymbolTableRecord
100
AcDbLayerTableRecord
  2
TEXT
 70
     0
 62
     7
  6
Continuous
370
    -3
390
F
  0
LAYER
  5
3E
330
2
100
AcDbSymbolTableRecord
100
AcDbLayerTableRecord
  2
DEFPOINTS
 70
     0
 62
     7
  6
Continuous
290
     0
370
    -3
390
F
  0
LAYER
  5
3F
330
2
100
AcDbSymbolTableRecord
100
AcDbLayerTableRecord
  2
SCHRAFF
 70
     0
 62
     7
  6
Continuous
370
    -3
390
F
  0
ENDTAB
  0
TABLE
  2
STYLE
  5
3
330
0
100
AcDbSymbolTable
 70
     2
  0
STYLE
  5
11
330
3
100
AcDbSymbolTableRecord
100
AcDbTextStyleTableRecord
  2
STANDARD
 70
     0
 40
0.0
 41
0.8
 50
0.0
 71
     0
 42
3.5
  3
simplex.shx
  4

  0
STYLE
  5
34
330
3
100
AcDbSymbolTableRecord
100
AcDbTextStyleTableRecord
  2
GREEKS
 70
     0
 40
0.0
 41
0.8
 50
0.0
 71
     0
 42
2.5
  3
SIMPLEX.shx
  4

  0
ENDTAB
  0
TABLE
  2
VIEW
  5
6
330
0
100
AcDbSymbolTable
 70
     0
  0
ENDTAB
  0
TABLE
  2
UCS
  5
7
330
0
100
AcDbSymbolTable
 70
     0
  0
ENDTAB
  0
TABLE
  2
APPID
  5
9
330
0
100
AcDbSymbolTable
 70
     1
  0
APPID
  5
12
330
9
100
AcDbSymbolTableRecord
100
AcDbRegAppTableRecord
  2
ACAD
 70
     0
  0
ENDTAB
  0
TABLE
  2
DIMSTYLE
  5
A
330
0
100
AcDbSymbolTable
 70
     1
100
AcDbDimStyleTable
 71
     1
340
1CB
  0
DIMSTYLE
105
1CB
102
{ACAD_REACTORS
330
1E8
330
C15
330
C5E
330
C6B
102
}
330
A
100
AcDbSymbolTableRecord
100
AcDbDimStyleTableRecord
  2
Standard
 70
     0
340
11
  0
ENDTAB
  0
TABLE
  2
BLOCK_RECORD
  5
1
330
0
100
AcDbSymbolTable
 70
     9
  0
BLOCK_RECORD
  5
1E
330
1
100
AcDbSymbolTableRecord
100
AcDbBlockTableRecord
  2
*Model_Space
340
21
  0
BLOCK_RECORD
  5
1A
330
1
100
AcDbSymbolTableRecord
100
AcDbBlockTableRecord
  2
*Paper_Space
340
1D
  0
BLOCK_RECORD
  5
22
330
1
100
AcDbSymbolTableRecord
100
AcDbBlockTableRecord
  2
LOGO
340
0
102
{BLKREFS
331
135
102
}
  0
BLOCK_RECORD
  5
1E9
330
1
100
AcDbSymbolTableRecord
100
AcDbBlockTableRecord
  2
*D1
340
0
  0
BLOCK_RECORD
  5
C16
330
1
100
AcDbSymbolTableRecord
100
AcDbBlockTableRecord
  2
*D6
340
0
  0
BLOCK_RECORD
  5
C5F
330
1
100
AcDbSymbolTableRecord
100
AcDbBlockTableRecord
  2
*D7
340
0
  0
BLOCK_RECORD
  5
C6C
330
1
100
AcDbSymbolTableRecord
100
AcDbBlockTableRecord
  2
*D8
340
0
  0
ENDTAB
  0
ENDSEC
  0
SECTION
  2
BLOCKS
  0
BLOCK
  5
43
330
1E
100
AcDbEntity
  8
0
100
AcDbBlockBegin
  2
*Model_Space
 70
     0
 10
0.0
 20
0.0
 30
0.0
  3
*Model_Space
  1

  0
ENDBLK
  5
44
330
1E
100
AcDbEntity
  8
0
100
AcDbBlockEnd
  0
BLOCK
  5
41
330
1A
100
AcDbEntity
 67
     1
  8
0
100
AcDbBlockBegin
  2
*Paper_Space
 70
     0
 10
0.0
 20
0.0
 30
0.0
  3
*Paper_Space
  1

  0
ENDBLK
  5
42
330
1A
100
AcDbEntity
 67
     1
  8
0
100
AcDbBlockEnd
  0
BLOCK
  5
45
330
22
100
AcDbEntity
  8
0
100
AcDbBlockBegin
  2
LOGO
 70
     0
 10
0.0
 20
0.0
 30
0.0
  3
LOGO
  1

  0
ARC
  5
46
330
22
100
AcDbEntity
  8
0
100
AcDbCircle
 10
11.59973089678112
 20
-9.271599258481501
 30
0.0
 40
4.5
100
AcDbArc
 50
270.0
 51
231.0575587310159
  0
LINE
  5
47
330
22
100
AcDbEntity
  8
0
100
AcDbLine
 10
3.599730896781125
 20
-4.771599258481529
 30
0.0
 11
3.599730896781153
 21
-11.77159925848133
 31
0.0
  0
LINE
  5
48
330
22
100
AcDbEntity
  8
0
100
AcDbLine
 10
2.599730896781125
 20
-4.771599258481529
 30
0.0
 11
2.599730896781153
 21
-11.77159925848133
 31
0.0
  0
CIRCLE
  5
49
330
22
100
AcDbEntity
  8
0
100
AcDbCircle
 10
11.59973089678112
 20
-9.271599258481501
 30
0.0
 40
3.5
  0
ARC
  5
4A
330
22
100
AcDbEntity
  8
0
100
AcDbCircle
 10
31.59973089678115
 20
-9.271599258481472
 30
0.0
 40
4.5
100
AcDbArc
 50
270.0
 51
231.0575587310182
  0
LINE
  5
4B
330
22
100
AcDbEntity
  8
0
100
AcDbLine
 10
17.59973089678112
 20
-4.771599258481472
 30
0.0
 11
17.59973089678115
 21
-13.77159925848147
 31
0.0
  0
ARC
  5
4C
330
22
100
AcDbEntity
  8
0
100
AcDbCircle
 10
22.59973089678116
 20
-7.271599258481472
 30
0.0
 40
2.5
100
AcDbArc
 50
293.1161887722295
 51
90.0
  0
CIRCLE
  5
4D
330
22
100
AcDbEntity
  8
0
100
AcDbCircle
 10
31.59973089678115
 20
-9.271599258481472
 30
0.0
 40
3.5
  0
ARC
  5
4E
330
22
100
AcDbEntity
  8
0
100
AcDbCircle
 10
4.599730896781153
 20
-11.77159925848133
 30
0.0
 40
1.0
100
AcDbArc
 50
180.0
 51
270.0
  0
ARC
  5
4F
330
22
100
AcDbEntity
  8
0
100
AcDbCircle
 10
4.599730896781153
 20
-11.77159925848133
 30
0.0
 40
2.0
100
AcDbArc
 50
179.9999999999992
 51
270.0
  0
LINE
  5
50
330
22
100
AcDbEntity
  8
0
100
AcDbLine
 10
11.59973089678115
 20
-13.77159925848144
 30
0.0
 11
4.599730896781153
 21
-13.77159925848147
 31
0.0
  0
LINE
  5
51
330
22
100
AcDbEntity
  8
0
100
AcDbLine
 10
8.771303772034769
 20
-12.77159925848136
 30
0.0
 11
4.599730896781153
 21
-12.77159925848133
 31
0.0
  0
LINE
  5
52
330
22
100
AcDbEntity
  8
0
100
AcDbLine
 10
31.59973089678115
 20
-13.77159925848147
 30
0.0
 11
23.6715276665056
 21
-13.77159925848144
 31
0.0
  0
LINE
  5
53
330
22
100
AcDbEntity
  8
0
100
AcDbLine
 10
23.56565672307022
 20
-9.51278021337896
 30
0.0
 11
24.4388546544846
 21
-12.77159925848144
 31
0.0
  0
LINE
  5
54
330
22
100
AcDbEntity
  8
0
100
AcDbLine
 10
22.59973089678116
 20
-9.771599258481472
 30
0.0
 11
18.59973089678112
 21
-9.771599258481472
 31
0.0
  0
LINE
  5
55
330
22
100
AcDbEntity
  8
0
100
AcDbLine
 10
18.59973089678115
 20
-13.77159925848144
 30
0.0
 11
17.59973089678115
 21
-13.77159925848144
 31
0.0
  0
LINE
  5
56
330
22
100
AcDbEntity
  8
0
100
AcDbLine
 10
18.59973089678115
 20
-9.771599258481472
 30
0.0
 11
18.59973089678115
 21
-13.77159925848144
 31
0.0
  0
LINE
  5
57
330
22
100
AcDbEntity
  8
0
100
AcDbLine
 10
22.59973089678116
 20
-9.771599258481472
 30
0.0
 11
23.67152766650562
 21
-13.77159925848147
 31
0.0
  0
ARC
  5
58
330
22
100
AcDbEntity
  8
0
100
AcDbCircle
 10
22.59973089678116
 20
-7.271599258481472
 30
0.0
 40
2.5
100
AcDbArc
 50
270.0
 51
270.0000000000007
  0
LINE
  5
59
330
22
100
AcDbEntity
  8
0
100
AcDbLine
 10
28.77130377203494
 20
-12.77159925848147
 30
0.0
 11
24.43885465448463
 21
-12.77159925848144
 31
0.0
  0
LINE
  5
5A
330
22
100
AcDbEntity
  8
0
100
AcDbLine
 10
3.599730896781125
 20
-4.771599258481472
 30
0.0
 11
2.599730896781125
 21
-4.771599258481472
 31
0.0
  0
LINE
  5
5B
330
22
100
AcDbEntity
  8
0
100
AcDbLine
 10
22.59973089678116
 20
-8.771599258481472
 30
0.0
 11
18.59973089678115
 21
-8.771599258481472
 31
0.0
  0
LINE
  5
5C
330
22
100
AcDbEntity
  8
0
100
AcDbLine
 10
22.59973089678116
 20
-5.771599258481472
 30
0.0
 11
18.59973089678115
 21
-5.771599258481472
 31
0.0
  0
LINE
  5
5D
330
22
100
AcDbEntity
  8
0
100
AcDbLine
 10
22.59973089678116
 20
-4.771599258481472
 30
0.0
 11
17.59973089678115
 21
-4.771599258481472
 31
0.0
  0
LINE
  5
5E
330
22
100
AcDbEntity
  8
0
100
AcDbLine
 10
18.59973089678115
 20
-5.771599258481472
 30
0.0
 11
18.59973089678115
 21
-8.771599258481472
 31
0.0
  0
ARC
  5
5F
330
22
100
AcDbEntity
  8
0
100
AcDbCircle
 10
22.59973089678116
 20
-7.271599258481472
 30
0.0
 40
1.5
100
AcDbArc
 50
270.0
 51
90.0
  0
ENDBLK
  5
60
330
22
100
AcDbEntity
  8
0
100
AcDbBlockEnd
  0
BLOCK
  5
1F3
330
1E9
100
AcDbEntity
  8
0
100
AcDbBlockBegin
  2
*D1
 70
     1
 10
0.0
 20
0.0
 30
0.0
  3
*D1
  1

  0
LINE
  5
B6E
330
1E9
100
AcDbEntity
  8
BEM
 62
     0
370
    -2
100
AcDbLine
 10
417.8433266059687
 20
652.0987003847893
 30
0.0
 11
417.8433266059687
 21
599.8475266733704
 31
0.0
  0
LINE
  5
B6F
330
1E9
100
AcDbEntity
  8
BEM
 62
     0
370
    -2
100
AcDbLine
 10
550.8433266059691
 20
652.0987003847896
 30
0.0
 11
550.8433266059691
 21
599.8475266733704
 31
0.0
  0
LINE
  5
B70
330
1E9
100
AcDbEntity
  8
BEM
 62
     0
370
    -2
100
AcDbLine
 10
435.3433266059687
 20
604.8475266733704
 30
0.0
 11
533.3433266059691
 21
604.8475266733704
 31
0.0
  0
SOLID
  5
B71
330
1E9
100
AcDbEntity
  8
BEM
 62
     0
100
AcDbTrace
 10
435.3433266059687
 20
607.7641933400371
 30
0.0
 11
435.3433266059687
 21
601.9308600067038
 31
0.0
 12
417.8433266059687
 22
604.8475266733704
 32
0.0
 13
417.8433266059687
 23
604.8475266733704
 33
0.0
  0
SOLID
  5
B72
330
1E9
100
AcDbEntity
  8
BEM
 62
     0
100
AcDbTrace
 10
533.3433266059691
 20
607.7641933400371
 30
0.0
 11
533.3433266059691
 21
601.9308600067038
 31
0.0
 12
550.8433266059691
 22
604.8475266733704
 32
0.0
 13
550.8433266059691
 23
604.8475266733704
 33
0.0
  0
MTEXT
  5
B73
330
1E9
100
AcDbEntity
  8
BEM
 62
     1
100
AcDbMText
 10
484.3433266059689
 20
621.0975266733704
 30
0.0
 40
17.5
 41
0.0
 71
     5
 72
     1
  1
\A1;%%c133
 73
     1
 44
1.0
  0
POINT
  5
B74
330
1E9
100
AcDbEntity
  8
DEFPOINTS
 62
     0
100
AcDbPoint
 10
417.8433266059687
 20
657.0987003847894
 30
0.0
  0
POINT
  5
B75
330
1E9
100
AcDbEntity
  8
DEFPOINTS
 62
     0
100
AcDbPoint
 10
550.8433266059691
 20
657.0987003847896
 30
0.0
  0
POINT
  5
B76
330
1E9
100
AcDbEntity
  8
DEFPOINTS
 62
     0
100
AcDbPoint
 10
550.8433266059691
 20
604.8475266733704
 30
0.0
  0
ENDBLK
  5
1F4
330
1E9
100
AcDbEntity
  8
0
100
AcDbBlockEnd
  0
BLOCK
  5
C20
330
C16
100
AcDbEntity
  8
0
100
AcDbBlockBegin
  2
*D6
 70
     1
 10
0.0
 20
0.0
 30
0.0
  3
*D6
  1

  0
LINE
  5
C79
330
C16
100
AcDbEntity
  8
BEM
 62
     0
370
    -2
100
AcDbLine
 10
484.0816468247538
 20
932.0918480585623
 30
0.0
 11
476.3023948383853
 21
1080.528818538738
 31
0.0
  0
LINE
  5
C7A
330
C16
100
AcDbEntity
  8
BEM
 62
     0
370
    -2
100
AcDbLine
 10
759.9477801112988
 20
1018.302781906214
 30
0.0
 11
755.9186645696659
 21
1095.182886286763
 31
0.0
  0
LINE
  5
C7B
330
C16
100
AcDbEntity
  8
BEM
 62
     0
370
    -2
100
AcDbLine
 10
494.0400914778051
 20
1076.451550099217
 30
0.0
 11
738.7043274926756
 21
1089.273859378738
 31
0.0
  0
SOLID
  5
C7C
330
C16
100
AcDbEntity
  8
BEM
 62
     0
100
AcDbTrace
 10
493.8874449387633
 20
1079.364219575585
 30
0.0
 11
494.1927380168471
 21
1073.538880622849
 31
0.0
 12
476.5640746196001
 22
1075.535670864965
 32
0.0
 13
476.5640746196001
 23
1075.535670864965
 33
0.0
  0
SOLID
  5
C7D
330
C16
100
AcDbEntity
  8
BEM
 62
     0
100
AcDbTrace
 10
738.5516809536336
 20
1092.186528855106
 30
0.0
 11
738.8569740317175
 21
1086.361189902371
 31
0.0
 12
756.1803443508805
 22
1090.18973861299
 32
0.0
 13
756.1803443508805
 23
1090.18973861299
 33
0.0
  0
MTEXT
  5
C7E
330
C16
100
AcDbEntity
  8
BEM
 62
     1
100
AcDbMText
 10
615.5217501962924
 20
1099.090434678739
 30
0.0
 40
17.5
 41
0.0
 71
     5
 72
     1
  1
\A1;280
 11
0.9986295347545739
 21
0.0523359562429444
 31
0.0
 73
     1
 44
1.0
  0
POINT
  5
C7F
330
C16
100
AcDbEntity
  8
DEFPOINTS
 62
     0
100
AcDbPoint
 10
484.3433266059685
 20
927.0987003847894
 30
0.0
  0
POINT
  5
C80
330
C16
100
AcDbEntity
  8
DEFPOINTS
 62
     0
100
AcDbPoint
 10
760.2094598925135
 20
1013.309634232441
 30
0.0
  0
POINT
  5
C81
330
C16
100
AcDbEntity
  8
DEFPOINTS
 62
     0
100
AcDbPoint
 10
756.1803443508805
 20
1090.18973861299
 30
0.0
  0
ENDBLK
  5
C21
330
C16
100
AcDbEntity
  8
0
100
AcDbBlockEnd
  0
BLOCK
  5
C69
330
C5F
100
AcDbEntity
  8
0
100
AcDbBlockBegin
  2
*D7
 70
     1
 10
0.0
 20
0.0
 30
0.0
  3
*D7
  1

  0
LINE
  5
C60
330
C5F
100
AcDbEntity
  8
BEM
 62
     0
370
    -2
100
AcDbLine
 10
413.7182132412278
 20
647.0987003847892
 30
0.0
 11
375.6038265849474
 21
647.0987003847892
 31
0.0
  0
LINE
  5
C61
330
C5F
100
AcDbEntity
  8
BEM
 62
     0
370
    -2
100
AcDbLine
 10
479.3433266059686
 20
927.0987003847894
 30
0.0
 11
375.6038265849475
 21
927.0987003847894
 31
0.0
  0
LINE
  5
C62
330
C5F
100
AcDbEntity
  8
BEM
 62
     0
370
    -2
100
AcDbLine
 10
380.6038265849474
 20
664.5987003847892
 30
0.0
 11
380.6038265849474
 21
909.5987003847895
 31
0.0
  0
SOLID
  5
C63
330
C5F
100
AcDbEntity
  8
BEM
 62
     0
100
AcDbTrace
 10
377.6871599182807
 20
664.5987003847892
 30
0.0
 11
383.5204932516141
 21
664.5987003847892
 31
0.0
 12
380.6038265849474
 22
647.0987003847892
 32
0.0
 13
380.6038265849474
 23
647.0987003847892
 33
0.0
  0
SOLID
  5
C64
330
C5F
100
AcDbEntity
  8
BEM
 62
     0
100
AcDbTrace
 10
377.6871599182808
 20
909.5987003847895
 30
0.0
 11
383.5204932516142
 21
909.5987003847895
 31
0.0
 12
380.6038265849474
 22
927.0987003847894
 32
0.0
 13
380.6038265849474
 23
927.0987003847894
 33
0.0
  0
MTEXT
  5
C65
330
C5F
100
AcDbEntity
  8
BEM
 62
     1
100
AcDbMText
 10
364.3538265849473
 20
787.0987003847894
 30
0.0
 40
17.5
 41
0.0
 71
     5
 72
     1
  1
\A1;280
 11
0.0000000000000001
 21
1.0
 31
0.0
 73
     1
 44
1.0
  0
POINT
  5
C66
330
C5F
100
AcDbEntity
  8
DEFPOINTS
 62
     0
100
AcDbPoint
 10
418.7182132412279
 20
647.0987003847892
 30
0.0
  0
POINT
  5
C67
330
C5F
100
AcDbEntity
  8
DEFPOINTS
 62
     0
100
AcDbPoint
 10
484.3433266059686
 20
927.0987003847894
 30
0.0
  0
POINT
  5
C68
330
C5F
100
AcDbEntity
  8
DEFPOINTS
 62
     0
100
AcDbPoint
 10
380.6038265849474
 20
927.0987003847894
 30
0.0
  0
ENDBLK
  5
C6A
330
C5F
100
AcDbEntity
  8
0
100
AcDbBlockEnd
  0
BLOCK
  5
C77
330
C6C
100
AcDbEntity
  8
0
100
AcDbBlockBegin
  2
*D8
 70
     1
 10
0.0
 20
0.0
 30
0.0
  3
*D8
  1

  0
LINE
  5
C6D
330
C6C
100
AcDbEntity
  8
BEM
 62
     0
370
    -2
100
AcDbLine
 10
484.3433266059687
 20
932.0987003847896
 30
0.0
 11
484.3433266059686
 21
1049.30123078633
 31
0.0
  0
ARC
  5
C6E
330
C6C
100
AcDbEntity
  8
BEM
 62
     0
370
    -2
100
AcDbCircle
 10
484.3433266059686
 20
927.0987003847896
 30
0.0
 40
117.2025304015406
100
AcDbArc
 50
11.5630396790153
 51
81.43696032098473
  0
SOLID
  5
C6F
330
C6C
100
AcDbEntity
  8
BEM
 62
     0
100
AcDbTrace
 10
602.0603480123281
 20
950.9611479126546
 30
0.0
 11
596.2740583285088
 21
950.2218039651548
 31
0.0
 12
601.385235012918
 22
933.232606887447
 32
0.0
 13
601.385235012918
 23
933.232606887447
 33
0.0
  0
SOLID
  5
C70
330
C6C
100
AcDbEntity
  8
BEM
 62
     0
100
AcDbTrace
 10
501.576738898839
 20
1040.086204666792
 30
0.0
 11
502.012238597453
 21
1045.903258714184
 31
0.0
 12
484.3433266059687
 22
1044.30123078633
 32
0.0
 13
484.3433266059687
 23
1044.30123078633
 33
0.0
  0
MTEXT
  5
C71
330
C6C
100
AcDbEntity
  8
BEM
 62
     1
100
AcDbMText
 10
576.2059865457788
 20
1023.901745684805
 30
0.0
 40
17.5
 41
0.0
 71
     5
 72
     1
  1
\A1;87°
 11
0.7253743710122878
 21
-0.6883545756937539
 31
0.0
 73
     1
 44
1.0
  0
POINT
  5
C72
330
C6C
100
AcDbEntity
  8
DEFPOINTS
 62
     0
100
AcDbPoint
 10
583.7367093777108
 20
989.2065790614438
 30
0.0
  0
POINT
  5
C73
330
C6C
100
AcDbEntity
  8
DEFPOINTS
 62
     0
100
AcDbPoint
 10
484.3433266059686
 20
927.0987003847896
 30
0.0
  0
POINT
  5
C74
330
C6C
100
AcDbEntity
  8
DEFPOINTS
 62
     0
100
AcDbPoint
 10
768.9527440110221
 20
942.0144479140285
 30
0.0
  0
POINT
  5
C75
330
C6C
100
AcDbEntity
  8
DEFPOINTS
 62
     0
100
AcDbPoint
 10
484.3433266059686
 20
927.0987003847896
 30
0.0
  0
POINT
  5
C76
330
C6C
100
AcDbEntity
  8
DEFPOINTS
 62
     0
100
AcDbPoint
 10
484.3433266059689
 20
642.0987003847897
 30
0.0
  0
ENDBLK
  5
C78
330
C6C
100
AcDbEntity
  8
0
100
AcDbBlockEnd
  0
ENDSEC
  0
SECTION
  2
ENTITIES
  0
TEXT
  5
134
330
1E
100
AcDbEntity
  8
TEXT
100
AcDbText
 10
511.0540121453142
 20
157.7240979930877
 30
0.0
 40
10.0
  1
Koeh
 41
0.8
  7
GREEKS
 72
     1
 11
524.1968692881714
 21
157.7240979930877
 31
0.0
100
AcDbText
  0
INSERT
  5
135
330
1E
100
AcDbEntity
  8
STEMPEL
100
AcDbBlockReference
  2
LOGO
 10
377.4888713644485
 20
112.552631911208
 30
0.0
 41
5.0
 42
5.0
 43
5.0
  0
LINE
  5
136
330
1E
100
AcDbEntity
  8
HILF
100
AcDbLine
 10
1050.0
 20
0.0
 30
0.0
 11
0.0
 21
0.0
 31
0.0
  0
LINE
  5
137
330
1E
100
AcDbEntity
  8
HILF
100
AcDbLine
 10
1050.0
 20
1485.0
 30
0.0
 11
0.0
 21
1485.0
 31
0.0
  0
LINE
  5
138
330
1E
100
AcDbEntity
  8
STEMPEL
100
AcDbLine
 10
1025.0
 20
1460.0
 30
0.0
 11
99.99999999999971
 21
1460.0
 31
0.0
  0
LINE
  5
139
330
1E
100
AcDbEntity
  8
STEMPEL
100
AcDbLine
 10
1025.0
 20
25.0
 30
0.0
 11
99.99999999999971
 21
25.0
 31
0.0
  0
LINE
  5
13A
330
1E
100
AcDbEntity
  8
STEMPEL
100
AcDbLine
 10
124.9999999999997
 20
25.0
 30
0.0
 11
1025.0
 21
25.0
 31
0.0
  0
TEXT
  5
13B
330
1E
100
AcDbEntity
  8
TEXT
100
AcDbText
 10
506.1566460565737
 20
183.2740272978806
 30
0.0
 40
10.0
  1
Name
 41
0.8
  7
GREEKS
100
AcDbText
  0
TEXT
  5
13C
330
1E
100
AcDbEntity
  8
TEXT
100
AcDbText
 10
491.3745697753872
 20
256.6265569441474
 30
0.0
 40
12.5
  1
Zul. Abw.
 41
0.8
  7
GREEKS
 72
     4
 11
524.9459983468158
 21
262.8765569441474
 31
0.0
100
AcDbText
  0
LINE
  5
13D
330
1E
100
AcDbEntity
  8
HILF
100
AcDbLine
 10
365.0000000000003
 20
124.9999999999999
 30
0.0
 11
575.0
 21
124.9999999999999
 31
0.0
  0
LINE
  5
13E
330
1E
100
AcDbEntity
  8
HILF
100
AcDbLine
 10
365.0000000000003
 20
149.9999999999999
 30
0.0
 11
575.0
 21
149.9999999999999
 31
0.0
  0
LINE
  5
13F
330
1E
100
AcDbEntity
  8
HILF
100
AcDbLine
 10
365.0000000000003
 20
174.9999999999998
 30
0.0
 11
575.0
 21
174.9999999999998
 31
0.0
  0
LINE
  5
140
330
1E
100
AcDbEntity
  8
STEMPEL
100
AcDbLine
 10
1025.0
 20
200.0
 30
0.0
 11
365.0000000000003
 21
199.9999999999998
 31
0.0
  0
LINE
  5
141
330
1E
100
AcDbEntity
  8
STEMPEL
100
AcDbLine
 10
1025.0
 20
100.0
 30
0.0
 11
365.0000000000003
 21
99.99999999999992
 31
0.0
  0
LINE
  5
142
330
1E
100
AcDbEntity
  8
STEMPEL
100
AcDbLine
 10
1025.0
 20
275.0000000000001
 30
0.0
 11
99.99999999999992
 21
275.0
 31
0.0
  0
LINE
  5
143
330
1E
100
AcDbEntity
  8
MITTEL
100
AcDbLine
 10
484.3433266059686
 20
927.0987003847894
 30
0.0
 11
484.3433266059687
 21
642.0987003847897
 31
0.0
  0
LINE
  5
144
330
1E
100
AcDbEntity
  8
HILF
100
AcDbLine
 10
0.0
 20
0.0
 30
0.0
 11
-0.0000000000002842
 21
1485.0
 31
0.0
  0
LINE
  5
145
330
1E
100
AcDbEntity
  8
STEMPEL
100
AcDbLine
 10
100.0
 20
25.0
 30
0.0
 11
99.99999999999971
 21
1460.0
 31
0.0
  0
LINE
  5
148
330
1E
100
AcDbEntity
  8
HILF
100
AcDbLine
 10
100.0000000000002
 20
99.99999999999992
 30
0.0
 11
365.0000000000003
 21
99.99999999999992
 31
0.0
  0
LINE
  5
149
330
1E
100
AcDbEntity
  8
HILF
100
AcDbLine
 10
100.0000000000002
 20
124.9999999999999
 30
0.0
 11
365.0000000000003
 21
124.9999999999999
 31
0.0
  0
LINE
  5
14A
330
1E
100
AcDbEntity
  8
HILF
100
AcDbLine
 10
100.0000000000002
 20
149.9999999999999
 30
0.0
 11
365.0000000000003
 21
149.9999999999999
 31
0.0
  0
LINE
  5
14B
330
1E
100
AcDbEntity
  8
HILF
100
AcDbLine
 10
100.0000000000002
 20
174.9999999999998
 30
0.0
 11
365.0000000000003
 21
174.9999999999998
 31
0.0
  0
LINE
  5
14C
330
1E
100
AcDbEntity
  8
HILF
100
AcDbLine
 10
100.0000000000002
 20
199.9999999999998
 30
0.0
 11
365.0000000000003
 21
199.9999999999998
 31
0.0
  0
LINE
  5
14D
330
1E
100
AcDbEntity
  8
HILF
100
AcDbLine
 10
100.0000000000002
 20
225.0000000000001
 30
0.0
 11
365.0000000000003
 21
225.0000000000001
 31
0.0
  0
LINE
  5
14E
330
1E
100
AcDbEntity
  8
HILF
100
AcDbLine
 10
100.0000000000002
 20
250.0000000000001
 30
0.0
 11
365.0000000000003
 21
250.0000000000001
 31
0.0
  0
LINE
  5
14F
330
1E
100
AcDbEntity
  8
STEMPEL
100
AcDbLine
 10
364.9999999999997
 20
74.99999999999992
 30
0.0
 11
99.99999999999992
 21
74.99999999999992
 31
0.0
  0
TEXT
  5
150
330
1E
100
AcDbEntity
  8
TEXT
100
AcDbText
 10
120.6660276761439
 20
34.13664615067979
 30
0.0
 40
10.0
  1
Index
 50
90.0
 41
0.8
  7
GREEKS
100
AcDbText
  0
LINE
  5
151
330
1E
100
AcDbEntity
  8
VOLL
100
AcDbLine
 10
135.0000000000002
 20
275.0000000000001
 30
0.0
 11
134.9999999999999
 21
24.99999999999993
 31
0.0
  0
LINE
  5
152
330
1E
100
AcDbEntity
  8
HILF
100
AcDbLine
 10
77.7191783928464
 20
742.5000000000001
 30
0.0
 11
0.0000000000002842
 21
742.5000000000001
 31
0.0
  0
LINE
  5
154
330
1E
100
AcDbEntity
  8
VOLL
100
AcDbLine
 10
310.0000000000003
 20
274.9999999999999
 30
0.0
 11
310.0
 21
24.99999999999993
 31
0.0
  0
LINE
  5
155
330
1E
100
AcDbEntity
  8
VOLL
100
AcDbLine
 10
260.0000000000003
 20
274.9999999999999
 30
0.0
 11
260.0
 21
24.99999999999993
 31
0.0
  0
LINE
  5
157
330
1E
100
AcDbEntity
  8
STEMPEL
100
AcDbLine
 10
365.0000000000003
 20
274.9999999999999
 30
0.0
 11
365.0
 21
24.99999999999993
 31
0.0
  0
TEXT
  5
159
330
1E
100
AcDbEntity
  8
TEXT
100
AcDbText
 10
430.8279182884127
 20
183.2970125307481
 30
0.0
 40
10.0
  1
Tag
 41
0.8
  7
GREEKS
100
AcDbText
  0
TEXT
  5
15A
330
1E
100
AcDbEntity
  8
TEXT
100
AcDbText
 10
368.9590317919039
 20
159.0747592404491
 30
0.0
 40
10.0
  1
Gez.
 41
0.8
  7
GREEKS
100
AcDbText
  0
LINE
  5
15B
330
1E
100
AcDbEntity
  8
VOLL
100
AcDbLine
 10
410.0000000000003
 20
199.9999999999998
 30
0.0
 11
410.0000000000003
 21
99.99999999999992
 31
0.0
  0
TEXT
  5
15C
330
1E
100
AcDbEntity
  8
TEXT
100
AcDbText
 10
369.0016943468259
 20
108.8236597412452
 30
0.0
 40
10.0
  1
Norm.
 41
0.8
  7
GREEKS
100
AcDbText
  0
TEXT
  5
15D
330
1E
100
AcDbEntity
  8
TEXT
100
AcDbText
 10
368.8787716429181
 20
134.2231572857094
 30
0.0
 40
10.0
  1
Gepr.
 41
0.8
  7
GREEKS
100
AcDbText
  0
TEXT
  5
15E
330
1E
100
AcDbEntity
  8
TEXT
 62
     1
100
AcDbText
 10
401.2515766204717
 20
220.372535722849
 30
0.0
 40
17.5
  1
1:5
 41
0.8
  7
GREEKS
100
AcDbText
  0
TEXT
  5
160
330
1E
100
AcDbEntity
  8
TEXT
100
AcDbText
 10
371.55527455526
 20
182.8506367787916
 30
0.0
 40
10.0
  1
2011
 41
0.8
  7
GREEKS
100
AcDbText
  0
LINE
  5
161
330
1E
100
AcDbEntity
  8
VOLL
100
AcDbLine
 10
475.0000000000002
 20
274.9999999999996
 30
0.0
 11
475.0
 21
99.99999999999992
 31
0.0
  0
LINE
  5
186
330
1E
100
AcDbEntity
  8
HILF
100
AcDbLine
 10
1050.0
 20
-0.0000000000002842
 30
0.0
 11
1050.0
 21
1485.0
 31
0.0
  0
LINE
  5
187
330
1E
100
AcDbEntity
  8
STEMPEL
100
AcDbLine
 10
1025.0
 20
25.0
 30
0.0
 11
1025.0
 21
1460.0
 31
0.0
  0
TEXT
  5
188
330
1E
100
AcDbEntity
  8
TEXT
100
AcDbText
 10
843.1002153742515
 20
130.185404446965
 30
0.0
 40
12.5
  1
ersetzt durch:
 41
0.8
  7
GREEKS
100
AcDbText
  0
TEXT
  5
18A
330
1E
100
AcDbEntity
  8
TEXT
100
AcDbText
 10
840.4468873940851
 20
255.7830086342841
 30
0.0
 40
12.5
  1
Zeichnungs Nr.
 41
0.8
  7
GREEKS
100
AcDbText
  0
LINE
  5
18B
330
1E
100
AcDbEntity
  8
HILF
100
AcDbLine
 10
583.7274248224712
 20
37.23495645070784
 30
0.0
 11
1012.147209831682
 21
37.23495645070784
 31
0.0
  0
LINE
  5
18C
330
1E
100
AcDbEntity
  8
HILF
100
AcDbLine
 10
841.8096540742482
 20
209.4495909238957
 30
0.0
 11
1012.147209831682
 21
209.4495909238957
 31
0.0
  0
LINE
  5
18D
330
1E
100
AcDbEntity
  8
VOLL
100
AcDbLine
 10
830.0
 20
150.0
 30
0.0
 11
1025.0
 21
150.0
 31
0.0
  0
TEXT
  5
18E
330
1E
100
AcDbEntity
  8
TEXT
 62
     1
100
AcDbText
 10
587.3209660800035
 20
218.5437197313445
 30
0.0
 40
17.5
  1
Bogen DN125 87°
 41
0.8
  7
GREEKS
100
AcDbText
  0
LINE
  5
18F
330
1E
100
AcDbEntity
  8
HILF
100
AcDbLine
 10
586.9342002742369
 20
124.9999999999999
 30
0.0
 11
812.0884791390775
 21
124.9999999999999
 31
0.0
  0
LINE
  5
190
330
1E
100
AcDbEntity
  8
HILF
100
AcDbLine
 10
586.9342002742369
 20
149.9999999999999
 30
0.0
 11
812.0884791390775
 21
149.9999999999999
 31
0.0
  0
LINE
  5
191
330
1E
100
AcDbEntity
  8
HILF
100
AcDbLine
 10
586.9342002742369
 20
174.9999999999998
 30
0.0
 11
812.0884791390775
 21
174.9999999999998
 31
0.0
  0
LINE
  5
192
330
1E
100
AcDbEntity
  8
HILF
100
AcDbLine
 10
586.9342002742369
 20
210.0939561891034
 30
0.0
 11
812.0884791390777
 21
210.0939561891034
 31
0.0
  0
LINE
  5
193
330
1E
100
AcDbEntity
  8
STEMPEL
100
AcDbLine
 10
575.0
 20
275.0000000000001
 30
0.0
 11
575.0
 21
24.99999999999993
 31
0.0
  0
TEXT
  5
194
330
1E
100
AcDbEntity
  8
TEXT
100
AcDbText
 10
587.8240977813288
 20
178.7583604396322
 30
0.0
 40
12.5
  1
dünnwandig
 41
0.8
  7
GREEKS
100
AcDbText
  0
TEXT
  5
195
330
1E
100
AcDbEntity
  8
TEXT
100
AcDbText
 10
587.4593753944567
 20
106.5743538255658
 30
0.0
 40
10.0
  1
4300125W.DWG
 41
0.8
  7
GREEKS
100
AcDbText
  0
TEXT
  5
196
330
1E
100
AcDbEntity
  8
TEXT
100
AcDbText
 10
586.8555959778399
 20
77.11401425482641
 30
0.0
 40
12.5
  1
Bauvorhaben
 41
0.8
  7
GREEKS
100
AcDbText
  0
TEXT
  5
197
330
1E
100
AcDbEntity
  8
TEXT
100
AcDbText
 10
587.1948509522525
 20
256.3723320029449
 30
0.0
 40
12.5
  1
Benennung
 41
0.8
  7
GREEKS
100
AcDbText
  0
LINE
  5
198
330
1E
100
AcDbEntity
  8
STEMPEL
100
AcDbLine
 10
830.0
 20
274.9999999999994
 30
0.0
 11
830.0
 21
100.0
 31
0.0
  0
TEXT
  5
19A
330
1E
100
AcDbEntity
  8
TEXT
 62
     1
100
AcDbText
 10
874.7939532668469
 20
220.372535722849
 30
0.0
 40
17.5
  1
4300125W
 41
0.8
  7
GREEKS
 72
     1
 11
926.7939532668469
 21
220.372535722849
 31
0.0
100
AcDbText
  0
LINE
  5
1D4
330
1E
100
AcDbEntity
  8
STEMPEL
100
AcDbLine
 10
549.9684399707096
 20
647.0987003847897
 30
0.0
 11
418.7182132412279
 21
647.0987003847892
 31
0.0
  0
LINE
  5
1D6
330
1E
100
AcDbEntity
  8
HILF
100
AcDbLine
 10
549.3433266059687
 20
657.0987003847896
 30
0.0
 11
419.3433266059686
 21
657.0987003847896
 31
0.0
  0
LINE
  5
1D7
330
1E
100
AcDbEntity
  8
STEMPEL
100
AcDbLine
 10
417.8433266059687
 20
657.0987003847892
 30
0.0
 11
418.7182132412279
 21
647.0987003847892
 31
0.0
  0
LINE
  5
1D8
330
1E
100
AcDbEntity
  8
STEMPEL
100
AcDbLine
 10
550.8433266059687
 20
657.0987003847902
 30
0.0
 11
549.9684399707096
 21
647.0987003847897
 31
0.0
  0
DIMENSION
  5
1E8
330
1E
100
AcDbEntity
  8
BEM
100
AcDbDimension
  2
*D1
 10
550.8433266059691
 20
604.8475266733704
 30
0.0
 11
484.3433266059689
 21
621.0975266733704
 31
0.0
 70
    32
  1
%%c<>
 71
     5
 42
133.0000000000004
  3
Standard
100
AcDbAlignedDimension
 13
417.8433266059687
 23
657.0987003847894
 33
0.0
 14
550.8433266059691
 24
657.0987003847896
 34
0.0
100
AcDbRotatedDimension
1001
ACAD
1000
DSTYLE
1002
{
1070
    40
1040
5.0
1070
    41
1040
3.5
1070
    42
1040
1.0
1070
    43
1040
7.0
1070
    44
1040
1.0
1070
    73
1070
     0
1070
    74
1070
     0
1070
    77
1070
     1
1070
    78
1070
     8
1070
    79
1070
     2
1070
   140
1040
3.5
1070
   141
1040
1.5
1070
   146
1040
0.5142857142857144
1070
   147
1040
1.5
1070
   172
1070
     1
1070
   178
1070
     1
1070
   179
1070
     2
1070
   271
1070
     2
1070
   272
1070
     2
1070
   284
1070
     8
1070
   285
1070
     8
1070
   286
1070
     8
1002
}
  0
TEXT
  5
212
330
1E
100
AcDbEntity
  8
TEXT
100
AcDbText
 10
587.8240977813288
 20
128.7583604396323
 30
0.0
 40
12.5
  1
EDV-Art.Nr. 4.300.125C
 41
0.8
  7
GREEKS
100
AcDbText
  0
TEXT
  5
255
330
1E
100
AcDbEntity
  8
TEXT
 62
     1
100
AcDbText
 10
744.9937184607472
 20
328.0690919134804
 30
0.0
 40
17.5
  1
Werkstoff: 1.4301
 41
0.8
  7
GREEKS
100
AcDbText
  0
LINE
  5
952
102
{ACAD_REACTORS
330
BAD
102
}
330
1E
100
AcDbEntity
  8
STEMPEL
100
AcDbLine
 10
417.8433266059687
 20
854.6286064586332
 30
0.0
 11
417.8433266059687
 21
657.0987003847895
 31
0.0
  0
LINE
  5
953
102
{ACAD_REACTORS
330
BB5
102
}
330
1E
100
AcDbEntity
  8
STEMPEL
100
AcDbLine
 10
550.8433266059689
 20
801.5669868441282
 30
0.0
 11
550.8433266059687
 21
657.0987003847898
 31
0.0
  0
LINE
  5
9FA
330
1E
100
AcDbEntity
  8
STEMPEL
100
AcDbLine
 10
767.7097327819847
 20
870.1959020331853
 30
0.0
 11
760.2094598925138
 21
1013.309634232442
 31
0.0
  0
TEXT
  5
9FB
330
1E
100
AcDbEntity
  8
TEXT
 62
     1
100
AcDbText
 10
613.8444450020876
 20
951.4691911594354
 30
0.0
 40
17.5
  1
DN125
 50
2.999999999999989
 41
0.8
  7
GREEKS
100
AcDbText
  0
LINE
  5
9FC
330
1E
100
AcDbEntity
  8
HILF
100
AcDbLine
 10
696.8817839475596
 20
869.7285981027924
 30
0.0
 11
689.7206674109313
 21
1006.370841574947
 31
0.0
  0
LINE
  5
9FD
330
1E
100
AcDbEntity
  8
HILF
100
AcDbLine
 10
689.9414270003176
 20
872.3497221582464
 30
0.0
 11
683.0923125347783
 21
1003.038611465097
 31
0.0
  0
LINE
  5
9FE
330
1E
100
AcDbEntity
  8
HILF
100
AcDbLine
 10
719.1398463123463
 20
869.8137274510242
 30
0.0
 11
711.8656962211339
 21
1008.612779628499
 31
0.0
  0
LINE
  5
A00
330
1E
100
AcDbEntity
  8
STEMPEL
100
AcDbLine
 10
679.9109145412201
 20
1003.939224377078
 30
0.0
 11
553.2337616969109
 21
997.30035611061
 31
0.0
  0
ARC
  5
A01
330
1E
100
AcDbEntity
  8
STEMPEL
100
AcDbCircle
 10
747.9684064911524
 20
986.9778333007905
 30
0.0
 40
29.0
100
AcDbArc
 50
68.00000000000695
 51
93.0
  0
LINE
  5
A02
330
1E
100
AcDbEntity
  8
STEMPEL
100
AcDbLine
 10
707.3425460801293
 20
1009.382344652135
 30
0.0
 11
693.8243250346109
 21
1008.673884707282
 31
0.0
  0
ARC
  5
A03
330
1E
100
AcDbEntity
  8
STEMPEL
100
AcDbCircle
 10
694.7140362907409
 20
991.6971826164544
 30
0.0
 40
17.0
100
AcDbArc
 50
93.0
 51
124.5863380965281
  0
ARC
  5
A04
330
1E
100
AcDbEntity
  8
STEMPEL
100
AcDbCircle
 10
679.3875549787905
 20
1013.925519724624
 30
0.0
 40
10.0
100
AcDbArc
 50
273.0
 51
304.586338096528
  0
ARC
  5
A05
330
1E
100
AcDbEntity
  8
STEMPEL
100
AcDbCircle
 10
728.8879688977865
 20
985.9778699387735
 30
0.0
 40
29.0
100
AcDbArc
 50
93.0
 51
118.1711477430577
  0
ARC
  5
A06
330
1E
100
AcDbEntity
  8
STEMPEL
100
AcDbCircle
 10
706.3481629115134
 20
1028.356305812472
 30
0.0
 40
19.0
100
AcDbArc
 50
273.0
 51
298.2271443659079
  0
LINE
  5
A07
330
1E
100
AcDbEntity
  8
STEMPEL
100
AcDbLine
 10
746.450663760107
 20
1015.938089808673
 30
0.0
 11
727.370226166741
 21
1014.938126446656
 31
0.0
  0
LINE
  5
A08
330
1E
100
AcDbEntity
  8
STEMPEL
100
AcDbLine
 10
760.2094598925138
 20
1013.309634232442
 30
0.0
 11
758.8319977002139
 21
1013.866165083227
 31
0.0
  0
POINT
  5
A09
330
1E
100
AcDbEntity
  8
STEMPEL
100
AcDbPoint
 10
760.2960794002432
 20
1011.656835565634
 30
0.0
  0
LINE
  5
A0A
330
1E
100
AcDbEntity
  8
MITTEL
100
AcDbLine
 10
768.9527440110221
 20
942.0144479140285
 30
0.0
 11
484.3433266059686
 21
927.0987003847894
 31
0.0
  0
LINE
  5
A0B
330
1E
100
AcDbEntity
  8
STEMPEL
100
AcDbLine
 10
686.8715967215316
 20
871.1214962547202
 30
0.0
 11
613.1833443861795
 21
867.2596585905761
 31
0.0
  0
ARC
  5
A0C
330
1E
100
AcDbEntity
  8
STEMPEL
100
AcDbCircle
 10
752.7833144655033
 20
895.1039161033698
 30
0.0
 40
29.0
100
AcDbArc
 50
273.0
 51
297.9999999999931
  0
LINE
  5
A0D
330
1E
100
AcDbEntity
  8
STEMPEL
100
AcDbLine
 10
714.7219159103845
 20
868.5755802517402
 30
0.0
 11
701.2036948648658
 21
867.8671203068873
 31
0.0
  0
ARC
  5
A0E
330
1E
100
AcDbEntity
  8
STEMPEL
100
AcDbCircle
 10
687.3949562839611
 20
861.1352009071746
 30
0.0
 40
10.0
100
AcDbArc
 50
61.41366190347201
 51
93.0
  0
ARC
  5
A0F
330
1E
100
AcDbEntity
  8
STEMPEL
100
AcDbCircle
 10
700.3139836087359
 20
884.8438223977151
 30
0.0
 40
17.0
100
AcDbArc
 50
241.4136619034719
 51
273.0
  0
ARC
  5
A10
330
1E
100
AcDbEntity
  8
STEMPEL
100
AcDbCircle
 10
733.7028768721373
 20
894.1039527413527
 30
0.0
 40
29.0
100
AcDbArc
 50
247.8288522569422
 51
273.0
  0
ARC
  5
A11
330
1E
100
AcDbEntity
  8
STEMPEL
100
AcDbCircle
 10
715.7162990790005
 20
849.6016190914032
 30
0.0
 40
19.0
100
AcDbArc
 50
67.77285563409205
 51
93.0
  0
LINE
  5
A12
330
1E
100
AcDbEntity
  8
STEMPEL
100
AcDbLine
 10
754.3010571965486
 20
866.1436595954871
 30
0.0
 11
735.2206196031827
 21
865.1436962334702
 31
0.0
  0
LINE
  5
A13
330
1E
100
AcDbEntity
  8
STEMPEL
100
AcDbLine
 10
767.7097327819847
 20
870.1959020331855
 30
0.0
 11
766.3979897862941
 21
869.498435910461
 31
0.0
  0
LINE
  5
AB2
330
1E
100
AcDbEntity
  8
MITTEL
100
AcDbLine
 10
583.2085530415452
 20
932.2800073505929
 30
0.0
 11
484.3433266059687
 21
828.0977966513807
 31
0.0
  0
LINE
  5
AB3
102
{ACAD_REACTORS
330
BAD
102
}
330
1E
100
AcDbEntity
  8
STEMPEL
100
AcDbLine
 10
553.2337616969109
 20
997.3003561106098
 30
0.0
 11
417.8433266059686
 21
854.6286064586331
 31
0.0
  0
LINE
  5
AB4
102
{ACAD_REACTORS
330
BB5
102
}
330
1E
100
AcDbEntity
  8
STEMPEL
100
AcDbLine
 10
613.1833443861794
 20
867.2596585905761
 30
0.0
 11
550.8433266059689
 21
801.5669868441282
 31
0.0
  0
LINE
  5
ABE
330
1E
100
AcDbEntity
  8
STEMPEL
100
AcDbLine
 10
553.233761696911
 20
997.30035611061
 30
0.0
 11
613.1833443861794
 21
867.2596585905761
 31
0.0
  0
LINE
  5
ABF
330
1E
100
AcDbEntity
  8
STEMPEL
100
AcDbLine
 10
417.8433266059687
 20
854.6286064586331
 30
0.0
 11
550.8433266059689
 21
801.5669868441282
 31
0.0
  0
ARC
  5
B9A
330
1E
100
AcDbEntity
  8
SCHRAFF
100
AcDbCircle
 10
536.9111833128898
 20
807.1253484067757
 30
0.0
 40
10.0
100
AcDbArc
 50
317.7626848852786
 51
358.7373151147233
  0
ARC
  5
B9B
330
1E
100
AcDbEntity
  8
SCHRAFF
100
AcDbCircle
 10
527.6230877841706
 20
810.8309227818741
 30
0.0
 40
10.0
100
AcDbArc
 50
317.7626848852773
 51
358.7373151147227
  0
ARC
  5
B9C
330
1E
100
AcDbEntity
  8
SCHRAFF
100
AcDbCircle
 10
518.3349922554514
 20
814.5364971569726
 30
0.0
 40
10.0
100
AcDbArc
 50
317.7626848852773
 51
358.7373151147227
  0
ARC
  5
B9D
330
1E
100
AcDbEntity
  8
SCHRAFF
100
AcDbCircle
 10
509.046896726732
 20
818.2420715320708
 30
0.0
 40
10.0
100
AcDbArc
 50
317.7626848852784
 51
358.7373151147233
  0
ARC
  5
B9E
330
1E
100
AcDbEntity
  8
SCHRAFF
100
AcDbCircle
 10
499.7588011980129
 20
821.9476459071692
 30
0.0
 40
10.0
100
AcDbArc
 50
317.7626848852775
 51
358.7373151147227
  0
ARC
  5
B9F
330
1E
100
AcDbEntity
  8
SCHRAFF
100
AcDbCircle
 10
462.6064190831359
 20
836.7699434075628
 30
0.0
 40
10.0
100
AcDbArc
 50
317.7626848852775
 51
358.7373151147227
  0
ARC
  5
BA0
330
1E
100
AcDbEntity
  8
SCHRAFF
100
AcDbCircle
 10
471.894514611855
 20
833.0643690324642
 30
0.0
 40
10.0
100
AcDbArc
 50
317.7626848852784
 51
358.7373151147233
  0
ARC
  5
BA1
330
1E
100
AcDbEntity
  8
SCHRAFF
100
AcDbCircle
 10
490.4707056692936
 20
825.6532202822675
 30
0.0
 40
10.0
100
AcDbArc
 50
317.7626848852773
 51
358.7373151147227
  0
ARC
  5
BA2
330
1E
100
AcDbEntity
  8
SCHRAFF
100
AcDbCircle
 10
481.1826101405744
 20
829.358794657366
 30
0.0
 40
10.0
100
AcDbArc
 50
317.7626848852773
 51
358.7373151147227
  0
ARC
  5
BA3
330
1E
100
AcDbEntity
  8
SCHRAFF
100
AcDbCircle
 10
416.1659414395396
 20
855.2978152830545
 30
0.0
 40
10.0
100
AcDbArc
 50
317.7626848852784
 51
358.7373151147233
  0
ARC
  5
BA5
330
1E
100
AcDbEntity
  8
SCHRAFF
100
AcDbCircle
 10
425.4540369682589
 20
851.5922409079562
 30
0.0
 40
10.0
100
AcDbArc
 50
317.7626848852773
 51
358.7373151147227
  0
ARC
  5
BA6
330
1E
100
AcDbEntity
  8
SCHRAFF
100
AcDbCircle
 10
434.7421324969782
 20
847.8866665328579
 30
0.0
 40
10.0
100
AcDbArc
 50
317.7626848852773
 51
358.7373151147227
  0
ARC
  5
BA7
330
1E
100
AcDbEntity
  8
SCHRAFF
100
AcDbCircle
 10
444.0302280256974
 20
844.1810921577596
 30
0.0
 40
10.0
100
AcDbArc
 50
317.7626848852775
 51
358.7373151147227
  0
ARC
  5
BA8
330
1E
100
AcDbEntity
  8
SCHRAFF
100
AcDbCircle
 10
453.3183235544166
 20
840.4755177826611
 30
0.0
 40
10.0
100
AcDbArc
 50
317.7626848852784
 51
358.7373151147233
  0
ARC
  5
BA9
102
{ACAD_REACTORS
330
BAD
102
}
330
1E
100
AcDbEntity
  8
SCHRAFF
100
AcDbCircle
 10
419.9271095309425
 20
853.7972613689778
 30
0.0
 40
3.601061855620758
100
AcDbArc
 50
81.85620239780728
 51
234.6437976021932
  0
HATCH
  5
BAD
330
1E
100
AcDbEntity
  8
SCHRAFF
100
AcDbHatch
 10
0.0
 20
0.0
 30
0.0
210
0.0
220
0.0
230
1.0
  2
_USER
 70
     0
 71
     1
 91
        1
 92
        7
 72
     1
 73
     1
 93
        3
 10
417.8433266059687
 20
854.6286064586331
 42
0.0
 10
420.4372286685376
 20
857.3620088990935
 42
0.7868347638836274
 10
417.8433266059687
 20
850.8603420289899
 42
0.0
 97
        3
330
AB3
330
BA9
330
952
 75
     0
 76
     0
 52
0.0
 41
0.1
 77
     0
 78
     1
 53
0.0
 43
0.0
 44
0.0
 45
0.0
 46
0.1
 79
     0
 47
0.0604094796539404
 98
        1
 10
416.9763540620778
 20
853.8130409919263
  0
ARC
  5
BAE
102
{ACAD_REACTORS
330
BB5
102
}
330
1E
100
AcDbEntity
  8
SCHRAFF
100
AcDbCircle
 10
549.6858532169138
 20
802.0287719019023
 30
0.0
 40
4.385551654281345
100
AcDbArc
 50
285.3033116888145
 51
31.19668831118475
  0
HATCH
  5
BB5
330
1E
100
AcDbEntity
  8
SCHRAFF
100
AcDbHatch
 10
0.0
 20
0.0
 30
0.0
210
0.0
220
0.0
230
1.0
  2
_USER
 70
     0
 71
     1
 91
        1
 92
        7
 72
     1
 73
     1
 93
        3
 10
553.4372286685378
 20
804.3003892845886
 42
0.0
 10
550.8433266059687
 20
801.566986844128
 42
0.0
 10
550.8433266059687
 20
797.798722414485
 42
0.4980008613528044
 97
        3
330
AB4
330
953
330
BAE
 75
     0
 76
     0
 52
0.0
 41
0.1
 77
     0
 78
     1
 53
0.0
 43
0.0
 44
0.0
 45
0.0
 46
0.1
 79
     0
 47
0.1349933753899066
 98
        1
 10
551.7508853718627
 20
800.349199458763
  0
ARC
  5
BB6
330
1E
100
AcDbEntity
  8
SCHRAFF
100
AcDbCircle
 10
560.8508771940006
 20
980.7775553187113
 30
0.0
 40
10.0
100
AcDbArc
 50
274.2626848852774
 51
315.2373151147228
  0
HATCH
  5
BB7
330
1E
100
AcDbEntity
  8
SCHRAFF
100
AcDbHatch
 10
0.0
 20
0.0
 30
0.0
210
0.0
220
0.0
230
1.0
  2
_USER
 70
     0
 71
     0
 91
        1
 92
        7
 72
     1
 73
     1
 93
        3
 10
553.2337616969105
 20
997.30035611061
 42
0.0
 10
550.6398596343417
 20
994.5669536701496
 42
-0.7868347638836274
 10
556.9968618511173
 20
997.4975718329117
 42
0.0
 97
        0
 75
     0
 76
     0
 52
0.0
 41
0.1
 77
     0
 78
     1
 53
273.0000000000001
 43
1384.822899294988
 44
1459.298848311021
 45
-0.0998629534754574
 46
-0.0052335956242946
 79
     0
 47
0.0604094796539404
 98
        1
 10
554.0028356223689
 20
998.2088238973396
  0
ARC
  5
BB8
330
1E
100
AcDbEntity
  8
SCHRAFF
100
AcDbCircle
 10
554.1730242289948
 20
995.2629381779489
 30
0.0
 40
3.601061855620758
100
AcDbArc
 50
38.35620239780695
 51
191.1437976021928
  0
ARC
  5
BB9
330
1E
100
AcDbEntity
  8
SCHRAFF
100
AcDbCircle
 10
552.4776824432522
 20
998.9404187952132
 30
0.0
 40
10.0
100
AcDbArc
 50
274.2626848852768
 51
315.2373151147217
  0
ARC
  5
BBA
330
1E
100
AcDbEntity
  8
SCHRAFF
100
AcDbCircle
 10
556.6642798186262
 20
989.8589870569621
 30
0.0
 40
10.0
100
AcDbArc
 50
274.2626848852774
 51
315.2373151147228
  0
ARC
  5
BBB
330
1E
100
AcDbEntity
  8
SCHRAFF
100
AcDbCircle
 10
569.2240719447494
 20
962.6146918422097
 30
0.0
 40
10.0
100
AcDbArc
 50
274.2626848852768
 51
315.2373151147217
  0
ARC
  5
BBC
330
1E
100
AcDbEntity
  8
SCHRAFF
100
AcDbCircle
 10
565.0374745693749
 20
971.6961235804605
 30
0.0
 40
10.0
100
AcDbArc
 50
274.2626848852774
 51
315.2373151147227
  0
ARC
  5
BBD
330
1E
100
AcDbEntity
  8
SCHRAFF
100
AcDbCircle
 10
577.5972666954981
 20
944.4518283657082
 30
0.0
 40
10.0
100
AcDbArc
 50
274.2626848852768
 51
315.2373151147217
  0
ARC
  5
BBE
330
1E
100
AcDbEntity
  8
SCHRAFF
100
AcDbCircle
 10
573.4106693201237
 20
953.533260103959
 30
0.0
 40
10.0
100
AcDbArc
 50
274.2626848852774
 51
315.2373151147227
  0
ARC
  5
BBF
330
1E
100
AcDbEntity
  8
SCHRAFF
100
AcDbCircle
 10
581.7838640708722
 20
935.3703966274574
 30
0.0
 40
10.0
100
AcDbArc
 50
274.2626848852774
 51
315.2373151147228
  0
ARC
  5
BC0
330
1E
100
AcDbEntity
  8
SCHRAFF
100
AcDbCircle
 10
585.9704614462465
 20
926.2889648892066
 30
0.0
 40
10.0
100
AcDbArc
 50
274.2626848852774
 51
315.2373151147228
  0
ARC
  5
BC1
330
1E
100
AcDbEntity
  8
SCHRAFF
100
AcDbCircle
 10
590.1570588216209
 20
917.2075331509558
 30
0.0
 40
10.0
100
AcDbArc
 50
274.2626848852774
 51
315.2373151147227
  0
ARC
  5
BC2
330
1E
100
AcDbEntity
  8
SCHRAFF
100
AcDbCircle
 10
594.3436561969953
 20
908.1261014127049
 30
0.0
 40
10.0
100
AcDbArc
 50
274.2626848852768
 51
315.2373151147217
  0
HATCH
  5
BC3
330
1E
100
AcDbEntity
  8
SCHRAFF
100
AcDbHatch
 10
0.0
 20
0.0
 30
0.0
210
0.0
220
0.0
230
1.0
  2
_USER
 70
     0
 71
     0
 91
        1
 92
        7
 72
     1
 73
     1
 93
        3
 10
610.5894423236105
 20
864.5262561501157
 42
0.0
 10
613.1833443861798
 20
867.2596585905765
 42
0.0
 10
616.9464445403864
 20
867.456874312878
 42
-0.4980008613528044
 97
        0
 75
     0
 76
     0
 52
0.0
 41
0.1
 77
     0
 78
     1
 53
273.0000000000001
 43
1384.822899294988
 44
1459.298848311021
 45
-0.0998629534754574
 46
-0.0052335956242946
 79
     0
 47
0.1349933753899066
 98
        1
 10
614.4469607921166
 20
866.4170776697428
  0
ARC
  5
BC4
330
1E
100
AcDbEntity
  8
SCHRAFF
100
AcDbCircle
 10
612.6616147121361
 20
868.3913777400016
 30
0.0
 40
4.385551654281345
100
AcDbArc
 50
241.8033116888154
 51
347.6966883111856
  0
ARC
  5
BC5
330
1E
100
AcDbEntity
  8
SCHRAFF
100
AcDbCircle
 10
606.9034483231182
 20
880.8818061979525
 30
0.0
 40
10.0
100
AcDbArc
 50
274.2626848852768
 51
315.2373151147216
  0
ARC
  5
BC6
330
1E
100
AcDbEntity
  8
SCHRAFF
100
AcDbCircle
 10
602.7168509477438
 20
889.9632379362033
 30
0.0
 40
10.0
100
AcDbArc
 50
274.2626848852774
 51
315.2373151147228
  0
ARC
  5
BC7
330
1E
100
AcDbEntity
  8
SCHRAFF
100
AcDbCircle
 10
598.5302535723694
 20
899.0446696744541
 30
0.0
 40
10.0
100
AcDbArc
 50
274.2626848852774
 51
315.2373151147228
  0
TEXT
  5
C0D
330
1E
100
AcDbEntity
  8
TEXT
100
AcDbText
 10
104.6377487744416
 20
279.1799999999999
 30
0.0
 40
12.5
  1
Erstellt mit AUTOCAD 2004
 41
0.8
  7
GREEKS
100
AcDbText
  0
TEXT
  5
C0E
330
1E
100
AcDbEntity
  8
TEXT
100
AcDbText
 10
383.7908930375943
 20
256.1552237717722
 30
0.0
 40
12.5
  1
Maßstab
 41
0.8
  7
GREEKS
100
AcDbText
  0
TEXT
  5
C0F
330
1E
100
AcDbEntity
  8
TEXT
100
AcDbText
 10
481.7206788119809
 20
224.4478592884235
 30
0.0
 40
10.0
  1
DIN EN1124-3
 41
0.8
  7
GREEKS
 72
     1
 11
524.1968692881714
 21
224.4478592884235
 31
0.0
100
AcDbText
  0
TEXT
  5
C10
330
1E
100
AcDbEntity
  8
TEXT
100
AcDbText
 10
169.1452957849062
 20
45.8707299621667
 30
0.0
 40
10.0
  1
Änderung
 41
0.8
  7
GREEKS
 72
     1
 11
196.0024386420491
 21
45.8707299621667
 31
0.0
100
AcDbText
  0
TEXT
  5
C11
330
1E
100
AcDbEntity
  8
TEXT
100
AcDbText
 10
276.15652626084
 20
46.67890673349527
 30
0.0
 40
10.0
  1
Tag
 41
0.8
  7
GREEKS
 72
     1
 11
285.4898595941734
 21
46.67890673349527
 31
0.0
100
AcDbText
  0
TEXT
  5
C12
330
1E
100
AcDbEntity
  8
TEXT
100
AcDbText
 10
322.2507152447943
 20
46.48310542416021
 30
0.0
 40
10.0
  1
Name
 41
0.8
  7
GREEKS
 72
     1
 11
338.0602390543181
 21
46.48310542416021
 31
0.0
100
AcDbText
  0
TEXT
  5
C13
330
1E
100
AcDbEntity
  8
BEM
100
AcDbText
 10
1041.452885359359
 20
30.37012038345759
 30
0.0
 40
10.0
  1
Diese Zeichnung ist urheberrechtlich geschützt und bleibt unser Eigentum. Sie darf weder ganz noch teilweise vervielfältigt und nicht an Dritte weitergegeben werden.
 50
90.0
 41
0.8
  7
GREEKS
100
AcDbText
  0
TEXT
  5
C14
330
1E
100
AcDbEntity
  8
TEXT
100
AcDbText
 10
841.809654074248
 20
182.9529559274993
 30
0.0
 40
12.5
  1
Ersatz für:
 41
0.8
  7
GREEKS
100
AcDbText
  0
DIMENSION
  5
C15
330
1E
100
AcDbEntity
  8
BEM
100
AcDbDimension
  2
*D6
 10
756.1803443508805
 20
1090.18973861299
 30
0.0
 11
615.5217501962924
 21
1099.090434678739
 31
0.0
 70
    32
 71
     5
 42
279.9999999999998
 51
357.0
  3
Standard
100
AcDbAlignedDimension
 13
484.3433266059686
 23
927.0987003847894
 33
0.0
 14
760.2094598925137
 24
1013.309634232442
 34
0.0
 50
3.000000000000016
100
AcDbRotatedDimension
1001
ACAD
1000
DSTYLE
1002
{
1070
    40
1040
5.0
1070
    41
1040
3.5
1070
    42
1040
1.0
1070
    43
1040
7.0
1070
    44
1040
1.0
1070
    73
1070
     0
1070
    74
1070
     0
1070
    77
1070
     1
1070
    78
1070
     8
1070
    79
1070
     2
1070
   140
1040
3.5
1070
   141
1040
1.5
1070
   146
1040
0.5142857142857144
1070
   147
1040
1.5
1070
   172
1070
     1
1070
   178
1070
     1
1070
   179
1070
     2
1070
   271
1070
     2
1070
   272
1070
     2
1070
   284
1070
     8
1070
   285
1070
     8
1070
   286
1070
     8
1002
}
  0
TEXT
  5
C2E
330
1E
100
AcDbEntity
  8
TEXT
 62
     1
100
AcDbText
 10
926.7939532668469
 20
157.2159688922428
 30
0.0
 40
17.5
  1

 41
0.8
  7
GREEKS
 72
     1
 11
926.7939532668469
 21
157.2159688922428
 31
0.0
100
AcDbText
  0
TEXT
  5
C46
330
1E
100
AcDbEntity
  8
TEXT
100
AcDbText
 10
426.7593975324949
 20
157.7691260206433
 30
0.0
 40
10.0
  1
14.04.
 41
0.8
  7
GREEKS
 72
     1
 11
443.5213022943996
 21
157.7691260206433
 31
0.0
100
AcDbText
  0
DIMENSION
  5
C5E
330
1E
100
AcDbEntity
  8
BEM
100
AcDbDimension
  2
*D7
 10
380.6038265849474
 20
927.0987003847894
 30
0.0
 11
364.3538265849473
 21
787.0987003847894
 31
0.0
 70
    32
 71
     5
 42
280.0000000000002
  3
Standard
100
AcDbAlignedDimension
 13
418.7182132412279
 23
647.0987003847892
 33
0.0
 14
484.3433266059686
 24
927.0987003847894
 34
0.0
 50
90.0
100
AcDbRotatedDimension
1001
ACAD
1000
DSTYLE
1002
{
1070
    40
1040
5.0
1070
    41
1040
3.5
1070
    42
1040
1.0
1070
    43
1040
7.0
1070
    44
1040
1.0
1070
    73
1070
     0
1070
    74
1070
     0
1070
    77
1070
     1
1070
    78
1070
     8
1070
    79
1070
     2
1070
   140
1040
3.5
1070
   141
1040
1.5
1070
   146
1040
0.5142857142857144
1070
   147
1040
1.5
1070
   172
1070
     1
1070
   178
1070
     1
1070
   179
1070
     2
1070
   271
1070
     2
1070
   272
1070
     2
1070
   284
1070
     8
1070
   285
1070
     8
1070
   286
1070
     8
1002
}
  0
DIMENSION
  5
C6B
330
1E
100
AcDbEntity
  8
BEM
100
AcDbDimension
  2
*D8
 10
484.3433266059687
 20
642.0987003847897
 30
0.0
 11
576.2059865457789
 21
1023.901745684805
 31
0.0
 70
    34
 71
     5
 42
1.518436449235067
  3
Standard
100
AcDb2LineAngularDimension
 13
768.9527440110221
 23
942.0144479140285
 33
0.0
 14
484.3433266059686
 24
927.0987003847894
 34
0.0
 15
484.3433266059686
 25
927.0987003847894
 35
0.0
 16
583.7367093777108
 26
989.2065790614438
 36
0.0
1001
ACAD
1000
DSTYLE
1002
{
1070
    40
1040
5.0
1070
    41
1040
3.5
1070
    42
1040
1.0
1070
    43
1040
7.0
1070
    44
1040
1.0
1070
    73
1070
     0
1070
    74
1070
     0
1070
    77
1070
     1
1070
    78
1070
     8
1070
    79
1070
     2
1070
   140
1040
3.5
1070
   141
1040
1.5
1070
   146
1040
0.5142857142857144
1070
   147
1040
1.5
1070
   172
1070
     1
1070
   178
1070
     1
1070
   179
1070
     2
1070
   271
1070
     2
1070
   272
1070
     2
1070
   284
1070
     8
1070
   285
1070
     8
1070
   286
1070
     8
1002
}
  0
ENDSEC
  0
SECTION
  2
OBJECTS
  0
DICTIONARY
  5
C
330
0
100
AcDbDictionary
281
     1
  3
ACAD_COLOR
350
BFE
  3
ACAD_GROUP
350
D
  3
ACAD_LAYOUT
350
19
  3
ACAD_MATERIAL
350
BFD
  3
ACAD_MLINESTYLE
350
16
  3
ACAD_PLOTSETTINGS
350
18
  3
ACAD_PLOTSTYLENAME
350
E
  3
AcDbVariableDictionary
350
246
  0
DICTIONARY
  5
BFE
102
{ACAD_REACTORS
330
C
102
}
330
C
100
AcDbDictionary
281
     1
  0
DICTIONARY
  5
D
102
{ACAD_REACTORS
330
C
102
}
330
C
100
AcDbDictionary
281
     1
  0
DICTIONARY
  5
19
102
{ACAD_REACTORS
330
C
102
}
330
C
100
AcDbDictionary
281
     1
  3
Layout1
350
1D
  3
Model
350
21
  0
DICTIONARY
  5
BFD
102
{ACAD_REACTORS
330
C
102
}
330
C
100
AcDbDictionary
281
     1
  0
DICTIONARY
  5
16
102
{ACAD_REACTORS
330
C
102
}
330
C
100
AcDbDictionary
281
     1
  3
Standard
350
17
  0
DICTIONARY
  5
18
102
{ACAD_REACTORS
330
C
102
}
330
C
100
AcDbDictionary
281
     1
  0
ACDBDICTIONARYWDFLT
  5
E
102
{ACAD_REACTORS
330
C
102
}
330
C
100
AcDbDictionary
281
     1
  3
Normal
350
F
100
AcDbDictionaryWithDefault
340
F
  0
DICTIONARY
  5
246
102
{ACAD_REACTORS
330
C
102
}
330
C
100
AcDbDictionary
281
     1
  3
DIMASSOC
350
C2A
  3
PROJECTNAME
350
C2B
  3
SORTENTS
350
247
  0
LAYOUT
  5
1D
102
{ACAD_REACTORS
330
19
102
}
330
19
100
AcDbPlotSettings
  1

  2
Tektronix Phaser 740
  4

  6

 40
0.0
 41
0.0
 42
0.0
 43
0.0
 44
0.0
 45
0.0
 46
0.0
 47
0.0
 48
0.0
 49
0.0
140
0.0
141
0.0
142
1.0
143
1.0
 70
   688
 72
     0
 73
     0
 74
     5
  7
monochrome.ctb
 75
    16
147
1.0
 76
     0
 77
     2
 78
   300
148
0.0
149
0.0
100
AcDbLayout
  1
Layout1
 70
     0
 71
     1
 10
0.0
 20
0.0
 11
12.0
 21
9.0
 12
0.0
 22
0.0
 32
0.0
 14
1.000000000000000E+20
 24
1.000000000000000E+20
 34
1.000000000000000E+20
 15
-1.000000000000000E+20
 25
-1.000000000000000E+20
 35
-1.000000000000000E+20
146
0.0
 13
0.0
 23
0.0
 33
0.0
 16
1.0
 26
0.0
 36
0.0
 17
0.0
 27
1.0
 37
0.0
 76
     0
330
1A
  0
LAYOUT
  5
21
102
{ACAD_REACTORS
330
19
102
}
330
19
100
AcDbPlotSettings
  1

  2
Tektronix Phaser 740
  4
A4
  6

 40
5.873749732971191
 41
6.085414409637451
 42
5.577407836914062
 43
5.662078857421875
 44
209.9733276367187
 45
296.9683227539062
 46
0.0
 47
0.0
 48
0.0
 49
0.0
140
0.0
141
0.0
142
1.0
143
1.0
 70
 11952
 72
     0
 73
     1
 74
     0
  7
monochrome.ctb
 75
     0
147
1.0
 76
     0
 77
     2
 78
   300
148
1150.120678237584
149
45.30495740799864
100
AcDbLayout
  1
Model
 70
     1
 71
     0
 10
0.0
 20
0.0
 11
12.0
 21
9.0
 12
0.0
 22
0.0
 32
0.0
 14
0.0
 24
0.0
 34
0.0
 15
0.0
 25
0.0
 35
0.0
146
0.0
 13
0.0
 23
0.0
 33
0.0
 16
1.0
 26
0.0
 36
0.0
 17
0.0
 27
1.0
 37
0.0
 76
     0
330
1E
  0
MLINESTYLE
  5
17
102
{ACAD_REACTORS
330
16
102
}
330
16
100
AcDbMlineStyle
  2
STANDARD
 70
     0
  3

 62
   256
 51
90.0
 52
90.0
 71
     2
 49
0.5
 62
   256
  6
BYLAYER
 49
-0.5
 62
   256
  6
BYLAYER
  0
ACDBPLACEHOLDER
  5
F
102
{ACAD_REACTORS
330
E
102
}
330
E
  0
DICTIONARYVAR
  5
C2A
102
{ACAD_REACTORS
330
246
102
}
330
246
100
DictionaryVariables
280
     0
  1
1
  0
DICTIONARYVAR
  5
C2B
102
{ACAD_REACTORS
330
246
102
}
330
246
100
DictionaryVariables
280
     0
  1

  0
DICTIONARYVAR
  5
247
102
{ACAD_REACTORS
330
246
102
}
330
246
100
DictionaryVariables
280
     0
  1
96
  0
ENDSEC
  0
EOF
