  0
SECTION
  2
HEADER
  9
$ACADVER
  1
AC1018
  9
$ACADMAINTVER
 70
     2
  9
$DWGCODEPAGE
  3
ANSI_1252
  9
$INSBASE
 10
0.0
 20
0.0
 30
0.0
  9
$EXTMIN
 10
-0.0132836087749411
 20
-0.0187025492612065
 30
-0.0000000000000022
  9
$EXTMAX
 10
423.4646799145224
 20
605.572843459676
 30
0.0000000000000131
  9
$LIMMIN
 10
0.0
 20
0.0
  9
$LIMMAX
 10
419.9999999999999
 20
594.0
  9
$ORTHOMODE
 70
     1
  9
$REGENMODE
 70
     1
  9
$FILLMODE
 70
     1
  9
$QTEXTMODE
 70
     0
  9
$MIRRTEXT
 70
     1
  9
$LTSCALE
 40
20.0
  9
$ATTMODE
 70
     1
  9
$TEXTSIZE
 40
3.5
  9
$TRACEWID
 40
0.5
  9
$TEXTSTYLE
  7
STANDARD
  9
$CLAYER
  8
BEM
  9
$CELTYPE
  6
ByLayer
  9
$CECOLOR
 62
   256
  9
$CELTSCALE
 40
1.0
  9
$DISPSILH
 70
     0
  9
$DIMSCALE
 40
2.0
  9
$DIMASZ
 40
3.5
  9
$DIMEXO
 40
1.0
  9
$DIMDLI
 40
7.0
  9
$DIMRND
 40
0.0
  9
$DIMDLE
 40
0.0
  9
$DIMEXE
 40
1.0
  9
$DIMTP
 40
0.0
  9
$DIMTM
 40
0.0
  9
$DIMTXT
 40
3.5
  9
$DIMCEN
 40
1.5
  9
$DIMTSZ
 40
0.0
  9
$DIMTOL
 70
     0
  9
$DIMLIM
 70
     0
  9
$DIMTIH
 70
     0
  9
$DIMTOH
 70
     0
  9
$DIMSE1
 70
     0
  9
$DIMSE2
 70
     0
  9
$DIMTAD
 70
     1
  9
$DIMZIN
 70
     8
  9
$DIMBLK
  1

  9
$DIMASO
 70
     1
  9
$DIMSHO
 70
     0
  9
$DIMPOST
  1

  9
$DIMAPOST
  1

  9
$DIMALT
 70
     0
  9
$DIMALTD
 70
     2
  9
$DIMALTF
 40
25.4
  9
$DIMLFAC
 40
1.0
  9
$DIMTOFL
 70
     1
  9
$DIMTVP
 40
0.0
  9
$DIMTIX
 70
     0
  9
$DIMSOXD
 70
     0
  9
$DIMSAH
 70
     0
  9
$DIMBLK1
  1

  9
$DIMBLK2
  1

  9
$DIMSTYLE
  2
Standard
  9
$DIMCLRD
 70
     0
  9
$DIMCLRE
 70
     0
  9
$DIMCLRT
 70
     1
  9
$DIMTFAC
 40
0.5
  9
$DIMGAP
 40
1.5
  9
$DIMJUST
 70
     0
  9
$DIMSD1
 70
     0
  9
$DIMSD2
 70
     0
  9
$DIMTOLJ
 70
     1
  9
$DIMTZIN
 70
     8
  9
$DIMALTZ
 70
     8
  9
$DIMALTTZ
 70
     8
  9
$DIMUPT
 70
     0
  9
$DIMDEC
 70
     2
  9
$DIMTDEC
 70
     2
  9
$DIMALTU
 70
     2
  9
$DIMALTTD
 70
     2
  9
$DIMTXSTY
  7
STANDARD
  9
$DIMAUNIT
 70
     0
  9
$DIMADEC
 70
     2
  9
$DIMALTRND
 40
0.0
  9
$DIMAZIN
 70
     2
  9
$DIMDSEP
 70
    46
  9
$DIMATFIT
 70
     3
  9
$DIMFRAC
 70
     0
  9
$DIMLDRBLK
  1

  9
$DIMLUNIT
 70
     2
  9
$DIMLWD
 70
    -2
  9
$DIMLWE
 70
    -2
  9
$DIMTMOVE
 70
     0
  9
$LUNITS
 70
     2
  9
$LUPREC
 70
     2
  9
$SKETCHINC
 40
1.0
  9
$FILLETRAD
 40
0.0
  9
$AUNITS
 70
     1
  9
$AUPREC
 70
     3
  9
$MENU
  1
ACAD
  9
$ELEVATION
 40
0.0
  9
$PELEVATION
 40
0.0
  9
$THICKNESS
 40
0.0
  9
$LIMCHECK
 70
     0
  9
$CHAMFERA
 40
0.0
  9
$CHAMFERB
 40
0.0
  9
$CHAMFERC
 40
0.0
  9
$CHAMFERD
 40
0.0
  9
$SKPOLY
 70
     0
  9
$TDCREATE
 40
2452040.637099653
  9
$TDUCREATE
 40
2452040.553766320
  9
$TDUPDATE
 40
2455666.481631284
  9
$TDUUPDATE
 40
2455666.398297952
  9
$TDINDWG
 40
0.4075354282
  9
$TDUSRTIMER
 40
0.4075354282
  9
$USRTIMER
 70
     1
  9
$ANGBASE
 50
0.0
  9
$ANGDIR
 70
     0
  9
$PDMODE
 70
     0
  9
$PDSIZE
 40
0.0
  9
$PLINEWID
 40
0.0
  9
$SPLFRAME
 70
     0
  9
$SPLINETYPE
 70
     6
  9
$SPLINESEGS
 70
     8
  9
$HANDSEED
  5
1912
  9
$SURFTAB1
 70
     6
  9
$SURFTAB2
 70
     6
  9
$SURFTYPE
 70
     6
  9
$SURFU
 70
     6
  9
$SURFV
 70
     6
  9
$UCSBASE
  2

  9
$UCSNAME
  2

  9
$UCSORG
 10
0.0
 20
0.0
 30
0.0
  9
$UCSXDIR
 10
1.0
 20
0.0
 30
0.0
  9
$UCSYDIR
 10
0.0
 20
1.0
 30
0.0
  9
$UCSORTHOREF
  2

  9
$UCSORTHOVIEW
 70
     0
  9
$UCSORGTOP
 10
0.0
 20
0.0
 30
0.0
  9
$UCSORGBOTTOM
 10
0.0
 20
0.0
 30
0.0
  9
$UCSORGLEFT
 10
0.0
 20
0.0
 30
0.0
  9
$UCSORGRIGHT
 10
0.0
 20
0.0
 30
0.0
  9
$UCSORGFRONT
 10
0.0
 20
0.0
 30
0.0
  9
$UCSORGBACK
 10
0.0
 20
0.0
 30
0.0
  9
$PUCSBASE
  2

  9
$PUCSNAME
  2

  9
$PUCSORG
 10
0.0
 20
0.0
 30
0.0
  9
$PUCSXDIR
 10
1.0
 20
0.0
 30
0.0
  9
$PUCSYDIR
 10
0.0
 20
1.0
 30
0.0
  9
$PUCSORTHOREF
  2

  9
$PUCSORTHOVIEW
 70
     0
  9
$PUCSORGTOP
 10
0.0
 20
0.0
 30
0.0
  9
$PUCSORGBOTTOM
 10
0.0
 20
0.0
 30
0.0
  9
$PUCSORGLEFT
 10
0.0
 20
0.0
 30
0.0
  9
$PUCSORGRIGHT
 10
0.0
 20
0.0
 30
0.0
  9
$PUCSORGFRONT
 10
0.0
 20
0.0
 30
0.0
  9
$PUCSORGBACK
 10
0.0
 20
0.0
 30
0.0
  9
$USERI1
 70
     0
  9
$USERI2
 70
     0
  9
$USERI3
 70
     0
  9
$USERI4
 70
     0
  9
$USERI5
 70
     0
  9
$USERR1
 40
0.0
  9
$USERR2
 40
0.0
  9
$USERR3
 40
0.0
  9
$USERR4
 40
0.0
  9
$USERR5
 40
0.0
  9
$WORLDVIEW
 70
     1
  9
$SHADEDGE
 70
     3
  9
$SHADEDIF
 70
    70
  9
$TILEMODE
 70
     1
  9
$MAXACTVP
 70
    16
  9
$PINSBASE
 10
0.0
 20
0.0
 30
0.0
  9
$PLIMCHECK
 70
     0
  9
$PEXTMIN
 10
1.000000000000000E+20
 20
1.000000000000000E+20
 30
1.000000000000000E+20
  9
$PEXTMAX
 10
-1.000000000000000E+20
 20
-1.000000000000000E+20
 30
-1.000000000000000E+20
  9
$PLIMMIN
 10
0.0
 20
0.0
  9
$PLIMMAX
 10
12.0
 20
9.0
  9
$UNITMODE
 70
     0
  9
$VISRETAIN
 70
     0
  9
$PLINEGEN
 70
     0
  9
$PSLTSCALE
 70
     0
  9
$TREEDEPTH
 70
  3020
  9
$CMLSTYLE
  2
Standard
  9
$CMLJUST
 70
     0
  9
$CMLSCALE
 40
1.0
  9
$PROXYGRAPHICS
 70
     1
  9
$MEASUREMENT
 70
     0
  9
$CELWEIGHT
370
    -1
  9
$ENDCAPS
280
     0
  9
$JOINSTYLE
280
     0
  9
$LWDISPLAY
290
     0
  9
$INSUNITS
 70
     0
  9
$HYPERLINKBASE
  1

  9
$STYLESHEET
  1
monochrome 1.ctb
  9
$XEDIT
290
     1
  9
$CEPSNTYPE
380
     0
  9
$PSTYLEMODE
290
     1
  9
$FINGERPRINTGUID
  2
{7AADB5C8-6110-11D8-B72B-000102183313}
  9
$VERSIONGUID
  2
{A437F2E7-7AF4-4D9C-8A2B-A625F044607E}
  9
$EXTNAMES
290
     1
  9
$PSVPSCALE
 40
0.0
  9
$OLESTARTUP
290
     0
  9
$SORTENTS
280
    96
  9
$INDEXCTL
280
     0
  9
$HIDETEXT
280
     0
  9
$XCLIPFRAME
290
     0
  9
$HALOGAP
280
     0
  9
$OBSCOLOR
 70
   257
  9
$OBSLTYPE
280
     0
  9
$INTERSECTIONDISPLAY
280
     0
  9
$INTERSECTIONCOLOR
 70
   257
  9
$DIMASSOC
280
     1
  9
$PROJECTNAME
  1

  0
ENDSEC
  0
SECTION
  2
CLASSES
  0
CLASS
  1
ACDBDICTIONARYWDFLT
  2
AcDbDictionaryWithDefault
  3
ObjectDBX Classes
 90
        0
 91
        1
280
     0
281
     0
  0
CLASS
  1
DICTIONARYVAR
  2
AcDbDictionaryVar
  3
ObjectDBX Classes
 90
        0
 91
        3
280
     0
281
     0
  0
ENDSEC
  0
SECTION
  2
TABLES
  0
TABLE
  2
VPORT
  5
8
330
0
100
AcDbSymbolTable
 70
     3
  0
VPORT
  5
1911
330
8
100
AcDbSymbolTableRecord
100
AcDbViewportTableRecord
  2
*Active
 70
     0
 10
0.0
 20
0.0
 11
1.0
 21
1.0
 12
210.0
 22
297.0
 13
0.0
 23
0.0
 14
1.0
 24
1.0
 15
10.0
 25
10.0
 16
0.0
 26
0.0
 36
1.0
 17
0.0
 27
0.0
 37
0.0
 40
594.0
 41
1.334231805929919
 42
50.0
 43
0.0
 44
0.0
 50
0.0
 51
0.0
 71
     0
 72
  1500
 73
     1
 74
     0
 75
     0
 76
     0
 77
     0
 78
     0
281
     0
 65
     1
110
0.0
120
0.0
130
0.0
111
1.0
121
0.0
131
0.0
112
0.0
122
1.0
132
0.0
 79
     0
146
0.0
  0
ENDTAB
  0
TABLE
  2
LTYPE
  5
5
330
0
100
AcDbSymbolTable
 70
     2
  0
LTYPE
  5
13
330
5
100
AcDbSymbolTableRecord
100
AcDbLinetypeTableRecord
  2
ByBlock
 70
     0
  3

 72
    65
 73
     0
 40
0.0
  0
LTYPE
  5
14
330
5
100
AcDbSymbolTableRecord
100
AcDbLinetypeTableRecord
  2
ByLayer
 70
     0
  3

 72
    65
 73
     0
 40
0.0
  0
LTYPE
  5
15
330
5
100
AcDbSymbolTableRecord
100
AcDbLinetypeTableRecord
  2
Continuous
 70
     0
  3
Solid line
 72
    65
 73
     0
 40
0.0
  0
LTYPE
  5
35
330
5
100
AcDbSymbolTableRecord
100
AcDbLinetypeTableRecord
  2
STRICHPUNKT
 70
     0
  3
__ . __ . __ . __ . __ . __ . __ . __ . __ . __
 72
    65
 73
     4
 40
1.0
 49
0.5
 74
     0
 49
-0.25
 74
     0
 49
0.0
 74
     0
 49
-0.25
 74
     0
  0
ENDTAB
  0
TABLE
  2
LAYER
  5
2
330
0
100
AcDbSymbolTable
 70
     9
  0
LAYER
  5
10
330
2
100
AcDbSymbolTableRecord
100
AcDbLayerTableRecord
  2
0
 70
     0
 62
     7
  6
Continuous
370
    -3
390
F
  0
LAYER
  5
38
330
2
100
AcDbSymbolTableRecord
100
AcDbLayerTableRecord
  2
VOLL
 70
     0
 62
     1
  6
Continuous
370
    -3
390
F
  0
LAYER
  5
39
330
2
100
AcDbSymbolTableRecord
100
AcDbLayerTableRecord
  2
HILF
 70
     0
 62
     2
  6
Continuous
370
    -3
390
F
  0
LAYER
  5
3A
330
2
100
AcDbSymbolTableRecord
100
AcDbLayerTableRecord
  2
MITTEL
 70
     0
 62
     2
  6
STRICHPUNKT
370
    -3
390
F
  0
LAYER
  5
3B
330
2
100
AcDbSymbolTableRecord
100
AcDbLayerTableRecord
  2
BEM
 70
     0
 62
     7
  6
Continuous
370
    -3
390
F
  0
LAYER
  5
3C
330
2
100
AcDbSymbolTableRecord
100
AcDbLayerTableRecord
  2
STEMPEL
 70
     0
 62
     3
  6
Continuous
370
    -3
390
F
  0
LAYER
  5
3D
330
2
100
AcDbSymbolTableRecord
100
AcDbLayerTableRecord
  2
TEXT
 70
     0
 62
     7
  6
Continuous
370
    -3
390
F
  0
LAYER
  5
3E
330
2
100
AcDbSymbolTableRecord
100
AcDbLayerTableRecord
  2
DEFPOINTS
 70
     0
 62
     7
  6
Continuous
290
     0
370
    -3
390
F
  0
LAYER
  5
3F
330
2
100
AcDbSymbolTableRecord
100
AcDbLayerTableRecord
  2
SCHRAFF
 70
     0
 62
     7
  6
Continuous
370
    -3
390
F
  0
ENDTAB
  0
TABLE
  2
STYLE
  5
3
330
0
100
AcDbSymbolTable
 70
     2
  0
STYLE
  5
11
330
3
100
AcDbSymbolTableRecord
100
AcDbTextStyleTableRecord
  2
STANDARD
 70
     0
 40
0.0
 41
0.8
 50
0.0
 71
     0
 42
3.5
  3
simplex.shx
  4

  0
STYLE
  5
34
330
3
100
AcDbSymbolTableRecord
100
AcDbTextStyleTableRecord
  2
GREEKS
 70
     0
 40
0.0
 41
0.8
 50
0.0
 71
     0
 42
2.5
  3
SIMPLEX.shx
  4

  0
ENDTAB
  0
TABLE
  2
VIEW
  5
6
330
0
100
AcDbSymbolTable
 70
     0
  0
ENDTAB
  0
TABLE
  2
UCS
  5
7
330
0
100
AcDbSymbolTable
 70
     0
  0
ENDTAB
  0
TABLE
  2
APPID
  5
9
330
0
100
AcDbSymbolTable
 70
     1
  0
APPID
  5
12
330
9
100
AcDbSymbolTableRecord
100
AcDbRegAppTableRecord
  2
ACAD
 70
     0
  0
ENDTAB
  0
TABLE
  2
DIMSTYLE
  5
A
330
0
100
AcDbSymbolTable
 70
     1
100
AcDbDimStyleTable
 71
     1
340
1CB
  0
DIMSTYLE
105
1CB
102
{ACAD_REACTORS
330
107C
330
11E1
330
16D4
330
16ED
330
17E0
330
17F6
102
}
330
A
100
AcDbSymbolTableRecord
100
AcDbDimStyleTableRecord
  2
Standard
 70
     0
340
11
  0
ENDTAB
  0
TABLE
  2
BLOCK_RECORD
  5
1
330
0
100
AcDbSymbolTable
 70
     9
  0
BLOCK_RECORD
  5
1E
330
1
100
AcDbSymbolTableRecord
100
AcDbBlockTableRecord
  2
*Model_Space
340
21
  0
BLOCK_RECORD
  5
1A
330
1
100
AcDbSymbolTableRecord
100
AcDbBlockTableRecord
  2
*Paper_Space
340
1D
  0
BLOCK_RECORD
  5
22
330
1
100
AcDbSymbolTableRecord
100
AcDbBlockTableRecord
  2
LOGO
340
0
102
{BLKREFS
331
135
102
}
  0
BLOCK_RECORD
  5
1093
330
1
100
AcDbSymbolTableRecord
100
AcDbBlockTableRecord
  2
*D1
340
0
  0
BLOCK_RECORD
  5
11E2
330
1
100
AcDbSymbolTableRecord
100
AcDbBlockTableRecord
  2
*D3
340
0
  0
BLOCK_RECORD
  5
16D5
330
1
100
AcDbSymbolTableRecord
100
AcDbBlockTableRecord
  2
*D4
340
0
  0
BLOCK_RECORD
  5
16EE
330
1
100
AcDbSymbolTableRecord
100
AcDbBlockTableRecord
  2
*D5
340
0
  0
BLOCK_RECORD
  5
17E1
330
1
100
AcDbSymbolTableRecord
100
AcDbBlockTableRecord
  2
*D7
340
0
  0
BLOCK_RECORD
  5
17F7
330
1
100
AcDbSymbolTableRecord
100
AcDbBlockTableRecord
  2
*D8
340
0
  0
ENDTAB
  0
ENDSEC
  0
SECTION
  2
BLOCKS
  0
BLOCK
  5
43
330
1E
100
AcDbEntity
  8
0
100
AcDbBlockBegin
  2
*Model_Space
 70
     0
 10
0.0
 20
0.0
 30
0.0
  3
*Model_Space
  1

  0
ENDBLK
  5
44
330
1E
100
AcDbEntity
  8
0
100
AcDbBlockEnd
  0
BLOCK
  5
41
330
1A
100
AcDbEntity
 67
     1
  8
0
100
AcDbBlockBegin
  2
*Paper_Space
 70
     0
 10
0.0
 20
0.0
 30
0.0
  3
*Paper_Space
  1

  0
ENDBLK
  5
42
330
1A
100
AcDbEntity
 67
     1
  8
0
100
AcDbBlockEnd
  0
BLOCK
  5
45
330
22
100
AcDbEntity
  8
0
100
AcDbBlockBegin
  2
LOGO
 70
     0
 10
0.0
 20
0.0
 30
0.0
  3
LOGO
  1

  0
ARC
  5
46
330
22
100
AcDbEntity
  8
0
100
AcDbCircle
 10
11.59973089678112
 20
-9.271599258481501
 30
0.0
 40
4.5
100
AcDbArc
 50
270.0
 51
231.0575587310159
  0
LINE
  5
47
330
22
100
AcDbEntity
  8
0
100
AcDbLine
 10
3.599730896781125
 20
-4.771599258481529
 30
0.0
 11
3.599730896781153
 21
-11.77159925848133
 31
0.0
  0
LINE
  5
48
330
22
100
AcDbEntity
  8
0
100
AcDbLine
 10
2.599730896781125
 20
-4.771599258481529
 30
0.0
 11
2.599730896781153
 21
-11.77159925848133
 31
0.0
  0
CIRCLE
  5
49
330
22
100
AcDbEntity
  8
0
100
AcDbCircle
 10
11.59973089678112
 20
-9.271599258481501
 30
0.0
 40
3.5
  0
ARC
  5
4A
330
22
100
AcDbEntity
  8
0
100
AcDbCircle
 10
31.59973089678115
 20
-9.271599258481472
 30
0.0
 40
4.5
100
AcDbArc
 50
270.0
 51
231.0575587310182
  0
LINE
  5
4B
330
22
100
AcDbEntity
  8
0
100
AcDbLine
 10
17.59973089678112
 20
-4.771599258481472
 30
0.0
 11
17.59973089678115
 21
-13.77159925848147
 31
0.0
  0
ARC
  5
4C
330
22
100
AcDbEntity
  8
0
100
AcDbCircle
 10
22.59973089678116
 20
-7.271599258481472
 30
0.0
 40
2.5
100
AcDbArc
 50
293.1161887722295
 51
90.0
  0
CIRCLE
  5
4D
330
22
100
AcDbEntity
  8
0
100
AcDbCircle
 10
31.59973089678115
 20
-9.271599258481472
 30
0.0
 40
3.5
  0
ARC
  5
4E
330
22
100
AcDbEntity
  8
0
100
AcDbCircle
 10
4.599730896781153
 20
-11.77159925848133
 30
0.0
 40
1.0
100
AcDbArc
 50
180.0
 51
270.0
  0
ARC
  5
4F
330
22
100
AcDbEntity
  8
0
100
AcDbCircle
 10
4.599730896781153
 20
-11.77159925848133
 30
0.0
 40
2.0
100
AcDbArc
 50
179.9999999999992
 51
270.0
  0
LINE
  5
50
330
22
100
AcDbEntity
  8
0
100
AcDbLine
 10
11.59973089678115
 20
-13.77159925848144
 30
0.0
 11
4.599730896781153
 21
-13.77159925848147
 31
0.0
  0
LINE
  5
51
330
22
100
AcDbEntity
  8
0
100
AcDbLine
 10
8.771303772034769
 20
-12.77159925848136
 30
0.0
 11
4.599730896781153
 21
-12.77159925848133
 31
0.0
  0
LINE
  5
52
330
22
100
AcDbEntity
  8
0
100
AcDbLine
 10
31.59973089678115
 20
-13.77159925848147
 30
0.0
 11
23.6715276665056
 21
-13.77159925848144
 31
0.0
  0
LINE
  5
53
330
22
100
AcDbEntity
  8
0
100
AcDbLine
 10
23.56565672307022
 20
-9.51278021337896
 30
0.0
 11
24.4388546544846
 21
-12.77159925848144
 31
0.0
  0
LINE
  5
54
330
22
100
AcDbEntity
  8
0
100
AcDbLine
 10
22.59973089678116
 20
-9.771599258481472
 30
0.0
 11
18.59973089678112
 21
-9.771599258481472
 31
0.0
  0
LINE
  5
55
330
22
100
AcDbEntity
  8
0
100
AcDbLine
 10
18.59973089678115
 20
-13.77159925848144
 30
0.0
 11
17.59973089678115
 21
-13.77159925848144
 31
0.0
  0
LINE
  5
56
330
22
100
AcDbEntity
  8
0
100
AcDbLine
 10
18.59973089678115
 20
-9.771599258481472
 30
0.0
 11
18.59973089678115
 21
-13.77159925848144
 31
0.0
  0
LINE
  5
57
330
22
100
AcDbEntity
  8
0
100
AcDbLine
 10
22.59973089678116
 20
-9.771599258481472
 30
0.0
 11
23.67152766650562
 21
-13.77159925848147
 31
0.0
  0
ARC
  5
58
330
22
100
AcDbEntity
  8
0
100
AcDbCircle
 10
22.59973089678116
 20
-7.271599258481472
 30
0.0
 40
2.5
100
AcDbArc
 50
270.0
 51
270.0000000000007
  0
LINE
  5
59
330
22
100
AcDbEntity
  8
0
100
AcDbLine
 10
28.77130377203494
 20
-12.77159925848147
 30
0.0
 11
24.43885465448463
 21
-12.77159925848144
 31
0.0
  0
LINE
  5
5A
330
22
100
AcDbEntity
  8
0
100
AcDbLine
 10
3.599730896781125
 20
-4.771599258481472
 30
0.0
 11
2.599730896781125
 21
-4.771599258481472
 31
0.0
  0
LINE
  5
5B
330
22
100
AcDbEntity
  8
0
100
AcDbLine
 10
22.59973089678116
 20
-8.771599258481472
 30
0.0
 11
18.59973089678115
 21
-8.771599258481472
 31
0.0
  0
LINE
  5
5C
330
22
100
AcDbEntity
  8
0
100
AcDbLine
 10
22.59973089678116
 20
-5.771599258481472
 30
0.0
 11
18.59973089678115
 21
-5.771599258481472
 31
0.0
  0
LINE
  5
5D
330
22
100
AcDbEntity
  8
0
100
AcDbLine
 10
22.59973089678116
 20
-4.771599258481472
 30
0.0
 11
17.59973089678115
 21
-4.771599258481472
 31
0.0
  0
LINE
  5
5E
330
22
100
AcDbEntity
  8
0
100
AcDbLine
 10
18.59973089678115
 20
-5.771599258481472
 30
0.0
 11
18.59973089678115
 21
-8.771599258481472
 31
0.0
  0
ARC
  5
5F
330
22
100
AcDbEntity
  8
0
100
AcDbCircle
 10
22.59973089678116
 20
-7.271599258481472
 30
0.0
 40
1.5
100
AcDbArc
 50
270.0
 51
90.0
  0
ENDBLK
  5
60
330
22
100
AcDbEntity
  8
0
100
AcDbBlockEnd
  0
BLOCK
  5
109D
330
1093
100
AcDbEntity
  8
0
100
AcDbBlockBegin
  2
*D1
 70
     1
 10
0.0
 20
0.0
 30
0.0
  3
*D1
  1

  0
LINE
  5
11B9
330
1093
100
AcDbEntity
  8
BEM
 62
     0
370
    -2
100
AcDbLine
 10
92.92558151161491
 20
204.8598089787313
 30
0.0
 11
92.92558151161491
 21
173.7973764668152
 31
0.0
  0
LINE
  5
11BA
330
1093
100
AcDbEntity
  8
BEM
 62
     0
370
    -2
100
AcDbLine
 10
251.9255815116151
 20
204.8598089787303
 30
0.0
 11
251.9255815116151
 21
173.7973764668152
 31
0.0
  0
LINE
  5
11BB
330
1093
100
AcDbEntity
  8
BEM
 62
     0
370
    -2
100
AcDbLine
 10
99.92558151161492
 20
175.7973764668152
 30
0.0
 11
244.9255815116151
 21
175.7973764668152
 31
0.0
  0
SOLID
  5
11BC
330
1093
100
AcDbEntity
  8
BEM
 62
     0
100
AcDbTrace
 10
99.92558151161492
 20
176.9640431334818
 30
0.0
 11
99.92558151161492
 21
174.6307098001485
 31
0.0
 12
92.92558151161491
 22
175.7973764668152
 32
0.0
 13
92.92558151161491
 23
175.7973764668152
 33
0.0
  0
SOLID
  5
11BD
330
1093
100
AcDbEntity
  8
BEM
 62
     0
100
AcDbTrace
 10
244.9255815116151
 20
176.9640431334818
 30
0.0
 11
244.9255815116151
 21
174.6307098001485
 31
0.0
 12
251.9255815116151
 22
175.7973764668152
 32
0.0
 13
251.9255815116151
 23
175.7973764668152
 33
0.0
  0
MTEXT
  5
11BE
330
1093
100
AcDbEntity
  8
BEM
 62
     1
100
AcDbMText
 10
172.425581511615
 20
182.2973764668152
 30
0.0
 40
7.0
 41
0.0
 71
     5
 72
     1
  1
\A1;%%c159
 73
     1
 44
1.0
  0
POINT
  5
11BF
330
1093
100
AcDbEntity
  8
DEFPOINTS
 62
     0
100
AcDbPoint
 10
92.92558151161491
 20
206.8598089787313
 30
0.0
  0
POINT
  5
11C0
330
1093
100
AcDbEntity
  8
DEFPOINTS
 62
     0
100
AcDbPoint
 10
251.9255815116151
 20
206.8598089787303
 30
0.0
  0
POINT
  5
11C1
330
1093
100
AcDbEntity
  8
DEFPOINTS
 62
     0
100
AcDbPoint
 10
251.9255815116151
 20
175.7973764668152
 30
0.0
  0
ENDBLK
  5
109E
330
1093
100
AcDbEntity
  8
0
100
AcDbBlockEnd
  0
BLOCK
  5
11EC
330
11E2
100
AcDbEntity
  8
0
100
AcDbBlockBegin
  2
*D3
 70
     1
 10
0.0
 20
0.0
 30
0.0
  3
*D3
  1

  0
LINE
  5
11E3
330
11E2
100
AcDbEntity
  8
BEM
 62
     0
370
    -2
100
AcDbLine
 10
91.80046814687409
 20
196.8598089787307
 30
0.0
 11
74.22181506551257
 21
196.8598089787307
 31
0.0
  0
LINE
  5
11E4
330
11E2
100
AcDbEntity
  8
BEM
 62
     0
370
    -2
100
AcDbLine
 10
172.6313142203148
 20
351.8598089787308
 30
0.0
 11
74.2218150655126
 21
351.8598089787308
 31
0.0
  0
LINE
  5
11E5
330
11E2
100
AcDbEntity
  8
BEM
 62
     0
370
    -2
100
AcDbLine
 10
76.22181506551257
 20
203.8598089787307
 30
0.0
 11
76.2218150655126
 21
344.8598089787308
 31
0.0
  0
SOLID
  5
11E6
330
11E2
100
AcDbEntity
  8
BEM
 62
     0
100
AcDbTrace
 10
75.0551483988459
 20
203.8598089787307
 30
0.0
 11
77.38848173217924
 21
203.8598089787307
 31
0.0
 12
76.22181506551257
 22
196.8598089787307
 32
0.0
 13
76.22181506551257
 23
196.8598089787307
 33
0.0
  0
SOLID
  5
11E7
330
11E2
100
AcDbEntity
  8
BEM
 62
     0
100
AcDbTrace
 10
75.05514839884593
 20
344.8598089787308
 30
0.0
 11
77.38848173217927
 21
344.8598089787308
 31
0.0
 12
76.2218150655126
 22
351.8598089787308
 32
0.0
 13
76.2218150655126
 23
351.8598089787308
 33
0.0
  0
MTEXT
  5
11E8
330
11E2
100
AcDbEntity
  8
BEM
 62
     1
100
AcDbMText
 10
69.72181506551255
 20
274.3598089787308
 30
0.0
 40
7.0
 41
0.0
 71
     5
 72
     1
  1
\A1;155
 11
0.0000000000000001
 21
1.0
 31
0.0
 73
     1
 44
1.0
  0
POINT
  5
11E9
330
11E2
100
AcDbEntity
  8
DEFPOINTS
 62
     0
100
AcDbPoint
 10
93.80046814687409
 20
196.8598089787307
 30
0.0
  0
POINT
  5
11EA
330
11E2
100
AcDbEntity
  8
DEFPOINTS
 62
     0
100
AcDbPoint
 10
174.6313142203148
 20
351.8598089787308
 30
0.0
  0
POINT
  5
11EB
330
11E2
100
AcDbEntity
  8
DEFPOINTS
 62
     0
100
AcDbPoint
 10
76.2218150655126
 20
351.8598089787308
 30
0.0
  0
ENDBLK
  5
11ED
330
11E2
100
AcDbEntity
  8
0
100
AcDbBlockEnd
  0
BLOCK
  5
16E1
330
16D5
100
AcDbEntity
  8
0
100
AcDbBlockBegin
  2
*D4
 70
     1
 10
0.0
 20
0.0
 30
0.0
  3
*D4
  1

  0
LINE
  5
16D6
330
16D5
100
AcDbEntity
  8
BEM
 62
     0
370
    -2
100
AcDbLine
 10
368.1569703235112
 20
362.1176564023477
 30
0.0
 11
388.6325333476792
 21
363.1907351900143
 31
0.0
  0
LINE
  5
16D7
330
16D5
100
AcDbEntity
  8
BEM
 62
     0
370
    -2
100
AcDbLine
 10
172.4255815116147
 20
538.8598089787307
 30
0.0
 11
172.4255815116151
 21
568.36347155987
 31
0.0
  0
ARC
  5
16D8
330
16D5
100
AcDbEntity
  8
BEM
 62
     0
370
    -2
100
AcDbCircle
 10
172.4255815116147
 20
351.8598089787307
 30
0.0
 40
214.5036625811393
100
AcDbArc
 50
4.869843388493658
 51
88.13015661150627
  0
SOLID
  5
16D9
330
16D5
100
AcDbEntity
  8
BEM
 62
     0
100
AcDbTrace
 10
387.3188271337507
 20
370.1496223382808
 30
0.0
 11
384.9909943110429
 21
369.9895011530231
 31
0.0
 12
386.63527427817
 22
363.0860632775284
 32
0.0
 13
386.63527427817
 23
363.0860632775284
 33
0.0
  0
SOLID
  5
16DA
330
16D5
100
AcDbEntity
  8
BEM
 62
     0
100
AcDbTrace
 10
179.4056134298381
 20
565.0827430438694
 30
0.0
 11
179.4436858178263
 21
567.4157657479418
 31
0.0
 12
172.425581511615
 22
566.36347155987
 32
0.0
 13
172.425581511615
 23
566.36347155987
 33
0.0
  0
MTEXT
  5
16DB
330
16D5
100
AcDbEntity
  8
BEM
 62
     1
100
AcDbMText
 10
324.5544638944206
 20
512.1702017149364
 30
0.0
 40
7.0
 41
0.0
 71
     5
 72
     1
  1
\A1;87°
 11
0.7253743710122878
 21
-0.6883545756937539
 31
0.0
 73
     1
 44
1.0
  0
POINT
  5
16DC
330
16D5
100
AcDbEntity
  8
DEFPOINTS
 62
     0
100
AcDbPoint
 10
354.3350041821304
 20
465.5294320290555
 30
0.0
  0
POINT
  5
16DD
330
16D5
100
AcDbEntity
  8
DEFPOINTS
 62
     0
100
AcDbPoint
 10
172.4255815116147
 20
536.8598089787306
 30
0.0
  0
POINT
  5
16DE
330
16D5
100
AcDbEntity
  8
DEFPOINTS
 62
     0
100
AcDbPoint
 10
366.159711254002
 20
362.0129844898618
 30
0.0
  0
POINT
  5
16DF
330
16D5
100
AcDbEntity
  8
DEFPOINTS
 62
     0
100
AcDbPoint
 10
279.6307453002626
 20
357.4781935405685
 30
0.0
  0
POINT
  5
16E0
330
16D5
100
AcDbEntity
  8
DEFPOINTS
 62
     0
100
AcDbPoint
 10
172.4255815116147
 20
191.859808978731
 30
0.0
  0
ENDBLK
  5
16E2
330
16D5
100
AcDbEntity
  8
0
100
AcDbBlockEnd
  0
BLOCK
  5
16F8
330
16EE
100
AcDbEntity
  8
0
100
AcDbBlockBegin
  2
*D5
 70
     1
 10
0.0
 20
0.0
 30
0.0
  3
*D5
  1

  0
LINE
  5
16EF
330
16EE
100
AcDbEntity
  8
BEM
 62
     0
370
    -2
100
AcDbLine
 10
91.80046814687409
 20
196.8598089787307
 30
0.0
 11
58.17287247395135
 21
196.8598089787307
 31
0.0
  0
LINE
  5
16F0
330
16EE
100
AcDbEntity
  8
BEM
 62
     0
370
    -2
100
AcDbLine
 10
84.77051463317105
 20
531.8598089787307
 30
0.0
 11
58.17287247395143
 21
531.8598089787307
 31
0.0
  0
LINE
  5
16F1
330
16EE
100
AcDbEntity
  8
BEM
 62
     0
370
    -2
100
AcDbLine
 10
60.17287247395135
 20
203.8598089787307
 30
0.0
 11
60.17287247395143
 21
524.8598089787306
 31
0.0
  0
SOLID
  5
16F2
330
16EE
100
AcDbEntity
  8
BEM
 62
     0
100
AcDbTrace
 10
59.00620580728469
 20
203.8598089787307
 30
0.0
 11
61.33953914061802
 21
203.8598089787307
 31
0.0
 12
60.17287247395135
 22
196.8598089787307
 32
0.0
 13
60.17287247395135
 23
196.8598089787307
 33
0.0
  0
SOLID
  5
16F3
330
16EE
100
AcDbEntity
  8
BEM
 62
     0
100
AcDbTrace
 10
59.00620580728476
 20
524.8598089787306
 30
0.0
 11
61.33953914061809
 21
524.8598089787306
 31
0.0
 12
60.17287247395143
 22
531.8598089787307
 32
0.0
 13
60.17287247395143
 23
531.8598089787307
 33
0.0
  0
MTEXT
  5
16F4
330
16EE
100
AcDbEntity
  8
BEM
 62
     1
100
AcDbMText
 10
53.67287247395133
 20
364.3598089787307
 30
0.0
 40
7.0
 41
0.0
 71
     5
 72
     1
  1
\A1;335
 11
0.0000000000000001
 21
1.0
 31
0.0
 73
     1
 44
1.0
  0
POINT
  5
16F5
330
16EE
100
AcDbEntity
  8
DEFPOINTS
 62
     0
100
AcDbPoint
 10
93.80046814687409
 20
196.8598089787307
 30
0.0
  0
POINT
  5
16F6
330
16EE
100
AcDbEntity
  8
DEFPOINTS
 62
     0
100
AcDbPoint
 10
86.77051463317104
 20
531.8598089787307
 30
0.0
  0
POINT
  5
16F7
330
16EE
100
AcDbEntity
  8
DEFPOINTS
 62
     0
100
AcDbPoint
 10
60.17287247395143
 20
531.8598089787307
 30
0.0
  0
ENDBLK
  5
16F9
330
16EE
100
AcDbEntity
  8
0
100
AcDbBlockEnd
  0
BLOCK
  5
17EB
330
17E1
100
AcDbEntity
  8
0
100
AcDbBlockBegin
  2
*D7
 70
     1
 10
0.0
 20
0.0
 30
0.0
  3
*D7
  1

  0
LINE
  5
1907
330
17E1
100
AcDbEntity
  8
BEM
 62
     0
370
    -2
100
AcDbLine
 10
172.5302534241006
 20
349.8625499092216
 30
0.0
 11
176.5269648181374
 21
273.6007534982061
 31
0.0
  0
LINE
  5
1908
330
17E1
100
AcDbEntity
  8
BEM
 62
     0
370
    -2
100
AcDbLine
 10
364.131907499798
 20
305.1691720532273
 30
0.0
 11
365.2679468867515
 21
283.4922492281226
 31
0.0
  0
LINE
  5
1909
330
17E1
100
AcDbEntity
  8
BEM
 62
     0
370
    -2
100
AcDbLine
 10
183.4126996489335
 20
275.9643642614158
 30
0.0
 11
358.1728682309836
 21
285.1231566039311
 31
0.0
  0
SOLID
  5
190A
330
17E1
100
AcDbEntity
  8
BEM
 62
     0
100
AcDbTrace
 10
183.3516410333167
 20
277.1294320519629
 30
0.0
 11
183.4737582645503
 21
274.7992964708688
 31
0.0
 12
176.4222929056515
 22
275.5980125677152
 32
0.0
 13
176.4222929056515
 23
275.5980125677152
 33
0.0
  0
SOLID
  5
190B
330
17E1
100
AcDbEntity
  8
BEM
 62
     0
100
AcDbTrace
 10
358.1118096153669
 20
286.2882243944781
 30
0.0
 11
358.2339268466004
 21
283.958088813384
 31
0.0
 12
365.1632749742657
 22
285.4895082976317
 32
0.0
 13
365.1632749742657
 23
285.4895082976317
 33
0.0
  0
MTEXT
  5
190C
330
17E1
100
AcDbEntity
  8
BEM
 62
     1
100
AcDbMText
 10
271.3857983017144
 20
287.0837592474425
 30
0.0
 40
7.0
 41
0.0
 71
     5
 72
     1
  1
\A1;189
 11
0.9986295347545739
 21
0.0523359562429444
 31
0.0
 73
     1
 44
1.0
  0
POINT
  5
190D
330
17E1
100
AcDbEntity
  8
DEFPOINTS
 62
     0
100
AcDbPoint
 10
172.4255815116147
 20
351.8598089787307
 30
0.0
  0
POINT
  5
190E
330
17E1
100
AcDbEntity
  8
DEFPOINTS
 62
     0
100
AcDbPoint
 10
364.027235587312
 20
307.1664311227365
 30
0.0
  0
POINT
  5
190F
330
17E1
100
AcDbEntity
  8
DEFPOINTS
 62
     0
100
AcDbPoint
 10
365.1632749742657
 20
285.4895082976317
 30
0.0
  0
ENDBLK
  5
17EC
330
17E1
100
AcDbEntity
  8
0
100
AcDbBlockEnd
  0
BLOCK
  5
1801
330
17F7
100
AcDbEntity
  8
0
100
AcDbBlockBegin
  2
*D8
 70
     1
 10
0.0
 20
0.0
 30
0.0
  3
*D8
  1

  0
LINE
  5
1803
330
17F7
100
AcDbEntity
  8
BEM
 62
     0
370
    -2
100
AcDbLine
 10
249.9283224421052
 20
406.7912706959409
 30
0.0
 11
201.0602774431023
 21
404.2302049796395
 31
0.0
  0
LINE
  5
1804
330
17F7
100
AcDbEntity
  8
BEM
 62
     0
370
    -2
100
AcDbLine
 10
249.9283224421052
 20
305.0518403425522
 30
0.0
 11
206.377610597385
 21
302.7694442485749
 31
0.0
  0
LINE
  5
1805
330
17F7
100
AcDbEntity
  8
BEM
 62
     0
370
    -2
100
AcDbLine
 10
203.423888206312
 20
397.3444701488435
 30
0.0
 11
208.0085179731936
 21
309.8645229043428
 31
0.0
  0
SOLID
  5
1806
330
17F7
100
AcDbEntity
  8
BEM
 62
     0
100
AcDbTrace
 10
204.588955996859
 20
397.4055287644603
 30
0.0
 11
202.258820415765
 21
397.2834115332267
 31
0.0
 12
203.0575365126114
 22
404.3348768921255
 32
0.0
 13
203.0575365126114
 23
404.3348768921255
 33
0.0
  0
SOLID
  5
1807
330
17F7
100
AcDbEntity
  8
BEM
 62
     0
100
AcDbTrace
 10
209.1735857637406
 20
309.9255815199595
 30
0.0
 11
206.8434501826466
 21
309.803464288726
 31
0.0
 12
208.3748696668942
 22
302.8741161610608
 32
0.0
 13
208.3748696668942
 23
302.8741161610608
 33
0.0
  0
MTEXT
  5
1808
330
17F7
100
AcDbEntity
  8
BEM
 62
     1
100
AcDbMText
 10
212.2072950656575
 20
353.9446802421722
 30
0.0
 40
7.0
 41
0.0
 71
     5
 72
     1
  1
\A1;%%c101.6
 11
0.0523359562429406
 21
-0.9986295347545739
 31
0.0
 73
     1
 44
1.0
  0
POINT
  5
1809
330
17F7
100
AcDbEntity
  8
DEFPOINTS
 62
     0
100
AcDbPoint
 10
251.9255815116144
 20
406.8959426084267
 30
0.0
  0
POINT
  5
180A
330
17F7
100
AcDbEntity
  8
DEFPOINTS
 62
     0
100
AcDbPoint
 10
251.9255815116144
 20
305.1565122550381
 30
0.0
  0
POINT
  5
180B
330
17F7
100
AcDbEntity
  8
DEFPOINTS
 62
     0
100
AcDbPoint
 10
208.3748696668942
 20
302.8741161610608
 30
0.0
  0
ENDBLK
  5
1802
330
17F7
100
AcDbEntity
  8
0
100
AcDbBlockEnd
  0
ENDSEC
  0
SECTION
  2
ENTITIES
  0
TEXT
  5
134
330
1E
100
AcDbEntity
  8
TEXT
100
AcDbText
 10
204.4216048581257
 20
63.0896391972351
 30
0.0
 40
4.0
  1
Koeh
 41
0.8
  7
GREEKS
 72
     1
 11
209.6787477152686
 21
63.0896391972351
 31
0.0
100
AcDbText
  0
INSERT
  5
135
330
1E
100
AcDbEntity
  8
STEMPEL
100
AcDbBlockReference
  2
LOGO
 10
150.9955485457794
 20
45.02105276448322
 30
0.0
 41
2.0
 42
2.0
 43
2.0
  0
LINE
  5
136
330
1E
100
AcDbEntity
  8
HILF
100
AcDbLine
 10
420.0
 20
0.0
 30
0.0
 11
0.0
 21
0.0
 31
0.0
  0
LINE
  5
137
330
1E
100
AcDbEntity
  8
HILF
100
AcDbLine
 10
419.9999999999999
 20
594.0000000000002
 30
0.0
 11
0.0
 21
594.0
 31
0.0
  0
LINE
  5
138
330
1E
100
AcDbEntity
  8
STEMPEL
100
AcDbLine
 10
410.0
 20
584.0
 30
0.0
 11
39.99999999999989
 21
584.0
 31
0.0
  0
LINE
  5
139
330
1E
100
AcDbEntity
  8
STEMPEL
100
AcDbLine
 10
410.0
 20
10.0
 30
0.0
 11
39.99999999999989
 21
10.0
 31
0.0
  0
LINE
  5
13A
330
1E
100
AcDbEntity
  8
STEMPEL
100
AcDbLine
 10
49.99999999999989
 20
10.0
 30
0.0
 11
410.0
 21
10.0
 31
0.0
  0
TEXT
  5
13B
330
1E
100
AcDbEntity
  8
TEXT
100
AcDbText
 10
202.4626584226295
 20
73.30961091915225
 30
0.0
 40
4.0
  1
Name
 41
0.8
  7
GREEKS
100
AcDbText
  0
TEXT
  5
13C
330
1E
100
AcDbEntity
  8
TEXT
100
AcDbText
 10
196.5498279101549
 20
102.6506227776589
 30
0.0
 40
5.0
  1
Zul. Abw.
 41
0.8
  7
GREEKS
 72
     4
 11
209.9783993387263
 21
105.1506227776589
 31
0.0
100
AcDbText
  0
LINE
  5
13D
330
1E
100
AcDbEntity
  8
HILF
100
AcDbLine
 10
146.0000000000001
 20
49.99999999999997
 30
0.0
 11
230.0
 21
49.99999999999997
 31
0.0
  0
LINE
  5
13E
330
1E
100
AcDbEntity
  8
HILF
100
AcDbLine
 10
146.0000000000001
 20
59.99999999999997
 30
0.0
 11
230.0
 21
59.99999999999997
 31
0.0
  0
LINE
  5
13F
330
1E
100
AcDbEntity
  8
HILF
100
AcDbLine
 10
146.0000000000001
 20
69.99999999999994
 30
0.0
 11
230.0
 21
69.99999999999994
 31
0.0
  0
LINE
  5
140
330
1E
100
AcDbEntity
  8
STEMPEL
100
AcDbLine
 10
410.0
 20
80.0
 30
0.0
 11
146.0000000000001
 21
79.99999999999994
 31
0.0
  0
LINE
  5
141
330
1E
100
AcDbEntity
  8
STEMPEL
100
AcDbLine
 10
410.0
 20
40.0
 30
0.0
 11
146.0000000000001
 21
39.99999999999997
 31
0.0
  0
LINE
  5
142
330
1E
100
AcDbEntity
  8
STEMPEL
100
AcDbLine
 10
410.0
 20
110.0
 30
0.0
 11
39.99999999999997
 21
110.0
 31
0.0
  0
LINE
  5
144
330
1E
100
AcDbEntity
  8
HILF
100
AcDbLine
 10
0.0
 20
0.0
 30
0.0
 11
-0.0000000000001137
 21
594.0
 31
0.0
  0
LINE
  5
145
330
1E
100
AcDbEntity
  8
STEMPEL
100
AcDbLine
 10
40.0
 20
10.0
 30
0.0
 11
39.99999999999989
 21
584.0
 31
0.0
  0
TEXT
  5
146
330
1E
100
AcDbEntity
  8
TEXT
100
AcDbText
 10
41.85509950977674
 20
111.6719999999999
 30
0.0
 40
5.0
  1
Erstellt mit AUTOCAD 2004
 41
0.8
  7
GREEKS
100
AcDbText
  0
TEXT
  5
147
330
1E
100
AcDbEntity
  8
TEXT
100
AcDbText
 10
67.35820429276079
 20
18.67381894984132
 30
0.0
 40
4.0
  1
Änderung
 41
0.8
  7
GREEKS
 72
     1
 11
78.10106143561793
 21
18.67381894984132
 31
0.0
100
AcDbText
  0
LINE
  5
148
330
1E
100
AcDbEntity
  8
HILF
100
AcDbLine
 10
40.00000000000008
 20
39.99999999999997
 30
0.0
 11
146.0000000000001
 21
39.99999999999997
 31
0.0
  0
LINE
  5
149
330
1E
100
AcDbEntity
  8
HILF
100
AcDbLine
 10
40.00000000000008
 20
49.99999999999997
 30
0.0
 11
146.0000000000001
 21
49.99999999999997
 31
0.0
  0
LINE
  5
14A
330
1E
100
AcDbEntity
  8
HILF
100
AcDbLine
 10
40.00000000000008
 20
59.99999999999997
 30
0.0
 11
146.0000000000001
 21
59.99999999999997
 31
0.0
  0
LINE
  5
14B
330
1E
100
AcDbEntity
  8
HILF
100
AcDbLine
 10
40.00000000000008
 20
69.99999999999994
 30
0.0
 11
146.0000000000001
 21
69.99999999999994
 31
0.0
  0
LINE
  5
14C
330
1E
100
AcDbEntity
  8
HILF
100
AcDbLine
 10
40.00000000000008
 20
79.99999999999994
 30
0.0
 11
146.0000000000001
 21
79.99999999999994
 31
0.0
  0
LINE
  5
14D
330
1E
100
AcDbEntity
  8
HILF
100
AcDbLine
 10
40.00000000000008
 20
90.00000000000005
 30
0.0
 11
146.0000000000001
 21
90.00000000000005
 31
0.0
  0
LINE
  5
14E
330
1E
100
AcDbEntity
  8
HILF
100
AcDbLine
 10
40.00000000000008
 20
100.0
 30
0.0
 11
146.0000000000001
 21
100.0
 31
0.0
  0
LINE
  5
14F
330
1E
100
AcDbEntity
  8
STEMPEL
100
AcDbLine
 10
145.9999999999999
 20
29.99999999999997
 30
0.0
 11
39.99999999999997
 21
29.99999999999997
 31
0.0
  0
TEXT
  5
150
330
1E
100
AcDbEntity
  8
TEXT
100
AcDbText
 10
48.26641107045756
 20
13.65465846027192
 30
0.0
 40
4.0
  1
Index
 50
90.0
 41
0.8
  7
GREEKS
100
AcDbText
  0
LINE
  5
151
330
1E
100
AcDbEntity
  8
VOLL
100
AcDbLine
 10
54.00000000000009
 20
110.0
 30
0.0
 11
53.99999999999997
 21
9.999999999999971
 31
0.0
  0
LINE
  5
152
330
1E
100
AcDbEntity
  8
HILF
100
AcDbLine
 10
31.08767135713856
 20
297.0
 30
0.0
 11
0.0000000000001137
 21
297.0
 31
0.0
  0
TEXT
  5
153
330
1E
100
AcDbEntity
  8
TEXT
100
AcDbText
 10
110.1119276920046
 20
18.6715626933981
 30
0.0
 40
4.0
  1
Tag
 41
0.8
  7
GREEKS
 72
     1
 11
113.845261025338
 21
18.6715626933981
 31
0.0
100
AcDbText
  0
LINE
  5
154
330
1E
100
AcDbEntity
  8
VOLL
100
AcDbLine
 10
124.0000000000001
 20
109.9999999999999
 30
0.0
 11
124.0
 21
9.999999999999971
 31
0.0
  0
LINE
  5
155
330
1E
100
AcDbEntity
  8
VOLL
100
AcDbLine
 10
104.0000000000001
 20
109.9999999999999
 30
0.0
 11
104.0
 21
9.999999999999971
 31
0.0
  0
TEXT
  5
156
330
1E
100
AcDbEntity
  8
TEXT
100
AcDbText
 10
128.9242295083001
 20
18.59324216966408
 30
0.0
 40
4.0
  1
Name
 41
0.8
  7
GREEKS
 72
     1
 11
135.2480390321096
 21
18.59324216966408
 31
0.0
100
AcDbText
  0
LINE
  5
157
330
1E
100
AcDbEntity
  8
STEMPEL
100
AcDbLine
 10
146.0000000000001
 20
109.9999999999999
 30
0.0
 11
146.0
 21
9.999999999999971
 31
0.0
  0
TEXT
  5
159
330
1E
100
AcDbEntity
  8
TEXT
100
AcDbText
 10
172.331167315365
 20
73.31880501229926
 30
0.0
 40
4.0
  1
Tag
 41
0.8
  7
GREEKS
100
AcDbText
  0
TEXT
  5
15A
330
1E
100
AcDbEntity
  8
TEXT
100
AcDbText
 10
147.5836127167615
 20
63.62990369617964
 30
0.0
 40
4.0
  1
Gez.
 41
0.8
  7
GREEKS
100
AcDbText
  0
LINE
  5
15B
330
1E
100
AcDbEntity
  8
VOLL
100
AcDbLine
 10
164.0000000000001
 20
79.99999999999994
 30
0.0
 11
164.0000000000001
 21
39.99999999999997
 31
0.0
  0
TEXT
  5
15C
330
1E
100
AcDbEntity
  8
TEXT
100
AcDbText
 10
147.6006777387303
 20
43.52946389649807
 30
0.0
 40
4.0
  1
Norm.
 41
0.8
  7
GREEKS
100
AcDbText
  0
TEXT
  5
15D
330
1E
100
AcDbEntity
  8
TEXT
100
AcDbText
 10
147.5515086571672
 20
53.68926291428377
 30
0.0
 40
4.0
  1
Gepr.
 41
0.8
  7
GREEKS
100
AcDbText
  0
TEXT
  5
15E
330
1E
100
AcDbEntity
  8
TEXT
 62
     1
100
AcDbText
 10
160.5006306481887
 20
88.14901428913959
 30
0.0
 40
7.0
  1
1:2
 41
0.8
  7
GREEKS
100
AcDbText
  0
TEXT
  5
15F
330
1E
100
AcDbEntity
  8
TEXT
100
AcDbText
 10
153.5163572150377
 20
102.4620895087088
 30
0.0
 40
5.0
  1
Maßstab
 41
0.8
  7
GREEKS
100
AcDbText
  0
TEXT
  5
160
330
1E
100
AcDbEntity
  8
TEXT
100
AcDbText
 10
148.622109822104
 20
73.14025471151666
 30
0.0
 40
4.0
  1
2011
 41
0.8
  7
GREEKS
100
AcDbText
  0
LINE
  5
161
330
1E
100
AcDbEntity
  8
VOLL
100
AcDbLine
 10
190.0000000000001
 20
109.9999999999998
 30
0.0
 11
190.0
 21
39.99999999999997
 31
0.0
  0
LINE
  5
186
330
1E
100
AcDbEntity
  8
HILF
100
AcDbLine
 10
420.0
 20
-0.0000000000001137
 30
0.0
 11
419.9999999999999
 21
594.0
 31
0.0
  0
LINE
  5
187
330
1E
100
AcDbEntity
  8
STEMPEL
100
AcDbLine
 10
410.0
 20
10.0
 30
0.0
 11
410.0
 21
584.0
 31
0.0
  0
TEXT
  5
188
330
1E
100
AcDbEntity
  8
TEXT
100
AcDbText
 10
337.2400861497006
 20
52.07416177878602
 30
0.0
 40
5.0
  1
ersetzt durch:
 41
0.8
  7
GREEKS
100
AcDbText
  0
TEXT
  5
189
330
1E
100
AcDbEntity
  8
TEXT
100
AcDbText
 10
336.7238616296993
 20
73.1811823709997
 30
0.0
 40
5.0
  1
Ersatz für:
 41
0.8
  7
GREEKS
100
AcDbText
  0
TEXT
  5
18A
330
1E
100
AcDbEntity
  8
TEXT
100
AcDbText
 10
336.178754957634
 20
102.3132034537136
 30
0.0
 40
5.0
  1
Zeichnungs Nr.
 41
0.8
  7
GREEKS
100
AcDbText
  0
LINE
  5
18B
330
1E
100
AcDbEntity
  8
HILF
100
AcDbLine
 10
233.4909699289885
 20
14.89398258028314
 30
0.0
 11
404.8588839326728
 21
14.89398258028314
 31
0.0
  0
LINE
  5
18C
330
1E
100
AcDbEntity
  8
HILF
100
AcDbLine
 10
336.7238616296993
 20
83.77983636955827
 30
0.0
 11
404.8588839326728
 21
83.77983636955827
 31
0.0
  0
LINE
  5
18D
330
1E
100
AcDbEntity
  8
VOLL
100
AcDbLine
 10
332.0
 20
60.0
 30
0.0
 11
410.0
 21
60.0
 31
0.0
  0
TEXT
  5
18E
330
1E
100
AcDbEntity
  8
TEXT
 62
     1
100
AcDbText
 10
234.9283864320014
 20
87.41748789253779
 30
0.0
 40
7.0
  1
Red.-Abzweig DN150/100
 41
0.65
  7
GREEKS
100
AcDbText
  0
LINE
  5
18F
330
1E
100
AcDbEntity
  8
HILF
100
AcDbLine
 10
234.7736801096947
 20
49.99999999999997
 30
0.0
 11
324.835391655631
 21
49.99999999999997
 31
0.0
  0
LINE
  5
190
330
1E
100
AcDbEntity
  8
HILF
100
AcDbLine
 10
234.7736801096947
 20
59.99999999999997
 30
0.0
 11
324.835391655631
 21
59.99999999999997
 31
0.0
  0
LINE
  5
191
330
1E
100
AcDbEntity
  8
HILF
100
AcDbLine
 10
234.7736801096947
 20
69.99999999999994
 30
0.0
 11
324.835391655631
 21
69.99999999999994
 31
0.0
  0
LINE
  5
192
330
1E
100
AcDbEntity
  8
HILF
100
AcDbLine
 10
234.7736801096947
 20
84.03758247564139
 30
0.0
 11
324.8353916556311
 21
84.03758247564139
 31
0.0
  0
LINE
  5
193
330
1E
100
AcDbEntity
  8
STEMPEL
100
AcDbLine
 10
230.0
 20
110.0
 30
0.0
 11
230.0
 21
9.999999999999971
 31
0.0
  0
TEXT
  5
194
330
1E
100
AcDbEntity
  8
TEXT
100
AcDbText
 10
235.1296391125315
 20
71.50334417585288
 30
0.0
 40
5.0
  1
dünnwandig 87°
 41
0.8
  7
GREEKS
100
AcDbText
  0
TEXT
  5
195
330
1E
100
AcDbEntity
  8
TEXT
100
AcDbText
 10
234.9837501577827
 20
42.62974153022632
 30
0.0
 40
4.0
  1
4230FD0W.DWG
 41
0.8
  7
GREEKS
100
AcDbText
  0
TEXT
  5
196
330
1E
100
AcDbEntity
  8
TEXT
100
AcDbText
 10
234.742238391136
 20
30.84560570193057
 30
0.0
 40
5.0
  1
Bauvorhaben
 41
0.8
  7
GREEKS
100
AcDbText
  0
TEXT
  5
197
330
1E
100
AcDbEntity
  8
TEXT
100
AcDbText
 10
234.877940380901
 20
102.5489328011779
 30
0.0
 40
5.0
  1
Benennung
 41
0.8
  7
GREEKS
100
AcDbText
  0
LINE
  5
198
330
1E
100
AcDbEntity
  8
STEMPEL
100
AcDbLine
 10
332.0
 20
109.9999999999997
 30
0.0
 11
332.0
 21
40.0
 31
0.0
  0
TEXT
  5
19A
330
1E
100
AcDbEntity
  8
TEXT
 62
     1
100
AcDbText
 10
348.6174610628377
 20
88.14901428913959
 30
0.0
 40
7.0
  1
4230FD0W
 41
0.8
  7
GREEKS
 72
     1
 11
369.8174610628377
 21
88.14901428913959
 31
0.0
100
AcDbText
  0
TEXT
  5
212
330
1E
100
AcDbEntity
  8
TEXT
100
AcDbText
 10
235.1296391125315
 20
51.50334417585291
 30
0.0
 40
5.0
  1
EDV-Art.Nr. 4.230.FD0C
 41
0.8
  7
GREEKS
100
AcDbText
  0
LINE
  5
EFF
102
{ACAD_REACTORS
330
176E
102
}
330
1E
100
AcDbEntity
  8
STEMPEL
100
AcDbLine
 10
251.9255815116146
 20
446.1809006329304
 30
0.0
 11
251.9255815116145
 21
406.8959426084267
 31
0.0
  0
LINE
  5
F01
330
1E
100
AcDbEntity
  8
STEMPEL
100
AcDbLine
 10
258.0806483900584
 20
531.8598089787307
 30
0.0
 11
86.77051463317104
 21
531.8598089787307
 31
0.0
  0
LINE
  5
F09
330
1E
100
AcDbEntity
  8
STEMPEL
100
AcDbLine
 10
258.0806483900584
 20
531.8598089787307
 30
0.0
 11
258.7400462708607
 21
530.4457256599806
 31
0.0
  0
ARC
  5
F0A
330
1E
100
AcDbEntity
  8
STEMPEL
100
AcDbCircle
 10
227.9255815116146
 20
516.0767047607969
 30
0.0
 40
34.0
100
AcDbArc
 50
0.0
 51
24.99999999999263
  0
LINE
  5
F0B
330
1E
100
AcDbEntity
  8
STEMPEL
100
AcDbLine
 10
261.9255815116146
 20
516.0767047607969
 30
0.0
 11
261.9255815116146
 21
499.7972034495769
 31
0.0
  0
ARC
  5
F0C
330
1E
100
AcDbEntity
  8
STEMPEL
100
AcDbCircle
 10
227.9275538318564
 20
499.8571104980128
 30
0.0
 40
34.0
100
AcDbArc
 50
332.2594896725498
 51
0.0
  0
ARC
  5
F0D
330
1E
100
AcDbEntity
  8
STEMPEL
100
AcDbCircle
 10
274.9255815116146
 20
475.3598089787306
 30
0.0
 40
19.0
100
AcDbArc
 50
152.8456571516186
 51
180.0
  0
LINE
  5
F0E
330
1E
100
AcDbEntity
  8
STEMPEL
100
AcDbLine
 10
255.9255815116146
 20
475.3598089787306
 30
0.0
 11
255.9255815116146
 21
460.3230362566613
 31
0.0
  0
ARC
  5
F11
330
1E
100
AcDbEntity
  8
STEMPEL
100
AcDbCircle
 10
261.9255815116146
 20
446.1809006329304
 30
0.0
 40
10.0
100
AcDbArc
 50
148.413661903472
 51
180.0
  0
ARC
  5
F13
330
1E
100
AcDbEntity
  8
STEMPEL
100
AcDbCircle
 10
238.9255815116146
 20
460.3230362566613
 30
0.0
 40
17.0
100
AcDbArc
 50
328.4136619034722
 51
0.0
  0
LINE
  5
F37
330
1E
100
AcDbEntity
  8
STEMPEL
100
AcDbLine
 10
82.92558151161484
 20
516.0767047607969
 30
0.0
 11
82.92558151161484
 21
499.7972034495769
 31
0.0
  0
LINE
  5
F39
330
1E
100
AcDbEntity
  8
STEMPEL
100
AcDbLine
 10
88.92558151161484
 20
475.3598089787306
 30
0.0
 11
88.92558151161484
 21
460.3230362566613
 31
0.0
  0
ARC
  5
F3B
330
1E
100
AcDbEntity
  8
STEMPEL
100
AcDbCircle
 10
82.92558151161484
 20
446.1809006329304
 30
0.0
 40
10.0
100
AcDbArc
 50
0.0
 51
31.58633809652779
  0
LINE
  5
F3D
330
1E
100
AcDbEntity
  8
STEMPEL
100
AcDbLine
 10
92.92558151161484
 20
446.1809006329304
 30
0.0
 11
92.92558151161491
 21
206.8598089787312
 31
0.0
  0
ARC
  5
F40
330
1E
100
AcDbEntity
  8
STEMPEL
100
AcDbCircle
 10
105.9255815116148
 20
460.3230362566613
 30
0.0
 40
17.0
100
AcDbArc
 50
180.0
 51
211.5863380965277
  0
ARC
  5
F41
330
1E
100
AcDbEntity
  8
STEMPEL
100
AcDbCircle
 10
116.9236091913729
 20
499.8571104980128
 30
0.0
 40
34.0
100
AcDbArc
 50
180.0
 51
207.3202406357857
  0
ARC
  5
F44
330
1E
100
AcDbEntity
  8
STEMPEL
100
AcDbCircle
 10
69.92558151161484
 20
475.3598089787306
 30
0.0
 40
19.0
100
AcDbArc
 50
0.0
 51
27.90640811485477
  0
LINE
  5
F45
330
1E
100
AcDbEntity
  8
STEMPEL
100
AcDbLine
 10
86.77051463317104
 20
531.8598089787307
 30
0.0
 11
86.11111675236873
 21
530.4457256599806
 31
0.0
  0
ARC
  5
F47
330
1E
100
AcDbEntity
  8
STEMPEL
100
AcDbCircle
 10
116.9255815116148
 20
516.0767047607969
 30
0.0
 40
34.0
100
AcDbArc
 50
155.0000000000074
 51
180.0
  0
LINE
  5
F58
330
1E
100
AcDbEntity
  8
HILF
100
AcDbLine
 10
250.8597013521468
 20
449.3108041931534
 30
0.0
 11
93.99146167108268
 21
449.3108041931535
 31
0.0
  0
LINE
  5
F59
330
1E
100
AcDbEntity
  8
HILF
100
AcDbLine
 10
253.8404634656799
 20
456.1044705885348
 30
0.0
 11
91.01069955754951
 21
456.1044705885349
 31
0.0
  0
LINE
  5
F5A
330
1E
100
AcDbEntity
  8
HILF
100
AcDbLine
 10
255.0295224816623
 20
480.299124222431
 30
0.0
 11
89.82164054156726
 21
480.299124222431
 31
0.0
  0
LINE
  5
107B
330
1E
100
AcDbEntity
  8
STEMPEL
100
AcDbLine
 10
251.0506948763556
 20
196.8598089787308
 30
0.0
 11
93.80046814687409
 21
196.8598089787307
 31
0.0
  0
DIMENSION
  5
107C
330
1E
100
AcDbEntity
  8
BEM
100
AcDbDimension
  2
*D1
 10
251.9255815116151
 20
175.7973764668152
 30
0.0
 11
172.425581511615
 21
182.2973764668152
 31
0.0
 70
    32
  1
%%c<>
 71
     5
 42
159.0000000000002
  3
Standard
100
AcDbAlignedDimension
 13
92.92558151161491
 23
206.8598089787313
 33
0.0
 14
251.9255815116151
 24
206.8598089787303
 34
0.0
100
AcDbRotatedDimension
1001
ACAD
1000
DSTYLE
1002
{
1070
    40
1040
2.0
1070
    41
1040
3.5
1070
    42
1040
1.0
1070
    43
1040
7.0
1070
    44
1040
1.0
1070
    73
1070
     0
1070
    74
1070
     0
1070
    77
1070
     1
1070
    78
1070
     8
1070
    79
1070
     2
1070
   140
1040
3.5
1070
   141
1040
1.5
1070
   146
1040
0.5142857142857144
1070
   147
1040
1.5
1070
   172
1070
     1
1070
   178
1070
     1
1070
   179
1070
     2
1070
   271
1070
     2
1070
   272
1070
     2
1070
   284
1070
     8
1070
   285
1070
     8
1070
   286
1070
     8
1002
}
  0
LINE
  5
107D
330
1E
100
AcDbEntity
  8
HILF
100
AcDbLine
 10
250.4255815116145
 20
206.8598089787303
 30
0.0
 11
94.42558151161492
 21
206.8598089787316
 31
0.0
  0
LINE
  5
107F
330
1E
100
AcDbEntity
  8
STEMPEL
100
AcDbLine
 10
92.92558151161491
 20
206.8598089787313
 30
0.0
 11
93.80046814687407
 21
196.8598089787313
 31
0.0
  0
LINE
  5
1084
330
1E
100
AcDbEntity
  8
STEMPEL
100
AcDbLine
 10
251.9255815116147
 20
206.8598089787308
 30
0.0
 11
251.0506948763555
 21
196.8598089787302
 31
0.0
  0
LINE
  5
1086
330
1E
100
AcDbEntity
  8
MITTEL
100
AcDbLine
 10
172.4255815116147
 20
536.8598089787306
 30
0.0
 11
172.4255815116147
 21
191.859808978731
 31
0.0
  0
TEXT
  5
10C7
330
1E
100
AcDbEntity
  8
TEXT
 62
     1
100
AcDbText
 10
135.1380323224912
 20
502.7883012740037
 30
0.0
 40
7.0
  1
DN150
 41
0.8
  7
GREEKS
100
AcDbText
  0
TEXT
  5
1179
330
1E
100
AcDbEntity
  8
TEXT
 62
     1
100
AcDbText
 10
297.0573649355706
 20
132.2248663682012
 30
0.0
 40
7.0
  1
Werkstoff: 1.4301
 41
0.8
  7
GREEKS
100
AcDbText
  0
DIMENSION
  5
11E1
330
1E
100
AcDbEntity
  8
BEM
100
AcDbDimension
  2
*D3
 10
76.2218150655126
 20
351.8598089787308
 30
0.0
 11
69.72181506551255
 21
274.3598089787308
 31
0.0
 70
    32
 71
     5
 42
155.0000000000001
  3
Standard
100
AcDbAlignedDimension
 13
93.80046814687409
 23
196.8598089787307
 33
0.0
 14
174.6313142203148
 24
351.8598089787308
 34
0.0
 50
90.0
100
AcDbRotatedDimension
1001
ACAD
1000
DSTYLE
1002
{
1070
    40
1040
2.0
1070
    41
1040
3.5
1070
    42
1040
1.0
1070
    43
1040
7.0
1070
    44
1040
1.0
1070
    73
1070
     0
1070
    74
1070
     0
1070
    77
1070
     1
1070
    78
1070
     8
1070
    79
1070
     2
1070
   140
1040
3.5
1070
   141
1040
1.5
1070
   146
1040
0.5142857142857144
1070
   147
1040
1.5
1070
   172
1070
     1
1070
   178
1070
     1
1070
   179
1070
     2
1070
   271
1070
     2
1070
   272
1070
     2
1070
   284
1070
     8
1070
   285
1070
     8
1070
   286
1070
     8
1002
}
  0
LINE
  5
1372
330
1E
100
AcDbEntity
  8
MITTEL
100
AcDbLine
 10
366.159711254002
 20
362.0129844898618
 30
0.0
 11
218.8811063154329
 21
354.2944398691271
 31
0.0
  0
LINE
  5
1533
102
{ACAD_REACTORS
330
176E
102
}
330
1E
100
AcDbEntity
  8
STEMPEL
100
AcDbLine
 10
251.9255815116145
 20
305.156512255038
 30
0.0
 11
251.9255815116146
 21
206.8598089787299
 31
0.0
  0
DIMENSION
  5
16D4
330
1E
100
AcDbEntity
  8
BEM
100
AcDbDimension
  2
*D4
 10
172.4255815116147
 20
191.859808978731
 30
0.0
 11
324.5544638944206
 21
512.1702017149364
 31
0.0
 70
    34
 71
     5
 42
1.518436449235065
  3
Standard
100
AcDb2LineAngularDimension
 13
366.159711254002
 23
362.0129844898618
 33
0.0
 14
279.6307453002625
 24
357.4781935405685
 34
0.0
 15
172.4255815116147
 25
536.8598089787306
 35
0.0
 16
354.3350041821304
 26
465.5294320290555
 36
0.0
1001
ACAD
1000
DSTYLE
1002
{
1070
    40
1040
2.0
1070
    41
1040
3.5
1070
    42
1040
1.0
1070
    43
1040
7.0
1070
    44
1040
1.0
1070
    73
1070
     0
1070
    74
1070
     0
1070
    77
1070
     1
1070
    78
1070
     8
1070
    79
1070
     2
1070
   140
1040
3.5
1070
   141
1040
1.5
1070
   146
1040
0.5142857142857144
1070
   147
1040
1.5
1070
   172
1070
     1
1070
   178
1070
     1
1070
   179
1070
     2
1070
   271
1070
     2
1070
   272
1070
     2
1070
   284
1070
     8
1070
   285
1070
     8
1070
   286
1070
     8
1002
}
  0
DIMENSION
  5
16ED
330
1E
100
AcDbEntity
  8
BEM
100
AcDbDimension
  2
*D5
 10
60.17287247395143
 20
531.8598089787307
 30
0.0
 11
53.67287247395133
 21
364.3598089787307
 31
0.0
 70
    32
 71
     5
 42
335.0
  3
Standard
100
AcDbAlignedDimension
 13
93.80046814687409
 23
196.8598089787307
 33
0.0
 14
86.77051463317104
 24
531.8598089787307
 34
0.0
 50
90.0
100
AcDbRotatedDimension
1001
ACAD
1000
DSTYLE
1002
{
1070
    40
1040
2.0
1070
    41
1040
3.5
1070
    42
1040
1.0
1070
    43
1040
7.0
1070
    44
1040
1.0
1070
    73
1070
     0
1070
    74
1070
     0
1070
    77
1070
     1
1070
    78
1070
     8
1070
    79
1070
     2
1070
   140
1040
3.5
1070
   141
1040
1.5
1070
   146
1040
0.5
1070
   147
1040
1.5
1070
   172
1070
     1
1070
   178
1070
     1
1070
   179
1070
     2
1070
   271
1070
     2
1070
   272
1070
     2
1070
   284
1070
     8
1070
   285
1070
     8
1070
   286
1070
     8
1002
}
  0
LINE
  5
1717
330
1E
100
AcDbEntity
  8
STEMPEL
100
AcDbLine
 10
364.027235587312
 20
307.1664311227364
 30
0.0
 11
358.3058915731462
 21
416.3361782945576
 31
0.0
  0
TEXT
  5
1722
330
1E
100
AcDbEntity
  8
TEXT
 62
     1
100
AcDbText
 10
325.3789563110024
 20
375.5476345727017
 30
0.0
 40
7.0
  1
DN100
 50
2.99999999999909
 41
0.8
  7
GREEKS
100
AcDbText
  0
LINE
  5
1728
102
{ACAD_REACTORS
330
176E
102
}
330
1E
100
AcDbEntity
  8
STEMPEL
100
AcDbLine
 10
289.3842622451263
 20
307.1196385271537
 30
0.0
 11
251.9255815116145
 21
305.156512255038
 31
0.0
  0
LINE
  5
1729
102
{ACAD_REACTORS
330
176E
102
}
330
1E
100
AcDbEntity
  8
STEMPEL
100
AcDbLine
 10
284.0669290908429
 20
408.5803992582184
 30
0.0
 11
251.9255815116145
 21
406.8959426084267
 31
0.0
  0
ELLIPSE
  5
172F
330
1E
100
AcDbEntity
  8
STEMPEL
100
AcDbEllipse
 10
251.9255815116145
 20
355.0646678785113
 30
0.0
 11
0.0
 21
-49.9081556234733
 31
0.0
210
0.0
220
0.0
230
1.0
 40
0.3676282771662969
 41
4.712388980384689
 42
6.283185307179586
  0
ELLIPSE
  5
1730
330
1E
100
AcDbEntity
  8
STEMPEL
100
AcDbEllipse
 10
251.9255815116145
 20
355.0646678785113
 30
0.0
 11
0.0
 21
-51.83127472991554
 31
0.0
210
0.0
220
0.0
230
1.0
 40
0.3539879997937843
 41
3.141592653589793
 42
4.712388980384689
  0
ARC
  5
1735
330
1E
100
AcDbEntity
  8
SCHRAFF
100
AcDbCircle
 10
251.9255815116145
 20
406.8959426084267
 30
0.0
 40
5.0
100
AcDbArc
 50
158.4951486391055
 51
235.0960948652386
  0
ARC
  5
1736
330
1E
100
AcDbEntity
  8
SCHRAFF
100
AcDbCircle
 10
247.2323389320828
 20
405.1715661734015
 30
0.0
 40
5.0
100
AcDbArc
 50
187.8717529252717
 51
262.2124646921447
  0
ARC
  5
1737
330
1E
100
AcDbEntity
  8
SCHRAFF
100
AcDbCircle
 10
243.7999366898575
 20
401.5358248669322
 30
0.0
 40
5.0
100
AcDbArc
 50
201.5847870351673
 51
275.5093542406229
  0
ARC
  5
1738
330
1E
100
AcDbEntity
  8
SCHRAFF
100
AcDbCircle
 10
241.2561546792736
 20
397.2312722673432
 30
0.0
 40
5.0
100
AcDbArc
 50
209.3233982593623
 51
283.1393632870243
  0
ARC
  5
1739
330
1E
100
AcDbEntity
  8
SCHRAFF
100
AcDbCircle
 10
239.2861867456866
 20
392.6357063238868
 30
0.0
 40
5.0
100
AcDbArc
 50
214.5038407606683
 51
288.2813152274484
  0
ARC
  5
173A
330
1E
100
AcDbEntity
  8
SCHRAFF
100
AcDbCircle
 10
237.7251264177932
 20
387.8856441503276
 30
0.0
 40
5.0
100
AcDbArc
 50
218.3780436639001
 51
292.1429056117224
  0
ARC
  5
173B
330
1E
100
AcDbEntity
  8
SCHRAFF
100
AcDbCircle
 10
236.4806106731968
 20
383.0430022513791
 30
0.0
 40
5.0
100
AcDbArc
 50
221.4968515714796
 51
295.2528592112948
  0
ARC
  5
173C
330
1E
100
AcDbEntity
  8
SCHRAFF
100
AcDbCircle
 10
235.4966691406353
 20
378.1407722424444
 30
0.0
 40
5.0
100
AcDbArc
 50
224.1501373619102
 51
297.9030828958611
  0
ARC
  5
173D
330
1E
100
AcDbEntity
  8
SCHRAFF
100
AcDbCircle
 10
234.7375175133887
 20
373.1987393806709
 30
0.0
 40
5.0
100
AcDbArc
 50
226.4997173124548
 51
300.249398320773
  0
ARC
  5
173E
330
1E
100
AcDbEntity
  8
SCHRAFF
100
AcDbCircle
 10
234.1796711682827
 20
368.2299560833986
 30
0.0
 40
5.0
100
AcDbArc
 50
228.6553553382533
 51
302.4058193715741
  0
ARC
  5
173F
330
1E
100
AcDbEntity
  8
SCHRAFF
100
AcDbCircle
 10
233.8078172673033
 20
363.2438027888913
 30
0.0
 40
5.0
100
AcDbArc
 50
230.6908502143971
 51
304.4401887288764
  0
ARC
  5
1740
330
1E
100
AcDbEntity
  8
SCHRAFF
100
AcDbCircle
 10
233.6125609288308
 20
358.2476167472905
 30
0.0
 40
5.0
100
AcDbArc
 50
232.6651280160791
 51
306.4134432746016
  0
ARC
  5
1741
330
1E
100
AcDbEntity
  8
SCHRAFF
100
AcDbCircle
 10
233.590095826853
 20
353.2476672156259
 30
0.0
 40
5.0
100
AcDbArc
 50
234.741758147582
 51
308.4910957934011
  0
ARC
  5
1742
330
1E
100
AcDbEntity
  8
SCHRAFF
100
AcDbCircle
 10
233.7497656239031
 20
348.2502173103333
 30
0.0
 40
5.0
100
AcDbArc
 50
236.9024377840154
 51
310.6538135950017
  0
ARC
  5
1743
330
1E
100
AcDbEntity
  8
SCHRAFF
100
AcDbCircle
 10
234.0983388523069
 20
343.2623824389246
 30
0.0
 40
5.0
100
AcDbArc
 50
239.1678413651623
 51
312.9209865107307
  0
ARC
  5
1744
330
1E
100
AcDbEntity
  8
SCHRAFF
100
AcDbCircle
 10
234.6450434874703
 20
338.2923609055818
 30
0.0
 40
5.0
100
AcDbArc
 50
241.6089183242853
 51
315.3628076733191
  0
ARC
  5
1745
330
1E
100
AcDbEntity
  8
SCHRAFF
100
AcDbCircle
 10
235.4055254276258
 20
333.35053257806
 30
0.0
 40
5.0
100
AcDbArc
 50
244.3425229455202
 51
318.1065320276236
  0
ARC
  5
1746
330
1E
100
AcDbEntity
  8
SCHRAFF
100
AcDbCircle
 10
236.4042134487314
 20
328.4512854689115
 30
0.0
 40
5.0
100
AcDbArc
 50
247.52272991875
 51
321.2925427210849
  0
ARC
  5
1747
330
1E
100
AcDbEntity
  8
SCHRAFF
100
AcDbCircle
 10
237.6787013281827
 20
323.6164451773267
 30
0.0
 40
5.0
100
AcDbArc
 50
251.4192508153726
 51
325.2071442423529
  0
ARC
  5
1748
330
1E
100
AcDbEntity
  8
SCHRAFF
100
AcDbCircle
 10
239.2881536871728
 20
318.8825606092219
 30
0.0
 40
5.0
100
AcDbArc
 50
256.5444186320867
 51
330.3708897306709
  0
ARC
  5
1749
330
1E
100
AcDbEntity
  8
SCHRAFF
100
AcDbCircle
 10
241.3305398477973
 20
314.3187180647327
 30
0.0
 40
5.0
100
AcDbArc
 50
263.9836764882095
 51
337.9449310310768
  0
ARC
  5
174A
330
1E
100
AcDbEntity
  8
SCHRAFF
100
AcDbCircle
 10
243.9803823586979
 20
310.0786314303081
 30
0.0
 40
5.0
100
AcDbArc
 50
276.5072138260427
 51
351.0352690220695
  0
ARC
  5
174B
102
{ACAD_REACTORS
330
176E
102
}
330
1E
100
AcDbEntity
  8
SCHRAFF
100
AcDbCircle
 10
251.9255815116146
 20
406.8959426084267
 30
0.0
 40
3.0
100
AcDbArc
 50
3.000000000001258
 51
90.0
  0
ARC
  5
174D
102
{ACAD_REACTORS
330
176E
102
}
330
1E
100
AcDbEntity
  8
SCHRAFF
100
AcDbCircle
 10
251.9255815116146
 20
305.156512255038
 30
0.0
 40
3.0
100
AcDbArc
 50
269.9999999999989
 51
3.000000000000173
  0
HATCH
  5
176E
330
1E
100
AcDbEntity
  8
SCHRAFF
100
AcDbHatch
 10
0.0
 20
0.0
 30
0.0
210
0.0
220
0.0
230
1.0
  2
_USER
 70
     0
 71
     1
 91
        2
 92
        7
 72
     1
 73
     1
 93
        3
 10
254.9214701158783
 20
407.0529504771557
 42
0.3989595459737156
 10
251.9255815116145
 20
409.8959426084268
 42
0.0
 10
251.9255815116145
 20
406.8959426084267
 42
0.0
 97
        3
330
EFF
330
1729
330
174B
 92
        7
 72
     1
 73
     1
 93
        3
 10
251.9255815116145
 20
302.156512255038
 42
0.4296339059668425
 10
254.9214701158783
 20
305.3135201237668
 42
0.0
 10
251.9255815116145
 20
305.1565122550379
 42
0.0
 97
        3
330
1728
330
1533
330
174D
 75
     0
 76
     0
 52
0.0
 41
0.1
 77
     0
 78
     1
 53
0.0
 43
0.0
 44
0.0
 45
0.0
 46
0.1
 79
     0
 47
0.2796684424538606
 98
        2
 10
253.3659716896586
 20
408.091684746075
 10
253.0860993940219
 20
303.7753549234117
  0
DIMENSION
  5
17E0
330
1E
100
AcDbEntity
  8
BEM
100
AcDbDimension
  2
*D7
 10
365.1632749742657
 20
285.4895082976317
 30
0.0
 11
271.7259820172936
 21
280.5926672715378
 31
0.0
 70
   160
 71
     5
 42
188.9999999999997
 51
357.0
  3
Standard
100
AcDbAlignedDimension
 13
172.4255815116147
 23
351.8598089787307
 33
0.0
 14
364.027235587312
 24
307.1664311227364
 34
0.0
 50
3.000000000000002
100
AcDbRotatedDimension
1001
ACAD
1000
DSTYLE
1002
{
1070
    40
1040
2.0
1070
    41
1040
3.5
1070
    42
1040
1.0
1070
    43
1040
7.0
1070
    44
1040
1.0
1070
    73
1070
     0
1070
    74
1070
     0
1070
    77
1070
     1
1070
    78
1070
     8
1070
    79
1070
     2
1070
   140
1040
3.5
1070
   141
1040
1.5
1070
   146
1040
0.5
1070
   147
1040
1.5
1070
   172
1070
     1
1070
   178
1070
     1
1070
   179
1070
     2
1070
   271
1070
     2
1070
   272
1070
     2
1070
   284
1070
     8
1070
   285
1070
     8
1070
   286
1070
     8
1002
}
  0
DIMENSION
  5
17F6
330
1E
100
AcDbEntity
  8
BEM
100
AcDbDimension
  2
*D8
 10
208.3748696668942
 20
302.8741161610608
 30
0.0
 11
212.2072950656575
 21
353.9446802421722
 31
0.0
 70
    32
  1
%%c<>
 71
     5
 42
101.6
 51
87.00000000000018
  3
Standard
100
AcDbAlignedDimension
 13
251.9255815116145
 23
406.8959426084267
 33
0.0
 14
251.9255815116144
 24
305.156512255038
 34
0.0
 50
272.9999999999998
100
AcDbRotatedDimension
1001
ACAD
1000
DSTYLE
1002
{
1070
    40
1040
2.0
1070
    41
1040
3.5
1070
    42
1040
1.0
1070
    43
1040
7.0
1070
    44
1040
1.0
1070
    73
1070
     0
1070
    74
1070
     0
1070
    77
1070
     1
1070
    78
1070
     8
1070
    79
1070
     2
1070
   140
1040
3.5
1070
   141
1040
1.5
1070
   146
1040
0.5
1070
   147
1040
1.5
1070
   172
1070
     1
1070
   178
1070
     1
1070
   179
1070
     2
1070
   271
1070
     2
1070
   272
1070
     2
1070
   284
1070
     8
1070
   285
1070
     8
1070
   286
1070
     8
1002
}
  0
LINE
  5
180C
330
1E
100
AcDbEntity
  8
MITTEL
100
AcDbLine
 10
202.4840771134868
 20
353.4351079818139
 30
0.0
 11
172.4255815116147
 21
351.8598089787307
 31
0.0
  0
TEXT
  5
1826
330
1E
100
AcDbEntity
  8
BEM
100
AcDbText
 10
416.5811541437437
 20
12.14804815338303
 30
0.0
 40
4.0
  1
Diese Zeichnung ist urheberrechtlich geschützt und bleibt unser Eigentum. Sie darf weder ganz noch teilweise vervielfältigt und nicht an Dritte weitergegeben werden.
 50
90.0
 41
0.8
  7
GREEKS
100
AcDbText
  0
TEXT
  5
182B
330
1E
100
AcDbEntity
  8
TEXT
 62
     1
100
AcDbText
 10
369.8174610628377
 20
62.89834046406031
 30
0.0
 40
7.0
  1

 41
0.8
  7
GREEKS
 72
     1
 11
369.8174610628377
 21
62.89834046406031
 31
0.0
100
AcDbText
  0
TEXT
  5
1842
330
1E
100
AcDbEntity
  8
TEXT
100
AcDbText
 10
192.6882715247924
 20
88.76801189497724
 30
0.0
 40
4.0
  1
DIN EN1124-3
 41
0.8
  7
GREEKS
 72
     1
 11
209.6787477152686
 21
88.76801189497724
 31
0.0
100
AcDbText
  0
LINE
  5
18A7
330
1E
100
AcDbEntity
  8
HILF
100
AcDbLine
 10
319.4751754180507
 20
306.4736405012382
 30
0.0
 11
313.9254759120192
 21
412.3682153516424
 31
0.0
  0
LINE
  5
18A8
330
1E
100
AcDbEntity
  8
HILF
100
AcDbLine
 10
297.007286602633
 20
306.1705482716424
 30
0.0
 11
291.5489867773983
 21
410.3211133195473
 31
0.0
  0
LINE
  5
18A9
330
1E
100
AcDbEntity
  8
HILF
100
AcDbLine
 10
291.4600640159478
 20
308.1801311203009
 30
0.0
 11
286.2422110634378
 21
407.7426965236099
 31
0.0
  0
ARC
  5
18AC
330
1E
100
AcDbEntity
  8
STEMPEL
100
AcDbCircle
 10
347.2232455574265
 20
394.7668144353646
 30
0.0
 40
24.2
100
AcDbArc
 50
62.73634805790013
 51
93.0
  0
LINE
  5
18AD
330
1E
100
AcDbEntity
  8
STEMPEL
100
AcDbLine
 10
310.9075564934267
 20
413.0913112075448
 30
0.0
 11
295.2042150118277
 21
412.268333953171
 31
0.0
  0
ARC
  5
18AF
330
1E
100
AcDbEntity
  8
STEMPEL
100
AcDbCircle
 10
295.9473855904775
 20
398.087794559656
 30
0.0
 40
14.2
100
AcDbArc
 50
93.0
 51
123.6429317629373
  0
ARC
  5
18B0
330
1E
100
AcDbEntity
  8
STEMPEL
100
AcDbCircle
 10
283.6482414408995
 20
416.5694355362549
 30
0.0
 40
8.0
100
AcDbArc
 50
272.9999999999999
 51
303.6429317629371
  0
LINE
  5
18B1
330
1E
100
AcDbEntity
  8
STEMPEL
100
AcDbLine
 10
345.9567154163472
 20
418.9336491764252
 30
0.0
 11
327.4084809293644
 21
417.9615773973413
 31
0.0
  0
ARC
  5
18B2
330
1E
100
AcDbEntity
  8
STEMPEL
100
AcDbCircle
 10
328.6750110704436
 20
393.7947426562807
 30
0.0
 40
24.2
100
AcDbArc
 50
93.0
 51
119.8880476177246
  0
ARC
  5
18B3
330
1E
100
AcDbEntity
  8
STEMPEL
100
AcDbCircle
 10
310.2376562535171
 20
425.8737692524034
 30
0.0
 40
12.8
100
AcDbArc
 50
273.0
 51
299.8880476177246
  0
ARC
  5
18B5
330
1E
100
AcDbEntity
  8
STEMPEL
100
AcDbCircle
 10
350.750689008201
 20
327.4591837929063
 30
0.0
 40
24.2
100
AcDbArc
 50
273.0
 51
303.2636519420998
  0
ARC
  5
18B6
330
1E
100
AcDbEntity
  8
STEMPEL
100
AcDbCircle
 10
332.2024545212181
 20
326.4871120138224
 30
0.0
 40
24.2
100
AcDbArc
 50
246.1119523822754
 51
273.0
  0
LINE
  5
18B7
330
1E
100
AcDbEntity
  8
STEMPEL
100
AcDbLine
 10
316.5493725764161
 20
305.4390473610019
 30
0.0
 11
300.8460310948172
 21
304.616070106628
 31
0.0
  0
ARC
  5
18B9
330
1E
100
AcDbEntity
  8
STEMPEL
100
AcDbCircle
 10
300.1028605161673
 20
318.796609500143
 30
0.0
 40
14.2
100
AcDbArc
 50
242.357068237063
 51
273.0
  0
ARC
  5
18BA
330
1E
100
AcDbEntity
  8
STEMPEL
100
AcDbCircle
 10
289.8029498950698
 20
299.1306022491171
 30
0.0
 40
8.0
100
AcDbArc
 50
62.35706823706244
 51
92.99999999999991
  0
ARC
  5
18BB
330
1E
100
AcDbEntity
  8
STEMPEL
100
AcDbCircle
 10
317.2192728163259
 20
292.6565893161433
 30
0.0
 40
12.8
100
AcDbArc
 50
66.11195238227537
 51
93.0
  0
LINE
  5
18BC
330
1E
100
AcDbEntity
  8
STEMPEL
100
AcDbLine
 10
352.0172191492802
 20
303.2923490518458
 30
0.0
 11
333.4689846622974
 21
302.3202772727618
 31
0.0
  0
TEXT
  5
18EF
330
1E
100
AcDbEntity
  8
TEXT
100
AcDbText
 10
170.7037590129979
 20
63.10765040825732
 30
0.0
 40
4.0
  1
14.04.
 41
0.8
  7
GREEKS
 72
     1
 11
177.4085209177598
 21
63.10765040825732
 31
0.0
100
AcDbText
  0
ENDSEC
  0
SECTION
  2
OBJECTS
  0
DICTIONARY
  5
C
330
0
100
AcDbDictionary
281
     1
  3
ACAD_COLOR
350
16EB
  3
ACAD_GROUP
350
D
  3
ACAD_LAYOUT
350
19
  3
ACAD_MATERIAL
350
16EA
  3
ACAD_MLINESTYLE
350
16
  3
ACAD_PLOTSETTINGS
350
18
  3
ACAD_PLOTSTYLENAME
350
E
  3
AcDbVariableDictionary
350
246
  0
DICTIONARY
  5
16EB
102
{ACAD_REACTORS
330
C
102
}
330
C
100
AcDbDictionary
281
     1
  0
DICTIONARY
  5
D
102
{ACAD_REACTORS
330
C
102
}
330
C
100
AcDbDictionary
281
     1
  0
DICTIONARY
  5
19
102
{ACAD_REACTORS
330
C
102
}
330
C
100
AcDbDictionary
281
     1
  3
Layout1
350
1D
  3
Model
350
21
  0
DICTIONARY
  5
16EA
102
{ACAD_REACTORS
330
C
102
}
330
C
100
AcDbDictionary
281
     1
  0
DICTIONARY
  5
16
102
{ACAD_REACTORS
330
C
102
}
330
C
100
AcDbDictionary
281
     1
  3
Standard
350
17
  0
DICTIONARY
  5
18
102
{ACAD_REACTORS
330
C
102
}
330
C
100
AcDbDictionary
281
     1
  0
ACDBDICTIONARYWDFLT
  5
E
102
{ACAD_REACTORS
330
C
102
}
330
C
100
AcDbDictionary
281
     1
  3
Normal
350
F
100
AcDbDictionaryWithDefault
340
F
  0
DICTIONARY
  5
246
102
{ACAD_REACTORS
330
C
102
}
330
C
100
AcDbDictionary
281
     1
  3
DIMASSOC
350
183E
  3
PROJECTNAME
350
183F
  3
SORTENTS
350
247
  0
LAYOUT
  5
1D
102
{ACAD_REACTORS
330
19
102
}
330
19
100
AcDbPlotSettings
  1

  2
Tektronix Phaser 740
  4

  6

 40
0.0
 41
0.0
 42
0.0
 43
0.0
 44
0.0
 45
0.0
 46
0.0
 47
0.0
 48
0.0
 49
0.0
140
0.0
141
0.0
142
1.0
143
1.0
 70
   688
 72
     0
 73
     0
 74
     5
  7
monochrome.ctb
 75
    16
147
1.0
 76
     0
 77
     2
 78
   300
148
0.0
149
0.0
100
AcDbLayout
  1
Layout1
 70
     0
 71
     1
 10
0.0
 20
0.0
 11
12.0
 21
9.0
 12
0.0
 22
0.0
 32
0.0
 14
1.000000000000000E+20
 24
1.000000000000000E+20
 34
1.000000000000000E+20
 15
-1.000000000000000E+20
 25
-1.000000000000000E+20
 35
-1.000000000000000E+20
146
0.0
 13
0.0
 23
0.0
 33
0.0
 16
1.0
 26
0.0
 36
0.0
 17
0.0
 27
1.0
 37
0.0
 76
     0
330
1A
  0
LAYOUT
  5
21
102
{ACAD_REACTORS
330
19
102
}
330
19
100
AcDbPlotSettings
  1

  2
Tektronix Phaser 740
  4
A4
  6

 40
5.873749732971191
 41
6.085414409637451
 42
5.577407836914062
 43
5.662078857421875
 44
209.9733276367187
 45
296.9683227539062
 46
0.0
 47
0.0
 48
0.0
 49
0.0
140
0.0
141
0.0
142
1.0
143
1.0
 70
 11952
 72
     0
 73
     1
 74
     0
  7
monochrome.ctb
 75
     0
147
1.0
 76
     0
 77
     2
 78
   300
148
1150.120678237584
149
45.30495740799864
100
AcDbLayout
  1
Model
 70
     1
 71
     0
 10
0.0
 20
0.0
 11
12.0
 21
9.0
 12
0.0
 22
0.0
 32
0.0
 14
0.0
 24
0.0
 34
0.0
 15
0.0
 25
0.0
 35
0.0
146
0.0
 13
0.0
 23
0.0
 33
0.0
 16
1.0
 26
0.0
 36
0.0
 17
0.0
 27
1.0
 37
0.0
 76
     0
330
1E
  0
MLINESTYLE
  5
17
102
{ACAD_REACTORS
330
16
102
}
330
16
100
AcDbMlineStyle
  2
STANDARD
 70
     0
  3

 62
   256
 51
90.0
 52
90.0
 71
     2
 49
0.5
 62
   256
  6
BYLAYER
 49
-0.5
 62
   256
  6
BYLAYER
  0
ACDBPLACEHOLDER
  5
F
102
{ACAD_REACTORS
330
E
102
}
330
E
  0
DICTIONARYVAR
  5
183E
102
{ACAD_REACTORS
330
246
102
}
330
246
100
DictionaryVariables
280
     0
  1
1
  0
DICTIONARYVAR
  5
183F
102
{ACAD_REACTORS
330
246
102
}
330
246
100
DictionaryVariables
280
     0
  1

  0
DICTIONARYVAR
  5
247
102
{ACAD_REACTORS
330
246
102
}
330
246
100
DictionaryVariables
280
     0
  1
96
  0
ENDSEC
  0
EOF
