  0
SECTION
  2
HEADER
  9
$ACADVER
  1
AC1018
  9
$ACADMAINTVER
 70
     2
  9
$DWGCODEPAGE
  3
ANSI_1252
  9
$INSBASE
 10
0.0
 20
0.0
 30
0.0
  9
$EXTMIN
 10
-0.0251137450825354
 20
-0.0181260584133725
 30
-0.0015258207003583
  9
$EXTMAX
 10
420.0135190499546
 20
594.0181288244416
 30
0.0000000349246037
  9
$LIMMIN
 10
0.0
 20
0.0
  9
$LIMMAX
 10
419.9999999999999
 20
594.0
  9
$ORTHOMODE
 70
     0
  9
$REGENMODE
 70
     1
  9
$FILLMODE
 70
     1
  9
$QTEXTMODE
 70
     0
  9
$MIRRTEXT
 70
     1
  9
$LTSCALE
 40
20.0
  9
$ATTMODE
 70
     1
  9
$TEXTSIZE
 40
3.5
  9
$TRACEWID
 40
0.5
  9
$TEXTSTYLE
  7
STANDARD
  9
$CLAYER
  8
SCHRAFF
  9
$CELTYPE
  6
ByLayer
  9
$CECOLOR
 62
   256
  9
$CELTSCALE
 40
1.0
  9
$DISPSILH
 70
     0
  9
$DIMSCALE
 40
1.0
  9
$DIMASZ
 40
0.18
  9
$DIMEXO
 40
0.0625
  9
$DIMDLI
 40
0.38
  9
$DIMRND
 40
0.0
  9
$DIMDLE
 40
0.0
  9
$DIMEXE
 40
0.18
  9
$DIMTP
 40
0.0
  9
$DIMTM
 40
0.0
  9
$DIMTXT
 40
0.18
  9
$DIMCEN
 40
0.09
  9
$DIMTSZ
 40
0.0
  9
$DIMTOL
 70
     0
  9
$DIMLIM
 70
     0
  9
$DIMTIH
 70
     1
  9
$DIMTOH
 70
     1
  9
$DIMSE1
 70
     0
  9
$DIMSE2
 70
     0
  9
$DIMTAD
 70
     0
  9
$DIMZIN
 70
     0
  9
$DIMBLK
  1

  9
$DIMASO
 70
     1
  9
$DIMSHO
 70
     0
  9
$DIMPOST
  1

  9
$DIMAPOST
  1

  9
$DIMALT
 70
     0
  9
$DIMALTD
 70
     2
  9
$DIMALTF
 40
25.4
  9
$DIMLFAC
 40
1.0
  9
$DIMTOFL
 70
     0
  9
$DIMTVP
 40
0.0
  9
$DIMTIX
 70
     0
  9
$DIMSOXD
 70
     0
  9
$DIMSAH
 70
     0
  9
$DIMBLK1
  1

  9
$DIMBLK2
  1

  9
$DIMSTYLE
  2
Standard
  9
$DIMCLRD
 70
     0
  9
$DIMCLRE
 70
     0
  9
$DIMCLRT
 70
     0
  9
$DIMTFAC
 40
1.0
  9
$DIMGAP
 40
0.09
  9
$DIMJUST
 70
     0
  9
$DIMSD1
 70
     0
  9
$DIMSD2
 70
     0
  9
$DIMTOLJ
 70
     1
  9
$DIMTZIN
 70
     0
  9
$DIMALTZ
 70
     0
  9
$DIMALTTZ
 70
     0
  9
$DIMUPT
 70
     0
  9
$DIMDEC
 70
     4
  9
$DIMTDEC
 70
     4
  9
$DIMALTU
 70
     2
  9
$DIMALTTD
 70
     2
  9
$DIMTXSTY
  7
STANDARD
  9
$DIMAUNIT
 70
     0
  9
$DIMADEC
 70
     0
  9
$DIMALTRND
 40
0.0
  9
$DIMAZIN
 70
     0
  9
$DIMDSEP
 70
    46
  9
$DIMATFIT
 70
     3
  9
$DIMFRAC
 70
     0
  9
$DIMLDRBLK
  1

  9
$DIMLUNIT
 70
     2
  9
$DIMLWD
 70
    -2
  9
$DIMLWE
 70
    -2
  9
$DIMTMOVE
 70
     0
  9
$LUNITS
 70
     2
  9
$LUPREC
 70
     2
  9
$SKETCHINC
 40
1.0
  9
$FILLETRAD
 40
0.0
  9
$AUNITS
 70
     1
  9
$AUPREC
 70
     3
  9
$MENU
  1
ACAD
  9
$ELEVATION
 40
0.0
  9
$PELEVATION
 40
0.0
  9
$THICKNESS
 40
0.0
  9
$LIMCHECK
 70
     0
  9
$CHAMFERA
 40
0.0
  9
$CHAMFERB
 40
0.0
  9
$CHAMFERC
 40
0.0
  9
$CHAMFERD
 40
0.0
  9
$SKPOLY
 70
     0
  9
$TDCREATE
 40
2452040.637099653
  9
$TDUCREATE
 40
2452040.553766320
  9
$TDUPDATE
 40
2455666.405892766
  9
$TDUUPDATE
 40
2455666.322559433
  9
$TDINDWG
 40
0.4270461690
  9
$TDUSRTIMER
 40
0.4270461690
  9
$USRTIMER
 70
     1
  9
$ANGBASE
 50
0.0
  9
$ANGDIR
 70
     0
  9
$PDMODE
 70
     0
  9
$PDSIZE
 40
0.0
  9
$PLINEWID
 40
0.0
  9
$SPLFRAME
 70
     0
  9
$SPLINETYPE
 70
     6
  9
$SPLINESEGS
 70
     8
  9
$HANDSEED
  5
20C1
  9
$SURFTAB1
 70
     6
  9
$SURFTAB2
 70
     6
  9
$SURFTYPE
 70
     6
  9
$SURFU
 70
     6
  9
$SURFV
 70
     6
  9
$UCSBASE
  2

  9
$UCSNAME
  2

  9
$UCSORG
 10
0.0
 20
0.0
 30
0.0
  9
$UCSXDIR
 10
1.0
 20
0.0
 30
0.0
  9
$UCSYDIR
 10
0.0
 20
1.0
 30
0.0
  9
$UCSORTHOREF
  2

  9
$UCSORTHOVIEW
 70
     0
  9
$UCSORGTOP
 10
0.0
 20
0.0
 30
0.0
  9
$UCSORGBOTTOM
 10
0.0
 20
0.0
 30
0.0
  9
$UCSORGLEFT
 10
0.0
 20
0.0
 30
0.0
  9
$UCSORGRIGHT
 10
0.0
 20
0.0
 30
0.0
  9
$UCSORGFRONT
 10
0.0
 20
0.0
 30
0.0
  9
$UCSORGBACK
 10
0.0
 20
0.0
 30
0.0
  9
$PUCSBASE
  2

  9
$PUCSNAME
  2

  9
$PUCSORG
 10
0.0
 20
0.0
 30
0.0
  9
$PUCSXDIR
 10
1.0
 20
0.0
 30
0.0
  9
$PUCSYDIR
 10
0.0
 20
1.0
 30
0.0
  9
$PUCSORTHOREF
  2

  9
$PUCSORTHOVIEW
 70
     0
  9
$PUCSORGTOP
 10
0.0
 20
0.0
 30
0.0
  9
$PUCSORGBOTTOM
 10
0.0
 20
0.0
 30
0.0
  9
$PUCSORGLEFT
 10
0.0
 20
0.0
 30
0.0
  9
$PUCSORGRIGHT
 10
0.0
 20
0.0
 30
0.0
  9
$PUCSORGFRONT
 10
0.0
 20
0.0
 30
0.0
  9
$PUCSORGBACK
 10
0.0
 20
0.0
 30
0.0
  9
$USERI1
 70
     0
  9
$USERI2
 70
     0
  9
$USERI3
 70
     0
  9
$USERI4
 70
     0
  9
$USERI5
 70
     0
  9
$USERR1
 40
0.0
  9
$USERR2
 40
0.0
  9
$USERR3
 40
0.0
  9
$USERR4
 40
0.0
  9
$USERR5
 40
0.0
  9
$WORLDVIEW
 70
     1
  9
$SHADEDGE
 70
     3
  9
$SHADEDIF
 70
    70
  9
$TILEMODE
 70
     1
  9
$MAXACTVP
 70
    16
  9
$PINSBASE
 10
0.0
 20
0.0
 30
0.0
  9
$PLIMCHECK
 70
     0
  9
$PEXTMIN
 10
1.000000000000000E+20
 20
1.000000000000000E+20
 30
1.000000000000000E+20
  9
$PEXTMAX
 10
-1.000000000000000E+20
 20
-1.000000000000000E+20
 30
-1.000000000000000E+20
  9
$PLIMMIN
 10
0.0
 20
0.0
  9
$PLIMMAX
 10
12.0
 20
9.0
  9
$UNITMODE
 70
     0
  9
$VISRETAIN
 70
     0
  9
$PLINEGEN
 70
     0
  9
$PSLTSCALE
 70
     0
  9
$TREEDEPTH
 70
  3020
  9
$CMLSTYLE
  2
Standard
  9
$CMLJUST
 70
     0
  9
$CMLSCALE
 40
1.0
  9
$PROXYGRAPHICS
 70
     1
  9
$MEASUREMENT
 70
     0
  9
$CELWEIGHT
370
    -1
  9
$ENDCAPS
280
     0
  9
$JOINSTYLE
280
     0
  9
$LWDISPLAY
290
     0
  9
$INSUNITS
 70
     0
  9
$HYPERLINKBASE
  1

  9
$STYLESHEET
  1
monochrome 1.ctb
  9
$XEDIT
290
     1
  9
$CEPSNTYPE
380
     0
  9
$PSTYLEMODE
290
     1
  9
$FINGERPRINTGUID
  2
{7AADB5C8-6110-11D8-B72B-000102183313}
  9
$VERSIONGUID
  2
{3B2AFA92-F578-4001-B136-0D4DDAFD87E7}
  9
$EXTNAMES
290
     1
  9
$PSVPSCALE
 40
0.0
  9
$OLESTARTUP
290
     0
  9
$SORTENTS
280
    96
  9
$INDEXCTL
280
     0
  9
$HIDETEXT
280
     0
  9
$XCLIPFRAME
290
     0
  9
$HALOGAP
280
     0
  9
$OBSCOLOR
 70
   257
  9
$OBSLTYPE
280
     0
  9
$INTERSECTIONDISPLAY
280
     0
  9
$INTERSECTIONCOLOR
 70
   257
  9
$DIMASSOC
280
     1
  9
$PROJECTNAME
  1

  0
ENDSEC
  0
SECTION
  2
CLASSES
  0
CLASS
  1
ACDBDICTIONARYWDFLT
  2
AcDbDictionaryWithDefault
  3
ObjectDBX Classes
 90
        0
 91
        1
280
     0
281
     0
  0
CLASS
  1
DICTIONARYVAR
  2
AcDbDictionaryVar
  3
ObjectDBX Classes
 90
        0
 91
        3
280
     0
281
     0
  0
ENDSEC
  0
SECTION
  2
TABLES
  0
TABLE
  2
VPORT
  5
8
330
0
100
AcDbSymbolTable
 70
     3
  0
VPORT
  5
20C0
330
8
100
AcDbSymbolTableRecord
100
AcDbViewportTableRecord
  2
*Active
 70
     0
 10
0.0
 20
0.0
 11
1.0
 21
1.0
 12
210.0
 22
297.0
 13
0.0
 23
0.0
 14
1.0
 24
1.0
 15
10.0
 25
10.0
 16
0.0
 26
0.0
 36
1.0
 17
0.0
 27
0.0
 37
0.0
 40
594.0
 41
1.334231805929919
 42
50.0
 43
0.0
 44
0.0
 50
0.0
 51
0.0
 71
     0
 72
  1500
 73
     1
 74
     0
 75
     0
 76
     0
 77
     0
 78
     0
281
     0
 65
     1
110
0.0
120
0.0
130
0.0
111
1.0
121
0.0
131
0.0
112
0.0
122
1.0
132
0.0
 79
     0
146
0.0
  0
ENDTAB
  0
TABLE
  2
LTYPE
  5
5
330
0
100
AcDbSymbolTable
 70
     2
  0
LTYPE
  5
13
330
5
100
AcDbSymbolTableRecord
100
AcDbLinetypeTableRecord
  2
ByBlock
 70
     0
  3

 72
    65
 73
     0
 40
0.0
  0
LTYPE
  5
14
330
5
100
AcDbSymbolTableRecord
100
AcDbLinetypeTableRecord
  2
ByLayer
 70
     0
  3

 72
    65
 73
     0
 40
0.0
  0
LTYPE
  5
15
330
5
100
AcDbSymbolTableRecord
100
AcDbLinetypeTableRecord
  2
Continuous
 70
     0
  3
Solid line
 72
    65
 73
     0
 40
0.0
  0
LTYPE
  5
35
330
5
100
AcDbSymbolTableRecord
100
AcDbLinetypeTableRecord
  2
STRICHPUNKT
 70
     0
  3
__ . __ . __ . __ . __ . __ . __ . __ . __ . __
 72
    65
 73
     4
 40
1.0
 49
0.5
 74
     0
 49
-0.25
 74
     0
 49
0.0
 74
     0
 49
-0.25
 74
     0
  0
ENDTAB
  0
TABLE
  2
LAYER
  5
2
330
0
100
AcDbSymbolTable
 70
     9
  0
LAYER
  5
10
330
2
100
AcDbSymbolTableRecord
100
AcDbLayerTableRecord
  2
0
 70
     0
 62
     7
  6
Continuous
370
    -3
390
F
  0
LAYER
  5
38
330
2
100
AcDbSymbolTableRecord
100
AcDbLayerTableRecord
  2
VOLL
 70
     0
 62
     1
  6
Continuous
370
    -3
390
F
  0
LAYER
  5
39
330
2
100
AcDbSymbolTableRecord
100
AcDbLayerTableRecord
  2
HILF
 70
     0
 62
     2
  6
Continuous
370
    -3
390
F
  0
LAYER
  5
3A
330
2
100
AcDbSymbolTableRecord
100
AcDbLayerTableRecord
  2
MITTEL
 70
     0
 62
     2
  6
STRICHPUNKT
370
    -3
390
F
  0
LAYER
  5
3B
330
2
100
AcDbSymbolTableRecord
100
AcDbLayerTableRecord
  2
BEM
 70
     0
 62
     7
  6
Continuous
370
    -3
390
F
  0
LAYER
  5
3C
330
2
100
AcDbSymbolTableRecord
100
AcDbLayerTableRecord
  2
STEMPEL
 70
     0
 62
     3
  6
Continuous
370
    -3
390
F
  0
LAYER
  5
3D
330
2
100
AcDbSymbolTableRecord
100
AcDbLayerTableRecord
  2
TEXT
 70
     0
 62
     7
  6
Continuous
370
    -3
390
F
  0
LAYER
  5
3E
330
2
100
AcDbSymbolTableRecord
100
AcDbLayerTableRecord
  2
DEFPOINTS
 70
     0
 62
     7
  6
Continuous
290
     0
370
    -3
390
F
  0
LAYER
  5
3F
330
2
100
AcDbSymbolTableRecord
100
AcDbLayerTableRecord
  2
SCHRAFF
 70
     0
 62
     7
  6
Continuous
370
    -3
390
F
  0
ENDTAB
  0
TABLE
  2
STYLE
  5
3
330
0
100
AcDbSymbolTable
 70
     2
  0
STYLE
  5
11
330
3
100
AcDbSymbolTableRecord
100
AcDbTextStyleTableRecord
  2
STANDARD
 70
     0
 40
0.0
 41
0.8
 50
0.0
 71
     0
 42
3.5
  3
simplex.shx
  4

  0
STYLE
  5
34
330
3
100
AcDbSymbolTableRecord
100
AcDbTextStyleTableRecord
  2
GREEKS
 70
     0
 40
0.0
 41
0.8
 50
0.0
 71
     0
 42
2.5
  3
SIMPLEX.shx
  4

  0
ENDTAB
  0
TABLE
  2
VIEW
  5
6
330
0
100
AcDbSymbolTable
 70
     0
  0
ENDTAB
  0
TABLE
  2
UCS
  5
7
330
0
100
AcDbSymbolTable
 70
     0
  0
ENDTAB
  0
TABLE
  2
APPID
  5
9
330
0
100
AcDbSymbolTable
 70
     2
  0
APPID
  5
12
330
9
100
AcDbSymbolTableRecord
100
AcDbRegAppTableRecord
  2
ACAD
 70
     0
  0
APPID
  5
1555
330
9
100
AcDbSymbolTableRecord
100
AcDbRegAppTableRecord
  2
AVE_RENDER
 70
     0
  0
ENDTAB
  0
TABLE
  2
DIMSTYLE
  5
A
330
0
100
AcDbSymbolTable
 70
     1
100
AcDbDimStyleTable
 71
     1
340
1CB
  0
DIMSTYLE
105
1CB
102
{ACAD_REACTORS
330
1BBC
330
1BC0
330
1E78
330
2026
330
2091
102
}
330
A
100
AcDbSymbolTableRecord
100
AcDbDimStyleTableRecord
  2
Standard
 70
     0
340
11
  0
ENDTAB
  0
TABLE
  2
BLOCK_RECORD
  5
1
330
0
100
AcDbSymbolTable
 70
     7
  0
BLOCK_RECORD
  5
1E
330
1
100
AcDbSymbolTableRecord
100
AcDbBlockTableRecord
  2
*Model_Space
340
21
  0
BLOCK_RECORD
  5
1A
330
1
100
AcDbSymbolTableRecord
100
AcDbBlockTableRecord
  2
*Paper_Space
340
1D
  0
BLOCK_RECORD
  5
22
330
1
100
AcDbSymbolTableRecord
100
AcDbBlockTableRecord
  2
LOGO
340
0
102
{BLKREFS
331
135
102
}
  0
BLOCK_RECORD
  5
1BCA
330
1
100
AcDbSymbolTableRecord
100
AcDbBlockTableRecord
  2
*D1
340
0
  0
BLOCK_RECORD
  5
1BD6
330
1
100
AcDbSymbolTableRecord
100
AcDbBlockTableRecord
  2
*D2
340
0
  0
BLOCK_RECORD
  5
1E79
330
1
100
AcDbSymbolTableRecord
100
AcDbBlockTableRecord
  2
*D4
340
0
  0
BLOCK_RECORD
  5
2027
330
1
100
AcDbSymbolTableRecord
100
AcDbBlockTableRecord
  2
*D5
340
0
  0
BLOCK_RECORD
  5
2092
330
1
100
AcDbSymbolTableRecord
100
AcDbBlockTableRecord
  2
*D6
340
0
  0
ENDTAB
  0
ENDSEC
  0
SECTION
  2
BLOCKS
  0
BLOCK
  5
43
330
1E
100
AcDbEntity
  8
0
100
AcDbBlockBegin
  2
*Model_Space
 70
     0
 10
0.0
 20
0.0
 30
0.0
  3
*Model_Space
  1

  0
ENDBLK
  5
44
330
1E
100
AcDbEntity
  8
0
100
AcDbBlockEnd
  0
BLOCK
  5
41
330
1A
100
AcDbEntity
 67
     1
  8
0
100
AcDbBlockBegin
  2
*Paper_Space
 70
     0
 10
0.0
 20
0.0
 30
0.0
  3
*Paper_Space
  1

  0
ENDBLK
  5
42
330
1A
100
AcDbEntity
 67
     1
  8
0
100
AcDbBlockEnd
  0
BLOCK
  5
45
330
22
100
AcDbEntity
  8
0
100
AcDbBlockBegin
  2
LOGO
 70
     0
 10
0.0
 20
0.0
 30
0.0
  3
LOGO
  1

  0
ARC
  5
46
330
22
100
AcDbEntity
  8
0
100
AcDbCircle
 10
11.59973089678112
 20
-9.271599258481501
 30
0.0
 40
4.5
100
AcDbArc
 50
270.0
 51
231.0575587310159
  0
LINE
  5
47
330
22
100
AcDbEntity
  8
0
100
AcDbLine
 10
3.599730896781125
 20
-4.771599258481529
 30
0.0
 11
3.599730896781153
 21
-11.77159925848133
 31
0.0
  0
LINE
  5
48
330
22
100
AcDbEntity
  8
0
100
AcDbLine
 10
2.599730896781125
 20
-4.771599258481529
 30
0.0
 11
2.599730896781153
 21
-11.77159925848133
 31
0.0
  0
CIRCLE
  5
49
330
22
100
AcDbEntity
  8
0
100
AcDbCircle
 10
11.59973089678112
 20
-9.271599258481501
 30
0.0
 40
3.5
  0
ARC
  5
4A
330
22
100
AcDbEntity
  8
0
100
AcDbCircle
 10
31.59973089678115
 20
-9.271599258481472
 30
0.0
 40
4.5
100
AcDbArc
 50
270.0
 51
231.0575587310182
  0
LINE
  5
4B
330
22
100
AcDbEntity
  8
0
100
AcDbLine
 10
17.59973089678112
 20
-4.771599258481472
 30
0.0
 11
17.59973089678115
 21
-13.77159925848147
 31
0.0
  0
ARC
  5
4C
330
22
100
AcDbEntity
  8
0
100
AcDbCircle
 10
22.59973089678116
 20
-7.271599258481472
 30
0.0
 40
2.5
100
AcDbArc
 50
293.1161887722295
 51
90.0
  0
CIRCLE
  5
4D
330
22
100
AcDbEntity
  8
0
100
AcDbCircle
 10
31.59973089678115
 20
-9.271599258481472
 30
0.0
 40
3.5
  0
ARC
  5
4E
330
22
100
AcDbEntity
  8
0
100
AcDbCircle
 10
4.599730896781153
 20
-11.77159925848133
 30
0.0
 40
1.0
100
AcDbArc
 50
180.0
 51
270.0
  0
ARC
  5
4F
330
22
100
AcDbEntity
  8
0
100
AcDbCircle
 10
4.599730896781153
 20
-11.77159925848133
 30
0.0
 40
2.0
100
AcDbArc
 50
179.9999999999992
 51
270.0
  0
LINE
  5
50
330
22
100
AcDbEntity
  8
0
100
AcDbLine
 10
11.59973089678115
 20
-13.77159925848144
 30
0.0
 11
4.599730896781153
 21
-13.77159925848147
 31
0.0
  0
LINE
  5
51
330
22
100
AcDbEntity
  8
0
100
AcDbLine
 10
8.771303772034769
 20
-12.77159925848136
 30
0.0
 11
4.599730896781153
 21
-12.77159925848133
 31
0.0
  0
LINE
  5
52
330
22
100
AcDbEntity
  8
0
100
AcDbLine
 10
31.59973089678115
 20
-13.77159925848147
 30
0.0
 11
23.6715276665056
 21
-13.77159925848144
 31
0.0
  0
LINE
  5
53
330
22
100
AcDbEntity
  8
0
100
AcDbLine
 10
23.56565672307022
 20
-9.51278021337896
 30
0.0
 11
24.4388546544846
 21
-12.77159925848144
 31
0.0
  0
LINE
  5
54
330
22
100
AcDbEntity
  8
0
100
AcDbLine
 10
22.59973089678116
 20
-9.771599258481472
 30
0.0
 11
18.59973089678112
 21
-9.771599258481472
 31
0.0
  0
LINE
  5
55
330
22
100
AcDbEntity
  8
0
100
AcDbLine
 10
18.59973089678115
 20
-13.77159925848144
 30
0.0
 11
17.59973089678115
 21
-13.77159925848144
 31
0.0
  0
LINE
  5
56
330
22
100
AcDbEntity
  8
0
100
AcDbLine
 10
18.59973089678115
 20
-9.771599258481472
 30
0.0
 11
18.59973089678115
 21
-13.77159925848144
 31
0.0
  0
LINE
  5
57
330
22
100
AcDbEntity
  8
0
100
AcDbLine
 10
22.59973089678116
 20
-9.771599258481472
 30
0.0
 11
23.67152766650562
 21
-13.77159925848147
 31
0.0
  0
ARC
  5
58
330
22
100
AcDbEntity
  8
0
100
AcDbCircle
 10
22.59973089678116
 20
-7.271599258481472
 30
0.0
 40
2.5
100
AcDbArc
 50
270.0
 51
270.0000000000007
  0
LINE
  5
59
330
22
100
AcDbEntity
  8
0
100
AcDbLine
 10
28.77130377203494
 20
-12.77159925848147
 30
0.0
 11
24.43885465448463
 21
-12.77159925848144
 31
0.0
  0
LINE
  5
5A
330
22
100
AcDbEntity
  8
0
100
AcDbLine
 10
3.599730896781125
 20
-4.771599258481472
 30
0.0
 11
2.599730896781125
 21
-4.771599258481472
 31
0.0
  0
LINE
  5
5B
330
22
100
AcDbEntity
  8
0
100
AcDbLine
 10
22.59973089678116
 20
-8.771599258481472
 30
0.0
 11
18.59973089678115
 21
-8.771599258481472
 31
0.0
  0
LINE
  5
5C
330
22
100
AcDbEntity
  8
0
100
AcDbLine
 10
22.59973089678116
 20
-5.771599258481472
 30
0.0
 11
18.59973089678115
 21
-5.771599258481472
 31
0.0
  0
LINE
  5
5D
330
22
100
AcDbEntity
  8
0
100
AcDbLine
 10
22.59973089678116
 20
-4.771599258481472
 30
0.0
 11
17.59973089678115
 21
-4.771599258481472
 31
0.0
  0
LINE
  5
5E
330
22
100
AcDbEntity
  8
0
100
AcDbLine
 10
18.59973089678115
 20
-5.771599258481472
 30
0.0
 11
18.59973089678115
 21
-8.771599258481472
 31
0.0
  0
ARC
  5
5F
330
22
100
AcDbEntity
  8
0
100
AcDbCircle
 10
22.59973089678116
 20
-7.271599258481472
 30
0.0
 40
1.5
100
AcDbArc
 50
270.0
 51
90.0
  0
ENDBLK
  5
60
330
22
100
AcDbEntity
  8
0
100
AcDbBlockEnd
  0
BLOCK
  5
1BD4
330
1BCA
100
AcDbEntity
  8
0
100
AcDbBlockBegin
  2
*D1
 70
     1
 10
0.0
 20
0.0
 30
0.0
  3
*D1
  1

  0
LINE
  5
1FE6
330
1BCA
100
AcDbEntity
  8
BEM
 62
     0
370
    -2
100
AcDbLine
 10
69.14720513982278
 20
167.2514543890136
 30
0.0
 11
69.14720513982278
 21
136.1890218770974
 31
0.0
  0
LINE
  5
1FE7
330
1BCA
100
AcDbEntity
  8
BEM
 62
     0
370
    -2
100
AcDbLine
 10
228.1472051398229
 20
167.2514543890126
 30
0.0
 11
228.1472051398229
 21
136.1890218770974
 31
0.0
  0
LINE
  5
1FE8
330
1BCA
100
AcDbEntity
  8
BEM
 62
     0
370
    -2
100
AcDbLine
 10
76.14720513982279
 20
138.1890218770974
 30
0.0
 11
221.1472051398229
 21
138.1890218770974
 31
0.0
  0
SOLID
  5
1FE9
330
1BCA
100
AcDbEntity
  8
BEM
 62
     0
100
AcDbTrace
 10
76.14720513982279
 20
139.3556885437641
 30
0.0
 11
76.14720513982279
 21
137.0223552104308
 31
0.0
 12
69.14720513982278
 22
138.1890218770974
 32
0.0
 13
69.14720513982278
 23
138.1890218770974
 33
0.0
  0
SOLID
  5
1FEA
330
1BCA
100
AcDbEntity
  8
BEM
 62
     0
100
AcDbTrace
 10
221.1472051398229
 20
139.3556885437641
 30
0.0
 11
221.1472051398229
 21
137.0223552104308
 31
0.0
 12
228.1472051398229
 22
138.1890218770974
 32
0.0
 13
228.1472051398229
 23
138.1890218770974
 33
0.0
  0
MTEXT
  5
1FEB
330
1BCA
100
AcDbEntity
  8
BEM
 62
     1
100
AcDbMText
 10
148.6472051398228
 20
144.6890218770974
 30
0.0
 40
7.0
 41
0.0
 71
     5
 72
     1
  1
\A1;%%c159
 73
     1
 44
1.0
  0
POINT
  5
1FEC
330
1BCA
100
AcDbEntity
  8
DEFPOINTS
 62
     0
100
AcDbPoint
 10
69.14720513982278
 20
169.2514543890137
 30
0.0
  0
POINT
  5
1FED
330
1BCA
100
AcDbEntity
  8
DEFPOINTS
 62
     0
100
AcDbPoint
 10
228.1472051398229
 20
169.2514543890126
 30
0.0
  0
POINT
  5
1FEE
330
1BCA
100
AcDbEntity
  8
DEFPOINTS
 62
     0
100
AcDbPoint
 10
228.1472051398229
 20
138.1890218770974
 30
0.0
  0
ENDBLK
  5
1BD5
330
1BCA
100
AcDbEntity
  8
0
100
AcDbBlockEnd
  0
BLOCK
  5
1BE0
330
1BD6
100
AcDbEntity
  8
0
100
AcDbBlockBegin
  2
*D2
 70
     1
 10
0.0
 20
0.0
 30
0.0
  3
*D2
  1

  0
LINE
  5
2014
330
1BD6
100
AcDbEntity
  8
BEM
 62
     0
370
    -2
100
AcDbLine
 10
68.02209177508192
 20
159.2514543890131
 30
0.0
 11
51.42775734109608
 21
159.2514543890131
 31
0.0
  0
LINE
  5
2015
330
1BD6
100
AcDbEntity
  8
BEM
 62
     0
370
    -2
100
AcDbLine
 10
60.99213826137909
 20
559.2514543890131
 30
0.0
 11
51.42775734109616
 21
559.2514543890131
 31
0.0
  0
LINE
  5
2016
330
1BD6
100
AcDbEntity
  8
BEM
 62
     0
370
    -2
100
AcDbLine
 10
53.42775734109608
 20
166.2514543890131
 30
0.0
 11
53.42775734109617
 21
552.2514543890131
 31
0.0
  0
SOLID
  5
2017
330
1BD6
100
AcDbEntity
  8
BEM
 62
     0
100
AcDbTrace
 10
52.26109067442942
 20
166.2514543890131
 30
0.0
 11
54.59442400776275
 21
166.2514543890131
 31
0.0
 12
53.42775734109608
 22
159.2514543890131
 32
0.0
 13
53.42775734109608
 23
159.2514543890131
 33
0.0
  0
SOLID
  5
2018
330
1BD6
100
AcDbEntity
  8
BEM
 62
     0
100
AcDbTrace
 10
52.2610906744295
 20
552.2514543890131
 30
0.0
 11
54.59442400776283
 21
552.2514543890131
 31
0.0
 12
53.42775734109617
 22
559.2514543890131
 32
0.0
 13
53.42775734109617
 23
559.2514543890131
 33
0.0
  0
MTEXT
  5
2019
330
1BD6
100
AcDbEntity
  8
BEM
 62
     1
100
AcDbMText
 10
46.92775734109607
 20
359.2514543890132
 30
0.0
 40
7.0
 41
0.0
 71
     5
 72
     1
  1
\A1;400
 11
0.0000000000000001
 21
1.0
 31
0.0
 73
     1
 44
1.0
  0
POINT
  5
201A
330
1BD6
100
AcDbEntity
  8
DEFPOINTS
 62
     0
100
AcDbPoint
 10
70.02209177508191
 20
159.2514543890131
 30
0.0
  0
POINT
  5
201B
330
1BD6
100
AcDbEntity
  8
DEFPOINTS
 62
     0
100
AcDbPoint
 10
62.9921382613791
 20
559.2514543890131
 30
0.0
  0
POINT
  5
201C
330
1BD6
100
AcDbEntity
  8
DEFPOINTS
 62
     0
100
AcDbPoint
 10
53.42775734109617
 20
559.2514543890131
 30
0.0
  0
ENDBLK
  5
1BE1
330
1BD6
100
AcDbEntity
  8
0
100
AcDbBlockEnd
  0
BLOCK
  5
1E83
330
1E79
100
AcDbEntity
  8
0
100
AcDbBlockBegin
  2
*D4
 70
     1
 10
0.0
 20
0.0
 30
0.0
  3
*D4
  1

  0
LINE
  5
200B
330
1E79
100
AcDbEntity
  8
BEM
 62
     0
370
    -2
100
AcDbLine
 10
72.02209177508192
 20
159.2514543890131
 30
0.0
 11
126.3512387286313
 21
159.2514543890131
 31
0.0
  0
LINE
  5
200C
330
1E79
100
AcDbEntity
  8
BEM
 62
     0
370
    -2
100
AcDbLine
 10
146.5379988122498
 20
319.2501335749464
 30
0.0
 11
122.3512387286314
 21
319.2501335749465
 31
0.0
  0
LINE
  5
200D
330
1E79
100
AcDbEntity
  8
BEM
 62
     0
370
    -2
100
AcDbLine
 10
124.3512387286314
 20
166.2514543890131
 30
0.0
 11
124.3512387286314
 21
312.2501335749465
 31
0.0
  0
SOLID
  5
200E
330
1E79
100
AcDbEntity
  8
BEM
 62
     0
100
AcDbTrace
 10
123.1845720619647
 20
166.2514543890131
 30
0.0
 11
125.517905395298
 21
166.2514543890131
 31
0.0
 12
124.3512387286314
 22
159.2514543890131
 32
0.0
 13
124.3512387286314
 23
159.2514543890131
 33
0.0
  0
SOLID
  5
200F
330
1E79
100
AcDbEntity
  8
BEM
 62
     0
100
AcDbTrace
 10
123.1845720619647
 20
312.2501335749465
 30
0.0
 11
125.5179053952981
 21
312.2501335749465
 31
0.0
 12
124.3512387286314
 22
319.2501335749465
 32
0.0
 13
124.3512387286314
 23
319.2501335749465
 33
0.0
  0
MTEXT
  5
2010
330
1E79
100
AcDbEntity
  8
BEM
 62
     1
100
AcDbMText
 10
117.8512387286313
 20
239.2507939819798
 30
0.0
 40
7.0
 41
0.0
 71
     5
 72
     1
  1
\A1;160
 11
0.0000000000000001
 21
1.0
 31
0.0
 73
     1
 44
1.0
  0
POINT
  5
2011
330
1E79
100
AcDbEntity
  8
DEFPOINTS
 62
     0
100
AcDbPoint
 10
70.02209177508191
 20
159.2514543890131
 30
0.0
  0
POINT
  5
2012
330
1E79
100
AcDbEntity
  8
DEFPOINTS
 62
     0
100
AcDbPoint
 10
148.5379988122498
 20
319.2501335749464
 30
0.0
  0
POINT
  5
2013
330
1E79
100
AcDbEntity
  8
DEFPOINTS
 62
     0
100
AcDbPoint
 10
124.3512387286314
 20
319.2501335749465
 30
0.0
  0
ENDBLK
  5
1E84
330
1E79
100
AcDbEntity
  8
0
100
AcDbBlockEnd
  0
BLOCK
  5
2031
330
2027
100
AcDbEntity
  8
0
100
AcDbBlockBegin
  2
*D5
 70
     1
 10
0.0
 20
0.0
 30
0.0
  3
*D5
  1

  0
LINE
  5
2045
330
2027
100
AcDbEntity
  8
SCHRAFF
 62
     0
370
    -2
100
AcDbLine
 10
148.6083635427661
 20
319.0568080667268
 30
0.0
 11
112.8446174467029
 21
417.3168929007682
 31
0.0
  0
LINE
  5
2046
330
2027
100
AcDbEntity
  8
SCHRAFF
 62
     0
370
    -2
100
AcDbLine
 10
344.0844292638818
 20
483.7037874932757
 30
0.0
 11
338.3708464353213
 21
499.4017272989292
 31
0.0
  0
LINE
  5
2047
330
2027
100
AcDbEntity
  8
SCHRAFF
 62
     0
370
    -2
100
AcDbLine
 10
120.1065060788556
 20
417.8316486624761
 30
0.0
 11
332.4770383764713
 21
495.1282010540777
 31
0.0
  0
SOLID
  5
2048
330
2027
100
AcDbEntity
  8
SCHRAFF
 62
     0
100
AcDbTrace
 10
119.707482578309
 20
418.9279567200596
 30
0.0
 11
120.5055295794023
 21
416.7353406048924
 31
0.0
 12
113.5286577333543
 22
415.4375076591963
 32
0.0
 13
113.5286577333543
 23
415.4375076591963
 33
0.0
  0
SOLID
  5
2049
330
2027
100
AcDbEntity
  8
SCHRAFF
 62
     0
100
AcDbTrace
 10
332.0780148759247
 20
496.2245091116613
 30
0.0
 11
332.8760618770179
 21
494.0318929964941
 31
0.0
 12
339.0548867219727
 22
497.5223420573574
 32
0.0
 13
339.0548867219727
 23
497.5223420573574
 33
0.0
  0
MTEXT
  5
204A
330
2027
100
AcDbEntity
  8
SCHRAFF
 62
     1
100
AcDbMText
 10
242.2503184163486
 20
469.2055161742141
 30
0.0
 40
7.0
 41
0.0
 71
     5
 72
     1
  1
\A1;240
 11
0.9396926207859078
 21
0.3420201433256703
 31
0.0
 73
     1
 44
1.0
  0
POINT
  5
204B
330
2027
100
AcDbEntity
  8
DEFPOINTS
 62
     0
100
AcDbPoint
 10
149.2924038294175
 20
317.177422825155
 30
0.0
  0
POINT
  5
204C
330
2027
100
AcDbEntity
  8
DEFPOINTS
 62
     0
100
AcDbPoint
 10
344.7684695505332
 20
481.8244022517038
 30
0.0
  0
POINT
  5
204D
330
2027
100
AcDbEntity
  8
DEFPOINTS
 62
     0
100
AcDbPoint
 10
339.0548867219726
 20
497.5223420573574
 30
0.0
  0
ENDBLK
  5
2032
330
2027
100
AcDbEntity
  8
0
100
AcDbBlockEnd
  0
BLOCK
  5
209C
330
2092
100
AcDbEntity
  8
0
100
AcDbBlockBegin
  2
*D6
 70
     1
 10
0.0
 20
0.0
 30
0.0
  3
*D6
  1

  0
ARC
  5
20A7
330
2092
100
AcDbEntity
  8
SCHRAFF
 62
     0
370
    -2
100
AcDbCircle
 10
148.6472051398227
 20
319.2898814275765
 30
0.0
 40
99.71974268663085
100
AcDbArc
 50
24.02280268279548
 51
85.97719731720445
  0
SOLID
  5
20A8
330
2092
100
AcDbEntity
  8
SCHRAFF
 62
     0
100
AcDbTrace
 10
240.8112013871548
 20
360.3230634322736
 30
0.0
 11
238.6479463704124
 21
359.448550895495
 31
0.0
 12
242.3531114891193
 22
353.3960421136567
 32
0.0
 13
242.3531114891193
 23
353.3960421136567
 33
0.0
  0
SOLID
  5
20A9
330
2092
100
AcDbEntity
  8
SCHRAFF
 62
     0
100
AcDbTrace
 10
155.6019440843034
 20
417.5979877144093
 30
0.0
 11
155.6838402710227
 21
419.9298833936894
 31
0.0
 12
148.6472051398227
 22
419.0096241142073
 32
0.0
 13
148.6472051398227
 23
419.0096241142073
 33
0.0
  0
MTEXT
  5
20AA
330
2092
100
AcDbEntity
  8
SCHRAFF
 62
     1
100
AcDbMText
 10
220.1358014250662
 20
397.8520500431356
 30
0.0
 40
7.0
 41
0.0
 71
     5
 72
     1
  1
\A1;70°
 11
0.739619270659814
 21
-0.6730255080371359
 31
0.0
 73
     1
 44
1.0
  0
POINT
  5
20AB
330
2092
100
AcDbEntity
  8
DEFPOINTS
 62
     0
100
AcDbPoint
 10
188.1441774926284
 20
410.8541553363973
 30
0.0
  0
POINT
  5
20AC
330
2092
100
AcDbEntity
  8
DEFPOINTS
 62
     0
100
AcDbPoint
 10
148.6472051398228
 20
564.2514543890131
 30
0.0
  0
POINT
  5
20AD
330
2092
100
AcDbEntity
  8
DEFPOINTS
 62
     0
100
AcDbPoint
 10
378.7626909047975
 20
403.0450686897352
 30
0.0
  0
POINT
  5
20AE
330
2092
100
AcDbEntity
  8
DEFPOINTS
 62
     0
100
AcDbPoint
 10
148.5379988122498
 20
319.2501335749464
 30
0.0
  0
POINT
  5
20AF
330
2092
100
AcDbEntity
  8
DEFPOINTS
 62
     0
100
AcDbPoint
 10
148.6472051398225
 20
154.2514543890133
 30
0.0
  0
ENDBLK
  5
209D
330
2092
100
AcDbEntity
  8
0
100
AcDbBlockEnd
  0
ENDSEC
  0
SECTION
  2
ENTITIES
  0
TEXT
  5
134
330
1E
100
AcDbEntity
  8
TEXT
100
AcDbText
 10
204.4216048581257
 20
63.0896391972351
 30
0.0
 40
4.0
  1
Koeh
 41
0.8
  7
GREEKS
 72
     1
 11
209.6787477152686
 21
63.0896391972351
 31
0.0
100
AcDbText
  0
INSERT
  5
135
330
1E
100
AcDbEntity
  8
STEMPEL
100
AcDbBlockReference
  2
LOGO
 10
150.9955485457794
 20
45.02105276448322
 30
0.0
 41
2.0
 42
2.0
 43
2.0
  0
LINE
  5
136
330
1E
100
AcDbEntity
  8
HILF
100
AcDbLine
 10
420.0
 20
0.0
 30
0.0
 11
0.0
 21
0.0
 31
0.0
  0
LINE
  5
137
330
1E
100
AcDbEntity
  8
HILF
100
AcDbLine
 10
419.9999999999999
 20
594.0000000000002
 30
0.0
 11
0.0
 21
594.0
 31
0.0
  0
LINE
  5
138
330
1E
100
AcDbEntity
  8
STEMPEL
100
AcDbLine
 10
410.0
 20
584.0
 30
0.0
 11
39.99999999999989
 21
584.0
 31
0.0
  0
LINE
  5
139
330
1E
100
AcDbEntity
  8
STEMPEL
100
AcDbLine
 10
410.0
 20
10.0
 30
0.0
 11
39.99999999999989
 21
10.0
 31
0.0
  0
LINE
  5
13A
330
1E
100
AcDbEntity
  8
STEMPEL
100
AcDbLine
 10
49.99999999999989
 20
10.0
 30
0.0
 11
410.0
 21
10.0
 31
0.0
  0
TEXT
  5
13B
330
1E
100
AcDbEntity
  8
TEXT
100
AcDbText
 10
202.4626584226295
 20
73.30961091915225
 30
0.0
 40
4.0
  1
Name
 41
0.8
  7
GREEKS
100
AcDbText
  0
TEXT
  5
13C
330
1E
100
AcDbEntity
  8
TEXT
100
AcDbText
 10
196.5498279101549
 20
102.6506227776589
 30
0.0
 40
5.0
  1
Zul. Abw.
 41
0.8
  7
GREEKS
 72
     4
 11
209.9783993387263
 21
105.1506227776589
 31
0.0
100
AcDbText
  0
LINE
  5
13D
330
1E
100
AcDbEntity
  8
HILF
100
AcDbLine
 10
146.0000000000001
 20
49.99999999999997
 30
0.0
 11
230.0
 21
49.99999999999997
 31
0.0
  0
LINE
  5
13E
330
1E
100
AcDbEntity
  8
HILF
100
AcDbLine
 10
146.0000000000001
 20
59.99999999999997
 30
0.0
 11
230.0
 21
59.99999999999997
 31
0.0
  0
LINE
  5
13F
330
1E
100
AcDbEntity
  8
HILF
100
AcDbLine
 10
146.0000000000001
 20
69.99999999999994
 30
0.0
 11
230.0
 21
69.99999999999994
 31
0.0
  0
LINE
  5
140
330
1E
100
AcDbEntity
  8
STEMPEL
100
AcDbLine
 10
410.0
 20
80.0
 30
0.0
 11
146.0000000000001
 21
79.99999999999994
 31
0.0
  0
LINE
  5
141
330
1E
100
AcDbEntity
  8
STEMPEL
100
AcDbLine
 10
410.0
 20
40.0
 30
0.0
 11
146.0000000000001
 21
39.99999999999997
 31
0.0
  0
LINE
  5
142
330
1E
100
AcDbEntity
  8
STEMPEL
100
AcDbLine
 10
410.0
 20
110.0
 30
0.0
 11
39.99999999999997
 21
110.0
 31
0.0
  0
LINE
  5
144
330
1E
100
AcDbEntity
  8
HILF
100
AcDbLine
 10
0.0
 20
0.0
 30
0.0
 11
-0.0000000000001137
 21
594.0
 31
0.0
  0
LINE
  5
145
330
1E
100
AcDbEntity
  8
STEMPEL
100
AcDbLine
 10
40.0
 20
10.0
 30
0.0
 11
39.99999999999989
 21
584.0
 31
0.0
  0
LINE
  5
148
330
1E
100
AcDbEntity
  8
HILF
100
AcDbLine
 10
40.00000000000008
 20
39.99999999999997
 30
0.0
 11
146.0000000000001
 21
39.99999999999997
 31
0.0
  0
LINE
  5
149
330
1E
100
AcDbEntity
  8
HILF
100
AcDbLine
 10
40.00000000000008
 20
49.99999999999997
 30
0.0
 11
146.0000000000001
 21
49.99999999999997
 31
0.0
  0
LINE
  5
14A
330
1E
100
AcDbEntity
  8
HILF
100
AcDbLine
 10
40.00000000000008
 20
59.99999999999997
 30
0.0
 11
146.0000000000001
 21
59.99999999999997
 31
0.0
  0
LINE
  5
14B
330
1E
100
AcDbEntity
  8
HILF
100
AcDbLine
 10
40.00000000000008
 20
69.99999999999994
 30
0.0
 11
146.0000000000001
 21
69.99999999999994
 31
0.0
  0
LINE
  5
14C
330
1E
100
AcDbEntity
  8
HILF
100
AcDbLine
 10
40.00000000000008
 20
79.99999999999994
 30
0.0
 11
146.0000000000001
 21
79.99999999999994
 31
0.0
  0
LINE
  5
14D
330
1E
100
AcDbEntity
  8
HILF
100
AcDbLine
 10
40.00000000000008
 20
90.00000000000005
 30
0.0
 11
146.0000000000001
 21
90.00000000000005
 31
0.0
  0
LINE
  5
14E
330
1E
100
AcDbEntity
  8
HILF
100
AcDbLine
 10
40.00000000000008
 20
100.0
 30
0.0
 11
146.0000000000001
 21
100.0
 31
0.0
  0
LINE
  5
14F
330
1E
100
AcDbEntity
  8
STEMPEL
100
AcDbLine
 10
145.9999999999999
 20
29.99999999999997
 30
0.0
 11
39.99999999999997
 21
29.99999999999997
 31
0.0
  0
TEXT
  5
150
330
1E
100
AcDbEntity
  8
TEXT
100
AcDbText
 10
48.26641107045756
 20
13.65465846027192
 30
0.0
 40
4.0
  1
Index
 50
90.0
 41
0.8
  7
GREEKS
100
AcDbText
  0
LINE
  5
151
330
1E
100
AcDbEntity
  8
VOLL
100
AcDbLine
 10
54.00000000000009
 20
110.0
 30
0.0
 11
53.99999999999997
 21
9.999999999999971
 31
0.0
  0
LINE
  5
152
330
1E
100
AcDbEntity
  8
HILF
100
AcDbLine
 10
31.08767135713839
 20
297.0
 30
0.0
 11
-0.0000000000000568
 21
297.0
 31
0.0
  0
LINE
  5
154
330
1E
100
AcDbEntity
  8
VOLL
100
AcDbLine
 10
124.0000000000001
 20
109.9999999999999
 30
0.0
 11
124.0
 21
9.999999999999971
 31
0.0
  0
LINE
  5
155
330
1E
100
AcDbEntity
  8
VOLL
100
AcDbLine
 10
104.0000000000001
 20
109.9999999999999
 30
0.0
 11
104.0
 21
9.999999999999971
 31
0.0
  0
LINE
  5
157
330
1E
100
AcDbEntity
  8
STEMPEL
100
AcDbLine
 10
146.0000000000001
 20
109.9999999999999
 30
0.0
 11
146.0
 21
9.999999999999971
 31
0.0
  0
TEXT
  5
158
330
1E
100
AcDbEntity
  8
TEXT
100
AcDbText
 10
170.7037590129979
 20
63.10765040825732
 30
0.0
 40
4.0
  1
14.04.
 41
0.8
  7
GREEKS
 72
     1
 11
177.4085209177598
 21
63.10765040825732
 31
0.0
100
AcDbText
  0
TEXT
  5
159
330
1E
100
AcDbEntity
  8
TEXT
100
AcDbText
 10
172.331167315365
 20
73.31880501229926
 30
0.0
 40
4.0
  1
Tag
 41
0.8
  7
GREEKS
100
AcDbText
  0
TEXT
  5
15A
330
1E
100
AcDbEntity
  8
TEXT
100
AcDbText
 10
147.5836127167615
 20
63.62990369617964
 30
0.0
 40
4.0
  1
Gez.
 41
0.8
  7
GREEKS
100
AcDbText
  0
LINE
  5
15B
330
1E
100
AcDbEntity
  8
VOLL
100
AcDbLine
 10
164.0000000000001
 20
79.99999999999994
 30
0.0
 11
164.0000000000001
 21
39.99999999999997
 31
0.0
  0
TEXT
  5
15C
330
1E
100
AcDbEntity
  8
TEXT
100
AcDbText
 10
147.6006777387303
 20
43.52946389649807
 30
0.0
 40
4.0
  1
Norm.
 41
0.8
  7
GREEKS
100
AcDbText
  0
TEXT
  5
15D
330
1E
100
AcDbEntity
  8
TEXT
100
AcDbText
 10
147.5515086571672
 20
53.68926291428377
 30
0.0
 40
4.0
  1
Gepr.
 41
0.8
  7
GREEKS
100
AcDbText
  0
TEXT
  5
15E
330
1E
100
AcDbEntity
  8
TEXT
 62
     1
100
AcDbText
 10
160.5006306481887
 20
88.14901428913959
 30
0.0
 40
7.0
  1
1:2
 41
0.8
  7
GREEKS
100
AcDbText
  0
TEXT
  5
160
330
1E
100
AcDbEntity
  8
TEXT
100
AcDbText
 10
148.622109822104
 20
73.14025471151666
 30
0.0
 40
4.0
  1
2011
 41
0.8
  7
GREEKS
100
AcDbText
  0
LINE
  5
161
330
1E
100
AcDbEntity
  8
VOLL
100
AcDbLine
 10
190.0000000000001
 20
109.9999999999998
 30
0.0
 11
190.0
 21
39.99999999999997
 31
0.0
  0
LINE
  5
186
330
1E
100
AcDbEntity
  8
HILF
100
AcDbLine
 10
420.0
 20
-0.0000000000001137
 30
0.0
 11
419.9999999999999
 21
594.0
 31
0.0
  0
LINE
  5
187
330
1E
100
AcDbEntity
  8
STEMPEL
100
AcDbLine
 10
410.0
 20
10.0
 30
0.0
 11
410.0
 21
584.0
 31
0.0
  0
TEXT
  5
188
330
1E
100
AcDbEntity
  8
TEXT
100
AcDbText
 10
337.2400861497006
 20
52.07416177878602
 30
0.0
 40
5.0
  1
ersetzt durch:
 41
0.8
  7
GREEKS
100
AcDbText
  0
TEXT
  5
18A
330
1E
100
AcDbEntity
  8
TEXT
100
AcDbText
 10
336.178754957634
 20
102.3132034537136
 30
0.0
 40
5.0
  1
Zeichnungs Nr.
 41
0.8
  7
GREEKS
100
AcDbText
  0
LINE
  5
18B
330
1E
100
AcDbEntity
  8
HILF
100
AcDbLine
 10
233.4909699289885
 20
14.89398258028314
 30
0.0
 11
404.8588839326728
 21
14.89398258028314
 31
0.0
  0
LINE
  5
18C
330
1E
100
AcDbEntity
  8
HILF
100
AcDbLine
 10
336.7238616296993
 20
83.77983636955827
 30
0.0
 11
404.8588839326728
 21
83.77983636955827
 31
0.0
  0
LINE
  5
18D
330
1E
100
AcDbEntity
  8
VOLL
100
AcDbLine
 10
332.0
 20
60.0
 30
0.0
 11
410.0
 21
60.0
 31
0.0
  0
TEXT
  5
18E
330
1E
100
AcDbEntity
  8
TEXT
 62
     1
100
AcDbText
 10
234.9283864320014
 20
87.41748789253779
 30
0.0
 40
7.0
  1
Abzweig DN150/150
 41
0.8
  7
GREEKS
100
AcDbText
  0
LINE
  5
18F
330
1E
100
AcDbEntity
  8
HILF
100
AcDbLine
 10
234.7736801096947
 20
49.99999999999997
 30
0.0
 11
324.835391655631
 21
49.99999999999997
 31
0.0
  0
LINE
  5
190
330
1E
100
AcDbEntity
  8
HILF
100
AcDbLine
 10
234.7736801096947
 20
59.99999999999997
 30
0.0
 11
324.835391655631
 21
59.99999999999997
 31
0.0
  0
LINE
  5
191
330
1E
100
AcDbEntity
  8
HILF
100
AcDbLine
 10
234.7736801096947
 20
69.99999999999994
 30
0.0
 11
324.835391655631
 21
69.99999999999994
 31
0.0
  0
LINE
  5
192
330
1E
100
AcDbEntity
  8
HILF
100
AcDbLine
 10
234.7736801096947
 20
84.03758247564139
 30
0.0
 11
324.8353916556311
 21
84.03758247564139
 31
0.0
  0
LINE
  5
193
330
1E
100
AcDbEntity
  8
STEMPEL
100
AcDbLine
 10
230.0
 20
110.0
 30
0.0
 11
230.0
 21
9.999999999999971
 31
0.0
  0
TEXT
  5
194
330
1E
100
AcDbEntity
  8
TEXT
100
AcDbText
 10
235.1296391125315
 20
71.50334417585288
 30
0.0
 40
5.0
  1
dünnwandig 70° 
 41
0.8
  7
GREEKS
100
AcDbText
  0
TEXT
  5
195
330
1E
100
AcDbEntity
  8
TEXT
100
AcDbText
 10
234.9837501577827
 20
42.62974153022632
 30
0.0
 40
4.0
  1
4210FF0W.DWG
 41
0.8
  7
GREEKS
100
AcDbText
  0
TEXT
  5
196
330
1E
100
AcDbEntity
  8
TEXT
100
AcDbText
 10
234.742238391136
 20
30.84560570193057
 30
0.0
 40
5.0
  1
Bauvorhaben
 41
0.8
  7
GREEKS
100
AcDbText
  0
TEXT
  5
197
330
1E
100
AcDbEntity
  8
TEXT
100
AcDbText
 10
234.877940380901
 20
102.5489328011779
 30
0.0
 40
5.0
  1
Benennung
 41
0.8
  7
GREEKS
100
AcDbText
  0
LINE
  5
198
330
1E
100
AcDbEntity
  8
STEMPEL
100
AcDbLine
 10
332.0
 20
109.9999999999997
 30
0.0
 11
332.0
 21
40.0
 31
0.0
  0
TEXT
  5
19A
330
1E
100
AcDbEntity
  8
TEXT
 62
     1
100
AcDbText
 10
350.0745615528061
 20
88.14901428913959
 30
0.0
 40
7.0
  1
4210FF0W
 41
0.8
  7
GREEKS
 72
     1
 11
370.3412282194728
 21
88.14901428913959
 31
0.0
100
AcDbText
  0
TEXT
  5
212
330
1E
100
AcDbEntity
  8
TEXT
100
AcDbText
 10
235.1296391125315
 20
51.50334417585291
 30
0.0
 40
5.0
  1
EDV-Art.Nr. 4.210.FF0C
 41
0.8
  7
GREEKS
100
AcDbText
  0
TEXT
  5
255
330
1E
100
AcDbEntity
  8
TEXT
 62
     1
100
AcDbText
 10
297.0573649355706
 20
132.2248663682012
 30
0.0
 40
7.0
  1
Werkstoff: 1.4301
 41
0.8
  7
GREEKS
100
AcDbText
  0
LINE
  5
1BA5
102
{ACAD_REACTORS
330
2073
102
}
330
1E
100
AcDbEntity
  8
STEMPEL
100
AcDbLine
 10
228.1472051398226
 20
473.5725460432128
 30
0.0
 11
228.1472051398227
 21
432.8276479635744
 31
0.0
  0
LINE
  5
1BA6
330
1E
100
AcDbEntity
  8
STEMPEL
100
AcDbLine
 10
234.3022720182664
 20
559.2514543890131
 30
0.0
 11
62.99213826137907
 21
559.2514543890131
 31
0.0
  0
LINE
  5
1BA7
330
1E
100
AcDbEntity
  8
STEMPEL
100
AcDbLine
 10
234.3022720182664
 20
559.2514543890131
 30
0.0
 11
234.9616698990687
 21
557.837371070263
 31
0.0
  0
ARC
  5
1BA8
330
1E
100
AcDbEntity
  8
STEMPEL
100
AcDbCircle
 10
204.1472051398227
 20
543.4683501710792
 30
0.0
 40
34.0
100
AcDbArc
 50
0.0
 51
24.99999999999342
  0
LINE
  5
1BA9
330
1E
100
AcDbEntity
  8
STEMPEL
100
AcDbLine
 10
238.1472051398226
 20
543.4683501710791
 30
0.0
 11
238.1472051398226
 21
527.1888488598592
 31
0.0
  0
ARC
  5
1BAA
330
1E
100
AcDbEntity
  8
STEMPEL
100
AcDbCircle
 10
204.1491774600645
 20
527.2487559082951
 30
0.0
 40
34.0
100
AcDbArc
 50
332.2594896725489
 51
0.0
  0
ARC
  5
1BAB
330
1E
100
AcDbEntity
  8
STEMPEL
100
AcDbCircle
 10
251.1472051398226
 20
502.7514543890129
 30
0.0
 40
19.0
100
AcDbArc
 50
152.8456571516189
 51
179.9999999999999
  0
LINE
  5
1BAC
330
1E
100
AcDbEntity
  8
STEMPEL
100
AcDbLine
 10
232.1472051398226
 20
502.7514543890129
 30
0.0
 11
232.1472051398226
 21
487.7146816669436
 31
0.0
  0
ARC
  5
1BAD
330
1E
100
AcDbEntity
  8
STEMPEL
100
AcDbCircle
 10
238.1472051398226
 20
473.5725460432128
 30
0.0
 40
10.0
100
AcDbArc
 50
148.4136619034717
 51
179.9999999999999
  0
ARC
  5
1BAE
330
1E
100
AcDbEntity
  8
STEMPEL
100
AcDbCircle
 10
215.1472051398226
 20
487.7146816669437
 30
0.0
 40
17.0
100
AcDbArc
 50
328.413661903472
 51
0.0
  0
LINE
  5
1BAF
330
1E
100
AcDbEntity
  8
STEMPEL
100
AcDbLine
 10
59.14720513982286
 20
543.4683501710793
 30
0.0
 11
59.14720513982286
 21
527.1888488598594
 31
0.0
  0
LINE
  5
1BB0
330
1E
100
AcDbEntity
  8
STEMPEL
100
AcDbLine
 10
65.14720513982286
 20
502.751454389013
 30
0.0
 11
65.14720513982286
 21
487.7146816669438
 31
0.0
  0
ARC
  5
1BB1
330
1E
100
AcDbEntity
  8
STEMPEL
100
AcDbCircle
 10
59.14720513982286
 20
473.5725460432128
 30
0.0
 40
10.0
100
AcDbArc
 50
0.0
 51
31.58633809652796
  0
LINE
  5
1BB2
330
1E
100
AcDbEntity
  8
STEMPEL
100
AcDbLine
 10
69.14720513982286
 20
473.5725460432129
 30
0.0
 11
69.1472051398228
 21
169.2514543890136
 31
0.0
  0
ARC
  5
1BB3
330
1E
100
AcDbEntity
  8
STEMPEL
100
AcDbCircle
 10
82.14720513982285
 20
487.7146816669437
 30
0.0
 40
17.0
100
AcDbArc
 50
179.9999999999999
 51
211.5863380965279
  0
ARC
  5
1BB4
330
1E
100
AcDbEntity
  8
STEMPEL
100
AcDbCircle
 10
93.145232819581
 20
527.2487559082953
 30
0.0
 40
34.0
100
AcDbArc
 50
179.9999999999999
 51
207.3202406357869
  0
ARC
  5
1BB5
330
1E
100
AcDbEntity
  8
STEMPEL
100
AcDbCircle
 10
46.14720513982286
 20
502.751454389013
 30
0.0
 40
19.0
100
AcDbArc
 50
0.0
 51
27.90640811485533
  0
LINE
  5
1BB6
330
1E
100
AcDbEntity
  8
STEMPEL
100
AcDbLine
 10
62.99213826137907
 20
559.2514543890132
 30
0.0
 11
62.33274038057675
 21
557.837371070263
 31
0.0
  0
ARC
  5
1BB7
330
1E
100
AcDbEntity
  8
STEMPEL
100
AcDbCircle
 10
93.14720513982285
 20
543.4683501710792
 30
0.0
 40
34.0
100
AcDbArc
 50
155.0000000000065
 51
179.9999999999999
  0
LINE
  5
1BB8
330
1E
100
AcDbEntity
  8
HILF
100
AcDbLine
 10
227.0813249803548
 20
476.7024496034358
 30
0.0
 11
70.21308529929069
 21
476.7024496034359
 31
0.0
  0
LINE
  5
1BB9
330
1E
100
AcDbEntity
  8
HILF
100
AcDbLine
 10
230.0620870938879
 20
483.4961159988171
 30
0.0
 11
67.23232318575753
 21
483.4961159988172
 31
0.0
  0
LINE
  5
1BBA
330
1E
100
AcDbEntity
  8
HILF
100
AcDbLine
 10
231.2511461098703
 20
507.6907696327133
 30
0.0
 11
66.04326416977528
 21
507.6907696327134
 31
0.0
  0
LINE
  5
1BBB
330
1E
100
AcDbEntity
  8
STEMPEL
100
AcDbLine
 10
227.2723185045634
 20
159.2514543890131
 30
0.0
 11
70.02209177508189
 21
159.2514543890131
 31
0.0
  0
DIMENSION
  5
1BBC
330
1E
100
AcDbEntity
  8
BEM
100
AcDbDimension
  2
*D1
 10
228.1472051398229
 20
138.1890218770974
 30
0.0
 11
148.6472051398228
 21
144.6890218770974
 31
0.0
 70
    32
  1
%%c<>
 71
     5
 42
159.0000000000001
  3
Standard
100
AcDbAlignedDimension
 13
69.14720513982278
 23
169.2514543890137
 33
0.0
 14
228.1472051398229
 24
169.2514543890126
 34
0.0
100
AcDbRotatedDimension
1001
ACAD
1000
DSTYLE
1002
{
1070
    40
1040
2.0
1070
    41
1040
3.5
1070
    42
1040
1.0
1070
    43
1040
7.0
1070
    44
1040
1.0
1070
    73
1070
     0
1070
    74
1070
     0
1070
    77
1070
     1
1070
    78
1070
     8
1070
    79
1070
     2
1070
   140
1040
3.5
1070
   141
1040
1.5
1070
   146
1040
0.5142857142857144
1070
   147
1040
1.5
1070
   172
1070
     1
1070
   178
1070
     1
1070
   179
1070
     2
1070
   271
1070
     2
1070
   272
1070
     2
1070
   284
1070
     8
1070
   285
1070
     8
1070
   286
1070
     8
1002
}
  0
LINE
  5
1BBD
330
1E
100
AcDbEntity
  8
HILF
100
AcDbLine
 10
226.6472051398224
 20
169.2514543890126
 30
0.0
 11
70.64720513982274
 21
169.251454389014
 31
0.0
  0
LINE
  5
1BBE
330
1E
100
AcDbEntity
  8
STEMPEL
100
AcDbLine
 10
69.1472051398228
 20
169.2514543890137
 30
0.0
 11
70.02209177508189
 21
159.2514543890137
 31
0.0
  0
LINE
  5
1BBF
330
1E
100
AcDbEntity
  8
STEMPEL
100
AcDbLine
 10
228.1472051398225
 20
169.2514543890131
 30
0.0
 11
227.2723185045633
 21
159.2514543890126
 31
0.0
  0
DIMENSION
  5
1BC0
330
1E
100
AcDbEntity
  8
BEM
100
AcDbDimension
  2
*D2
 10
53.42775734109617
 20
559.2514543890131
 30
0.0
 11
46.92775734109607
 21
359.2514543890132
 31
0.0
 70
    32
 71
     5
 42
400.0
  3
Standard
100
AcDbAlignedDimension
 13
70.02209177508191
 23
159.2514543890131
 33
0.0
 14
62.9921382613791
 24
559.2514543890131
 34
0.0
 50
90.0
100
AcDbRotatedDimension
1001
ACAD
1000
DSTYLE
1002
{
1070
    40
1040
2.0
1070
    41
1040
3.5
1070
    42
1040
1.0
1070
    43
1040
7.0
1070
    44
1040
1.0
1070
    73
1070
     0
1070
    74
1070
     0
1070
    77
1070
     1
1070
    78
1070
     8
1070
    79
1070
     2
1070
   140
1040
3.5
1070
   141
1040
1.5
1070
   146
1040
0.5142857142857144
1070
   147
1040
1.5
1070
   172
1070
     1
1070
   178
1070
     1
1070
   179
1070
     2
1070
   271
1070
     2
1070
   272
1070
     2
1070
   284
1070
     8
1070
   285
1070
     8
1070
   286
1070
     8
1002
}
  0
LINE
  5
1BC1
330
1E
100
AcDbEntity
  8
MITTEL
100
AcDbLine
 10
148.6472051398227
 20
564.2514543890131
 30
0.0
 11
148.6472051398225
 21
154.2514543890133
 31
0.0
  0
TEXT
  5
1BC2
330
1E
100
AcDbEntity
  8
TEXT
 62
     1
100
AcDbText
 10
111.3596559506992
 20
530.1799466842862
 30
0.0
 40
7.0
  1
DN150
 41
0.8
  7
GREEKS
100
AcDbText
  0
LINE
  5
1C57
102
{ACAD_REACTORS
330
208F
102
}
330
1E
100
AcDbEntity
  8
STEMPEL
100
AcDbLine
 10
320.7429912657178
 20
297.3254921082098
 30
0.0
 11
228.1472051398226
 21
263.6233821399047
 31
0.0
  0
LINE
  5
1C58
102
{ACAD_REACTORS
330
2073
102
}
330
1E
100
AcDbEntity
  8
STEMPEL
100
AcDbLine
 10
266.3617884769367
 20
446.7366188131689
 30
0.0
 11
228.1472051398227
 21
432.8276479635744
 31
0.0
  0
LINE
  5
1C59
330
1E
100
AcDbEntity
  8
MITTEL
100
AcDbLine
 10
378.7626909047975
 20
403.0450686897352
 30
0.0
 11
148.5379988122498
 21
319.2501335749464
 31
0.0
  0
LINE
  5
1C5B
330
1E
100
AcDbEntity
  8
STEMPEL
100
AcDbLine
 10
403.3599860512032
 20
320.84553369451
 30
0.0
 11
344.7684695505329
 21
481.8244022517038
 31
0.0
  0
LINE
  5
1C5C
330
1E
100
AcDbEntity
  8
HILF
100
AcDbLine
 10
323.3195860601217
 20
299.3975818929669
 30
0.0
 11
269.6674882411589
 21
446.8055091569381
 31
0.0
  0
LINE
  5
1C5D
330
1E
100
AcDbEntity
  8
HILF
100
AcDbLine
 10
330.7230249252331
 20
298.9201524848166
 30
0.0
 11
275.0319657356897
 21
451.9300800735985
 31
0.0
  0
LINE
  5
1C5E
330
1E
100
AcDbEntity
  8
HILF
100
AcDbLine
 10
353.8652445425454
 20
306.0778614053992
 30
0.0
 11
297.360821082864
 21
461.322488960176
 31
0.0
  0
TEXT
  5
1C5F
330
1E
100
AcDbEntity
  8
TEXT
 62
     1
100
AcDbText
 10
332.6783710374735
 20
406.424435863323
 30
0.0
 40
7.0
  1
DN150
 50
19.99999999999999
 41
0.8
  7
GREEKS
100
AcDbText
  0
ARC
  5
1C60
330
1E
100
AcDbEntity
  8
STEMPEL
100
AcDbCircle
 10
262.9415870436797
 20
456.133545021028
 30
0.0
 40
10.0
100
AcDbArc
 50
290.0
 51
321.586338096528
  0
ARC
  5
1C61
330
1E
100
AcDbEntity
  8
STEMPEL
100
AcDbCircle
 10
325.0087356654743
 20
442.5441942803185
 30
0.0
 40
34.0
100
AcDbArc
 50
109.9999999999999
 51
137.320240635787
  0
LINE
  5
1C62
330
1E
100
AcDbEntity
  8
STEMPEL
100
AcDbLine
 10
292.4129127587707
 20
460.4751637108299
 30
0.0
 11
278.2829683914074
 21
455.3322845492722
 31
0.0
  0
ARC
  5
1C63
330
1E
100
AcDbEntity
  8
STEMPEL
100
AcDbCircle
 10
284.0973108279436
 20
439.3575099959116
 30
0.0
 40
17.0
100
AcDbArc
 50
109.9999999999999
 51
141.586338096528
  0
ARC
  5
1C64
330
1E
100
AcDbEntity
  8
STEMPEL
100
AcDbCircle
 10
285.9145300355828
 20
478.329323505762
 30
0.0
 40
19.0
100
AcDbArc
 50
290.0
 51
317.9064081148553
  0
LINE
  5
1C65
330
1E
100
AcDbEntity
  8
STEMPEL
100
AcDbLine
 10
328.6221584065333
 20
480.0393179667039
 30
0.0
 11
313.3244311543055
 21
474.4714005949701
 31
0.0
  0
ARC
  5
1C66
330
1E
100
AcDbEntity
  8
STEMPEL
100
AcDbCircle
 10
340.2508432796059
 20
448.0897688599829
 30
0.0
 40
34.0
100
AcDbArc
 50
85.00000000000651
 51
109.9999999999999
  0
LINE
  5
1C67
330
1E
100
AcDbEntity
  8
STEMPEL
100
AcDbLine
 10
344.7684695505331
 20
481.8244022517039
 30
0.0
 11
343.2141385330264
 21
481.9603885951023
 31
0.0
  0
ARC
  5
1C68
330
1E
100
AcDbEntity
  8
STEMPEL
100
AcDbCircle
 10
329.5859898902575
 20
314.3783914313862
 30
0.0
 40
17.0
100
AcDbArc
 50
258.413661903472
 51
290.0
  0
ARC
  5
1C69
330
1E
100
AcDbEntity
  8
STEMPEL
100
AcDbCircle
 10
356.0286594173447
 20
285.6923362446511
 30
0.0
 40
19.0
100
AcDbArc
 50
82.845657151619
 51
109.9999999999999
  0
LINE
  5
1C6A
330
1E
100
AcDbEntity
  8
STEMPEL
100
AcDbLine
 10
349.5302766941572
 20
303.5464960395833
 30
0.0
 11
335.400332326794
 21
298.4036168780257
 31
0.0
  0
ARC
  5
1C6B
330
1E
100
AcDbEntity
  8
STEMPEL
100
AcDbCircle
 10
324.1631926989742
 20
287.9285659003508
 30
0.0
 40
10.0
100
AcDbArc
 50
78.4136619034718
 51
109.9999999999999
  0
ARC
  5
1C6C
330
1E
100
AcDbEntity
  8
STEMPEL
100
AcDbCircle
 10
362.974320721127
 20
338.2346066235285
 30
0.0
 40
34.0
100
AcDbArc
 50
262.2594896725488
 51
290.0
  0
LINE
  5
1C6D
330
1E
100
AcDbEntity
  8
STEMPEL
100
AcDbLine
 10
389.8437640618278
 20
311.8343388460265
 30
0.0
 11
374.5460368096
 21
306.2664214742927
 31
0.0
  0
ARC
  5
1C6E
330
1E
100
AcDbEntity
  8
STEMPEL
100
AcDbCircle
 10
378.2150791887549
 20
343.7838879527473
 30
0.0
 40
34.0
100
AcDbArc
 50
290.0
 51
314.9999999999935
  0
LINE
  5
1C6F
330
1E
100
AcDbEntity
  8
STEMPEL
100
AcDbLine
 10
403.3599860512032
 20
320.84553369451
 30
0.0
 11
402.2567097490978
 21
319.7422573924048
 31
0.0
  0
LINE
  5
1CD0
102
{ACAD_REACTORS
330
208F
102
}
330
1E
100
AcDbEntity
  8
STEMPEL
100
AcDbLine
 10
228.1472051398226
 20
263.6233821399047
 30
0.0
 11
228.1472051398224
 21
169.2514543890122
 31
0.0
  0
DIMENSION
  5
1E78
330
1E
100
AcDbEntity
  8
BEM
100
AcDbDimension
  2
*D4
 10
124.3512387286314
 20
319.2501335749465
 30
0.0
 11
117.8512387286313
 21
239.2507939819798
 31
0.0
 70
    32
 71
     5
 42
159.9986791859333
  3
Standard
100
AcDbAlignedDimension
 13
70.02209177508191
 23
159.2514543890131
 33
0.0
 14
148.5379988122498
 24
319.2501335749464
 34
0.0
 50
90.0
100
AcDbRotatedDimension
1001
ACAD
1000
DSTYLE
1002
{
1070
    40
1040
2.0
1070
    41
1040
3.5
1070
    42
1040
1.0
1070
    43
1040
7.0
1070
    44
1040
1.0
1070
    73
1070
     0
1070
    74
1070
     0
1070
    77
1070
     1
1070
    78
1070
     8
1070
    79
1070
     2
1070
   140
1040
3.5
1070
   141
1040
1.5
1070
   146
1040
0.5142857142857144
1070
   147
1040
1.5
1070
   172
1070
     1
1070
   178
1070
     1
1070
   179
1070
     2
1070
   271
1070
     2
1070
   272
1070
     2
1070
   284
1070
     8
1070
   285
1070
     8
1070
   286
1070
     8
1002
}
  0
TEXT
  5
1EDD
330
1E
100
AcDbEntity
  8
BEM
100
AcDbText
 10
416.5811541437436
 20
12.14804815338303
 30
0.0
 40
4.0
  1
Diese Zeichnung ist urheberrechtlich geschützt und bleibt unser Eigentum. Sie darf weder ganz noch teilweise vervielfältigt und nicht an Dritte weitergegeben werden.
 50
90.0
 41
0.8
  7
GREEKS
100
AcDbText
  0
TEXT
  5
1EDE
330
1E
100
AcDbEntity
  8
TEXT
100
AcDbText
 10
336.7238616296993
 20
73.1811823709997
 30
0.0
 40
5.0
  1
Ersatz für:
 41
0.8
  7
GREEKS
100
AcDbText
  0
TEXT
  5
1EDF
330
1E
100
AcDbEntity
  8
TEXT
100
AcDbText
 10
192.6882715247924
 20
89.7791437153694
 30
0.0
 40
4.0
  1
DIN EN1124-3
 41
0.8
  7
GREEKS
 72
     1
 11
209.6787477152686
 21
89.7791437153694
 31
0.0
100
AcDbText
  0
TEXT
  5
1EE0
330
1E
100
AcDbEntity
  8
TEXT
100
AcDbText
 10
153.5163572150377
 20
102.4620895087088
 30
0.0
 40
5.0
  1
Maßstab
 41
0.8
  7
GREEKS
100
AcDbText
  0
TEXT
  5
1EE1
330
1E
100
AcDbEntity
  8
TEXT
100
AcDbText
 10
41.85509950977674
 20
111.6719999999999
 30
0.0
 40
5.0
  1
Erstellt mit AUTOCAD 2004
 41
0.8
  7
GREEKS
100
AcDbText
  0
TEXT
  5
1EE2
330
1E
100
AcDbEntity
  8
TEXT
100
AcDbText
 10
128.9002860979178
 20
18.59324216966408
 30
0.0
 40
4.0
  1
Name
 41
0.8
  7
GREEKS
 72
     1
 11
135.2240956217273
 21
18.59324216966408
 31
0.0
100
AcDbText
  0
TEXT
  5
1EE3
330
1E
100
AcDbEntity
  8
TEXT
100
AcDbText
 10
110.462610504336
 20
18.6715626933981
 30
0.0
 40
4.0
  1
Tag
 41
0.8
  7
GREEKS
 72
     1
 11
114.1959438376693
 21
18.6715626933981
 31
0.0
100
AcDbText
  0
TEXT
  5
1EE4
330
1E
100
AcDbEntity
  8
TEXT
100
AcDbText
 10
67.65811831396264
 20
18.34829198486668
 30
0.0
 40
4.0
  1
Änderung
 41
0.8
  7
GREEKS
 72
     1
 11
78.40097545681979
 21
18.34829198486668
 31
0.0
100
AcDbText
  0
DIMENSION
  5
2026
330
1E
100
AcDbEntity
  8
SCHRAFF
100
AcDbDimension
  2
*D5
 10
339.0548867219726
 20
497.5223420573574
 30
0.0
 11
244.4734493479655
 21
463.0975141391058
 31
0.0
 70
   160
 71
     5
 42
240.0000000000005
 51
357.0
  3
Standard
100
AcDbAlignedDimension
 13
149.2924038294175
 23
317.1774228251549
 33
0.0
 14
344.7684695505332
 24
481.8244022517038
 34
0.0
 50
20.00000000000009
100
AcDbRotatedDimension
1001
ACAD
1000
DSTYLE
1002
{
1070
    40
1040
2.0
1070
    41
1040
3.5
1070
    42
1040
1.0
1070
    43
1040
7.0
1070
    44
1040
1.0
1070
    73
1070
     0
1070
    74
1070
     0
1070
    77
1070
     1
1070
    78
1070
     8
1070
    79
1070
     2
1070
   140
1040
3.5
1070
   141
1040
1.5
1070
   146
1040
0.5142857142857144
1070
   147
1040
1.5
1070
   172
1070
     1
1070
   178
1070
     1
1070
   179
1070
     2
1070
   271
1070
     2
1070
   272
1070
     2
1070
   284
1070
     8
1070
   285
1070
     8
1070
   286
1070
     8
1002
}
  0
LINE
  5
204E
330
1E
100
AcDbEntity
  8
STEMPEL
100
AcDbLine
 10
228.1472051398227
 20
432.8276479635744
 30
0.0
 11
148.5379988122498
 21
319.2501335749464
 31
0.0
  0
LINE
  5
204F
330
1E
100
AcDbEntity
  8
STEMPEL
100
AcDbLine
 10
148.5379988122498
 20
319.2501335749464
 30
0.0
 11
228.1472051398226
 21
263.6233821399047
 31
0.0
  0
ARC
  5
2052
330
1E
100
AcDbEntity
  8
SCHRAFF
100
AcDbCircle
 10
228.1472051398227
 20
432.8276479635744
 30
0.0
 40
5.0
100
AcDbArc
 50
198.1025662894022
 51
271.8423615810907
  0
ARC
  5
2054
330
1E
100
AcDbEntity
  8
SCHRAFF
100
AcDbCircle
 10
225.277354887488
 20
428.7332665048954
 30
0.0
 40
5.0
100
AcDbArc
 50
198.1025662894022
 51
271.8423615810907
  0
ARC
  5
2055
330
1E
100
AcDbEntity
  8
SCHRAFF
100
AcDbCircle
 10
222.4075046351532
 20
424.6388850462165
 30
0.0
 40
5.0
100
AcDbArc
 50
198.1025662894022
 51
271.8423615810907
  0
ARC
  5
2056
330
1E
100
AcDbEntity
  8
SCHRAFF
100
AcDbCircle
 10
219.5376543828184
 20
420.5445035875375
 30
0.0
 40
5.0
100
AcDbArc
 50
198.1025662894022
 51
271.8423615810907
  0
ARC
  5
2057
330
1E
100
AcDbEntity
  8
SCHRAFF
100
AcDbCircle
 10
216.6678041304836
 20
416.4501221288587
 30
0.0
 40
5.0
100
AcDbArc
 50
198.1025662894022
 51
271.8423615810907
  0
ARC
  5
2058
330
1E
100
AcDbEntity
  8
SCHRAFF
100
AcDbCircle
 10
213.7979538781488
 20
412.3557406701797
 30
0.0
 40
5.0
100
AcDbArc
 50
198.1025662894022
 51
271.8423615810907
  0
ARC
  5
2059
330
1E
100
AcDbEntity
  8
SCHRAFF
100
AcDbCircle
 10
210.9281036258141
 20
408.2613592115007
 30
0.0
 40
5.0
100
AcDbArc
 50
198.1025662894022
 51
271.8423615810907
  0
ARC
  5
205A
330
1E
100
AcDbEntity
  8
SCHRAFF
100
AcDbCircle
 10
208.0582533734793
 20
404.1669777528218
 30
0.0
 40
5.0
100
AcDbArc
 50
198.1025662894022
 51
271.8423615810907
  0
ARC
  5
205B
330
1E
100
AcDbEntity
  8
SCHRAFF
100
AcDbCircle
 10
205.1884031211446
 20
400.0725962941428
 30
0.0
 40
5.0
100
AcDbArc
 50
198.1025662894022
 51
271.8423615810907
  0
ARC
  5
205C
330
1E
100
AcDbEntity
  8
SCHRAFF
100
AcDbCircle
 10
202.3185528688098
 20
395.978214835464
 30
0.0
 40
5.0
100
AcDbArc
 50
198.1025662894022
 51
271.8423615810907
  0
ARC
  5
205D
330
1E
100
AcDbEntity
  8
SCHRAFF
100
AcDbCircle
 10
199.448702616475
 20
391.8838333767851
 30
0.0
 40
5.0
100
AcDbArc
 50
198.1025662894022
 51
271.8423615810907
  0
ARC
  5
205E
330
1E
100
AcDbEntity
  8
SCHRAFF
100
AcDbCircle
 10
196.5788523641402
 20
387.7894519181061
 30
0.0
 40
5.0
100
AcDbArc
 50
198.1025662894022
 51
271.8423615810907
  0
ARC
  5
205F
330
1E
100
AcDbEntity
  8
SCHRAFF
100
AcDbCircle
 10
193.7090021118054
 20
383.6950704594272
 30
0.0
 40
5.0
100
AcDbArc
 50
198.1025662894022
 51
271.8423615810907
  0
ARC
  5
2060
330
1E
100
AcDbEntity
  8
SCHRAFF
100
AcDbCircle
 10
190.8391518594707
 20
379.6006890007482
 30
0.0
 40
5.0
100
AcDbArc
 50
198.1025662894022
 51
271.8423615810907
  0
ARC
  5
2061
330
1E
100
AcDbEntity
  8
SCHRAFF
100
AcDbCircle
 10
187.9693016071359
 20
375.5063075420693
 30
0.0
 40
5.0
100
AcDbArc
 50
198.1025662894022
 51
271.8423615810907
  0
ARC
  5
2062
330
1E
100
AcDbEntity
  8
SCHRAFF
100
AcDbCircle
 10
185.0994513548011
 20
371.4119260833903
 30
0.0
 40
5.0
100
AcDbArc
 50
198.1025662894022
 51
271.8423615810907
  0
ARC
  5
2063
330
1E
100
AcDbEntity
  8
SCHRAFF
100
AcDbCircle
 10
182.2296011024663
 20
367.3175446247114
 30
0.0
 40
5.0
100
AcDbArc
 50
198.1025662894022
 51
271.8423615810907
  0
ARC
  5
2064
330
1E
100
AcDbEntity
  8
SCHRAFF
100
AcDbCircle
 10
179.3597508501316
 20
363.2231631660325
 30
0.0
 40
5.0
100
AcDbArc
 50
198.1025662894022
 51
271.8423615810907
  0
ARC
  5
2065
330
1E
100
AcDbEntity
  8
SCHRAFF
100
AcDbCircle
 10
176.4899005977968
 20
359.1287817073535
 30
0.0
 40
5.0
100
AcDbArc
 50
198.1025662894022
 51
271.8423615810907
  0
ARC
  5
2066
330
1E
100
AcDbEntity
  8
SCHRAFF
100
AcDbCircle
 10
173.620050345462
 20
355.0344002486746
 30
0.0
 40
5.0
100
AcDbArc
 50
198.1025662894022
 51
271.8423615810907
  0
ARC
  5
2067
330
1E
100
AcDbEntity
  8
SCHRAFF
100
AcDbCircle
 10
170.7502000931272
 20
350.9400187899956
 30
0.0
 40
5.0
100
AcDbArc
 50
198.1025662894022
 51
271.8423615810907
  0
ARC
  5
2068
330
1E
100
AcDbEntity
  8
SCHRAFF
100
AcDbCircle
 10
167.8803498407925
 20
346.8456373313167
 30
0.0
 40
5.0
100
AcDbArc
 50
198.1025662894022
 51
271.8423615810907
  0
ARC
  5
2069
330
1E
100
AcDbEntity
  8
SCHRAFF
100
AcDbCircle
 10
165.0104995884577
 20
342.7512558726378
 30
0.0
 40
5.0
100
AcDbArc
 50
198.1025662894022
 51
271.8423615810907
  0
ARC
  5
206A
330
1E
100
AcDbEntity
  8
SCHRAFF
100
AcDbCircle
 10
162.1406493361229
 20
338.6568744139589
 30
0.0
 40
5.0
100
AcDbArc
 50
198.1025662894022
 51
271.8423615810907
  0
ARC
  5
206B
330
1E
100
AcDbEntity
  8
SCHRAFF
100
AcDbCircle
 10
159.2707990837882
 20
334.5624929552799
 30
0.0
 40
5.0
100
AcDbArc
 50
198.1025662894022
 51
271.8423615810907
  0
ARC
  5
206C
330
1E
100
AcDbEntity
  8
SCHRAFF
100
AcDbCircle
 10
156.4009488314534
 20
330.468111496601
 30
0.0
 40
5.0
100
AcDbArc
 50
198.1025662894022
 51
271.8423615810907
  0
ARC
  5
206D
330
1E
100
AcDbEntity
  8
SCHRAFF
100
AcDbCircle
 10
153.5310985791186
 20
326.373730037922
 30
0.0
 40
5.0
100
AcDbArc
 50
198.1025662894022
 51
271.8423615810907
  0
ARC
  5
206E
102
{ACAD_REACTORS
330
2073
102
}
330
1E
100
AcDbEntity
  8
SCHRAFF
100
AcDbCircle
 10
228.2789380900088
 20
433.0052479720649
 30
0.0
 40
5.050871714442092
100
AcDbArc
 50
18.61781154929719
 51
91.49451390930675
  0
HATCH
  5
2073
330
1E
100
AcDbEntity
  8
SCHRAFF
100
AcDbHatch
 10
0.0
 20
0.0
 30
0.0
210
0.0
220
0.0
230
1.0
  2
_USER
 70
     0
 71
     1
 91
        1
 92
        7
 72
     1
 73
     1
 93
        3
 10
228.1472051398227
 20
438.05440151554
 42
0.0
 10
228.1472051398227
 20
432.8276479635743
 42
0.0
 10
233.0654936937936
 20
434.6177586007518
 42
0.3291541671446179
 97
        3
330
1BA5
330
1C58
330
206E
 75
     0
 76
     0
 52
0.0
 41
0.1
 77
     0
 78
     1
 53
0.0
 43
0.0
 44
0.0
 45
0.0
 46
0.1
 79
     0
 47
0.0499484348953858
 98
        1
 10
230.0385247180839
 20
436.4642037584196
  0
ARC
  5
2076
102
{ACAD_REACTORS
330
208F
102
}
330
1E
100
AcDbEntity
  8
SCHRAFF
100
AcDbCircle
 10
227.5393975312976
 20
264.0531564552042
 30
0.0
 40
4.134508336604244
100
AcDbArc
 50
278.4536006811136
 51
11.49132718937685
  0
ARC
  5
2077
330
1E
100
AcDbEntity
  8
SCHRAFF
100
AcDbCircle
 10
228.1472051398226
 20
263.6233821399047
 30
0.0
 40
5.0
100
AcDbArc
 50
108.1862650834573
 51
181.9260603751449
  0
ARC
  5
2078
330
1E
100
AcDbEntity
  8
SCHRAFF
100
AcDbCircle
 10
224.0486357180115
 20
266.4872481798225
 30
0.0
 40
5.0
100
AcDbArc
 50
108.1862650834573
 51
181.9260603751449
  0
ARC
  5
2079
330
1E
100
AcDbEntity
  8
SCHRAFF
100
AcDbCircle
 10
219.9500662962004
 20
269.3511142197404
 30
0.0
 40
5.0
100
AcDbArc
 50
108.1862650834573
 51
181.9260603751449
  0
ARC
  5
207A
330
1E
100
AcDbEntity
  8
SCHRAFF
100
AcDbCircle
 10
215.8514968743892
 20
272.2149802596582
 30
0.0
 40
5.0
100
AcDbArc
 50
108.1862650834573
 51
181.9260603751449
  0
ARC
  5
207B
330
1E
100
AcDbEntity
  8
SCHRAFF
100
AcDbCircle
 10
211.7529274525781
 20
275.0788462995761
 30
0.0
 40
5.0
100
AcDbArc
 50
108.1862650834573
 51
181.9260603751449
  0
ARC
  5
207C
330
1E
100
AcDbEntity
  8
SCHRAFF
100
AcDbCircle
 10
207.654358030767
 20
277.9427123394941
 30
0.0
 40
5.0
100
AcDbArc
 50
108.1862650834573
 51
181.9260603751449
  0
ARC
  5
207D
330
1E
100
AcDbEntity
  8
SCHRAFF
100
AcDbCircle
 10
203.5557886089558
 20
280.8065783794118
 30
0.0
 40
5.0
100
AcDbArc
 50
108.1862650834573
 51
181.9260603751449
  0
ARC
  5
207E
330
1E
100
AcDbEntity
  8
SCHRAFF
100
AcDbCircle
 10
199.4572191871448
 20
283.6704444193298
 30
0.0
 40
5.0
100
AcDbArc
 50
108.1862650834573
 51
181.9260603751449
  0
ARC
  5
207F
330
1E
100
AcDbEntity
  8
SCHRAFF
100
AcDbCircle
 10
195.3586497653336
 20
286.5343104592476
 30
0.0
 40
5.0
100
AcDbArc
 50
108.1862650834573
 51
181.9260603751449
  0
ARC
  5
2080
330
1E
100
AcDbEntity
  8
SCHRAFF
100
AcDbCircle
 10
191.2600803435225
 20
289.3981764991655
 30
0.0
 40
5.0
100
AcDbArc
 50
108.1862650834573
 51
181.9260603751449
  0
ARC
  5
2081
330
1E
100
AcDbEntity
  8
SCHRAFF
100
AcDbCircle
 10
187.1615109217114
 20
292.2620425390834
 30
0.0
 40
5.0
100
AcDbArc
 50
108.1862650834573
 51
181.9260603751449
  0
ARC
  5
2082
330
1E
100
AcDbEntity
  8
SCHRAFF
100
AcDbCircle
 10
183.0629414999002
 20
295.1259085790012
 30
0.0
 40
5.0
100
AcDbArc
 50
108.1862650834573
 51
181.9260603751449
  0
ARC
  5
2083
330
1E
100
AcDbEntity
  8
SCHRAFF
100
AcDbCircle
 10
178.9643720780891
 20
297.9897746189191
 30
0.0
 40
5.0
100
AcDbArc
 50
108.1862650834573
 51
181.9260603751449
  0
ARC
  5
2084
330
1E
100
AcDbEntity
  8
SCHRAFF
100
AcDbCircle
 10
174.865802656278
 20
300.8536406588369
 30
0.0
 40
5.0
100
AcDbArc
 50
108.1862650834573
 51
181.9260603751449
  0
ARC
  5
2085
330
1E
100
AcDbEntity
  8
SCHRAFF
100
AcDbCircle
 10
170.7672332344668
 20
303.7175066987548
 30
0.0
 40
5.0
100
AcDbArc
 50
108.1862650834573
 51
181.9260603751449
  0
ARC
  5
2086
330
1E
100
AcDbEntity
  8
SCHRAFF
100
AcDbCircle
 10
166.6686638126558
 20
306.5813727386727
 30
0.0
 40
5.0
100
AcDbArc
 50
108.1862650834573
 51
181.9260603751449
  0
ARC
  5
2087
330
1E
100
AcDbEntity
  8
SCHRAFF
100
AcDbCircle
 10
162.5700943908446
 20
309.4452387785905
 30
0.0
 40
5.0
100
AcDbArc
 50
108.1862650834573
 51
181.9260603751449
  0
ARC
  5
2088
330
1E
100
AcDbEntity
  8
SCHRAFF
100
AcDbCircle
 10
158.4715249690335
 20
312.3091048185084
 30
0.0
 40
5.0
100
AcDbArc
 50
108.1862650834573
 51
181.9260603751449
  0
ARC
  5
2089
330
1E
100
AcDbEntity
  8
SCHRAFF
100
AcDbCircle
 10
154.3729555472223
 20
315.1729708584263
 30
0.0
 40
5.0
100
AcDbArc
 50
108.1862650834573
 51
181.9260603751449
  0
HATCH
  5
208F
330
1E
100
AcDbEntity
  8
SCHRAFF
100
AcDbHatch
 10
0.0
 20
0.0
 30
0.0
210
0.0
220
0.0
230
1.0
  2
_USER
 70
     0
 71
     1
 91
        1
 92
        7
 72
     1
 73
     1
 93
        3
 10
231.591029117173
 20
264.8768315597124
 42
0.0
 10
228.1472051398226
 20
263.6233821399047
 42
0.0
 10
228.1472051398226
 20
259.9635685668628
 42
0.4298289178355132
 97
        3
330
1C57
330
1CD0
330
2076
 75
     0
 76
     0
 52
0.0
 41
0.1
 77
     0
 78
     1
 53
0.0
 43
0.0
 44
0.0
 45
0.0
 46
0.1
 79
     0
 47
0.1626668754247222
 98
        1
 10
230.4288338268275
 20
262.4195993170251
  0
DIMENSION
  5
2091
330
1E
100
AcDbEntity
  8
SCHRAFF
100
AcDbDimension
  2
*D6
 10
148.6472051398225
 20
154.2514543890133
 30
0.0
 11
215.7611356228248
 21
393.0445247838467
 31
0.0
 70
   162
 71
     5
 42
1.22173047639603
  3
Standard
100
AcDb2LineAngularDimension
 13
378.7626909047975
 23
403.0450686897352
 33
0.0
 14
148.5379988122498
 24
319.2501335749464
 34
0.0
 15
148.6472051398227
 25
564.2514543890131
 35
0.0
 16
188.1441774926284
 26
410.8541553363973
 36
0.0
1001
ACAD
1000
DSTYLE
1002
{
1070
    40
1040
2.0
1070
    41
1040
3.5
1070
    42
1040
1.0
1070
    43
1040
7.0
1070
    44
1040
1.0
1070
    73
1070
     0
1070
    74
1070
     0
1070
    77
1070
     1
1070
    78
1070
     8
1070
    79
1070
     2
1070
   140
1040
3.5
1070
   141
1040
1.5
1070
   146
1040
0.5142857142857144
1070
   147
1040
1.5
1070
   172
1070
     1
1070
   178
1070
     1
1070
   179
1070
     2
1070
   271
1070
     2
1070
   272
1070
     2
1070
   284
1070
     8
1070
   285
1070
     8
1070
   286
1070
     8
1002
}
  0
ENDSEC
  0
SECTION
  2
OBJECTS
  0
DICTIONARY
  5
C
330
0
100
AcDbDictionary
281
     1
  3
ACAD_COLOR
350
1ECF
  3
ACAD_GROUP
350
D
  3
ACAD_LAYOUT
350
19
  3
ACAD_MATERIAL
350
1ECE
  3
ACAD_MLINESTYLE
350
16
  3
ACAD_PLOTSETTINGS
350
18
  3
ACAD_PLOTSTYLENAME
350
E
  3
AcDbVariableDictionary
350
246
  0
DICTIONARY
  5
1ECF
102
{ACAD_REACTORS
330
C
102
}
330
C
100
AcDbDictionary
281
     1
  0
DICTIONARY
  5
D
102
{ACAD_REACTORS
330
C
102
}
330
C
100
AcDbDictionary
281
     1
  0
DICTIONARY
  5
19
102
{ACAD_REACTORS
330
C
102
}
330
C
100
AcDbDictionary
281
     1
  3
Layout1
350
1D
  3
Model
350
21
  0
DICTIONARY
  5
1ECE
102
{ACAD_REACTORS
330
C
102
}
330
C
100
AcDbDictionary
281
     1
  0
DICTIONARY
  5
16
102
{ACAD_REACTORS
330
C
102
}
330
C
100
AcDbDictionary
281
     1
  3
Standard
350
17
  0
DICTIONARY
  5
18
102
{ACAD_REACTORS
330
C
102
}
330
C
100
AcDbDictionary
281
     1
  0
ACDBDICTIONARYWDFLT
  5
E
102
{ACAD_REACTORS
330
C
102
}
330
C
100
AcDbDictionary
281
     1
  3
Normal
350
F
100
AcDbDictionaryWithDefault
340
F
  0
DICTIONARY
  5
246
102
{ACAD_REACTORS
330
C
102
}
330
C
100
AcDbDictionary
281
     1
  3
DIMASSOC
350
1F33
  3
PROJECTNAME
350
1F34
  3
SORTENTS
350
247
  0
LAYOUT
  5
1D
102
{ACAD_REACTORS
330
19
102
}
330
19
100
AcDbPlotSettings
  1

  2
Tektronix Phaser 740
  4

  6

 40
0.0
 41
0.0
 42
0.0
 43
0.0
 44
0.0
 45
0.0
 46
0.0
 47
0.0
 48
0.0
 49
0.0
140
0.0
141
0.0
142
1.0
143
1.0
 70
   688
 72
     0
 73
     0
 74
     5
  7
monochrome.ctb
 75
    16
147
1.0
 76
     0
 77
     2
 78
   300
148
0.0
149
0.0
100
AcDbLayout
  1
Layout1
 70
     0
 71
     1
 10
0.0
 20
0.0
 11
12.0
 21
9.0
 12
0.0
 22
0.0
 32
0.0
 14
1.000000000000000E+20
 24
1.000000000000000E+20
 34
1.000000000000000E+20
 15
-1.000000000000000E+20
 25
-1.000000000000000E+20
 35
-1.000000000000000E+20
146
0.0
 13
0.0
 23
0.0
 33
0.0
 16
1.0
 26
0.0
 36
0.0
 17
0.0
 27
1.0
 37
0.0
 76
     0
330
1A
  0
LAYOUT
  5
21
102
{ACAD_REACTORS
330
19
102
}
330
19
100
AcDbPlotSettings
  1

  2
Tektronix Phaser 740
  4
A4
  6

 40
5.873749732971191
 41
6.085414409637451
 42
5.577407836914062
 43
5.662078857421875
 44
209.9733276367187
 45
296.9683227539062
 46
0.0
 47
0.0
 48
0.0
 49
0.0
140
0.0
141
0.0
142
1.0
143
1.0
 70
 11952
 72
     0
 73
     1
 74
     0
  7
monochrome.ctb
 75
     0
147
1.0
 76
     0
 77
     2
 78
   300
148
1150.120678237584
149
45.30495740799864
100
AcDbLayout
  1
Model
 70
     1
 71
     0
 10
0.0
 20
0.0
 11
12.0
 21
9.0
 12
0.0
 22
0.0
 32
0.0
 14
0.0
 24
0.0
 34
0.0
 15
0.0
 25
0.0
 35
0.0
146
0.0
 13
0.0
 23
0.0
 33
0.0
 16
1.0
 26
0.0
 36
0.0
 17
0.0
 27
1.0
 37
0.0
 76
     0
330
1E
  0
MLINESTYLE
  5
17
102
{ACAD_REACTORS
330
16
102
}
330
16
100
AcDbMlineStyle
  2
STANDARD
 70
     0
  3

 62
   256
 51
90.0
 52
90.0
 71
     2
 49
0.5
 62
   256
  6
BYLAYER
 49
-0.5
 62
   256
  6
BYLAYER
  0
ACDBPLACEHOLDER
  5
F
102
{ACAD_REACTORS
330
E
102
}
330
E
  0
DICTIONARYVAR
  5
1F33
102
{ACAD_REACTORS
330
246
102
}
330
246
100
DictionaryVariables
280
     0
  1
1
  0
DICTIONARYVAR
  5
1F34
102
{ACAD_REACTORS
330
246
102
}
330
246
100
DictionaryVariables
280
     0
  1

  0
DICTIONARYVAR
  5
247
102
{ACAD_REACTORS
330
246
102
}
330
246
100
DictionaryVariables
280
     0
  1
96
  0
ENDSEC
  0
EOF
