  0
SECTION
  2
HEADER
  9
$ACADVER
  1
AC1018
  9
$ACADMAINTVER
 70
     2
  9
$DWGCODEPAGE
  3
ANSI_1252
  9
$INSBASE
 10
0.0
 20
0.0
 30
0.0
  9
$EXTMIN
 10
-0.012813617635004
 20
-0.0181221163699092
 30
-0.0000000000000023
  9
$EXTMAX
 10
210.0128202187944
 20
297.0181314522945
 30
0.0000000000000129
  9
$LIMMIN
 10
0.0
 20
0.0
  9
$LIMMAX
 10
210.0
 20
297.0
  9
$ORTHOMODE
 70
     0
  9
$REGENMODE
 70
     1
  9
$FILLMODE
 70
     1
  9
$QTEXTMODE
 70
     0
  9
$MIRRTEXT
 70
     1
  9
$LTSCALE
 40
10.0
  9
$ATTMODE
 70
     1
  9
$TEXTSIZE
 40
3.5
  9
$TRACEWID
 40
0.5
  9
$TEXTSTYLE
  7
STANDARD
  9
$CLAYER
  8
BEM
  9
$CELTYPE
  6
ByLayer
  9
$CECOLOR
 62
   256
  9
$CELTSCALE
 40
1.0
  9
$DISPSILH
 70
     0
  9
$DIMSCALE
 40
1.0
  9
$DIMASZ
 40
3.5
  9
$DIMEXO
 40
1.0
  9
$DIMDLI
 40
7.0
  9
$DIMRND
 40
0.0
  9
$DIMDLE
 40
0.0
  9
$DIMEXE
 40
1.0
  9
$DIMTP
 40
0.0
  9
$DIMTM
 40
0.0
  9
$DIMTXT
 40
3.5
  9
$DIMCEN
 40
1.5
  9
$DIMTSZ
 40
0.0
  9
$DIMTOL
 70
     0
  9
$DIMLIM
 70
     0
  9
$DIMTIH
 70
     0
  9
$DIMTOH
 70
     0
  9
$DIMSE1
 70
     0
  9
$DIMSE2
 70
     0
  9
$DIMTAD
 70
     1
  9
$DIMZIN
 70
     8
  9
$DIMBLK
  1

  9
$DIMASO
 70
     1
  9
$DIMSHO
 70
     0
  9
$DIMPOST
  1

  9
$DIMAPOST
  1

  9
$DIMALT
 70
     0
  9
$DIMALTD
 70
     2
  9
$DIMALTF
 40
25.4
  9
$DIMLFAC
 40
1.0
  9
$DIMTOFL
 70
     1
  9
$DIMTVP
 40
0.0
  9
$DIMTIX
 70
     0
  9
$DIMSOXD
 70
     0
  9
$DIMSAH
 70
     0
  9
$DIMBLK1
  1

  9
$DIMBLK2
  1

  9
$DIMSTYLE
  2
Standard
  9
$DIMCLRD
 70
     0
  9
$DIMCLRE
 70
     0
  9
$DIMCLRT
 70
     1
  9
$DIMTFAC
 40
0.5142857142857144
  9
$DIMGAP
 40
1.5
  9
$DIMJUST
 70
     0
  9
$DIMSD1
 70
     0
  9
$DIMSD2
 70
     0
  9
$DIMTOLJ
 70
     1
  9
$DIMTZIN
 70
     8
  9
$DIMALTZ
 70
     8
  9
$DIMALTTZ
 70
     8
  9
$DIMUPT
 70
     0
  9
$DIMDEC
 70
     2
  9
$DIMTDEC
 70
     2
  9
$DIMALTU
 70
     2
  9
$DIMALTTD
 70
     2
  9
$DIMTXSTY
  7
STANDARD
  9
$DIMAUNIT
 70
     0
  9
$DIMADEC
 70
     2
  9
$DIMALTRND
 40
0.0
  9
$DIMAZIN
 70
     2
  9
$DIMDSEP
 70
    46
  9
$DIMATFIT
 70
     3
  9
$DIMFRAC
 70
     0
  9
$DIMLDRBLK
  1

  9
$DIMLUNIT
 70
     2
  9
$DIMLWD
 70
    -2
  9
$DIMLWE
 70
    -2
  9
$DIMTMOVE
 70
     0
  9
$LUNITS
 70
     2
  9
$LUPREC
 70
     2
  9
$SKETCHINC
 40
1.0
  9
$FILLETRAD
 40
0.0
  9
$AUNITS
 70
     1
  9
$AUPREC
 70
     3
  9
$MENU
  1
ACAD
  9
$ELEVATION
 40
0.0
  9
$PELEVATION
 40
0.0
  9
$THICKNESS
 40
0.0
  9
$LIMCHECK
 70
     0
  9
$CHAMFERA
 40
0.0
  9
$CHAMFERB
 40
0.0
  9
$CHAMFERC
 40
0.0
  9
$CHAMFERD
 40
0.0
  9
$SKPOLY
 70
     0
  9
$TDCREATE
 40
2452040.637099653
  9
$TDUCREATE
 40
2452040.553766320
  9
$TDUPDATE
 40
2455666.371677003
  9
$TDUUPDATE
 40
2455666.288343669
  9
$TDINDWG
 40
0.2897550000
  9
$TDUSRTIMER
 40
0.2897550000
  9
$USRTIMER
 70
     1
  9
$ANGBASE
 50
0.0
  9
$ANGDIR
 70
     0
  9
$PDMODE
 70
     0
  9
$PDSIZE
 40
0.0
  9
$PLINEWID
 40
0.0
  9
$SPLFRAME
 70
     0
  9
$SPLINETYPE
 70
     6
  9
$SPLINESEGS
 70
     8
  9
$HANDSEED
  5
B6D
  9
$SURFTAB1
 70
     6
  9
$SURFTAB2
 70
     6
  9
$SURFTYPE
 70
     6
  9
$SURFU
 70
     6
  9
$SURFV
 70
     6
  9
$UCSBASE
  2

  9
$UCSNAME
  2

  9
$UCSORG
 10
0.0
 20
0.0
 30
0.0
  9
$UCSXDIR
 10
1.0
 20
0.0
 30
0.0
  9
$UCSYDIR
 10
0.0
 20
1.0
 30
0.0
  9
$UCSORTHOREF
  2

  9
$UCSORTHOVIEW
 70
     0
  9
$UCSORGTOP
 10
0.0
 20
0.0
 30
0.0
  9
$UCSORGBOTTOM
 10
0.0
 20
0.0
 30
0.0
  9
$UCSORGLEFT
 10
0.0
 20
0.0
 30
0.0
  9
$UCSORGRIGHT
 10
0.0
 20
0.0
 30
0.0
  9
$UCSORGFRONT
 10
0.0
 20
0.0
 30
0.0
  9
$UCSORGBACK
 10
0.0
 20
0.0
 30
0.0
  9
$PUCSBASE
  2

  9
$PUCSNAME
  2

  9
$PUCSORG
 10
0.0
 20
0.0
 30
0.0
  9
$PUCSXDIR
 10
1.0
 20
0.0
 30
0.0
  9
$PUCSYDIR
 10
0.0
 20
1.0
 30
0.0
  9
$PUCSORTHOREF
  2

  9
$PUCSORTHOVIEW
 70
     0
  9
$PUCSORGTOP
 10
0.0
 20
0.0
 30
0.0
  9
$PUCSORGBOTTOM
 10
0.0
 20
0.0
 30
0.0
  9
$PUCSORGLEFT
 10
0.0
 20
0.0
 30
0.0
  9
$PUCSORGRIGHT
 10
0.0
 20
0.0
 30
0.0
  9
$PUCSORGFRONT
 10
0.0
 20
0.0
 30
0.0
  9
$PUCSORGBACK
 10
0.0
 20
0.0
 30
0.0
  9
$USERI1
 70
     0
  9
$USERI2
 70
     0
  9
$USERI3
 70
     0
  9
$USERI4
 70
     0
  9
$USERI5
 70
     0
  9
$USERR1
 40
0.0
  9
$USERR2
 40
0.0
  9
$USERR3
 40
0.0
  9
$USERR4
 40
0.0
  9
$USERR5
 40
0.0
  9
$WORLDVIEW
 70
     1
  9
$SHADEDGE
 70
     3
  9
$SHADEDIF
 70
    70
  9
$TILEMODE
 70
     1
  9
$MAXACTVP
 70
    16
  9
$PINSBASE
 10
0.0
 20
0.0
 30
0.0
  9
$PLIMCHECK
 70
     0
  9
$PEXTMIN
 10
1.000000000000000E+20
 20
1.000000000000000E+20
 30
1.000000000000000E+20
  9
$PEXTMAX
 10
-1.000000000000000E+20
 20
-1.000000000000000E+20
 30
-1.000000000000000E+20
  9
$PLIMMIN
 10
0.0
 20
0.0
  9
$PLIMMAX
 10
12.0
 20
9.0
  9
$UNITMODE
 70
     0
  9
$VISRETAIN
 70
     0
  9
$PLINEGEN
 70
     0
  9
$PSLTSCALE
 70
     0
  9
$TREEDEPTH
 70
  3020
  9
$CMLSTYLE
  2
Standard
  9
$CMLJUST
 70
     0
  9
$CMLSCALE
 40
1.0
  9
$PROXYGRAPHICS
 70
     1
  9
$MEASUREMENT
 70
     0
  9
$CELWEIGHT
370
    -1
  9
$ENDCAPS
280
     0
  9
$JOINSTYLE
280
     0
  9
$LWDISPLAY
290
     0
  9
$INSUNITS
 70
     0
  9
$HYPERLINKBASE
  1

  9
$STYLESHEET
  1
monochrome 1.ctb
  9
$XEDIT
290
     1
  9
$CEPSNTYPE
380
     0
  9
$PSTYLEMODE
290
     1
  9
$FINGERPRINTGUID
  2
{7AADB5C8-6110-11D8-B72B-000102183313}
  9
$VERSIONGUID
  2
{A96EAE32-51A2-43E7-BB5A-8A656D04EE9A}
  9
$EXTNAMES
290
     1
  9
$PSVPSCALE
 40
0.0
  9
$OLESTARTUP
290
     0
  9
$SORTENTS
280
    96
  9
$INDEXCTL
280
     0
  9
$HIDETEXT
280
     0
  9
$XCLIPFRAME
290
     0
  9
$HALOGAP
280
     0
  9
$OBSCOLOR
 70
   257
  9
$OBSLTYPE
280
     0
  9
$INTERSECTIONDISPLAY
280
     0
  9
$INTERSECTIONCOLOR
 70
   257
  9
$DIMASSOC
280
     1
  9
$PROJECTNAME
  1

  0
ENDSEC
  0
SECTION
  2
CLASSES
  0
CLASS
  1
ACDBDICTIONARYWDFLT
  2
AcDbDictionaryWithDefault
  3
ObjectDBX Classes
 90
        0
 91
        1
280
     0
281
     0
  0
CLASS
  1
DICTIONARYVAR
  2
AcDbDictionaryVar
  3
ObjectDBX Classes
 90
        0
 91
        3
280
     0
281
     0
  0
ENDSEC
  0
SECTION
  2
TABLES
  0
TABLE
  2
VPORT
  5
8
330
0
100
AcDbSymbolTable
 70
     3
  0
VPORT
  5
B6C
330
8
100
AcDbSymbolTableRecord
100
AcDbViewportTableRecord
  2
*Active
 70
     0
 10
0.0
 20
0.0
 11
1.0
 21
1.0
 12
105.0
 22
148.5
 13
0.0
 23
0.0
 14
1.0
 24
1.0
 15
10.0
 25
10.0
 16
0.0
 26
0.0
 36
1.0
 17
0.0
 27
0.0
 37
0.0
 40
297.0
 41
1.334231805929919
 42
50.0
 43
0.0
 44
0.0
 50
0.0
 51
0.0
 71
     0
 72
  1500
 73
     1
 74
     0
 75
     0
 76
     0
 77
     0
 78
     0
281
     0
 65
     1
110
0.0
120
0.0
130
0.0
111
1.0
121
0.0
131
0.0
112
0.0
122
1.0
132
0.0
 79
     0
146
0.0
  0
ENDTAB
  0
TABLE
  2
LTYPE
  5
5
330
0
100
AcDbSymbolTable
 70
     2
  0
LTYPE
  5
13
330
5
100
AcDbSymbolTableRecord
100
AcDbLinetypeTableRecord
  2
ByBlock
 70
     0
  3

 72
    65
 73
     0
 40
0.0
  0
LTYPE
  5
14
330
5
100
AcDbSymbolTableRecord
100
AcDbLinetypeTableRecord
  2
ByLayer
 70
     0
  3

 72
    65
 73
     0
 40
0.0
  0
LTYPE
  5
15
330
5
100
AcDbSymbolTableRecord
100
AcDbLinetypeTableRecord
  2
Continuous
 70
     0
  3
Solid line
 72
    65
 73
     0
 40
0.0
  0
LTYPE
  5
35
330
5
100
AcDbSymbolTableRecord
100
AcDbLinetypeTableRecord
  2
STRICHPUNKT
 70
     0
  3
__ . __ . __ . __ . __ . __ . __ . __ . __ . __
 72
    65
 73
     4
 40
1.0
 49
0.5
 74
     0
 49
-0.25
 74
     0
 49
0.0
 74
     0
 49
-0.25
 74
     0
  0
ENDTAB
  0
TABLE
  2
LAYER
  5
2
330
0
100
AcDbSymbolTable
 70
     9
  0
LAYER
  5
10
330
2
100
AcDbSymbolTableRecord
100
AcDbLayerTableRecord
  2
0
 70
     0
 62
     7
  6
Continuous
370
    -3
390
F
  0
LAYER
  5
38
330
2
100
AcDbSymbolTableRecord
100
AcDbLayerTableRecord
  2
VOLL
 70
     0
 62
     1
  6
Continuous
370
    -3
390
F
  0
LAYER
  5
39
330
2
100
AcDbSymbolTableRecord
100
AcDbLayerTableRecord
  2
HILF
 70
     0
 62
     2
  6
Continuous
370
    -3
390
F
  0
LAYER
  5
3A
330
2
100
AcDbSymbolTableRecord
100
AcDbLayerTableRecord
  2
MITTEL
 70
     0
 62
     2
  6
STRICHPUNKT
370
    -3
390
F
  0
LAYER
  5
3B
330
2
100
AcDbSymbolTableRecord
100
AcDbLayerTableRecord
  2
BEM
 70
     0
 62
     7
  6
Continuous
370
    -3
390
F
  0
LAYER
  5
3C
330
2
100
AcDbSymbolTableRecord
100
AcDbLayerTableRecord
  2
STEMPEL
 70
     0
 62
     3
  6
Continuous
370
    -3
390
F
  0
LAYER
  5
3D
330
2
100
AcDbSymbolTableRecord
100
AcDbLayerTableRecord
  2
TEXT
 70
     0
 62
     7
  6
Continuous
370
    -3
390
F
  0
LAYER
  5
3E
330
2
100
AcDbSymbolTableRecord
100
AcDbLayerTableRecord
  2
DEFPOINTS
 70
     0
 62
     7
  6
Continuous
290
     0
370
    -3
390
F
  0
LAYER
  5
3F
330
2
100
AcDbSymbolTableRecord
100
AcDbLayerTableRecord
  2
SCHRAFF
 70
     0
 62
     7
  6
Continuous
370
    -3
390
F
  0
ENDTAB
  0
TABLE
  2
STYLE
  5
3
330
0
100
AcDbSymbolTable
 70
     2
  0
STYLE
  5
11
330
3
100
AcDbSymbolTableRecord
100
AcDbTextStyleTableRecord
  2
STANDARD
 70
     0
 40
0.0
 41
0.8
 50
0.0
 71
     0
 42
3.5
  3
simplex.shx
  4

  0
STYLE
  5
34
330
3
100
AcDbSymbolTableRecord
100
AcDbTextStyleTableRecord
  2
GREEKS
 70
     0
 40
0.0
 41
0.8
 50
0.0
 71
     0
 42
2.5
  3
SIMPLEX.shx
  4

  0
ENDTAB
  0
TABLE
  2
VIEW
  5
6
330
0
100
AcDbSymbolTable
 70
     0
  0
ENDTAB
  0
TABLE
  2
UCS
  5
7
330
0
100
AcDbSymbolTable
 70
     0
  0
ENDTAB
  0
TABLE
  2
APPID
  5
9
330
0
100
AcDbSymbolTable
 70
     1
  0
APPID
  5
12
330
9
100
AcDbSymbolTableRecord
100
AcDbRegAppTableRecord
  2
ACAD
 70
     0
  0
ENDTAB
  0
TABLE
  2
DIMSTYLE
  5
A
330
0
100
AcDbSymbolTable
 70
     1
100
AcDbDimStyleTable
 71
     1
340
1CB
  0
DIMSTYLE
105
1CB
102
{ACAD_REACTORS
330
8EE
330
995
330
9A3
330
B24
330
B48
102
}
330
A
100
AcDbSymbolTableRecord
100
AcDbDimStyleTableRecord
  2
Standard
 70
     0
340
11
  0
ENDTAB
  0
TABLE
  2
BLOCK_RECORD
  5
1
330
0
100
AcDbSymbolTable
 70
     7
  0
BLOCK_RECORD
  5
1E
330
1
100
AcDbSymbolTableRecord
100
AcDbBlockTableRecord
  2
*Model_Space
340
21
  0
BLOCK_RECORD
  5
1A
330
1
100
AcDbSymbolTableRecord
100
AcDbBlockTableRecord
  2
*Paper_Space
340
1D
  0
BLOCK_RECORD
  5
22
330
1
100
AcDbSymbolTableRecord
100
AcDbBlockTableRecord
  2
LOGO
340
0
102
{BLKREFS
331
135
102
}
  0
BLOCK_RECORD
  5
8F6
330
1
100
AcDbSymbolTableRecord
100
AcDbBlockTableRecord
  2
*D1
340
0
  0
BLOCK_RECORD
  5
996
330
1
100
AcDbSymbolTableRecord
100
AcDbBlockTableRecord
  2
*D3
340
0
  0
BLOCK_RECORD
  5
9A4
330
1
100
AcDbSymbolTableRecord
100
AcDbBlockTableRecord
  2
*D4
340
0
  0
BLOCK_RECORD
  5
B25
330
1
100
AcDbSymbolTableRecord
100
AcDbBlockTableRecord
  2
*D5
340
0
  0
BLOCK_RECORD
  5
B49
330
1
100
AcDbSymbolTableRecord
100
AcDbBlockTableRecord
  2
*D6
340
0
  0
ENDTAB
  0
ENDSEC
  0
SECTION
  2
BLOCKS
  0
BLOCK
  5
43
330
1E
100
AcDbEntity
  8
0
100
AcDbBlockBegin
  2
*Model_Space
 70
     0
 10
0.0
 20
0.0
 30
0.0
  3
*Model_Space
  1

  0
ENDBLK
  5
44
330
1E
100
AcDbEntity
  8
0
100
AcDbBlockEnd
  0
BLOCK
  5
41
330
1A
100
AcDbEntity
 67
     1
  8
0
100
AcDbBlockBegin
  2
*Paper_Space
 70
     0
 10
0.0
 20
0.0
 30
0.0
  3
*Paper_Space
  1

  0
ENDBLK
  5
42
330
1A
100
AcDbEntity
 67
     1
  8
0
100
AcDbBlockEnd
  0
BLOCK
  5
45
330
22
100
AcDbEntity
  8
0
100
AcDbBlockBegin
  2
LOGO
 70
     0
 10
0.0
 20
0.0
 30
0.0
  3
LOGO
  1

  0
ARC
  5
46
330
22
100
AcDbEntity
  8
0
100
AcDbCircle
 10
11.59973089678112
 20
-9.271599258481501
 30
0.0
 40
4.5
100
AcDbArc
 50
270.0
 51
231.0575587310159
  0
LINE
  5
47
330
22
100
AcDbEntity
  8
0
100
AcDbLine
 10
3.599730896781125
 20
-4.771599258481529
 30
0.0
 11
3.599730896781153
 21
-11.77159925848133
 31
0.0
  0
LINE
  5
48
330
22
100
AcDbEntity
  8
0
100
AcDbLine
 10
2.599730896781125
 20
-4.771599258481529
 30
0.0
 11
2.599730896781153
 21
-11.77159925848133
 31
0.0
  0
CIRCLE
  5
49
330
22
100
AcDbEntity
  8
0
100
AcDbCircle
 10
11.59973089678112
 20
-9.271599258481501
 30
0.0
 40
3.5
  0
ARC
  5
4A
330
22
100
AcDbEntity
  8
0
100
AcDbCircle
 10
31.59973089678115
 20
-9.271599258481472
 30
0.0
 40
4.5
100
AcDbArc
 50
270.0
 51
231.0575587310182
  0
LINE
  5
4B
330
22
100
AcDbEntity
  8
0
100
AcDbLine
 10
17.59973089678112
 20
-4.771599258481472
 30
0.0
 11
17.59973089678115
 21
-13.77159925848147
 31
0.0
  0
ARC
  5
4C
330
22
100
AcDbEntity
  8
0
100
AcDbCircle
 10
22.59973089678116
 20
-7.271599258481472
 30
0.0
 40
2.5
100
AcDbArc
 50
293.1161887722295
 51
90.0
  0
CIRCLE
  5
4D
330
22
100
AcDbEntity
  8
0
100
AcDbCircle
 10
31.59973089678115
 20
-9.271599258481472
 30
0.0
 40
3.5
  0
ARC
  5
4E
330
22
100
AcDbEntity
  8
0
100
AcDbCircle
 10
4.599730896781153
 20
-11.77159925848133
 30
0.0
 40
1.0
100
AcDbArc
 50
180.0
 51
270.0
  0
ARC
  5
4F
330
22
100
AcDbEntity
  8
0
100
AcDbCircle
 10
4.599730896781153
 20
-11.77159925848133
 30
0.0
 40
2.0
100
AcDbArc
 50
179.9999999999992
 51
270.0
  0
LINE
  5
50
330
22
100
AcDbEntity
  8
0
100
AcDbLine
 10
11.59973089678115
 20
-13.77159925848144
 30
0.0
 11
4.599730896781153
 21
-13.77159925848147
 31
0.0
  0
LINE
  5
51
330
22
100
AcDbEntity
  8
0
100
AcDbLine
 10
8.771303772034769
 20
-12.77159925848136
 30
0.0
 11
4.599730896781153
 21
-12.77159925848133
 31
0.0
  0
LINE
  5
52
330
22
100
AcDbEntity
  8
0
100
AcDbLine
 10
31.59973089678115
 20
-13.77159925848147
 30
0.0
 11
23.6715276665056
 21
-13.77159925848144
 31
0.0
  0
LINE
  5
53
330
22
100
AcDbEntity
  8
0
100
AcDbLine
 10
23.56565672307022
 20
-9.51278021337896
 30
0.0
 11
24.4388546544846
 21
-12.77159925848144
 31
0.0
  0
LINE
  5
54
330
22
100
AcDbEntity
  8
0
100
AcDbLine
 10
22.59973089678116
 20
-9.771599258481472
 30
0.0
 11
18.59973089678112
 21
-9.771599258481472
 31
0.0
  0
LINE
  5
55
330
22
100
AcDbEntity
  8
0
100
AcDbLine
 10
18.59973089678115
 20
-13.77159925848144
 30
0.0
 11
17.59973089678115
 21
-13.77159925848144
 31
0.0
  0
LINE
  5
56
330
22
100
AcDbEntity
  8
0
100
AcDbLine
 10
18.59973089678115
 20
-9.771599258481472
 30
0.0
 11
18.59973089678115
 21
-13.77159925848144
 31
0.0
  0
LINE
  5
57
330
22
100
AcDbEntity
  8
0
100
AcDbLine
 10
22.59973089678116
 20
-9.771599258481472
 30
0.0
 11
23.67152766650562
 21
-13.77159925848147
 31
0.0
  0
ARC
  5
58
330
22
100
AcDbEntity
  8
0
100
AcDbCircle
 10
22.59973089678116
 20
-7.271599258481472
 30
0.0
 40
2.5
100
AcDbArc
 50
270.0
 51
270.0000000000007
  0
LINE
  5
59
330
22
100
AcDbEntity
  8
0
100
AcDbLine
 10
28.77130377203494
 20
-12.77159925848147
 30
0.0
 11
24.43885465448463
 21
-12.77159925848144
 31
0.0
  0
LINE
  5
5A
330
22
100
AcDbEntity
  8
0
100
AcDbLine
 10
3.599730896781125
 20
-4.771599258481472
 30
0.0
 11
2.599730896781125
 21
-4.771599258481472
 31
0.0
  0
LINE
  5
5B
330
22
100
AcDbEntity
  8
0
100
AcDbLine
 10
22.59973089678116
 20
-8.771599258481472
 30
0.0
 11
18.59973089678115
 21
-8.771599258481472
 31
0.0
  0
LINE
  5
5C
330
22
100
AcDbEntity
  8
0
100
AcDbLine
 10
22.59973089678116
 20
-5.771599258481472
 30
0.0
 11
18.59973089678115
 21
-5.771599258481472
 31
0.0
  0
LINE
  5
5D
330
22
100
AcDbEntity
  8
0
100
AcDbLine
 10
22.59973089678116
 20
-4.771599258481472
 30
0.0
 11
17.59973089678115
 21
-4.771599258481472
 31
0.0
  0
LINE
  5
5E
330
22
100
AcDbEntity
  8
0
100
AcDbLine
 10
18.59973089678115
 20
-5.771599258481472
 30
0.0
 11
18.59973089678115
 21
-8.771599258481472
 31
0.0
  0
ARC
  5
5F
330
22
100
AcDbEntity
  8
0
100
AcDbCircle
 10
22.59973089678116
 20
-7.271599258481472
 30
0.0
 40
1.5
100
AcDbArc
 50
270.0
 51
90.0
  0
ENDBLK
  5
60
330
22
100
AcDbEntity
  8
0
100
AcDbBlockEnd
  0
BLOCK
  5
900
330
8F6
100
AcDbEntity
  8
0
100
AcDbBlockBegin
  2
*D1
 70
     1
 10
0.0
 20
0.0
 30
0.0
  3
*D1
  1

  0
LINE
  5
AB4
330
8F6
100
AcDbEntity
  8
BEM
 62
     0
370
    -2
100
AcDbLine
 10
61.11797882190986
 20
99.85933154999768
 30
0.0
 11
61.11797882190986
 21
81.79736005866343
 31
0.0
  0
LINE
  5
AB5
330
8F6
100
AcDbEntity
  8
BEM
 62
     0
370
    -2
100
AcDbLine
 10
114.1179788219107
 20
99.85933154999765
 30
0.0
 11
114.1179788219107
 21
81.79736005866343
 31
0.0
  0
LINE
  5
AB6
330
8F6
100
AcDbEntity
  8
BEM
 62
     0
370
    -2
100
AcDbLine
 10
64.61797882190985
 20
82.79736005866343
 30
0.0
 11
110.6179788219108
 21
82.79736005866343
 31
0.0
  0
SOLID
  5
AB7
330
8F6
100
AcDbEntity
  8
BEM
 62
     0
100
AcDbTrace
 10
64.61797882190985
 20
83.38069339199675
 30
0.0
 11
64.61797882190985
 21
82.2140267253301
 31
0.0
 12
61.11797882190986
 22
82.79736005866343
 32
0.0
 13
61.11797882190986
 23
82.79736005866343
 33
0.0
  0
SOLID
  5
AB8
330
8F6
100
AcDbEntity
  8
BEM
 62
     0
100
AcDbTrace
 10
110.6179788219108
 20
83.38069339199675
 30
0.0
 11
110.6179788219108
 21
82.2140267253301
 31
0.0
 12
114.1179788219107
 22
82.79736005866343
 32
0.0
 13
114.1179788219107
 23
82.79736005866343
 33
0.0
  0
MTEXT
  5
AB9
330
8F6
100
AcDbEntity
  8
BEM
 62
     1
100
AcDbMText
 10
87.6179788219103
 20
86.04736005866342
 30
0.0
 40
3.5
 41
0.0
 71
     5
 72
     1
  1
\A1;%%c53
 73
     1
 44
1.0
  0
POINT
  5
ABA
330
8F6
100
AcDbEntity
  8
DEFPOINTS
 62
     0
100
AcDbPoint
 10
61.11797882190986
 20
100.8593315499977
 30
0.0
  0
POINT
  5
ABB
330
8F6
100
AcDbEntity
  8
DEFPOINTS
 62
     0
100
AcDbPoint
 10
114.1179788219107
 20
100.8593315499976
 30
0.0
  0
POINT
  5
ABC
330
8F6
100
AcDbEntity
  8
DEFPOINTS
 62
     0
100
AcDbPoint
 10
114.1179788219107
 20
82.79736005866343
 30
0.0
  0
ENDBLK
  5
901
330
8F6
100
AcDbEntity
  8
0
100
AcDbBlockEnd
  0
BLOCK
  5
9A0
330
996
100
AcDbEntity
  8
0
100
AcDbBlockBegin
  2
*D3
 70
     1
 10
0.0
 20
0.0
 30
0.0
  3
*D3
  1

  0
LINE
  5
AE1
330
996
100
AcDbEntity
  8
BEM
 62
     0
370
    -2
100
AcDbLine
 10
60.55542213953942
 20
95.8593315499977
 30
0.0
 11
51.06029915850057
 21
95.8593315499977
 31
0.0
  0
LINE
  5
AE2
330
996
100
AcDbEntity
  8
BEM
 62
     0
370
    -2
100
AcDbLine
 10
86.61797882190985
 20
165.8593315499976
 30
0.0
 11
51.06029915850058
 21
165.8593315499976
 31
0.0
  0
LINE
  5
AE3
330
996
100
AcDbEntity
  8
BEM
 62
     0
370
    -2
100
AcDbLine
 10
52.06029915850057
 20
99.35933154999769
 30
0.0
 11
52.06029915850058
 21
162.3593315499976
 31
0.0
  0
SOLID
  5
AE4
330
996
100
AcDbEntity
  8
BEM
 62
     0
100
AcDbTrace
 10
51.47696582516723
 20
99.35933154999769
 30
0.0
 11
52.6436324918339
 21
99.35933154999769
 31
0.0
 12
52.06029915850057
 22
95.8593315499977
 32
0.0
 13
52.06029915850057
 23
95.8593315499977
 33
0.0
  0
SOLID
  5
AE5
330
996
100
AcDbEntity
  8
BEM
 62
     0
100
AcDbTrace
 10
51.47696582516725
 20
162.3593315499976
 30
0.0
 11
52.64363249183392
 21
162.3593315499976
 31
0.0
 12
52.06029915850058
 22
165.8593315499976
 32
0.0
 13
52.06029915850058
 23
165.8593315499976
 33
0.0
  0
MTEXT
  5
AE6
330
996
100
AcDbEntity
  8
BEM
 62
     1
100
AcDbMText
 10
48.81029915850056
 20
130.8593315499976
 30
0.0
 40
3.5
 41
0.0
 71
     5
 72
     1
  1
\A1;70
 11
0.0000000000000001
 21
1.0
 31
0.0
 73
     1
 44
1.0
  0
POINT
  5
AE7
330
996
100
AcDbEntity
  8
DEFPOINTS
 62
     0
100
AcDbPoint
 10
61.55542213953943
 20
95.8593315499977
 30
0.0
  0
POINT
  5
AE8
330
996
100
AcDbEntity
  8
DEFPOINTS
 62
     0
100
AcDbPoint
 10
87.61797882190984
 20
165.8593315499976
 30
0.0
  0
POINT
  5
AE9
330
996
100
AcDbEntity
  8
DEFPOINTS
 62
     0
100
AcDbPoint
 10
52.06029915850058
 20
165.8593315499976
 30
0.0
  0
ENDBLK
  5
9A1
330
996
100
AcDbEntity
  8
0
100
AcDbBlockEnd
  0
BLOCK
  5
9AE
330
9A4
100
AcDbEntity
  8
0
100
AcDbBlockBegin
  2
*D4
 70
     1
 10
0.0
 20
0.0
 30
0.0
  3
*D4
  1

  0
LINE
  5
AC6
330
9A4
100
AcDbEntity
  8
BEM
 62
     0
370
    -2
100
AcDbLine
 10
60.55542213953942
 20
95.8593315499977
 30
0.0
 11
43.90548573150299
 21
95.8593315499977
 31
0.0
  0
LINE
  5
AC7
330
9A4
100
AcDbEntity
  8
BEM
 62
     0
370
    -2
100
AcDbLine
 10
57.60073605328617
 20
263.8593315499977
 30
0.0
 11
43.90548573150303
 21
263.8593315499977
 31
0.0
  0
LINE
  5
AC8
330
9A4
100
AcDbEntity
  8
BEM
 62
     0
370
    -2
100
AcDbLine
 10
44.90548573150299
 20
99.35933154999769
 30
0.0
 11
44.90548573150302
 21
260.3593315499977
 31
0.0
  0
SOLID
  5
AC9
330
9A4
100
AcDbEntity
  8
BEM
 62
     0
100
AcDbTrace
 10
44.32215239816965
 20
99.35933154999769
 30
0.0
 11
45.48881906483632
 21
99.35933154999769
 31
0.0
 12
44.90548573150299
 22
95.8593315499977
 32
0.0
 13
44.90548573150299
 23
95.8593315499977
 33
0.0
  0
SOLID
  5
ACA
330
9A4
100
AcDbEntity
  8
BEM
 62
     0
100
AcDbTrace
 10
44.32215239816969
 20
260.3593315499977
 30
0.0
 11
45.48881906483636
 21
260.3593315499977
 31
0.0
 12
44.90548573150302
 22
263.8593315499977
 32
0.0
 13
44.90548573150302
 23
263.8593315499977
 33
0.0
  0
MTEXT
  5
ACB
330
9A4
100
AcDbEntity
  8
BEM
 62
     1
100
AcDbMText
 10
41.65548573150299
 20
179.8593315499977
 30
0.0
 40
3.5
 41
0.0
 71
     5
 72
     1
  1
\A1;168
 11
0.0000000000000001
 21
1.0
 31
0.0
 73
     1
 44
1.0
  0
POINT
  5
ACC
330
9A4
100
AcDbEntity
  8
DEFPOINTS
 62
     0
100
AcDbPoint
 10
61.55542213953943
 20
95.8593315499977
 30
0.0
  0
POINT
  5
ACD
330
9A4
100
AcDbEntity
  8
DEFPOINTS
 62
     0
100
AcDbPoint
 10
58.60073605328618
 20
263.8593315499977
 30
0.0
  0
POINT
  5
ACE
330
9A4
100
AcDbEntity
  8
DEFPOINTS
 62
     0
100
AcDbPoint
 10
44.90548573150302
 20
263.8593315499977
 30
0.0
  0
ENDBLK
  5
9AF
330
9A4
100
AcDbEntity
  8
0
100
AcDbBlockEnd
  0
BLOCK
  5
B31
330
B25
100
AcDbEntity
  8
0
100
AcDbBlockBegin
  2
*D5
 70
     1
 10
0.0
 20
0.0
 30
0.0
  3
*D5
  1

  0
LINE
  5
B33
330
B25
100
AcDbEntity
  8
BEM
 62
     0
370
    -2
100
AcDbLine
 10
185.3460113836444
 20
201.4294264558672
 30
0.0
 11
193.1415383341663
 21
204.2667662262772
 31
0.0
  0
LINE
  5
B34
330
B25
100
AcDbEntity
  8
BEM
 62
     0
370
    -2
100
AcDbLine
 10
87.61797882190984
 20
269.8593315499977
 30
0.0
 11
87.61797882191
 21
278.1551580554801
 31
0.0
  0
ARC
  5
B35
330
B25
100
AcDbEntity
  8
BEM
 62
     0
370
    -2
100
AcDbCircle
 10
87.61797882190988
 20
165.8593315499976
 30
0.0
 40
111.2958265054824
100
AcDbArc
 50
21.80189589217163
 51
88.19810410782835
  0
SOLID
  5
B36
330
B25
100
AcDbEntity
  8
BEM
 62
     0
100
AcDbTrace
 10
191.4981577862294
 20
207.4025472674587
 30
0.0
 11
190.4082594521812
 21
206.9863349027337
 31
0.0
 12
192.2018457133804
 22
203.9247460829515
 32
0.0
 13
192.2018457133804
 23
203.9247460829515
 33
0.0
  0
SOLID
  5
B37
330
B25
100
AcDbEntity
  8
BEM
 62
     0
100
AcDbTrace
 10
91.10837387386224
 20
276.5168633280343
 30
0.0
 11
91.12671837725262
 21
277.6833857625835
 31
0.0
 12
87.61797882190997
 22
277.1551580554801
 32
0.0
 13
87.61797882190997
 23
277.1551580554801
 33
0.0
  0
MTEXT
  5
B38
330
B25
100
AcDbEntity
  8
BEM
 62
     1
100
AcDbMText
 10
153.3187657878097
 20
259.6897794967357
 30
0.0
 40
3.5
 41
0.0
 71
     5
 72
     1
  1
\A1;70°
 11
0.8191520442889917
 21
-0.5735764363510463
 31
0.0
 73
     1
 44
1.0
  0
POINT
  5
B39
330
B25
100
AcDbEntity
  8
DEFPOINTS
 62
     0
100
AcDbPoint
 10
168.5716294390848
 20
242.2351618190743
 30
0.0
  0
POINT
  5
B3A
330
B25
100
AcDbEntity
  8
DEFPOINTS
 62
     0
100
AcDbPoint
 10
87.61797882190982
 20
268.8593315499976
 30
0.0
  0
POINT
  5
B3B
330
B25
100
AcDbEntity
  8
DEFPOINTS
 62
     0
100
AcDbPoint
 10
184.4063187628585
 20
201.0874063125416
 30
0.0
  0
POINT
  5
B3C
330
B25
100
AcDbEntity
  8
DEFPOINTS
 62
     0
100
AcDbPoint
 10
87.61797882190984
 20
165.8593315499976
 30
0.0
  0
POINT
  5
B3D
330
B25
100
AcDbEntity
  8
DEFPOINTS
 62
     0
100
AcDbPoint
 10
87.61797882190988
 20
90.85933154999766
 30
0.0
  0
ENDBLK
  5
B32
330
B25
100
AcDbEntity
  8
0
100
AcDbBlockEnd
  0
BLOCK
  5
B53
330
B49
100
AcDbEntity
  8
0
100
AcDbBlockBegin
  2
*D6
 70
     1
 10
0.0
 20
0.0
 30
0.0
  3
*D6
  1

  0
LINE
  5
B5E
330
B49
100
AcDbEntity
  8
BEM
 62
     0
370
    -2
100
AcDbLine
 10
87.95999896523554
 20
164.9196389292117
 30
0.0
 11
101.6216891834437
 21
127.3844535431009
 31
0.0
  0
LINE
  5
B5F
330
B49
100
AcDbEntity
  8
BEM
 62
     0
370
    -2
100
AcDbLine
 10
189.9743573328951
 20
171.1703240698983
 30
0.0
 11
193.7115660204627
 21
160.9024275890166
 31
0.0
  0
LINE
  5
B60
330
B49
100
AcDbEntity
  8
BEM
 62
     0
370
    -2
100
AcDbLine
 10
104.5685932128687
 20
129.5212166655266
 30
0.0
 11
190.0806217043864
 21
160.6450497081626
 31
0.0
  0
SOLID
  5
B61
330
B49
100
AcDbEntity
  8
BEM
 62
     0
100
AcDbTrace
 10
104.3690814625954
 20
130.0693706943184
 30
0.0
 11
104.768104963142
 21
128.9730626367349
 31
0.0
 12
101.279669040118
 22
128.3241461638868
 32
0.0
 13
101.279669040118
 23
128.3241461638868
 33
0.0
  0
SOLID
  5
B62
330
B49
100
AcDbEntity
  8
BEM
 62
     0
100
AcDbTrace
 10
189.8811099541131
 20
161.1932037369544
 30
0.0
 11
190.2801334546597
 21
160.0968956793709
 31
0.0
 12
193.3695458771371
 22
161.8421202098025
 32
0.0
 13
193.3695458771371
 23
161.8421202098025
 33
0.0
  0
MTEXT
  5
B63
330
B49
100
AcDbEntity
  8
BEM
 62
     1
100
AcDbMText
 10
146.2130419928191
 20
148.1371342043988
 30
0.0
 40
3.5
 41
0.0
 71
     5
 72
     1
  1
\A1;98
 11
0.9396926207859078
 21
0.3420201433256703
 31
0.0
 73
     1
 44
1.0
  0
POINT
  5
B64
330
B49
100
AcDbEntity
  8
DEFPOINTS
 62
     0
100
AcDbPoint
 10
87.61797882190984
 20
165.8593315499976
 30
0.0
  0
POINT
  5
B65
330
B49
100
AcDbEntity
  8
DEFPOINTS
 62
     0
100
AcDbPoint
 10
189.6323371895694
 20
172.1100166906843
 30
0.0
  0
POINT
  5
B66
330
B49
100
AcDbEntity
  8
DEFPOINTS
 62
     0
100
AcDbPoint
 10
193.3695458771371
 20
161.8421202098025
 30
0.0
  0
ENDBLK
  5
B54
330
B49
100
AcDbEntity
  8
0
100
AcDbBlockEnd
  0
ENDSEC
  0
SECTION
  2
ENTITIES
  0
TEXT
  5
134
330
1E
100
AcDbEntity
  8
TEXT
100
AcDbText
 10
102.2108024290628
 20
31.54481959861755
 30
0.0
 40
2.0
  1
Koeh
 41
0.8
  7
GREEKS
 72
     1
 11
104.8393738576343
 21
31.54481959861755
 31
0.0
100
AcDbText
  0
INSERT
  5
135
330
1E
100
AcDbEntity
  8
STEMPEL
100
AcDbBlockReference
  2
LOGO
 10
75.4977742728897
 20
22.51052638224161
 30
0.0
  0
LINE
  5
136
330
1E
100
AcDbEntity
  8
HILF
100
AcDbLine
 10
210.0
 20
0.0
 30
0.0
 11
0.0
 21
0.0
 31
0.0
  0
LINE
  5
137
330
1E
100
AcDbEntity
  8
HILF
100
AcDbLine
 10
210.0
 20
297.0000000000001
 30
0.0
 11
0.0
 21
297.0
 31
0.0
  0
LINE
  5
138
330
1E
100
AcDbEntity
  8
STEMPEL
100
AcDbLine
 10
205.0
 20
292.0
 30
0.0
 11
19.99999999999994
 21
292.0
 31
0.0
  0
LINE
  5
139
330
1E
100
AcDbEntity
  8
STEMPEL
100
AcDbLine
 10
205.0
 20
5.0
 30
0.0
 11
19.99999999999994
 21
5.0
 31
0.0
  0
LINE
  5
13A
330
1E
100
AcDbEntity
  8
STEMPEL
100
AcDbLine
 10
24.99999999999995
 20
5.0
 30
0.0
 11
205.0
 21
5.0
 31
0.0
  0
TEXT
  5
13B
330
1E
100
AcDbEntity
  8
TEXT
100
AcDbText
 10
101.2313292113147
 20
36.65480545957612
 30
0.0
 40
2.0
  1
Name
 41
0.8
  7
GREEKS
100
AcDbText
  0
TEXT
  5
13C
330
1E
100
AcDbEntity
  8
TEXT
100
AcDbText
 10
98.27491395507747
 20
51.32531138882947
 30
0.0
 40
2.5
  1
Zul. Abw.
 41
0.8
  7
GREEKS
 72
     4
 11
104.9891996693631
 21
52.57531138882947
 31
0.0
100
AcDbText
  0
LINE
  5
13D
330
1E
100
AcDbEntity
  8
HILF
100
AcDbLine
 10
73.00000000000006
 20
24.99999999999999
 30
0.0
 11
115.0
 21
24.99999999999999
 31
0.0
  0
LINE
  5
13E
330
1E
100
AcDbEntity
  8
HILF
100
AcDbLine
 10
73.00000000000006
 20
29.99999999999999
 30
0.0
 11
115.0
 21
29.99999999999999
 31
0.0
  0
LINE
  5
13F
330
1E
100
AcDbEntity
  8
HILF
100
AcDbLine
 10
73.00000000000006
 20
34.99999999999997
 30
0.0
 11
115.0
 21
34.99999999999997
 31
0.0
  0
LINE
  5
140
330
1E
100
AcDbEntity
  8
STEMPEL
100
AcDbLine
 10
205.0
 20
40.0
 30
0.0
 11
73.00000000000006
 21
39.99999999999997
 31
0.0
  0
LINE
  5
141
330
1E
100
AcDbEntity
  8
STEMPEL
100
AcDbLine
 10
205.0
 20
20.0
 30
0.0
 11
73.00000000000006
 21
19.99999999999998
 31
0.0
  0
LINE
  5
142
330
1E
100
AcDbEntity
  8
STEMPEL
100
AcDbLine
 10
205.0
 20
55.00000000000003
 30
0.0
 11
19.99999999999998
 21
55.0
 31
0.0
  0
LINE
  5
144
330
1E
100
AcDbEntity
  8
HILF
100
AcDbLine
 10
0.0
 20
0.0
 30
0.0
 11
-0.0000000000000568
 21
297.0
 31
0.0
  0
LINE
  5
145
330
1E
100
AcDbEntity
  8
STEMPEL
100
AcDbLine
 10
20.0
 20
5.0
 30
0.0
 11
19.99999999999994
 21
292.0
 31
0.0
  0
TEXT
  5
146
330
1E
100
AcDbEntity
  8
TEXT
100
AcDbText
 10
20.92754975488837
 20
55.83599999999997
 30
0.0
 40
2.5
  1
Erstellt mit AUTOCAD 2004
 41
0.8
  7
GREEKS
100
AcDbText
  0
LINE
  5
148
330
1E
100
AcDbEntity
  8
HILF
100
AcDbLine
 10
20.00000000000004
 20
19.99999999999998
 30
0.0
 11
73.00000000000006
 21
19.99999999999998
 31
0.0
  0
LINE
  5
149
330
1E
100
AcDbEntity
  8
HILF
100
AcDbLine
 10
20.00000000000004
 20
24.99999999999999
 30
0.0
 11
73.00000000000006
 21
24.99999999999999
 31
0.0
  0
LINE
  5
14A
330
1E
100
AcDbEntity
  8
HILF
100
AcDbLine
 10
20.00000000000004
 20
29.99999999999999
 30
0.0
 11
73.00000000000006
 21
29.99999999999999
 31
0.0
  0
LINE
  5
14B
330
1E
100
AcDbEntity
  8
HILF
100
AcDbLine
 10
20.00000000000004
 20
34.99999999999997
 30
0.0
 11
73.00000000000006
 21
34.99999999999997
 31
0.0
  0
LINE
  5
14C
330
1E
100
AcDbEntity
  8
HILF
100
AcDbLine
 10
20.00000000000004
 20
39.99999999999997
 30
0.0
 11
73.00000000000006
 21
39.99999999999997
 31
0.0
  0
LINE
  5
14D
330
1E
100
AcDbEntity
  8
HILF
100
AcDbLine
 10
20.00000000000004
 20
45.00000000000002
 30
0.0
 11
73.00000000000006
 21
45.00000000000002
 31
0.0
  0
LINE
  5
14E
330
1E
100
AcDbEntity
  8
HILF
100
AcDbLine
 10
20.00000000000004
 20
50.00000000000003
 30
0.0
 11
73.00000000000006
 21
50.00000000000003
 31
0.0
  0
LINE
  5
14F
330
1E
100
AcDbEntity
  8
STEMPEL
100
AcDbLine
 10
72.99999999999994
 20
14.99999999999998
 30
0.0
 11
19.99999999999998
 21
14.99999999999998
 31
0.0
  0
TEXT
  5
150
330
1E
100
AcDbEntity
  8
TEXT
100
AcDbText
 10
24.13320553522878
 20
6.827329230135958
 30
0.0
 40
2.0
  1
Index
 50
90.0
 41
0.8
  7
GREEKS
100
AcDbText
  0
LINE
  5
151
330
1E
100
AcDbEntity
  8
VOLL
100
AcDbLine
 10
27.00000000000005
 20
55.00000000000003
 30
0.0
 11
26.99999999999999
 21
4.999999999999985
 31
0.0
  0
LINE
  5
152
330
1E
100
AcDbEntity
  8
HILF
100
AcDbLine
 10
15.54383567856928
 20
148.5
 30
0.0
 11
0.0000000000000568
 21
148.5
 31
0.0
  0
LINE
  5
154
330
1E
100
AcDbEntity
  8
VOLL
100
AcDbLine
 10
62.00000000000006
 20
54.99999999999997
 30
0.0
 11
62.0
 21
4.999999999999985
 31
0.0
  0
LINE
  5
155
330
1E
100
AcDbEntity
  8
VOLL
100
AcDbLine
 10
52.00000000000006
 20
54.99999999999997
 30
0.0
 11
52.0
 21
4.999999999999985
 31
0.0
  0
LINE
  5
157
330
1E
100
AcDbEntity
  8
STEMPEL
100
AcDbLine
 10
73.00000000000006
 20
54.99999999999997
 30
0.0
 11
73.0
 21
4.999999999999985
 31
0.0
  0
TEXT
  5
158
330
1E
100
AcDbEntity
  8
TEXT
100
AcDbText
 10
85.35187950649897
 20
31.55382520412866
 30
0.0
 40
2.0
  1
14.04.
 41
0.8
  7
GREEKS
 72
     1
 11
88.70426045887993
 21
31.55382520412866
 31
0.0
100
AcDbText
  0
TEXT
  5
159
330
1E
100
AcDbEntity
  8
TEXT
100
AcDbText
 10
86.16558365768254
 20
36.65940250614963
 30
0.0
 40
2.0
  1
Tag
 41
0.8
  7
GREEKS
100
AcDbText
  0
TEXT
  5
15A
330
1E
100
AcDbEntity
  8
TEXT
100
AcDbText
 10
73.79180635838077
 20
31.81495184808982
 30
0.0
 40
2.0
  1
Gez.
 41
0.8
  7
GREEKS
100
AcDbText
  0
LINE
  5
15B
330
1E
100
AcDbEntity
  8
VOLL
100
AcDbLine
 10
82.00000000000006
 20
39.99999999999997
 30
0.0
 11
82.00000000000006
 21
19.99999999999998
 31
0.0
  0
TEXT
  5
15C
330
1E
100
AcDbEntity
  8
TEXT
100
AcDbText
 10
73.80033886936519
 20
21.76473194824904
 30
0.0
 40
2.0
  1
Norm.
 41
0.8
  7
GREEKS
100
AcDbText
  0
TEXT
  5
15D
330
1E
100
AcDbEntity
  8
TEXT
100
AcDbText
 10
73.77575432858361
 20
26.84463145714189
 30
0.0
 40
2.0
  1
Gepr.
 41
0.8
  7
GREEKS
100
AcDbText
  0
TEXT
  5
15E
330
1E
100
AcDbEntity
  8
TEXT
 62
     1
100
AcDbText
 10
80.25031532409434
 20
44.07450714456979
 30
0.0
 40
3.5
  1
1:1
 41
0.8
  7
GREEKS
100
AcDbText
  0
TEXT
  5
15F
330
1E
100
AcDbEntity
  8
TEXT
100
AcDbText
 10
76.75817860751886
 20
51.23104475435443
 30
0.0
 40
2.5
  1
Massstab
 41
0.8
  7
GREEKS
100
AcDbText
  0
TEXT
  5
160
330
1E
100
AcDbEntity
  8
TEXT
100
AcDbText
 10
74.31105491105199
 20
36.57012735575833
 30
0.0
 40
2.0
  1
2011
 41
0.8
  7
GREEKS
100
AcDbText
  0
LINE
  5
161
330
1E
100
AcDbEntity
  8
VOLL
100
AcDbLine
 10
95.00000000000005
 20
54.99999999999992
 30
0.0
 11
95.0
 21
19.99999999999998
 31
0.0
  0
LINE
  5
186
330
1E
100
AcDbEntity
  8
HILF
100
AcDbLine
 10
210.0
 20
-0.0000000000000568
 30
0.0
 11
210.0
 21
297.0
 31
0.0
  0
LINE
  5
187
330
1E
100
AcDbEntity
  8
STEMPEL
100
AcDbLine
 10
205.0
 20
5.0
 30
0.0
 11
205.0
 21
292.0
 31
0.0
  0
TEXT
  5
188
330
1E
100
AcDbEntity
  8
TEXT
100
AcDbText
 10
168.6200430748503
 20
26.03708088939301
 30
0.0
 40
2.5
  1
ersetzt durch:
 41
0.8
  7
GREEKS
100
AcDbText
  0
TEXT
  5
189
330
1E
100
AcDbEntity
  8
TEXT
100
AcDbText
 10
168.3619308148496
 20
36.59059118549985
 30
0.0
 40
2.5
  1
Ersatz für:
 41
0.8
  7
GREEKS
100
AcDbText
  0
TEXT
  5
18A
330
1E
100
AcDbEntity
  8
TEXT
100
AcDbText
 10
168.089377478817
 20
51.15660172685682
 30
0.0
 40
2.5
  1
Zeichnungs Nr.
 41
0.8
  7
GREEKS
100
AcDbText
  0
LINE
  5
18B
330
1E
100
AcDbEntity
  8
HILF
100
AcDbLine
 10
116.7454849644942
 20
7.446991290141568
 30
0.0
 11
202.4294419663364
 21
7.446991290141568
 31
0.0
  0
LINE
  5
18C
330
1E
100
AcDbEntity
  8
HILF
100
AcDbLine
 10
168.3619308148496
 20
41.88991818477913
 30
0.0
 11
202.4294419663364
 21
41.88991818477913
 31
0.0
  0
LINE
  5
18D
330
1E
100
AcDbEntity
  8
VOLL
100
AcDbLine
 10
166.0
 20
30.0
 30
0.0
 11
205.0
 21
30.0
 31
0.0
  0
TEXT
  5
18E
330
1E
100
AcDbEntity
  8
TEXT
 62
     1
100
AcDbText
 10
117.4641932160007
 20
43.70874394626889
 30
0.0
 40
3.5
  1
Abzweig DN50/50
 41
0.8
  7
GREEKS
100
AcDbText
  0
LINE
  5
18F
330
1E
100
AcDbEntity
  8
HILF
100
AcDbLine
 10
117.3868400548473
 20
24.99999999999999
 30
0.0
 11
162.4176958278155
 21
24.99999999999999
 31
0.0
  0
LINE
  5
190
330
1E
100
AcDbEntity
  8
HILF
100
AcDbLine
 10
117.3868400548473
 20
29.99999999999999
 30
0.0
 11
162.4176958278155
 21
29.99999999999999
 31
0.0
  0
LINE
  5
191
330
1E
100
AcDbEntity
  8
HILF
100
AcDbLine
 10
117.3868400548473
 20
34.99999999999997
 30
0.0
 11
162.4176958278155
 21
34.99999999999997
 31
0.0
  0
LINE
  5
192
330
1E
100
AcDbEntity
  8
HILF
100
AcDbLine
 10
117.3868400548473
 20
42.01879123782069
 30
0.0
 11
162.4176958278155
 21
42.01879123782069
 31
0.0
  0
LINE
  5
193
330
1E
100
AcDbEntity
  8
STEMPEL
100
AcDbLine
 10
115.0
 20
55.00000000000003
 30
0.0
 11
115.0
 21
4.999999999999985
 31
0.0
  0
TEXT
  5
194
330
1E
100
AcDbEntity
  8
TEXT
100
AcDbText
 10
117.5648195562657
 20
35.75167208792644
 30
0.0
 40
2.5
  1
dünnwandig 70°
 41
0.8
  7
GREEKS
100
AcDbText
  0
TEXT
  5
195
330
1E
100
AcDbEntity
  8
TEXT
100
AcDbText
 10
117.4918750788913
 20
21.31487076511316
 30
0.0
 40
2.0
  1
4210BB0W.DWG
 41
0.8
  7
GREEKS
100
AcDbText
  0
TEXT
  5
196
330
1E
100
AcDbEntity
  8
TEXT
100
AcDbText
 10
117.371119195568
 20
15.42280285096528
 30
0.0
 40
2.5
  1
Bauvorhaben
 41
0.8
  7
GREEKS
100
AcDbText
  0
TEXT
  5
197
330
1E
100
AcDbEntity
  8
TEXT
100
AcDbText
 10
117.4389701904505
 20
51.27446640058898
 30
0.0
 40
2.5
  1
Benennung
 41
0.8
  7
GREEKS
100
AcDbText
  0
LINE
  5
198
330
1E
100
AcDbEntity
  8
STEMPEL
100
AcDbLine
 10
166.0
 20
54.99999999999989
 30
0.0
 11
166.0
 21
20.0
 31
0.0
  0
TEXT
  5
19A
330
1E
100
AcDbEntity
  8
TEXT
 62
     1
100
AcDbText
 10
174.574627099126
 20
44.07450714456979
 30
0.0
 40
3.5
  1
4210BB0W
 41
0.8
  7
GREEKS
 72
     1
 11
185.1079604324594
 21
44.07450714456979
 31
0.0
100
AcDbText
  0
TEXT
  5
212
330
1E
100
AcDbEntity
  8
TEXT
100
AcDbText
 10
117.5648195562657
 20
25.75167208792646
 30
0.0
 40
2.5
  1
EDV-Art.Nr. 4.210.BB0C
 41
0.8
  7
GREEKS
100
AcDbText
  0
TEXT
  5
255
330
1E
100
AcDbEntity
  8
TEXT
 62
     1
100
AcDbText
 10
148.9987436921494
 20
65.61381838269608
 30
0.0
 40
3.5
  1
Werkstoff: 1.4301
 41
0.8
  7
GREEKS
100
AcDbText
  0
LINE
  5
56D
330
1E
100
AcDbEntity
  8
HILF
100
AcDbLine
 10
59.55250004987831
 20
241.3032010241991
 30
0.0
 11
115.6834575939414
 21
241.303201024199
 31
0.0
  0
LINE
  5
56E
330
1E
100
AcDbEntity
  8
HILF
100
AcDbLine
 10
60.04618524283122
 20
228.5037961090946
 30
0.0
 11
115.1897724009884
 21
228.5037961090946
 31
0.0
  0
LINE
  5
56F
330
1E
100
AcDbEntity
  8
HILF
100
AcDbLine
 10
61.83665903254861
 20
223.9688511469857
 30
0.0
 11
113.3992986112711
 21
223.9688511469857
 31
0.0
  0
LINE
  5
570
330
1E
100
AcDbEntity
  8
STEMPEL
100
AcDbLine
 10
116.6352215905334
 20
263.8593315499976
 30
0.0
 11
58.60073605328618
 21
263.8593315499977
 31
0.0
  0
LINE
  5
585
330
1E
100
AcDbEntity
  8
MITTEL
100
AcDbLine
 10
87.61797882190982
 20
268.8593315499976
 30
0.0
 11
87.61797882190988
 21
90.85933154999766
 31
0.0
  0
ARC
  5
5A4
330
1E
100
AcDbEntity
  8
STEMPEL
100
AcDbCircle
 10
70.21797882190984
 20
231.1085255354679
 30
0.0
 40
11.5
100
AcDbArc
 50
179.9999999999999
 51
208.7266053481407
  0
ARC
  5
5A7
330
1E
100
AcDbEntity
  8
STEMPEL
100
AcDbCircle
 10
48.21797882190985
 20
239.3593315499976
 30
0.0
 40
10.5
100
AcDbArc
 50
0.0
 51
19.46309944468909
  0
LINE
  5
5AD
330
1E
100
AcDbEntity
  8
STEMPEL
100
AcDbLine
 10
56.71797882190985
 20
255.6131202987621
 30
0.0
 11
56.71797882190985
 21
250.981698226777
 31
0.0
  0
LINE
  5
5AF
330
1E
100
AcDbEntity
  8
STEMPEL
100
AcDbLine
 10
58.71797882190984
 20
239.3593315499976
 30
0.0
 11
58.71797882190983
 21
231.1085255354679
 31
0.0
  0
ARC
  5
5B0
330
1E
100
AcDbEntity
  8
STEMPEL
100
AcDbCircle
 10
81.21797882190985
 20
251.0213315499977
 30
0.0
 40
24.5000320571282
100
AcDbArc
 50
179.9053619552033
 51
199.4630994446891
  0
ARC
  5
5B1
330
1E
100
AcDbEntity
  8
STEMPEL
100
AcDbCircle
 10
75.71797882190987
 20
255.6131202987622
 30
0.0
 40
19.0
100
AcDbArc
 50
154.2776135078169
 51
179.9999999999999
  0
ARC
  5
5B8
330
1E
100
AcDbEntity
  8
STEMPEL
100
AcDbCircle
 10
53.11797882190981
 20
221.7362259243799
 30
0.0
 40
8.0
100
AcDbArc
 50
359.9999999999996
 51
28.72660534814066
  0
LINE
  5
5E2
330
1E
100
AcDbEntity
  8
STEMPEL
100
AcDbLine
 10
118.5179788219098
 20
255.6131202987622
 30
0.0
 11
118.5179788219098
 21
250.981698226777
 31
0.0
  0
ARC
  5
5ED
330
1E
100
AcDbEntity
  8
STEMPEL
100
AcDbCircle
 10
105.0179788219098
 20
231.1085255354679
 30
0.0
 40
11.5
100
AcDbArc
 50
331.2733946518593
 51
0.0
  0
ARC
  5
5F2
330
1E
100
AcDbEntity
  8
STEMPEL
100
AcDbCircle
 10
122.1179788219099
 20
221.73622592438
 30
0.0
 40
8.0
100
AcDbArc
 50
151.2733946518592
 51
180.0000000000004
  0
ARC
  5
5F9
330
1E
100
AcDbEntity
  8
STEMPEL
100
AcDbCircle
 10
127.0179788219098
 20
239.3593315499976
 30
0.0
 40
10.5
100
AcDbArc
 50
160.5369005553108
 51
179.9999999999999
  0
LINE
  5
5FA
330
1E
100
AcDbEntity
  8
STEMPEL
100
AcDbLine
 10
116.5179788219098
 20
239.3593315499976
 30
0.0
 11
116.5179788219098
 21
231.1085255354679
 31
0.0
  0
ARC
  5
5FB
330
1E
100
AcDbEntity
  8
STEMPEL
100
AcDbCircle
 10
94.01797882190981
 20
251.0213315499977
 30
0.0
 40
24.5000320571282
100
AcDbArc
 50
340.5369005553109
 51
0.0946380447966533
  0
ARC
  5
5FF
330
1E
100
AcDbEntity
  8
STEMPEL
100
AcDbCircle
 10
99.5179788219098
 20
255.6131202987622
 30
0.0
 40
19.0
100
AcDbArc
 50
0.0
 51
25.72238649218913
  0
LINE
  5
83D
330
1E
100
AcDbEntity
  8
STEMPEL
100
AcDbLine
 10
189.6323371895692
 20
172.1100166906843
 30
0.0
 11
169.7833741282885
 21
226.6445945011421
 31
0.0
  0
LINE
  5
84D
330
1E
100
AcDbEntity
  8
MITTEL
100
AcDbLine
 10
184.4063187628585
 20
201.0874063125415
 30
0.0
 11
87.61797882190984
 21
165.8593315499976
 31
0.0
  0
TEXT
  5
88F
330
1E
100
AcDbEntity
  8
TEXT
 62
     1
100
AcDbText
 10
162.1452950614054
 20
203.1320773683467
 30
0.0
 40
3.5
  1
DN50
 50
19.99999999999999
 41
0.8
  7
GREEKS
100
AcDbText
  0
LINE
  5
890
330
1E
100
AcDbEntity
  8
HILF
100
AcDbLine
 10
148.9130671782385
 20
218.0355779015087
 30
0.0
 11
168.1109853224659
 21
165.2897312997056
 31
0.0
  0
LINE
  5
891
330
1E
100
AcDbEntity
  8
HILF
100
AcDbLine
 10
137.0544111095153
 20
213.1940112651523
 30
0.0
 11
155.9146286928398
 21
161.3759893289673
 31
0.0
  0
LINE
  5
892
330
1E
100
AcDbEntity
  8
HILF
100
AcDbLine
 10
133.4053348951315
 20
209.9604737313298
 30
0.0
 11
151.040796274096
 21
161.5074418109607
 31
0.0
  0
ARC
  5
893
330
1E
100
AcDbEntity
  8
STEMPEL
100
AcDbCircle
 10
142.9810144284179
 20
204.5265218304674
 30
0.0
 40
11.5
100
AcDbArc
 50
109.9999999999999
 51
138.7266053481398
  0
ARC
  5
894
330
1E
100
AcDbEntity
  8
STEMPEL
100
AcDbCircle
 10
143.2097928026427
 20
228.0217013433991
 30
0.0
 40
10.5
100
AcDbArc
 50
290.0
 51
309.4630994446893
  0
LINE
  5
895
330
1E
100
AcDbEntity
  8
STEMPEL
100
AcDbLine
 10
161.390529367938
 20
225.5934372241565
 30
0.0
 11
157.0384162231485
 21
224.0093975832945
 31
0.0
  0
LINE
  5
896
330
1E
100
AcDbEntity
  8
STEMPEL
100
AcDbLine
 10
146.8010043075622
 20
218.154928825147
 30
0.0
 11
139.0477827801728
 21
215.3329869695054
 31
0.0
  0
ARC
  5
897
330
1E
100
AcDbEntity
  8
STEMPEL
100
AcDbCircle
 10
165.4551528759951
 20
201.0004837689281
 30
0.0
 40
24.5000320571282
100
AcDbArc
 50
109.9053619552033
 51
129.4630994446892
  0
ARC
  5
898
330
1E
100
AcDbEntity
  8
STEMPEL
100
AcDbCircle
 10
167.8889120911258
 20
207.7392774292243
 30
0.0
 40
19.0
100
AcDbArc
 50
84.277613507817
 51
109.9999999999999
  0
LINE
  5
899
102
{ACAD_REACTORS
330
B14
102
}
330
1E
100
AcDbEntity
  8
STEMPEL
100
AcDbLine
 10
131.0615503398203
 20
209.8722094233437
 30
0.0
 11
114.1179788219101
 21
203.7052537286638
 31
0.0
  0
ARC
  5
89B
330
1E
100
AcDbEntity
  8
STEMPEL
100
AcDbCircle
 10
128.3253891932149
 20
217.3897503896311
 30
0.0
 40
8.0
100
AcDbArc
 50
289.9999999999996
 51
318.72660534814
  0
LINE
  5
89C
330
1E
100
AcDbEntity
  8
STEMPEL
100
AcDbLine
 10
182.5273742254644
 20
167.5204332595874
 30
0.0
 11
178.1752610806748
 21
165.9363936187254
 31
0.0
  0
ARC
  5
89D
330
1E
100
AcDbEntity
  8
STEMPEL
100
AcDbCircle
 10
154.8833154161511
 20
171.8252186271178
 30
0.0
 40
11.5
100
AcDbArc
 50
261.2733946518601
 51
290.0
  0
LINE
  5
89F
102
{ACAD_REACTORS
330
B23
102
}
330
1E
100
AcDbEntity
  8
STEMPEL
100
AcDbLine
 10
149.1886179360808
 20
160.0685005216906
 30
0.0
 11
114.1179788219103
 21
147.3038317874404
 31
0.0
  0
ARC
  5
8A0
330
1E
100
AcDbEntity
  8
STEMPEL
100
AcDbCircle
 10
151.9247790826861
 20
152.5509595554033
 30
0.0
 40
8.0
100
AcDbArc
 50
81.27339465186008
 51
110.0000000000004
  0
ARC
  5
8A1
330
1E
100
AcDbEntity
  8
STEMPEL
100
AcDbCircle
 10
170.1609800967055
 20
153.9739228254696
 30
0.0
 40
10.5
100
AcDbArc
 50
90.53690055531067
 51
109.9999999999999
  0
LINE
  5
8A2
330
1E
100
AcDbEntity
  8
STEMPEL
100
AcDbLine
 10
166.5697685917859
 20
163.8406953437216
 30
0.0
 11
158.8165470643964
 21
161.0187534880799
 31
0.0
  0
ARC
  5
8A3
330
1E
100
AcDbEntity
  8
STEMPEL
100
AcDbCircle
 10
169.8330107105636
 20
188.9724182228685
 30
0.0
 40
24.5000320571282
100
AcDbArc
 50
270.5369005553107
 51
290.0946380447966
  0
ARC
  5
8A4
330
1E
100
AcDbEntity
  8
STEMPEL
100
AcDbCircle
 10
176.0289915022767
 20
185.3745930545197
 30
0.0
 40
19.0
100
AcDbArc
 50
290.0
 51
315.7223864921893
  0
TEXT
  5
8E9
330
1E
100
AcDbEntity
  8
TEXT
 62
     1
100
AcDbText
 10
71.21738418570785
 20
251.1312834789476
 30
0.0
 40
3.5
  1
DN50
 41
0.8
  7
GREEKS
100
AcDbText
  0
LINE
  5
8EA
102
{ACAD_REACTORS
330
B14
102
}
330
1E
100
AcDbEntity
  8
STEMPEL
100
AcDbLine
 10
114.1179788219101
 20
221.7362259243799
 30
0.0
 11
114.1179788219101
 21
203.7052537286638
 31
0.0
  0
DIMENSION
  5
8EE
330
1E
100
AcDbEntity
  8
BEM
100
AcDbDimension
  2
*D1
 10
114.1179788219107
 20
82.79736005866343
 30
0.0
 11
87.6179788219103
 21
86.04736005866342
 31
0.0
 70
    32
  1
%%c<>
 71
     5
 42
53.00000000000091
  3
Standard
100
AcDbAlignedDimension
 13
61.11797882190986
 23
100.8593315499977
 33
0.0
 14
114.1179788219107
 24
100.8593315499976
 34
0.0
 50
359.9999999999999
100
AcDbRotatedDimension
1001
ACAD
1000
DSTYLE
1002
{
1070
    41
1040
3.5
1070
    42
1040
1.0
1070
    43
1040
7.0
1070
    44
1040
1.0
1070
    73
1070
     0
1070
    74
1070
     0
1070
    77
1070
     1
1070
    78
1070
     8
1070
    79
1070
     2
1070
   140
1040
3.5
1070
   141
1040
1.5
1070
   146
1040
0.5142857142857144
1070
   147
1040
1.5
1070
   172
1070
     1
1070
   178
1070
     1
1070
   179
1070
     3
1070
   271
1070
     2
1070
   272
1070
     2
1070
   275
1070
     1
1070
   284
1070
     8
1070
   285
1070
     8
1070
   286
1070
     8
1002
}
  0
LINE
  5
8EF
330
1E
100
AcDbEntity
  8
HILF
100
AcDbLine
 10
113.1179788219104
 20
100.8593315499976
 30
0.0
 11
62.11797882190981
 21
100.8593315499976
 31
0.0
  0
LINE
  5
8F0
330
1E
100
AcDbEntity
  8
STEMPEL
100
AcDbLine
 10
113.6805355042809
 20
95.85933154999764
 30
0.0
 11
61.55542213953943
 21
95.8593315499977
 31
0.0
  0
LINE
  5
8F1
330
1E
100
AcDbEntity
  8
STEMPEL
100
AcDbLine
 10
114.1179788219105
 20
100.8593315499979
 30
0.0
 11
113.6805355042809
 21
95.85933154999764
 31
0.0
  0
LINE
  5
8F4
330
1E
100
AcDbEntity
  8
STEMPEL
100
AcDbLine
 10
61.11797882190986
 20
100.8593315499977
 30
0.0
 11
61.55542213953943
 21
95.8593315499977
 31
0.0
  0
LINE
  5
8F5
330
1E
100
AcDbEntity
  8
STEMPEL
100
AcDbLine
 10
61.11797882190995
 20
221.7362259243799
 30
0.0
 11
61.1179788219098
 21
100.8593315499977
 31
0.0
  0
LINE
  5
92E
102
{ACAD_REACTORS
330
B23
102
}
330
1E
100
AcDbEntity
  8
STEMPEL
100
AcDbLine
 10
114.1179788219103
 20
147.3038317874404
 30
0.0
 11
114.1179788219104
 21
100.8593315499976
 31
0.0
  0
DIMENSION
  5
995
330
1E
100
AcDbEntity
  8
BEM
100
AcDbDimension
  2
*D3
 10
52.06029915850058
 20
165.8593315499976
 30
0.0
 11
48.81029915850056
 21
130.8593315499976
 31
0.0
 70
    32
 71
     5
 42
69.99999999999994
  3
Standard
100
AcDbAlignedDimension
 13
61.55542213953943
 23
95.8593315499977
 33
0.0
 14
87.61797882190984
 24
165.8593315499976
 34
0.0
 50
90.0
100
AcDbRotatedDimension
1001
ACAD
1000
DSTYLE
1002
{
1070
    41
1040
3.5
1070
    42
1040
1.0
1070
    43
1040
7.0
1070
    44
1040
1.0
1070
    73
1070
     0
1070
    74
1070
     0
1070
    77
1070
     1
1070
    78
1070
     8
1070
    79
1070
     2
1070
   140
1040
3.5
1070
   141
1040
1.5
1070
   146
1040
0.5142857142857144
1070
   147
1040
1.5
1070
   172
1070
     1
1070
   178
1070
     1
1070
   179
1070
     2
1070
   271
1070
     2
1070
   272
1070
     2
1070
   284
1070
     8
1070
   285
1070
     8
1070
   286
1070
     8
1002
}
  0
DIMENSION
  5
9A3
330
1E
100
AcDbEntity
  8
BEM
100
AcDbDimension
  2
*D4
 10
44.90548573150302
 20
263.8593315499977
 30
0.0
 11
41.65548573150299
 21
179.8593315499977
 31
0.0
 70
    32
 71
     5
 42
168.0
  3
Standard
100
AcDbAlignedDimension
 13
61.55542213953943
 23
95.8593315499977
 33
0.0
 14
58.60073605328618
 24
263.8593315499977
 34
0.0
 50
90.0
100
AcDbRotatedDimension
1001
ACAD
1000
DSTYLE
1002
{
1070
    41
1040
3.5
1070
    42
1040
1.0
1070
    43
1040
7.0
1070
    44
1040
1.0
1070
    73
1070
     0
1070
    74
1070
     0
1070
    77
1070
     1
1070
    78
1070
     8
1070
    79
1070
     2
1070
   140
1040
3.5
1070
   141
1040
1.5
1070
   146
1040
0.5142857142857144
1070
   147
1040
1.5
1070
   172
1070
     1
1070
   178
1070
     1
1070
   179
1070
     2
1070
   271
1070
     2
1070
   272
1070
     2
1070
   284
1070
     8
1070
   285
1070
     8
1070
   286
1070
     8
1002
}
  0
TEXT
  5
A0C
330
1E
100
AcDbEntity
  8
BEM
100
AcDbText
 10
208.2905770718719
 20
6.074024076691515
 30
0.0
 40
2.0
  1
Diese Zeichnung ist urheberrechtlich geschützt und bleibt unser Eigentum. Sie darf weder ganz noch teilweise vervielfältigt und nicht an Dritte weitergegeben werden.
 50
90.0
 41
0.8
  7
GREEKS
100
AcDbText
  0
TEXT
  5
A0D
330
1E
100
AcDbEntity
  8
TEXT
100
AcDbText
 10
96.34413576239619
 20
44.50323185339641
 30
0.0
 40
2.0
  1
DIN EN1124-3
 41
0.8
  7
GREEKS
 72
     1
 11
104.8393738576343
 21
44.50323185339641
 31
0.0
100
AcDbText
  0
TEXT
  5
A19
330
1E
100
AcDbEntity
  8
TEXT
100
AcDbText
 10
33.49933939241158
 20
9.336909474920659
 30
0.0
 40
2.0
  1
Änderung
 41
0.8
  7
GREEKS
 72
     1
 11
38.87076796384015
 21
9.336909474920659
 31
0.0
100
AcDbText
  0
TEXT
  5
A1A
330
1E
100
AcDbEntity
  8
TEXT
100
AcDbText
 10
55.17481598333814
 20
9.33578134669905
 30
0.0
 40
2.0
  1
Tag
 41
0.8
  7
GREEKS
 72
     1
 11
57.04148265000481
 21
9.33578134669905
 31
0.0
100
AcDbText
  0
TEXT
  5
A1B
330
1E
100
AcDbEntity
  8
TEXT
100
AcDbText
 10
64.61958341495059
 20
9.29662108483204
 30
0.0
 40
2.0
  1
Name
 41
0.8
  7
GREEKS
 72
     1
 11
67.78148817685536
 21
9.29662108483204
 31
0.0
100
AcDbText
  0
LINE
  5
AFC
330
1E
100
AcDbEntity
  8
STEMPEL
100
AcDbLine
 10
114.1179788219101
 20
203.7052537286638
 30
0.0
 11
87.61797882190984
 21
165.8593315499976
 31
0.0
  0
LINE
  5
AFD
330
1E
100
AcDbEntity
  8
STEMPEL
100
AcDbLine
 10
87.61797882190984
 20
165.8593315499976
 30
0.0
 11
114.1179788219103
 21
147.3038317874404
 31
0.0
  0
ARC
  5
B02
330
1E
100
AcDbEntity
  8
SCHRAFF
100
AcDbCircle
 10
115.2651316946122
 20
205.3435578172418
 30
0.0
 40
5.0
100
AcDbArc
 50
211.4218215217981
 51
258.5781784782016
  0
ARC
  5
B03
330
1E
100
AcDbEntity
  8
SCHRAFF
100
AcDbCircle
 10
112.397249512857
 20
201.2477975957968
 30
0.0
 40
5.0
100
AcDbArc
 50
211.4218215217981
 51
258.5781784782016
  0
ARC
  5
B04
330
1E
100
AcDbEntity
  8
SCHRAFF
100
AcDbCircle
 10
109.5293673311017
 20
197.1520373743518
 30
0.0
 40
5.0
100
AcDbArc
 50
211.4218215217981
 51
258.5781784782016
  0
ARC
  5
B05
330
1E
100
AcDbEntity
  8
SCHRAFF
100
AcDbCircle
 10
106.6614851493465
 20
193.0562771529069
 30
0.0
 40
5.0
100
AcDbArc
 50
211.4218215217981
 51
258.5781784782016
  0
ARC
  5
B06
330
1E
100
AcDbEntity
  8
SCHRAFF
100
AcDbCircle
 10
103.7936029675912
 20
188.9605169314619
 30
0.0
 40
5.0
100
AcDbArc
 50
211.4218215217981
 51
258.5781784782016
  0
ARC
  5
B07
330
1E
100
AcDbEntity
  8
SCHRAFF
100
AcDbCircle
 10
100.925720785836
 20
184.864756710017
 30
0.0
 40
5.0
100
AcDbArc
 50
211.4218215217981
 51
258.5781784782016
  0
ARC
  5
B08
330
1E
100
AcDbEntity
  8
SCHRAFF
100
AcDbCircle
 10
98.05783860408077
 20
180.7689964885721
 30
0.0
 40
5.0
100
AcDbArc
 50
211.4218215217981
 51
258.5781784782016
  0
ARC
  5
B09
330
1E
100
AcDbEntity
  8
SCHRAFF
100
AcDbCircle
 10
95.18995642232553
 20
176.6732362671271
 30
0.0
 40
5.0
100
AcDbArc
 50
211.4218215217981
 51
258.5781784782016
  0
ARC
  5
B0A
330
1E
100
AcDbEntity
  8
SCHRAFF
100
AcDbCircle
 10
92.32207424057028
 20
172.5774760456822
 30
0.0
 40
5.0
100
AcDbArc
 50
211.4218215217981
 51
258.5781784782016
  0
ARC
  5
B0C
102
{ACAD_REACTORS
330
B14
102
}
330
1E
100
AcDbEntity
  8
SCHRAFF
100
AcDbCircle
 10
113.0831167679133
 20
202.227317548995
 30
0.0
 40
5.071535677181654
100
AcDbArc
 50
31.77406801239115
 51
78.22593198761045
  0
HATCH
  5
B14
330
1E
100
AcDbEntity
  8
SCHRAFF
100
AcDbHatch
 10
0.0
 20
0.0
 30
0.0
210
0.0
220
0.0
230
1.0
  2
_USER
 70
     0
 71
     1
 91
        1
 92
        7
 72
     1
 73
     1
 93
        3
 10
114.1179788219101
 20
207.192147319906
 42
0.0
 10
114.1179788219101
 20
203.7052537286637
 42
0.0
 10
117.3945869990661
 20
204.8978415745018
 42
0.2055063658733159
 97
        3
330
8EA
330
899
330
B0C
 75
     0
 76
     0
 52
0.0
 41
0.1
 77
     0
 78
     1
 53
0.0
 43
0.0
 44
0.0
 45
0.0
 46
0.1
 79
     0
 47
0.1540984060997782
 98
        1
 10
115.1189374542109
 20
205.2020230150007
  0
ARC
  5
B16
330
1E
100
AcDbEntity
  8
SCHRAFF
100
AcDbCircle
 10
114.8149244248193
 20
146.8158252225613
 30
0.0
 40
5.0
100
AcDbArc
 50
121.4218215217988
 51
168.5781784782022
  0
ARC
  5
B17
330
1E
100
AcDbEntity
  8
SCHRAFF
100
AcDbCircle
 10
94.33612331759446
 20
161.1552361313373
 30
0.0
 40
5.0
100
AcDbArc
 50
121.4218215217988
 51
168.5781784782022
  0
ARC
  5
B18
330
1E
100
AcDbEntity
  8
SCHRAFF
100
AcDbCircle
 10
98.43188353903945
 20
158.2873539495821
 30
0.0
 40
5.0
100
AcDbArc
 50
121.4218215217988
 51
168.5781784782022
  0
ARC
  5
B19
330
1E
100
AcDbEntity
  8
SCHRAFF
100
AcDbCircle
 10
102.5276437604844
 20
155.4194717678269
 30
0.0
 40
5.0
100
AcDbArc
 50
121.4218215217988
 51
168.5781784782022
  0
ARC
  5
B1A
330
1E
100
AcDbEntity
  8
SCHRAFF
100
AcDbCircle
 10
106.6234039819294
 20
152.5515895860717
 30
0.0
 40
5.0
100
AcDbArc
 50
121.4218215217988
 51
168.5781784782022
  0
ARC
  5
B1B
330
1E
100
AcDbEntity
  8
SCHRAFF
100
AcDbCircle
 10
110.7191642033744
 20
149.6837074043165
 30
0.0
 40
5.0
100
AcDbArc
 50
121.4218215217988
 51
168.5781784782022
  0
ARC
  5
B1E
102
{ACAD_REACTORS
330
B23
102
}
330
1E
100
AcDbEntity
  8
SCHRAFF
100
AcDbCircle
 10
113.5782371760593
 20
147.681762956551
 30
0.0
 40
2.870677702097287
100
AcDbArc
 50
280.8371916253666
 51
9.162808374632023
  0
HATCH
  5
B23
330
1E
100
AcDbEntity
  8
SCHRAFF
100
AcDbHatch
 10
0.0
 20
0.0
 30
0.0
210
0.0
220
0.0
230
1.0
  2
_USER
 70
     0
 71
     1
 91
        1
 92
        7
 72
     1
 73
     1
 93
        3
 10
116.4122845673145
 20
148.1388907870735
 42
0.0
 10
114.1179788219103
 20
147.3038317874405
 42
0.0
 10
114.1179788219103
 20
144.8622826099175
 42
0.4056798699633414
 97
        3
330
89F
330
92E
330
B1E
 75
     0
 76
     0
 52
0.0
 41
0.1
 77
     0
 78
     1
 53
0.0
 43
0.0
 44
0.0
 45
0.0
 46
0.1
 79
     0
 47
0.0356612871337278
 98
        1
 10
115.1534487018468
 20
146.4362571934803
  0
DIMENSION
  5
B24
330
1E
100
AcDbEntity
  8
BEM
100
AcDbDimension
  2
*D5
 10
87.61797882190988
 20
90.85933154999766
 30
0.0
 11
153.3187657878097
 21
259.6897794967357
 31
0.0
 70
    34
 71
     5
 42
1.221730476396029
  3
Standard
100
AcDb2LineAngularDimension
 13
184.4063187628585
 23
201.0874063125415
 33
0.0
 14
87.61797882190984
 24
165.8593315499976
 34
0.0
 15
87.61797882190982
 25
268.8593315499976
 35
0.0
 16
168.5716294390848
 26
242.2351618190743
 36
0.0
1001
ACAD
1000
DSTYLE
1002
{
1070
    41
1040
3.5
1070
    42
1040
1.0
1070
    43
1040
7.0
1070
    44
1040
1.0
1070
    73
1070
     0
1070
    74
1070
     0
1070
    77
1070
     1
1070
    78
1070
     8
1070
    79
1070
     2
1070
   140
1040
3.5
1070
   141
1040
1.5
1070
   146
1040
0.5142857142857144
1070
   147
1040
1.5
1070
   172
1070
     1
1070
   178
1070
     1
1070
   179
1070
     2
1070
   271
1070
     2
1070
   272
1070
     2
1070
   284
1070
     8
1070
   285
1070
     8
1070
   286
1070
     8
1002
}
  0
DIMENSION
  5
B48
330
1E
100
AcDbEntity
  8
BEM
100
AcDbDimension
  2
*D6
 10
193.3695458771371
 20
161.8421202098025
 30
0.0
 11
146.2130419928191
 21
148.1371342043988
 31
0.0
 70
    32
 71
     5
 42
98.00000000000011
 51
357.0
  3
Standard
100
AcDbAlignedDimension
 13
87.61797882190988
 23
165.8593315499976
 33
0.0
 14
189.6323371895694
 24
172.1100166906843
 34
0.0
 50
20.00000000000009
100
AcDbRotatedDimension
1001
ACAD
1000
DSTYLE
1002
{
1070
    41
1040
3.5
1070
    42
1040
1.0
1070
    43
1040
7.0
1070
    44
1040
1.0
1070
    73
1070
     0
1070
    74
1070
     0
1070
    77
1070
     1
1070
    78
1070
     8
1070
    79
1070
     2
1070
   140
1040
3.5
1070
   141
1040
1.5
1070
   146
1040
0.5142857142857144
1070
   147
1040
1.5
1070
   172
1070
     1
1070
   178
1070
     1
1070
   179
1070
     2
1070
   271
1070
     2
1070
   272
1070
     2
1070
   284
1070
     8
1070
   285
1070
     8
1070
   286
1070
     8
1002
}
  0
ENDSEC
  0
SECTION
  2
OBJECTS
  0
DICTIONARY
  5
C
330
0
100
AcDbDictionary
281
     1
  3
ACAD_COLOR
350
A04
  3
ACAD_GROUP
350
D
  3
ACAD_LAYOUT
350
19
  3
ACAD_MATERIAL
350
A03
  3
ACAD_MLINESTYLE
350
16
  3
ACAD_PLOTSETTINGS
350
18
  3
ACAD_PLOTSTYLENAME
350
E
  3
AcDbVariableDictionary
350
246
  0
DICTIONARY
  5
A04
102
{ACAD_REACTORS
330
C
102
}
330
C
100
AcDbDictionary
281
     1
  0
DICTIONARY
  5
D
102
{ACAD_REACTORS
330
C
102
}
330
C
100
AcDbDictionary
281
     1
  0
DICTIONARY
  5
19
102
{ACAD_REACTORS
330
C
102
}
330
C
100
AcDbDictionary
281
     1
  3
Layout1
350
1D
  3
Model
350
21
  0
DICTIONARY
  5
A03
102
{ACAD_REACTORS
330
C
102
}
330
C
100
AcDbDictionary
281
     1
  0
DICTIONARY
  5
16
102
{ACAD_REACTORS
330
C
102
}
330
C
100
AcDbDictionary
281
     1
  3
Standard
350
17
  0
DICTIONARY
  5
18
102
{ACAD_REACTORS
330
C
102
}
330
C
100
AcDbDictionary
281
     1
  0
ACDBDICTIONARYWDFLT
  5
E
102
{ACAD_REACTORS
330
C
102
}
330
C
100
AcDbDictionary
281
     1
  3
Normal
350
F
100
AcDbDictionaryWithDefault
340
F
  0
DICTIONARY
  5
246
102
{ACAD_REACTORS
330
C
102
}
330
C
100
AcDbDictionary
281
     1
  3
DIMASSOC
350
A2D
  3
PROJECTNAME
350
A2E
  3
SORTENTS
350
247
  0
LAYOUT
  5
1D
102
{ACAD_REACTORS
330
19
102
}
330
19
100
AcDbPlotSettings
  1

  2
Tektronix Phaser 740
  4

  6

 40
0.0
 41
0.0
 42
0.0
 43
0.0
 44
0.0
 45
0.0
 46
0.0
 47
0.0
 48
0.0
 49
0.0
140
0.0
141
0.0
142
1.0
143
1.0
 70
   688
 72
     0
 73
     0
 74
     5
  7
monochrome.ctb
 75
    16
147
1.0
 76
     0
 77
     2
 78
   300
148
0.0
149
0.0
100
AcDbLayout
  1
Layout1
 70
     0
 71
     1
 10
0.0
 20
0.0
 11
12.0
 21
9.0
 12
0.0
 22
0.0
 32
0.0
 14
1.000000000000000E+20
 24
1.000000000000000E+20
 34
1.000000000000000E+20
 15
-1.000000000000000E+20
 25
-1.000000000000000E+20
 35
-1.000000000000000E+20
146
0.0
 13
0.0
 23
0.0
 33
0.0
 16
1.0
 26
0.0
 36
0.0
 17
0.0
 27
1.0
 37
0.0
 76
     0
330
1A
  0
LAYOUT
  5
21
102
{ACAD_REACTORS
330
19
102
}
330
19
100
AcDbPlotSettings
  1

  2
Tektronix Phaser 740
  4
A4
  6

 40
5.873749732971191
 41
6.085414409637451
 42
5.577407836914062
 43
5.662078857421875
 44
209.9733276367187
 45
296.9683227539062
 46
0.0
 47
0.0
 48
0.0
 49
0.0
140
0.0
141
0.0
142
1.0
143
1.0
 70
 11952
 72
     0
 73
     1
 74
     0
  7
monochrome.ctb
 75
     0
147
1.0
 76
     0
 77
     2
 78
   300
148
1150.120678237584
149
45.30495740799864
100
AcDbLayout
  1
Model
 70
     1
 71
     0
 10
0.0
 20
0.0
 11
12.0
 21
9.0
 12
0.0
 22
0.0
 32
0.0
 14
0.0
 24
0.0
 34
0.0
 15
0.0
 25
0.0
 35
0.0
146
0.0
 13
0.0
 23
0.0
 33
0.0
 16
1.0
 26
0.0
 36
0.0
 17
0.0
 27
1.0
 37
0.0
 76
     0
330
1E
  0
MLINESTYLE
  5
17
102
{ACAD_REACTORS
330
16
102
}
330
16
100
AcDbMlineStyle
  2
STANDARD
 70
     0
  3

 62
   256
 51
90.0
 52
90.0
 71
     2
 49
0.5
 62
   256
  6
BYLAYER
 49
-0.5
 62
   256
  6
BYLAYER
  0
ACDBPLACEHOLDER
  5
F
102
{ACAD_REACTORS
330
E
102
}
330
E
  0
DICTIONARYVAR
  5
A2D
102
{ACAD_REACTORS
330
246
102
}
330
246
100
DictionaryVariables
280
     0
  1
1
  0
DICTIONARYVAR
  5
A2E
102
{ACAD_REACTORS
330
246
102
}
330
246
100
DictionaryVariables
280
     0
  1

  0
DICTIONARYVAR
  5
247
102
{ACAD_REACTORS
330
246
102
}
330
246
100
DictionaryVariables
280
     0
  1
96
  0
ENDSEC
  0
EOF
