  0
SECTION
  2
HEADER
  9
$ACADVER
  1
AC1018
  9
$ACADMAINTVER
 70
     2
  9
$DWGCODEPAGE
  3
ANSI_1252
  9
$INSBASE
 10
0.0
 20
0.0
 30
0.0
  9
$EXTMIN
 10
-0.0063978361731643
 20
-0.0090483683025013
 30
-0.0000000000000053
  9
$EXTMAX
 10
420.0064129945077
 20
594.0090698065175
 30
0.0000000000000099
  9
$LIMMIN
 10
0.0
 20
0.0
  9
$LIMMAX
 10
419.9999999999999
 20
594.0
  9
$ORTHOMODE
 70
     1
  9
$REGENMODE
 70
     1
  9
$FILLMODE
 70
     1
  9
$QTEXTMODE
 70
     0
  9
$MIRRTEXT
 70
     1
  9
$LTSCALE
 40
20.0
  9
$ATTMODE
 70
     1
  9
$TEXTSIZE
 40
3.5
  9
$TRACEWID
 40
0.5
  9
$TEXTSTYLE
  7
STANDARD
  9
$CLAYER
  8
BEM
  9
$CELTYPE
  6
ByLayer
  9
$CECOLOR
 62
   256
  9
$CELTSCALE
 40
1.0
  9
$DISPSILH
 70
     0
  9
$DIMSCALE
 40
2.0
  9
$DIMASZ
 40
3.5
  9
$DIMEXO
 40
1.0
  9
$DIMDLI
 40
7.0
  9
$DIMRND
 40
0.0
  9
$DIMDLE
 40
0.0
  9
$DIMEXE
 40
1.0
  9
$DIMTP
 40
0.0
  9
$DIMTM
 40
0.0
  9
$DIMTXT
 40
3.5
  9
$DIMCEN
 40
1.5
  9
$DIMTSZ
 40
0.0
  9
$DIMTOL
 70
     0
  9
$DIMLIM
 70
     0
  9
$DIMTIH
 70
     0
  9
$DIMTOH
 70
     0
  9
$DIMSE1
 70
     0
  9
$DIMSE2
 70
     0
  9
$DIMTAD
 70
     1
  9
$DIMZIN
 70
     8
  9
$DIMBLK
  1

  9
$DIMASO
 70
     1
  9
$DIMSHO
 70
     0
  9
$DIMPOST
  1

  9
$DIMAPOST
  1

  9
$DIMALT
 70
     0
  9
$DIMALTD
 70
     2
  9
$DIMALTF
 40
25.4
  9
$DIMLFAC
 40
1.0
  9
$DIMTOFL
 70
     1
  9
$DIMTVP
 40
0.0
  9
$DIMTIX
 70
     0
  9
$DIMSOXD
 70
     0
  9
$DIMSAH
 70
     0
  9
$DIMBLK1
  1

  9
$DIMBLK2
  1

  9
$DIMSTYLE
  2
Standard
  9
$DIMCLRD
 70
     0
  9
$DIMCLRE
 70
     0
  9
$DIMCLRT
 70
     1
  9
$DIMTFAC
 40
0.5142857142857144
  9
$DIMGAP
 40
1.5
  9
$DIMJUST
 70
     0
  9
$DIMSD1
 70
     0
  9
$DIMSD2
 70
     0
  9
$DIMTOLJ
 70
     1
  9
$DIMTZIN
 70
     8
  9
$DIMALTZ
 70
     8
  9
$DIMALTTZ
 70
     8
  9
$DIMUPT
 70
     0
  9
$DIMDEC
 70
     2
  9
$DIMTDEC
 70
     2
  9
$DIMALTU
 70
     2
  9
$DIMALTTD
 70
     2
  9
$DIMTXSTY
  7
STANDARD
  9
$DIMAUNIT
 70
     0
  9
$DIMADEC
 70
     2
  9
$DIMALTRND
 40
0.0
  9
$DIMAZIN
 70
     2
  9
$DIMDSEP
 70
    46
  9
$DIMATFIT
 70
     3
  9
$DIMFRAC
 70
     0
  9
$DIMLDRBLK
  1

  9
$DIMLUNIT
 70
     2
  9
$DIMLWD
 70
    -2
  9
$DIMLWE
 70
    -2
  9
$DIMTMOVE
 70
     0
  9
$LUNITS
 70
     2
  9
$LUPREC
 70
     2
  9
$SKETCHINC
 40
1.0
  9
$FILLETRAD
 40
0.0
  9
$AUNITS
 70
     1
  9
$AUPREC
 70
     3
  9
$MENU
  1
ACAD
  9
$ELEVATION
 40
0.0
  9
$PELEVATION
 40
0.0
  9
$THICKNESS
 40
0.0
  9
$LIMCHECK
 70
     0
  9
$CHAMFERA
 40
0.0
  9
$CHAMFERB
 40
0.0
  9
$CHAMFERC
 40
0.0
  9
$CHAMFERD
 40
0.0
  9
$SKPOLY
 70
     0
  9
$TDCREATE
 40
2452040.637099653
  9
$TDUCREATE
 40
2452040.553766320
  9
$TDUPDATE
 40
2455666.365968484
  9
$TDUUPDATE
 40
2455666.282635151
  9
$TDINDWG
 40
0.3642754514
  9
$TDUSRTIMER
 40
0.3642754514
  9
$USRTIMER
 70
     1
  9
$ANGBASE
 50
0.0
  9
$ANGDIR
 70
     0
  9
$PDMODE
 70
     0
  9
$PDSIZE
 40
0.0
  9
$PLINEWID
 40
0.0
  9
$SPLFRAME
 70
     0
  9
$SPLINETYPE
 70
     6
  9
$SPLINESEGS
 70
     8
  9
$HANDSEED
  5
1163
  9
$SURFTAB1
 70
     6
  9
$SURFTAB2
 70
     6
  9
$SURFTYPE
 70
     6
  9
$SURFU
 70
     6
  9
$SURFV
 70
     6
  9
$UCSBASE
  2

  9
$UCSNAME
  2

  9
$UCSORG
 10
0.0
 20
0.0
 30
0.0
  9
$UCSXDIR
 10
1.0
 20
0.0
 30
0.0
  9
$UCSYDIR
 10
0.0
 20
1.0
 30
0.0
  9
$UCSORTHOREF
  2

  9
$UCSORTHOVIEW
 70
     0
  9
$UCSORGTOP
 10
0.0
 20
0.0
 30
0.0
  9
$UCSORGBOTTOM
 10
0.0
 20
0.0
 30
0.0
  9
$UCSORGLEFT
 10
0.0
 20
0.0
 30
0.0
  9
$UCSORGRIGHT
 10
0.0
 20
0.0
 30
0.0
  9
$UCSORGFRONT
 10
0.0
 20
0.0
 30
0.0
  9
$UCSORGBACK
 10
0.0
 20
0.0
 30
0.0
  9
$PUCSBASE
  2

  9
$PUCSNAME
  2

  9
$PUCSORG
 10
0.0
 20
0.0
 30
0.0
  9
$PUCSXDIR
 10
1.0
 20
0.0
 30
0.0
  9
$PUCSYDIR
 10
0.0
 20
1.0
 30
0.0
  9
$PUCSORTHOREF
  2

  9
$PUCSORTHOVIEW
 70
     0
  9
$PUCSORGTOP
 10
0.0
 20
0.0
 30
0.0
  9
$PUCSORGBOTTOM
 10
0.0
 20
0.0
 30
0.0
  9
$PUCSORGLEFT
 10
0.0
 20
0.0
 30
0.0
  9
$PUCSORGRIGHT
 10
0.0
 20
0.0
 30
0.0
  9
$PUCSORGFRONT
 10
0.0
 20
0.0
 30
0.0
  9
$PUCSORGBACK
 10
0.0
 20
0.0
 30
0.0
  9
$USERI1
 70
     0
  9
$USERI2
 70
     0
  9
$USERI3
 70
     0
  9
$USERI4
 70
     0
  9
$USERI5
 70
     0
  9
$USERR1
 40
0.0
  9
$USERR2
 40
0.0
  9
$USERR3
 40
0.0
  9
$USERR4
 40
0.0
  9
$USERR5
 40
0.0
  9
$WORLDVIEW
 70
     1
  9
$SHADEDGE
 70
     3
  9
$SHADEDIF
 70
    70
  9
$TILEMODE
 70
     1
  9
$MAXACTVP
 70
    16
  9
$PINSBASE
 10
0.0
 20
0.0
 30
0.0
  9
$PLIMCHECK
 70
     0
  9
$PEXTMIN
 10
1.000000000000000E+20
 20
1.000000000000000E+20
 30
1.000000000000000E+20
  9
$PEXTMAX
 10
-1.000000000000000E+20
 20
-1.000000000000000E+20
 30
-1.000000000000000E+20
  9
$PLIMMIN
 10
0.0
 20
0.0
  9
$PLIMMAX
 10
12.0
 20
9.0
  9
$UNITMODE
 70
     0
  9
$VISRETAIN
 70
     0
  9
$PLINEGEN
 70
     0
  9
$PSLTSCALE
 70
     0
  9
$TREEDEPTH
 70
  3020
  9
$CMLSTYLE
  2
Standard
  9
$CMLJUST
 70
     0
  9
$CMLSCALE
 40
1.0
  9
$PROXYGRAPHICS
 70
     1
  9
$MEASUREMENT
 70
     0
  9
$CELWEIGHT
370
    -1
  9
$ENDCAPS
280
     0
  9
$JOINSTYLE
280
     0
  9
$LWDISPLAY
290
     0
  9
$INSUNITS
 70
     0
  9
$HYPERLINKBASE
  1

  9
$STYLESHEET
  1
monochrome 1.ctb
  9
$XEDIT
290
     1
  9
$CEPSNTYPE
380
     0
  9
$PSTYLEMODE
290
     1
  9
$FINGERPRINTGUID
  2
{7AADB5C8-6110-11D8-B72B-000102183313}
  9
$VERSIONGUID
  2
{8AB44E60-F358-4AD2-8F5B-BC9F70852934}
  9
$EXTNAMES
290
     1
  9
$PSVPSCALE
 40
0.0
  9
$OLESTARTUP
290
     0
  9
$SORTENTS
280
    96
  9
$INDEXCTL
280
     0
  9
$HIDETEXT
280
     0
  9
$XCLIPFRAME
290
     0
  9
$HALOGAP
280
     0
  9
$OBSCOLOR
 70
   257
  9
$OBSLTYPE
280
     0
  9
$INTERSECTIONDISPLAY
280
     0
  9
$INTERSECTIONCOLOR
 70
   257
  9
$DIMASSOC
280
     1
  9
$PROJECTNAME
  1

  0
ENDSEC
  0
SECTION
  2
CLASSES
  0
CLASS
  1
ACDBDICTIONARYWDFLT
  2
AcDbDictionaryWithDefault
  3
ObjectDBX Classes
 90
        0
 91
        1
280
     0
281
     0
  0
CLASS
  1
DICTIONARYVAR
  2
AcDbDictionaryVar
  3
ObjectDBX Classes
 90
        0
 91
        3
280
     0
281
     0
  0
ENDSEC
  0
SECTION
  2
TABLES
  0
TABLE
  2
VPORT
  5
8
330
0
100
AcDbSymbolTable
 70
     3
  0
VPORT
  5
1162
330
8
100
AcDbSymbolTableRecord
100
AcDbViewportTableRecord
  2
*Active
 70
     0
 10
0.0
 20
0.0
 11
1.0
 21
1.0
 12
210.0
 22
297.0
 13
0.0
 23
0.0
 14
1.0
 24
1.0
 15
10.0
 25
10.0
 16
0.0
 26
0.0
 36
1.0
 17
0.0
 27
0.0
 37
0.0
 40
594.0
 41
1.334231805929919
 42
50.0
 43
0.0
 44
0.0
 50
0.0
 51
0.0
 71
     0
 72
  1500
 73
     1
 74
     0
 75
     0
 76
     0
 77
     0
 78
     0
281
     0
 65
     1
110
0.0
120
0.0
130
0.0
111
1.0
121
0.0
131
0.0
112
0.0
122
1.0
132
0.0
 79
     0
146
0.0
  0
ENDTAB
  0
TABLE
  2
LTYPE
  5
5
330
0
100
AcDbSymbolTable
 70
     2
  0
LTYPE
  5
13
330
5
100
AcDbSymbolTableRecord
100
AcDbLinetypeTableRecord
  2
ByBlock
 70
     0
  3

 72
    65
 73
     0
 40
0.0
  0
LTYPE
  5
14
330
5
100
AcDbSymbolTableRecord
100
AcDbLinetypeTableRecord
  2
ByLayer
 70
     0
  3

 72
    65
 73
     0
 40
0.0
  0
LTYPE
  5
15
330
5
100
AcDbSymbolTableRecord
100
AcDbLinetypeTableRecord
  2
Continuous
 70
     0
  3
Solid line
 72
    65
 73
     0
 40
0.0
  0
LTYPE
  5
35
330
5
100
AcDbSymbolTableRecord
100
AcDbLinetypeTableRecord
  2
STRICHPUNKT
 70
     0
  3
__ . __ . __ . __ . __ . __ . __ . __ . __ . __
 72
    65
 73
     4
 40
1.0
 49
0.5
 74
     0
 49
-0.25
 74
     0
 49
0.0
 74
     0
 49
-0.25
 74
     0
  0
ENDTAB
  0
TABLE
  2
LAYER
  5
2
330
0
100
AcDbSymbolTable
 70
     9
  0
LAYER
  5
10
330
2
100
AcDbSymbolTableRecord
100
AcDbLayerTableRecord
  2
0
 70
     0
 62
     7
  6
Continuous
370
    -3
390
F
  0
LAYER
  5
38
330
2
100
AcDbSymbolTableRecord
100
AcDbLayerTableRecord
  2
VOLL
 70
     0
 62
     1
  6
Continuous
370
    -3
390
F
  0
LAYER
  5
39
330
2
100
AcDbSymbolTableRecord
100
AcDbLayerTableRecord
  2
HILF
 70
     0
 62
     2
  6
Continuous
370
    -3
390
F
  0
LAYER
  5
3A
330
2
100
AcDbSymbolTableRecord
100
AcDbLayerTableRecord
  2
MITTEL
 70
     0
 62
     2
  6
STRICHPUNKT
370
    -3
390
F
  0
LAYER
  5
3B
330
2
100
AcDbSymbolTableRecord
100
AcDbLayerTableRecord
  2
BEM
 70
     0
 62
     7
  6
Continuous
370
    -3
390
F
  0
LAYER
  5
3C
330
2
100
AcDbSymbolTableRecord
100
AcDbLayerTableRecord
  2
STEMPEL
 70
     0
 62
     3
  6
Continuous
370
    -3
390
F
  0
LAYER
  5
3D
330
2
100
AcDbSymbolTableRecord
100
AcDbLayerTableRecord
  2
TEXT
 70
     0
 62
     7
  6
Continuous
370
    -3
390
F
  0
LAYER
  5
3E
330
2
100
AcDbSymbolTableRecord
100
AcDbLayerTableRecord
  2
DEFPOINTS
 70
     0
 62
     7
  6
Continuous
290
     0
370
    -3
390
F
  0
LAYER
  5
3F
330
2
100
AcDbSymbolTableRecord
100
AcDbLayerTableRecord
  2
SCHRAFF
 70
     0
 62
     7
  6
Continuous
370
    -3
390
F
  0
ENDTAB
  0
TABLE
  2
STYLE
  5
3
330
0
100
AcDbSymbolTable
 70
     2
  0
STYLE
  5
11
330
3
100
AcDbSymbolTableRecord
100
AcDbTextStyleTableRecord
  2
STANDARD
 70
     0
 40
0.0
 41
0.8
 50
0.0
 71
     0
 42
3.5
  3
simplex.shx
  4

  0
STYLE
  5
34
330
3
100
AcDbSymbolTableRecord
100
AcDbTextStyleTableRecord
  2
GREEKS
 70
     0
 40
0.0
 41
0.8
 50
0.0
 71
     0
 42
2.5
  3
SIMPLEX.shx
  4

  0
ENDTAB
  0
TABLE
  2
VIEW
  5
6
330
0
100
AcDbSymbolTable
 70
     0
  0
ENDTAB
  0
TABLE
  2
UCS
  5
7
330
0
100
AcDbSymbolTable
 70
     0
  0
ENDTAB
  0
TABLE
  2
APPID
  5
9
330
0
100
AcDbSymbolTable
 70
     1
  0
APPID
  5
12
330
9
100
AcDbSymbolTableRecord
100
AcDbRegAppTableRecord
  2
ACAD
 70
     0
  0
ENDTAB
  0
TABLE
  2
DIMSTYLE
  5
A
330
0
100
AcDbSymbolTable
 70
     1
100
AcDbDimStyleTable
 71
     1
340
1CB
  0
DIMSTYLE
105
1CB
102
{ACAD_REACTORS
330
1DB
330
D41
330
E1B
330
1099
330
10AC
102
}
330
A
100
AcDbSymbolTableRecord
100
AcDbDimStyleTableRecord
  2
Standard
 70
     0
340
11
  0
ENDTAB
  0
TABLE
  2
BLOCK_RECORD
  5
1
330
0
100
AcDbSymbolTable
 70
     7
  0
BLOCK_RECORD
  5
1E
330
1
100
AcDbSymbolTableRecord
100
AcDbBlockTableRecord
  2
*Model_Space
340
21
  0
BLOCK_RECORD
  5
1A
330
1
100
AcDbSymbolTableRecord
100
AcDbBlockTableRecord
  2
*Paper_Space
340
1D
  0
BLOCK_RECORD
  5
22
330
1
100
AcDbSymbolTableRecord
100
AcDbBlockTableRecord
  2
LOGO
340
0
102
{BLKREFS
331
135
102
}
  0
BLOCK_RECORD
  5
1DC
330
1
100
AcDbSymbolTableRecord
100
AcDbBlockTableRecord
  2
*D1
340
0
  0
BLOCK_RECORD
  5
D42
330
1
100
AcDbSymbolTableRecord
100
AcDbBlockTableRecord
  2
*D3
340
0
  0
BLOCK_RECORD
  5
E1C
330
1
100
AcDbSymbolTableRecord
100
AcDbBlockTableRecord
  2
*D4
340
0
  0
BLOCK_RECORD
  5
109A
330
1
100
AcDbSymbolTableRecord
100
AcDbBlockTableRecord
  2
*D5
340
0
  0
BLOCK_RECORD
  5
10AD
330
1
100
AcDbSymbolTableRecord
100
AcDbBlockTableRecord
  2
*D6
340
0
  0
ENDTAB
  0
ENDSEC
  0
SECTION
  2
BLOCKS
  0
BLOCK
  5
43
330
1E
100
AcDbEntity
  8
0
100
AcDbBlockBegin
  2
*Model_Space
 70
     0
 10
0.0
 20
0.0
 30
0.0
  3
*Model_Space
  1

  0
ENDBLK
  5
44
330
1E
100
AcDbEntity
  8
0
100
AcDbBlockEnd
  0
BLOCK
  5
41
330
1A
100
AcDbEntity
 67
     1
  8
0
100
AcDbBlockBegin
  2
*Paper_Space
 70
     0
 10
0.0
 20
0.0
 30
0.0
  3
*Paper_Space
  1

  0
ENDBLK
  5
42
330
1A
100
AcDbEntity
 67
     1
  8
0
100
AcDbBlockEnd
  0
BLOCK
  5
45
330
22
100
AcDbEntity
  8
0
100
AcDbBlockBegin
  2
LOGO
 70
     0
 10
0.0
 20
0.0
 30
0.0
  3
LOGO
  1

  0
ARC
  5
46
330
22
100
AcDbEntity
  8
0
100
AcDbCircle
 10
11.59973089678112
 20
-9.271599258481501
 30
0.0
 40
4.5
100
AcDbArc
 50
270.0
 51
231.0575587310159
  0
LINE
  5
47
330
22
100
AcDbEntity
  8
0
100
AcDbLine
 10
3.599730896781125
 20
-4.771599258481529
 30
0.0
 11
3.599730896781153
 21
-11.77159925848133
 31
0.0
  0
LINE
  5
48
330
22
100
AcDbEntity
  8
0
100
AcDbLine
 10
2.599730896781125
 20
-4.771599258481529
 30
0.0
 11
2.599730896781153
 21
-11.77159925848133
 31
0.0
  0
CIRCLE
  5
49
330
22
100
AcDbEntity
  8
0
100
AcDbCircle
 10
11.59973089678112
 20
-9.271599258481501
 30
0.0
 40
3.5
  0
ARC
  5
4A
330
22
100
AcDbEntity
  8
0
100
AcDbCircle
 10
31.59973089678115
 20
-9.271599258481472
 30
0.0
 40
4.5
100
AcDbArc
 50
270.0
 51
231.0575587310182
  0
LINE
  5
4B
330
22
100
AcDbEntity
  8
0
100
AcDbLine
 10
17.59973089678112
 20
-4.771599258481472
 30
0.0
 11
17.59973089678115
 21
-13.77159925848147
 31
0.0
  0
ARC
  5
4C
330
22
100
AcDbEntity
  8
0
100
AcDbCircle
 10
22.59973089678116
 20
-7.271599258481472
 30
0.0
 40
2.5
100
AcDbArc
 50
293.1161887722295
 51
90.0
  0
CIRCLE
  5
4D
330
22
100
AcDbEntity
  8
0
100
AcDbCircle
 10
31.59973089678115
 20
-9.271599258481472
 30
0.0
 40
3.5
  0
ARC
  5
4E
330
22
100
AcDbEntity
  8
0
100
AcDbCircle
 10
4.599730896781153
 20
-11.77159925848133
 30
0.0
 40
1.0
100
AcDbArc
 50
180.0
 51
270.0
  0
ARC
  5
4F
330
22
100
AcDbEntity
  8
0
100
AcDbCircle
 10
4.599730896781153
 20
-11.77159925848133
 30
0.0
 40
2.0
100
AcDbArc
 50
179.9999999999992
 51
270.0
  0
LINE
  5
50
330
22
100
AcDbEntity
  8
0
100
AcDbLine
 10
11.59973089678115
 20
-13.77159925848144
 30
0.0
 11
4.599730896781153
 21
-13.77159925848147
 31
0.0
  0
LINE
  5
51
330
22
100
AcDbEntity
  8
0
100
AcDbLine
 10
8.771303772034769
 20
-12.77159925848136
 30
0.0
 11
4.599730896781153
 21
-12.77159925848133
 31
0.0
  0
LINE
  5
52
330
22
100
AcDbEntity
  8
0
100
AcDbLine
 10
31.59973089678115
 20
-13.77159925848147
 30
0.0
 11
23.6715276665056
 21
-13.77159925848144
 31
0.0
  0
LINE
  5
53
330
22
100
AcDbEntity
  8
0
100
AcDbLine
 10
23.56565672307022
 20
-9.51278021337896
 30
0.0
 11
24.4388546544846
 21
-12.77159925848144
 31
0.0
  0
LINE
  5
54
330
22
100
AcDbEntity
  8
0
100
AcDbLine
 10
22.59973089678116
 20
-9.771599258481472
 30
0.0
 11
18.59973089678112
 21
-9.771599258481472
 31
0.0
  0
LINE
  5
55
330
22
100
AcDbEntity
  8
0
100
AcDbLine
 10
18.59973089678115
 20
-13.77159925848144
 30
0.0
 11
17.59973089678115
 21
-13.77159925848144
 31
0.0
  0
LINE
  5
56
330
22
100
AcDbEntity
  8
0
100
AcDbLine
 10
18.59973089678115
 20
-9.771599258481472
 30
0.0
 11
18.59973089678115
 21
-13.77159925848144
 31
0.0
  0
LINE
  5
57
330
22
100
AcDbEntity
  8
0
100
AcDbLine
 10
22.59973089678116
 20
-9.771599258481472
 30
0.0
 11
23.67152766650562
 21
-13.77159925848147
 31
0.0
  0
ARC
  5
58
330
22
100
AcDbEntity
  8
0
100
AcDbCircle
 10
22.59973089678116
 20
-7.271599258481472
 30
0.0
 40
2.5
100
AcDbArc
 50
270.0
 51
270.0000000000007
  0
LINE
  5
59
330
22
100
AcDbEntity
  8
0
100
AcDbLine
 10
28.77130377203494
 20
-12.77159925848147
 30
0.0
 11
24.43885465448463
 21
-12.77159925848144
 31
0.0
  0
LINE
  5
5A
330
22
100
AcDbEntity
  8
0
100
AcDbLine
 10
3.599730896781125
 20
-4.771599258481472
 30
0.0
 11
2.599730896781125
 21
-4.771599258481472
 31
0.0
  0
LINE
  5
5B
330
22
100
AcDbEntity
  8
0
100
AcDbLine
 10
22.59973089678116
 20
-8.771599258481472
 30
0.0
 11
18.59973089678115
 21
-8.771599258481472
 31
0.0
  0
LINE
  5
5C
330
22
100
AcDbEntity
  8
0
100
AcDbLine
 10
22.59973089678116
 20
-5.771599258481472
 30
0.0
 11
18.59973089678115
 21
-5.771599258481472
 31
0.0
  0
LINE
  5
5D
330
22
100
AcDbEntity
  8
0
100
AcDbLine
 10
22.59973089678116
 20
-4.771599258481472
 30
0.0
 11
17.59973089678115
 21
-4.771599258481472
 31
0.0
  0
LINE
  5
5E
330
22
100
AcDbEntity
  8
0
100
AcDbLine
 10
18.59973089678115
 20
-5.771599258481472
 30
0.0
 11
18.59973089678115
 21
-8.771599258481472
 31
0.0
  0
ARC
  5
5F
330
22
100
AcDbEntity
  8
0
100
AcDbCircle
 10
22.59973089678116
 20
-7.271599258481472
 30
0.0
 40
1.5
100
AcDbArc
 50
270.0
 51
90.0
  0
ENDBLK
  5
60
330
22
100
AcDbEntity
  8
0
100
AcDbBlockEnd
  0
BLOCK
  5
1E6
330
1DC
100
AcDbEntity
  8
0
100
AcDbBlockBegin
  2
*D1
 70
     1
 10
0.0
 20
0.0
 30
0.0
  3
*D1
  1

  0
LINE
  5
10CB
330
1DC
100
AcDbEntity
  8
BEM
 62
     0
370
    -2
100
AcDbLine
 10
164.0501468179841
 20
232.9398643287417
 30
0.0
 11
126.5410283364978
 21
232.9398643287417
 31
0.0
  0
LINE
  5
10CC
330
1DC
100
AcDbEntity
  8
BEM
 62
     0
370
    -2
100
AcDbLine
 10
160.8220656117742
 20
462.9431572330718
 30
0.0
 11
126.5410283364979
 21
462.9431572330719
 31
0.0
  0
LINE
  5
10CD
330
1DC
100
AcDbEntity
  8
BEM
 62
     0
370
    -2
100
AcDbLine
 10
128.5410283364978
 20
239.9398643287417
 30
0.0
 11
128.5410283364979
 21
455.9431572330717
 31
0.0
  0
SOLID
  5
10CE
330
1DC
100
AcDbEntity
  8
BEM
 62
     0
100
AcDbTrace
 10
127.3743616698312
 20
239.9398643287417
 30
0.0
 11
129.7076950031645
 21
239.9398643287417
 31
0.0
 12
128.5410283364978
 22
232.9398643287417
 32
0.0
 13
128.5410283364978
 23
232.9398643287417
 33
0.0
  0
SOLID
  5
10CF
330
1DC
100
AcDbEntity
  8
BEM
 62
     0
100
AcDbTrace
 10
127.3743616698312
 20
455.9431572330718
 30
0.0
 11
129.7076950031646
 21
455.9431572330717
 31
0.0
 12
128.5410283364979
 22
462.9431572330718
 32
0.0
 13
128.5410283364979
 23
462.9431572330718
 33
0.0
  0
MTEXT
  5
10D0
330
1DC
100
AcDbEntity
  8
BEM
 62
     1
100
AcDbMText
 10
122.0410283364978
 20
347.9415107809068
 30
0.0
 40
7.0
 41
0.0
 71
     5
 72
     1
  1
\A1;230
 11
0.0000000000000001
 21
1.0
 31
0.0
 73
     1
 44
1.0
  0
POINT
  5
10D1
330
1DC
100
AcDbEntity
  8
DEFPOINTS
 62
     0
100
AcDbPoint
 10
166.0501468179842
 20
232.9398643287417
 30
0.0
  0
POINT
  5
10D2
330
1DC
100
AcDbEntity
  8
DEFPOINTS
 62
     0
100
AcDbPoint
 10
162.8220656117742
 20
462.9431572330718
 30
0.0
  0
POINT
  5
10D3
330
1DC
100
AcDbEntity
  8
DEFPOINTS
 62
     0
100
AcDbPoint
 10
128.5410283364979
 20
462.9431572330718
 30
0.0
  0
ENDBLK
  5
1E7
330
1DC
100
AcDbEntity
  8
0
100
AcDbBlockEnd
  0
BLOCK
  5
D4C
330
D42
100
AcDbEntity
  8
0
100
AcDbBlockBegin
  2
*D3
 70
     1
 10
0.0
 20
0.0
 30
0.0
  3
*D3
  1

  0
LINE
  5
E06
330
D42
100
AcDbEntity
  8
BEM
 62
     0
370
    -2
100
AcDbLine
 10
165.6127035003545
 20
235.9398643287419
 30
0.0
 11
165.6127035003545
 21
210.0242363893328
 31
0.0
  0
LINE
  5
E07
330
D42
100
AcDbEntity
  8
BEM
 62
     0
370
    -2
100
AcDbLine
 10
238.6127035003545
 20
235.9398643287422
 30
0.0
 11
238.6127035003545
 21
210.0242363893328
 31
0.0
  0
LINE
  5
E08
330
D42
100
AcDbEntity
  8
BEM
 62
     0
370
    -2
100
AcDbLine
 10
172.6127035003545
 20
212.0242363893328
 30
0.0
 11
231.6127035003546
 21
212.0242363893328
 31
0.0
  0
SOLID
  5
E09
330
D42
100
AcDbEntity
  8
BEM
 62
     0
100
AcDbTrace
 10
172.6127035003545
 20
213.1909030559995
 30
0.0
 11
172.6127035003545
 21
210.8575697226662
 31
0.0
 12
165.6127035003545
 22
212.0242363893328
 32
0.0
 13
165.6127035003545
 23
212.0242363893328
 33
0.0
  0
SOLID
  5
E0A
330
D42
100
AcDbEntity
  8
BEM
 62
     0
100
AcDbTrace
 10
231.6127035003546
 20
213.1909030559995
 30
0.0
 11
231.6127035003546
 21
210.8575697226662
 31
0.0
 12
238.6127035003545
 22
212.0242363893328
 32
0.0
 13
238.6127035003545
 23
212.0242363893328
 33
0.0
  0
MTEXT
  5
E0B
330
D42
100
AcDbEntity
  8
BEM
 62
     1
100
AcDbMText
 10
202.1127035003545
 20
218.5242363893328
 30
0.0
 40
7.0
 41
0.0
 71
     5
 72
     1
  1
\A1;%%c73
 73
     1
 44
1.0
  0
POINT
  5
E0C
330
D42
100
AcDbEntity
  8
DEFPOINTS
 62
     0
100
AcDbPoint
 10
165.6127035003545
 20
237.9398643287419
 30
0.0
  0
POINT
  5
E0D
330
D42
100
AcDbEntity
  8
DEFPOINTS
 62
     0
100
AcDbPoint
 10
238.6127035003545
 20
237.9398643287423
 30
0.0
  0
POINT
  5
E0E
330
D42
100
AcDbEntity
  8
DEFPOINTS
 62
     0
100
AcDbPoint
 10
238.6127035003545
 20
212.0242363893328
 30
0.0
  0
ENDBLK
  5
D4D
330
D42
100
AcDbEntity
  8
0
100
AcDbBlockEnd
  0
BLOCK
  5
E26
330
E1C
100
AcDbEntity
  8
0
100
AcDbBlockBegin
  2
*D4
 70
     1
 10
0.0
 20
0.0
 30
0.0
  3
*D4
  1

  0
LINE
  5
E1D
330
E1C
100
AcDbEntity
  8
BEM
 62
     0
370
    -2
100
AcDbLine
 10
164.0501468179841
 20
232.9398643287417
 30
0.0
 11
141.6737904398751
 21
232.9398643287417
 31
0.0
  0
LINE
  5
E1E
330
E1C
100
AcDbEntity
  8
BEM
 62
     0
370
    -2
100
AcDbLine
 10
200.1127035003546
 20
342.9398643287417
 30
0.0
 11
141.6737904398751
 21
342.9398643287417
 31
0.0
  0
LINE
  5
E1F
330
E1C
100
AcDbEntity
  8
BEM
 62
     0
370
    -2
100
AcDbLine
 10
143.6737904398751
 20
239.9398643287417
 30
0.0
 11
143.6737904398751
 21
335.9398643287418
 31
0.0
  0
SOLID
  5
E20
330
E1C
100
AcDbEntity
  8
BEM
 62
     0
100
AcDbTrace
 10
142.5071237732084
 20
239.9398643287417
 30
0.0
 11
144.8404571065417
 21
239.9398643287417
 31
0.0
 12
143.6737904398751
 22
232.9398643287417
 32
0.0
 13
143.6737904398751
 23
232.9398643287417
 33
0.0
  0
SOLID
  5
E21
330
E1C
100
AcDbEntity
  8
BEM
 62
     0
100
AcDbTrace
 10
142.5071237732084
 20
335.9398643287418
 30
0.0
 11
144.8404571065418
 21
335.9398643287418
 31
0.0
 12
143.6737904398751
 22
342.9398643287417
 32
0.0
 13
143.6737904398751
 23
342.9398643287417
 33
0.0
  0
MTEXT
  5
E22
330
E1C
100
AcDbEntity
  8
BEM
 62
     1
100
AcDbMText
 10
137.173790439875
 20
287.9398643287418
 30
0.0
 40
7.0
 41
0.0
 71
     5
 72
     1
  1
\A1;110
 11
0.0000000000000001
 21
1.0
 31
0.0
 73
     1
 44
1.0
  0
POINT
  5
E23
330
E1C
100
AcDbEntity
  8
DEFPOINTS
 62
     0
100
AcDbPoint
 10
166.0501468179842
 20
232.9398643287417
 30
0.0
  0
POINT
  5
E24
330
E1C
100
AcDbEntity
  8
DEFPOINTS
 62
     0
100
AcDbPoint
 10
202.1127035003546
 20
342.9398643287417
 30
0.0
  0
POINT
  5
E25
330
E1C
100
AcDbEntity
  8
DEFPOINTS
 62
     0
100
AcDbPoint
 10
143.6737904398751
 20
342.9398643287417
 30
0.0
  0
ENDBLK
  5
E27
330
E1C
100
AcDbEntity
  8
0
100
AcDbBlockEnd
  0
BLOCK
  5
10A6
330
109A
100
AcDbEntity
  8
0
100
AcDbBlockBegin
  2
*D5
 70
     1
 10
0.0
 20
0.0
 30
0.0
  3
*D5
  1

  0
LINE
  5
109B
330
109A
100
AcDbEntity
  8
BEM
 62
     0
370
    -2
100
AcDbLine
 10
328.9386544141855
 20
349.5865307715956
 30
0.0
 11
349.9541781931541
 21
350.6879077033214
 31
0.0
  0
LINE
  5
109C
330
109A
100
AcDbEntity
  8
BEM
 62
     0
370
    -2
100
AcDbLine
 10
202.1127035003547
 20
469.9431572330718
 30
0.0
 11
202.1127035003548
 21
490.9842286776627
 31
0.0
  0
ARC
  5
109D
330
109A
100
AcDbEntity
  8
BEM
 62
     0
370
    -2
100
AcDbCircle
 10
202.1127035003547
 20
342.9398643287418
 30
0.0
 40
146.0443643489209
100
AcDbArc
 50
5.746486383629902
 51
87.25351361637001
  0
SOLID
  5
109E
330
109A
100
AcDbEntity
  8
BEM
 62
     0
100
AcDbTrace
 10
348.5864151942334
 20
357.6518173888807
 30
0.0
 11
346.2598754288895
 21
357.4738927848529
 31
0.0
 12
347.9569191236449
 22
350.5832357908354
 32
0.0
 13
347.9569191236449
 23
350.5832357908354
 33
0.0
  0
SOLID
  5
109F
330
109A
100
AcDbEntity
  8
BEM
 62
     0
100
AcDbTrace
 10
209.0827334929949
 20
487.650139845235
 30
0.0
 11
209.1386525741802
 21
489.9828030229792
 31
0.0
 12
202.1127035003548
 22
488.9842286776627
 32
0.0
 13
202.1127035003548
 23
488.9842286776627
 33
0.0
  0
MTEXT
  5
10A0
330
109A
100
AcDbEntity
  8
BEM
 62
     1
100
AcDbMText
 10
307.1173146962294
 20
453.5916366698094
 30
0.0
 40
7.0
 41
0.0
 71
     5
 72
     1
  1
\A1;87°
 11
0.7253743710122878
 21
-0.6883545756937539
 31
0.0
 73
     1
 44
1.0
  0
POINT
  5
10A1
330
109A
100
AcDbEntity
  8
DEFPOINTS
 62
     0
100
AcDbPoint
 10
325.9653486408323
 20
420.3315864299279
 30
0.0
  0
POINT
  5
10A2
330
109A
100
AcDbEntity
  8
DEFPOINTS
 62
     0
100
AcDbPoint
 10
202.1127035003546
 20
467.9431572330718
 30
0.0
  0
POINT
  5
10A3
330
109A
100
AcDbEntity
  8
DEFPOINTS
 62
     0
100
AcDbPoint
 10
326.9413953446764
 20
349.4818588591097
 30
0.0
  0
POINT
  5
10A4
330
109A
100
AcDbEntity
  8
DEFPOINTS
 62
     0
100
AcDbPoint
 10
202.1127035003547
 20
342.9398643287417
 30
0.0
  0
POINT
  5
10A5
330
109A
100
AcDbEntity
  8
DEFPOINTS
 62
     0
100
AcDbPoint
 10
202.1127035003546
 20
227.9398643287419
 30
0.0
  0
ENDBLK
  5
10A7
330
109A
100
AcDbEntity
  8
0
100
AcDbBlockEnd
  0
BLOCK
  5
10B7
330
10AD
100
AcDbEntity
  8
0
100
AcDbBlockBegin
  2
*D6
 70
     1
 10
0.0
 20
0.0
 30
0.0
  3
*D6
  1

  0
LINE
  5
10AE
330
10AD
100
AcDbEntity
  8
BEM
 62
     0
370
    -2
100
AcDbLine
 10
202.0080315878687
 20
344.9371233982509
 30
0.0
 11
199.5248403721805
 21
392.3192344065638
 31
0.0
  0
LINE
  5
10AF
330
10AD
100
AcDbEntity
  8
BEM
 62
     0
370
    -2
100
AcDbLine
 10
319.7872626531235
 20
390.4542295822878
 30
0.0
 11
319.3603845427294
 21
398.599549155717
 31
0.0
  0
LINE
  5
10B0
330
10AD
100
AcDbEntity
  8
BEM
 62
     0
370
    -2
100
AcDbLine
 10
206.6199190279484
 20
390.6883270307553
 30
0.0
 11
312.4746497119333
 21
396.2359383925073
 31
0.0
  0
SOLID
  5
10B1
330
10AD
100
AcDbEntity
  8
BEM
 62
     0
100
AcDbTrace
 10
206.5588604123317
 20
391.8533948213023
 30
0.0
 11
206.6809776435652
 21
389.5232592402082
 31
0.0
 12
199.6295122846664
 22
390.3219753370547
 32
0.0
 13
199.6295122846664
 23
390.3219753370547
 33
0.0
  0
SOLID
  5
10B2
330
10AD
100
AcDbEntity
  8
BEM
 62
     0
100
AcDbTrace
 10
312.4135910963165
 20
397.4010061830544
 30
0.0
 11
312.5357083275501
 21
395.0708706019603
 31
0.0
 12
319.4650564552153
 22
396.6022900862079
 32
0.0
 13
319.4650564552153
 23
396.6022900862079
 33
0.0
  0
MTEXT
  5
10B3
330
10AD
100
AcDbEntity
  8
BEM
 62
     1
100
AcDbMText
 10
259.2071006543617
 20
399.953224687536
 30
0.0
 40
7.0
 41
0.0
 71
     5
 72
     1
  1
\A1;120
 11
0.9986295347545739
 21
0.0523359562429435
 31
0.0
 73
     1
 44
1.0
  0
POINT
  5
10B4
330
10AD
100
AcDbEntity
  8
DEFPOINTS
 62
     0
100
AcDbPoint
 10
202.1127035003546
 20
342.9398643287417
 30
0.0
  0
POINT
  5
10B5
330
10AD
100
AcDbEntity
  8
DEFPOINTS
 62
     0
100
AcDbPoint
 10
319.8919345656094
 20
388.4569705127786
 30
0.0
  0
POINT
  5
10B6
330
10AD
100
AcDbEntity
  8
DEFPOINTS
 62
     0
100
AcDbPoint
 10
319.4650564552153
 20
396.6022900862079
 30
0.0
  0
ENDBLK
  5
10B8
330
10AD
100
AcDbEntity
  8
0
100
AcDbBlockEnd
  0
ENDSEC
  0
SECTION
  2
ENTITIES
  0
LINE
  5
12A
330
1E
100
AcDbEntity
  8
STEMPEL
100
AcDbLine
 10
241.4033413889349
 20
462.9431572330718
 30
0.0
 11
162.8220656117742
 21
462.9431572330718
 31
0.0
  0
TEXT
  5
134
330
1E
100
AcDbEntity
  8
TEXT
100
AcDbText
 10
204.4216048581257
 20
63.0896391972351
 30
0.0
 40
4.0
  1
Koeh
 41
0.8
  7
GREEKS
 72
     1
 11
209.6787477152686
 21
63.0896391972351
 31
0.0
100
AcDbText
  0
INSERT
  5
135
330
1E
100
AcDbEntity
  8
STEMPEL
100
AcDbBlockReference
  2
LOGO
 10
150.9955485457794
 20
45.02105276448322
 30
0.0
 41
2.0
 42
2.0
 43
2.0
  0
LINE
  5
136
330
1E
100
AcDbEntity
  8
HILF
100
AcDbLine
 10
420.0
 20
0.0
 30
0.0
 11
0.0
 21
0.0
 31
0.0
  0
LINE
  5
137
330
1E
100
AcDbEntity
  8
HILF
100
AcDbLine
 10
419.9999999999999
 20
594.0000000000002
 30
0.0
 11
0.0
 21
594.0
 31
0.0
  0
LINE
  5
138
330
1E
100
AcDbEntity
  8
STEMPEL
100
AcDbLine
 10
410.0
 20
584.0
 30
0.0
 11
39.99999999999989
 21
584.0
 31
0.0
  0
LINE
  5
139
330
1E
100
AcDbEntity
  8
STEMPEL
100
AcDbLine
 10
410.0
 20
10.0
 30
0.0
 11
39.99999999999989
 21
10.0
 31
0.0
  0
LINE
  5
13A
330
1E
100
AcDbEntity
  8
STEMPEL
100
AcDbLine
 10
49.99999999999989
 20
10.0
 30
0.0
 11
410.0
 21
10.0
 31
0.0
  0
TEXT
  5
13B
330
1E
100
AcDbEntity
  8
TEXT
100
AcDbText
 10
202.4626584226295
 20
73.30961091915225
 30
0.0
 40
4.0
  1
Name
 41
0.8
  7
GREEKS
100
AcDbText
  0
TEXT
  5
13C
330
1E
100
AcDbEntity
  8
TEXT
100
AcDbText
 10
196.5498279101549
 20
102.6506227776589
 30
0.0
 40
5.0
  1
Zul. Abw.
 41
0.8
  7
GREEKS
 72
     4
 11
209.9783993387263
 21
105.1506227776589
 31
0.0
100
AcDbText
  0
LINE
  5
13D
330
1E
100
AcDbEntity
  8
HILF
100
AcDbLine
 10
146.0000000000001
 20
49.99999999999997
 30
0.0
 11
230.0
 21
49.99999999999997
 31
0.0
  0
LINE
  5
13E
330
1E
100
AcDbEntity
  8
HILF
100
AcDbLine
 10
146.0000000000001
 20
59.99999999999997
 30
0.0
 11
230.0
 21
59.99999999999997
 31
0.0
  0
LINE
  5
13F
330
1E
100
AcDbEntity
  8
HILF
100
AcDbLine
 10
146.0000000000001
 20
69.99999999999994
 30
0.0
 11
230.0
 21
69.99999999999994
 31
0.0
  0
LINE
  5
140
330
1E
100
AcDbEntity
  8
STEMPEL
100
AcDbLine
 10
410.0
 20
80.0
 30
0.0
 11
146.0000000000001
 21
79.99999999999994
 31
0.0
  0
LINE
  5
141
330
1E
100
AcDbEntity
  8
STEMPEL
100
AcDbLine
 10
410.0
 20
40.0
 30
0.0
 11
146.0000000000001
 21
39.99999999999997
 31
0.0
  0
LINE
  5
142
330
1E
100
AcDbEntity
  8
STEMPEL
100
AcDbLine
 10
410.0
 20
110.0
 30
0.0
 11
39.99999999999997
 21
110.0
 31
0.0
  0
LINE
  5
143
330
1E
100
AcDbEntity
  8
MITTEL
100
AcDbLine
 10
202.1127035003546
 20
467.9431572330718
 30
0.0
 11
202.1127035003546
 21
227.939864328742
 31
0.0
  0
LINE
  5
144
330
1E
100
AcDbEntity
  8
HILF
100
AcDbLine
 10
0.0
 20
0.0
 30
0.0
 11
-0.0000000000001137
 21
594.0
 31
0.0
  0
LINE
  5
145
330
1E
100
AcDbEntity
  8
STEMPEL
100
AcDbLine
 10
40.0
 20
10.0
 30
0.0
 11
39.99999999999989
 21
584.0
 31
0.0
  0
LINE
  5
148
330
1E
100
AcDbEntity
  8
HILF
100
AcDbLine
 10
40.00000000000008
 20
39.99999999999997
 30
0.0
 11
146.0000000000001
 21
39.99999999999997
 31
0.0
  0
LINE
  5
149
330
1E
100
AcDbEntity
  8
HILF
100
AcDbLine
 10
40.00000000000008
 20
49.99999999999997
 30
0.0
 11
146.0000000000001
 21
49.99999999999997
 31
0.0
  0
LINE
  5
14A
330
1E
100
AcDbEntity
  8
HILF
100
AcDbLine
 10
40.00000000000008
 20
59.99999999999997
 30
0.0
 11
146.0000000000001
 21
59.99999999999997
 31
0.0
  0
LINE
  5
14B
330
1E
100
AcDbEntity
  8
HILF
100
AcDbLine
 10
40.00000000000008
 20
69.99999999999994
 30
0.0
 11
146.0000000000001
 21
69.99999999999994
 31
0.0
  0
LINE
  5
14C
330
1E
100
AcDbEntity
  8
HILF
100
AcDbLine
 10
40.00000000000008
 20
79.99999999999994
 30
0.0
 11
146.0000000000001
 21
79.99999999999994
 31
0.0
  0
LINE
  5
14D
330
1E
100
AcDbEntity
  8
HILF
100
AcDbLine
 10
40.00000000000008
 20
90.00000000000005
 30
0.0
 11
146.0000000000001
 21
90.00000000000005
 31
0.0
  0
LINE
  5
14E
330
1E
100
AcDbEntity
  8
HILF
100
AcDbLine
 10
40.00000000000008
 20
100.0
 30
0.0
 11
146.0000000000001
 21
100.0
 31
0.0
  0
LINE
  5
14F
330
1E
100
AcDbEntity
  8
STEMPEL
100
AcDbLine
 10
145.9999999999999
 20
29.99999999999997
 30
0.0
 11
39.99999999999997
 21
29.99999999999997
 31
0.0
  0
TEXT
  5
150
330
1E
100
AcDbEntity
  8
TEXT
100
AcDbText
 10
48.26641107045756
 20
13.65465846027192
 30
0.0
 40
4.0
  1
Index
 50
90.0
 41
0.8
  7
GREEKS
100
AcDbText
  0
LINE
  5
151
330
1E
100
AcDbEntity
  8
VOLL
100
AcDbLine
 10
54.00000000000009
 20
110.0
 30
0.0
 11
53.99999999999997
 21
9.999999999999971
 31
0.0
  0
LINE
  5
152
330
1E
100
AcDbEntity
  8
HILF
100
AcDbLine
 10
31.08767135713856
 20
297.0
 30
0.0
 11
0.0000000000001137
 21
297.0
 31
0.0
  0
LINE
  5
154
330
1E
100
AcDbEntity
  8
VOLL
100
AcDbLine
 10
124.0000000000001
 20
109.9999999999999
 30
0.0
 11
124.0
 21
9.999999999999971
 31
0.0
  0
LINE
  5
155
330
1E
100
AcDbEntity
  8
VOLL
100
AcDbLine
 10
104.0000000000001
 20
109.9999999999999
 30
0.0
 11
104.0
 21
9.999999999999971
 31
0.0
  0
LINE
  5
157
330
1E
100
AcDbEntity
  8
STEMPEL
100
AcDbLine
 10
146.0000000000001
 20
109.9999999999999
 30
0.0
 11
146.0
 21
9.999999999999971
 31
0.0
  0
TEXT
  5
158
330
1E
100
AcDbEntity
  8
TEXT
100
AcDbText
 10
170.7037590129979
 20
63.10765040825732
 30
0.0
 40
4.0
  1
14.04.
 41
0.8
  7
GREEKS
 72
     1
 11
177.4085209177598
 21
63.10765040825732
 31
0.0
100
AcDbText
  0
TEXT
  5
159
330
1E
100
AcDbEntity
  8
TEXT
100
AcDbText
 10
172.331167315365
 20
73.31880501229926
 30
0.0
 40
4.0
  1
Tag
 41
0.8
  7
GREEKS
100
AcDbText
  0
TEXT
  5
15A
330
1E
100
AcDbEntity
  8
TEXT
100
AcDbText
 10
147.5836127167615
 20
63.62990369617964
 30
0.0
 40
4.0
  1
Gez.
 41
0.8
  7
GREEKS
100
AcDbText
  0
LINE
  5
15B
330
1E
100
AcDbEntity
  8
VOLL
100
AcDbLine
 10
164.0000000000001
 20
79.99999999999994
 30
0.0
 11
164.0000000000001
 21
39.99999999999997
 31
0.0
  0
TEXT
  5
15C
330
1E
100
AcDbEntity
  8
TEXT
100
AcDbText
 10
147.6006777387303
 20
43.52946389649807
 30
0.0
 40
4.0
  1
Norm.
 41
0.8
  7
GREEKS
100
AcDbText
  0
TEXT
  5
15D
330
1E
100
AcDbEntity
  8
TEXT
100
AcDbText
 10
147.5515086571672
 20
53.68926291428377
 30
0.0
 40
4.0
  1
Gepr.
 41
0.8
  7
GREEKS
100
AcDbText
  0
TEXT
  5
15E
330
1E
100
AcDbEntity
  8
TEXT
 62
     1
100
AcDbText
 10
160.5006306481887
 20
88.14901428913959
 30
0.0
 40
7.0
  1
1:2
 41
0.8
  7
GREEKS
100
AcDbText
  0
TEXT
  5
15F
330
1E
100
AcDbEntity
  8
TEXT
100
AcDbText
 10
153.5163572150377
 20
102.4620895087088
 30
0.0
 40
5.0
  1
Maßstab
 41
0.8
  7
GREEKS
100
AcDbText
  0
TEXT
  5
160
330
1E
100
AcDbEntity
  8
TEXT
100
AcDbText
 10
148.622109822104
 20
73.14025471151666
 30
0.0
 40
4.0
  1
2011
 41
0.8
  7
GREEKS
100
AcDbText
  0
LINE
  5
161
330
1E
100
AcDbEntity
  8
VOLL
100
AcDbLine
 10
190.0000000000001
 20
109.9999999999998
 30
0.0
 11
190.0
 21
39.99999999999997
 31
0.0
  0
LINE
  5
186
330
1E
100
AcDbEntity
  8
HILF
100
AcDbLine
 10
420.0
 20
-0.0000000000001137
 30
0.0
 11
419.9999999999999
 21
594.0
 31
0.0
  0
LINE
  5
187
330
1E
100
AcDbEntity
  8
STEMPEL
100
AcDbLine
 10
410.0
 20
10.0
 30
0.0
 11
410.0
 21
584.0
 31
0.0
  0
TEXT
  5
188
330
1E
100
AcDbEntity
  8
TEXT
100
AcDbText
 10
337.2400861497006
 20
52.07416177878602
 30
0.0
 40
5.0
  1
ersetzt durch:
 41
0.8
  7
GREEKS
100
AcDbText
  0
TEXT
  5
189
330
1E
100
AcDbEntity
  8
TEXT
100
AcDbText
 10
336.7238616296993
 20
73.1811823709997
 30
0.0
 40
5.0
  1
Ersatz für:
 41
0.8
  7
GREEKS
100
AcDbText
  0
TEXT
  5
18A
330
1E
100
AcDbEntity
  8
TEXT
100
AcDbText
 10
336.178754957634
 20
102.3132034537136
 30
0.0
 40
5.0
  1
Zeichnungs Nr.
 41
0.8
  7
GREEKS
100
AcDbText
  0
LINE
  5
18B
330
1E
100
AcDbEntity
  8
HILF
100
AcDbLine
 10
233.4909699289885
 20
14.89398258028314
 30
0.0
 11
404.8588839326728
 21
14.89398258028314
 31
0.0
  0
LINE
  5
18C
330
1E
100
AcDbEntity
  8
HILF
100
AcDbLine
 10
336.7238616296993
 20
83.77983636955827
 30
0.0
 11
404.8588839326728
 21
83.77983636955827
 31
0.0
  0
LINE
  5
18D
330
1E
100
AcDbEntity
  8
VOLL
100
AcDbLine
 10
332.0
 20
60.0
 30
0.0
 11
410.0
 21
60.0
 31
0.0
  0
TEXT
  5
18E
330
1E
100
AcDbEntity
  8
TEXT
 62
     1
100
AcDbText
 10
234.9283864320014
 20
87.41748789253779
 30
0.0
 40
7.0
  1
Abzweig DN70/70 87°
 41
0.8
  7
GREEKS
100
AcDbText
  0
LINE
  5
18F
330
1E
100
AcDbEntity
  8
HILF
100
AcDbLine
 10
234.7736801096947
 20
49.99999999999997
 30
0.0
 11
324.835391655631
 21
49.99999999999997
 31
0.0
  0
LINE
  5
190
330
1E
100
AcDbEntity
  8
HILF
100
AcDbLine
 10
234.7736801096947
 20
59.99999999999997
 30
0.0
 11
324.835391655631
 21
59.99999999999997
 31
0.0
  0
LINE
  5
191
330
1E
100
AcDbEntity
  8
HILF
100
AcDbLine
 10
234.7736801096947
 20
69.99999999999994
 30
0.0
 11
324.835391655631
 21
69.99999999999994
 31
0.0
  0
LINE
  5
192
330
1E
100
AcDbEntity
  8
HILF
100
AcDbLine
 10
234.7736801096947
 20
84.03758247564139
 30
0.0
 11
324.8353916556311
 21
84.03758247564139
 31
0.0
  0
LINE
  5
193
330
1E
100
AcDbEntity
  8
STEMPEL
100
AcDbLine
 10
230.0
 20
110.0
 30
0.0
 11
230.0
 21
9.999999999999971
 31
0.0
  0
TEXT
  5
194
330
1E
100
AcDbEntity
  8
TEXT
100
AcDbText
 10
235.1296391125315
 20
71.50334417585288
 30
0.0
 40
5.0
  1
dünnwandig
 41
0.8
  7
GREEKS
100
AcDbText
  0
TEXT
  5
195
330
1E
100
AcDbEntity
  8
TEXT
100
AcDbText
 10
234.9837501577827
 20
42.62974153022632
 30
0.0
 40
4.0
  1
4200CC0W.DWG
 41
0.8
  7
GREEKS
100
AcDbText
  0
TEXT
  5
196
330
1E
100
AcDbEntity
  8
TEXT
100
AcDbText
 10
234.742238391136
 20
30.84560570193057
 30
0.0
 40
5.0
  1
Bauvorhaben
 41
0.8
  7
GREEKS
100
AcDbText
  0
TEXT
  5
197
330
1E
100
AcDbEntity
  8
TEXT
100
AcDbText
 10
234.877940380901
 20
102.5489328011779
 30
0.0
 40
5.0
  1
Benennung
 41
0.8
  7
GREEKS
100
AcDbText
  0
LINE
  5
198
330
1E
100
AcDbEntity
  8
STEMPEL
100
AcDbLine
 10
332.0
 20
109.9999999999997
 30
0.0
 11
332.0
 21
40.0
 31
0.0
  0
TEXT
  5
19A
330
1E
100
AcDbEntity
  8
TEXT
 62
     1
100
AcDbText
 10
348.1669299608593
 20
88.14901428913959
 30
0.0
 40
7.0
  1
4200CC0W
 41
0.8
  7
GREEKS
 72
     1
 11
369.7669299608593
 21
88.14901428913959
 31
0.0
100
AcDbText
  0
LINE
  5
1D4
330
1E
100
AcDbEntity
  8
STEMPEL
100
AcDbLine
 10
238.175260182725
 20
232.9398643287419
 30
0.0
 11
166.0501468179842
 21
232.9398643287417
 31
0.0
  0
LINE
  5
1D7
330
1E
100
AcDbEntity
  8
STEMPEL
100
AcDbLine
 10
165.6127035003545
 20
237.9398643287417
 30
0.0
 11
166.0501468179842
 21
232.9398643287417
 31
0.0
  0
LINE
  5
1D8
330
1E
100
AcDbEntity
  8
STEMPEL
100
AcDbLine
 10
238.6127035003545
 20
237.9398643287424
 30
0.0
 11
238.175260182725
 21
232.9398643287419
 31
0.0
  0
DIMENSION
  5
1DB
330
1E
100
AcDbEntity
  8
BEM
100
AcDbDimension
  2
*D1
 10
128.5410283364979
 20
462.9431572330718
 30
0.0
 11
122.0410283364978
 21
347.9415107809068
 31
0.0
 70
    32
 71
     5
 42
230.0032929043301
  3
Standard
100
AcDbAlignedDimension
 13
166.0501468179842
 23
232.9398643287417
 33
0.0
 14
162.8220656117742
 24
462.9431572330718
 34
0.0
 50
90.0
100
AcDbRotatedDimension
1001
ACAD
1000
DSTYLE
1002
{
1070
    40
1040
2.0
1070
    41
1040
3.5
1070
    42
1040
1.0
1070
    43
1040
7.0
1070
    44
1040
1.0
1070
    73
1070
     0
1070
    74
1070
     0
1070
    77
1070
     1
1070
    78
1070
     8
1070
    79
1070
     2
1070
   140
1040
3.5
1070
   141
1040
1.5
1070
   146
1040
0.5142857142857144
1070
   147
1040
1.5
1070
   172
1070
     1
1070
   178
1070
     1
1070
   179
1070
     2
1070
   271
1070
     2
1070
   272
1070
     2
1070
   284
1070
     8
1070
   285
1070
     8
1070
   286
1070
     8
1002
}
  0
TEXT
  5
212
330
1E
100
AcDbEntity
  8
TEXT
100
AcDbText
 10
235.1296391125315
 20
51.50334417585291
 30
0.0
 40
5.0
  1
EDV-Art.Nr. 4.200.CC0C
 41
0.8
  7
GREEKS
100
AcDbText
  0
TEXT
  5
255
330
1E
100
AcDbEntity
  8
TEXT
 62
     1
100
AcDbText
 10
297.0573649355706
 20
132.2248663682012
 30
0.0
 40
7.0
  1
Werkstoff: 1.4301
 41
0.8
  7
GREEKS
100
AcDbText
  0
TEXT
  5
25D
330
1E
100
AcDbEntity
  8
TEXT
 62
     1
100
AcDbText
 10
173.2958159887221
 20
442.4639056443324
 30
0.0
 40
7.0
  1
DN70
 41
0.8
  7
GREEKS
100
AcDbText
  0
LINE
  5
B5C
330
1E
100
AcDbEntity
  8
HILF
  6
Continuous
100
AcDbLine
 10
164.5343149211299
 20
410.5883515428398
 30
0.0
 11
239.6910920795792
 21
410.5883515428398
 31
0.0
  0
LINE
  5
B5D
330
1E
100
AcDbEntity
  8
HILF
  6
Continuous
100
AcDbLine
 10
163.9809918740249
 20
432.4451514967361
 30
0.0
 11
240.2444151266842
 21
432.4451514967361
 31
0.0
  0
LINE
  5
B61
330
1E
100
AcDbEntity
  8
HILF
  6
Continuous
100
AcDbLine
 10
166.4391479058691
 20
406.0666296191273
 30
0.0
 11
237.7862590948399
 21
406.0666296191272
 31
0.0
  0
ARC
  5
B7A
330
1E
100
AcDbEntity
  8
STEMPEL
100
AcDbCircle
 10
219.1127169761173
 20
452.4193478806223
 30
0.0
 40
24.65
100
AcDbArc
 50
359.9385097298969
 51
25.27284846783625
  0
LINE
  5
B7B
330
1E
100
AcDbEntity
  8
STEMPEL
100
AcDbLine
 10
243.7627035003545
 20
452.4444609353081
 30
0.0
 11
243.7627035003545
 21
443.3814372812626
 31
0.0
  0
ARC
  5
B7C
330
1E
100
AcDbEntity
  8
STEMPEL
100
AcDbCircle
 10
219.1127035003546
 20
443.3153783153471
 30
0.0
 40
24.65009324312573
100
AcDbArc
 50
338.8168456069657
 51
0.1617474312555988
  0
ARC
  5
B7D
330
1E
100
AcDbEntity
  8
STEMPEL
100
AcDbCircle
 10
253.6127035003545
 20
429.9453783153471
 30
0.0
 40
12.35
100
AcDbArc
 50
158.8168456069657
 51
180.0
  0
LINE
  5
B7E
330
1E
100
AcDbEntity
  8
STEMPEL
100
AcDbLine
 10
241.2627035003545
 20
429.9453783153471
 30
0.0
 11
241.2627035003545
 21
413.1546881626448
 31
0.0
  0
ARC
  5
B85
330
1E
100
AcDbEntity
  8
STEMPEL
100
AcDbCircle
 10
229.6127035003544
 20
413.1546881626448
 30
0.0
 40
11.65
100
AcDbArc
 50
329.8986894531991
 51
0.0
  0
ARC
  5
B86
330
1E
100
AcDbEntity
  8
STEMPEL
100
AcDbCircle
 10
246.6127035003546
 20
403.2996133278199
 30
0.0
 40
8.0
100
AcDbArc
 50
149.8986894531977
 51
180.0
  0
ARC
  5
B96
330
1E
100
AcDbEntity
  8
STEMPEL
100
AcDbCircle
 10
157.6127035003545
 20
403.2996133278199
 30
0.0
 40
8.0
100
AcDbArc
 50
0.0
 51
30.10131054680232
  0
LINE
  5
B99
330
1E
100
AcDbEntity
  8
STEMPEL
100
AcDbLine
 10
160.4627035003545
 20
452.4444609353081
 30
0.0
 11
160.4627035003545
 21
443.3814372812626
 31
0.0
  0
LINE
  5
B9B
330
1E
100
AcDbEntity
  8
STEMPEL
100
AcDbLine
 10
162.9627035003545
 20
429.9453783153471
 30
0.0
 11
162.9627035003545
 21
413.1546881626448
 31
0.0
  0
ARC
  5
B9E
330
1E
100
AcDbEntity
  8
STEMPEL
100
AcDbCircle
 10
174.6127035003546
 20
413.1546881626448
 30
0.0
 40
11.65
100
AcDbArc
 50
180.0
 51
210.1013105468009
  0
ARC
  5
B9F
330
1E
100
AcDbEntity
  8
STEMPEL
100
AcDbCircle
 10
185.1127035003545
 20
443.3153783153471
 30
0.0
 40
24.65009324312573
100
AcDbArc
 50
179.8382525687444
 51
201.1831543930343
  0
ARC
  5
BA1
330
1E
100
AcDbEntity
  8
STEMPEL
100
AcDbCircle
 10
150.6127035003545
 20
429.9453783153471
 30
0.0
 40
12.35
100
AcDbArc
 50
0.0
 51
21.1831543930343
  0
ARC
  5
BA3
330
1E
100
AcDbEntity
  8
STEMPEL
100
AcDbCircle
 10
185.1126900245917
 20
452.4193478806223
 30
0.0
 40
24.65
100
AcDbArc
 50
154.7271515321637
 51
180.0614902701031
  0
LINE
  5
CE5
330
1E
100
AcDbEntity
  8
HILF
100
AcDbLine
 10
237.3627035003545
 20
237.939864328742
 30
0.0
 11
166.8627035003545
 21
237.939864328742
 31
0.0
  0
DIMENSION
  5
D41
330
1E
100
AcDbEntity
  8
BEM
100
AcDbDimension
  2
*D3
 10
238.6127035003545
 20
212.0242363893328
 30
0.0
 11
202.1127035003545
 21
218.5242363893328
 31
0.0
 70
    32
  1
%%c<>
 71
     5
 42
72.99999999999997
  3
Standard
100
AcDbAlignedDimension
 13
165.6127035003545
 23
237.9398643287419
 33
0.0
 14
238.6127035003545
 24
237.9398643287423
 34
0.0
100
AcDbRotatedDimension
1001
ACAD
1000
DSTYLE
1002
{
1070
    40
1040
2.0
1070
    41
1040
3.5
1070
    42
1040
1.0
1070
    43
1040
7.0
1070
    44
1040
1.0
1070
    73
1070
     0
1070
    74
1070
     0
1070
    77
1070
     1
1070
    78
1070
     8
1070
    79
1070
     2
1070
   140
1040
3.5
1070
   141
1040
1.5
1070
   146
1040
0.5142857142857144
1070
   147
1040
1.5
1070
   172
1070
     1
1070
   178
1070
     1
1070
   179
1070
     2
1070
   271
1070
     2
1070
   272
1070
     2
1070
   284
1070
     8
1070
   285
1070
     8
1070
   286
1070
     8
1002
}
  0
LINE
  5
D68
330
1E
100
AcDbEntity
  8
STEMPEL
100
AcDbLine
 10
238.6127035003545
 20
403.2996133278199
 30
0.0
 11
238.6127035003545
 21
381.4028389014968
 31
0.0
  0
LINE
  5
D69
330
1E
100
AcDbEntity
  8
STEMPEL
100
AcDbLine
 10
165.6127035003545
 20
403.2996133278199
 30
0.0
 11
165.6127035003545
 21
237.9398643287419
 31
0.0
  0
ARC
  5
DDA
330
1E
100
AcDbEntity
  8
STEMPEL
100
AcDbCircle
 10
303.2370791981605
 20
331.216238408483
 30
0.0
 40
24.65009324312573
100
AcDbArc
 50
251.8168456069657
 51
273.1617474312556
  0
ARC
  5
DDB
330
1E
100
AcDbEntity
  8
STEMPEL
100
AcDbCircle
 10
312.328572794818
 20
331.6926899039935
 30
0.0
 40
24.65
100
AcDbArc
 50
272.9385097298969
 51
298.2728484678363
  0
LINE
  5
DDC
330
1E
100
AcDbEntity
  8
HILF
  6
Continuous
100
AcDbLine
 10
263.2826577167112
 20
381.8681578438035
 30
0.0
 11
267.0166770059577
 21
310.6188253910787
 31
0.0
  0
LINE
  5
DDD
330
1E
100
AcDbEntity
  8
HILF
  6
Continuous
100
AcDbLine
 10
289.4963788003401
 20
385.7034902249783
 30
0.0
 11
293.4876979826284
 21
309.544583343384
 31
0.0
  0
LINE
  5
DDE
330
1E
100
AcDbEntity
  8
HILF
  6
Continuous
100
AcDbLine
 10
267.6984915219384
 20
384.0070289618809
 30
0.0
 11
271.6318933226637
 21
308.9532515544856
 31
0.0
  0
TEXT
  5
DDF
330
1E
100
AcDbEntity
  8
TEXT
 62
     1
100
AcDbText
 10
295.9840963633772
 20
352.016799008724
 30
0.0
 40
7.0
  1
DN70
 50
2.999999999999989
 41
0.8
  7
GREEKS
100
AcDbText
  0
LINE
  5
DE0
330
1E
100
AcDbEntity
  8
STEMPEL
100
AcDbLine
 10
324.0045607761976
 20
309.9833876430117
 30
0.0
 11
319.8919345656094
 21
388.4569705127785
 31
0.0
  0
ARC
  5
DE1
330
1E
100
AcDbEntity
  8
STEMPEL
100
AcDbCircle
 10
301.4576566859004
 20
365.1696425901385
 30
0.0
 40
24.65009324312573
100
AcDbArc
 50
92.83825256874438
 51
114.1831543930343
  0
ARC
  5
DE2
330
1E
100
AcDbEntity
  8
STEMPEL
100
AcDbCircle
 10
270.7887731702795
 20
374.0767641449726
 30
0.0
 40
11.65
100
AcDbArc
 50
93.0
 51
123.1013105468009
  0
ARC
  5
DE3
330
1E
100
AcDbEntity
  8
STEMPEL
100
AcDbCircle
 10
260.057493116877
 20
390.5376914704741
 30
0.0
 40
8.0
100
AcDbArc
 50
273.0
 51
303.1013105468023
  0
LINE
  5
DE4
330
1E
100
AcDbEntity
  8
STEMPEL
100
AcDbLine
 10
286.9467383754506
 20
386.5895550499842
 30
0.0
 11
270.1790592800492
 21
385.7107982248635
 31
0.0
  0
ARC
  5
DE5
330
1E
100
AcDbEntity
  8
STEMPEL
100
AcDbCircle
 10
286.3003893158503
 20
398.9226298042031
 30
0.0
 40
12.35
100
AcDbArc
 50
273.0
 51
294.1831543930343
  0
ARC
  5
DE6
330
1E
100
AcDbEntity
  8
STEMPEL
100
AcDbCircle
 10
310.5491488720242
 20
365.6461210002385
 30
0.0
 40
24.65
100
AcDbArc
 50
67.72715153216374
 51
93.06149027010315
  0
LINE
  5
DE7
330
1E
100
AcDbEntity
  8
STEMPEL
100
AcDbLine
 10
309.2841468940195
 20
390.2636398903753
 30
0.0
 11
300.2335437989104
 21
389.7893178809884
 31
0.0
  0
ARC
  5
DE8
330
1E
100
AcDbEntity
  8
STEMPEL
100
AcDbCircle
 10
273.6672507636415
 20
319.1521397334712
 30
0.0
 40
11.65
100
AcDbArc
 50
242.8986894531991
 51
273.0
  0
ARC
  5
DE9
330
1E
100
AcDbEntity
  8
STEMPEL
100
AcDbCircle
 10
264.7153932224989
 20
301.659662877317
 30
0.0
 40
8.0
100
AcDbArc
 50
62.89868945319767
 51
93.0
  0
LINE
  5
DEA
330
1E
100
AcDbEntity
  8
STEMPEL
100
AcDbLine
 10
291.044643749273
 20
308.3968624787012
 30
0.0
 11
274.2769646538718
 21
307.5181056535805
 31
0.0
  0
ARC
  5
DEB
330
1E
100
AcDbEntity
  8
STEMPEL
100
AcDbCircle
 10
291.6909928088734
 20
296.063787724482
 30
0.0
 40
12.35
100
AcDbArc
 50
71.8168456069657
 51
93.0
  0
LINE
  5
DEC
330
1E
100
AcDbEntity
  8
STEMPEL
100
AcDbLine
 10
313.6437320490567
 20
307.0777996453193
 30
0.0
 11
304.5931289539475
 21
306.6034776359324
 31
0.0
  0
LINE
  5
DED
330
1E
100
AcDbEntity
  8
STEMPEL
100
AcDbLine
 10
264.2967055725553
 20
309.6486991553538
 30
0.0
 11
238.6127035003546
 21
308.3026576436487
 31
0.0
  0
LINE
  5
DEE
330
1E
100
AcDbEntity
  8
MITTEL
100
AcDbLine
 10
326.9413953446763
 20
349.4818588591097
 30
0.0
 11
202.1127035003546
 21
342.9398643287417
 31
0.0
  0
LINE
  5
DEF
330
1E
100
AcDbEntity
  8
STEMPEL
100
AcDbLine
 10
260.4761807668204
 20
382.5486551924376
 30
0.0
 11
238.6127035003545
 21
381.4028389014968
 31
0.0
  0
LINE
  5
E0F
330
1E
100
AcDbEntity
  8
STEMPEL
100
AcDbLine
 10
238.6127035003546
 20
308.3026576436487
 30
0.0
 11
238.6127035003545
 21
237.9398643287423
 31
0.0
  0
LINE
  5
E10
330
1E
100
AcDbEntity
  8
STEMPEL
100
AcDbLine
 10
238.6127035003545
 20
381.4028389014968
 30
0.0
 11
202.1127035003546
 21
342.9398643287417
 31
0.0
  0
LINE
  5
E11
330
1E
100
AcDbEntity
  8
STEMPEL
100
AcDbLine
 10
202.1127035003546
 20
342.9398643287417
 30
0.0
 11
238.6127035003546
 21
308.3026576436487
 31
0.0
  0
DIMENSION
  5
E1B
330
1E
100
AcDbEntity
  8
BEM
100
AcDbDimension
  2
*D4
 10
143.6737904398751
 20
342.9398643287417
 30
0.0
 11
137.173790439875
 21
287.9398643287418
 31
0.0
 70
    32
 71
     5
 42
110.0000000000001
  3
Standard
100
AcDbAlignedDimension
 13
166.0501468179842
 23
232.9398643287417
 33
0.0
 14
202.1127035003546
 24
342.9398643287417
 34
0.0
 50
90.0
100
AcDbRotatedDimension
1001
ACAD
1000
DSTYLE
1002
{
1070
    40
1040
2.0
1070
    41
1040
3.5
1070
    42
1040
1.0
1070
    43
1040
7.0
1070
    44
1040
1.0
1070
    73
1070
     0
1070
    74
1070
     0
1070
    77
1070
     1
1070
    78
1070
     8
1070
    79
1070
     2
1070
   140
1040
3.5
1070
   141
1040
1.5
1070
   146
1040
0.5142857142857144
1070
   147
1040
1.5
1070
   172
1070
     1
1070
   178
1070
     1
1070
   179
1070
     2
1070
   271
1070
     2
1070
   272
1070
     2
1070
   284
1070
     8
1070
   285
1070
     8
1070
   286
1070
     8
1002
}
  0
ARC
  5
1067
330
1E
100
AcDbEntity
  8
SCHRAFF
100
AcDbCircle
 10
215.6987855949925
 20
357.2566076205069
 30
0.0
 40
2.737040435803697
100
AcDbArc
 50
179.5535241814934
 51
273.4464758185081
  0
ARC
  5
1068
330
1E
100
AcDbEntity
  8
SCHRAFF
100
AcDbCircle
 10
208.8152398380549
 20
350.0028639103841
 30
0.0
 40
2.737040435803697
100
AcDbArc
 50
179.5535241814934
 51
273.4464758185081
  0
ARC
  5
1069
330
1E
100
AcDbEntity
  8
SCHRAFF
100
AcDbCircle
 10
205.3734669595863
 20
346.3759920553227
 30
0.0
 40
2.737040435803697
100
AcDbArc
 50
179.5535241814934
 51
273.4464758185081
  0
ARC
  5
106A
330
1E
100
AcDbEntity
  8
SCHRAFF
100
AcDbCircle
 10
212.2570127165237
 20
353.6297357654455
 30
0.0
 40
2.737040435803697
100
AcDbArc
 50
179.5535241814934
 51
273.4464758185081
  0
ARC
  5
106B
330
1E
100
AcDbEntity
  8
SCHRAFF
100
AcDbCircle
 10
219.1405584734613
 20
360.8834794755683
 30
0.0
 40
2.737040435803697
100
AcDbArc
 50
179.5535241814934
 51
273.4464758185081
  0
ARC
  5
106C
330
1E
100
AcDbEntity
  8
SCHRAFF
100
AcDbCircle
 10
222.5823313519301
 20
364.5103513306298
 30
0.0
 40
2.737040435803697
100
AcDbArc
 50
179.5535241814934
 51
273.4464758185081
  0
ARC
  5
106D
330
1E
100
AcDbEntity
  8
SCHRAFF
100
AcDbCircle
 10
226.0241042303988
 20
368.1372231856912
 30
0.0
 40
2.737040435803697
100
AcDbArc
 50
179.5535241814934
 51
273.4464758185081
  0
ARC
  5
106E
330
1E
100
AcDbEntity
  8
SCHRAFF
100
AcDbCircle
 10
229.4658771088675
 20
371.7640950407526
 30
0.0
 40
2.737040435803697
100
AcDbArc
 50
179.5535241814934
 51
273.4464758185081
  0
ARC
  5
106F
330
1E
100
AcDbEntity
  8
SCHRAFF
100
AcDbCircle
 10
206.9145110752979
 20
338.3831190839373
 30
0.0
 40
2.634435742375651
100
AcDbArc
 50
87.10840338114424
 51
185.8915966188522
  0
ARC
  5
1070
330
1E
100
AcDbEntity
  8
SCHRAFF
100
AcDbCircle
 10
210.5413829303594
 20
334.9413462054685
 30
0.0
 40
2.634435742375651
100
AcDbArc
 50
87.10840338114424
 51
185.8915966188522
  0
ARC
  5
1071
330
1E
100
AcDbEntity
  8
SCHRAFF
100
AcDbCircle
 10
217.7951266404823
 20
328.057800448531
 30
0.0
 40
2.634435742375651
100
AcDbArc
 50
87.10840338114424
 51
185.8915966188522
  0
ARC
  5
1072
330
1E
100
AcDbEntity
  8
SCHRAFF
100
AcDbCircle
 10
214.1682547854208
 20
331.4995733269997
 30
0.0
 40
2.634435742375651
100
AcDbArc
 50
87.10840338114424
 51
185.8915966188522
  0
ARC
  5
1073
330
1E
100
AcDbEntity
  8
SCHRAFF
100
AcDbCircle
 10
225.0488703506052
 20
321.1742546915934
 30
0.0
 40
2.634435742375651
100
AcDbArc
 50
87.10840338114424
 51
185.8915966188522
  0
ARC
  5
1074
330
1E
100
AcDbEntity
  8
SCHRAFF
100
AcDbCircle
 10
221.4219984955438
 20
324.6160275700622
 30
0.0
 40
2.634435742375651
100
AcDbArc
 50
87.10840338114424
 51
185.8915966188522
  0
ARC
  5
1075
330
1E
100
AcDbEntity
  8
SCHRAFF
100
AcDbCircle
 10
228.6757422056667
 20
317.7324818131247
 30
0.0
 40
2.634435742375651
100
AcDbArc
 50
87.10840338114424
 51
185.8915966188522
  0
ARC
  5
108F
330
1E
100
AcDbEntity
  8
SCHRAFF
100
AcDbCircle
 10
239.7911957442738
 20
382.6447106059368
 30
0.0
 40
2.737040435803697
100
AcDbArc
 50
179.5535241814934
 51
273.4464758185081
  0
ARC
  5
1090
330
1E
100
AcDbEntity
  8
SCHRAFF
100
AcDbCircle
 10
236.349422865805
 20
379.0178387508754
 30
0.0
 40
2.737040435803697
100
AcDbArc
 50
179.5535241814934
 51
273.4464758185081
  0
ARC
  5
1091
330
1E
100
AcDbEntity
  8
SCHRAFF
100
AcDbCircle
 10
232.9076499873363
 20
375.390966895814
 30
0.0
 40
2.737040435803697
100
AcDbArc
 50
179.5535241814934
 51
273.4464758185081
  0
ARC
  5
1092
330
1E
100
AcDbEntity
  8
SCHRAFF
100
AcDbCircle
 10
239.556357770851
 20
307.4071631777184
 30
0.0
 40
2.634435742375651
100
AcDbArc
 50
87.10840338114424
 51
185.8915966188522
  0
ARC
  5
1093
330
1E
100
AcDbEntity
  8
SCHRAFF
100
AcDbCircle
 10
232.3026140607281
 20
314.2907089346559
 30
0.0
 40
2.634435742375651
100
AcDbArc
 50
87.10840338114424
 51
185.8915966188522
  0
ARC
  5
1094
330
1E
100
AcDbEntity
  8
SCHRAFF
100
AcDbCircle
 10
235.9294859157895
 20
310.8489360561871
 30
0.0
 40
2.634435742375651
100
AcDbArc
 50
87.10840338114424
 51
185.8915966188522
  0
ARC
  5
1095
330
1E
100
AcDbEntity
  8
SCHRAFF
100
AcDbCircle
 10
233.5822334417914
 20
376.101829532962
 30
0.0
 40
9.625595356890737
100
AcDbArc
 50
34.50775153316177
 51
58.49224846683721
  0
HATCH
  5
1096
330
1E
100
AcDbEntity
  8
SCHRAFF
100
AcDbHatch
 10
0.0
 20
0.0
 30
0.0
210
0.0
220
0.0
230
1.0
  2
_USER
 70
     0
 71
     0
 91
        1
 92
        7
 72
     1
 73
     1
 93
        3
 10
238.6127035003545
 20
384.3083182440063
 42
0.0
 10
238.6127035003545
 20
381.4028389014968
 42
0.0
 10
241.5142009844037
 20
381.5548999412312
 42
0.1050358435976111
 97
        0
 75
     0
 76
     0
 52
0.0
 41
0.1
 77
     0
 78
     1
 53
2.999999999999991
 43
211.0743835199702
 44
348.5819813095992
 45
-0.0052335956242944
 46
0.0998629534754574
 79
     0
 47
0.0528140917161994
 98
        1
 10
238.9528046086969
 20
382.1256433658076
  0
ARC
  5
1097
330
1E
100
AcDbEntity
  8
SCHRAFF
100
AcDbCircle
 10
236.6584008512524
 20
310.1572216102836
 30
0.0
 40
5.008756088463742
100
AcDbArc
 50
292.965528521194
 51
340.034471478807
  0
HATCH
  5
1098
330
1E
100
AcDbEntity
  8
SCHRAFF
100
AcDbHatch
 10
0.0
 20
0.0
 30
0.0
210
0.0
220
0.0
230
1.0
  2
_USER
 70
     0
 71
     0
 91
        1
 92
        7
 72
     1
 73
     1
 93
        3
 10
238.6127035003545
 20
305.5454606982853
 42
0.2083141539120348
 10
241.3661218031294
 20
308.4469581823344
 42
0.0
 10
238.6127035003545
 20
308.3026576436487
 42
0.0
 97
        0
 75
     0
 76
     0
 52
0.0
 41
0.1
 77
     0
 78
     1
 53
2.999999999999991
 43
211.0743835199702
 44
317.5394385836639
 45
-0.0052335956242944
 46
0.0998629534754574
 79
     0
 47
0.0684156552203192
 98
        1
 10
239.1607230258709
 20
306.7459093990823
  0
DIMENSION
  5
1099
330
1E
100
AcDbEntity
  8
BEM
100
AcDbDimension
  2
*D5
 10
202.1127035003546
 20
227.939864328742
 30
0.0
 11
307.1173146962294
 21
453.5916366698093
 31
0.0
 70
    34
 71
     5
 42
1.518436449235065
  3
Standard
100
AcDb2LineAngularDimension
 13
326.9413953446763
 23
349.4818588591097
 33
0.0
 14
202.1127035003546
 24
342.9398643287417
 34
0.0
 15
202.1127035003546
 25
467.9431572330718
 35
0.0
 16
325.9653486408323
 26
420.3315864299279
 36
0.0
1001
ACAD
1000
DSTYLE
1002
{
1070
    40
1040
2.0
1070
    41
1040
3.5
1070
    42
1040
1.0
1070
    43
1040
7.0
1070
    44
1040
1.0
1070
    73
1070
     0
1070
    74
1070
     0
1070
    77
1070
     1
1070
    78
1070
     8
1070
    79
1070
     2
1070
   140
1040
3.5
1070
   141
1040
1.5
1070
   146
1040
0.5142857142857144
1070
   147
1040
1.5
1070
   172
1070
     1
1070
   178
1070
     1
1070
   179
1070
     2
1070
   271
1070
     2
1070
   272
1070
     2
1070
   284
1070
     8
1070
   285
1070
     8
1070
   286
1070
     8
1002
}
  0
DIMENSION
  5
10AC
330
1E
100
AcDbEntity
  8
BEM
100
AcDbDimension
  2
*D6
 10
319.4650564552153
 20
396.6022900862079
 30
0.0
 11
259.2071006543617
 21
399.953224687536
 31
0.0
 70
    32
 71
     5
 42
120.0
 51
357.0000000000001
  3
Standard
100
AcDbAlignedDimension
 13
202.1127035003546
 23
342.9398643287417
 33
0.0
 14
319.8919345656094
 24
388.4569705127785
 34
0.0
 50
2.999999999999991
100
AcDbRotatedDimension
1001
ACAD
1000
DSTYLE
1002
{
1070
    40
1040
2.0
1070
    41
1040
3.5
1070
    42
1040
1.0
1070
    43
1040
7.0
1070
    44
1040
1.0
1070
    73
1070
     0
1070
    74
1070
     0
1070
    77
1070
     1
1070
    78
1070
     8
1070
    79
1070
     2
1070
   140
1040
3.5
1070
   141
1040
1.5
1070
   146
1040
0.5142857142857144
1070
   147
1040
1.5
1070
   172
1070
     1
1070
   178
1070
     1
1070
   179
1070
     2
1070
   271
1070
     2
1070
   272
1070
     2
1070
   284
1070
     8
1070
   285
1070
     8
1070
   286
1070
     8
1002
}
  0
TEXT
  5
1109
330
1E
100
AcDbEntity
  8
TEXT
100
AcDbText
 10
41.85509950977674
 20
111.6719999999999
 30
0.0
 40
5.0
  1
Erstellt mit AUTOCAD 2004
 41
0.8
  7
GREEKS
100
AcDbText
  0
TEXT
  5
110A
330
1E
100
AcDbEntity
  8
TEXT
100
AcDbText
 10
66.99867878482315
 20
18.67381894984132
 30
0.0
 40
4.0
  1
Änderung
 41
0.8
  7
GREEKS
 72
     1
 11
77.7415359276803
 21
18.67381894984132
 31
0.0
100
AcDbText
  0
TEXT
  5
110B
330
1E
100
AcDbEntity
  8
TEXT
100
AcDbText
 10
110.3496319666763
 20
18.6715626933981
 30
0.0
 40
4.0
  1
Tag
 41
0.8
  7
GREEKS
 72
     1
 11
114.0829653000096
 21
18.6715626933981
 31
0.0
100
AcDbText
  0
TEXT
  5
110C
330
1E
100
AcDbEntity
  8
TEXT
100
AcDbText
 10
129.2391668299012
 20
18.59324216966408
 30
0.0
 40
4.0
  1
Name
 41
0.8
  7
GREEKS
 72
     1
 11
135.5629763537107
 21
18.59324216966408
 31
0.0
100
AcDbText
  0
TEXT
  5
110D
330
1E
100
AcDbEntity
  8
TEXT
100
AcDbText
 10
192.6882715247924
 20
89.00646370679282
 30
0.0
 40
4.0
  1
DIN EN1124-3
 41
0.8
  7
GREEKS
 72
     1
 11
209.6787477152686
 21
89.00646370679282
 31
0.0
100
AcDbText
  0
TEXT
  5
110E
330
1E
100
AcDbEntity
  8
BEM
100
AcDbText
 10
416.5811541437437
 20
12.14804815338303
 30
0.0
 40
4.0
  1
Diese Zeichnung ist urheberrechtlich geschützt und bleibt unser Eigentum. Sie darf weder ganz noch teilweise vervielfältigt und nicht an Dritte weitergegeben werden.
 50
90.0
 41
0.8
  7
GREEKS
100
AcDbText
  0
TEXT
  5
112D
330
1E
100
AcDbEntity
  8
TEXT
 62
     1
100
AcDbText
 10
369.7669299608593
 20
62.47115126063772
 30
0.0
 40
7.0
  1

 41
0.8
  7
GREEKS
 72
     1
 11
369.7669299608593
 21
62.47115126063772
 31
0.0
100
AcDbText
  0
ENDSEC
  0
SECTION
  2
OBJECTS
  0
DICTIONARY
  5
C
330
0
100
AcDbDictionary
281
     1
  3
ACAD_COLOR
350
10C9
  3
ACAD_GROUP
350
D
  3
ACAD_LAYOUT
350
19
  3
ACAD_MATERIAL
350
10C8
  3
ACAD_MLINESTYLE
350
16
  3
ACAD_PLOTSETTINGS
350
18
  3
ACAD_PLOTSTYLENAME
350
E
  3
AcDbVariableDictionary
350
246
  0
DICTIONARY
  5
10C9
102
{ACAD_REACTORS
330
C
102
}
330
C
100
AcDbDictionary
281
     1
  0
DICTIONARY
  5
D
102
{ACAD_REACTORS
330
C
102
}
330
C
100
AcDbDictionary
281
     1
  0
DICTIONARY
  5
19
102
{ACAD_REACTORS
330
C
102
}
330
C
100
AcDbDictionary
281
     1
  3
Layout1
350
1D
  3
Model
350
21
  0
DICTIONARY
  5
10C8
102
{ACAD_REACTORS
330
C
102
}
330
C
100
AcDbDictionary
281
     1
  0
DICTIONARY
  5
16
102
{ACAD_REACTORS
330
C
102
}
330
C
100
AcDbDictionary
281
     1
  3
Standard
350
17
  0
DICTIONARY
  5
18
102
{ACAD_REACTORS
330
C
102
}
330
C
100
AcDbDictionary
281
     1
  0
ACDBDICTIONARYWDFLT
  5
E
102
{ACAD_REACTORS
330
C
102
}
330
C
100
AcDbDictionary
281
     1
  3
Normal
350
F
100
AcDbDictionaryWithDefault
340
F
  0
DICTIONARY
  5
246
102
{ACAD_REACTORS
330
C
102
}
330
C
100
AcDbDictionary
281
     1
  3
DIMASSOC
350
10FB
  3
PROJECTNAME
350
10FC
  3
SORTENTS
350
247
  0
LAYOUT
  5
1D
102
{ACAD_REACTORS
330
19
102
}
330
19
100
AcDbPlotSettings
  1

  2
Tektronix Phaser 740
  4

  6

 40
0.0
 41
0.0
 42
0.0
 43
0.0
 44
0.0
 45
0.0
 46
0.0
 47
0.0
 48
0.0
 49
0.0
140
0.0
141
0.0
142
1.0
143
1.0
 70
   688
 72
     0
 73
     0
 74
     5
  7
monochrome.ctb
 75
    16
147
1.0
 76
     0
 77
     2
 78
   300
148
0.0
149
0.0
100
AcDbLayout
  1
Layout1
 70
     0
 71
     1
 10
0.0
 20
0.0
 11
12.0
 21
9.0
 12
0.0
 22
0.0
 32
0.0
 14
1.000000000000000E+20
 24
1.000000000000000E+20
 34
1.000000000000000E+20
 15
-1.000000000000000E+20
 25
-1.000000000000000E+20
 35
-1.000000000000000E+20
146
0.0
 13
0.0
 23
0.0
 33
0.0
 16
1.0
 26
0.0
 36
0.0
 17
0.0
 27
1.0
 37
0.0
 76
     0
330
1A
  0
LAYOUT
  5
21
102
{ACAD_REACTORS
330
19
102
}
330
19
100
AcDbPlotSettings
  1

  2
Tektronix Phaser 740
  4
A4
  6

 40
5.873749732971191
 41
6.085414409637451
 42
5.577407836914062
 43
5.662078857421875
 44
209.9733276367187
 45
296.9683227539062
 46
0.0
 47
0.0
 48
0.0
 49
0.0
140
0.0
141
0.0
142
1.0
143
1.0
 70
 11952
 72
     0
 73
     1
 74
     0
  7
monochrome.ctb
 75
     0
147
1.0
 76
     0
 77
     2
 78
   300
148
1150.120678237584
149
45.30495740799864
100
AcDbLayout
  1
Model
 70
     1
 71
     0
 10
0.0
 20
0.0
 11
12.0
 21
9.0
 12
0.0
 22
0.0
 32
0.0
 14
0.0
 24
0.0
 34
0.0
 15
0.0
 25
0.0
 35
0.0
146
0.0
 13
0.0
 23
0.0
 33
0.0
 16
1.0
 26
0.0
 36
0.0
 17
0.0
 27
1.0
 37
0.0
 76
     0
330
1E
  0
MLINESTYLE
  5
17
102
{ACAD_REACTORS
330
16
102
}
330
16
100
AcDbMlineStyle
  2
STANDARD
 70
     0
  3

 62
   256
 51
90.0
 52
90.0
 71
     2
 49
0.5
 62
   256
  6
BYLAYER
 49
-0.5
 62
   256
  6
BYLAYER
  0
ACDBPLACEHOLDER
  5
F
102
{ACAD_REACTORS
330
E
102
}
330
E
  0
DICTIONARYVAR
  5
10FB
102
{ACAD_REACTORS
330
246
102
}
330
246
100
DictionaryVariables
280
     0
  1
1
  0
DICTIONARYVAR
  5
10FC
102
{ACAD_REACTORS
330
246
102
}
330
246
100
DictionaryVariables
280
     0
  1

  0
DICTIONARYVAR
  5
247
102
{ACAD_REACTORS
330
246
102
}
330
246
100
DictionaryVariables
280
     0
  1
96
  0
ENDSEC
  0
EOF
