  0
SECTION
  2
HEADER
  9
$ACADVER
  1
AC1018
  9
$ACADMAINTVER
 70
     2
  9
$DWGCODEPAGE
  3
ANSI_1252
  9
$INSBASE
 10
0.0
 20
0.0
 30
0.0
  9
$EXTMIN
 10
-0.0064050240922029
 20
-0.0090585340735743
 30
-0.00000000000001
  9
$EXTMAX
 10
210.0064106473032
 20
297.0090664869
 30
0.0000000000000053
  9
$LIMMIN
 10
0.0
 20
0.0
  9
$LIMMAX
 10
210.0
 20
297.0
  9
$ORTHOMODE
 70
     1
  9
$REGENMODE
 70
     1
  9
$FILLMODE
 70
     1
  9
$QTEXTMODE
 70
     0
  9
$MIRRTEXT
 70
     1
  9
$LTSCALE
 40
10.0
  9
$ATTMODE
 70
     1
  9
$TEXTSIZE
 40
3.5
  9
$TRACEWID
 40
0.5
  9
$TEXTSTYLE
  7
STANDARD
  9
$CLAYER
  8
BEM
  9
$CELTYPE
  6
ByLayer
  9
$CECOLOR
 62
   256
  9
$CELTSCALE
 40
1.0
  9
$DISPSILH
 70
     0
  9
$DIMSCALE
 40
1.0
  9
$DIMASZ
 40
3.5
  9
$DIMEXO
 40
1.0
  9
$DIMDLI
 40
7.0
  9
$DIMRND
 40
0.0
  9
$DIMDLE
 40
0.0
  9
$DIMEXE
 40
1.0
  9
$DIMTP
 40
0.0
  9
$DIMTM
 40
0.0
  9
$DIMTXT
 40
3.5
  9
$DIMCEN
 40
1.5
  9
$DIMTSZ
 40
0.0
  9
$DIMTOL
 70
     0
  9
$DIMLIM
 70
     0
  9
$DIMTIH
 70
     0
  9
$DIMTOH
 70
     0
  9
$DIMSE1
 70
     0
  9
$DIMSE2
 70
     0
  9
$DIMTAD
 70
     1
  9
$DIMZIN
 70
     8
  9
$DIMBLK
  1

  9
$DIMASO
 70
     1
  9
$DIMSHO
 70
     0
  9
$DIMPOST
  1

  9
$DIMAPOST
  1

  9
$DIMALT
 70
     0
  9
$DIMALTD
 70
     2
  9
$DIMALTF
 40
25.4
  9
$DIMLFAC
 40
1.0
  9
$DIMTOFL
 70
     1
  9
$DIMTVP
 40
0.0
  9
$DIMTIX
 70
     0
  9
$DIMSOXD
 70
     0
  9
$DIMSAH
 70
     0
  9
$DIMBLK1
  1

  9
$DIMBLK2
  1

  9
$DIMSTYLE
  2
Standard
  9
$DIMCLRD
 70
     0
  9
$DIMCLRE
 70
     0
  9
$DIMCLRT
 70
     1
  9
$DIMTFAC
 40
0.5142857142857144
  9
$DIMGAP
 40
1.5
  9
$DIMJUST
 70
     0
  9
$DIMSD1
 70
     0
  9
$DIMSD2
 70
     0
  9
$DIMTOLJ
 70
     1
  9
$DIMTZIN
 70
     8
  9
$DIMALTZ
 70
     8
  9
$DIMALTTZ
 70
     8
  9
$DIMUPT
 70
     0
  9
$DIMDEC
 70
     2
  9
$DIMTDEC
 70
     2
  9
$DIMALTU
 70
     2
  9
$DIMALTTD
 70
     2
  9
$DIMTXSTY
  7
STANDARD
  9
$DIMAUNIT
 70
     0
  9
$DIMADEC
 70
     2
  9
$DIMALTRND
 40
0.0
  9
$DIMAZIN
 70
     2
  9
$DIMDSEP
 70
    46
  9
$DIMATFIT
 70
     3
  9
$DIMFRAC
 70
     0
  9
$DIMLDRBLK
  1

  9
$DIMLUNIT
 70
     2
  9
$DIMLWD
 70
    -2
  9
$DIMLWE
 70
    -2
  9
$DIMTMOVE
 70
     0
  9
$LUNITS
 70
     2
  9
$LUPREC
 70
     2
  9
$SKETCHINC
 40
1.0
  9
$FILLETRAD
 40
0.0
  9
$AUNITS
 70
     1
  9
$AUPREC
 70
     3
  9
$MENU
  1
ACAD
  9
$ELEVATION
 40
0.0
  9
$PELEVATION
 40
0.0
  9
$THICKNESS
 40
0.0
  9
$LIMCHECK
 70
     0
  9
$CHAMFERA
 40
0.0
  9
$CHAMFERB
 40
0.0
  9
$CHAMFERC
 40
0.0
  9
$CHAMFERD
 40
0.0
  9
$SKPOLY
 70
     0
  9
$TDCREATE
 40
2452040.637099653
  9
$TDUCREATE
 40
2452040.553766320
  9
$TDUPDATE
 40
2455666.364825312
  9
$TDUUPDATE
 40
2455666.281491979
  9
$TDINDWG
 40
0.2862803356
  9
$TDUSRTIMER
 40
0.2862803356
  9
$USRTIMER
 70
     1
  9
$ANGBASE
 50
0.0
  9
$ANGDIR
 70
     0
  9
$PDMODE
 70
     0
  9
$PDSIZE
 40
0.0
  9
$PLINEWID
 40
0.0
  9
$SPLFRAME
 70
     0
  9
$SPLINETYPE
 70
     6
  9
$SPLINESEGS
 70
     8
  9
$HANDSEED
  5
A6C
  9
$SURFTAB1
 70
     6
  9
$SURFTAB2
 70
     6
  9
$SURFTYPE
 70
     6
  9
$SURFU
 70
     6
  9
$SURFV
 70
     6
  9
$UCSBASE
  2

  9
$UCSNAME
  2

  9
$UCSORG
 10
0.0
 20
0.0
 30
0.0
  9
$UCSXDIR
 10
1.0
 20
0.0
 30
0.0
  9
$UCSYDIR
 10
0.0
 20
1.0
 30
0.0
  9
$UCSORTHOREF
  2

  9
$UCSORTHOVIEW
 70
     0
  9
$UCSORGTOP
 10
0.0
 20
0.0
 30
0.0
  9
$UCSORGBOTTOM
 10
0.0
 20
0.0
 30
0.0
  9
$UCSORGLEFT
 10
0.0
 20
0.0
 30
0.0
  9
$UCSORGRIGHT
 10
0.0
 20
0.0
 30
0.0
  9
$UCSORGFRONT
 10
0.0
 20
0.0
 30
0.0
  9
$UCSORGBACK
 10
0.0
 20
0.0
 30
0.0
  9
$PUCSBASE
  2

  9
$PUCSNAME
  2

  9
$PUCSORG
 10
0.0
 20
0.0
 30
0.0
  9
$PUCSXDIR
 10
1.0
 20
0.0
 30
0.0
  9
$PUCSYDIR
 10
0.0
 20
1.0
 30
0.0
  9
$PUCSORTHOREF
  2

  9
$PUCSORTHOVIEW
 70
     0
  9
$PUCSORGTOP
 10
0.0
 20
0.0
 30
0.0
  9
$PUCSORGBOTTOM
 10
0.0
 20
0.0
 30
0.0
  9
$PUCSORGLEFT
 10
0.0
 20
0.0
 30
0.0
  9
$PUCSORGRIGHT
 10
0.0
 20
0.0
 30
0.0
  9
$PUCSORGFRONT
 10
0.0
 20
0.0
 30
0.0
  9
$PUCSORGBACK
 10
0.0
 20
0.0
 30
0.0
  9
$USERI1
 70
     0
  9
$USERI2
 70
     0
  9
$USERI3
 70
     0
  9
$USERI4
 70
     0
  9
$USERI5
 70
     0
  9
$USERR1
 40
0.0
  9
$USERR2
 40
0.0
  9
$USERR3
 40
0.0
  9
$USERR4
 40
0.0
  9
$USERR5
 40
0.0
  9
$WORLDVIEW
 70
     1
  9
$SHADEDGE
 70
     3
  9
$SHADEDIF
 70
    70
  9
$TILEMODE
 70
     1
  9
$MAXACTVP
 70
    16
  9
$PINSBASE
 10
0.0
 20
0.0
 30
0.0
  9
$PLIMCHECK
 70
     0
  9
$PEXTMIN
 10
1.000000000000000E+20
 20
1.000000000000000E+20
 30
1.000000000000000E+20
  9
$PEXTMAX
 10
-1.000000000000000E+20
 20
-1.000000000000000E+20
 30
-1.000000000000000E+20
  9
$PLIMMIN
 10
0.0
 20
0.0
  9
$PLIMMAX
 10
12.0
 20
9.0
  9
$UNITMODE
 70
     0
  9
$VISRETAIN
 70
     0
  9
$PLINEGEN
 70
     0
  9
$PSLTSCALE
 70
     0
  9
$TREEDEPTH
 70
  3020
  9
$CMLSTYLE
  2
Standard
  9
$CMLJUST
 70
     0
  9
$CMLSCALE
 40
1.0
  9
$PROXYGRAPHICS
 70
     1
  9
$MEASUREMENT
 70
     0
  9
$CELWEIGHT
370
    -1
  9
$ENDCAPS
280
     0
  9
$JOINSTYLE
280
     0
  9
$LWDISPLAY
290
     0
  9
$INSUNITS
 70
     0
  9
$HYPERLINKBASE
  1

  9
$STYLESHEET
  1
monochrome 1.ctb
  9
$XEDIT
290
     1
  9
$CEPSNTYPE
380
     0
  9
$PSTYLEMODE
290
     1
  9
$FINGERPRINTGUID
  2
{7AADB5C8-6110-11D8-B72B-000102183313}
  9
$VERSIONGUID
  2
{67492F44-4D56-4CF1-B7FF-B746D527CA9D}
  9
$EXTNAMES
290
     1
  9
$PSVPSCALE
 40
0.0
  9
$OLESTARTUP
290
     0
  9
$SORTENTS
280
    96
  9
$INDEXCTL
280
     0
  9
$HIDETEXT
280
     0
  9
$XCLIPFRAME
290
     0
  9
$HALOGAP
280
     0
  9
$OBSCOLOR
 70
   257
  9
$OBSLTYPE
280
     0
  9
$INTERSECTIONDISPLAY
280
     0
  9
$INTERSECTIONCOLOR
 70
   257
  9
$DIMASSOC
280
     1
  9
$PROJECTNAME
  1

  0
ENDSEC
  0
SECTION
  2
CLASSES
  0
CLASS
  1
ACDBDICTIONARYWDFLT
  2
AcDbDictionaryWithDefault
  3
ObjectDBX Classes
 90
        0
 91
        1
280
     0
281
     0
  0
CLASS
  1
DICTIONARYVAR
  2
AcDbDictionaryVar
  3
ObjectDBX Classes
 90
        0
 91
        3
280
     0
281
     0
  0
ENDSEC
  0
SECTION
  2
TABLES
  0
TABLE
  2
VPORT
  5
8
330
0
100
AcDbSymbolTable
 70
     3
  0
VPORT
  5
A6B
330
8
100
AcDbSymbolTableRecord
100
AcDbViewportTableRecord
  2
*Active
 70
     0
 10
0.0
 20
0.0
 11
1.0
 21
1.0
 12
105.0
 22
148.5
 13
0.0
 23
0.0
 14
1.0
 24
1.0
 15
10.0
 25
10.0
 16
0.0
 26
0.0
 36
1.0
 17
0.0
 27
0.0
 37
0.0
 40
297.0
 41
1.334231805929919
 42
50.0
 43
0.0
 44
0.0
 50
0.0
 51
0.0
 71
     0
 72
  1500
 73
     1
 74
     0
 75
     0
 76
     0
 77
     0
 78
     0
281
     0
 65
     1
110
0.0
120
0.0
130
0.0
111
1.0
121
0.0
131
0.0
112
0.0
122
1.0
132
0.0
 79
     0
146
0.0
  0
ENDTAB
  0
TABLE
  2
LTYPE
  5
5
330
0
100
AcDbSymbolTable
 70
     2
  0
LTYPE
  5
13
330
5
100
AcDbSymbolTableRecord
100
AcDbLinetypeTableRecord
  2
ByBlock
 70
     0
  3

 72
    65
 73
     0
 40
0.0
  0
LTYPE
  5
14
330
5
100
AcDbSymbolTableRecord
100
AcDbLinetypeTableRecord
  2
ByLayer
 70
     0
  3

 72
    65
 73
     0
 40
0.0
  0
LTYPE
  5
15
330
5
100
AcDbSymbolTableRecord
100
AcDbLinetypeTableRecord
  2
Continuous
 70
     0
  3
Solid line
 72
    65
 73
     0
 40
0.0
  0
LTYPE
  5
35
330
5
100
AcDbSymbolTableRecord
100
AcDbLinetypeTableRecord
  2
STRICHPUNKT
 70
     0
  3
__ . __ . __ . __ . __ . __ . __ . __ . __ . __
 72
    65
 73
     4
 40
1.0
 49
0.5
 74
     0
 49
-0.25
 74
     0
 49
0.0
 74
     0
 49
-0.25
 74
     0
  0
ENDTAB
  0
TABLE
  2
LAYER
  5
2
330
0
100
AcDbSymbolTable
 70
     9
  0
LAYER
  5
10
330
2
100
AcDbSymbolTableRecord
100
AcDbLayerTableRecord
  2
0
 70
     0
 62
     7
  6
Continuous
370
    -3
390
F
  0
LAYER
  5
38
330
2
100
AcDbSymbolTableRecord
100
AcDbLayerTableRecord
  2
VOLL
 70
     0
 62
     1
  6
Continuous
370
    -3
390
F
  0
LAYER
  5
39
330
2
100
AcDbSymbolTableRecord
100
AcDbLayerTableRecord
  2
HILF
 70
     0
 62
     2
  6
Continuous
370
    -3
390
F
  0
LAYER
  5
3A
330
2
100
AcDbSymbolTableRecord
100
AcDbLayerTableRecord
  2
MITTEL
 70
     0
 62
     2
  6
STRICHPUNKT
370
    -3
390
F
  0
LAYER
  5
3B
330
2
100
AcDbSymbolTableRecord
100
AcDbLayerTableRecord
  2
BEM
 70
     0
 62
     7
  6
Continuous
370
    -3
390
F
  0
LAYER
  5
3C
330
2
100
AcDbSymbolTableRecord
100
AcDbLayerTableRecord
  2
STEMPEL
 70
     0
 62
     3
  6
Continuous
370
    -3
390
F
  0
LAYER
  5
3D
330
2
100
AcDbSymbolTableRecord
100
AcDbLayerTableRecord
  2
TEXT
 70
     0
 62
     7
  6
Continuous
370
    -3
390
F
  0
LAYER
  5
3E
330
2
100
AcDbSymbolTableRecord
100
AcDbLayerTableRecord
  2
DEFPOINTS
 70
     0
 62
     7
  6
Continuous
290
     0
370
    -3
390
F
  0
LAYER
  5
3F
330
2
100
AcDbSymbolTableRecord
100
AcDbLayerTableRecord
  2
SCHRAFF
 70
     0
 62
     7
  6
Continuous
370
    -3
390
F
  0
ENDTAB
  0
TABLE
  2
STYLE
  5
3
330
0
100
AcDbSymbolTable
 70
     2
  0
STYLE
  5
11
330
3
100
AcDbSymbolTableRecord
100
AcDbTextStyleTableRecord
  2
STANDARD
 70
     0
 40
0.0
 41
0.8
 50
0.0
 71
     0
 42
3.5
  3
simplex.shx
  4

  0
STYLE
  5
34
330
3
100
AcDbSymbolTableRecord
100
AcDbTextStyleTableRecord
  2
GREEKS
 70
     0
 40
0.0
 41
0.8
 50
0.0
 71
     0
 42
2.5
  3
SIMPLEX.shx
  4

  0
ENDTAB
  0
TABLE
  2
VIEW
  5
6
330
0
100
AcDbSymbolTable
 70
     0
  0
ENDTAB
  0
TABLE
  2
UCS
  5
7
330
0
100
AcDbSymbolTable
 70
     0
  0
ENDTAB
  0
TABLE
  2
APPID
  5
9
330
0
100
AcDbSymbolTable
 70
     1
  0
APPID
  5
12
330
9
100
AcDbSymbolTableRecord
100
AcDbRegAppTableRecord
  2
ACAD
 70
     0
  0
ENDTAB
  0
TABLE
  2
DIMSTYLE
  5
A
330
0
100
AcDbSymbolTable
 70
     1
100
AcDbDimStyleTable
 71
     1
340
1CB
  0
DIMSTYLE
105
1CB
102
{ACAD_REACTORS
330
8EE
330
995
330
9A3
330
9B9
330
A47
102
}
330
A
100
AcDbSymbolTableRecord
100
AcDbDimStyleTableRecord
  2
Standard
 70
     0
340
11
  0
ENDTAB
  0
TABLE
  2
BLOCK_RECORD
  5
1
330
0
100
AcDbSymbolTable
 70
     7
  0
BLOCK_RECORD
  5
1E
330
1
100
AcDbSymbolTableRecord
100
AcDbBlockTableRecord
  2
*Model_Space
340
21
  0
BLOCK_RECORD
  5
1A
330
1
100
AcDbSymbolTableRecord
100
AcDbBlockTableRecord
  2
*Paper_Space
340
1D
  0
BLOCK_RECORD
  5
22
330
1
100
AcDbSymbolTableRecord
100
AcDbBlockTableRecord
  2
LOGO
340
0
102
{BLKREFS
331
135
102
}
  0
BLOCK_RECORD
  5
8F6
330
1
100
AcDbSymbolTableRecord
100
AcDbBlockTableRecord
  2
*D1
340
0
  0
BLOCK_RECORD
  5
996
330
1
100
AcDbSymbolTableRecord
100
AcDbBlockTableRecord
  2
*D3
340
0
  0
BLOCK_RECORD
  5
9A4
330
1
100
AcDbSymbolTableRecord
100
AcDbBlockTableRecord
  2
*D4
340
0
  0
BLOCK_RECORD
  5
9BA
330
1
100
AcDbSymbolTableRecord
100
AcDbBlockTableRecord
  2
*D5
340
0
  0
BLOCK_RECORD
  5
A48
330
1
100
AcDbSymbolTableRecord
100
AcDbBlockTableRecord
  2
*D6
340
0
  0
ENDTAB
  0
ENDSEC
  0
SECTION
  2
BLOCKS
  0
BLOCK
  5
43
330
1E
100
AcDbEntity
  8
0
100
AcDbBlockBegin
  2
*Model_Space
 70
     0
 10
0.0
 20
0.0
 30
0.0
  3
*Model_Space
  1

  0
ENDBLK
  5
44
330
1E
100
AcDbEntity
  8
0
100
AcDbBlockEnd
  0
BLOCK
  5
41
330
1A
100
AcDbEntity
 67
     1
  8
0
100
AcDbBlockBegin
  2
*Paper_Space
 70
     0
 10
0.0
 20
0.0
 30
0.0
  3
*Paper_Space
  1

  0
ENDBLK
  5
42
330
1A
100
AcDbEntity
 67
     1
  8
0
100
AcDbBlockEnd
  0
BLOCK
  5
45
330
22
100
AcDbEntity
  8
0
100
AcDbBlockBegin
  2
LOGO
 70
     0
 10
0.0
 20
0.0
 30
0.0
  3
LOGO
  1

  0
ARC
  5
46
330
22
100
AcDbEntity
  8
0
100
AcDbCircle
 10
11.59973089678112
 20
-9.271599258481501
 30
0.0
 40
4.5
100
AcDbArc
 50
270.0
 51
231.0575587310159
  0
LINE
  5
47
330
22
100
AcDbEntity
  8
0
100
AcDbLine
 10
3.599730896781125
 20
-4.771599258481529
 30
0.0
 11
3.599730896781153
 21
-11.77159925848133
 31
0.0
  0
LINE
  5
48
330
22
100
AcDbEntity
  8
0
100
AcDbLine
 10
2.599730896781125
 20
-4.771599258481529
 30
0.0
 11
2.599730896781153
 21
-11.77159925848133
 31
0.0
  0
CIRCLE
  5
49
330
22
100
AcDbEntity
  8
0
100
AcDbCircle
 10
11.59973089678112
 20
-9.271599258481501
 30
0.0
 40
3.5
  0
ARC
  5
4A
330
22
100
AcDbEntity
  8
0
100
AcDbCircle
 10
31.59973089678115
 20
-9.271599258481472
 30
0.0
 40
4.5
100
AcDbArc
 50
270.0
 51
231.0575587310182
  0
LINE
  5
4B
330
22
100
AcDbEntity
  8
0
100
AcDbLine
 10
17.59973089678112
 20
-4.771599258481472
 30
0.0
 11
17.59973089678115
 21
-13.77159925848147
 31
0.0
  0
ARC
  5
4C
330
22
100
AcDbEntity
  8
0
100
AcDbCircle
 10
22.59973089678116
 20
-7.271599258481472
 30
0.0
 40
2.5
100
AcDbArc
 50
293.1161887722295
 51
90.0
  0
CIRCLE
  5
4D
330
22
100
AcDbEntity
  8
0
100
AcDbCircle
 10
31.59973089678115
 20
-9.271599258481472
 30
0.0
 40
3.5
  0
ARC
  5
4E
330
22
100
AcDbEntity
  8
0
100
AcDbCircle
 10
4.599730896781153
 20
-11.77159925848133
 30
0.0
 40
1.0
100
AcDbArc
 50
180.0
 51
270.0
  0
ARC
  5
4F
330
22
100
AcDbEntity
  8
0
100
AcDbCircle
 10
4.599730896781153
 20
-11.77159925848133
 30
0.0
 40
2.0
100
AcDbArc
 50
179.9999999999992
 51
270.0
  0
LINE
  5
50
330
22
100
AcDbEntity
  8
0
100
AcDbLine
 10
11.59973089678115
 20
-13.77159925848144
 30
0.0
 11
4.599730896781153
 21
-13.77159925848147
 31
0.0
  0
LINE
  5
51
330
22
100
AcDbEntity
  8
0
100
AcDbLine
 10
8.771303772034769
 20
-12.77159925848136
 30
0.0
 11
4.599730896781153
 21
-12.77159925848133
 31
0.0
  0
LINE
  5
52
330
22
100
AcDbEntity
  8
0
100
AcDbLine
 10
31.59973089678115
 20
-13.77159925848147
 30
0.0
 11
23.6715276665056
 21
-13.77159925848144
 31
0.0
  0
LINE
  5
53
330
22
100
AcDbEntity
  8
0
100
AcDbLine
 10
23.56565672307022
 20
-9.51278021337896
 30
0.0
 11
24.4388546544846
 21
-12.77159925848144
 31
0.0
  0
LINE
  5
54
330
22
100
AcDbEntity
  8
0
100
AcDbLine
 10
22.59973089678116
 20
-9.771599258481472
 30
0.0
 11
18.59973089678112
 21
-9.771599258481472
 31
0.0
  0
LINE
  5
55
330
22
100
AcDbEntity
  8
0
100
AcDbLine
 10
18.59973089678115
 20
-13.77159925848144
 30
0.0
 11
17.59973089678115
 21
-13.77159925848144
 31
0.0
  0
LINE
  5
56
330
22
100
AcDbEntity
  8
0
100
AcDbLine
 10
18.59973089678115
 20
-9.771599258481472
 30
0.0
 11
18.59973089678115
 21
-13.77159925848144
 31
0.0
  0
LINE
  5
57
330
22
100
AcDbEntity
  8
0
100
AcDbLine
 10
22.59973089678116
 20
-9.771599258481472
 30
0.0
 11
23.67152766650562
 21
-13.77159925848147
 31
0.0
  0
ARC
  5
58
330
22
100
AcDbEntity
  8
0
100
AcDbCircle
 10
22.59973089678116
 20
-7.271599258481472
 30
0.0
 40
2.5
100
AcDbArc
 50
270.0
 51
270.0000000000007
  0
LINE
  5
59
330
22
100
AcDbEntity
  8
0
100
AcDbLine
 10
28.77130377203494
 20
-12.77159925848147
 30
0.0
 11
24.43885465448463
 21
-12.77159925848144
 31
0.0
  0
LINE
  5
5A
330
22
100
AcDbEntity
  8
0
100
AcDbLine
 10
3.599730896781125
 20
-4.771599258481472
 30
0.0
 11
2.599730896781125
 21
-4.771599258481472
 31
0.0
  0
LINE
  5
5B
330
22
100
AcDbEntity
  8
0
100
AcDbLine
 10
22.59973089678116
 20
-8.771599258481472
 30
0.0
 11
18.59973089678115
 21
-8.771599258481472
 31
0.0
  0
LINE
  5
5C
330
22
100
AcDbEntity
  8
0
100
AcDbLine
 10
22.59973089678116
 20
-5.771599258481472
 30
0.0
 11
18.59973089678115
 21
-5.771599258481472
 31
0.0
  0
LINE
  5
5D
330
22
100
AcDbEntity
  8
0
100
AcDbLine
 10
22.59973089678116
 20
-4.771599258481472
 30
0.0
 11
17.59973089678115
 21
-4.771599258481472
 31
0.0
  0
LINE
  5
5E
330
22
100
AcDbEntity
  8
0
100
AcDbLine
 10
18.59973089678115
 20
-5.771599258481472
 30
0.0
 11
18.59973089678115
 21
-8.771599258481472
 31
0.0
  0
ARC
  5
5F
330
22
100
AcDbEntity
  8
0
100
AcDbCircle
 10
22.59973089678116
 20
-7.271599258481472
 30
0.0
 40
1.5
100
AcDbArc
 50
270.0
 51
90.0
  0
ENDBLK
  5
60
330
22
100
AcDbEntity
  8
0
100
AcDbBlockEnd
  0
BLOCK
  5
900
330
8F6
100
AcDbEntity
  8
0
100
AcDbBlockBegin
  2
*D1
 70
     1
 10
0.0
 20
0.0
 30
0.0
  3
*D1
  1

  0
LINE
  5
94C
330
8F6
100
AcDbEntity
  8
BEM
 62
     0
370
    -2
100
AcDbLine
 10
61.1179788219099
 20
99.85933154999763
 30
0.0
 11
61.1179788219099
 21
81.7973600586634
 31
0.0
  0
LINE
  5
94D
330
8F6
100
AcDbEntity
  8
BEM
 62
     0
370
    -2
100
AcDbLine
 10
114.1179788219108
 20
99.85933154999763
 30
0.0
 11
114.1179788219108
 21
81.7973600586634
 31
0.0
  0
LINE
  5
94E
330
8F6
100
AcDbEntity
  8
BEM
 62
     0
370
    -2
100
AcDbLine
 10
64.6179788219099
 20
82.7973600586634
 30
0.0
 11
110.6179788219108
 21
82.7973600586634
 31
0.0
  0
SOLID
  5
94F
330
8F6
100
AcDbEntity
  8
BEM
 62
     0
100
AcDbTrace
 10
64.6179788219099
 20
83.38069339199673
 30
0.0
 11
64.6179788219099
 21
82.21402672533008
 31
0.0
 12
61.1179788219099
 22
82.7973600586634
 32
0.0
 13
61.1179788219099
 23
82.7973600586634
 33
0.0
  0
SOLID
  5
950
330
8F6
100
AcDbEntity
  8
BEM
 62
     0
100
AcDbTrace
 10
110.6179788219108
 20
83.38069339199673
 30
0.0
 11
110.6179788219108
 21
82.21402672533008
 31
0.0
 12
114.1179788219108
 22
82.7973600586634
 32
0.0
 13
114.1179788219108
 23
82.7973600586634
 33
0.0
  0
MTEXT
  5
951
330
8F6
100
AcDbEntity
  8
BEM
 62
     1
100
AcDbMText
 10
87.61797882191036
 20
86.04736005866341
 30
0.0
 40
3.5
 41
0.0
 71
     5
 72
     1
  1
\A1;%%c53
 73
     1
 44
1.0
  0
POINT
  5
952
330
8F6
100
AcDbEntity
  8
DEFPOINTS
 62
     0
100
AcDbPoint
 10
61.1179788219099
 20
100.8593315499976
 30
0.0
  0
POINT
  5
953
330
8F6
100
AcDbEntity
  8
DEFPOINTS
 62
     0
100
AcDbPoint
 10
114.1179788219108
 20
100.8593315499976
 30
0.0
  0
POINT
  5
954
330
8F6
100
AcDbEntity
  8
DEFPOINTS
 62
     0
100
AcDbPoint
 10
114.1179788219108
 20
82.7973600586634
 30
0.0
  0
ENDBLK
  5
901
330
8F6
100
AcDbEntity
  8
0
100
AcDbBlockEnd
  0
BLOCK
  5
9A0
330
996
100
AcDbEntity
  8
0
100
AcDbBlockBegin
  2
*D3
 70
     1
 10
0.0
 20
0.0
 30
0.0
  3
*D3
  1

  0
LINE
  5
997
330
996
100
AcDbEntity
  8
BEM
 62
     0
370
    -2
100
AcDbLine
 10
60.55542213953947
 20
95.85933154999763
 30
0.0
 11
51.06029915850057
 21
95.85933154999763
 31
0.0
  0
LINE
  5
998
330
996
100
AcDbEntity
  8
BEM
 62
     0
370
    -2
100
AcDbLine
 10
86.61797882190985
 20
175.8593315499976
 30
0.0
 11
51.06029915850058
 21
175.8593315499976
 31
0.0
  0
LINE
  5
999
330
996
100
AcDbEntity
  8
BEM
 62
     0
370
    -2
100
AcDbLine
 10
52.06029915850057
 20
99.35933154999762
 30
0.0
 11
52.06029915850058
 21
172.3593315499976
 31
0.0
  0
SOLID
  5
99A
330
996
100
AcDbEntity
  8
BEM
 62
     0
100
AcDbTrace
 10
51.47696582516723
 20
99.35933154999762
 30
0.0
 11
52.6436324918339
 21
99.35933154999762
 31
0.0
 12
52.06029915850057
 22
95.85933154999763
 32
0.0
 13
52.06029915850057
 23
95.85933154999763
 33
0.0
  0
SOLID
  5
99B
330
996
100
AcDbEntity
  8
BEM
 62
     0
100
AcDbTrace
 10
51.47696582516725
 20
172.3593315499976
 30
0.0
 11
52.64363249183392
 21
172.3593315499976
 31
0.0
 12
52.06029915850058
 22
175.8593315499976
 32
0.0
 13
52.06029915850058
 23
175.8593315499976
 33
0.0
  0
MTEXT
  5
99C
330
996
100
AcDbEntity
  8
BEM
 62
     1
100
AcDbMText
 10
48.81029915850056
 20
135.8593315499976
 30
0.0
 40
3.5
 41
0.0
 71
     5
 72
     1
  1
\A1;80
 11
0.0000000000000001
 21
1.0
 31
0.0
 73
     1
 44
1.0
  0
POINT
  5
99D
330
996
100
AcDbEntity
  8
DEFPOINTS
 62
     0
100
AcDbPoint
 10
61.55542213953947
 20
95.85933154999763
 30
0.0
  0
POINT
  5
99E
330
996
100
AcDbEntity
  8
DEFPOINTS
 62
     0
100
AcDbPoint
 10
87.61797882190984
 20
175.8593315499976
 30
0.0
  0
POINT
  5
99F
330
996
100
AcDbEntity
  8
DEFPOINTS
 62
     0
100
AcDbPoint
 10
52.06029915850058
 20
175.8593315499976
 30
0.0
  0
ENDBLK
  5
9A1
330
996
100
AcDbEntity
  8
0
100
AcDbBlockEnd
  0
BLOCK
  5
9AE
330
9A4
100
AcDbEntity
  8
0
100
AcDbBlockBegin
  2
*D4
 70
     1
 10
0.0
 20
0.0
 30
0.0
  3
*D4
  1

  0
LINE
  5
A1C
330
9A4
100
AcDbEntity
  8
BEM
 62
     0
370
    -2
100
AcDbLine
 10
60.55542213953947
 20
95.85933154999763
 30
0.0
 11
43.90548573150293
 21
95.85933154999763
 31
0.0
  0
LINE
  5
A1D
330
9A4
100
AcDbEntity
  8
BEM
 62
     0
370
    -2
100
AcDbLine
 10
57.60073605328614
 20
263.8593315499976
 30
0.0
 11
43.90548573150296
 21
263.8593315499976
 31
0.0
  0
LINE
  5
A1E
330
9A4
100
AcDbEntity
  8
BEM
 62
     0
370
    -2
100
AcDbLine
 10
44.90548573150293
 20
99.35933154999762
 30
0.0
 11
44.90548573150297
 21
260.3593315499976
 31
0.0
  0
SOLID
  5
A1F
330
9A4
100
AcDbEntity
  8
BEM
 62
     0
100
AcDbTrace
 10
44.3221523981696
 20
99.35933154999762
 30
0.0
 11
45.48881906483627
 21
99.35933154999762
 31
0.0
 12
44.90548573150293
 22
95.85933154999763
 32
0.0
 13
44.90548573150293
 23
95.85933154999763
 33
0.0
  0
SOLID
  5
A20
330
9A4
100
AcDbEntity
  8
BEM
 62
     0
100
AcDbTrace
 10
44.32215239816963
 20
260.3593315499976
 30
0.0
 11
45.4888190648363
 21
260.3593315499976
 31
0.0
 12
44.90548573150297
 22
263.8593315499976
 32
0.0
 13
44.90548573150297
 23
263.8593315499976
 33
0.0
  0
MTEXT
  5
A21
330
9A4
100
AcDbEntity
  8
BEM
 62
     1
100
AcDbMText
 10
41.65548573150292
 20
179.8593315499976
 30
0.0
 40
3.5
 41
0.0
 71
     5
 72
     1
  1
\A1;168
 11
0.0000000000000001
 21
1.0
 31
0.0
 73
     1
 44
1.0
  0
POINT
  5
A22
330
9A4
100
AcDbEntity
  8
DEFPOINTS
 62
     0
100
AcDbPoint
 10
61.55542213953947
 20
95.85933154999763
 30
0.0
  0
POINT
  5
A23
330
9A4
100
AcDbEntity
  8
DEFPOINTS
 62
     0
100
AcDbPoint
 10
58.60073605328614
 20
263.8593315499976
 30
0.0
  0
POINT
  5
A24
330
9A4
100
AcDbEntity
  8
DEFPOINTS
 62
     0
100
AcDbPoint
 10
44.90548573150297
 20
263.8593315499976
 30
0.0
  0
ENDBLK
  5
9AF
330
9A4
100
AcDbEntity
  8
0
100
AcDbBlockEnd
  0
BLOCK
  5
9C6
330
9BA
100
AcDbEntity
  8
0
100
AcDbBlockBegin
  2
*D5
 70
     1
 10
0.0
 20
0.0
 30
0.0
  3
*D5
  1

  0
LINE
  5
9BB
330
9BA
100
AcDbEntity
  8
BEM
 62
     0
370
    -2
100
AcDbLine
 10
181.4891550888398
 20
180.7789114368343
 30
0.0
 11
190.8287017049314
 21
181.2683763344942
 31
0.0
  0
LINE
  5
9BC
330
9BA
100
AcDbEntity
  8
BEM
 62
     0
370
    -2
100
AcDbLine
 10
87.61797882190979
 20
269.8593315499976
 30
0.0
 11
87.61797882190979
 21
279.2116952555102
 31
0.0
  0
ARC
  5
9BD
330
9BA
100
AcDbEntity
  8
BEM
 62
     0
370
    -2
100
AcDbCircle
 10
87.61797882190986
 20
175.8593315499976
 30
0.0
 40
102.3523637055125
100
AcDbArc
 50
4.959358757218542
 51
88.04064124278154
  0
SOLID
  5
9BE
330
9BA
100
AcDbEntity
  8
BEM
 62
     0
100
AcDbTrace
 10
190.169089577433
 20
184.7480858161463
 30
0.0
 11
189.0052360620478
 21
184.6671160326675
 31
0.0
 12
189.8300721701768
 22
181.2160403782512
 32
0.0
 13
189.8300721701768
 23
181.2160403782512
 33
0.0
  0
SOLID
  5
9BF
330
9BA
100
AcDbEntity
  8
BEM
 62
     0
100
AcDbTrace
 10
91.10749348354497
 20
277.5686049010411
 30
0.0
 11
91.12744091409521
 21
278.7351010266779
 31
0.0
 12
87.61797882190981
 22
278.2116952555102
 32
0.0
 13
87.61797882190981
 23
278.2116952555102
 33
0.0
  0
MTEXT
  5
9C0
330
9BA
100
AcDbEntity
  8
BEM
 62
     1
100
AcDbMText
 10
160.3098490826754
 20
252.4605797002946
 30
0.0
 40
3.5
 41
0.0
 71
     5
 72
     1
  1
\A1;87°
 11
0.7253743710122881
 21
-0.6883545756937536
 31
0.0
 73
     1
 44
1.0
  0
POINT
  5
9C1
330
9BA
100
AcDbEntity
  8
DEFPOINTS
 62
     0
100
AcDbPoint
 10
174.4177059994798
 20
230.0978208173523
 30
0.0
  0
POINT
  5
9C2
330
9BA
100
AcDbEntity
  8
DEFPOINTS
 62
     0
100
AcDbPoint
 10
87.61797882190979
 20
268.8593315499976
 30
0.0
  0
POINT
  5
9C3
330
9BA
100
AcDbEntity
  8
DEFPOINTS
 62
     0
100
AcDbPoint
 10
180.4905255540853
 20
180.7265754805914
 30
0.0
  0
POINT
  5
9C4
330
9BA
100
AcDbEntity
  8
DEFPOINTS
 62
     0
100
AcDbPoint
 10
87.61797882190984
 20
175.8593315499976
 30
0.0
  0
POINT
  5
9C5
330
9BA
100
AcDbEntity
  8
DEFPOINTS
 62
     0
100
AcDbPoint
 10
87.61797882190995
 20
90.85933154999763
 30
0.0
  0
ENDBLK
  5
9C7
330
9BA
100
AcDbEntity
  8
0
100
AcDbBlockEnd
  0
BLOCK
  5
A52
330
A48
100
AcDbEntity
  8
0
100
AcDbBlockBegin
  2
*D6
 70
     1
 10
0.0
 20
0.0
 30
0.0
  3
*D6
  1

  0
LINE
  5
A5D
330
A48
100
AcDbEntity
  8
BEM
 62
     0
370
    -2
100
AcDbLine
 10
87.6703147781528
 20
174.860702015243
 30
0.0
 11
89.81365854984927
 21
133.9632665387118
 31
0.0
  0
LINE
  5
A5E
330
A48
100
AcDbEntity
  8
BEM
 62
     0
370
    -2
100
AcDbLine
 10
177.068358984385
 20
150.4887905187309
 30
0.0
 11
177.6930576082518
 21
138.5688306880909
 31
0.0
  0
LINE
  5
A5F
330
A48
100
AcDbEntity
  8
BEM
 62
     0
370
    -2
100
AcDbLine
 10
93.25652596524733
 20
135.1450719203167
 30
0.0
 11
174.1455182803679
 21
139.3842843759952
 31
0.0
  0
SOLID
  5
A60
330
A48
100
AcDbEntity
  8
BEM
 62
     0
100
AcDbTrace
 10
93.22599665743895
 20
135.7276058155902
 30
0.0
 11
93.28705527305571
 21
134.5625380250432
 31
0.0
 12
89.76132259360634
 22
134.9618960734664
 32
0.0
 13
89.76132259360634
 23
134.9618960734664
 33
0.0
  0
SOLID
  5
A61
330
A48
100
AcDbEntity
  8
BEM
 62
     0
100
AcDbTrace
 10
174.1149889725595
 20
139.9668182712687
 30
0.0
 11
174.1760475881763
 21
138.8017504807217
 31
0.0
 12
177.6407216520089
 22
139.5674602228455
 32
0.0
 13
177.6407216520089
 23
139.5674602228455
 33
0.0
  0
MTEXT
  5
A62
330
A48
100
AcDbEntity
  8
BEM
 62
     1
100
AcDbMText
 10
133.530930265018
 20
140.5102241361083
 30
0.0
 40
3.5
 41
0.0
 71
     5
 72
     1
  1
\A1;88
 11
0.9986295347545739
 21
0.0523359562429444
 31
0.0
 73
     1
 44
1.0
  0
POINT
  5
A63
330
A48
100
AcDbEntity
  8
DEFPOINTS
 62
     0
100
AcDbPoint
 10
87.61797882190984
 20
175.8593315499975
 30
0.0
  0
POINT
  5
A64
330
A48
100
AcDbEntity
  8
DEFPOINTS
 62
     0
100
AcDbPoint
 10
177.016023028142
 20
151.4874200534855
 30
0.0
  0
POINT
  5
A65
330
A48
100
AcDbEntity
  8
DEFPOINTS
 62
     0
100
AcDbPoint
 10
177.6407216520089
 20
139.5674602228455
 30
0.0
  0
ENDBLK
  5
A53
330
A48
100
AcDbEntity
  8
0
100
AcDbBlockEnd
  0
ENDSEC
  0
SECTION
  2
ENTITIES
  0
TEXT
  5
134
330
1E
100
AcDbEntity
  8
TEXT
100
AcDbText
 10
102.2108024290628
 20
31.54481959861755
 30
0.0
 40
2.0
  1
Koeh
 41
0.8
  7
GREEKS
 72
     1
 11
104.8393738576343
 21
31.54481959861755
 31
0.0
100
AcDbText
  0
INSERT
  5
135
330
1E
100
AcDbEntity
  8
STEMPEL
100
AcDbBlockReference
  2
LOGO
 10
75.4977742728897
 20
22.51052638224161
 30
0.0
  0
LINE
  5
136
330
1E
100
AcDbEntity
  8
HILF
100
AcDbLine
 10
210.0
 20
0.0
 30
0.0
 11
0.0
 21
0.0
 31
0.0
  0
LINE
  5
137
330
1E
100
AcDbEntity
  8
HILF
100
AcDbLine
 10
210.0
 20
297.0000000000001
 30
0.0
 11
0.0
 21
297.0
 31
0.0
  0
LINE
  5
138
330
1E
100
AcDbEntity
  8
STEMPEL
100
AcDbLine
 10
205.0
 20
292.0
 30
0.0
 11
19.99999999999994
 21
292.0
 31
0.0
  0
LINE
  5
139
330
1E
100
AcDbEntity
  8
STEMPEL
100
AcDbLine
 10
205.0
 20
5.0
 30
0.0
 11
19.99999999999994
 21
5.0
 31
0.0
  0
LINE
  5
13A
330
1E
100
AcDbEntity
  8
STEMPEL
100
AcDbLine
 10
24.99999999999995
 20
5.0
 30
0.0
 11
205.0
 21
5.0
 31
0.0
  0
TEXT
  5
13B
330
1E
100
AcDbEntity
  8
TEXT
100
AcDbText
 10
101.2313292113147
 20
36.65480545957612
 30
0.0
 40
2.0
  1
Name
 41
0.8
  7
GREEKS
100
AcDbText
  0
TEXT
  5
13C
330
1E
100
AcDbEntity
  8
TEXT
100
AcDbText
 10
98.27491395507747
 20
51.32531138882947
 30
0.0
 40
2.5
  1
Zul. Abw.
 41
0.8
  7
GREEKS
 72
     4
 11
104.9891996693631
 21
52.57531138882947
 31
0.0
100
AcDbText
  0
LINE
  5
13D
330
1E
100
AcDbEntity
  8
HILF
100
AcDbLine
 10
73.00000000000006
 20
24.99999999999999
 30
0.0
 11
115.0
 21
24.99999999999999
 31
0.0
  0
LINE
  5
13E
330
1E
100
AcDbEntity
  8
HILF
100
AcDbLine
 10
73.00000000000006
 20
29.99999999999999
 30
0.0
 11
115.0
 21
29.99999999999999
 31
0.0
  0
LINE
  5
13F
330
1E
100
AcDbEntity
  8
HILF
100
AcDbLine
 10
73.00000000000006
 20
34.99999999999997
 30
0.0
 11
115.0
 21
34.99999999999997
 31
0.0
  0
LINE
  5
140
330
1E
100
AcDbEntity
  8
STEMPEL
100
AcDbLine
 10
205.0
 20
40.0
 30
0.0
 11
73.00000000000006
 21
39.99999999999997
 31
0.0
  0
LINE
  5
141
330
1E
100
AcDbEntity
  8
STEMPEL
100
AcDbLine
 10
205.0
 20
20.0
 30
0.0
 11
73.00000000000006
 21
19.99999999999998
 31
0.0
  0
LINE
  5
142
330
1E
100
AcDbEntity
  8
STEMPEL
100
AcDbLine
 10
205.0
 20
55.00000000000003
 30
0.0
 11
19.99999999999998
 21
55.0
 31
0.0
  0
LINE
  5
144
330
1E
100
AcDbEntity
  8
HILF
100
AcDbLine
 10
0.0
 20
0.0
 30
0.0
 11
-0.0000000000000568
 21
297.0
 31
0.0
  0
LINE
  5
145
330
1E
100
AcDbEntity
  8
STEMPEL
100
AcDbLine
 10
20.0
 20
5.0
 30
0.0
 11
19.99999999999994
 21
292.0
 31
0.0
  0
TEXT
  5
146
330
1E
100
AcDbEntity
  8
TEXT
100
AcDbText
 10
20.92754975488837
 20
55.83599999999997
 30
0.0
 40
2.5
  1
Erstellt mit AUTOCAD 2004
 41
0.8
  7
GREEKS
100
AcDbText
  0
LINE
  5
148
330
1E
100
AcDbEntity
  8
HILF
100
AcDbLine
 10
20.00000000000004
 20
19.99999999999998
 30
0.0
 11
73.00000000000006
 21
19.99999999999998
 31
0.0
  0
LINE
  5
149
330
1E
100
AcDbEntity
  8
HILF
100
AcDbLine
 10
20.00000000000004
 20
24.99999999999999
 30
0.0
 11
73.00000000000006
 21
24.99999999999999
 31
0.0
  0
LINE
  5
14A
330
1E
100
AcDbEntity
  8
HILF
100
AcDbLine
 10
20.00000000000004
 20
29.99999999999999
 30
0.0
 11
73.00000000000006
 21
29.99999999999999
 31
0.0
  0
LINE
  5
14B
330
1E
100
AcDbEntity
  8
HILF
100
AcDbLine
 10
20.00000000000004
 20
34.99999999999997
 30
0.0
 11
73.00000000000006
 21
34.99999999999997
 31
0.0
  0
LINE
  5
14C
330
1E
100
AcDbEntity
  8
HILF
100
AcDbLine
 10
20.00000000000004
 20
39.99999999999997
 30
0.0
 11
73.00000000000006
 21
39.99999999999997
 31
0.0
  0
LINE
  5
14D
330
1E
100
AcDbEntity
  8
HILF
100
AcDbLine
 10
20.00000000000004
 20
45.00000000000002
 30
0.0
 11
73.00000000000006
 21
45.00000000000002
 31
0.0
  0
LINE
  5
14E
330
1E
100
AcDbEntity
  8
HILF
100
AcDbLine
 10
20.00000000000004
 20
50.00000000000003
 30
0.0
 11
73.00000000000006
 21
50.00000000000003
 31
0.0
  0
LINE
  5
14F
330
1E
100
AcDbEntity
  8
STEMPEL
100
AcDbLine
 10
72.99999999999994
 20
14.99999999999998
 30
0.0
 11
19.99999999999998
 21
14.99999999999998
 31
0.0
  0
TEXT
  5
150
330
1E
100
AcDbEntity
  8
TEXT
100
AcDbText
 10
24.13320553522878
 20
6.827329230135958
 30
0.0
 40
2.0
  1
Index
 50
90.0
 41
0.8
  7
GREEKS
100
AcDbText
  0
LINE
  5
151
330
1E
100
AcDbEntity
  8
VOLL
100
AcDbLine
 10
27.00000000000005
 20
55.00000000000003
 30
0.0
 11
26.99999999999999
 21
4.999999999999985
 31
0.0
  0
LINE
  5
152
330
1E
100
AcDbEntity
  8
HILF
100
AcDbLine
 10
15.54383567856928
 20
148.5
 30
0.0
 11
0.0000000000000568
 21
148.5
 31
0.0
  0
LINE
  5
154
330
1E
100
AcDbEntity
  8
VOLL
100
AcDbLine
 10
62.00000000000006
 20
54.99999999999997
 30
0.0
 11
62.0
 21
4.999999999999985
 31
0.0
  0
LINE
  5
155
330
1E
100
AcDbEntity
  8
VOLL
100
AcDbLine
 10
52.00000000000006
 20
54.99999999999997
 30
0.0
 11
52.0
 21
4.999999999999985
 31
0.0
  0
LINE
  5
157
330
1E
100
AcDbEntity
  8
STEMPEL
100
AcDbLine
 10
73.00000000000006
 20
54.99999999999997
 30
0.0
 11
73.0
 21
4.999999999999985
 31
0.0
  0
TEXT
  5
158
330
1E
100
AcDbEntity
  8
TEXT
100
AcDbText
 10
85.35187950649897
 20
31.55382520412866
 30
0.0
 40
2.0
  1
14.04.
 41
0.8
  7
GREEKS
 72
     1
 11
88.70426045887993
 21
31.55382520412866
 31
0.0
100
AcDbText
  0
TEXT
  5
159
330
1E
100
AcDbEntity
  8
TEXT
100
AcDbText
 10
86.16558365768254
 20
36.65940250614963
 30
0.0
 40
2.0
  1
Tag
 41
0.8
  7
GREEKS
100
AcDbText
  0
TEXT
  5
15A
330
1E
100
AcDbEntity
  8
TEXT
100
AcDbText
 10
73.79180635838077
 20
31.81495184808982
 30
0.0
 40
2.0
  1
Gez.
 41
0.8
  7
GREEKS
100
AcDbText
  0
LINE
  5
15B
330
1E
100
AcDbEntity
  8
VOLL
100
AcDbLine
 10
82.00000000000006
 20
39.99999999999997
 30
0.0
 11
82.00000000000006
 21
19.99999999999998
 31
0.0
  0
TEXT
  5
15C
330
1E
100
AcDbEntity
  8
TEXT
100
AcDbText
 10
73.80033886936519
 20
21.76473194824904
 30
0.0
 40
2.0
  1
Norm.
 41
0.8
  7
GREEKS
100
AcDbText
  0
TEXT
  5
15D
330
1E
100
AcDbEntity
  8
TEXT
100
AcDbText
 10
73.77575432858361
 20
26.84463145714189
 30
0.0
 40
2.0
  1
Gepr.
 41
0.8
  7
GREEKS
100
AcDbText
  0
TEXT
  5
15E
330
1E
100
AcDbEntity
  8
TEXT
 62
     1
100
AcDbText
 10
80.25031532409434
 20
44.07450714456979
 30
0.0
 40
3.5
  1
1:1
 41
0.8
  7
GREEKS
100
AcDbText
  0
TEXT
  5
15F
330
1E
100
AcDbEntity
  8
TEXT
100
AcDbText
 10
76.75817860751886
 20
51.23104475435443
 30
0.0
 40
2.5
  1
Massstab
 41
0.8
  7
GREEKS
100
AcDbText
  0
TEXT
  5
160
330
1E
100
AcDbEntity
  8
TEXT
100
AcDbText
 10
74.31105491105199
 20
36.57012735575833
 30
0.0
 40
2.0
  1
2011
 41
0.8
  7
GREEKS
100
AcDbText
  0
LINE
  5
161
330
1E
100
AcDbEntity
  8
VOLL
100
AcDbLine
 10
95.00000000000005
 20
54.99999999999992
 30
0.0
 11
95.0
 21
19.99999999999998
 31
0.0
  0
LINE
  5
186
330
1E
100
AcDbEntity
  8
HILF
100
AcDbLine
 10
210.0
 20
-0.0000000000000568
 30
0.0
 11
210.0
 21
297.0
 31
0.0
  0
LINE
  5
187
330
1E
100
AcDbEntity
  8
STEMPEL
100
AcDbLine
 10
205.0
 20
5.0
 30
0.0
 11
205.0
 21
292.0
 31
0.0
  0
TEXT
  5
188
330
1E
100
AcDbEntity
  8
TEXT
100
AcDbText
 10
168.6200430748503
 20
26.03708088939301
 30
0.0
 40
2.5
  1
ersetzt durch:
 41
0.8
  7
GREEKS
100
AcDbText
  0
TEXT
  5
189
330
1E
100
AcDbEntity
  8
TEXT
100
AcDbText
 10
168.3619308148496
 20
36.59059118549985
 30
0.0
 40
2.5
  1
Ersatz für:
 41
0.8
  7
GREEKS
100
AcDbText
  0
TEXT
  5
18A
330
1E
100
AcDbEntity
  8
TEXT
100
AcDbText
 10
168.089377478817
 20
51.15660172685682
 30
0.0
 40
2.5
  1
Zeichnungs Nr.
 41
0.8
  7
GREEKS
100
AcDbText
  0
LINE
  5
18B
330
1E
100
AcDbEntity
  8
HILF
100
AcDbLine
 10
116.7454849644942
 20
7.446991290141568
 30
0.0
 11
202.4294419663364
 21
7.446991290141568
 31
0.0
  0
LINE
  5
18C
330
1E
100
AcDbEntity
  8
HILF
100
AcDbLine
 10
168.3619308148496
 20
41.88991818477913
 30
0.0
 11
202.4294419663364
 21
41.88991818477913
 31
0.0
  0
LINE
  5
18D
330
1E
100
AcDbEntity
  8
VOLL
100
AcDbLine
 10
166.0
 20
30.0
 30
0.0
 11
205.0
 21
30.0
 31
0.0
  0
TEXT
  5
18E
330
1E
100
AcDbEntity
  8
TEXT
 62
     1
100
AcDbText
 10
117.4641932160007
 20
43.70874394626889
 30
0.0
 40
3.5
  1
Abzweig DN50/50
 41
0.8
  7
GREEKS
100
AcDbText
  0
LINE
  5
18F
330
1E
100
AcDbEntity
  8
HILF
100
AcDbLine
 10
117.3868400548473
 20
24.99999999999999
 30
0.0
 11
162.4176958278155
 21
24.99999999999999
 31
0.0
  0
LINE
  5
190
330
1E
100
AcDbEntity
  8
HILF
100
AcDbLine
 10
117.3868400548473
 20
29.99999999999999
 30
0.0
 11
162.4176958278155
 21
29.99999999999999
 31
0.0
  0
LINE
  5
191
330
1E
100
AcDbEntity
  8
HILF
100
AcDbLine
 10
117.3868400548473
 20
34.99999999999997
 30
0.0
 11
162.4176958278155
 21
34.99999999999997
 31
0.0
  0
LINE
  5
192
330
1E
100
AcDbEntity
  8
HILF
100
AcDbLine
 10
117.3868400548473
 20
42.01879123782069
 30
0.0
 11
162.4176958278155
 21
42.01879123782069
 31
0.0
  0
LINE
  5
193
330
1E
100
AcDbEntity
  8
STEMPEL
100
AcDbLine
 10
115.0
 20
55.00000000000003
 30
0.0
 11
115.0
 21
4.999999999999985
 31
0.0
  0
TEXT
  5
194
330
1E
100
AcDbEntity
  8
TEXT
100
AcDbText
 10
117.5648195562657
 20
35.75167208792644
 30
0.0
 40
2.5
  1
dünnwandig 87°
 41
0.8
  7
GREEKS
100
AcDbText
  0
TEXT
  5
195
330
1E
100
AcDbEntity
  8
TEXT
100
AcDbText
 10
117.4918750788913
 20
21.31487076511316
 30
0.0
 40
2.0
  1
4200BB0W.DWG
 41
0.8
  7
GREEKS
100
AcDbText
  0
TEXT
  5
196
330
1E
100
AcDbEntity
  8
TEXT
100
AcDbText
 10
117.371119195568
 20
15.42280285096528
 30
0.0
 40
2.5
  1
Bauvorhaben
 41
0.8
  7
GREEKS
100
AcDbText
  0
TEXT
  5
197
330
1E
100
AcDbEntity
  8
TEXT
100
AcDbText
 10
117.4389701904505
 20
51.27446640058898
 30
0.0
 40
2.5
  1
Benennung
 41
0.8
  7
GREEKS
100
AcDbText
  0
LINE
  5
198
330
1E
100
AcDbEntity
  8
STEMPEL
100
AcDbLine
 10
166.0
 20
54.99999999999989
 30
0.0
 11
166.0
 21
20.0
 31
0.0
  0
TEXT
  5
19A
330
1E
100
AcDbEntity
  8
TEXT
 62
     1
100
AcDbText
 10
174.3079604324593
 20
44.07450714456979
 30
0.0
 40
3.5
  1
4200BB0W
 41
0.8
  7
GREEKS
 72
     1
 11
185.1079604324594
 21
44.07450714456979
 31
0.0
100
AcDbText
  0
TEXT
  5
212
330
1E
100
AcDbEntity
  8
TEXT
100
AcDbText
 10
117.5648195562657
 20
25.75167208792646
 30
0.0
 40
2.5
  1
EDV-Art.Nr. 4.200.BB0C
 41
0.8
  7
GREEKS
100
AcDbText
  0
TEXT
  5
255
330
1E
100
AcDbEntity
  8
TEXT
 62
     1
100
AcDbText
 10
148.9987436921494
 20
65.61381838269608
 30
0.0
 40
3.5
  1
Werkstoff: 1.4301
 41
0.8
  7
GREEKS
100
AcDbText
  0
LINE
  5
56D
330
1E
100
AcDbEntity
  8
HILF
100
AcDbLine
 10
59.55250004987829
 20
241.303201024199
 30
0.0
 11
115.6834575939413
 21
241.303201024199
 31
0.0
  0
LINE
  5
56E
330
1E
100
AcDbEntity
  8
HILF
100
AcDbLine
 10
60.0461852428312
 20
228.5037961090945
 30
0.0
 11
115.1897724009884
 21
228.5037961090945
 31
0.0
  0
LINE
  5
56F
330
1E
100
AcDbEntity
  8
HILF
100
AcDbLine
 10
61.83665903254859
 20
223.9688511469857
 30
0.0
 11
113.3992986112711
 21
223.9688511469857
 31
0.0
  0
LINE
  5
570
330
1E
100
AcDbEntity
  8
STEMPEL
100
AcDbLine
 10
116.6352215905334
 20
263.8593315499976
 30
0.0
 11
58.60073605328614
 21
263.8593315499976
 31
0.0
  0
LINE
  5
585
330
1E
100
AcDbEntity
  8
MITTEL
100
AcDbLine
 10
87.61797882190979
 20
268.8593315499976
 30
0.0
 11
87.61797882190995
 21
90.85933154999763
 31
0.0
  0
ARC
  5
5A4
330
1E
100
AcDbEntity
  8
STEMPEL
100
AcDbCircle
 10
70.2179788219098
 20
231.1085255354679
 30
0.0
 40
11.5
100
AcDbArc
 50
180.0
 51
208.7266053481407
  0
ARC
  5
5A7
330
1E
100
AcDbEntity
  8
STEMPEL
100
AcDbCircle
 10
48.21797882190981
 20
239.3593315499976
 30
0.0
 40
10.5
100
AcDbArc
 50
0.0
 51
19.46309944468912
  0
LINE
  5
5AD
330
1E
100
AcDbEntity
  8
STEMPEL
100
AcDbLine
 10
56.71797882190981
 20
255.6131202987621
 30
0.0
 11
56.71797882190981
 21
250.9816982267769
 31
0.0
  0
LINE
  5
5AF
330
1E
100
AcDbEntity
  8
STEMPEL
100
AcDbLine
 10
58.71797882190981
 20
239.3593315499976
 30
0.0
 11
58.71797882190981
 21
231.1085255354679
 31
0.0
  0
ARC
  5
5B0
330
1E
100
AcDbEntity
  8
STEMPEL
100
AcDbCircle
 10
81.2179788219098
 20
251.0213315499976
 30
0.0
 40
24.5000320571282
100
AcDbArc
 50
179.9053619552033
 51
199.4630994446891
  0
ARC
  5
5B1
330
1E
100
AcDbEntity
  8
STEMPEL
100
AcDbCircle
 10
75.71797882190981
 20
255.6131202987621
 30
0.0
 40
19.0
100
AcDbArc
 50
154.277613507817
 51
180.0
  0
ARC
  5
5B8
330
1E
100
AcDbEntity
  8
STEMPEL
100
AcDbCircle
 10
53.11797882190979
 20
221.7362259243799
 30
0.0
 40
8.0
100
AcDbArc
 50
359.9999999999996
 51
28.7266053481407
  0
LINE
  5
5E2
330
1E
100
AcDbEntity
  8
STEMPEL
100
AcDbLine
 10
118.5179788219097
 20
255.6131202987622
 30
0.0
 11
118.5179788219097
 21
250.981698226777
 31
0.0
  0
ARC
  5
5ED
330
1E
100
AcDbEntity
  8
STEMPEL
100
AcDbCircle
 10
105.0179788219098
 20
231.1085255354679
 30
0.0
 40
11.5
100
AcDbArc
 50
331.2733946518593
 51
0.0
  0
ARC
  5
5F2
330
1E
100
AcDbEntity
  8
STEMPEL
100
AcDbCircle
 10
122.1179788219099
 20
221.73622592438
 30
0.0
 40
8.0
100
AcDbArc
 50
151.2733946518593
 51
180.0000000000004
  0
ARC
  5
5F9
330
1E
100
AcDbEntity
  8
STEMPEL
100
AcDbCircle
 10
127.0179788219098
 20
239.3593315499976
 30
0.0
 40
10.5
100
AcDbArc
 50
160.5369005553108
 51
180.0
  0
LINE
  5
5FA
330
1E
100
AcDbEntity
  8
STEMPEL
100
AcDbLine
 10
116.5179788219098
 20
239.3593315499976
 30
0.0
 11
116.5179788219098
 21
231.1085255354679
 31
0.0
  0
ARC
  5
5FB
330
1E
100
AcDbEntity
  8
STEMPEL
100
AcDbCircle
 10
94.01797882190976
 20
251.0213315499976
 30
0.0
 40
24.5000320571282
100
AcDbArc
 50
340.5369005553109
 51
0.0946380447966296
  0
ARC
  5
5FF
330
1E
100
AcDbEntity
  8
STEMPEL
100
AcDbCircle
 10
99.51797882190977
 20
255.6131202987622
 30
0.0
 40
19.0
100
AcDbArc
 50
0.0
 51
25.72238649218916
  0
LINE
  5
83D
330
1E
100
AcDbEntity
  8
STEMPEL
100
AcDbLine
 10
177.0160230281419
 20
151.4874200534856
 30
0.0
 11
173.9787327324828
 21
209.4423713452679
 31
0.0
  0
LINE
  5
84D
330
1E
100
AcDbEntity
  8
MITTEL
100
AcDbLine
 10
180.4905255540852
 20
180.7265754805914
 30
0.0
 11
87.61797882190984
 21
175.8593315499976
 31
0.0
  0
TEXT
  5
88F
330
1E
100
AcDbEntity
  8
TEXT
 62
     1
100
AcDbText
 10
159.8000066779629
 20
189.1903975841049
 30
0.0
 40
3.5
  1
DN50
 50
2.999999999999989
 41
0.8
  7
GREEKS
100
AcDbText
  0
LINE
  5
890
330
1E
100
AcDbEntity
  8
HILF
100
AcDbLine
 10
151.5033260785204
 20
207.3114150479466
 30
0.0
 11
154.440993416421
 21
151.2573830303902
 31
0.0
  0
LINE
  5
891
330
1E
100
AcDbEntity
  8
HILF
100
AcDbLine
 10
138.7472997896703
 20
206.1485373378203
 30
0.0
 11
141.6332921542587
 21
151.0805225493713
 31
0.0
  0
LINE
  5
892
330
1E
100
AcDbEntity
  8
HILF
100
AcDbLine
 10
134.3122759699348
 20
204.1231766491034
 30
0.0
 11
137.0108560186975
 21
152.6312018758859
 31
0.0
  0
ARC
  5
893
330
1E
100
AcDbEntity
  8
STEMPEL
100
AcDbCircle
 10
141.880810068558
 20
196.1270048536088
 30
0.0
 40
11.5
100
AcDbArc
 50
93.0
 51
121.7266053481399
  0
ARC
  5
894
330
1E
100
AcDbEntity
  8
STEMPEL
100
AcDbCircle
 10
148.9689176028533
 20
218.5286684407548
 30
0.0
 40
10.5
100
AcDbArc
 50
273.0
 51
292.4630994446893
  0
LINE
  5
895
330
1E
100
AcDbEntity
  8
STEMPEL
100
AcDbLine
 10
165.6452867270962
 20
210.8909749720783
 30
0.0
 11
161.0202118580976
 21
210.6485850691763
 31
0.0
  0
LINE
  5
896
330
1E
100
AcDbEntity
  8
STEMPEL
100
AcDbLine
 10
149.5184451434041
 20
208.0430583258318
 30
0.0
 11
141.2789465717642
 21
207.6112445032863
 31
0.0
  0
ARC
  5
897
330
1E
100
AcDbEntity
  8
STEMPEL
100
AcDbCircle
 10
162.3420217931783
 20
186.1842357155591
 30
0.0
 40
24.5000320571282
100
AcDbArc
 50
92.90536195520337
 51
112.4630994446893
  0
ARC
  5
898
330
1E
100
AcDbEntity
  8
STEMPEL
100
AcDbCircle
 10
166.6396698957122
 20
191.9170138117414
 30
0.0
 40
19.0
100
AcDbArc
 50
67.27761350781704
 51
93.0
  0
LINE
  5
899
330
1E
100
AcDbEntity
  8
STEMPEL
100
AcDbLine
 10
132.0450976665459
 20
204.7240253575337
 30
0.0
 11
118.9230589551552
 21
204.0363284490036
 31
0.0
  0
LINE
  5
89A
330
1E
100
AcDbEntity
  8
STEMPEL
100
AcDbLine
 10
131.0422527027794
 20
204.6714684800175
 30
0.0
 11
114.1179788219101
 21
203.7845048699432
 31
0.0
  0
ARC
  5
89B
330
1E
100
AcDbEntity
  8
STEMPEL
100
AcDbCircle
 10
131.6264100166024
 20
212.7130616355703
 30
0.0
 40
8.0
100
AcDbArc
 50
272.9999999999996
 51
301.72660534814
  0
LINE
  5
89C
330
1E
100
AcDbEntity
  8
STEMPEL
100
AcDbLine
 10
168.8796488229102
 20
149.1756697242457
 30
0.0
 11
164.2545739539115
 21
148.9332798213437
 31
0.0
  0
ARC
  5
89D
330
1E
100
AcDbEntity
  8
STEMPEL
100
AcDbCircle
 10
143.7021013458124
 20
161.3746970441496
 30
0.0
 40
11.5
100
AcDbArc
 50
244.2733946518601
 51
273.0
  0
LINE
  5
89E
330
1E
100
AcDbEntity
  8
STEMPEL
100
AcDbLine
 10
133.8160583836556
 20
151.744103138025
 30
0.0
 11
121.6968646360312
 21
151.108963107011
 31
0.0
  0
LINE
  5
89F
330
1E
100
AcDbEntity
  8
STEMPEL
100
AcDbLine
 10
134.818903347422
 20
151.7966600155413
 30
0.0
 11
114.1179788219103
 21
150.7117705320533
 31
0.0
  0
ARC
  5
8A0
330
1E
100
AcDbEntity
  8
STEMPEL
100
AcDbCircle
 10
135.2375909973656
 20
143.8076237375046
 30
0.0
 40
8.0
100
AcDbArc
 50
64.2733946518601
 51
93.00000000000041
  0
ARC
  5
8A1
330
1E
100
AcDbEntity
  8
STEMPEL
100
AcDbCircle
 10
153.0929909547974
 20
139.8366611020944
 30
0.0
 40
10.5
100
AcDbArc
 50
73.53690055531069
 51
93.0
  0
LINE
  5
8A2
330
1E
100
AcDbEntity
  8
STEMPEL
100
AcDbLine
 10
152.5434634142464
 20
150.3222712170174
 30
0.0
 11
144.3039648426063
 21
149.890457394472
 31
0.0
  0
ARC
  5
8A3
330
1E
100
AcDbEntity
  8
STEMPEL
100
AcDbCircle
 10
163.011922033088
 20
173.4017776707006
 30
0.0
 40
24.5000320571282
100
AcDbArc
 50
253.5369005553107
 51
273.0946380447966
  0
ARC
  5
8A4
330
1E
100
AcDbEntity
  8
STEMPEL
100
AcDbCircle
 10
167.8852656542943
 20
168.1496308845826
 30
0.0
 40
19.0
100
AcDbArc
 50
273.0
 51
298.7223864921893
  0
TEXT
  5
8E9
330
1E
100
AcDbEntity
  8
TEXT
 62
     1
100
AcDbText
 10
71.21738418570783
 20
251.1312834789476
 30
0.0
 40
3.5
  1
DN50
 41
0.8
  7
GREEKS
100
AcDbText
  0
LINE
  5
8EA
330
1E
100
AcDbEntity
  8
STEMPEL
100
AcDbLine
 10
114.11797882191
 20
221.7362259243799
 30
0.0
 11
114.1179788219101
 21
203.7845048699432
 31
0.0
  0
DIMENSION
  5
8EE
330
1E
100
AcDbEntity
  8
BEM
100
AcDbDimension
  2
*D1
 10
114.1179788219108
 20
82.7973600586634
 30
0.0
 11
87.61797882191036
 21
86.04736005866341
 31
0.0
 70
    32
  1
%%c<>
 71
     5
 42
53.00000000000091
  3
Standard
100
AcDbAlignedDimension
 13
61.1179788219099
 23
100.8593315499976
 33
0.0
 14
114.1179788219108
 24
100.8593315499976
 34
0.0
100
AcDbRotatedDimension
1001
ACAD
1000
DSTYLE
1002
{
1070
    41
1040
3.5
1070
    42
1040
1.0
1070
    43
1040
7.0
1070
    44
1040
1.0
1070
    73
1070
     0
1070
    74
1070
     0
1070
    77
1070
     1
1070
    78
1070
     8
1070
    79
1070
     2
1070
   140
1040
3.5
1070
   141
1040
1.5
1070
   146
1040
0.5142857142857144
1070
   147
1040
1.5
1070
   172
1070
     1
1070
   178
1070
     1
1070
   179
1070
     3
1070
   271
1070
     2
1070
   272
1070
     2
1070
   275
1070
     1
1070
   284
1070
     8
1070
   285
1070
     8
1070
   286
1070
     8
1002
}
  0
LINE
  5
8EF
330
1E
100
AcDbEntity
  8
HILF
100
AcDbLine
 10
113.1179788219105
 20
100.8593315499976
 30
0.0
 11
62.11797882190984
 21
100.8593315499976
 31
0.0
  0
LINE
  5
8F0
330
1E
100
AcDbEntity
  8
STEMPEL
100
AcDbLine
 10
113.680535504281
 20
95.85933154999763
 30
0.0
 11
61.55542213953947
 21
95.85933154999763
 31
0.0
  0
LINE
  5
8F1
330
1E
100
AcDbEntity
  8
STEMPEL
100
AcDbLine
 10
114.1179788219106
 20
100.8593315499979
 30
0.0
 11
113.680535504281
 21
95.85933154999763
 31
0.0
  0
LINE
  5
8F4
330
1E
100
AcDbEntity
  8
STEMPEL
100
AcDbLine
 10
61.1179788219099
 20
100.8593315499976
 30
0.0
 11
61.55542213953947
 21
95.85933154999763
 31
0.0
  0
LINE
  5
8F5
330
1E
100
AcDbEntity
  8
STEMPEL
100
AcDbLine
 10
61.11797882190991
 20
221.7362259243799
 30
0.0
 11
61.11797882190984
 21
100.8593315499976
 31
0.0
  0
LINE
  5
92E
330
1E
100
AcDbEntity
  8
STEMPEL
100
AcDbLine
 10
114.1179788219103
 20
150.7117705320533
 30
0.0
 11
114.1179788219105
 21
100.8593315499976
 31
0.0
  0
LINE
  5
92F
330
1E
100
AcDbEntity
  8
STEMPEL
100
AcDbLine
 10
114.1179788219101
 20
203.7845048699432
 30
0.0
 11
87.61797882190984
 21
175.8593315499976
 31
0.0
  0
LINE
  5
930
330
1E
100
AcDbEntity
  8
STEMPEL
100
AcDbLine
 10
87.61797882190984
 20
175.8593315499976
 30
0.0
 11
114.1179788219103
 21
150.7117705320533
 31
0.0
  0
ARC
  5
965
330
1E
100
AcDbEntity
  8
SCHRAFF
100
AcDbCircle
 10
97.76228803807914
 20
186.5492029867013
 30
0.0
 40
2.737040435803697
100
AcDbArc
 50
179.5535241814929
 51
273.4464758185067
  0
ARC
  5
967
330
1E
100
AcDbEntity
  8
SCHRAFF
100
AcDbCircle
 10
90.87874228114163
 20
179.2954592765785
 30
0.0
 40
2.737040435803697
100
AcDbArc
 50
179.5535241814929
 51
273.4464758185067
  0
ARC
  5
968
330
1E
100
AcDbEntity
  8
SCHRAFF
100
AcDbCircle
 10
94.32051515961035
 20
182.9223311316399
 30
0.0
 40
2.737040435803697
100
AcDbArc
 50
179.5535241814929
 51
273.4464758185067
  0
ARC
  5
969
330
1E
100
AcDbEntity
  8
SCHRAFF
100
AcDbCircle
 10
101.2040609165478
 20
190.1760748417627
 30
0.0
 40
2.737040435803697
100
AcDbArc
 50
179.5535241814929
 51
273.4464758185067
  0
ARC
  5
96A
330
1E
100
AcDbEntity
  8
SCHRAFF
100
AcDbCircle
 10
108.0876066734854
 20
197.4298185518856
 30
0.0
 40
2.737040435803697
100
AcDbArc
 50
179.5535241814929
 51
273.4464758185067
  0
ARC
  5
96B
330
1E
100
AcDbEntity
  8
SCHRAFF
100
AcDbCircle
 10
104.6458337950166
 20
193.8029466968241
 30
0.0
 40
2.737040435803697
100
AcDbArc
 50
179.5535241814929
 51
273.4464758185067
  0
ARC
  5
96C
330
1E
100
AcDbEntity
  8
SCHRAFF
100
AcDbCircle
 10
99.67353010697618
 20
164.4190405482556
 30
0.0
 40
2.634435742375651
100
AcDbArc
 50
87.10840338114447
 51
185.8915966188519
  0
ARC
  5
96D
330
1E
100
AcDbEntity
  8
SCHRAFF
100
AcDbCircle
 10
92.4197863968533
 20
171.3025863051931
 30
0.0
 40
2.634435742375651
100
AcDbArc
 50
87.10840338114447
 51
185.8915966188519
  0
ARC
  5
96E
330
1E
100
AcDbEntity
  8
SCHRAFF
100
AcDbCircle
 10
96.04665825191474
 20
167.8608134267244
 30
0.0
 40
2.634435742375651
100
AcDbArc
 50
87.10840338114447
 51
185.8915966188519
  0
ARC
  5
96F
330
1E
100
AcDbEntity
  8
SCHRAFF
100
AcDbCircle
 10
103.3004019620376
 20
160.9772676697868
 30
0.0
 40
2.634435742375651
100
AcDbArc
 50
87.10840338114447
 51
185.8915966188519
  0
ARC
  5
970
330
1E
100
AcDbEntity
  8
SCHRAFF
100
AcDbCircle
 10
106.9272738170991
 20
157.535494791318
 30
0.0
 40
2.634435742375651
100
AcDbArc
 50
87.10840338114447
 51
185.8915966188519
  0
ARC
  5
971
330
1E
100
AcDbEntity
  8
SCHRAFF
100
AcDbCircle
 10
110.5541456721605
 20
154.0937219128492
 30
0.0
 40
2.634435742375651
100
AcDbArc
 50
87.10840338114447
 51
185.8915966188519
  0
ARC
  5
98B
330
1E
100
AcDbEntity
  8
SCHRAFF
100
AcDbCircle
 10
114.9711524304229
 20
204.6835622620085
 30
0.0
 40
2.737040435803697
100
AcDbArc
 50
179.5535241814929
 51
273.4464758185067
  0
ARC
  5
98C
330
1E
100
AcDbEntity
  8
SCHRAFF
100
AcDbCircle
 10
111.5293795519541
 20
201.056690406947
 30
0.0
 40
2.737040435803697
100
AcDbArc
 50
179.5535241814929
 51
273.4464758185067
  0
ARC
  5
98E
330
1E
100
AcDbEntity
  8
SCHRAFF
100
AcDbCircle
 10
114.181017527222
 20
150.6519490343805
 30
0.0
 40
2.634435742375651
100
AcDbArc
 50
87.10840338114447
 51
185.8915966188519
  0
HATCH
  5
991
330
1E
100
AcDbEntity
  8
SCHRAFF
100
AcDbHatch
 10
0.0
 20
0.0
 30
0.0
210
0.0
220
0.0
230
1.0
  2
_USER
 70
     0
 71
     0
 91
        1
 92
        7
 72
     1
 73
     1
 93
        3
 10
114.1179788219101
 20
206.6899842124527
 42
0.0
 10
114.1179788219102
 20
203.7845048699433
 42
0.0
 10
117.0194763059593
 20
203.9365659096776
 42
0.1050358435976111
 97
        0
 75
     0
 76
     0
 52
0.0
 41
0.1
 77
     0
 78
     1
 53
2.99999999999999
 43
86.57965884152583
 44
170.9636472780457
 45
-0.0052335956242944
 46
0.0998629534754574
 79
     0
 47
0.0528140917161994
 98
        1
 10
114.4580799302524
 20
204.5073093342541
  0
ARC
  5
992
330
1E
100
AcDbEntity
  8
SCHRAFF
100
AcDbCircle
 10
109.087508763347
 20
198.4834955014084
 30
0.0
 40
9.625595356890737
100
AcDbArc
 50
34.50775153316215
 51
58.49224846683788
  0
HATCH
  5
993
330
1E
100
AcDbEntity
  8
SCHRAFF
100
AcDbHatch
 10
0.0
 20
0.0
 30
0.0
210
0.0
220
0.0
230
1.0
  2
_USER
 70
     0
 71
     0
 91
        1
 92
        7
 72
     1
 73
     1
 93
        3
 10
114.1179788219103
 20
147.9545735866899
 42
0.2083141539120348
 10
116.8713971246853
 20
150.8560710707389
 42
0.0
 10
114.1179788219103
 20
150.7117705320532
 42
0.0
 97
        0
 75
     0
 76
     0
 52
0.0
 41
0.1
 77
     0
 78
     1
 53
2.99999999999999
 43
86.579658841526
 44
159.9485514720683
 45
-0.0052335956242944
 46
0.0998629534754574
 79
     0
 47
0.0684156552203192
 98
        1
 10
114.6659983474267
 20
149.1550222874868
  0
ARC
  5
994
330
1E
100
AcDbEntity
  8
SCHRAFF
100
AcDbCircle
 10
112.1636761728082
 20
152.5663344986881
 30
0.0
 40
5.008756088463742
100
AcDbArc
 50
292.9655285211922
 51
340.0344714788074
  0
DIMENSION
  5
995
330
1E
100
AcDbEntity
  8
BEM
100
AcDbDimension
  2
*D3
 10
52.06029915850058
 20
175.8593315499976
 30
0.0
 11
48.81029915850056
 21
135.8593315499976
 31
0.0
 70
    32
 71
     5
 42
80.00000000000001
  3
Standard
100
AcDbAlignedDimension
 13
61.55542213953947
 23
95.85933154999763
 33
0.0
 14
87.61797882190984
 24
175.8593315499976
 34
0.0
 50
90.0
100
AcDbRotatedDimension
1001
ACAD
1000
DSTYLE
1002
{
1070
    41
1040
3.5
1070
    42
1040
1.0
1070
    43
1040
7.0
1070
    44
1040
1.0
1070
    73
1070
     0
1070
    74
1070
     0
1070
    77
1070
     1
1070
    78
1070
     8
1070
    79
1070
     2
1070
   140
1040
3.5
1070
   141
1040
1.5
1070
   146
1040
0.5142857142857144
1070
   147
1040
1.5
1070
   172
1070
     1
1070
   178
1070
     1
1070
   179
1070
     2
1070
   271
1070
     2
1070
   272
1070
     2
1070
   284
1070
     8
1070
   285
1070
     8
1070
   286
1070
     8
1002
}
  0
DIMENSION
  5
9A3
330
1E
100
AcDbEntity
  8
BEM
100
AcDbDimension
  2
*D4
 10
44.90548573150297
 20
263.8593315499976
 30
0.0
 11
41.65548573150292
 21
179.8593315499976
 31
0.0
 70
    32
 71
     5
 42
168.0
  3
Standard
100
AcDbAlignedDimension
 13
61.55542213953947
 23
95.85933154999763
 33
0.0
 14
58.60073605328614
 24
263.8593315499976
 34
0.0
 50
90.0
100
AcDbRotatedDimension
1001
ACAD
1000
DSTYLE
1002
{
1070
    41
1040
3.5
1070
    42
1040
1.0
1070
    43
1040
7.0
1070
    44
1040
1.0
1070
    73
1070
     0
1070
    74
1070
     0
1070
    77
1070
     1
1070
    78
1070
     8
1070
    79
1070
     2
1070
   140
1040
3.5
1070
   141
1040
1.5
1070
   146
1040
0.5142857142857144
1070
   147
1040
1.5
1070
   172
1070
     1
1070
   178
1070
     1
1070
   179
1070
     2
1070
   271
1070
     2
1070
   272
1070
     2
1070
   284
1070
     8
1070
   285
1070
     8
1070
   286
1070
     8
1002
}
  0
DIMENSION
  5
9B9
330
1E
100
AcDbEntity
  8
BEM
100
AcDbDimension
  2
*D5
 10
87.61797882190995
 20
90.85933154999763
 30
0.0
 11
160.3098490826754
 21
252.4605797002946
 31
0.0
 70
    34
 71
     5
 42
1.518436449235067
  3
Standard
100
AcDb2LineAngularDimension
 13
180.4905255540852
 23
180.7265754805914
 33
0.0
 14
87.61797882190984
 24
175.8593315499976
 34
0.0
 15
87.61797882190979
 25
268.8593315499976
 35
0.0
 16
174.4177059994798
 26
230.0978208173523
 36
0.0
1001
ACAD
1000
DSTYLE
1002
{
1070
    41
1040
3.5
1070
    42
1040
1.0
1070
    43
1040
7.0
1070
    44
1040
1.0
1070
    73
1070
     0
1070
    74
1070
     0
1070
    77
1070
     1
1070
    78
1070
     8
1070
    79
1070
     2
1070
   140
1040
3.5
1070
   141
1040
1.5
1070
   146
1040
0.5142857142857144
1070
   147
1040
1.5
1070
   172
1070
     1
1070
   178
1070
     1
1070
   179
1070
     2
1070
   271
1070
     2
1070
   272
1070
     2
1070
   284
1070
     8
1070
   285
1070
     8
1070
   286
1070
     8
1002
}
  0
TEXT
  5
A0C
330
1E
100
AcDbEntity
  8
BEM
100
AcDbText
 10
208.2905770718719
 20
6.074024076691515
 30
0.0
 40
2.0
  1
Diese Zeichnung ist urheberrechtlich geschützt und bleibt unser Eigentum. Sie darf weder ganz noch teilweise vervielfältigt und nicht an Dritte weitergegeben werden.
 50
90.0
 41
0.8
  7
GREEKS
100
AcDbText
  0
TEXT
  5
A0D
330
1E
100
AcDbEntity
  8
TEXT
100
AcDbText
 10
96.34413576239619
 20
44.50323185339641
 30
0.0
 40
2.0
  1
DIN EN1124-3
 41
0.8
  7
GREEKS
 72
     1
 11
104.8393738576343
 21
44.50323185339641
 31
0.0
100
AcDbText
  0
TEXT
  5
A19
330
1E
100
AcDbEntity
  8
TEXT
100
AcDbText
 10
33.49933939241158
 20
9.336909474920659
 30
0.0
 40
2.0
  1
Änderung
 41
0.8
  7
GREEKS
 72
     1
 11
38.87076796384015
 21
9.336909474920659
 31
0.0
100
AcDbText
  0
TEXT
  5
A1A
330
1E
100
AcDbEntity
  8
TEXT
100
AcDbText
 10
55.17481598333814
 20
9.33578134669905
 30
0.0
 40
2.0
  1
Tag
 41
0.8
  7
GREEKS
 72
     1
 11
57.04148265000481
 21
9.33578134669905
 31
0.0
100
AcDbText
  0
TEXT
  5
A1B
330
1E
100
AcDbEntity
  8
TEXT
100
AcDbText
 10
64.61958341495059
 20
9.29662108483204
 30
0.0
 40
2.0
  1
Name
 41
0.8
  7
GREEKS
 72
     1
 11
67.78148817685536
 21
9.29662108483204
 31
0.0
100
AcDbText
  0
TEXT
  5
A31
330
1E
100
AcDbEntity
  8
TEXT
 62
     1
100
AcDbText
 10
185.1079604324594
 20
31.4685324977628
 30
0.0
 40
3.5
  1

 41
0.8
  7
GREEKS
 72
     1
 11
185.1079604324594
 21
31.4685324977628
 31
0.0
100
AcDbText
  0
DIMENSION
  5
A47
330
1E
100
AcDbEntity
  8
BEM
100
AcDbDimension
  2
*D6
 10
177.6407216520089
 20
139.5674602228455
 30
0.0
 11
133.530930265018
 21
140.5102241361083
 31
0.0
 70
    32
 71
     5
 42
88.00000000000011
 51
357.0
  3
Standard
100
AcDbAlignedDimension
 13
87.61797882190984
 23
175.8593315499976
 33
0.0
 14
177.016023028142
 24
151.4874200534855
 34
0.0
 50
2.999999999999078
100
AcDbRotatedDimension
1001
ACAD
1000
DSTYLE
1002
{
1070
    41
1040
3.5
1070
    42
1040
1.0
1070
    43
1040
7.0
1070
    44
1040
1.0
1070
    73
1070
     0
1070
    74
1070
     0
1070
    77
1070
     1
1070
    78
1070
     8
1070
    79
1070
     2
1070
   140
1040
3.5
1070
   141
1040
1.5
1070
   146
1040
0.5142857142857144
1070
   147
1040
1.5
1070
   172
1070
     1
1070
   178
1070
     1
1070
   179
1070
     2
1070
   271
1070
     2
1070
   272
1070
     2
1070
   284
1070
     8
1070
   285
1070
     8
1070
   286
1070
     8
1002
}
  0
ENDSEC
  0
SECTION
  2
OBJECTS
  0
DICTIONARY
  5
C
330
0
100
AcDbDictionary
281
     1
  3
ACAD_COLOR
350
A04
  3
ACAD_GROUP
350
D
  3
ACAD_LAYOUT
350
19
  3
ACAD_MATERIAL
350
A03
  3
ACAD_MLINESTYLE
350
16
  3
ACAD_PLOTSETTINGS
350
18
  3
ACAD_PLOTSTYLENAME
350
E
  3
AcDbVariableDictionary
350
246
  0
DICTIONARY
  5
A04
102
{ACAD_REACTORS
330
C
102
}
330
C
100
AcDbDictionary
281
     1
  0
DICTIONARY
  5
D
102
{ACAD_REACTORS
330
C
102
}
330
C
100
AcDbDictionary
281
     1
  0
DICTIONARY
  5
19
102
{ACAD_REACTORS
330
C
102
}
330
C
100
AcDbDictionary
281
     1
  3
Layout1
350
1D
  3
Model
350
21
  0
DICTIONARY
  5
A03
102
{ACAD_REACTORS
330
C
102
}
330
C
100
AcDbDictionary
281
     1
  0
DICTIONARY
  5
16
102
{ACAD_REACTORS
330
C
102
}
330
C
100
AcDbDictionary
281
     1
  3
Standard
350
17
  0
DICTIONARY
  5
18
102
{ACAD_REACTORS
330
C
102
}
330
C
100
AcDbDictionary
281
     1
  0
ACDBDICTIONARYWDFLT
  5
E
102
{ACAD_REACTORS
330
C
102
}
330
C
100
AcDbDictionary
281
     1
  3
Normal
350
F
100
AcDbDictionaryWithDefault
340
F
  0
DICTIONARY
  5
246
102
{ACAD_REACTORS
330
C
102
}
330
C
100
AcDbDictionary
281
     1
  3
DIMASSOC
350
A2D
  3
PROJECTNAME
350
A2E
  3
SORTENTS
350
247
  0
LAYOUT
  5
1D
102
{ACAD_REACTORS
330
19
102
}
330
19
100
AcDbPlotSettings
  1

  2
Tektronix Phaser 740
  4

  6

 40
0.0
 41
0.0
 42
0.0
 43
0.0
 44
0.0
 45
0.0
 46
0.0
 47
0.0
 48
0.0
 49
0.0
140
0.0
141
0.0
142
1.0
143
1.0
 70
   688
 72
     0
 73
     0
 74
     5
  7
monochrome.ctb
 75
    16
147
1.0
 76
     0
 77
     2
 78
   300
148
0.0
149
0.0
100
AcDbLayout
  1
Layout1
 70
     0
 71
     1
 10
0.0
 20
0.0
 11
12.0
 21
9.0
 12
0.0
 22
0.0
 32
0.0
 14
1.000000000000000E+20
 24
1.000000000000000E+20
 34
1.000000000000000E+20
 15
-1.000000000000000E+20
 25
-1.000000000000000E+20
 35
-1.000000000000000E+20
146
0.0
 13
0.0
 23
0.0
 33
0.0
 16
1.0
 26
0.0
 36
0.0
 17
0.0
 27
1.0
 37
0.0
 76
     0
330
1A
  0
LAYOUT
  5
21
102
{ACAD_REACTORS
330
19
102
}
330
19
100
AcDbPlotSettings
  1

  2
Tektronix Phaser 740
  4
A4
  6

 40
5.873749732971191
 41
6.085414409637451
 42
5.577407836914062
 43
5.662078857421875
 44
209.9733276367187
 45
296.9683227539062
 46
0.0
 47
0.0
 48
0.0
 49
0.0
140
0.0
141
0.0
142
1.0
143
1.0
 70
 11952
 72
     0
 73
     1
 74
     0
  7
monochrome.ctb
 75
     0
147
1.0
 76
     0
 77
     2
 78
   300
148
1150.120678237584
149
45.30495740799864
100
AcDbLayout
  1
Model
 70
     1
 71
     0
 10
0.0
 20
0.0
 11
12.0
 21
9.0
 12
0.0
 22
0.0
 32
0.0
 14
0.0
 24
0.0
 34
0.0
 15
0.0
 25
0.0
 35
0.0
146
0.0
 13
0.0
 23
0.0
 33
0.0
 16
1.0
 26
0.0
 36
0.0
 17
0.0
 27
1.0
 37
0.0
 76
     0
330
1E
  0
MLINESTYLE
  5
17
102
{ACAD_REACTORS
330
16
102
}
330
16
100
AcDbMlineStyle
  2
STANDARD
 70
     0
  3

 62
   256
 51
90.0
 52
90.0
 71
     2
 49
0.5
 62
   256
  6
BYLAYER
 49
-0.5
 62
   256
  6
BYLAYER
  0
ACDBPLACEHOLDER
  5
F
102
{ACAD_REACTORS
330
E
102
}
330
E
  0
DICTIONARYVAR
  5
A2D
102
{ACAD_REACTORS
330
246
102
}
330
246
100
DictionaryVariables
280
     0
  1
1
  0
DICTIONARYVAR
  5
A2E
102
{ACAD_REACTORS
330
246
102
}
330
246
100
DictionaryVariables
280
     0
  1

  0
DICTIONARYVAR
  5
247
102
{ACAD_REACTORS
330
246
102
}
330
246
100
DictionaryVariables
280
     0
  1
96
  0
ENDSEC
  0
EOF
