  0
SECTION
  2
HEADER
  9
$ACADVER
  1
AC1018
  9
$ACADMAINTVER
 70
     2
  9
$DWGCODEPAGE
  3
ANSI_1252
  9
$INSBASE
 10
0.0
 20
0.0
 30
0.0
  9
$EXTMIN
 10
-0.0256208784119281
 20
-0.0362352423260291
 30
-0.0000000000000096
  9
$EXTMAX
 10
420.0256433713739
 20
594.0362670537999
 30
0.0000000000000056
  9
$LIMMIN
 10
0.0
 20
0.0
  9
$LIMMAX
 10
419.9999999999999
 20
594.0
  9
$ORTHOMODE
 70
     1
  9
$REGENMODE
 70
     1
  9
$FILLMODE
 70
     1
  9
$QTEXTMODE
 70
     0
  9
$MIRRTEXT
 70
     1
  9
$LTSCALE
 40
20.0
  9
$ATTMODE
 70
     1
  9
$TEXTSIZE
 40
3.5
  9
$TRACEWID
 40
0.5
  9
$TEXTSTYLE
  7
STANDARD
  9
$CLAYER
  8
BEM
  9
$CELTYPE
  6
ByLayer
  9
$CECOLOR
 62
   256
  9
$CELTSCALE
 40
1.0
  9
$DISPSILH
 70
     0
  9
$DIMSCALE
 40
2.0
  9
$DIMASZ
 40
3.5
  9
$DIMEXO
 40
1.0
  9
$DIMDLI
 40
7.0
  9
$DIMRND
 40
0.0
  9
$DIMDLE
 40
0.0
  9
$DIMEXE
 40
1.0
  9
$DIMTP
 40
0.0
  9
$DIMTM
 40
0.0
  9
$DIMTXT
 40
3.5
  9
$DIMCEN
 40
1.5
  9
$DIMTSZ
 40
0.0
  9
$DIMTOL
 70
     0
  9
$DIMLIM
 70
     0
  9
$DIMTIH
 70
     0
  9
$DIMTOH
 70
     0
  9
$DIMSE1
 70
     0
  9
$DIMSE2
 70
     0
  9
$DIMTAD
 70
     1
  9
$DIMZIN
 70
     8
  9
$DIMBLK
  1

  9
$DIMASO
 70
     1
  9
$DIMSHO
 70
     0
  9
$DIMPOST
  1

  9
$DIMAPOST
  1

  9
$DIMALT
 70
     0
  9
$DIMALTD
 70
     2
  9
$DIMALTF
 40
25.4
  9
$DIMLFAC
 40
1.0
  9
$DIMTOFL
 70
     1
  9
$DIMTVP
 40
0.0
  9
$DIMTIX
 70
     0
  9
$DIMSOXD
 70
     0
  9
$DIMSAH
 70
     0
  9
$DIMBLK1
  1

  9
$DIMBLK2
  1

  9
$DIMSTYLE
  2
Standard
  9
$DIMCLRD
 70
     0
  9
$DIMCLRE
 70
     0
  9
$DIMCLRT
 70
     1
  9
$DIMTFAC
 40
0.5142857142857144
  9
$DIMGAP
 40
1.5
  9
$DIMJUST
 70
     0
  9
$DIMSD1
 70
     0
  9
$DIMSD2
 70
     0
  9
$DIMTOLJ
 70
     1
  9
$DIMTZIN
 70
     8
  9
$DIMALTZ
 70
     8
  9
$DIMALTTZ
 70
     8
  9
$DIMUPT
 70
     0
  9
$DIMDEC
 70
     2
  9
$DIMTDEC
 70
     2
  9
$DIMALTU
 70
     2
  9
$DIMALTTD
 70
     2
  9
$DIMTXSTY
  7
STANDARD
  9
$DIMAUNIT
 70
     0
  9
$DIMADEC
 70
     2
  9
$DIMALTRND
 40
0.0
  9
$DIMAZIN
 70
     2
  9
$DIMDSEP
 70
    46
  9
$DIMATFIT
 70
     3
  9
$DIMFRAC
 70
     0
  9
$DIMLDRBLK
  1

  9
$DIMLUNIT
 70
     2
  9
$DIMLWD
 70
    -2
  9
$DIMLWE
 70
    -2
  9
$DIMTMOVE
 70
     0
  9
$LUNITS
 70
     2
  9
$LUPREC
 70
     2
  9
$SKETCHINC
 40
1.0
  9
$FILLETRAD
 40
0.0
  9
$AUNITS
 70
     1
  9
$AUPREC
 70
     3
  9
$MENU
  1
ACAD
  9
$ELEVATION
 40
0.0
  9
$PELEVATION
 40
0.0
  9
$THICKNESS
 40
0.0
  9
$LIMCHECK
 70
     0
  9
$CHAMFERA
 40
0.0
  9
$CHAMFERB
 40
0.0
  9
$CHAMFERC
 40
0.0
  9
$CHAMFERD
 40
0.0
  9
$SKPOLY
 70
     0
  9
$TDCREATE
 40
2452040.637099653
  9
$TDUCREATE
 40
2452040.553766320
  9
$TDUPDATE
 40
2455667.306868623
  9
$TDUUPDATE
 40
2455667.223535290
  9
$TDINDWG
 40
0.3246516898
  9
$TDUSRTIMER
 40
0.3246516898
  9
$USRTIMER
 70
     1
  9
$ANGBASE
 50
0.0
  9
$ANGDIR
 70
     0
  9
$PDMODE
 70
     0
  9
$PDSIZE
 40
0.0
  9
$PLINEWID
 40
0.0
  9
$SPLFRAME
 70
     0
  9
$SPLINETYPE
 70
     6
  9
$SPLINESEGS
 70
     8
  9
$HANDSEED
  5
1336
  9
$SURFTAB1
 70
     6
  9
$SURFTAB2
 70
     6
  9
$SURFTYPE
 70
     6
  9
$SURFU
 70
     6
  9
$SURFV
 70
     6
  9
$UCSBASE
  2

  9
$UCSNAME
  2

  9
$UCSORG
 10
0.0
 20
0.0
 30
0.0
  9
$UCSXDIR
 10
1.0
 20
0.0
 30
0.0
  9
$UCSYDIR
 10
0.0
 20
1.0
 30
0.0
  9
$UCSORTHOREF
  2

  9
$UCSORTHOVIEW
 70
     0
  9
$UCSORGTOP
 10
0.0
 20
0.0
 30
0.0
  9
$UCSORGBOTTOM
 10
0.0
 20
0.0
 30
0.0
  9
$UCSORGLEFT
 10
0.0
 20
0.0
 30
0.0
  9
$UCSORGRIGHT
 10
0.0
 20
0.0
 30
0.0
  9
$UCSORGFRONT
 10
0.0
 20
0.0
 30
0.0
  9
$UCSORGBACK
 10
0.0
 20
0.0
 30
0.0
  9
$PUCSBASE
  2

  9
$PUCSNAME
  2

  9
$PUCSORG
 10
0.0
 20
0.0
 30
0.0
  9
$PUCSXDIR
 10
1.0
 20
0.0
 30
0.0
  9
$PUCSYDIR
 10
0.0
 20
1.0
 30
0.0
  9
$PUCSORTHOREF
  2

  9
$PUCSORTHOVIEW
 70
     0
  9
$PUCSORGTOP
 10
0.0
 20
0.0
 30
0.0
  9
$PUCSORGBOTTOM
 10
0.0
 20
0.0
 30
0.0
  9
$PUCSORGLEFT
 10
0.0
 20
0.0
 30
0.0
  9
$PUCSORGRIGHT
 10
0.0
 20
0.0
 30
0.0
  9
$PUCSORGFRONT
 10
0.0
 20
0.0
 30
0.0
  9
$PUCSORGBACK
 10
0.0
 20
0.0
 30
0.0
  9
$USERI1
 70
     0
  9
$USERI2
 70
     0
  9
$USERI3
 70
     0
  9
$USERI4
 70
     0
  9
$USERI5
 70
     0
  9
$USERR1
 40
0.0
  9
$USERR2
 40
0.0
  9
$USERR3
 40
0.0
  9
$USERR4
 40
0.0
  9
$USERR5
 40
0.0
  9
$WORLDVIEW
 70
     1
  9
$SHADEDGE
 70
     3
  9
$SHADEDIF
 70
    70
  9
$TILEMODE
 70
     1
  9
$MAXACTVP
 70
    16
  9
$PINSBASE
 10
0.0
 20
0.0
 30
0.0
  9
$PLIMCHECK
 70
     0
  9
$PEXTMIN
 10
1.000000000000000E+20
 20
1.000000000000000E+20
 30
1.000000000000000E+20
  9
$PEXTMAX
 10
-1.000000000000000E+20
 20
-1.000000000000000E+20
 30
-1.000000000000000E+20
  9
$PLIMMIN
 10
0.0
 20
0.0
  9
$PLIMMAX
 10
12.0
 20
9.0
  9
$UNITMODE
 70
     0
  9
$VISRETAIN
 70
     0
  9
$PLINEGEN
 70
     0
  9
$PSLTSCALE
 70
     0
  9
$TREEDEPTH
 70
  3020
  9
$CMLSTYLE
  2
Standard
  9
$CMLJUST
 70
     0
  9
$CMLSCALE
 40
1.0
  9
$PROXYGRAPHICS
 70
     1
  9
$MEASUREMENT
 70
     0
  9
$CELWEIGHT
370
    -1
  9
$ENDCAPS
280
     0
  9
$JOINSTYLE
280
     0
  9
$LWDISPLAY
290
     0
  9
$INSUNITS
 70
     0
  9
$HYPERLINKBASE
  1

  9
$STYLESHEET
  1
monochrome 1.ctb
  9
$XEDIT
290
     1
  9
$CEPSNTYPE
380
     0
  9
$PSTYLEMODE
290
     1
  9
$FINGERPRINTGUID
  2
{7AADB5C8-6110-11D8-B72B-000102183313}
  9
$VERSIONGUID
  2
{890593BE-4503-4772-A90B-AA073E001A39}
  9
$EXTNAMES
290
     1
  9
$PSVPSCALE
 40
0.0
  9
$OLESTARTUP
290
     0
  9
$SORTENTS
280
    96
  9
$INDEXCTL
280
     0
  9
$HIDETEXT
280
     0
  9
$XCLIPFRAME
290
     0
  9
$HALOGAP
280
     0
  9
$OBSCOLOR
 70
   257
  9
$OBSLTYPE
280
     0
  9
$INTERSECTIONDISPLAY
280
     0
  9
$INTERSECTIONCOLOR
 70
   257
  9
$DIMASSOC
280
     1
  9
$PROJECTNAME
  1

  0
ENDSEC
  0
SECTION
  2
CLASSES
  0
CLASS
  1
ACDBDICTIONARYWDFLT
  2
AcDbDictionaryWithDefault
  3
ObjectDBX Classes
 90
        0
 91
        1
280
     0
281
     0
  0
CLASS
  1
DICTIONARYVAR
  2
AcDbDictionaryVar
  3
ObjectDBX Classes
 90
        0
 91
        3
280
     0
281
     0
  0
ENDSEC
  0
SECTION
  2
TABLES
  0
TABLE
  2
VPORT
  5
8
330
0
100
AcDbSymbolTable
 70
     4
  0
VPORT
  5
1335
330
8
100
AcDbSymbolTableRecord
100
AcDbViewportTableRecord
  2
*Active
 70
     0
 10
0.0
 20
0.0
 11
1.0
 21
1.0
 12
210.0
 22
297.0
 13
0.0
 23
0.0
 14
1.0
 24
1.0
 15
10.0
 25
10.0
 16
0.0
 26
0.0
 36
1.0
 17
0.0
 27
0.0
 37
0.0
 40
594.0
 41
1.334231805929919
 42
50.0
 43
0.0
 44
0.0
 50
0.0
 51
0.0
 71
     0
 72
  1500
 73
     1
 74
     0
 75
     0
 76
     0
 77
     0
 78
     0
281
     0
 65
     1
110
0.0
120
0.0
130
0.0
111
1.0
121
0.0
131
0.0
112
0.0
122
1.0
132
0.0
 79
     0
146
0.0
  0
ENDTAB
  0
TABLE
  2
LTYPE
  5
5
330
0
100
AcDbSymbolTable
 70
     2
  0
LTYPE
  5
13
330
5
100
AcDbSymbolTableRecord
100
AcDbLinetypeTableRecord
  2
ByBlock
 70
     0
  3

 72
    65
 73
     0
 40
0.0
  0
LTYPE
  5
14
330
5
100
AcDbSymbolTableRecord
100
AcDbLinetypeTableRecord
  2
ByLayer
 70
     0
  3

 72
    65
 73
     0
 40
0.0
  0
LTYPE
  5
15
330
5
100
AcDbSymbolTableRecord
100
AcDbLinetypeTableRecord
  2
Continuous
 70
     0
  3
Solid line
 72
    65
 73
     0
 40
0.0
  0
LTYPE
  5
35
330
5
100
AcDbSymbolTableRecord
100
AcDbLinetypeTableRecord
  2
STRICHPUNKT
 70
     0
  3
__ . __ . __ . __ . __ . __ . __ . __ . __ . __
 72
    65
 73
     4
 40
1.0
 49
0.5
 74
     0
 49
-0.25
 74
     0
 49
0.0
 74
     0
 49
-0.25
 74
     0
  0
ENDTAB
  0
TABLE
  2
LAYER
  5
2
330
0
100
AcDbSymbolTable
 70
     9
  0
LAYER
  5
10
330
2
100
AcDbSymbolTableRecord
100
AcDbLayerTableRecord
  2
0
 70
     0
 62
     7
  6
Continuous
370
    -3
390
F
  0
LAYER
  5
38
330
2
100
AcDbSymbolTableRecord
100
AcDbLayerTableRecord
  2
VOLL
 70
     0
 62
     1
  6
Continuous
370
    -3
390
F
  0
LAYER
  5
39
330
2
100
AcDbSymbolTableRecord
100
AcDbLayerTableRecord
  2
HILF
 70
     0
 62
     2
  6
Continuous
370
    -3
390
F
  0
LAYER
  5
3A
330
2
100
AcDbSymbolTableRecord
100
AcDbLayerTableRecord
  2
MITTEL
 70
     0
 62
     2
  6
STRICHPUNKT
370
    -3
390
F
  0
LAYER
  5
3B
330
2
100
AcDbSymbolTableRecord
100
AcDbLayerTableRecord
  2
BEM
 70
     0
 62
     7
  6
Continuous
370
    -3
390
F
  0
LAYER
  5
3C
330
2
100
AcDbSymbolTableRecord
100
AcDbLayerTableRecord
  2
STEMPEL
 70
     0
 62
     3
  6
Continuous
370
    -3
390
F
  0
LAYER
  5
3D
330
2
100
AcDbSymbolTableRecord
100
AcDbLayerTableRecord
  2
TEXT
 70
     0
 62
     7
  6
Continuous
370
    -3
390
F
  0
LAYER
  5
3E
330
2
100
AcDbSymbolTableRecord
100
AcDbLayerTableRecord
  2
DEFPOINTS
 70
     0
 62
     7
  6
Continuous
290
     0
370
    -3
390
F
  0
ENDTAB
  0
TABLE
  2
STYLE
  5
3
330
0
100
AcDbSymbolTable
 70
     2
  0
STYLE
  5
11
330
3
100
AcDbSymbolTableRecord
100
AcDbTextStyleTableRecord
  2
STANDARD
 70
     0
 40
0.0
 41
0.8
 50
0.0
 71
     0
 42
3.5
  3
simplex.shx
  4

  0
STYLE
  5
34
330
3
100
AcDbSymbolTableRecord
100
AcDbTextStyleTableRecord
  2
GREEKS
 70
     0
 40
0.0
 41
0.8
 50
0.0
 71
     0
 42
2.5
  3
SIMPLEX.shx
  4

  0
ENDTAB
  0
TABLE
  2
VIEW
  5
6
330
0
100
AcDbSymbolTable
 70
     0
  0
ENDTAB
  0
TABLE
  2
UCS
  5
7
330
0
100
AcDbSymbolTable
 70
     0
  0
ENDTAB
  0
TABLE
  2
APPID
  5
9
330
0
100
AcDbSymbolTable
 70
     2
  0
APPID
  5
12
330
9
100
AcDbSymbolTableRecord
100
AcDbRegAppTableRecord
  2
ACAD
 70
     0
  0
APPID
  5
DDB
330
9
100
AcDbSymbolTableRecord
100
AcDbRegAppTableRecord
  2
AVE_RENDER
 70
     0
  0
ENDTAB
  0
TABLE
  2
DIMSTYLE
  5
A
330
0
100
AcDbSymbolTable
 70
     1
100
AcDbDimStyleTable
 71
     1
340
1CB
  0
DIMSTYLE
105
1CB
102
{ACAD_REACTORS
330
115E
330
11CB
102
}
330
A
100
AcDbSymbolTableRecord
100
AcDbDimStyleTableRecord
  2
Standard
 70
     0
340
11
  0
ENDTAB
  0
TABLE
  2
BLOCK_RECORD
  5
1
330
0
100
AcDbSymbolTable
 70
     4
  0
BLOCK_RECORD
  5
1E
330
1
100
AcDbSymbolTableRecord
100
AcDbBlockTableRecord
  2
*Model_Space
340
21
  0
BLOCK_RECORD
  5
1A
330
1
100
AcDbSymbolTableRecord
100
AcDbBlockTableRecord
  2
*Paper_Space
340
1D
  0
BLOCK_RECORD
  5
22
330
1
100
AcDbSymbolTableRecord
100
AcDbBlockTableRecord
  2
LOGO
340
0
102
{BLKREFS
331
135
102
}
  0
BLOCK_RECORD
  5
1163
330
1
100
AcDbSymbolTableRecord
100
AcDbBlockTableRecord
  2
*D1
340
0
  0
BLOCK_RECORD
  5
11CC
330
1
100
AcDbSymbolTableRecord
100
AcDbBlockTableRecord
  2
*D3
340
0
  0
ENDTAB
  0
ENDSEC
  0
SECTION
  2
BLOCKS
  0
BLOCK
  5
43
330
1E
100
AcDbEntity
  8
0
100
AcDbBlockBegin
  2
*Model_Space
 70
     0
 10
0.0
 20
0.0
 30
0.0
  3
*Model_Space
  1

  0
ENDBLK
  5
44
330
1E
100
AcDbEntity
  8
0
100
AcDbBlockEnd
  0
BLOCK
  5
41
330
1A
100
AcDbEntity
 67
     1
  8
0
100
AcDbBlockBegin
  2
*Paper_Space
 70
     0
 10
0.0
 20
0.0
 30
0.0
  3
*Paper_Space
  1

  0
ENDBLK
  5
42
330
1A
100
AcDbEntity
 67
     1
  8
0
100
AcDbBlockEnd
  0
BLOCK
  5
45
330
22
100
AcDbEntity
  8
0
100
AcDbBlockBegin
  2
LOGO
 70
     0
 10
0.0
 20
0.0
 30
0.0
  3
LOGO
  1

  0
ARC
  5
46
330
22
100
AcDbEntity
  8
0
100
AcDbCircle
 10
11.59973089678112
 20
-9.271599258481501
 30
0.0
 40
4.5
100
AcDbArc
 50
270.0
 51
231.0575587310159
  0
LINE
  5
47
330
22
100
AcDbEntity
  8
0
100
AcDbLine
 10
3.599730896781125
 20
-4.771599258481529
 30
0.0
 11
3.599730896781153
 21
-11.77159925848133
 31
0.0
  0
LINE
  5
48
330
22
100
AcDbEntity
  8
0
100
AcDbLine
 10
2.599730896781125
 20
-4.771599258481529
 30
0.0
 11
2.599730896781153
 21
-11.77159925848133
 31
0.0
  0
CIRCLE
  5
49
330
22
100
AcDbEntity
  8
0
100
AcDbCircle
 10
11.59973089678112
 20
-9.271599258481501
 30
0.0
 40
3.5
  0
ARC
  5
4A
330
22
100
AcDbEntity
  8
0
100
AcDbCircle
 10
31.59973089678115
 20
-9.271599258481472
 30
0.0
 40
4.5
100
AcDbArc
 50
270.0
 51
231.0575587310182
  0
LINE
  5
4B
330
22
100
AcDbEntity
  8
0
100
AcDbLine
 10
17.59973089678112
 20
-4.771599258481472
 30
0.0
 11
17.59973089678115
 21
-13.77159925848147
 31
0.0
  0
ARC
  5
4C
330
22
100
AcDbEntity
  8
0
100
AcDbCircle
 10
22.59973089678116
 20
-7.271599258481472
 30
0.0
 40
2.5
100
AcDbArc
 50
293.1161887722295
 51
90.0
  0
CIRCLE
  5
4D
330
22
100
AcDbEntity
  8
0
100
AcDbCircle
 10
31.59973089678115
 20
-9.271599258481472
 30
0.0
 40
3.5
  0
ARC
  5
4E
330
22
100
AcDbEntity
  8
0
100
AcDbCircle
 10
4.599730896781153
 20
-11.77159925848133
 30
0.0
 40
1.0
100
AcDbArc
 50
180.0
 51
270.0
  0
ARC
  5
4F
330
22
100
AcDbEntity
  8
0
100
AcDbCircle
 10
4.599730896781153
 20
-11.77159925848133
 30
0.0
 40
2.0
100
AcDbArc
 50
179.9999999999992
 51
270.0
  0
LINE
  5
50
330
22
100
AcDbEntity
  8
0
100
AcDbLine
 10
11.59973089678115
 20
-13.77159925848144
 30
0.0
 11
4.599730896781153
 21
-13.77159925848147
 31
0.0
  0
LINE
  5
51
330
22
100
AcDbEntity
  8
0
100
AcDbLine
 10
8.771303772034769
 20
-12.77159925848136
 30
0.0
 11
4.599730896781153
 21
-12.77159925848133
 31
0.0
  0
LINE
  5
52
330
22
100
AcDbEntity
  8
0
100
AcDbLine
 10
31.59973089678115
 20
-13.77159925848147
 30
0.0
 11
23.6715276665056
 21
-13.77159925848144
 31
0.0
  0
LINE
  5
53
330
22
100
AcDbEntity
  8
0
100
AcDbLine
 10
23.56565672307022
 20
-9.51278021337896
 30
0.0
 11
24.4388546544846
 21
-12.77159925848144
 31
0.0
  0
LINE
  5
54
330
22
100
AcDbEntity
  8
0
100
AcDbLine
 10
22.59973089678116
 20
-9.771599258481472
 30
0.0
 11
18.59973089678112
 21
-9.771599258481472
 31
0.0
  0
LINE
  5
55
330
22
100
AcDbEntity
  8
0
100
AcDbLine
 10
18.59973089678115
 20
-13.77159925848144
 30
0.0
 11
17.59973089678115
 21
-13.77159925848144
 31
0.0
  0
LINE
  5
56
330
22
100
AcDbEntity
  8
0
100
AcDbLine
 10
18.59973089678115
 20
-9.771599258481472
 30
0.0
 11
18.59973089678115
 21
-13.77159925848144
 31
0.0
  0
LINE
  5
57
330
22
100
AcDbEntity
  8
0
100
AcDbLine
 10
22.59973089678116
 20
-9.771599258481472
 30
0.0
 11
23.67152766650562
 21
-13.77159925848147
 31
0.0
  0
ARC
  5
58
330
22
100
AcDbEntity
  8
0
100
AcDbCircle
 10
22.59973089678116
 20
-7.271599258481472
 30
0.0
 40
2.5
100
AcDbArc
 50
270.0
 51
270.0000000000007
  0
LINE
  5
59
330
22
100
AcDbEntity
  8
0
100
AcDbLine
 10
28.77130377203494
 20
-12.77159925848147
 30
0.0
 11
24.43885465448463
 21
-12.77159925848144
 31
0.0
  0
LINE
  5
5A
330
22
100
AcDbEntity
  8
0
100
AcDbLine
 10
3.599730896781125
 20
-4.771599258481472
 30
0.0
 11
2.599730896781125
 21
-4.771599258481472
 31
0.0
  0
LINE
  5
5B
330
22
100
AcDbEntity
  8
0
100
AcDbLine
 10
22.59973089678116
 20
-8.771599258481472
 30
0.0
 11
18.59973089678115
 21
-8.771599258481472
 31
0.0
  0
LINE
  5
5C
330
22
100
AcDbEntity
  8
0
100
AcDbLine
 10
22.59973089678116
 20
-5.771599258481472
 30
0.0
 11
18.59973089678115
 21
-5.771599258481472
 31
0.0
  0
LINE
  5
5D
330
22
100
AcDbEntity
  8
0
100
AcDbLine
 10
22.59973089678116
 20
-4.771599258481472
 30
0.0
 11
17.59973089678115
 21
-4.771599258481472
 31
0.0
  0
LINE
  5
5E
330
22
100
AcDbEntity
  8
0
100
AcDbLine
 10
18.59973089678115
 20
-5.771599258481472
 30
0.0
 11
18.59973089678115
 21
-8.771599258481472
 31
0.0
  0
ARC
  5
5F
330
22
100
AcDbEntity
  8
0
100
AcDbCircle
 10
22.59973089678116
 20
-7.271599258481472
 30
0.0
 40
1.5
100
AcDbArc
 50
270.0
 51
90.0
  0
ENDBLK
  5
60
330
22
100
AcDbEntity
  8
0
100
AcDbBlockEnd
  0
BLOCK
  5
116D
330
1163
100
AcDbEntity
  8
0
100
AcDbBlockBegin
  2
*D1
 70
     1
 10
0.0
 20
0.0
 30
0.0
  3
*D1
  1

  0
LINE
  5
1225
330
1163
100
AcDbEntity
  8
BEM
 62
     0
370
    -2
100
AcDbLine
 10
174.2
 20
207.9171270946069
 30
0.0
 11
174.2
 21
178.8272378415296
 31
0.0
  0
LINE
  5
1226
330
1163
100
AcDbEntity
  8
BEM
 62
     0
370
    -2
100
AcDbLine
 10
275.7999999999999
 20
207.9171270946064
 30
0.0
 11
275.7999999999999
 21
178.8272378415296
 31
0.0
  0
LINE
  5
1227
330
1163
100
AcDbEntity
  8
BEM
 62
     0
370
    -2
100
AcDbLine
 10
181.2
 20
180.8272378415296
 30
0.0
 11
268.7999999999999
 21
180.8272378415296
 31
0.0
  0
SOLID
  5
1228
330
1163
100
AcDbEntity
  8
BEM
 62
     0
100
AcDbTrace
 10
181.2
 20
181.9939045081963
 30
0.0
 11
181.2
 21
179.660571174863
 31
0.0
 12
174.2
 22
180.8272378415296
 32
0.0
 13
174.2
 23
180.8272378415296
 33
0.0
  0
SOLID
  5
1229
330
1163
100
AcDbEntity
  8
BEM
 62
     0
100
AcDbTrace
 10
268.7999999999999
 20
181.9939045081963
 30
0.0
 11
268.7999999999999
 21
179.660571174863
 31
0.0
 12
275.7999999999999
 22
180.8272378415296
 32
0.0
 13
275.7999999999999
 23
180.8272378415296
 33
0.0
  0
MTEXT
  5
122A
330
1163
100
AcDbEntity
  8
BEM
 62
     1
100
AcDbMText
 10
225.0
 20
187.3272378415297
 30
0.0
 40
7.0
 41
0.0
 71
     5
 72
     1
  1
\A1;%%c101.6
 73
     1
 44
1.0
  0
POINT
  5
122B
330
1163
100
AcDbEntity
  8
DEFPOINTS
 62
     0
100
AcDbPoint
 10
174.2
 20
209.9171270946069
 30
0.0
  0
POINT
  5
122C
330
1163
100
AcDbEntity
  8
DEFPOINTS
 62
     0
100
AcDbPoint
 10
275.7999999999999
 20
209.9171270946064
 30
0.0
  0
POINT
  5
122D
330
1163
100
AcDbEntity
  8
DEFPOINTS
 62
     0
100
AcDbPoint
 10
275.7999999999999
 20
180.8272378415296
 30
0.0
  0
ENDBLK
  5
116E
330
1163
100
AcDbEntity
  8
0
100
AcDbBlockEnd
  0
BLOCK
  5
11D6
330
11CC
100
AcDbEntity
  8
0
100
AcDbBlockBegin
  2
*D3
 70
     1
 10
0.0
 20
0.0
 30
0.0
  3
*D3
  1

  0
LINE
  5
12B0
330
11CC
100
AcDbEntity
  8
BEM
 62
     0
370
    -2
100
AcDbLine
 10
168.3402170812767
 20
521.9204199989369
 30
0.0
 11
134.2722342902885
 21
521.9204199989369
 31
0.0
  0
LINE
  5
12B1
330
11CC
100
AcDbEntity
  8
BEM
 62
     0
370
    -2
100
AcDbLine
 10
172.8999093082073
 20
201.9171270946069
 30
0.0
 11
134.2722342902884
 21
201.9171270946069
 31
0.0
  0
LINE
  5
12B2
330
11CC
100
AcDbEntity
  8
BEM
 62
     0
370
    -2
100
AcDbLine
 10
136.2722342902885
 20
514.9204199989369
 30
0.0
 11
136.2722342902884
 21
208.9171270946069
 31
0.0
  0
SOLID
  5
12B3
330
11CC
100
AcDbEntity
  8
BEM
 62
     0
100
AcDbTrace
 10
135.1055676236218
 20
514.9204199989369
 30
0.0
 11
137.4389009569551
 21
514.9204199989369
 31
0.0
 12
136.2722342902885
 22
521.9204199989369
 32
0.0
 13
136.2722342902885
 23
521.9204199989369
 33
0.0
  0
SOLID
  5
12B4
330
11CC
100
AcDbEntity
  8
BEM
 62
     0
100
AcDbTrace
 10
135.1055676236218
 20
208.9171270946069
 30
0.0
 11
137.4389009569551
 21
208.9171270946069
 31
0.0
 12
136.2722342902884
 22
201.9171270946069
 32
0.0
 13
136.2722342902884
 23
201.9171270946069
 33
0.0
  0
MTEXT
  5
12B5
330
11CC
100
AcDbEntity
  8
BEM
 62
     1
100
AcDbMText
 10
129.7722342902884
 20
361.9187735467719
 30
0.0
 40
7.0
 41
0.0
 71
     5
 72
     1
  1
\A1;1570
 11
0.0000000000000001
 21
1.0
 31
0.0
 73
     1
 44
1.0
  0
POINT
  5
12B6
330
11CC
100
AcDbEntity
  8
DEFPOINTS
 62
     0
100
AcDbPoint
 10
170.3402170812767
 20
521.9204199989369
 30
0.0
  0
POINT
  5
12B7
330
11CC
100
AcDbEntity
  8
DEFPOINTS
 62
     0
100
AcDbPoint
 10
174.8999093082073
 20
201.9171270946069
 30
0.0
  0
POINT
  5
12B8
330
11CC
100
AcDbEntity
  8
DEFPOINTS
 62
     0
100
AcDbPoint
 10
136.2722342902884
 20
201.9171270946069
 30
0.0
  0
ENDBLK
  5
11D7
330
11CC
100
AcDbEntity
  8
0
100
AcDbBlockEnd
  0
ENDSEC
  0
SECTION
  2
ENTITIES
  0
TEXT
  5
134
330
1E
100
AcDbEntity
  8
TEXT
100
AcDbText
 10
204.4216048581257
 20
63.0896391972351
 30
0.0
 40
4.0
  1
Koeh
 41
0.8
  7
GREEKS
 72
     1
 11
209.6787477152686
 21
63.0896391972351
 31
0.0
100
AcDbText
  0
INSERT
  5
135
330
1E
100
AcDbEntity
  8
STEMPEL
100
AcDbBlockReference
  2
LOGO
 10
150.9955485457794
 20
45.02105276448322
 30
0.0
 41
2.0
 42
2.0
 43
2.0
  0
LINE
  5
136
330
1E
100
AcDbEntity
  8
HILF
100
AcDbLine
 10
420.0
 20
0.0
 30
0.0
 11
0.0
 21
0.0
 31
0.0
  0
LINE
  5
137
330
1E
100
AcDbEntity
  8
HILF
100
AcDbLine
 10
419.9999999999999
 20
594.0000000000002
 30
0.0
 11
0.0
 21
594.0
 31
0.0
  0
LINE
  5
138
330
1E
100
AcDbEntity
  8
STEMPEL
100
AcDbLine
 10
410.0
 20
584.0
 30
0.0
 11
39.99999999999989
 21
584.0
 31
0.0
  0
LINE
  5
139
330
1E
100
AcDbEntity
  8
STEMPEL
100
AcDbLine
 10
410.0
 20
10.0
 30
0.0
 11
39.99999999999989
 21
10.0
 31
0.0
  0
LINE
  5
13A
330
1E
100
AcDbEntity
  8
STEMPEL
100
AcDbLine
 10
49.99999999999989
 20
10.0
 30
0.0
 11
410.0
 21
10.0
 31
0.0
  0
TEXT
  5
13B
330
1E
100
AcDbEntity
  8
TEXT
100
AcDbText
 10
202.4626584226295
 20
73.30961091915225
 30
0.0
 40
4.0
  1
Name
 41
0.8
  7
GREEKS
100
AcDbText
  0
TEXT
  5
13C
330
1E
100
AcDbEntity
  8
TEXT
100
AcDbText
 10
196.5498279101549
 20
102.6506227776589
 30
0.0
 40
5.0
  1
Zul. Abw.
 41
0.8
  7
GREEKS
 72
     4
 11
209.9783993387263
 21
105.1506227776589
 31
0.0
100
AcDbText
  0
LINE
  5
13D
330
1E
100
AcDbEntity
  8
HILF
100
AcDbLine
 10
146.0000000000001
 20
49.99999999999997
 30
0.0
 11
230.0
 21
49.99999999999997
 31
0.0
  0
LINE
  5
13E
330
1E
100
AcDbEntity
  8
HILF
100
AcDbLine
 10
146.0000000000001
 20
59.99999999999997
 30
0.0
 11
230.0
 21
59.99999999999997
 31
0.0
  0
LINE
  5
13F
330
1E
100
AcDbEntity
  8
HILF
100
AcDbLine
 10
146.0000000000001
 20
69.99999999999994
 30
0.0
 11
230.0
 21
69.99999999999994
 31
0.0
  0
LINE
  5
140
330
1E
100
AcDbEntity
  8
STEMPEL
100
AcDbLine
 10
410.0
 20
80.0
 30
0.0
 11
146.0000000000001
 21
79.99999999999994
 31
0.0
  0
LINE
  5
141
330
1E
100
AcDbEntity
  8
STEMPEL
100
AcDbLine
 10
410.0
 20
40.0
 30
0.0
 11
146.0000000000001
 21
39.99999999999997
 31
0.0
  0
LINE
  5
142
330
1E
100
AcDbEntity
  8
STEMPEL
100
AcDbLine
 10
410.0
 20
110.0
 30
0.0
 11
39.99999999999997
 21
110.0
 31
0.0
  0
LINE
  5
143
330
1E
100
AcDbEntity
  8
MITTEL
100
AcDbLine
 10
224.9999999999999
 20
526.9204199989367
 30
0.0
 11
225.0
 21
196.9171270946069
 31
0.0
  0
LINE
  5
144
330
1E
100
AcDbEntity
  8
HILF
100
AcDbLine
 10
0.0
 20
0.0
 30
0.0
 11
-0.0000000000001137
 21
594.0
 31
0.0
  0
LINE
  5
145
330
1E
100
AcDbEntity
  8
STEMPEL
100
AcDbLine
 10
40.0
 20
10.0
 30
0.0
 11
39.99999999999989
 21
584.0
 31
0.0
  0
LINE
  5
148
330
1E
100
AcDbEntity
  8
HILF
100
AcDbLine
 10
40.00000000000008
 20
39.99999999999997
 30
0.0
 11
146.0000000000001
 21
39.99999999999997
 31
0.0
  0
LINE
  5
149
330
1E
100
AcDbEntity
  8
HILF
100
AcDbLine
 10
40.00000000000008
 20
49.99999999999997
 30
0.0
 11
146.0000000000001
 21
49.99999999999997
 31
0.0
  0
LINE
  5
14A
330
1E
100
AcDbEntity
  8
HILF
100
AcDbLine
 10
40.00000000000008
 20
59.99999999999997
 30
0.0
 11
146.0000000000001
 21
59.99999999999997
 31
0.0
  0
LINE
  5
14B
330
1E
100
AcDbEntity
  8
HILF
100
AcDbLine
 10
40.00000000000008
 20
69.99999999999994
 30
0.0
 11
146.0000000000001
 21
69.99999999999994
 31
0.0
  0
LINE
  5
14C
330
1E
100
AcDbEntity
  8
HILF
100
AcDbLine
 10
40.00000000000008
 20
79.99999999999994
 30
0.0
 11
146.0000000000001
 21
79.99999999999994
 31
0.0
  0
LINE
  5
14D
330
1E
100
AcDbEntity
  8
HILF
100
AcDbLine
 10
40.00000000000008
 20
90.00000000000005
 30
0.0
 11
146.0000000000001
 21
90.00000000000005
 31
0.0
  0
LINE
  5
14E
330
1E
100
AcDbEntity
  8
HILF
100
AcDbLine
 10
40.00000000000008
 20
100.0
 30
0.0
 11
146.0000000000001
 21
100.0
 31
0.0
  0
LINE
  5
14F
330
1E
100
AcDbEntity
  8
STEMPEL
100
AcDbLine
 10
145.9999999999999
 20
29.99999999999997
 30
0.0
 11
39.99999999999997
 21
29.99999999999997
 31
0.0
  0
TEXT
  5
150
330
1E
100
AcDbEntity
  8
TEXT
100
AcDbText
 10
48.26641107045756
 20
13.65465846027192
 30
0.0
 40
4.0
  1
Index
 50
90.0
 41
0.8
  7
GREEKS
100
AcDbText
  0
LINE
  5
151
330
1E
100
AcDbEntity
  8
VOLL
100
AcDbLine
 10
54.00000000000009
 20
110.0
 30
0.0
 11
53.99999999999997
 21
9.999999999999971
 31
0.0
  0
LINE
  5
152
330
1E
100
AcDbEntity
  8
HILF
100
AcDbLine
 10
31.08767135713856
 20
297.0
 30
0.0
 11
0.0000000000001137
 21
297.0
 31
0.0
  0
LINE
  5
154
330
1E
100
AcDbEntity
  8
VOLL
100
AcDbLine
 10
124.0000000000001
 20
109.9999999999999
 30
0.0
 11
124.0
 21
9.999999999999971
 31
0.0
  0
LINE
  5
155
330
1E
100
AcDbEntity
  8
VOLL
100
AcDbLine
 10
104.0000000000001
 20
109.9999999999999
 30
0.0
 11
104.0
 21
9.999999999999971
 31
0.0
  0
LINE
  5
157
330
1E
100
AcDbEntity
  8
STEMPEL
100
AcDbLine
 10
146.0000000000001
 20
109.9999999999999
 30
0.0
 11
146.0
 21
9.999999999999971
 31
0.0
  0
TEXT
  5
159
330
1E
100
AcDbEntity
  8
TEXT
100
AcDbText
 10
172.331167315365
 20
73.31880501229926
 30
0.0
 40
4.0
  1
Tag
 41
0.8
  7
GREEKS
100
AcDbText
  0
TEXT
  5
15A
330
1E
100
AcDbEntity
  8
TEXT
100
AcDbText
 10
147.5836127167615
 20
63.62990369617964
 30
0.0
 40
4.0
  1
Gez.
 41
0.8
  7
GREEKS
100
AcDbText
  0
LINE
  5
15B
330
1E
100
AcDbEntity
  8
VOLL
100
AcDbLine
 10
164.0000000000001
 20
79.99999999999994
 30
0.0
 11
164.0000000000001
 21
39.99999999999997
 31
0.0
  0
TEXT
  5
15C
330
1E
100
AcDbEntity
  8
TEXT
100
AcDbText
 10
147.6006777387303
 20
43.52946389649807
 30
0.0
 40
4.0
  1
Norm.
 41
0.8
  7
GREEKS
100
AcDbText
  0
TEXT
  5
15D
330
1E
100
AcDbEntity
  8
TEXT
100
AcDbText
 10
147.5515086571672
 20
53.68926291428377
 30
0.0
 40
4.0
  1
Gepr.
 41
0.8
  7
GREEKS
100
AcDbText
  0
TEXT
  5
15E
330
1E
100
AcDbEntity
  8
TEXT
 62
     1
100
AcDbText
 10
160.5006306481887
 20
88.14901428913959
 30
0.0
 40
7.0
  1
1:2
 41
0.8
  7
GREEKS
100
AcDbText
  0
TEXT
  5
160
330
1E
100
AcDbEntity
  8
TEXT
100
AcDbText
 10
148.622109822104
 20
73.14025471151666
 30
0.0
 40
4.0
  1
2011
 41
0.8
  7
GREEKS
100
AcDbText
  0
LINE
  5
161
330
1E
100
AcDbEntity
  8
VOLL
100
AcDbLine
 10
190.0000000000001
 20
109.9999999999998
 30
0.0
 11
190.0
 21
39.99999999999997
 31
0.0
  0
LINE
  5
186
330
1E
100
AcDbEntity
  8
HILF
100
AcDbLine
 10
420.0
 20
-0.0000000000001137
 30
0.0
 11
419.9999999999999
 21
594.0
 31
0.0
  0
LINE
  5
187
330
1E
100
AcDbEntity
  8
STEMPEL
100
AcDbLine
 10
410.0
 20
10.0
 30
0.0
 11
410.0
 21
584.0
 31
0.0
  0
TEXT
  5
188
330
1E
100
AcDbEntity
  8
TEXT
100
AcDbText
 10
337.2400861497006
 20
52.07416177878602
 30
0.0
 40
5.0
  1
ersetzt durch:
 41
0.8
  7
GREEKS
100
AcDbText
  0
TEXT
  5
18A
330
1E
100
AcDbEntity
  8
TEXT
100
AcDbText
 10
336.178754957634
 20
102.3132034537136
 30
0.0
 40
5.0
  1
Zeichnungs Nr.
 41
0.8
  7
GREEKS
100
AcDbText
  0
LINE
  5
18B
330
1E
100
AcDbEntity
  8
HILF
100
AcDbLine
 10
233.4909699289885
 20
14.89398258028314
 30
0.0
 11
404.8588839326728
 21
14.89398258028314
 31
0.0
  0
LINE
  5
18C
330
1E
100
AcDbEntity
  8
HILF
100
AcDbLine
 10
336.7238616296993
 20
83.77983636955827
 30
0.0
 11
404.8588839326728
 21
83.77983636955827
 31
0.0
  0
LINE
  5
18D
330
1E
100
AcDbEntity
  8
VOLL
100
AcDbLine
 10
332.0
 20
60.0
 30
0.0
 11
410.0
 21
60.0
 31
0.0
  0
TEXT
  5
18E
330
1E
100
AcDbEntity
  8
TEXT
 62
     1
100
AcDbText
 10
235.9258207555718
 20
87.41748789253779
 30
0.0
 40
7.0
  1
Rohr DN100
 41
0.8
  7
GREEKS
100
AcDbText
  0
LINE
  5
18F
330
1E
100
AcDbEntity
  8
HILF
100
AcDbLine
 10
234.7736801096947
 20
49.99999999999997
 30
0.0
 11
324.835391655631
 21
49.99999999999997
 31
0.0
  0
LINE
  5
190
330
1E
100
AcDbEntity
  8
HILF
100
AcDbLine
 10
234.7736801096947
 20
59.99999999999997
 30
0.0
 11
324.835391655631
 21
59.99999999999997
 31
0.0
  0
LINE
  5
191
330
1E
100
AcDbEntity
  8
HILF
100
AcDbLine
 10
234.7736801096947
 20
69.99999999999994
 30
0.0
 11
324.835391655631
 21
69.99999999999994
 31
0.0
  0
LINE
  5
192
330
1E
100
AcDbEntity
  8
HILF
100
AcDbLine
 10
234.7736801096947
 20
84.03758247564139
 30
0.0
 11
324.8353916556311
 21
84.03758247564139
 31
0.0
  0
LINE
  5
193
330
1E
100
AcDbEntity
  8
STEMPEL
100
AcDbLine
 10
230.0
 20
110.0
 30
0.0
 11
230.0
 21
9.999999999999971
 31
0.0
  0
TEXT
  5
194
330
1E
100
AcDbEntity
  8
TEXT
100
AcDbText
 10
235.1296391125315
 20
71.50334417585288
 30
0.0
 40
5.0
  1
1500mm lang
 41
0.8
  7
GREEKS
100
AcDbText
  0
TEXT
  5
195
330
1E
100
AcDbEntity
  8
TEXT
100
AcDbText
 10
234.9837501577827
 20
42.62974153022632
 30
0.0
 40
4.0
  1
41111100W.DWG
 41
0.8
  7
GREEKS
100
AcDbText
  0
TEXT
  5
196
330
1E
100
AcDbEntity
  8
TEXT
100
AcDbText
 10
234.742238391136
 20
30.84560570193057
 30
0.0
 40
5.0
  1
Bauvorhaben
 41
0.8
  7
GREEKS
100
AcDbText
  0
TEXT
  5
197
330
1E
100
AcDbEntity
  8
TEXT
100
AcDbText
 10
234.877940380901
 20
102.5489328011779
 30
0.0
 40
5.0
  1
Benennung
 41
0.8
  7
GREEKS
100
AcDbText
  0
LINE
  5
198
330
1E
100
AcDbEntity
  8
STEMPEL
100
AcDbLine
 10
332.0
 20
109.9999999999997
 30
0.0
 11
332.0
 21
40.0
 31
0.0
  0
TEXT
  5
19A
330
1E
100
AcDbEntity
  8
TEXT
 62
     1
100
AcDbText
 10
350.511906516788
 20
88.14901428913959
 30
0.0
 40
7.0
  1
41111100W
 41
0.8
  7
GREEKS
 72
     1
 11
371.8452398501214
 21
88.14901428913959
 31
0.0
100
AcDbText
  0
TEXT
  5
212
330
1E
100
AcDbEntity
  8
TEXT
100
AcDbText
 10
235.1296391125315
 20
51.50334417585291
 30
0.0
 40
5.0
  1
EDV-Art.Nr. 4.1111100C
 41
0.8
  7
GREEKS
100
AcDbText
  0
TEXT
  5
E61
330
1E
100
AcDbEntity
  8
TEXT
 62
     1
100
AcDbText
 10
297.0573649355706
 20
132.2248663682012
 30
0.0
 40
7.0
  1
Werkstoff: 1.4301
 41
0.8
  7
GREEKS
100
AcDbText
  0
TEXT
  5
ECE
330
1E
100
AcDbEntity
  8
TEXT
100
AcDbText
 10
235.1296391125315
 20
61.50334417585291
 30
0.0
 40
5.0
  1
dünnwandig
 41
0.8
  7
GREEKS
100
AcDbText
  0
TEXT
  5
1033
330
1E
100
AcDbEntity
  8
VOLL
100
AcDbText
 10
1002.145396436767
 20
231.0125615344574
 30
0.0
 40
1.8
  1

  7
GREEKS
100
AcDbText
  0
TEXT
  5
113B
330
1E
100
AcDbEntity
  8
TEXT
 62
     1
100
AcDbText
 10
215.1013841365227
 20
487.0576155630837
 30
0.0
 40
7.0
  1
DN100
 50
90.0
 41
0.8
  7
GREEKS
100
AcDbText
  0
DIMENSION
  5
115E
330
1E
100
AcDbEntity
  8
BEM
100
AcDbDimension
  2
*D1
 10
275.7999999999999
 20
180.8272378415296
 30
0.0
 11
225.0
 21
187.3272378415297
 31
0.0
 70
    32
  1
%%c<>
 71
     5
 42
101.5999999999999
  3
Standard
100
AcDbAlignedDimension
 13
174.2
 23
209.9171270946069
 33
0.0
 14
275.7999999999999
 24
209.9171270946064
 34
0.0
100
AcDbRotatedDimension
1001
ACAD
1000
DSTYLE
1002
{
1070
    40
1040
2.0
1070
    41
1040
3.5
1070
    42
1040
1.0
1070
    43
1040
7.0
1070
    44
1040
1.0
1070
    73
1070
     0
1070
    74
1070
     0
1070
    77
1070
     1
1070
    78
1070
     8
1070
    79
1070
     2
1070
   140
1040
3.5
1070
   141
1040
1.5
1070
   146
1040
0.5142857142857144
1070
   147
1040
1.5
1070
   172
1070
     1
1070
   178
1070
     1
1070
   179
1070
     2
1070
   271
1070
     2
1070
   272
1070
     2
1070
   284
1070
     8
1070
   285
1070
     8
1070
   286
1070
     8
1002
}
  0
LINE
  5
115F
330
1E
100
AcDbEntity
  8
HILF
100
AcDbLine
 10
274.5452252030705
 20
209.9171270946064
 30
0.0
 11
175.454774796929
 21
209.9171270946068
 31
0.0
  0
LINE
  5
1160
330
1E
100
AcDbEntity
  8
STEMPEL
100
AcDbLine
 10
275.1000906917925
 20
201.9171270946064
 30
0.0
 11
174.8999093082073
 21
201.9171270946069
 31
0.0
  0
LINE
  5
1161
330
1E
100
AcDbEntity
  8
STEMPEL
100
AcDbLine
 10
174.2
 20
209.9171270946069
 30
0.0
 11
174.8999093082073
 21
201.9171270946069
 31
0.0
  0
LINE
  5
1162
330
1E
100
AcDbEntity
  8
STEMPEL
100
AcDbLine
 10
275.7999999999999
 20
209.9171270946076
 30
0.0
 11
275.1000906917925
 21
201.9171270946064
 31
0.0
  0
TEXT
  5
11B1
330
1E
100
AcDbEntity
  8
BEM
100
AcDbText
 10
416.5811541437437
 20
12.14804815338303
 30
0.0
 40
4.0
  1
Diese Zeichnung ist urheberrechtlich geschützt und bleibt unser Eigentum. Sie darf weder ganz noch teilweise vervielfältigt und nicht an Dritte weitergegeben werden.
 50
90.0
 41
0.8
  7
GREEKS
100
AcDbText
  0
TEXT
  5
11B2
330
1E
100
AcDbEntity
  8
TEXT
100
AcDbText
 10
336.7238616296993
 20
73.1811823709997
 30
0.0
 40
5.0
  1
Ersatz für:
 41
0.8
  7
GREEKS
100
AcDbText
  0
TEXT
  5
11B3
330
1E
100
AcDbEntity
  8
TEXT
100
AcDbText
 10
192.6882715247924
 20
88.73450771838452
 30
0.0
 40
4.0
  1
DIN EN1124-3
 41
0.8
  7
GREEKS
 72
     1
 11
209.6787477152686
 21
88.73450771838452
 31
0.0
100
AcDbText
  0
TEXT
  5
11B4
330
1E
100
AcDbEntity
  8
TEXT
100
AcDbText
 10
41.85509950977677
 20
111.6719999999999
 30
0.0
 40
5.0
  1
Erstellt mit AUTOCAD 2004
 41
0.8
  7
GREEKS
100
AcDbText
  0
TEXT
  5
11B5
330
1E
100
AcDbEntity
  8
TEXT
100
AcDbText
 10
153.5163572150377
 20
102.4620895087088
 30
0.0
 40
5.0
  1
Maßstab
 41
0.8
  7
GREEKS
100
AcDbText
  0
TEXT
  5
11BA
330
1E
100
AcDbEntity
  8
TEXT
100
AcDbText
 10
67.93969678957704
 20
18.67381894984132
 30
0.0
 40
4.0
  1
Änderung
 41
0.8
  7
GREEKS
 72
     1
 11
78.68255393243419
 21
18.67381894984132
 31
0.0
100
AcDbText
  0
TEXT
  5
11BB
330
1E
100
AcDbEntity
  8
TEXT
100
AcDbText
 10
110.2820548933125
 20
18.6715626933981
 30
0.0
 40
4.0
  1
Tag
 41
0.8
  7
GREEKS
 72
     1
 11
114.0153882266458
 21
18.6715626933981
 31
0.0
100
AcDbText
  0
TEXT
  5
11BC
330
1E
100
AcDbEntity
  8
TEXT
100
AcDbText
 10
128.9001864118674
 20
18.59324216966408
 30
0.0
 40
4.0
  1
Name
 41
0.8
  7
GREEKS
 72
     1
 11
135.2239959356769
 21
18.59324216966408
 31
0.0
100
AcDbText
  0
DIMENSION
  5
11CB
330
1E
100
AcDbEntity
  8
BEM
100
AcDbDimension
  2
*D3
 10
136.2722342902884
 20
201.9171270946069
 30
0.0
 11
129.7722342902884
 21
361.9187735467719
 31
0.0
 70
    32
  1
1570
 71
     5
 42
320.00329290433
  3
Standard
100
AcDbAlignedDimension
 13
170.3402170812767
 23
521.9204199989369
 33
0.0
 14
174.8999093082073
 24
201.9171270946069
 34
0.0
 50
90.0
100
AcDbRotatedDimension
1001
ACAD
1000
DSTYLE
1002
{
1070
    40
1040
2.0
1070
    41
1040
3.5
1070
    42
1040
1.0
1070
    43
1040
7.0
1070
    44
1040
1.0
1070
    73
1070
     0
1070
    74
1070
     0
1070
    77
1070
     1
1070
    78
1070
     8
1070
    79
1070
     2
1070
   140
1040
3.5
1070
   141
1040
1.5
1070
   146
1040
0.5142857142857144
1070
   147
1040
1.5
1070
   172
1070
     1
1070
   178
1070
     1
1070
   179
1070
     2
1070
   271
1070
     2
1070
   272
1070
     2
1070
   284
1070
     8
1070
   285
1070
     8
1070
   286
1070
     8
1002
}
  0
POLYLINE
  5
124B
330
1E
100
AcDbEntity
  8
HILF
100
AcDb2dPolyline
 66
     1
 10
0.0
 20
0.0
 30
0.0
 70
     4
 75
     6
  0
VERTEX
  5
124C
330
124B
100
AcDbEntity
  8
HILF
100
AcDbVertex
100
AcDb2dVertex
 10
174.2
 20
370.511452379032
 30
0.0
 70
    16
  0
VERTEX
  5
1252
330
124B
100
AcDbEntity
  8
HILF
100
AcDbVertex
100
AcDb2dVertex
 10
174.2
 20
370.511452379032
 30
0.0
 70
     8
  0
VERTEX
  5
1253
330
124B
100
AcDbEntity
  8
HILF
100
AcDbVertex
100
AcDb2dVertex
 10
183.1544921875
 20
372.049538316532
 30
0.0
 70
     8
  0
VERTEX
  5
1254
330
124B
100
AcDbEntity
  8
HILF
100
AcDbVertex
100
AcDb2dVertex
 10
191.0671875
 20
372.9723898790319
 30
0.0
 70
     8
  0
VERTEX
  5
1255
330
124B
100
AcDbEntity
  8
HILF
100
AcDbVertex
100
AcDb2dVertex
 10
198.0869140625
 20
373.367897691532
 30
0.0
 70
     8
  0
VERTEX
  5
1256
330
124B
100
AcDbEntity
  8
HILF
100
AcDbVertex
100
AcDb2dVertex
 10
204.3625
 20
373.3239523790319
 30
0.0
 70
     8
  0
VERTEX
  5
1257
330
124B
100
AcDbEntity
  8
HILF
100
AcDbVertex
100
AcDb2dVertex
 10
210.0427734375
 20
372.928444566532
 30
0.0
 70
     8
  0
VERTEX
  5
1258
330
124B
100
AcDbEntity
  8
HILF
100
AcDbVertex
100
AcDb2dVertex
 10
215.2765625
 20
372.269264879032
 30
0.0
 70
     8
  0
VERTEX
  5
1259
330
124B
100
AcDbEntity
  8
HILF
100
AcDbVertex
100
AcDb2dVertex
 10
220.2126953125
 20
371.4343039415319
 30
0.0
 70
     8
  0
VERTEX
  5
125A
330
124B
100
AcDbEntity
  8
HILF
100
AcDbVertex
100
AcDb2dVertex
 10
224.9999999999999
 20
370.511452379032
 30
0.0
 70
     8
  0
VERTEX
  5
125B
330
124B
100
AcDbEntity
  8
HILF
100
AcDbVertex
100
AcDb2dVertex
 10
229.7873046874999
 20
369.588600816532
 30
0.0
 70
     8
  0
VERTEX
  5
125C
330
124B
100
AcDbEntity
  8
HILF
100
AcDbVertex
100
AcDb2dVertex
 10
234.7234374999998
 20
368.753639879032
 30
0.0
 70
     8
  0
VERTEX
  5
125D
330
124B
100
AcDbEntity
  8
HILF
100
AcDbVertex
100
AcDb2dVertex
 10
239.9572265624998
 20
368.094460191532
 30
0.0
 70
     8
  0
VERTEX
  5
125E
330
124B
100
AcDbEntity
  8
HILF
100
AcDbVertex
100
AcDb2dVertex
 10
245.6374999999998
 20
367.698952379032
 30
0.0
 70
     8
  0
VERTEX
  5
125F
330
124B
100
AcDbEntity
  8
HILF
100
AcDbVertex
100
AcDb2dVertex
 10
251.9130859374998
 20
367.655007066532
 30
0.0
 70
     8
  0
VERTEX
  5
1260
330
124B
100
AcDbEntity
  8
HILF
100
AcDbVertex
100
AcDb2dVertex
 10
258.9328124999998
 20
368.050514879032
 30
0.0
 70
     8
  0
VERTEX
  5
1261
330
124B
100
AcDbEntity
  8
HILF
100
AcDbVertex
100
AcDb2dVertex
 10
266.8455078124998
 20
368.973366441532
 30
0.0
 70
     8
  0
VERTEX
  5
1262
330
124B
100
AcDbEntity
  8
HILF
100
AcDbVertex
100
AcDb2dVertex
 10
275.7999999999997
 20
370.511452379032
 30
0.0
 70
     8
  0
VERTEX
  5
124D
330
124B
100
AcDbEntity
  8
HILF
100
AcDbVertex
100
AcDb2dVertex
 10
199.6
 20
375.5114523790319
 30
0.0
 70
    16
  0
VERTEX
  5
124E
330
124B
100
AcDbEntity
  8
HILF
100
AcDbVertex
100
AcDb2dVertex
 10
224.9999999999999
 20
370.511452379032
 30
0.0
 70
    16
  0
VERTEX
  5
124F
330
124B
100
AcDbEntity
  8
HILF
100
AcDbVertex
100
AcDb2dVertex
 10
250.3999999999998
 20
365.511452379032
 30
0.0
 70
    16
  0
VERTEX
  5
1250
330
124B
100
AcDbEntity
  8
HILF
100
AcDbVertex
100
AcDb2dVertex
 10
275.7999999999997
 20
370.511452379032
 30
0.0
 70
    16
  0
SEQEND
  5
1251
330
124B
100
AcDbEntity
  8
HILF
  0
POLYLINE
  5
1263
330
1E
100
AcDbEntity
  8
HILF
100
AcDb2dPolyline
 66
     1
 10
0.0
 20
0.0
 30
0.0
 70
     4
 75
     6
  0
VERTEX
  5
1264
330
1263
100
AcDbEntity
  8
HILF
100
AcDbVertex
100
AcDb2dVertex
 10
174.1999999999997
 20
365.5114523790319
 30
0.0
 70
    16
  0
VERTEX
  5
1265
330
1263
100
AcDbEntity
  8
HILF
100
AcDbVertex
100
AcDb2dVertex
 10
174.1999999999997
 20
365.5114523790319
 30
0.0
 70
     8
  0
VERTEX
  5
1266
330
1263
100
AcDbEntity
  8
HILF
100
AcDbVertex
100
AcDb2dVertex
 10
183.1544921874997
 20
367.0495383165319
 30
0.0
 70
     8
  0
VERTEX
  5
1267
330
1263
100
AcDbEntity
  8
HILF
100
AcDbVertex
100
AcDb2dVertex
 10
191.0671874999997
 20
367.972389879032
 30
0.0
 70
     8
  0
VERTEX
  5
1268
330
1263
100
AcDbEntity
  8
HILF
100
AcDbVertex
100
AcDb2dVertex
 10
198.0869140624997
 20
368.3678976915319
 30
0.0
 70
     8
  0
VERTEX
  5
1269
330
1263
100
AcDbEntity
  8
HILF
100
AcDbVertex
100
AcDb2dVertex
 10
204.3624999999997
 20
368.3239523790319
 30
0.0
 70
     8
  0
VERTEX
  5
126A
330
1263
100
AcDbEntity
  8
HILF
100
AcDbVertex
100
AcDb2dVertex
 10
210.0427734374997
 20
367.9284445665319
 30
0.0
 70
     8
  0
VERTEX
  5
126B
330
1263
100
AcDbEntity
  8
HILF
100
AcDbVertex
100
AcDb2dVertex
 10
215.2765624999997
 20
367.2692648790319
 30
0.0
 70
     8
  0
VERTEX
  5
126C
330
1263
100
AcDbEntity
  8
HILF
100
AcDbVertex
100
AcDb2dVertex
 10
220.2126953124997
 20
366.434303941532
 30
0.0
 70
     8
  0
VERTEX
  5
126D
330
1263
100
AcDbEntity
  8
HILF
100
AcDbVertex
100
AcDb2dVertex
 10
224.9999999999996
 20
365.511452379032
 30
0.0
 70
     8
  0
VERTEX
  5
126E
330
1263
100
AcDbEntity
  8
HILF
100
AcDbVertex
100
AcDb2dVertex
 10
229.7873046874996
 20
364.588600816532
 30
0.0
 70
     8
  0
VERTEX
  5
126F
330
1263
100
AcDbEntity
  8
HILF
100
AcDbVertex
100
AcDb2dVertex
 10
234.7234374999996
 20
363.753639879032
 30
0.0
 70
     8
  0
VERTEX
  5
1270
330
1263
100
AcDbEntity
  8
HILF
100
AcDbVertex
100
AcDb2dVertex
 10
239.9572265624996
 20
363.094460191532
 30
0.0
 70
     8
  0
VERTEX
  5
1271
330
1263
100
AcDbEntity
  8
HILF
100
AcDbVertex
100
AcDb2dVertex
 10
245.6374999999995
 20
362.698952379032
 30
0.0
 70
     8
  0
VERTEX
  5
1272
330
1263
100
AcDbEntity
  8
HILF
100
AcDbVertex
100
AcDb2dVertex
 10
251.9130859374996
 20
362.655007066532
 30
0.0
 70
     8
  0
VERTEX
  5
1273
330
1263
100
AcDbEntity
  8
HILF
100
AcDbVertex
100
AcDb2dVertex
 10
258.9328124999995
 20
363.050514879032
 30
0.0
 70
     8
  0
VERTEX
  5
1274
330
1263
100
AcDbEntity
  8
HILF
100
AcDbVertex
100
AcDb2dVertex
 10
266.8455078124995
 20
363.9733664415319
 30
0.0
 70
     8
  0
VERTEX
  5
1275
330
1263
100
AcDbEntity
  8
HILF
100
AcDbVertex
100
AcDb2dVertex
 10
275.7999999999995
 20
365.5114523790319
 30
0.0
 70
     8
  0
VERTEX
  5
1276
330
1263
100
AcDbEntity
  8
HILF
100
AcDbVertex
100
AcDb2dVertex
 10
199.5999999999997
 20
370.511452379032
 30
0.0
 70
    16
  0
VERTEX
  5
1277
330
1263
100
AcDbEntity
  8
HILF
100
AcDbVertex
100
AcDb2dVertex
 10
224.9999999999996
 20
365.5114523790319
 30
0.0
 70
    16
  0
VERTEX
  5
1278
330
1263
100
AcDbEntity
  8
HILF
100
AcDbVertex
100
AcDb2dVertex
 10
250.3999999999996
 20
360.511452379032
 30
0.0
 70
    16
  0
VERTEX
  5
1279
330
1263
100
AcDbEntity
  8
HILF
100
AcDbVertex
100
AcDb2dVertex
 10
275.7999999999995
 20
365.5114523790319
 30
0.0
 70
    16
  0
SEQEND
  5
127A
330
1263
100
AcDbEntity
  8
HILF
  0
LINE
  5
127B
330
1E
100
AcDbEntity
  8
STEMPEL
100
AcDbLine
 10
275.7999999999997
 20
365.5114523790319
 30
0.0
 11
275.7999999999999
 21
209.9171270946064
 31
0.0
  0
LINE
  5
127C
330
1E
100
AcDbEntity
  8
STEMPEL
100
AcDbLine
 10
174.1999999999999
 20
365.5114523790319
 30
0.0
 11
174.2
 21
209.9171270946069
 31
0.0
  0
LINE
  5
12EF
330
1E
100
AcDbEntity
  8
STEMPEL
100
AcDbLine
 10
282.8999999999997
 20
509.7241090812865
 30
0.0
 11
282.8999999999999
 21
491.1504199989369
 31
0.0
  0
ARC
  5
12F0
330
1E
100
AcDbEntity
  8
STEMPEL
100
AcDbCircle
 10
291.6999999999998
 20
474.4172194682554
 30
0.0
 40
12.8
100
AcDbArc
 50
153.1119523822753
 51
180.0
  0
ARC
  5
12F1
330
1E
100
AcDbEntity
  8
STEMPEL
100
AcDbCircle
 10
283.7999999999998
 20
447.3772933222967
 30
0.0
 40
8.0
100
AcDbArc
 50
149.1404189093777
 51
180.0
  0
ARC
  5
12F2
330
1E
100
AcDbEntity
  8
STEMPEL
100
AcDbCircle
 10
264.6999999999998
 20
458.6923275688201
 30
0.0
 40
14.2
100
AcDbArc
 50
329.3570682370604
 51
0.0
  0
LINE
  5
12F3
330
1E
100
AcDbEntity
  8
STEMPEL
100
AcDbLine
 10
275.7999999999999
 20
447.2768760936852
 30
0.0
 11
275.7999999999999
 21
370.511452379032
 31
0.0
  0
LINE
  5
12F4
330
1E
100
AcDbEntity
  8
STEMPEL
100
AcDbLine
 10
278.8999999999999
 20
474.4172194682554
 30
0.0
 11
278.8999999999999
 21
458.6923275688201
 31
0.0
  0
ARC
  5
12F5
330
1E
100
AcDbEntity
  8
STEMPEL
100
AcDbCircle
 10
258.6999999999998
 20
491.1504199989369
 30
0.0
 40
24.2
100
AcDbArc
 50
333.1119523822754
 51
0.0
  0
ARC
  5
12F6
330
1E
100
AcDbEntity
  8
STEMPEL
100
AcDbCircle
 10
258.6999999999998
 20
509.7241090812865
 30
0.0
 40
24.2
100
AcDbArc
 50
0.0
 51
30.26365194209988
  0
ARC
  5
12F7
330
1E
100
AcDbEntity
  8
STEMPEL
100
AcDbCircle
 10
158.2999999999998
 20
474.4172194682554
 30
0.0
 40
12.8
100
AcDbArc
 50
0.0
 51
26.88804761772463
  0
ARC
  5
12F8
330
1E
100
AcDbEntity
  8
STEMPEL
100
AcDbCircle
 10
191.2999999999998
 20
491.1504199989368
 30
0.0
 40
24.2
100
AcDbArc
 50
180.0
 51
206.8880476177246
  0
LINE
  5
12F9
330
1E
100
AcDbEntity
  8
STEMPEL
100
AcDbLine
 10
167.0999999999999
 20
509.7241090812864
 30
0.0
 11
167.0999999999999
 21
491.1504199989368
 31
0.0
  0
ARC
  5
12FA
330
1E
100
AcDbEntity
  8
STEMPEL
100
AcDbCircle
 10
166.1999999999999
 20
447.3772933222966
 30
0.0
 40
8.0
100
AcDbArc
 50
0.0
 51
30.85958109062227
  0
ARC
  5
12FB
330
1E
100
AcDbEntity
  8
STEMPEL
100
AcDbCircle
 10
185.2999999999998
 20
458.6923275688199
 30
0.0
 40
14.2
100
AcDbArc
 50
180.0
 51
210.6429317629395
  0
LINE
  5
12FC
330
1E
100
AcDbEntity
  8
STEMPEL
100
AcDbLine
 10
174.1999999999999
 20
447.2768760936852
 30
0.0
 11
174.1999999999999
 21
370.511452379032
 31
0.0
  0
LINE
  5
12FD
330
1E
100
AcDbEntity
  8
STEMPEL
100
AcDbLine
 10
171.0999999999998
 20
474.4172194682553
 30
0.0
 11
171.0999999999998
 21
458.6923275688199
 31
0.0
  0
ARC
  5
12FE
330
1E
100
AcDbEntity
  8
STEMPEL
100
AcDbCircle
 10
191.2999999999998
 20
509.7241090812864
 30
0.0
 40
24.2
100
AcDbArc
 50
149.7363480579001
 51
180.0
  0
LINE
  5
1300
330
1E
100
AcDbEntity
  8
STEMPEL
100
AcDbLine
 10
279.6019137879764
 20
521.9204199989367
 30
0.0
 11
170.3980862120234
 21
521.9204199989369
 31
0.0
  0
LINE
  5
1301
330
1E
100
AcDbEntity
  8
HILF
100
AcDbLine
 10
274.8495998457414
 20
449.5057521728859
 30
0.0
 11
175.1504001542583
 21
449.5057521728859
 31
0.0
  0
LINE
  5
1302
330
1E
100
AcDbEntity
  8
HILF
100
AcDbLine
 10
277.1467478295146
 20
454.9401990437734
 30
0.0
 11
172.853252170485
 21
454.9401990437734
 31
0.0
  0
LINE
  5
1303
330
1E
100
AcDbEntity
  8
HILF
100
AcDbLine
 10
278.0199494232006
 20
477.3931590200971
 30
0.0
 11
171.9800505767989
 21
477.3931590200972
 31
0.0
  0
TEXT
  5
1324
330
1E
100
AcDbEntity
  8
TEXT
100
AcDbText
 10
170.7037590129979
 20
63.10765040825732
 30
0.0
 40
4.0
  1
15.04.
 41
0.8
  7
GREEKS
 72
     1
 11
177.4085209177598
 21
63.10765040825732
 31
0.0
100
AcDbText
  0
ENDSEC
  0
SECTION
  2
OBJECTS
  0
DICTIONARY
  5
C
330
0
100
AcDbDictionary
281
     1
  3
ACAD_COLOR
350
ED9
  3
ACAD_GROUP
350
D
  3
ACAD_LAYOUT
350
19
  3
ACAD_MATERIAL
350
ED8
  3
ACAD_MLINESTYLE
350
16
  3
ACAD_PLOTSETTINGS
350
18
  3
ACAD_PLOTSTYLENAME
350
E
  3
AcDbVariableDictionary
350
246
  0
DICTIONARY
  5
ED9
102
{ACAD_REACTORS
330
C
102
}
330
C
100
AcDbDictionary
281
     1
  0
DICTIONARY
  5
D
102
{ACAD_REACTORS
330
C
102
}
330
C
100
AcDbDictionary
281
     1
  0
DICTIONARY
  5
19
102
{ACAD_REACTORS
330
C
102
}
330
C
100
AcDbDictionary
281
     1
  3
Layout1
350
1D
  3
Model
350
21
  0
DICTIONARY
  5
ED8
102
{ACAD_REACTORS
330
C
102
}
330
C
100
AcDbDictionary
281
     1
  0
DICTIONARY
  5
16
102
{ACAD_REACTORS
330
C
102
}
330
C
100
AcDbDictionary
281
     1
  3
Standard
350
17
  0
DICTIONARY
  5
18
102
{ACAD_REACTORS
330
C
102
}
330
C
100
AcDbDictionary
281
     1
  0
ACDBDICTIONARYWDFLT
  5
E
102
{ACAD_REACTORS
330
C
102
}
330
C
100
AcDbDictionary
281
     1
  3
Normal
350
F
100
AcDbDictionaryWithDefault
340
F
  0
DICTIONARY
  5
246
102
{ACAD_REACTORS
330
C
102
}
330
C
100
AcDbDictionary
281
     1
  3
DIMASSOC
350
11F4
  3
PROJECTNAME
350
11F5
  3
SORTENTS
350
247
  0
LAYOUT
  5
1D
102
{ACAD_REACTORS
330
19
102
}
330
19
100
AcDbPlotSettings
  1

  2
Tektronix Phaser 740
  4

  6

 40
0.0
 41
0.0
 42
0.0
 43
0.0
 44
0.0
 45
0.0
 46
0.0
 47
0.0
 48
0.0
 49
0.0
140
0.0
141
0.0
142
1.0
143
1.0
 70
   688
 72
     0
 73
     0
 74
     5
  7
monochrome.ctb
 75
    16
147
1.0
 76
     0
 77
     2
 78
   300
148
0.0
149
0.0
100
AcDbLayout
  1
Layout1
 70
     0
 71
     1
 10
0.0
 20
0.0
 11
12.0
 21
9.0
 12
0.0
 22
0.0
 32
0.0
 14
1.000000000000000E+20
 24
1.000000000000000E+20
 34
1.000000000000000E+20
 15
-1.000000000000000E+20
 25
-1.000000000000000E+20
 35
-1.000000000000000E+20
146
0.0
 13
0.0
 23
0.0
 33
0.0
 16
1.0
 26
0.0
 36
0.0
 17
0.0
 27
1.0
 37
0.0
 76
     0
330
1A
  0
LAYOUT
  5
21
102
{ACAD_REACTORS
330
19
102
}
330
19
100
AcDbPlotSettings
  1

  2
Tektronix Phaser 740
  4
A4
  6

 40
5.873749732971191
 41
6.085414409637451
 42
5.577407836914062
 43
5.662078857421875
 44
209.9733276367187
 45
296.9683227539062
 46
0.0
 47
0.0
 48
0.0
 49
0.0
140
0.0
141
0.0
142
1.0
143
1.0
 70
 11952
 72
     0
 73
     1
 74
     0
  7
monochrome.ctb
 75
     0
147
1.0
 76
     0
 77
     2
 78
   300
148
1150.120678237584
149
45.30495740799864
100
AcDbLayout
  1
Model
 70
     1
 71
     0
 10
0.0
 20
0.0
 11
12.0
 21
9.0
 12
0.0
 22
0.0
 32
0.0
 14
0.0
 24
0.0
 34
0.0
 15
0.0
 25
0.0
 35
0.0
146
0.0
 13
0.0
 23
0.0
 33
0.0
 16
1.0
 26
0.0
 36
0.0
 17
0.0
 27
1.0
 37
0.0
 76
     0
330
1E
  0
MLINESTYLE
  5
17
102
{ACAD_REACTORS
330
16
102
}
330
16
100
AcDbMlineStyle
  2
STANDARD
 70
     0
  3

 62
   256
 51
90.0
 52
90.0
 71
     2
 49
0.5
 62
   256
  6
BYLAYER
 49
-0.5
 62
   256
  6
BYLAYER
  0
ACDBPLACEHOLDER
  5
F
102
{ACAD_REACTORS
330
E
102
}
330
E
  0
DICTIONARYVAR
  5
11F4
102
{ACAD_REACTORS
330
246
102
}
330
246
100
DictionaryVariables
280
     0
  1
1
  0
DICTIONARYVAR
  5
11F5
102
{ACAD_REACTORS
330
246
102
}
330
246
100
DictionaryVariables
280
     0
  1

  0
DICTIONARYVAR
  5
247
102
{ACAD_REACTORS
330
246
102
}
330
246
100
DictionaryVariables
280
     0
  1
96
  0
ENDSEC
  0
EOF
