  0
SECTION
  2
HEADER
  9
$ACADVER
  1
AC1018
  9
$ACADMAINTVER
 70
     2
  9
$DWGCODEPAGE
  3
ANSI_1252
  9
$INSBASE
 10
0.0
 20
0.0
 30
0.0
  9
$EXTMIN
 10
-0.016012926633266
 20
-0.0226468533817297
 30
-0.0000000000000095
  9
$EXTMAX
 10
210.0000039120027
 20
297.000005532689
 30
0.0000000000000057
  9
$LIMMIN
 10
0.0
 20
0.0
  9
$LIMMAX
 10
210.0
 20
297.0
  9
$ORTHOMODE
 70
     1
  9
$REGENMODE
 70
     1
  9
$FILLMODE
 70
     1
  9
$QTEXTMODE
 70
     0
  9
$MIRRTEXT
 70
     1
  9
$LTSCALE
 40
10.0
  9
$ATTMODE
 70
     1
  9
$TEXTSIZE
 40
3.5
  9
$TRACEWID
 40
0.5
  9
$TEXTSTYLE
  7
STANDARD
  9
$CLAYER
  8
BEM
  9
$CELTYPE
  6
ByLayer
  9
$CECOLOR
 62
   256
  9
$CELTSCALE
 40
1.0
  9
$DISPSILH
 70
     0
  9
$DIMSCALE
 40
1.0
  9
$DIMASZ
 40
3.5
  9
$DIMEXO
 40
1.0
  9
$DIMDLI
 40
7.0
  9
$DIMRND
 40
0.0
  9
$DIMDLE
 40
0.0
  9
$DIMEXE
 40
1.0
  9
$DIMTP
 40
0.0
  9
$DIMTM
 40
0.0
  9
$DIMTXT
 40
3.5
  9
$DIMCEN
 40
1.5
  9
$DIMTSZ
 40
0.0
  9
$DIMTOL
 70
     0
  9
$DIMLIM
 70
     0
  9
$DIMTIH
 70
     0
  9
$DIMTOH
 70
     0
  9
$DIMSE1
 70
     0
  9
$DIMSE2
 70
     0
  9
$DIMTAD
 70
     1
  9
$DIMZIN
 70
     8
  9
$DIMBLK
  1

  9
$DIMASO
 70
     1
  9
$DIMSHO
 70
     0
  9
$DIMPOST
  1

  9
$DIMAPOST
  1

  9
$DIMALT
 70
     0
  9
$DIMALTD
 70
     2
  9
$DIMALTF
 40
25.4
  9
$DIMLFAC
 40
1.0
  9
$DIMTOFL
 70
     1
  9
$DIMTVP
 40
0.0
  9
$DIMTIX
 70
     0
  9
$DIMSOXD
 70
     0
  9
$DIMSAH
 70
     0
  9
$DIMBLK1
  1

  9
$DIMBLK2
  1

  9
$DIMSTYLE
  2
Standard
  9
$DIMCLRD
 70
     0
  9
$DIMCLRE
 70
     0
  9
$DIMCLRT
 70
     1
  9
$DIMTFAC
 40
0.5142857142857144
  9
$DIMGAP
 40
1.5
  9
$DIMJUST
 70
     0
  9
$DIMSD1
 70
     0
  9
$DIMSD2
 70
     0
  9
$DIMTOLJ
 70
     1
  9
$DIMTZIN
 70
     8
  9
$DIMALTZ
 70
     8
  9
$DIMALTTZ
 70
     8
  9
$DIMUPT
 70
     0
  9
$DIMDEC
 70
     2
  9
$DIMTDEC
 70
     2
  9
$DIMALTU
 70
     2
  9
$DIMALTTD
 70
     2
  9
$DIMTXSTY
  7
STANDARD
  9
$DIMAUNIT
 70
     0
  9
$DIMADEC
 70
     2
  9
$DIMALTRND
 40
0.0
  9
$DIMAZIN
 70
     2
  9
$DIMDSEP
 70
    46
  9
$DIMATFIT
 70
     3
  9
$DIMFRAC
 70
     0
  9
$DIMLDRBLK
  1

  9
$DIMLUNIT
 70
     2
  9
$DIMLWD
 70
    -2
  9
$DIMLWE
 70
    -2
  9
$DIMTMOVE
 70
     0
  9
$LUNITS
 70
     2
  9
$LUPREC
 70
     2
  9
$SKETCHINC
 40
1.0
  9
$FILLETRAD
 40
0.0
  9
$AUNITS
 70
     1
  9
$AUPREC
 70
     3
  9
$MENU
  1
ACAD
  9
$ELEVATION
 40
0.0
  9
$PELEVATION
 40
0.0
  9
$THICKNESS
 40
0.0
  9
$LIMCHECK
 70
     0
  9
$CHAMFERA
 40
0.0
  9
$CHAMFERB
 40
0.0
  9
$CHAMFERC
 40
0.0
  9
$CHAMFERD
 40
0.0
  9
$SKPOLY
 70
     0
  9
$TDCREATE
 40
2452040.637099653
  9
$TDUCREATE
 40
2452040.553766320
  9
$TDUPDATE
 40
2455666.613586979
  9
$TDUUPDATE
 40
2455666.530253646
  9
$TDINDWG
 40
0.0821112616
  9
$TDUSRTIMER
 40
0.0821112616
  9
$USRTIMER
 70
     1
  9
$ANGBASE
 50
0.0
  9
$ANGDIR
 70
     0
  9
$PDMODE
 70
     0
  9
$PDSIZE
 40
0.0
  9
$PLINEWID
 40
0.0
  9
$SPLFRAME
 70
     0
  9
$SPLINETYPE
 70
     6
  9
$SPLINESEGS
 70
     8
  9
$HANDSEED
  5
674
  9
$SURFTAB1
 70
     6
  9
$SURFTAB2
 70
     6
  9
$SURFTYPE
 70
     6
  9
$SURFU
 70
     6
  9
$SURFV
 70
     6
  9
$UCSBASE
  2

  9
$UCSNAME
  2

  9
$UCSORG
 10
0.0
 20
0.0
 30
0.0
  9
$UCSXDIR
 10
1.0
 20
0.0
 30
0.0
  9
$UCSYDIR
 10
0.0
 20
1.0
 30
0.0
  9
$UCSORTHOREF
  2

  9
$UCSORTHOVIEW
 70
     0
  9
$UCSORGTOP
 10
0.0
 20
0.0
 30
0.0
  9
$UCSORGBOTTOM
 10
0.0
 20
0.0
 30
0.0
  9
$UCSORGLEFT
 10
0.0
 20
0.0
 30
0.0
  9
$UCSORGRIGHT
 10
0.0
 20
0.0
 30
0.0
  9
$UCSORGFRONT
 10
0.0
 20
0.0
 30
0.0
  9
$UCSORGBACK
 10
0.0
 20
0.0
 30
0.0
  9
$PUCSBASE
  2

  9
$PUCSNAME
  2

  9
$PUCSORG
 10
0.0
 20
0.0
 30
0.0
  9
$PUCSXDIR
 10
1.0
 20
0.0
 30
0.0
  9
$PUCSYDIR
 10
0.0
 20
1.0
 30
0.0
  9
$PUCSORTHOREF
  2

  9
$PUCSORTHOVIEW
 70
     0
  9
$PUCSORGTOP
 10
0.0
 20
0.0
 30
0.0
  9
$PUCSORGBOTTOM
 10
0.0
 20
0.0
 30
0.0
  9
$PUCSORGLEFT
 10
0.0
 20
0.0
 30
0.0
  9
$PUCSORGRIGHT
 10
0.0
 20
0.0
 30
0.0
  9
$PUCSORGFRONT
 10
0.0
 20
0.0
 30
0.0
  9
$PUCSORGBACK
 10
0.0
 20
0.0
 30
0.0
  9
$USERI1
 70
     0
  9
$USERI2
 70
     0
  9
$USERI3
 70
     0
  9
$USERI4
 70
     0
  9
$USERI5
 70
     0
  9
$USERR1
 40
0.0
  9
$USERR2
 40
0.0
  9
$USERR3
 40
0.0
  9
$USERR4
 40
0.0
  9
$USERR5
 40
0.0
  9
$WORLDVIEW
 70
     1
  9
$SHADEDGE
 70
     3
  9
$SHADEDIF
 70
    70
  9
$TILEMODE
 70
     1
  9
$MAXACTVP
 70
    16
  9
$PINSBASE
 10
0.0
 20
0.0
 30
0.0
  9
$PLIMCHECK
 70
     0
  9
$PEXTMIN
 10
1.000000000000000E+20
 20
1.000000000000000E+20
 30
1.000000000000000E+20
  9
$PEXTMAX
 10
-1.000000000000000E+20
 20
-1.000000000000000E+20
 30
-1.000000000000000E+20
  9
$PLIMMIN
 10
0.0
 20
0.0
  9
$PLIMMAX
 10
12.0
 20
9.0
  9
$UNITMODE
 70
     0
  9
$VISRETAIN
 70
     0
  9
$PLINEGEN
 70
     0
  9
$PSLTSCALE
 70
     0
  9
$TREEDEPTH
 70
  3020
  9
$CMLSTYLE
  2
Standard
  9
$CMLJUST
 70
     0
  9
$CMLSCALE
 40
1.0
  9
$PROXYGRAPHICS
 70
     1
  9
$MEASUREMENT
 70
     0
  9
$CELWEIGHT
370
    -1
  9
$ENDCAPS
280
     0
  9
$JOINSTYLE
280
     0
  9
$LWDISPLAY
290
     0
  9
$INSUNITS
 70
     0
  9
$HYPERLINKBASE
  1

  9
$STYLESHEET
  1
monochrome 1.ctb
  9
$XEDIT
290
     1
  9
$CEPSNTYPE
380
     0
  9
$PSTYLEMODE
290
     1
  9
$FINGERPRINTGUID
  2
{7AADB5C8-6110-11D8-B72B-000102183313}
  9
$VERSIONGUID
  2
{D74EA5D3-5F57-4742-9276-947D21BC0D5C}
  9
$EXTNAMES
290
     1
  9
$PSVPSCALE
 40
0.0
  9
$OLESTARTUP
290
     0
  9
$SORTENTS
280
    96
  9
$INDEXCTL
280
     0
  9
$HIDETEXT
280
     0
  9
$XCLIPFRAME
290
     0
  9
$HALOGAP
280
     0
  9
$OBSCOLOR
 70
   257
  9
$OBSLTYPE
280
     0
  9
$INTERSECTIONDISPLAY
280
     0
  9
$INTERSECTIONCOLOR
 70
   257
  9
$DIMASSOC
280
     1
  9
$PROJECTNAME
  1

  0
ENDSEC
  0
SECTION
  2
CLASSES
  0
CLASS
  1
ACDBDICTIONARYWDFLT
  2
AcDbDictionaryWithDefault
  3
ObjectDBX Classes
 90
        0
 91
        1
280
     0
281
     0
  0
CLASS
  1
DICTIONARYVAR
  2
AcDbDictionaryVar
  3
ObjectDBX Classes
 90
        0
 91
        3
280
     0
281
     0
  0
ENDSEC
  0
SECTION
  2
TABLES
  0
TABLE
  2
VPORT
  5
8
330
0
100
AcDbSymbolTable
 70
     3
  0
VPORT
  5
673
330
8
100
AcDbSymbolTableRecord
100
AcDbViewportTableRecord
  2
*Active
 70
     0
 10
0.0
 20
0.0
 11
1.0
 21
1.0
 12
105.0
 22
148.5
 13
0.0
 23
0.0
 14
1.0
 24
1.0
 15
10.0
 25
10.0
 16
0.0
 26
0.0
 36
1.0
 17
0.0
 27
0.0
 37
0.0
 40
297.0
 41
1.334231805929919
 42
50.0
 43
0.0
 44
0.0
 50
0.0
 51
0.0
 71
     0
 72
  1500
 73
     1
 74
     0
 75
     0
 76
     0
 77
     0
 78
     0
281
     0
 65
     1
110
0.0
120
0.0
130
0.0
111
1.0
121
0.0
131
0.0
112
0.0
122
1.0
132
0.0
 79
     0
146
0.0
  0
ENDTAB
  0
TABLE
  2
LTYPE
  5
5
330
0
100
AcDbSymbolTable
 70
     2
  0
LTYPE
  5
13
330
5
100
AcDbSymbolTableRecord
100
AcDbLinetypeTableRecord
  2
ByBlock
 70
     0
  3

 72
    65
 73
     0
 40
0.0
  0
LTYPE
  5
14
330
5
100
AcDbSymbolTableRecord
100
AcDbLinetypeTableRecord
  2
ByLayer
 70
     0
  3

 72
    65
 73
     0
 40
0.0
  0
LTYPE
  5
15
330
5
100
AcDbSymbolTableRecord
100
AcDbLinetypeTableRecord
  2
Continuous
 70
     0
  3
Solid line
 72
    65
 73
     0
 40
0.0
  0
LTYPE
  5
35
330
5
100
AcDbSymbolTableRecord
100
AcDbLinetypeTableRecord
  2
STRICHPUNKT
 70
     0
  3
__ . __ . __ . __ . __ . __ . __ . __ . __ . __
 72
    65
 73
     4
 40
1.0
 49
0.5
 74
     0
 49
-0.25
 74
     0
 49
0.0
 74
     0
 49
-0.25
 74
     0
  0
ENDTAB
  0
TABLE
  2
LAYER
  5
2
330
0
100
AcDbSymbolTable
 70
     9
  0
LAYER
  5
10
330
2
100
AcDbSymbolTableRecord
100
AcDbLayerTableRecord
  2
0
 70
     0
 62
     7
  6
Continuous
370
    -3
390
F
  0
LAYER
  5
38
330
2
100
AcDbSymbolTableRecord
100
AcDbLayerTableRecord
  2
VOLL
 70
     0
 62
     1
  6
Continuous
370
    -3
390
F
  0
LAYER
  5
39
330
2
100
AcDbSymbolTableRecord
100
AcDbLayerTableRecord
  2
HILF
 70
     0
 62
     2
  6
Continuous
370
    -3
390
F
  0
LAYER
  5
3A
330
2
100
AcDbSymbolTableRecord
100
AcDbLayerTableRecord
  2
MITTEL
 70
     0
 62
     2
  6
STRICHPUNKT
370
    -3
390
F
  0
LAYER
  5
3B
330
2
100
AcDbSymbolTableRecord
100
AcDbLayerTableRecord
  2
BEM
 70
     0
 62
     7
  6
Continuous
370
    -3
390
F
  0
LAYER
  5
3C
330
2
100
AcDbSymbolTableRecord
100
AcDbLayerTableRecord
  2
STEMPEL
 70
     0
 62
     3
  6
Continuous
370
    -3
390
F
  0
LAYER
  5
3D
330
2
100
AcDbSymbolTableRecord
100
AcDbLayerTableRecord
  2
TEXT
 70
     0
 62
     7
  6
Continuous
370
    -3
390
F
  0
LAYER
  5
3E
330
2
100
AcDbSymbolTableRecord
100
AcDbLayerTableRecord
  2
DEFPOINTS
 70
     0
 62
     7
  6
Continuous
290
     0
370
    -3
390
F
  0
ENDTAB
  0
TABLE
  2
STYLE
  5
3
330
0
100
AcDbSymbolTable
 70
     2
  0
STYLE
  5
11
330
3
100
AcDbSymbolTableRecord
100
AcDbTextStyleTableRecord
  2
STANDARD
 70
     0
 40
0.0
 41
0.8
 50
0.0
 71
     0
 42
3.5
  3
simplex.shx
  4

  0
STYLE
  5
34
330
3
100
AcDbSymbolTableRecord
100
AcDbTextStyleTableRecord
  2
GREEKS
 70
     0
 40
0.0
 41
0.8
 50
0.0
 71
     0
 42
2.5
  3
SIMPLEX.shx
  4

  0
ENDTAB
  0
TABLE
  2
VIEW
  5
6
330
0
100
AcDbSymbolTable
 70
     0
  0
ENDTAB
  0
TABLE
  2
UCS
  5
7
330
0
100
AcDbSymbolTable
 70
     0
  0
ENDTAB
  0
TABLE
  2
APPID
  5
9
330
0
100
AcDbSymbolTable
 70
     1
  0
APPID
  5
12
330
9
100
AcDbSymbolTableRecord
100
AcDbRegAppTableRecord
  2
ACAD
 70
     0
  0
ENDTAB
  0
TABLE
  2
DIMSTYLE
  5
A
330
0
100
AcDbSymbolTable
 70
     1
100
AcDbDimStyleTable
 71
     1
340
1CB
  0
DIMSTYLE
105
1CB
102
{ACAD_REACTORS
330
1DB
330
1E8
102
}
330
A
100
AcDbSymbolTableRecord
100
AcDbDimStyleTableRecord
  2
Standard
 70
     0
340
11
  0
ENDTAB
  0
TABLE
  2
BLOCK_RECORD
  5
1
330
0
100
AcDbSymbolTable
 70
     4
  0
BLOCK_RECORD
  5
1E
330
1
100
AcDbSymbolTableRecord
100
AcDbBlockTableRecord
  2
*Model_Space
340
21
  0
BLOCK_RECORD
  5
1A
330
1
100
AcDbSymbolTableRecord
100
AcDbBlockTableRecord
  2
*Paper_Space
340
1D
  0
BLOCK_RECORD
  5
22
330
1
100
AcDbSymbolTableRecord
100
AcDbBlockTableRecord
  2
LOGO
340
0
102
{BLKREFS
331
135
102
}
  0
BLOCK_RECORD
  5
1DC
330
1
100
AcDbSymbolTableRecord
100
AcDbBlockTableRecord
  2
*D1
340
0
  0
BLOCK_RECORD
  5
1E9
330
1
100
AcDbSymbolTableRecord
100
AcDbBlockTableRecord
  2
*D2
340
0
  0
ENDTAB
  0
ENDSEC
  0
SECTION
  2
BLOCKS
  0
BLOCK
  5
43
330
1E
100
AcDbEntity
  8
0
100
AcDbBlockBegin
  2
*Model_Space
 70
     0
 10
0.0
 20
0.0
 30
0.0
  3
*Model_Space
  1

  0
ENDBLK
  5
44
330
1E
100
AcDbEntity
  8
0
100
AcDbBlockEnd
  0
BLOCK
  5
41
330
1A
100
AcDbEntity
 67
     1
  8
0
100
AcDbBlockBegin
  2
*Paper_Space
 70
     0
 10
0.0
 20
0.0
 30
0.0
  3
*Paper_Space
  1

  0
ENDBLK
  5
42
330
1A
100
AcDbEntity
 67
     1
  8
0
100
AcDbBlockEnd
  0
BLOCK
  5
45
330
22
100
AcDbEntity
  8
0
100
AcDbBlockBegin
  2
LOGO
 70
     0
 10
0.0
 20
0.0
 30
0.0
  3
LOGO
  1

  0
ARC
  5
46
330
22
100
AcDbEntity
  8
0
100
AcDbCircle
 10
11.59973089678112
 20
-9.271599258481501
 30
0.0
 40
4.5
100
AcDbArc
 50
270.0
 51
231.0575587310159
  0
LINE
  5
47
330
22
100
AcDbEntity
  8
0
100
AcDbLine
 10
3.599730896781125
 20
-4.771599258481529
 30
0.0
 11
3.599730896781153
 21
-11.77159925848133
 31
0.0
  0
LINE
  5
48
330
22
100
AcDbEntity
  8
0
100
AcDbLine
 10
2.599730896781125
 20
-4.771599258481529
 30
0.0
 11
2.599730896781153
 21
-11.77159925848133
 31
0.0
  0
CIRCLE
  5
49
330
22
100
AcDbEntity
  8
0
100
AcDbCircle
 10
11.59973089678112
 20
-9.271599258481501
 30
0.0
 40
3.5
  0
ARC
  5
4A
330
22
100
AcDbEntity
  8
0
100
AcDbCircle
 10
31.59973089678115
 20
-9.271599258481472
 30
0.0
 40
4.5
100
AcDbArc
 50
270.0
 51
231.0575587310182
  0
LINE
  5
4B
330
22
100
AcDbEntity
  8
0
100
AcDbLine
 10
17.59973089678112
 20
-4.771599258481472
 30
0.0
 11
17.59973089678115
 21
-13.77159925848147
 31
0.0
  0
ARC
  5
4C
330
22
100
AcDbEntity
  8
0
100
AcDbCircle
 10
22.59973089678116
 20
-7.271599258481472
 30
0.0
 40
2.5
100
AcDbArc
 50
293.1161887722295
 51
90.0
  0
CIRCLE
  5
4D
330
22
100
AcDbEntity
  8
0
100
AcDbCircle
 10
31.59973089678115
 20
-9.271599258481472
 30
0.0
 40
3.5
  0
ARC
  5
4E
330
22
100
AcDbEntity
  8
0
100
AcDbCircle
 10
4.599730896781153
 20
-11.77159925848133
 30
0.0
 40
1.0
100
AcDbArc
 50
180.0
 51
270.0
  0
ARC
  5
4F
330
22
100
AcDbEntity
  8
0
100
AcDbCircle
 10
4.599730896781153
 20
-11.77159925848133
 30
0.0
 40
2.0
100
AcDbArc
 50
179.9999999999992
 51
270.0
  0
LINE
  5
50
330
22
100
AcDbEntity
  8
0
100
AcDbLine
 10
11.59973089678115
 20
-13.77159925848144
 30
0.0
 11
4.599730896781153
 21
-13.77159925848147
 31
0.0
  0
LINE
  5
51
330
22
100
AcDbEntity
  8
0
100
AcDbLine
 10
8.771303772034769
 20
-12.77159925848136
 30
0.0
 11
4.599730896781153
 21
-12.77159925848133
 31
0.0
  0
LINE
  5
52
330
22
100
AcDbEntity
  8
0
100
AcDbLine
 10
31.59973089678115
 20
-13.77159925848147
 30
0.0
 11
23.6715276665056
 21
-13.77159925848144
 31
0.0
  0
LINE
  5
53
330
22
100
AcDbEntity
  8
0
100
AcDbLine
 10
23.56565672307022
 20
-9.51278021337896
 30
0.0
 11
24.4388546544846
 21
-12.77159925848144
 31
0.0
  0
LINE
  5
54
330
22
100
AcDbEntity
  8
0
100
AcDbLine
 10
22.59973089678116
 20
-9.771599258481472
 30
0.0
 11
18.59973089678112
 21
-9.771599258481472
 31
0.0
  0
LINE
  5
55
330
22
100
AcDbEntity
  8
0
100
AcDbLine
 10
18.59973089678115
 20
-13.77159925848144
 30
0.0
 11
17.59973089678115
 21
-13.77159925848144
 31
0.0
  0
LINE
  5
56
330
22
100
AcDbEntity
  8
0
100
AcDbLine
 10
18.59973089678115
 20
-9.771599258481472
 30
0.0
 11
18.59973089678115
 21
-13.77159925848144
 31
0.0
  0
LINE
  5
57
330
22
100
AcDbEntity
  8
0
100
AcDbLine
 10
22.59973089678116
 20
-9.771599258481472
 30
0.0
 11
23.67152766650562
 21
-13.77159925848147
 31
0.0
  0
ARC
  5
58
330
22
100
AcDbEntity
  8
0
100
AcDbCircle
 10
22.59973089678116
 20
-7.271599258481472
 30
0.0
 40
2.5
100
AcDbArc
 50
270.0
 51
270.0000000000007
  0
LINE
  5
59
330
22
100
AcDbEntity
  8
0
100
AcDbLine
 10
28.77130377203494
 20
-12.77159925848147
 30
0.0
 11
24.43885465448463
 21
-12.77159925848144
 31
0.0
  0
LINE
  5
5A
330
22
100
AcDbEntity
  8
0
100
AcDbLine
 10
3.599730896781125
 20
-4.771599258481472
 30
0.0
 11
2.599730896781125
 21
-4.771599258481472
 31
0.0
  0
LINE
  5
5B
330
22
100
AcDbEntity
  8
0
100
AcDbLine
 10
22.59973089678116
 20
-8.771599258481472
 30
0.0
 11
18.59973089678115
 21
-8.771599258481472
 31
0.0
  0
LINE
  5
5C
330
22
100
AcDbEntity
  8
0
100
AcDbLine
 10
22.59973089678116
 20
-5.771599258481472
 30
0.0
 11
18.59973089678115
 21
-5.771599258481472
 31
0.0
  0
LINE
  5
5D
330
22
100
AcDbEntity
  8
0
100
AcDbLine
 10
22.59973089678116
 20
-4.771599258481472
 30
0.0
 11
17.59973089678115
 21
-4.771599258481472
 31
0.0
  0
LINE
  5
5E
330
22
100
AcDbEntity
  8
0
100
AcDbLine
 10
18.59973089678115
 20
-5.771599258481472
 30
0.0
 11
18.59973089678115
 21
-8.771599258481472
 31
0.0
  0
ARC
  5
5F
330
22
100
AcDbEntity
  8
0
100
AcDbCircle
 10
22.59973089678116
 20
-7.271599258481472
 30
0.0
 40
1.5
100
AcDbArc
 50
270.0
 51
90.0
  0
ENDBLK
  5
60
330
22
100
AcDbEntity
  8
0
100
AcDbBlockEnd
  0
BLOCK
  5
1E6
330
1DC
100
AcDbEntity
  8
0
100
AcDbBlockBegin
  2
*D1
 70
     1
 10
0.0
 20
0.0
 30
0.0
  3
*D1
  1

  0
LINE
  5
627
330
1DC
100
AcDbEntity
  8
BEM
 62
     0
370
    -2
100
AcDbLine
 10
85.43744331762958
 20
92.32446990576599
 30
0.0
 11
74.29449022370154
 21
92.32446990576599
 31
0.0
  0
LINE
  5
628
330
1DC
100
AcDbEntity
  8
BEM
 62
     0
370
    -2
100
AcDbLine
 10
82.48275723137638
 20
278.9711163579309
 30
0.0
 11
74.29449022370159
 21
278.9711163579309
 31
0.0
  0
LINE
  5
629
330
1DC
100
AcDbEntity
  8
BEM
 62
     0
370
    -2
100
AcDbLine
 10
75.29449022370155
 20
95.82446990576599
 30
0.0
 11
75.29449022370158
 21
275.4711163579309
 31
0.0
  0
SOLID
  5
62A
330
1DC
100
AcDbEntity
  8
BEM
 62
     0
100
AcDbTrace
 10
74.71115689036821
 20
95.82446990576599
 30
0.0
 11
75.87782355703487
 21
95.82446990576599
 31
0.0
 12
75.29449022370155
 22
92.32446990576599
 32
0.0
 13
75.29449022370155
 23
92.32446990576599
 33
0.0
  0
SOLID
  5
62B
330
1DC
100
AcDbEntity
  8
BEM
 62
     0
100
AcDbTrace
 10
74.71115689036825
 20
275.4711163579309
 30
0.0
 11
75.87782355703492
 21
275.4711163579309
 31
0.0
 12
75.29449022370158
 22
278.9711163579309
 32
0.0
 13
75.29449022370158
 23
278.9711163579309
 33
0.0
  0
MTEXT
  5
62C
330
1DC
100
AcDbEntity
  8
BEM
 62
     1
100
AcDbMText
 10
72.04449022370154
 20
185.6477931318485
 30
0.0
 40
3.5
 41
0.0
 71
     5
 72
     1
  1
\A1;2038
 11
0.0000000000000001
 21
1.0
 31
0.0
 73
     1
 44
1.0
  0
POINT
  5
62D
330
1DC
100
AcDbEntity
  8
DEFPOINTS
 62
     0
100
AcDbPoint
 10
86.43744331762958
 20
92.32446990576599
 30
0.0
  0
POINT
  5
62E
330
1DC
100
AcDbEntity
  8
DEFPOINTS
 62
     0
100
AcDbPoint
 10
83.48275723137637
 20
278.9711163579309
 30
0.0
  0
POINT
  5
62F
330
1DC
100
AcDbEntity
  8
DEFPOINTS
 62
     0
100
AcDbPoint
 10
75.29449022370158
 20
278.9711163579309
 30
0.0
  0
ENDBLK
  5
1E7
330
1DC
100
AcDbEntity
  8
0
100
AcDbBlockEnd
  0
BLOCK
  5
1F3
330
1E9
100
AcDbEntity
  8
0
100
AcDbBlockBegin
  2
*D2
 70
     1
 10
0.0
 20
0.0
 30
0.0
  3
*D2
  1

  0
LINE
  5
5CF
330
1E9
100
AcDbEntity
  8
BEM
 62
     0
370
    -2
100
AcDbLine
 10
85.99999999999997
 20
96.324469905766
 30
0.0
 11
85.99999999999997
 21
78.26249841443178
 31
0.0
  0
LINE
  5
5D0
330
1E9
100
AcDbEntity
  8
BEM
 62
     0
370
    -2
100
AcDbLine
 10
139.0000000000009
 20
96.324469905766
 30
0.0
 11
139.0000000000009
 21
78.26249841443178
 31
0.0
  0
LINE
  5
5D1
330
1E9
100
AcDbEntity
  8
BEM
 62
     0
370
    -2
100
AcDbLine
 10
89.49999999999997
 20
79.26249841443177
 30
0.0
 11
135.5000000000009
 21
79.26249841443177
 31
0.0
  0
SOLID
  5
5D2
330
1E9
100
AcDbEntity
  8
BEM
 62
     0
100
AcDbTrace
 10
89.49999999999997
 20
79.8458317477651
 30
0.0
 11
89.49999999999997
 21
78.67916508109844
 31
0.0
 12
85.99999999999997
 22
79.26249841443177
 32
0.0
 13
85.99999999999997
 23
79.26249841443177
 33
0.0
  0
SOLID
  5
5D3
330
1E9
100
AcDbEntity
  8
BEM
 62
     0
100
AcDbTrace
 10
135.5000000000009
 20
79.8458317477651
 30
0.0
 11
135.5000000000009
 21
78.67916508109844
 31
0.0
 12
139.0000000000009
 22
79.26249841443177
 32
0.0
 13
139.0000000000009
 23
79.26249841443177
 33
0.0
  0
MTEXT
  5
5D4
330
1E9
100
AcDbEntity
  8
BEM
 62
     1
100
AcDbMText
 10
112.5000000000004
 20
82.51249841443177
 30
0.0
 40
3.5
 41
0.0
 71
     5
 72
     1
  1
\A1;%%c53
 73
     1
 44
1.0
  0
POINT
  5
5D5
330
1E9
100
AcDbEntity
  8
DEFPOINTS
 62
     0
100
AcDbPoint
 10
85.99999999999997
 20
97.32446990576599
 30
0.0
  0
POINT
  5
5D6
330
1E9
100
AcDbEntity
  8
DEFPOINTS
 62
     0
100
AcDbPoint
 10
139.0000000000009
 20
97.32446990576599
 30
0.0
  0
POINT
  5
5D7
330
1E9
100
AcDbEntity
  8
DEFPOINTS
 62
     0
100
AcDbPoint
 10
139.0000000000009
 20
79.26249841443177
 30
0.0
  0
ENDBLK
  5
1F4
330
1E9
100
AcDbEntity
  8
0
100
AcDbBlockEnd
  0
ENDSEC
  0
SECTION
  2
ENTITIES
  0
LINE
  5
12A
330
1E
100
AcDbEntity
  8
STEMPEL
100
AcDbLine
 10
141.5172427686236
 20
278.9711163579308
 30
0.0
 11
83.48275723137637
 21
278.9711163579309
 31
0.0
  0
TEXT
  5
134
330
1E
100
AcDbEntity
  8
TEXT
100
AcDbText
 10
102.2108024290628
 20
31.54481959861755
 30
0.0
 40
2.0
  1
Koeh
 41
0.8
  7
GREEKS
 72
     1
 11
104.8393738576343
 21
31.54481959861755
 31
0.0
100
AcDbText
  0
INSERT
  5
135
330
1E
100
AcDbEntity
  8
STEMPEL
100
AcDbBlockReference
  2
LOGO
 10
75.4977742728897
 20
22.51052638224161
 30
0.0
  0
LINE
  5
136
330
1E
100
AcDbEntity
  8
HILF
100
AcDbLine
 10
210.0
 20
0.0
 30
0.0
 11
0.0
 21
0.0
 31
0.0
  0
LINE
  5
137
330
1E
100
AcDbEntity
  8
HILF
100
AcDbLine
 10
210.0
 20
297.0000000000001
 30
0.0
 11
0.0
 21
297.0
 31
0.0
  0
LINE
  5
138
330
1E
100
AcDbEntity
  8
STEMPEL
100
AcDbLine
 10
205.0
 20
292.0
 30
0.0
 11
19.99999999999994
 21
292.0
 31
0.0
  0
LINE
  5
139
330
1E
100
AcDbEntity
  8
STEMPEL
100
AcDbLine
 10
205.0
 20
5.0
 30
0.0
 11
19.99999999999994
 21
5.0
 31
0.0
  0
LINE
  5
13A
330
1E
100
AcDbEntity
  8
STEMPEL
100
AcDbLine
 10
24.99999999999995
 20
5.0
 30
0.0
 11
205.0
 21
5.0
 31
0.0
  0
TEXT
  5
13B
330
1E
100
AcDbEntity
  8
TEXT
100
AcDbText
 10
101.2313292113147
 20
36.65480545957612
 30
0.0
 40
2.0
  1
Name
 41
0.8
  7
GREEKS
100
AcDbText
  0
TEXT
  5
13C
330
1E
100
AcDbEntity
  8
TEXT
100
AcDbText
 10
98.27491395507747
 20
51.32531138882947
 30
0.0
 40
2.5
  1
Zul. Abw.
 41
0.8
  7
GREEKS
 72
     4
 11
104.9891996693631
 21
52.57531138882947
 31
0.0
100
AcDbText
  0
LINE
  5
13D
330
1E
100
AcDbEntity
  8
HILF
100
AcDbLine
 10
73.00000000000006
 20
24.99999999999999
 30
0.0
 11
115.0
 21
24.99999999999999
 31
0.0
  0
LINE
  5
13E
330
1E
100
AcDbEntity
  8
HILF
100
AcDbLine
 10
73.00000000000006
 20
29.99999999999999
 30
0.0
 11
115.0
 21
29.99999999999999
 31
0.0
  0
LINE
  5
13F
330
1E
100
AcDbEntity
  8
HILF
100
AcDbLine
 10
73.00000000000006
 20
34.99999999999997
 30
0.0
 11
115.0
 21
34.99999999999997
 31
0.0
  0
LINE
  5
140
330
1E
100
AcDbEntity
  8
STEMPEL
100
AcDbLine
 10
205.0
 20
40.0
 30
0.0
 11
73.00000000000006
 21
39.99999999999997
 31
0.0
  0
LINE
  5
141
330
1E
100
AcDbEntity
  8
STEMPEL
100
AcDbLine
 10
205.0
 20
20.0
 30
0.0
 11
73.00000000000006
 21
19.99999999999998
 31
0.0
  0
LINE
  5
142
330
1E
100
AcDbEntity
  8
STEMPEL
100
AcDbLine
 10
205.0
 20
55.00000000000003
 30
0.0
 11
19.99999999999998
 21
55.0
 31
0.0
  0
LINE
  5
143
330
1E
100
AcDbEntity
  8
MITTEL
100
AcDbLine
 10
112.5
 20
283.9711163579309
 30
0.0
 11
112.5
 21
87.3244699057659
 31
0.0
  0
LINE
  5
144
330
1E
100
AcDbEntity
  8
HILF
100
AcDbLine
 10
0.0
 20
0.0
 30
0.0
 11
-0.0000000000000568
 21
297.0
 31
0.0
  0
LINE
  5
145
330
1E
100
AcDbEntity
  8
STEMPEL
100
AcDbLine
 10
20.0
 20
5.0
 30
0.0
 11
19.99999999999994
 21
292.0
 31
0.0
  0
TEXT
  5
146
330
1E
100
AcDbEntity
  8
TEXT
100
AcDbText
 10
20.92754975488837
 20
55.83599999999997
 30
0.0
 40
2.5
  1
Erstellt mit AUTOCAD 2004
 41
0.8
  7
GREEKS
100
AcDbText
  0
LINE
  5
148
330
1E
100
AcDbEntity
  8
HILF
100
AcDbLine
 10
20.00000000000004
 20
19.99999999999998
 30
0.0
 11
73.00000000000006
 21
19.99999999999998
 31
0.0
  0
LINE
  5
149
330
1E
100
AcDbEntity
  8
HILF
100
AcDbLine
 10
20.00000000000004
 20
24.99999999999999
 30
0.0
 11
73.00000000000006
 21
24.99999999999999
 31
0.0
  0
LINE
  5
14A
330
1E
100
AcDbEntity
  8
HILF
100
AcDbLine
 10
20.00000000000004
 20
29.99999999999999
 30
0.0
 11
73.00000000000006
 21
29.99999999999999
 31
0.0
  0
LINE
  5
14B
330
1E
100
AcDbEntity
  8
HILF
100
AcDbLine
 10
20.00000000000004
 20
34.99999999999997
 30
0.0
 11
73.00000000000006
 21
34.99999999999997
 31
0.0
  0
LINE
  5
14C
330
1E
100
AcDbEntity
  8
HILF
100
AcDbLine
 10
20.00000000000004
 20
39.99999999999997
 30
0.0
 11
73.00000000000006
 21
39.99999999999997
 31
0.0
  0
LINE
  5
14D
330
1E
100
AcDbEntity
  8
HILF
100
AcDbLine
 10
20.00000000000004
 20
45.00000000000002
 30
0.0
 11
73.00000000000006
 21
45.00000000000002
 31
0.0
  0
LINE
  5
14E
330
1E
100
AcDbEntity
  8
HILF
100
AcDbLine
 10
20.00000000000004
 20
50.00000000000003
 30
0.0
 11
73.00000000000006
 21
50.00000000000003
 31
0.0
  0
LINE
  5
14F
330
1E
100
AcDbEntity
  8
STEMPEL
100
AcDbLine
 10
72.99999999999994
 20
14.99999999999998
 30
0.0
 11
19.99999999999998
 21
14.99999999999998
 31
0.0
  0
TEXT
  5
150
330
1E
100
AcDbEntity
  8
TEXT
100
AcDbText
 10
24.13320553522878
 20
6.827329230135958
 30
0.0
 40
2.0
  1
Index
 50
90.0
 41
0.8
  7
GREEKS
100
AcDbText
  0
LINE
  5
151
330
1E
100
AcDbEntity
  8
VOLL
100
AcDbLine
 10
27.00000000000005
 20
55.00000000000003
 30
0.0
 11
26.99999999999999
 21
4.999999999999985
 31
0.0
  0
LINE
  5
152
330
1E
100
AcDbEntity
  8
HILF
100
AcDbLine
 10
15.54383567856928
 20
148.5
 30
0.0
 11
0.0000000000000568
 21
148.5
 31
0.0
  0
LINE
  5
154
330
1E
100
AcDbEntity
  8
VOLL
100
AcDbLine
 10
62.00000000000006
 20
54.99999999999997
 30
0.0
 11
62.0
 21
4.999999999999985
 31
0.0
  0
LINE
  5
155
330
1E
100
AcDbEntity
  8
VOLL
100
AcDbLine
 10
52.00000000000006
 20
54.99999999999997
 30
0.0
 11
52.0
 21
4.999999999999985
 31
0.0
  0
LINE
  5
157
330
1E
100
AcDbEntity
  8
STEMPEL
100
AcDbLine
 10
73.00000000000006
 20
54.99999999999997
 30
0.0
 11
73.0
 21
4.999999999999985
 31
0.0
  0
TEXT
  5
159
330
1E
100
AcDbEntity
  8
TEXT
100
AcDbText
 10
86.16558365768254
 20
36.65940250614963
 30
0.0
 40
2.0
  1
Tag
 41
0.8
  7
GREEKS
100
AcDbText
  0
TEXT
  5
15A
330
1E
100
AcDbEntity
  8
TEXT
100
AcDbText
 10
73.79180635838077
 20
31.81495184808982
 30
0.0
 40
2.0
  1
Gez.
 41
0.8
  7
GREEKS
100
AcDbText
  0
LINE
  5
15B
330
1E
100
AcDbEntity
  8
VOLL
100
AcDbLine
 10
82.00000000000006
 20
39.99999999999997
 30
0.0
 11
82.00000000000006
 21
19.99999999999998
 31
0.0
  0
TEXT
  5
15C
330
1E
100
AcDbEntity
  8
TEXT
100
AcDbText
 10
73.80033886936519
 20
21.76473194824904
 30
0.0
 40
2.0
  1
Norm.
 41
0.8
  7
GREEKS
100
AcDbText
  0
TEXT
  5
15D
330
1E
100
AcDbEntity
  8
TEXT
100
AcDbText
 10
73.77575432858361
 20
26.84463145714189
 30
0.0
 40
2.0
  1
Gepr.
 41
0.8
  7
GREEKS
100
AcDbText
  0
TEXT
  5
15E
330
1E
100
AcDbEntity
  8
TEXT
 62
     1
100
AcDbText
 10
80.25031532409434
 20
44.07450714456979
 30
0.0
 40
3.5
  1
1:1
 41
0.8
  7
GREEKS
100
AcDbText
  0
TEXT
  5
15F
330
1E
100
AcDbEntity
  8
TEXT
100
AcDbText
 10
76.75817860751886
 20
51.23104475435443
 30
0.0
 40
2.5
  1
Maßstab
 41
0.8
  7
GREEKS
100
AcDbText
  0
TEXT
  5
160
330
1E
100
AcDbEntity
  8
TEXT
100
AcDbText
 10
74.31105491105199
 20
36.57012735575833
 30
0.0
 40
2.0
  1
2011
 41
0.8
  7
GREEKS
100
AcDbText
  0
LINE
  5
161
330
1E
100
AcDbEntity
  8
VOLL
100
AcDbLine
 10
95.00000000000005
 20
54.99999999999992
 30
0.0
 11
95.0
 21
19.99999999999998
 31
0.0
  0
LINE
  5
186
330
1E
100
AcDbEntity
  8
HILF
100
AcDbLine
 10
210.0
 20
-0.0000000000000568
 30
0.0
 11
210.0
 21
297.0
 31
0.0
  0
LINE
  5
187
330
1E
100
AcDbEntity
  8
STEMPEL
100
AcDbLine
 10
205.0
 20
5.0
 30
0.0
 11
205.0
 21
292.0
 31
0.0
  0
TEXT
  5
188
330
1E
100
AcDbEntity
  8
TEXT
100
AcDbText
 10
168.6200430748503
 20
26.03708088939301
 30
0.0
 40
2.5
  1
ersetzt durch:
 41
0.8
  7
GREEKS
100
AcDbText
  0
TEXT
  5
189
330
1E
100
AcDbEntity
  8
TEXT
100
AcDbText
 10
168.3619308148496
 20
36.59059118549985
 30
0.0
 40
2.5
  1
Ersatz für:
 41
0.8
  7
GREEKS
100
AcDbText
  0
TEXT
  5
18A
330
1E
100
AcDbEntity
  8
TEXT
100
AcDbText
 10
168.089377478817
 20
51.15660172685682
 30
0.0
 40
2.5
  1
Zeichnungs Nr.
 41
0.8
  7
GREEKS
100
AcDbText
  0
LINE
  5
18B
330
1E
100
AcDbEntity
  8
HILF
100
AcDbLine
 10
116.7454849644942
 20
7.446991290141568
 30
0.0
 11
202.4294419663364
 21
7.446991290141568
 31
0.0
  0
LINE
  5
18C
330
1E
100
AcDbEntity
  8
HILF
100
AcDbLine
 10
168.3619308148496
 20
41.88991818477913
 30
0.0
 11
202.4294419663364
 21
41.88991818477913
 31
0.0
  0
LINE
  5
18D
330
1E
100
AcDbEntity
  8
VOLL
100
AcDbLine
 10
166.0
 20
30.0
 30
0.0
 11
205.0
 21
30.0
 31
0.0
  0
TEXT
  5
18E
330
1E
100
AcDbEntity
  8
TEXT
 62
     1
100
AcDbText
 10
117.4641932160007
 20
43.70874394626889
 30
0.0
 40
3.5
  1
Rohr DN50
 41
0.8
  7
GREEKS
100
AcDbText
  0
LINE
  5
18F
330
1E
100
AcDbEntity
  8
HILF
100
AcDbLine
 10
117.3868400548473
 20
24.99999999999999
 30
0.0
 11
162.4176958278155
 21
24.99999999999999
 31
0.0
  0
LINE
  5
190
330
1E
100
AcDbEntity
  8
HILF
100
AcDbLine
 10
117.3868400548473
 20
29.99999999999999
 30
0.0
 11
162.4176958278155
 21
29.99999999999999
 31
0.0
  0
LINE
  5
191
330
1E
100
AcDbEntity
  8
HILF
100
AcDbLine
 10
117.3868400548473
 20
34.99999999999997
 30
0.0
 11
162.4176958278155
 21
34.99999999999997
 31
0.0
  0
LINE
  5
192
330
1E
100
AcDbEntity
  8
HILF
100
AcDbLine
 10
117.3868400548473
 20
42.01879123782069
 30
0.0
 11
162.4176958278155
 21
42.01879123782069
 31
0.0
  0
LINE
  5
193
330
1E
100
AcDbEntity
  8
STEMPEL
100
AcDbLine
 10
115.0
 20
55.00000000000003
 30
0.0
 11
115.0
 21
4.999999999999985
 31
0.0
  0
TEXT
  5
194
330
1E
100
AcDbEntity
  8
TEXT
100
AcDbText
 10
117.5648195562657
 20
35.75167208792644
 30
0.0
 40
2.5
  1
2000mm lang
 41
0.8
  7
GREEKS
100
AcDbText
  0
TEXT
  5
195
330
1E
100
AcDbEntity
  8
TEXT
100
AcDbText
 10
117.4918750788913
 20
21.31487076511316
 30
0.0
 40
2.0
  1
41101050W.DWG
 41
0.8
  7
GREEKS
100
AcDbText
  0
TEXT
  5
196
330
1E
100
AcDbEntity
  8
TEXT
100
AcDbText
 10
117.371119195568
 20
15.42280285096528
 30
0.0
 40
2.5
  1
Bauvorhaben
 41
0.8
  7
GREEKS
100
AcDbText
  0
TEXT
  5
197
330
1E
100
AcDbEntity
  8
TEXT
100
AcDbText
 10
117.4389701904505
 20
51.27446640058898
 30
0.0
 40
2.5
  1
Benennung
 41
0.8
  7
GREEKS
100
AcDbText
  0
LINE
  5
198
330
1E
100
AcDbEntity
  8
STEMPEL
100
AcDbLine
 10
166.0
 20
54.99999999999989
 30
0.0
 11
166.0
 21
20.0
 31
0.0
  0
TEXT
  5
19A
330
1E
100
AcDbEntity
  8
TEXT
 62
     1
100
AcDbText
 10
174.4452526516828
 20
44.07450714456979
 30
0.0
 40
3.5
  1
41101050W
 41
0.8
  7
GREEKS
 72
     1
 11
185.6452526516828
 21
44.07450714456979
 31
0.0
100
AcDbText
  0
LINE
  5
1D4
330
1E
100
AcDbEntity
  8
STEMPEL
100
AcDbLine
 10
138.562556682371
 20
92.32446990576599
 30
0.0
 11
86.43744331762958
 21
92.32446990576599
 31
0.0
  0
LINE
  5
1D6
330
1E
100
AcDbEntity
  8
HILF
100
AcDbLine
 10
138.0000000000006
 20
97.32446990576599
 30
0.0
 11
86.99999999999995
 21
97.32446990576599
 31
0.0
  0
LINE
  5
1D7
330
1E
100
AcDbEntity
  8
STEMPEL
100
AcDbLine
 10
85.99999999999997
 20
97.32446990576599
 30
0.0
 11
86.43744331762958
 21
92.32446990576599
 31
0.0
  0
LINE
  5
1D8
330
1E
100
AcDbEntity
  8
STEMPEL
100
AcDbLine
 10
139.0000000000006
 20
97.32446990576626
 30
0.0
 11
138.562556682371
 21
92.32446990576599
 31
0.0
  0
DIMENSION
  5
1DB
330
1E
100
AcDbEntity
  8
BEM
100
AcDbDimension
  2
*D1
 10
75.29449022370158
 20
278.9711163579309
 30
0.0
 11
72.04449022370154
 21
185.6477931318485
 31
0.0
 70
    32
  1
2038
 71
     5
 42
186.6466464521648
  3
Standard
100
AcDbAlignedDimension
 13
86.43744331762958
 23
92.32446990576599
 33
0.0
 14
83.48275723137637
 24
278.9711163579309
 34
0.0
 50
90.0
100
AcDbRotatedDimension
1001
ACAD
1000
DSTYLE
1002
{
1070
    41
1040
3.5
1070
    42
1040
1.0
1070
    43
1040
7.0
1070
    44
1040
1.0
1070
    73
1070
     0
1070
    74
1070
     0
1070
    77
1070
     1
1070
    78
1070
     8
1070
    79
1070
     2
1070
   140
1040
3.5
1070
   141
1040
1.5
1070
   146
1040
0.5142857142857144
1070
   147
1040
1.5
1070
   172
1070
     1
1070
   178
1070
     1
1070
   179
1070
     3
1070
   271
1070
     2
1070
   272
1070
     2
1070
   275
1070
     1
1070
   284
1070
     8
1070
   285
1070
     8
1070
   286
1070
     8
1002
}
  0
DIMENSION
  5
1E8
330
1E
100
AcDbEntity
  8
BEM
100
AcDbDimension
  2
*D2
 10
139.0000000000009
 20
79.26249841443177
 30
0.0
 11
112.5000000000004
 21
82.51249841443177
 31
0.0
 70
    32
  1
%%c<>
 71
     5
 42
53.00000000000091
  3
Standard
100
AcDbAlignedDimension
 13
85.99999999999997
 23
97.32446990576599
 33
0.0
 14
139.0000000000009
 24
97.32446990576599
 34
0.0
100
AcDbRotatedDimension
1001
ACAD
1000
DSTYLE
1002
{
1070
    41
1040
3.5
1070
    42
1040
1.0
1070
    43
1040
7.0
1070
    44
1040
1.0
1070
    73
1070
     0
1070
    74
1070
     0
1070
    77
1070
     1
1070
    78
1070
     8
1070
    79
1070
     2
1070
   140
1040
3.5
1070
   141
1040
1.5
1070
   146
1040
0.5142857142857144
1070
   147
1040
1.5
1070
   172
1070
     1
1070
   178
1070
     1
1070
   179
1070
     3
1070
   271
1070
     2
1070
   272
1070
     2
1070
   275
1070
     1
1070
   284
1070
     8
1070
   285
1070
     8
1070
   286
1070
     8
1002
}
  0
TEXT
  5
212
330
1E
100
AcDbEntity
  8
TEXT
100
AcDbText
 10
117.5648195562657
 20
25.75167208792646
 30
0.0
 40
2.5
  1
EDV-Art.Nr. 4.1101050C
 41
0.8
  7
GREEKS
100
AcDbText
  0
TEXT
  5
255
330
1E
100
AcDbEntity
  8
TEXT
 62
     1
100
AcDbText
 10
148.9987436921494
 20
65.61381838269608
 30
0.0
 40
3.5
  1
Werkstoff: 1.4301
 41
0.8
  7
GREEKS
100
AcDbText
  0
TEXT
  5
25D
330
1E
100
AcDbEntity
  8
TEXT
 62
     1
100
AcDbText
 10
96.09940536379804
 20
266.2430682868809
 30
0.0
 40
3.5
  1
DN50
 41
0.8
  7
GREEKS
100
AcDbText
  0
LINE
  5
3E7
330
1E
100
AcDbEntity
  8
HILF
100
AcDbLine
 10
84.43452122796847
 20
256.4149858321323
 30
0.0
 11
140.5654787720315
 21
256.4149858321323
 31
0.0
  0
LINE
  5
3E8
330
1E
100
AcDbEntity
  8
HILF
100
AcDbLine
 10
84.92820642092139
 20
243.6155809170279
 30
0.0
 11
140.0717935790786
 21
243.6155809170278
 31
0.0
  0
LINE
  5
3E9
330
1E
100
AcDbEntity
  8
HILF
100
AcDbLine
 10
86.71868021063875
 20
239.0806359549189
 30
0.0
 11
138.2813197893613
 21
239.0806359549189
 31
0.0
  0
ARC
  5
41E
330
1E
100
AcDbEntity
  8
STEMPEL
100
AcDbCircle
 10
95.09999999999999
 20
246.2203103434011
 30
0.0
 40
11.5
100
AcDbArc
 50
180.0
 51
208.7266053481407
  0
ARC
  5
421
330
1E
100
AcDbEntity
  8
STEMPEL
100
AcDbCircle
 10
73.09999999999999
 20
254.4711163579308
 30
0.0
 40
10.5
100
AcDbArc
 50
0.0
 51
19.46309944468912
  0
LINE
  5
427
330
1E
100
AcDbEntity
  8
STEMPEL
100
AcDbLine
 10
81.6
 20
270.7249051066954
 30
0.0
 11
81.6
 21
266.0934830347102
 31
0.0
  0
LINE
  5
429
330
1E
100
AcDbEntity
  8
STEMPEL
100
AcDbLine
 10
83.59999999999999
 20
254.4711163579308
 30
0.0
 11
83.59999999999999
 21
246.2203103434011
 31
0.0
  0
ARC
  5
42A
330
1E
100
AcDbEntity
  8
STEMPEL
100
AcDbCircle
 10
106.1
 20
266.1331163579309
 30
0.0
 40
24.5000320571282
100
AcDbArc
 50
179.9053619552033
 51
199.4630994446891
  0
ARC
  5
42B
330
1E
100
AcDbEntity
  8
STEMPEL
100
AcDbCircle
 10
100.6
 20
270.7249051066954
 30
0.0
 40
19.0
100
AcDbArc
 50
154.277613507817
 51
180.0
  0
LINE
  5
42F
330
1E
100
AcDbEntity
  8
STEMPEL
100
AcDbLine
 10
85.99999999999997
 20
236.8480107323131
 30
0.0
 11
85.99999999999997
 21
223.7079640436122
 31
0.0
  0
LINE
  5
430
330
1E
100
AcDbEntity
  8
STEMPEL
100
AcDbLine
 10
85.99999999999997
 20
235.8437895182742
 30
0.0
 11
85.99999999999997
 21
183.1142703372099
 31
0.0
  0
ARC
  5
432
330
1E
100
AcDbEntity
  8
STEMPEL
100
AcDbCircle
 10
77.99999999999997
 20
236.8480107323132
 30
0.0
 40
8.0
100
AcDbArc
 50
359.9999999999996
 51
28.7266053481407
  0
LINE
  5
45C
330
1E
100
AcDbEntity
  8
STEMPEL
100
AcDbLine
 10
143.3999999999999
 20
270.7249051066956
 30
0.0
 11
143.3999999999999
 21
266.0934830347102
 31
0.0
  0
ARC
  5
467
330
1E
100
AcDbEntity
  8
STEMPEL
100
AcDbCircle
 10
129.9
 20
246.2203103434012
 30
0.0
 40
11.5
100
AcDbArc
 50
331.2733946518593
 51
0.0
  0
LINE
  5
468
330
1E
100
AcDbEntity
  8
STEMPEL
100
AcDbLine
 10
139.0000000000001
 20
235.8437895182742
 30
0.0
 11
139.0000000000001
 21
223.7079640436123
 31
0.0
  0
LINE
  5
46A
330
1E
100
AcDbEntity
  8
STEMPEL
100
AcDbLine
 10
139.0
 20
236.8480107323132
 30
0.0
 11
139.0000000000002
 21
181.7963231121563
 31
0.0
  0
ARC
  5
46C
330
1E
100
AcDbEntity
  8
STEMPEL
100
AcDbCircle
 10
147.0000000000001
 20
236.8480107323132
 30
0.0
 40
8.0
100
AcDbArc
 50
151.2733946518593
 51
180.0000000000004
  0
ARC
  5
473
330
1E
100
AcDbEntity
  8
STEMPEL
100
AcDbCircle
 10
151.9
 20
254.4711163579309
 30
0.0
 40
10.5
100
AcDbArc
 50
160.5369005553108
 51
180.0
  0
LINE
  5
474
330
1E
100
AcDbEntity
  8
STEMPEL
100
AcDbLine
 10
141.4
 20
254.4711163579309
 30
0.0
 11
141.4
 21
246.2203103434012
 31
0.0
  0
ARC
  5
475
330
1E
100
AcDbEntity
  8
STEMPEL
100
AcDbCircle
 10
118.8999999999999
 20
266.1331163579309
 30
0.0
 40
24.5000320571282
100
AcDbArc
 50
340.5369005553109
 51
0.0946380447966296
  0
ARC
  5
479
330
1E
100
AcDbEntity
  8
STEMPEL
100
AcDbCircle
 10
124.3999999999999
 20
270.7249051066956
 30
0.0
 40
19.0
100
AcDbArc
 50
0.0
 51
25.72238649218916
  0
SPLINE
  5
5B9
330
1E
100
AcDbEntity
  8
HILF
100
AcDbSpline
210
0.0
220
0.0
230
1.0
 70
     8
 71
     3
 72
    11
 73
     7
 74
     0
 42
0.0000000001
 43
0.0000000001
 40
3.826628665165827
 40
3.826628665165827
 40
3.826628665165827
 40
3.826628665165827
 40
17.45925325832677
 40
31.49589273711052
 40
45.9238909252249
 40
58.80548915112431
 40
58.80548915112431
 40
58.80548915112431
 40
58.80548915112431
 10
85.99999999999997
 20
183.1142703372099
 30
0.0
 10
90.45061147964148
 20
184.4446224925674
 30
0.0
 10
99.484410063751
 20
186.638867154606
 30
0.0
 10
113.2383872066326
 20
182.8498061291351
 30
0.0
 10
126.4434892621997
 20
176.4672263597338
 30
0.0
 10
134.9839885339248
 20
179.7398532696943
 30
0.0
 10
138.9999999999913
 20
181.7963231122102
 30
0.0
  0
SPLINE
  5
5BA
330
1E
100
AcDbEntity
  8
HILF
100
AcDbSpline
210
0.0
220
0.0
230
1.0
 70
     8
 71
     3
 72
    11
 73
     7
 74
     0
 42
0.0000000001
 43
0.0000000001
 40
3.826628665165827
 40
3.826628665165827
 40
3.826628665165827
 40
3.826628665165827
 40
17.45925325832677
 40
31.49589273711052
 40
45.9238909252249
 40
58.80548915112433
 40
58.80548915112433
 40
58.80548915112433
 40
58.80548915112433
 10
85.99999999999997
 20
177.9310684322415
 30
0.0
 10
90.45061147964148
 20
179.261420587599
 30
0.0
 10
99.484410063751
 20
181.4556652496375
 30
0.0
 10
113.2383872066326
 20
177.6666042241667
 30
0.0
 10
126.4434892621997
 20
171.2840244547653
 30
0.0
 10
134.9839885339248
 20
174.5566513647258
 30
0.0
 10
138.9999999999913
 20
176.6131212072417
 30
0.0
  0
LINE
  5
5BB
330
1E
100
AcDbEntity
  8
STEMPEL
100
AcDbLine
 10
85.99999999999997
 20
177.9310684322415
 30
0.0
 11
85.99999999999996
 21
97.32446990576599
 31
0.0
  0
LINE
  5
5BC
330
1E
100
AcDbEntity
  8
STEMPEL
100
AcDbLine
 10
139.0000000000003
 20
176.6131212071879
 30
0.0
 11
139.0000000000006
 21
97.32446990576599
 31
0.0
  0
TEXT
  5
639
330
1E
100
AcDbEntity
  8
BEM
100
AcDbText
 10
208.2905770718718
 20
6.074024076691515
 30
0.0
 40
2.0
  1
Diese Zeichnung ist urheberrechtlich geschützt und bleibt unser Eigentum. Sie darf weder ganz noch teilweise vervielfältigt und nicht an Dritte weitergegeben werden.
 50
90.0
 41
0.8
  7
GREEKS
100
AcDbText
  0
TEXT
  5
63A
330
1E
100
AcDbEntity
  8
TEXT
100
AcDbText
 10
96.34413576239619
 20
44.50323185339641
 30
0.0
 40
2.0
  1
DIN EN1124-3
 41
0.8
  7
GREEKS
 72
     1
 11
104.8393738576343
 21
44.50323185339641
 31
0.0
100
AcDbText
  0
TEXT
  5
63B
330
1E
100
AcDbEntity
  8
TEXT
100
AcDbText
 10
64.61958341495059
 20
9.29662108483204
 30
0.0
 40
2.0
  1
Name
 41
0.8
  7
GREEKS
 72
     1
 11
67.78148817685536
 21
9.29662108483204
 31
0.0
100
AcDbText
  0
TEXT
  5
63C
330
1E
100
AcDbEntity
  8
TEXT
100
AcDbText
 10
55.17481598333814
 20
9.33578134669905
 30
0.0
 40
2.0
  1
Tag
 41
0.8
  7
GREEKS
 72
     1
 11
57.04148265000481
 21
9.33578134669905
 31
0.0
100
AcDbText
  0
TEXT
  5
63D
330
1E
100
AcDbEntity
  8
TEXT
100
AcDbText
 10
33.49933939241158
 20
9.336909474920659
 30
0.0
 40
2.0
  1
Änderung
 41
0.8
  7
GREEKS
 72
     1
 11
38.87076796384015
 21
9.336909474920659
 31
0.0
100
AcDbText
  0
TEXT
  5
646
330
1E
100
AcDbEntity
  8
TEXT
100
AcDbText
 10
117.5648195562657
 20
30.75167208792646
 30
0.0
 40
2.5
  1
dünnwandig
 41
0.8
  7
GREEKS
100
AcDbText
  0
TEXT
  5
653
330
1E
100
AcDbEntity
  8
TEXT
 62
     1
100
AcDbText
 10
185.6452526516828
 20
31.19719869874212
 30
0.0
 40
3.5
  1

 41
0.8
  7
GREEKS
 72
     1
 11
185.6452526516828
 21
31.19719869874212
 31
0.0
100
AcDbText
  0
TEXT
  5
663
330
1E
100
AcDbEntity
  8
TEXT
100
AcDbText
 10
85.35187950649897
 20
31.55382520412866
 30
0.0
 40
2.0
  1
14.04.
 41
0.8
  7
GREEKS
 72
     1
 11
88.70426045887993
 21
31.55382520412866
 31
0.0
100
AcDbText
  0
ENDSEC
  0
SECTION
  2
OBJECTS
  0
DICTIONARY
  5
C
330
0
100
AcDbDictionary
281
     1
  3
ACAD_COLOR
350
61C
  3
ACAD_GROUP
350
D
  3
ACAD_LAYOUT
350
19
  3
ACAD_MATERIAL
350
61B
  3
ACAD_MLINESTYLE
350
16
  3
ACAD_PLOTSETTINGS
350
18
  3
ACAD_PLOTSTYLENAME
350
E
  3
AcDbVariableDictionary
350
246
  0
DICTIONARY
  5
61C
102
{ACAD_REACTORS
330
C
102
}
330
C
100
AcDbDictionary
281
     1
  0
DICTIONARY
  5
D
102
{ACAD_REACTORS
330
C
102
}
330
C
100
AcDbDictionary
281
     1
  0
DICTIONARY
  5
19
102
{ACAD_REACTORS
330
C
102
}
330
C
100
AcDbDictionary
281
     1
  3
Layout1
350
1D
  3
Model
350
21
  0
DICTIONARY
  5
61B
102
{ACAD_REACTORS
330
C
102
}
330
C
100
AcDbDictionary
281
     1
  0
DICTIONARY
  5
16
102
{ACAD_REACTORS
330
C
102
}
330
C
100
AcDbDictionary
281
     1
  3
Standard
350
17
  0
DICTIONARY
  5
18
102
{ACAD_REACTORS
330
C
102
}
330
C
100
AcDbDictionary
281
     1
  0
ACDBDICTIONARYWDFLT
  5
E
102
{ACAD_REACTORS
330
C
102
}
330
C
100
AcDbDictionary
281
     1
  3
Normal
350
F
100
AcDbDictionaryWithDefault
340
F
  0
DICTIONARY
  5
246
102
{ACAD_REACTORS
330
C
102
}
330
C
100
AcDbDictionary
281
     1
  3
DIMASSOC
350
64F
  3
PROJECTNAME
350
650
  3
SORTENTS
350
247
  0
LAYOUT
  5
1D
102
{ACAD_REACTORS
330
19
102
}
330
19
100
AcDbPlotSettings
  1

  2
Tektronix Phaser 740
  4

  6

 40
0.0
 41
0.0
 42
0.0
 43
0.0
 44
0.0
 45
0.0
 46
0.0
 47
0.0
 48
0.0
 49
0.0
140
0.0
141
0.0
142
1.0
143
1.0
 70
   688
 72
     0
 73
     0
 74
     5
  7
monochrome.ctb
 75
    16
147
1.0
 76
     0
 77
     2
 78
   300
148
0.0
149
0.0
100
AcDbLayout
  1
Layout1
 70
     0
 71
     1
 10
0.0
 20
0.0
 11
12.0
 21
9.0
 12
0.0
 22
0.0
 32
0.0
 14
1.000000000000000E+20
 24
1.000000000000000E+20
 34
1.000000000000000E+20
 15
-1.000000000000000E+20
 25
-1.000000000000000E+20
 35
-1.000000000000000E+20
146
0.0
 13
0.0
 23
0.0
 33
0.0
 16
1.0
 26
0.0
 36
0.0
 17
0.0
 27
1.0
 37
0.0
 76
     0
330
1A
  0
LAYOUT
  5
21
102
{ACAD_REACTORS
330
19
102
}
330
19
100
AcDbPlotSettings
  1

  2
Tektronix Phaser 740
  4
A4
  6

 40
5.873749732971191
 41
6.085414409637451
 42
5.577407836914062
 43
5.662078857421875
 44
209.9733276367187
 45
296.9683227539062
 46
0.0
 47
0.0
 48
0.0
 49
0.0
140
0.0
141
0.0
142
1.0
143
1.0
 70
 11952
 72
     0
 73
     1
 74
     0
  7
monochrome.ctb
 75
     0
147
1.0
 76
     0
 77
     2
 78
   300
148
1150.120678237584
149
45.30495740799864
100
AcDbLayout
  1
Model
 70
     1
 71
     0
 10
0.0
 20
0.0
 11
12.0
 21
9.0
 12
0.0
 22
0.0
 32
0.0
 14
0.0
 24
0.0
 34
0.0
 15
0.0
 25
0.0
 35
0.0
146
0.0
 13
0.0
 23
0.0
 33
0.0
 16
1.0
 26
0.0
 36
0.0
 17
0.0
 27
1.0
 37
0.0
 76
     0
330
1E
  0
MLINESTYLE
  5
17
102
{ACAD_REACTORS
330
16
102
}
330
16
100
AcDbMlineStyle
  2
STANDARD
 70
     0
  3

 62
   256
 51
90.0
 52
90.0
 71
     2
 49
0.5
 62
   256
  6
BYLAYER
 49
-0.5
 62
   256
  6
BYLAYER
  0
ACDBPLACEHOLDER
  5
F
102
{ACAD_REACTORS
330
E
102
}
330
E
  0
DICTIONARYVAR
  5
64F
102
{ACAD_REACTORS
330
246
102
}
330
246
100
DictionaryVariables
280
     0
  1
1
  0
DICTIONARYVAR
  5
650
102
{ACAD_REACTORS
330
246
102
}
330
246
100
DictionaryVariables
280
     0
  1

  0
DICTIONARYVAR
  5
247
102
{ACAD_REACTORS
330
246
102
}
330
246
100
DictionaryVariables
280
     0
  1
96
  0
ENDSEC
  0
EOF
