  0
SECTION
  2
HEADER
  9
$ACADVER
  1
AC1018
  9
$ACADMAINTVER
 70
     2
  9
$DWGCODEPAGE
  3
ANSI_1252
  9
$INSBASE
 10
0.0
 20
0.0
 30
0.0
  9
$EXTMIN
 10
0.0
 20
-0.0000000000000568
 30
0.0
  9
$EXTMAX
 10
594.0
 20
840.0
 30
0.0
  9
$LIMMIN
 10
0.0
 20
0.0
  9
$LIMMAX
 10
594.0
 20
840.0
  9
$ORTHOMODE
 70
     1
  9
$REGENMODE
 70
     1
  9
$FILLMODE
 70
     1
  9
$QTEXTMODE
 70
     0
  9
$MIRRTEXT
 70
     1
  9
$LTSCALE
 40
20.0
  9
$ATTMODE
 70
     1
  9
$TEXTSIZE
 40
3.5
  9
$TRACEWID
 40
1.0
  9
$TEXTSTYLE
  7
STANDARD
  9
$CLAYER
  8
SCHRAFF
  9
$CELTYPE
  6
ByLayer
  9
$CECOLOR
 62
   256
  9
$CELTSCALE
 40
1.0
  9
$DISPSILH
 70
     0
  9
$DIMSCALE
 40
2.0
  9
$DIMASZ
 40
3.5
  9
$DIMEXO
 40
1.0
  9
$DIMDLI
 40
7.0
  9
$DIMRND
 40
0.0
  9
$DIMDLE
 40
0.0
  9
$DIMEXE
 40
1.0
  9
$DIMTP
 40
0.0
  9
$DIMTM
 40
0.0
  9
$DIMTXT
 40
3.5
  9
$DIMCEN
 40
1.5
  9
$DIMTSZ
 40
0.0
  9
$DIMTOL
 70
     0
  9
$DIMLIM
 70
     0
  9
$DIMTIH
 70
     0
  9
$DIMTOH
 70
     0
  9
$DIMSE1
 70
     0
  9
$DIMSE2
 70
     0
  9
$DIMTAD
 70
     1
  9
$DIMZIN
 70
     8
  9
$DIMBLK
  1

  9
$DIMASO
 70
     1
  9
$DIMSHO
 70
     0
  9
$DIMPOST
  1

  9
$DIMAPOST
  1

  9
$DIMALT
 70
     0
  9
$DIMALTD
 70
     2
  9
$DIMALTF
 40
25.4
  9
$DIMLFAC
 40
1.0
  9
$DIMTOFL
 70
     1
  9
$DIMTVP
 40
0.0
  9
$DIMTIX
 70
     0
  9
$DIMSOXD
 70
     0
  9
$DIMSAH
 70
     0
  9
$DIMBLK1
  1

  9
$DIMBLK2
  1

  9
$DIMSTYLE
  2
Standard
  9
$DIMCLRD
 70
     0
  9
$DIMCLRE
 70
     0
  9
$DIMCLRT
 70
     1
  9
$DIMTFAC
 40
0.5142857142857144
  9
$DIMGAP
 40
1.5
  9
$DIMJUST
 70
     0
  9
$DIMSD1
 70
     0
  9
$DIMSD2
 70
     0
  9
$DIMTOLJ
 70
     1
  9
$DIMTZIN
 70
     8
  9
$DIMALTZ
 70
     8
  9
$DIMALTTZ
 70
     8
  9
$DIMUPT
 70
     0
  9
$DIMDEC
 70
     2
  9
$DIMTDEC
 70
     2
  9
$DIMALTU
 70
     2
  9
$DIMALTTD
 70
     2
  9
$DIMTXSTY
  7
STANDARD
  9
$DIMAUNIT
 70
     0
  9
$DIMADEC
 70
     2
  9
$DIMALTRND
 40
0.0
  9
$DIMAZIN
 70
     2
  9
$DIMDSEP
 70
    46
  9
$DIMATFIT
 70
     3
  9
$DIMFRAC
 70
     0
  9
$DIMLDRBLK
  1

  9
$DIMLUNIT
 70
     2
  9
$DIMLWD
 70
    -2
  9
$DIMLWE
 70
    -2
  9
$DIMTMOVE
 70
     0
  9
$LUNITS
 70
     2
  9
$LUPREC
 70
     2
  9
$SKETCHINC
 40
1.0
  9
$FILLETRAD
 40
0.0
  9
$AUNITS
 70
     0
  9
$AUPREC
 70
     0
  9
$MENU
  1
ACAD
  9
$ELEVATION
 40
0.0
  9
$PELEVATION
 40
0.0
  9
$THICKNESS
 40
0.0
  9
$LIMCHECK
 70
     0
  9
$CHAMFERA
 40
0.0
  9
$CHAMFERB
 40
0.0
  9
$CHAMFERC
 40
0.0
  9
$CHAMFERD
 40
0.0
  9
$SKPOLY
 70
     0
  9
$TDCREATE
 40
2455397.825393172
  9
$TDUCREATE
 40
2455397.783726505
  9
$TDUPDATE
 40
2455610.572222164
  9
$TDUUPDATE
 40
2455610.530555498
  9
$TDINDWG
 40
0.1020228819
  9
$TDUSRTIMER
 40
0.1020228819
  9
$USRTIMER
 70
     1
  9
$ANGBASE
 50
0.0
  9
$ANGDIR
 70
     0
  9
$PDMODE
 70
     0
  9
$PDSIZE
 40
0.0
  9
$PLINEWID
 40
0.0
  9
$SPLFRAME
 70
     0
  9
$SPLINETYPE
 70
     6
  9
$SPLINESEGS
 70
     8
  9
$HANDSEED
  5
10E5
  9
$SURFTAB1
 70
     6
  9
$SURFTAB2
 70
     6
  9
$SURFTYPE
 70
     6
  9
$SURFU
 70
     6
  9
$SURFV
 70
     6
  9
$UCSBASE
  2

  9
$UCSNAME
  2

  9
$UCSORG
 10
0.0
 20
0.0
 30
0.0
  9
$UCSXDIR
 10
1.0
 20
0.0
 30
0.0
  9
$UCSYDIR
 10
0.0
 20
1.0
 30
0.0
  9
$UCSORTHOREF
  2

  9
$UCSORTHOVIEW
 70
     0
  9
$UCSORGTOP
 10
0.0
 20
0.0
 30
0.0
  9
$UCSORGBOTTOM
 10
0.0
 20
0.0
 30
0.0
  9
$UCSORGLEFT
 10
0.0
 20
0.0
 30
0.0
  9
$UCSORGRIGHT
 10
0.0
 20
0.0
 30
0.0
  9
$UCSORGFRONT
 10
0.0
 20
0.0
 30
0.0
  9
$UCSORGBACK
 10
0.0
 20
0.0
 30
0.0
  9
$PUCSBASE
  2

  9
$PUCSNAME
  2

  9
$PUCSORG
 10
0.0
 20
0.0
 30
0.0
  9
$PUCSXDIR
 10
1.0
 20
0.0
 30
0.0
  9
$PUCSYDIR
 10
0.0
 20
1.0
 30
0.0
  9
$PUCSORTHOREF
  2

  9
$PUCSORTHOVIEW
 70
     0
  9
$PUCSORGTOP
 10
0.0
 20
0.0
 30
0.0
  9
$PUCSORGBOTTOM
 10
0.0
 20
0.0
 30
0.0
  9
$PUCSORGLEFT
 10
0.0
 20
0.0
 30
0.0
  9
$PUCSORGRIGHT
 10
0.0
 20
0.0
 30
0.0
  9
$PUCSORGFRONT
 10
0.0
 20
0.0
 30
0.0
  9
$PUCSORGBACK
 10
0.0
 20
0.0
 30
0.0
  9
$USERI1
 70
     0
  9
$USERI2
 70
     0
  9
$USERI3
 70
     0
  9
$USERI4
 70
     0
  9
$USERI5
 70
     0
  9
$USERR1
 40
0.0
  9
$USERR2
 40
0.0
  9
$USERR3
 40
0.0
  9
$USERR4
 40
0.0
  9
$USERR5
 40
0.0
  9
$WORLDVIEW
 70
     1
  9
$SHADEDGE
 70
     3
  9
$SHADEDIF
 70
    70
  9
$TILEMODE
 70
     1
  9
$MAXACTVP
 70
    16
  9
$PINSBASE
 10
0.0
 20
0.0
 30
0.0
  9
$PLIMCHECK
 70
     0
  9
$PEXTMIN
 10
1.000000000000000E+20
 20
1.000000000000000E+20
 30
1.000000000000000E+20
  9
$PEXTMAX
 10
-1.000000000000000E+20
 20
-1.000000000000000E+20
 30
-1.000000000000000E+20
  9
$PLIMMIN
 10
0.0
 20
0.0
  9
$PLIMMAX
 10
12.0
 20
9.0
  9
$UNITMODE
 70
     0
  9
$VISRETAIN
 70
     0
  9
$PLINEGEN
 70
     0
  9
$PSLTSCALE
 70
     0
  9
$TREEDEPTH
 70
  3020
  9
$CMLSTYLE
  2
Standard
  9
$CMLJUST
 70
     0
  9
$CMLSCALE
 40
1.0
  9
$PROXYGRAPHICS
 70
     1
  9
$MEASUREMENT
 70
     0
  9
$CELWEIGHT
370
    -1
  9
$ENDCAPS
280
     0
  9
$JOINSTYLE
280
     0
  9
$LWDISPLAY
290
     0
  9
$INSUNITS
 70
     0
  9
$HYPERLINKBASE
  1

  9
$STYLESHEET
  1

  9
$XEDIT
290
     1
  9
$CEPSNTYPE
380
     0
  9
$PSTYLEMODE
290
     1
  9
$FINGERPRINTGUID
  2
{D68B0D0D-A558-11D7-B632-000102183313}
  9
$VERSIONGUID
  2
{2C6E04D6-C6F8-45E9-9ED0-C05C29B0AADC}
  9
$EXTNAMES
290
     1
  9
$PSVPSCALE
 40
0.0
  9
$OLESTARTUP
290
     0
  9
$SORTENTS
280
   127
  9
$INDEXCTL
280
     0
  9
$HIDETEXT
280
     0
  9
$XCLIPFRAME
290
     0
  9
$HALOGAP
280
     0
  9
$OBSCOLOR
 70
   257
  9
$OBSLTYPE
280
     0
  9
$INTERSECTIONDISPLAY
280
     0
  9
$INTERSECTIONCOLOR
 70
   257
  9
$DIMASSOC
280
     1
  9
$PROJECTNAME
  1

  0
ENDSEC
  0
SECTION
  2
CLASSES
  0
CLASS
  1
ACDBDICTIONARYWDFLT
  2
AcDbDictionaryWithDefault
  3
ObjectDBX Classes
 90
        0
 91
        1
280
     0
281
     0
  0
CLASS
  1
DICTIONARYVAR
  2
AcDbDictionaryVar
  3
ObjectDBX Classes
 90
        0
 91
        2
280
     0
281
     0
  0
ENDSEC
  0
SECTION
  2
TABLES
  0
TABLE
  2
VPORT
  5
8
330
0
100
AcDbSymbolTable
 70
     2
  0
VPORT
  5
10E4
330
8
100
AcDbSymbolTableRecord
100
AcDbViewportTableRecord
  2
*Active
 70
     0
 10
0.0
 20
0.0
 11
1.0
 21
1.0
 12
296.9999999999999
 22
420.0
 13
0.0
 23
0.0
 14
1.0
 24
1.0
 15
10.0
 25
10.0
 16
0.0
 26
0.0
 36
1.0
 17
0.0
 27
0.0
 37
0.0
 40
840.0539646533584
 41
1.336927223719676
 42
50.0
 43
0.0
 44
0.0
 50
0.0
 51
0.0
 71
     0
 72
  1500
 73
     1
 74
     0
 75
     0
 76
     0
 77
     0
 78
     0
281
     0
 65
     1
110
0.0
120
0.0
130
0.0
111
1.0
121
0.0
131
0.0
112
0.0
122
1.0
132
0.0
 79
     0
146
0.0
  0
ENDTAB
  0
TABLE
  2
LTYPE
  5
5
330
0
100
AcDbSymbolTable
 70
     3
  0
LTYPE
  5
13
330
5
100
AcDbSymbolTableRecord
100
AcDbLinetypeTableRecord
  2
ByBlock
 70
     0
  3

 72
    65
 73
     0
 40
0.0
  0
LTYPE
  5
14
330
5
100
AcDbSymbolTableRecord
100
AcDbLinetypeTableRecord
  2
ByLayer
 70
     0
  3

 72
    65
 73
     0
 40
0.0
  0
LTYPE
  5
15
330
5
100
AcDbSymbolTableRecord
100
AcDbLinetypeTableRecord
  2
Continuous
 70
     0
  3
Solid line
 72
    65
 73
     0
 40
0.0
  0
LTYPE
  5
25
330
5
100
AcDbSymbolTableRecord
100
AcDbLinetypeTableRecord
  2
STRICHPUNKT
 70
     0
  3
__ . __ . __ . __ . __ . __ . __ . __ . __ . __
 72
    65
 73
     4
 40
1.0
 49
0.5
 74
     0
 49
-0.25
 74
     0
 49
0.0
 74
     0
 49
-0.25
 74
     0
  0
LTYPE
  5
34
330
5
100
AcDbSymbolTableRecord
100
AcDbLinetypeTableRecord
  2
AUSGEZOGEN
 70
     0
  3
Ausgezogene Linie
 72
    65
 73
     0
 40
0.0
  0
ENDTAB
  0
TABLE
  2
LAYER
  5
2
330
0
100
AcDbSymbolTable
 70
     9
  0
LAYER
  5
10
330
2
100
AcDbSymbolTableRecord
100
AcDbLayerTableRecord
  2
0
 70
     0
 62
     7
  6
Continuous
370
    -3
390
F
  0
LAYER
  5
2B
330
2
100
AcDbSymbolTableRecord
100
AcDbLayerTableRecord
  2
VOLL
 70
     0
 62
     1
  6
Continuous
370
    -3
390
F
  0
LAYER
  5
2C
330
2
100
AcDbSymbolTableRecord
100
AcDbLayerTableRecord
  2
HILF
 70
     0
 62
     2
  6
Continuous
370
    -3
390
F
  0
LAYER
  5
2D
330
2
100
AcDbSymbolTableRecord
100
AcDbLayerTableRecord
  2
MITTEL
 70
     0
 62
     2
  6
STRICHPUNKT
370
    -3
390
F
  0
LAYER
  5
2F
330
2
100
AcDbSymbolTableRecord
100
AcDbLayerTableRecord
  2
BEM
 70
     0
 62
     7
  6
Continuous
370
    -3
390
F
  0
LAYER
  5
30
330
2
100
AcDbSymbolTableRecord
100
AcDbLayerTableRecord
  2
STEMPEL
 70
     0
 62
     3
  6
Continuous
370
    -3
390
F
  0
LAYER
  5
33
330
2
100
AcDbSymbolTableRecord
100
AcDbLayerTableRecord
  2
TEXT
 70
     0
 62
     7
  6
Continuous
370
    -3
390
F
  0
LAYER
  5
2C2
330
2
100
AcDbSymbolTableRecord
100
AcDbLayerTableRecord
  2
DEFPOINTS
 70
     0
 62
     7
  6
AUSGEZOGEN
290
     0
370
    -3
390
F
  0
LAYER
  5
2C3
330
2
100
AcDbSymbolTableRecord
100
AcDbLayerTableRecord
  2
SCHRAFF
 70
     0
 62
     7
  6
AUSGEZOGEN
370
    -3
390
F
  0
ENDTAB
  0
TABLE
  2
STYLE
  5
3
330
0
100
AcDbSymbolTable
 70
     2
  0
STYLE
  5
11
330
3
100
AcDbSymbolTableRecord
100
AcDbTextStyleTableRecord
  2
STANDARD
 70
     0
 40
0.0
 41
0.8
 50
0.0
 71
     0
 42
3.5
  3
simplex.shx
  4

  0
STYLE
  5
24
330
3
100
AcDbSymbolTableRecord
100
AcDbTextStyleTableRecord
  2
GREEKS
 70
     0
 40
0.0
 41
0.8
 50
0.0
 71
     0
 42
2.5
  3
SIMPLEX.shx
  4

  0
ENDTAB
  0
TABLE
  2
VIEW
  5
6
330
0
100
AcDbSymbolTable
 70
     0
  0
ENDTAB
  0
TABLE
  2
UCS
  5
7
330
0
100
AcDbSymbolTable
 70
     0
  0
ENDTAB
  0
TABLE
  2
APPID
  5
9
330
0
100
AcDbSymbolTable
 70
     1
  0
APPID
  5
12
330
9
100
AcDbSymbolTableRecord
100
AcDbRegAppTableRecord
  2
ACAD
 70
     0
  0
ENDTAB
  0
TABLE
  2
DIMSTYLE
  5
A
330
0
100
AcDbSymbolTable
 70
     1
100
AcDbDimStyleTable
 71
     1
340
A2
  0
DIMSTYLE
105
A2
102
{ACAD_REACTORS
330
5A7
330
5B1
330
5E7
330
D11
330
D12
330
D13
330
1031
102
}
330
A
100
AcDbSymbolTableRecord
100
AcDbDimStyleTableRecord
  2
Standard
 70
     0
340
11
  0
ENDTAB
  0
TABLE
  2
BLOCK_RECORD
  5
1
330
0
100
AcDbSymbolTable
 70
     8
  0
BLOCK_RECORD
  5
1E
102
{ACAD_XDICTIONARY
360
DB
102
}
330
1
100
AcDbSymbolTableRecord
100
AcDbBlockTableRecord
  2
*Model_Space
340
21
  0
BLOCK_RECORD
  5
1A
102
{ACAD_XDICTIONARY
360
DD
102
}
330
1
100
AcDbSymbolTableRecord
100
AcDbBlockTableRecord
  2
*Paper_Space
340
1D
  0
BLOCK_RECORD
  5
22
330
1
100
AcDbSymbolTableRecord
100
AcDbBlockTableRecord
  2
LOGO
340
0
102
{BLKREFS
331
807
102
}
  0
BLOCK_RECORD
  5
84B
330
1
100
AcDbSymbolTableRecord
100
AcDbBlockTableRecord
  2
*D1
340
0
  0
BLOCK_RECORD
  5
857
330
1
100
AcDbSymbolTableRecord
100
AcDbBlockTableRecord
  2
*D2
340
0
  0
BLOCK_RECORD
  5
863
330
1
100
AcDbSymbolTableRecord
100
AcDbBlockTableRecord
  2
*D3
340
0
  0
BLOCK_RECORD
  5
D26
330
1
100
AcDbSymbolTableRecord
100
AcDbBlockTableRecord
  2
*D4
340
0
  0
BLOCK_RECORD
  5
D32
330
1
100
AcDbSymbolTableRecord
100
AcDbBlockTableRecord
  2
*D5
340
0
  0
BLOCK_RECORD
  5
D3E
330
1
100
AcDbSymbolTableRecord
100
AcDbBlockTableRecord
  2
*D6
340
0
  0
BLOCK_RECORD
  5
1032
330
1
100
AcDbSymbolTableRecord
100
AcDbBlockTableRecord
  2
*D7
340
0
  0
ENDTAB
  0
ENDSEC
  0
SECTION
  2
BLOCKS
  0
BLOCK
  5
37
330
1E
100
AcDbEntity
  8
0
100
AcDbBlockBegin
  2
*Model_Space
 70
     0
 10
0.0
 20
0.0
 30
0.0
  3
*Model_Space
  1

  0
ENDBLK
  5
38
330
1E
100
AcDbEntity
  8
0
100
AcDbBlockEnd
  0
BLOCK
  5
35
330
1A
100
AcDbEntity
 67
     1
  8
0
100
AcDbBlockBegin
  2
*Paper_Space
 70
     0
 10
0.0
 20
0.0
 30
0.0
  3
*Paper_Space
  1

  0
ENDBLK
  5
36
330
1A
100
AcDbEntity
 67
     1
  8
0
100
AcDbBlockEnd
  0
BLOCK
  5
39
330
22
100
AcDbEntity
  8
0
100
AcDbBlockBegin
  2
LOGO
 70
     0
 10
0.0
 20
0.0
 30
0.0
  3
LOGO
  1

  0
ARC
  5
3A
330
22
100
AcDbEntity
  8
0
100
AcDbCircle
 10
11.59973089678112
 20
-9.271599258481501
 30
0.0
 40
4.5
100
AcDbArc
 50
270.0
 51
231.0575587310159
  0
LINE
  5
3B
330
22
100
AcDbEntity
  8
0
100
AcDbLine
 10
3.599730896781125
 20
-4.771599258481529
 30
0.0
 11
3.599730896781153
 21
-11.77159925848133
 31
0.0
  0
LINE
  5
3C
330
22
100
AcDbEntity
  8
0
100
AcDbLine
 10
2.599730896781125
 20
-4.771599258481529
 30
0.0
 11
2.599730896781153
 21
-11.77159925848133
 31
0.0
  0
CIRCLE
  5
3D
330
22
100
AcDbEntity
  8
0
100
AcDbCircle
 10
11.59973089678112
 20
-9.271599258481501
 30
0.0
 40
3.5
  0
ARC
  5
3E
330
22
100
AcDbEntity
  8
0
100
AcDbCircle
 10
31.59973089678115
 20
-9.271599258481472
 30
0.0
 40
4.5
100
AcDbArc
 50
270.0
 51
231.0575587310182
  0
LINE
  5
3F
330
22
100
AcDbEntity
  8
0
100
AcDbLine
 10
17.59973089678112
 20
-4.771599258481472
 30
0.0
 11
17.59973089678115
 21
-13.77159925848147
 31
0.0
  0
ARC
  5
40
330
22
100
AcDbEntity
  8
0
100
AcDbCircle
 10
22.59973089678116
 20
-7.271599258481472
 30
0.0
 40
2.5
100
AcDbArc
 50
293.1161887722295
 51
90.0
  0
CIRCLE
  5
41
330
22
100
AcDbEntity
  8
0
100
AcDbCircle
 10
31.59973089678115
 20
-9.271599258481472
 30
0.0
 40
3.5
  0
ARC
  5
42
330
22
100
AcDbEntity
  8
0
100
AcDbCircle
 10
4.599730896781153
 20
-11.77159925848133
 30
0.0
 40
1.0
100
AcDbArc
 50
180.0
 51
270.0
  0
ARC
  5
43
330
22
100
AcDbEntity
  8
0
100
AcDbCircle
 10
4.599730896781153
 20
-11.77159925848133
 30
0.0
 40
2.0
100
AcDbArc
 50
179.9999999999992
 51
270.0
  0
LINE
  5
44
330
22
100
AcDbEntity
  8
0
100
AcDbLine
 10
11.59973089678115
 20
-13.77159925848144
 30
0.0
 11
4.599730896781153
 21
-13.77159925848147
 31
0.0
  0
LINE
  5
45
330
22
100
AcDbEntity
  8
0
100
AcDbLine
 10
8.771303772034769
 20
-12.77159925848136
 30
0.0
 11
4.599730896781153
 21
-12.77159925848133
 31
0.0
  0
LINE
  5
46
330
22
100
AcDbEntity
  8
0
100
AcDbLine
 10
31.59973089678115
 20
-13.77159925848147
 30
0.0
 11
23.6715276665056
 21
-13.77159925848144
 31
0.0
  0
LINE
  5
47
330
22
100
AcDbEntity
  8
0
100
AcDbLine
 10
23.56565672307022
 20
-9.51278021337896
 30
0.0
 11
24.4388546544846
 21
-12.77159925848144
 31
0.0
  0
LINE
  5
48
330
22
100
AcDbEntity
  8
0
100
AcDbLine
 10
22.59973089678116
 20
-9.771599258481472
 30
0.0
 11
18.59973089678112
 21
-9.771599258481472
 31
0.0
  0
LINE
  5
49
330
22
100
AcDbEntity
  8
0
100
AcDbLine
 10
18.59973089678115
 20
-13.77159925848144
 30
0.0
 11
17.59973089678115
 21
-13.77159925848144
 31
0.0
  0
LINE
  5
4A
330
22
100
AcDbEntity
  8
0
100
AcDbLine
 10
18.59973089678115
 20
-9.771599258481472
 30
0.0
 11
18.59973089678115
 21
-13.77159925848144
 31
0.0
  0
LINE
  5
4B
330
22
100
AcDbEntity
  8
0
100
AcDbLine
 10
22.59973089678116
 20
-9.771599258481472
 30
0.0
 11
23.67152766650562
 21
-13.77159925848147
 31
0.0
  0
ARC
  5
4C
330
22
100
AcDbEntity
  8
0
100
AcDbCircle
 10
22.59973089678116
 20
-7.271599258481472
 30
0.0
 40
2.5
100
AcDbArc
 50
270.0
 51
270.0000000000007
  0
LINE
  5
4D
330
22
100
AcDbEntity
  8
0
100
AcDbLine
 10
28.77130377203494
 20
-12.77159925848147
 30
0.0
 11
24.43885465448463
 21
-12.77159925848144
 31
0.0
  0
LINE
  5
4E
330
22
100
AcDbEntity
  8
0
100
AcDbLine
 10
3.599730896781125
 20
-4.771599258481472
 30
0.0
 11
2.599730896781125
 21
-4.771599258481472
 31
0.0
  0
LINE
  5
4F
330
22
100
AcDbEntity
  8
0
100
AcDbLine
 10
22.59973089678116
 20
-8.771599258481472
 30
0.0
 11
18.59973089678115
 21
-8.771599258481472
 31
0.0
  0
LINE
  5
50
330
22
100
AcDbEntity
  8
0
100
AcDbLine
 10
22.59973089678116
 20
-5.771599258481472
 30
0.0
 11
18.59973089678115
 21
-5.771599258481472
 31
0.0
  0
LINE
  5
51
330
22
100
AcDbEntity
  8
0
100
AcDbLine
 10
22.59973089678116
 20
-4.771599258481472
 30
0.0
 11
17.59973089678115
 21
-4.771599258481472
 31
0.0
  0
LINE
  5
52
330
22
100
AcDbEntity
  8
0
100
AcDbLine
 10
18.59973089678115
 20
-5.771599258481472
 30
0.0
 11
18.59973089678115
 21
-8.771599258481472
 31
0.0
  0
ARC
  5
53
330
22
100
AcDbEntity
  8
0
100
AcDbCircle
 10
22.59973089678116
 20
-7.271599258481472
 30
0.0
 40
1.5
100
AcDbArc
 50
270.0
 51
90.0
  0
ENDBLK
  5
54
330
22
100
AcDbEntity
  8
0
100
AcDbBlockEnd
  0
BLOCK
  5
855
330
84B
100
AcDbEntity
  8
0
100
AcDbBlockBegin
  2
*D1
 70
     1
 10
0.0
 20
0.0
 30
0.0
  3
*D1
  1

  0
LINE
  5
1028
330
84B
100
AcDbEntity
  8
BEM
 62
     0
370
    -2
100
AcDbLine
 10
213.5072129752068
 20
128.1174394693501
 30
0.0
 11
97.83346326163899
 21
128.1174394693501
 31
0.0
  0
LINE
  5
1029
330
84B
100
AcDbEntity
  8
BEM
 62
     0
370
    -2
100
AcDbLine
 10
127.0754994138918
 20
428.1174394693502
 30
0.0
 11
97.83346326163906
 21
428.1174394693502
 31
0.0
  0
LINE
  5
102A
330
84B
100
AcDbEntity
  8
BEM
 62
     0
370
    -2
100
AcDbLine
 10
99.83346326163898
 20
135.1174394693501
 30
0.0
 11
99.83346326163905
 21
421.1174394693502
 31
0.0
  0
SOLID
  5
102B
330
84B
100
AcDbEntity
  8
BEM
 62
     0
100
AcDbTrace
 10
98.66679659497231
 20
135.1174394693501
 30
0.0
 11
101.0001299283056
 21
135.1174394693501
 31
0.0
 12
99.83346326163898
 22
128.1174394693501
 32
0.0
 13
99.83346326163898
 23
128.1174394693501
 33
0.0
  0
SOLID
  5
102C
330
84B
100
AcDbEntity
  8
BEM
 62
     0
100
AcDbTrace
 10
98.66679659497238
 20
421.1174394693502
 30
0.0
 11
101.0001299283057
 21
421.1174394693502
 31
0.0
 12
99.83346326163905
 22
428.1174394693502
 32
0.0
 13
99.83346326163905
 23
428.1174394693502
 33
0.0
  0
MTEXT
  5
102D
330
84B
100
AcDbEntity
  8
BEM
 62
     1
100
AcDbMText
 10
93.33346326163896
 20
278.1174394693502
 30
0.0
 40
7.0
 41
0.0
 71
     5
 72
     1
  1
\A1;300
 11
0.0000000000000001
 21
1.0
 31
0.0
 73
     1
 44
1.0
  0
POINT
  5
102E
330
84B
100
AcDbEntity
  8
DEFPOINTS
 62
     0
100
AcDbPoint
 10
215.5072129752068
 20
128.1174394693501
 30
0.0
  0
POINT
  5
102F
330
84B
100
AcDbEntity
  8
DEFPOINTS
 62
     0
100
AcDbPoint
 10
129.0754994138918
 20
428.1174394693501
 30
0.0
  0
POINT
  5
1030
330
84B
100
AcDbEntity
  8
DEFPOINTS
 62
     0
100
AcDbPoint
 10
99.83346326163905
 20
428.1174394693502
 30
0.0
  0
ENDBLK
  5
856
330
84B
100
AcDbEntity
  8
0
100
AcDbBlockEnd
  0
BLOCK
  5
861
330
857
100
AcDbEntity
  8
0
100
AcDbBlockBegin
  2
*D2
 70
     1
 10
0.0
 20
0.0
 30
0.0
  3
*D2
  1

  0
LINE
  5
E33
330
857
100
AcDbEntity
  8
BEM
 62
     0
370
    -2
100
AcDbLine
 10
215.0754994138922
 20
131.0519480549881
 30
0.0
 11
215.0754994138922
 21
108.1952762542606
 31
0.0
  0
LINE
  5
E34
330
857
100
AcDbEntity
  8
BEM
 62
     0
370
    -2
100
AcDbLine
 10
288.0754994138921
 20
131.051948054988
 30
0.0
 11
288.0754994138921
 21
108.1952762542606
 31
0.0
  0
LINE
  5
E35
330
857
100
AcDbEntity
  8
BEM
 62
     0
370
    -2
100
AcDbLine
 10
222.0754994138922
 20
110.1952762542606
 30
0.0
 11
281.0754994138921
 21
110.1952762542606
 31
0.0
  0
SOLID
  5
E36
330
857
100
AcDbEntity
  8
BEM
 62
     0
100
AcDbTrace
 10
222.0754994138922
 20
111.3619429209273
 30
0.0
 11
222.0754994138922
 21
109.0286095875939
 31
0.0
 12
215.0754994138922
 22
110.1952762542606
 32
0.0
 13
215.0754994138922
 23
110.1952762542606
 33
0.0
  0
SOLID
  5
E37
330
857
100
AcDbEntity
  8
BEM
 62
     0
100
AcDbTrace
 10
281.0754994138921
 20
111.3619429209273
 30
0.0
 11
281.0754994138921
 21
109.0286095875939
 31
0.0
 12
288.0754994138921
 22
110.1952762542606
 32
0.0
 13
288.0754994138921
 23
110.1952762542606
 33
0.0
  0
MTEXT
  5
E38
330
857
100
AcDbEntity
  8
BEM
 62
     1
100
AcDbMText
 10
251.5754994138922
 20
116.6952762542606
 30
0.0
 40
7.0
 41
0.0
 71
     5
 72
     1
  1
\A1;%%c73
 73
     1
 44
1.0
  0
POINT
  5
E39
330
857
100
AcDbEntity
  8
DEFPOINTS
 62
     0
100
AcDbPoint
 10
215.0754994138922
 20
133.0519480549881
 30
0.0
  0
POINT
  5
E3A
330
857
100
AcDbEntity
  8
DEFPOINTS
 62
     0
100
AcDbPoint
 10
288.0754994138921
 20
133.0519480549879
 30
0.0
  0
POINT
  5
E3B
330
857
100
AcDbEntity
  8
DEFPOINTS
 62
     0
100
AcDbPoint
 10
288.0754994138921
 20
110.1952762542606
 30
0.0
  0
ENDBLK
  5
862
330
857
100
AcDbEntity
  8
0
100
AcDbBlockEnd
  0
BLOCK
  5
86D
330
863
100
AcDbEntity
  8
0
100
AcDbBlockBegin
  2
*D3
 70
     1
 10
0.0
 20
0.0
 30
0.0
  3
*D3
  1

  0
LINE
  5
101F
330
863
100
AcDbEntity
  8
BEM
 62
     0
370
    -2
100
AcDbLine
 10
127.0754994138918
 20
428.1174394693502
 30
0.0
 11
97.83346326163902
 21
428.1174394693502
 31
0.0
  0
LINE
  5
1020
330
863
100
AcDbEntity
  8
BEM
 62
     0
370
    -2
100
AcDbLine
 10
127.0754994138917
 20
578.1174394693501
 30
0.0
 11
97.83346326163906
 21
578.1174394693501
 31
0.0
  0
LINE
  5
1021
330
863
100
AcDbEntity
  8
BEM
 62
     0
370
    -2
100
AcDbLine
 10
99.83346326163903
 20
435.1174394693502
 30
0.0
 11
99.83346326163905
 21
571.1174394693501
 31
0.0
  0
SOLID
  5
1022
330
863
100
AcDbEntity
  8
BEM
 62
     0
100
AcDbTrace
 10
98.66679659497236
 20
435.1174394693502
 30
0.0
 11
101.0001299283057
 21
435.1174394693502
 31
0.0
 12
99.83346326163903
 22
428.1174394693502
 32
0.0
 13
99.83346326163903
 23
428.1174394693502
 33
0.0
  0
SOLID
  5
1023
330
863
100
AcDbEntity
  8
BEM
 62
     0
100
AcDbTrace
 10
98.66679659497238
 20
571.1174394693501
 30
0.0
 11
101.0001299283057
 21
571.1174394693501
 31
0.0
 12
99.83346326163905
 22
578.1174394693501
 32
0.0
 13
99.83346326163905
 23
578.1174394693501
 33
0.0
  0
MTEXT
  5
1024
330
863
100
AcDbEntity
  8
BEM
 62
     1
100
AcDbMText
 10
93.33346326163896
 20
503.1174394693501
 30
0.0
 40
7.0
 41
0.0
 71
     5
 72
     1
  1
\A1;min.35 - max.200
  7
GREEKS
 11
0.0000000000000001
 21
1.0
 31
0.0
 73
     1
 44
1.0
  0
POINT
  5
1025
330
863
100
AcDbEntity
  8
DEFPOINTS
 62
     0
100
AcDbPoint
 10
129.0754994138918
 20
428.1174394693501
 30
0.0
  0
POINT
  5
1026
330
863
100
AcDbEntity
  8
DEFPOINTS
 62
     0
100
AcDbPoint
 10
129.0754994138917
 20
578.1174394693501
 30
0.0
  0
POINT
  5
1027
330
863
100
AcDbEntity
  8
DEFPOINTS
 62
     0
100
AcDbPoint
 10
99.83346326163905
 20
578.1174394693501
 30
0.0
  0
ENDBLK
  5
86E
330
863
100
AcDbEntity
  8
0
100
AcDbBlockEnd
  0
BLOCK
  5
D30
330
D26
100
AcDbEntity
  8
0
100
AcDbBlockBegin
  2
*D4
 70
     1
 10
0.0
 20
0.0
 30
0.0
  3
*D4
  1

  0
LINE
  5
10CE
330
D26
100
AcDbEntity
  8
BEM
 62
     0
370
    -2
100
AcDbLine
 10
169.575499413892
 20
694.1174394693509
 30
0.0
 11
97.85251693616855
 21
694.1174394693509
 31
0.0
  0
LINE
  5
10CF
330
D26
100
AcDbEntity
  8
BEM
 62
     0
370
    -2
100
AcDbLine
 10
132.5754994138923
 20
584.1174394693494
 30
0.0
 11
97.85251693616851
 21
584.1174394693494
 31
0.0
  0
LINE
  5
10D0
330
D26
100
AcDbEntity
  8
BEM
 62
     0
370
    -2
100
AcDbLine
 10
99.85251693616854
 20
687.1174394693508
 30
0.0
 11
99.85251693616852
 21
591.1174394693493
 31
0.0
  0
SOLID
  5
10D1
330
D26
100
AcDbEntity
  8
BEM
 62
     0
100
AcDbTrace
 10
98.68585026950187
 20
687.1174394693508
 30
0.0
 11
101.0191836028352
 21
687.1174394693508
 31
0.0
 12
99.85251693616854
 22
694.1174394693509
 32
0.0
 13
99.85251693616854
 23
694.1174394693509
 33
0.0
  0
SOLID
  5
10D2
330
D26
100
AcDbEntity
  8
BEM
 62
     0
100
AcDbTrace
 10
98.68585026950185
 20
591.1174394693493
 30
0.0
 11
101.0191836028352
 21
591.1174394693493
 31
0.0
 12
99.85251693616852
 22
584.1174394693494
 32
0.0
 13
99.85251693616852
 23
584.1174394693494
 33
0.0
  0
MTEXT
  5
10D3
330
D26
100
AcDbEntity
  8
BEM
 62
     1
100
AcDbMText
 10
93.35251693616843
 20
639.11743946935
 30
0.0
 40
7.0
 41
0.0
 71
     5
 72
     1
  1
\A1;110
  7
GREEKS
 11
0.0000000000000001
 21
1.0
 31
0.0
 73
     1
 44
1.0
  0
POINT
  5
10D4
330
D26
100
AcDbEntity
  8
DEFPOINTS
 62
     0
100
AcDbPoint
 10
171.575499413892
 20
694.1174394693509
 30
0.0
  0
POINT
  5
10D5
330
D26
100
AcDbEntity
  8
DEFPOINTS
 62
     0
100
AcDbPoint
 10
134.5754994138923
 20
584.1174394693494
 30
0.0
  0
POINT
  5
10D6
330
D26
100
AcDbEntity
  8
DEFPOINTS
 62
     0
100
AcDbPoint
 10
99.85251693616852
 20
584.1174394693494
 30
0.0
  0
ENDBLK
  5
D31
330
D26
100
AcDbEntity
  8
0
100
AcDbBlockEnd
  0
BLOCK
  5
D3C
330
D32
100
AcDbEntity
  8
0
100
AcDbBlockBegin
  2
*D5
 70
     1
 10
0.0
 20
0.0
 30
0.0
  3
*D5
  1

  0
LINE
  5
D53
330
D32
100
AcDbEntity
  8
BEM
 62
     0
370
    -2
100
AcDbLine
 10
121.575499413892
 20
607.1174394693515
 30
0.0
 11
121.575499413892
 21
718.4249937803922
 31
0.0
  0
LINE
  5
D54
330
D32
100
AcDbEntity
  8
BEM
 62
     0
370
    -2
100
AcDbLine
 10
381.5754994138917
 20
607.1174394693517
 30
0.0
 11
381.5754994138917
 21
718.4249937803922
 31
0.0
  0
LINE
  5
D55
330
D32
100
AcDbEntity
  8
BEM
 62
     0
370
    -2
100
AcDbLine
 10
128.5754994138919
 20
716.4249937803922
 30
0.0
 11
374.5754994138918
 21
716.4249937803922
 31
0.0
  0
SOLID
  5
D56
330
D32
100
AcDbEntity
  8
BEM
 62
     0
100
AcDbTrace
 10
128.5754994138919
 20
717.5916604470589
 30
0.0
 11
128.5754994138919
 21
715.2583271137256
 31
0.0
 12
121.575499413892
 22
716.4249937803922
 32
0.0
 13
121.575499413892
 23
716.4249937803922
 33
0.0
  0
SOLID
  5
D57
330
D32
100
AcDbEntity
  8
BEM
 62
     0
100
AcDbTrace
 10
374.5754994138918
 20
717.5916604470589
 30
0.0
 11
374.5754994138918
 21
715.2583271137256
 31
0.0
 12
381.5754994138917
 22
716.4249937803922
 32
0.0
 13
381.5754994138917
 23
716.4249937803922
 33
0.0
  0
MTEXT
  5
D58
330
D32
100
AcDbEntity
  8
BEM
 62
     1
100
AcDbMText
 10
251.5754994138919
 20
722.9249937803922
 30
0.0
 40
7.0
 41
0.0
 71
     5
 72
     1
  1
\A1;%%c260
  7
GREEKS
 73
     1
 44
1.0
  0
POINT
  5
D59
330
D32
100
AcDbEntity
  8
DEFPOINTS
 62
     0
100
AcDbPoint
 10
121.575499413892
 20
605.1174394693515
 30
0.0
  0
POINT
  5
D5A
330
D32
100
AcDbEntity
  8
DEFPOINTS
 62
     0
100
AcDbPoint
 10
381.5754994138917
 20
605.1174394693518
 30
0.0
  0
POINT
  5
D5B
330
D32
100
AcDbEntity
  8
DEFPOINTS
 62
     0
100
AcDbPoint
 10
381.5754994138917
 20
716.4249937803922
 30
0.0
  0
ENDBLK
  5
D3D
330
D32
100
AcDbEntity
  8
0
100
AcDbBlockEnd
  0
BLOCK
  5
D48
330
D3E
100
AcDbEntity
  8
0
100
AcDbBlockBegin
  2
*D6
 70
     1
 10
0.0
 20
0.0
 30
0.0
  3
*D6
  1

  0
LINE
  5
D5C
330
D3E
100
AcDbEntity
  8
BEM
 62
     0
370
    -2
100
AcDbLine
 10
141.575499413892
 20
676.1173815020359
 30
0.0
 11
141.575499413892
 21
704.9297924660848
 31
0.0
  0
LINE
  5
D5D
330
D3E
100
AcDbEntity
  8
BEM
 62
     0
370
    -2
100
AcDbLine
 10
361.5754994138922
 20
676.1173815020359
 30
0.0
 11
361.5754994138922
 21
704.9297924660848
 31
0.0
  0
LINE
  5
D5E
330
D3E
100
AcDbEntity
  8
BEM
 62
     0
370
    -2
100
AcDbLine
 10
148.575499413892
 20
702.9297924660848
 30
0.0
 11
354.5754994138922
 21
702.9297924660848
 31
0.0
  0
SOLID
  5
D5F
330
D3E
100
AcDbEntity
  8
BEM
 62
     0
100
AcDbTrace
 10
148.575499413892
 20
704.0964591327514
 30
0.0
 11
148.575499413892
 21
701.7631257994182
 31
0.0
 12
141.575499413892
 22
702.9297924660848
 32
0.0
 13
141.575499413892
 23
702.9297924660848
 33
0.0
  0
SOLID
  5
D60
330
D3E
100
AcDbEntity
  8
BEM
 62
     0
100
AcDbTrace
 10
354.5754994138922
 20
704.0964591327514
 30
0.0
 11
354.5754994138922
 21
701.7631257994182
 31
0.0
 12
361.5754994138922
 22
702.9297924660848
 32
0.0
 13
361.5754994138922
 23
702.9297924660848
 33
0.0
  0
MTEXT
  5
D61
330
D3E
100
AcDbEntity
  8
BEM
 62
     1
100
AcDbMText
 10
251.5754994138921
 20
709.4297924660848
 30
0.0
 40
7.0
 41
0.0
 71
     5
 72
     1
  1
\A1;%%c220
  7
GREEKS
 73
     1
 44
1.0
  0
POINT
  5
D62
330
D3E
100
AcDbEntity
  8
DEFPOINTS
 62
     0
100
AcDbPoint
 10
141.575499413892
 20
674.117381502036
 30
0.0
  0
POINT
  5
D63
330
D3E
100
AcDbEntity
  8
DEFPOINTS
 62
     0
100
AcDbPoint
 10
361.5754994138922
 20
674.117381502036
 30
0.0
  0
POINT
  5
D64
330
D3E
100
AcDbEntity
  8
DEFPOINTS
 62
     0
100
AcDbPoint
 10
361.5754994138922
 20
702.9297924660848
 30
0.0
  0
ENDBLK
  5
D49
330
D3E
100
AcDbEntity
  8
0
100
AcDbBlockEnd
  0
BLOCK
  5
103C
330
1032
100
AcDbEntity
  8
0
100
AcDbBlockBegin
  2
*D7
 70
     1
 10
0.0
 20
0.0
 30
0.0
  3
*D7
  1

  0
LINE
  5
10C5
330
1032
100
AcDbEntity
  8
BEM
 62
     0
370
    -2
100
AcDbLine
 10
183.075499413891
 20
619.1174394693497
 30
0.0
 11
112.0967346671045
 21
619.1174394693497
 31
0.0
  0
LINE
  5
10C6
330
1032
100
AcDbEntity
  8
BEM
 62
     0
370
    -2
100
AcDbLine
 10
132.5754994138923
 20
584.1174394693494
 30
0.0
 11
112.0967346671045
 21
584.1174394693494
 31
0.0
  0
LINE
  5
10C7
330
1032
100
AcDbEntity
  8
BEM
 62
     0
370
    -2
100
AcDbLine
 10
114.0967346671045
 20
612.1174394693497
 30
0.0
 11
114.0967346671045
 21
591.1174394693493
 31
0.0
  0
SOLID
  5
10C8
330
1032
100
AcDbEntity
  8
BEM
 62
     0
100
AcDbTrace
 10
112.9300680004379
 20
612.1174394693497
 30
0.0
 11
115.2634013337712
 21
612.1174394693497
 31
0.0
 12
114.0967346671045
 22
619.1174394693497
 32
0.0
 13
114.0967346671045
 23
619.1174394693497
 33
0.0
  0
SOLID
  5
10C9
330
1032
100
AcDbEntity
  8
BEM
 62
     0
100
AcDbTrace
 10
112.9300680004378
 20
591.1174394693493
 30
0.0
 11
115.2634013337712
 21
591.1174394693493
 31
0.0
 12
114.0967346671045
 22
584.1174394693494
 32
0.0
 13
114.0967346671045
 23
584.1174394693494
 33
0.0
  0
MTEXT
  5
10CA
330
1032
100
AcDbEntity
  8
BEM
 62
     1
100
AcDbMText
 10
107.5967346671044
 20
601.6174394693496
 30
0.0
 40
7.0
 41
0.0
 71
     5
 72
     1
  1
\A1;35
 11
0.0000000000000001
 21
1.0
 31
0.0
 73
     1
 44
1.0
  0
POINT
  5
10CB
330
1032
100
AcDbEntity
  8
DEFPOINTS
 62
     0
100
AcDbPoint
 10
185.075499413891
 20
619.1174394693497
 30
0.0
  0
POINT
  5
10CC
330
1032
100
AcDbEntity
  8
DEFPOINTS
 62
     0
100
AcDbPoint
 10
134.5754994138923
 20
584.1174394693494
 30
0.0
  0
POINT
  5
10CD
330
1032
100
AcDbEntity
  8
DEFPOINTS
 62
     0
100
AcDbPoint
 10
114.0967346671045
 20
584.1174394693494
 30
0.0
  0
ENDBLK
  5
103D
330
1032
100
AcDbEntity
  8
0
100
AcDbBlockEnd
  0
ENDSEC
  0
SECTION
  2
ENTITIES
  0
LINE
  5
87
330
1E
100
AcDbEntity
  8
HILF
100
AcDbLine
 10
594.0
 20
-0.0000000000000568
 30
0.0
 11
594.0
 21
840.0
 31
0.0
  0
LINE
  5
88
330
1E
100
AcDbEntity
  8
HILF
100
AcDbLine
 10
594.0
 20
840.0
 30
0.0
 11
0.0
 21
840.0
 31
0.0
  0
LINE
  5
89
330
1E
100
AcDbEntity
  8
HILF
100
AcDbLine
 10
0.0
 20
840.0
 30
0.0
 11
0.0
 21
0.0
 31
0.0
  0
LINE
  5
8B
330
1E
100
AcDbEntity
  8
STEMPEL
100
AcDbLine
 10
10.0
 20
830.0
 30
0.0
 11
10.0
 21
39.99999999999995
 31
0.0
  0
LINE
  5
8D
330
1E
100
AcDbEntity
  8
STEMPEL
100
AcDbLine
 10
584.0
 20
39.99999999999995
 30
0.0
 11
584.0
 21
830.0
 31
0.0
  0
LINE
  5
8E
330
1E
100
AcDbEntity
  8
STEMPEL
100
AcDbLine
 10
584.0
 20
830.0
 30
0.0
 11
10.0
 21
830.0
 31
0.0
  0
LINE
  5
9C
330
1E
100
AcDbEntity
  8
BEM
100
AcDbLine
 10
594.0
 20
455.9999999999999
 30
0.0
 11
584.0
 21
455.9999999999999
 31
0.0
  0
LINE
  5
13E
330
1E
100
AcDbEntity
  8
HILF
100
AcDbLine
 10
594.0
 20
-0.0000000000000568
 30
0.0
 11
0.0
 21
0.0
 31
0.0
  0
LINE
  5
13F
330
1E
100
AcDbEntity
  8
STEMPEL
100
AcDbLine
 10
584.0
 20
39.99999999999995
 30
0.0
 11
10.0
 21
39.99999999999995
 31
0.0
  0
LINE
  5
14A
330
1E
100
AcDbEntity
  8
HILF
100
AcDbLine
 10
297.0
 20
-0.0000000000000568
 30
0.0
 11
297.0
 21
39.99999999999995
 31
0.0
  0
TEXT
  5
15B
330
1E
100
AcDbEntity
  8
BEM
100
AcDbText
 10
583.8320989200114
 20
837.3022923857165
 30
0.0
 40
4.0
  1
Diese Zeichnung ist urheberrechtlich geschützt und bleibt unser Eigentum. Sie darf weder ganz noch teilweise verfielfältigt und nicht an Dritte weitergegeben werden.
 50
180.0
 41
0.8
  7
GREEKS
100
AcDbText
  0
HATCH
  5
57E
330
1E
100
AcDbEntity
  8
SCHRAFF
100
AcDbHatch
 10
0.0
 20
0.0
 30
0.0
210
0.0
220
0.0
230
1.0
  2
_USER
 70
     0
 71
     1
 91
        4
 92
        7
 72
     1
 73
     1
 93
        8
 10
135.2930138351638
 20
428.1174394693501
 42
0.1989123673796801
 10
131.4039265386376
 20
426.5065267658757
 42
0.0
 10
129.0754994138916
 20
424.1780996411295
 42
0.0
 10
130.4897129762645
 20
422.7638860787561
 42
0.0
 10
132.8181401010107
 20
425.0923132035025
 42
-0.1989123673796735
 10
135.2930138351634
 20
426.1174394693503
 42
0.0
 10
161.5754994138918
 20
426.1174394693502
 42
0.0
 10
161.5754994138918
 20
428.1174394693501
 42
0.0
 97
        8
330
5F8
330
609
330
610
330
60F
330
60E
330
60A
330
601
330
622
 92
        7
 72
     1
 73
     1
 93
        8
 10
161.5754994138918
 20
428.1174394693502
 42
0.0
 10
161.5754994138918
 20
426.1174394693501
 42
0.0
 10
193.0554151667574
 20
426.1174394693498
 42
-0.2102773852970729
 10
197.4790791876179
 20
424.1709807150441
 42
0.0
 10
207.607783614336
 20
413.11743946935
 42
0.0
 10
209.0823382879563
 20
414.4686198845813
 42
0.0
 10
198.953633861238
 20
425.5221611302756
 42
0.2102773852970747
 10
193.0554151667574
 20
428.1174394693502
 42
0.0
 97
        8
330
5F8
330
622
330
601
330
634
330
5A5
330
5CF
330
5A4
330
633
 92
        7
 72
     1
 73
     1
 93
        8
 10
310.0955836610266
 20
428.1174394693501
 42
0.2102773852970736
 10
304.197364966546
 20
425.5221611302757
 42
0.0
 10
294.0686605398279
 20
414.4686198845812
 42
0.0
 10
295.5432152134481
 20
413.11743946935
 42
0.0
 10
305.671919640166
 20
424.1709807150441
 42
-0.2102773852970728
 10
310.0955836610265
 20
426.1174394693498
 42
0.0
 10
322.9754994138919
 20
426.11743946935
 42
0.0
 10
322.975499413892
 20
428.1174394693501
 42
0.0
 97
        8
330
588
330
74C
330
581
330
5E6
330
582
330
74D
330
742
330
75B
 92
        7
 72
     1
 73
     1
 93
        8
 10
322.9754994138919
 20
428.1174394693501
 42
0.0
 10
322.9754994138919
 20
426.11743946935
 42
0.0
 10
367.8579849926199
 20
426.1174394693503
 42
-0.1989123673797008
 10
370.332858726773
 20
425.0923132035025
 42
0.0
 10
372.6612858515192
 20
422.7638860787562
 42
0.0
 10
374.0754994138921
 20
424.1780996411296
 42
0.0
 10
371.7470722891461
 20
426.5065267658757
 42
0.1989123673796608
 10
367.8579849926203
 20
428.11743946935
 42
0.0
 97
        8
330
588
330
75B
330
742
330
772
330
771
330
776
330
770
330
773
 75
     0
 76
     0
 52
135.0
 41
2.0
 77
     0
 78
     1
 53
135.0
 43
0.0000000000002274
 44
-0.0000000000001705
 45
-1.414213562373095
 46
-1.414213562373094
 79
     0
 47
0.5341172407613316
 98
        4
 10
149.6129867452957
 20
427.1555043290805
 10
176.336862491705
 20
427.1555043290805
 10
312.6286351826368
 20
427.1555043290805
 10
332.4043070655268
 20
427.1555043290805
  0
ARC
  5
580
330
1E
100
AcDbEntity
  8
SCHRAFF
100
AcDbCircle
 10
293.3754994138922
 20
413.712167255237
 30
0.0
 40
3.0
100
AcDbArc
 50
270.0
 51
5.689685104220901
  0
LINE
  5
581
102
{ACAD_REACTORS
330
57E
102
}
330
1E
100
AcDbEntity
  8
STEMPEL
100
AcDbLine
 10
304.1973649665459
 20
425.5221611302756
 30
0.0
 11
293.3754994138923
 21
413.712167255237
 31
0.0
  0
LINE
  5
582
102
{ACAD_REACTORS
330
57E
102
}
330
1E
100
AcDbEntity
  8
STEMPEL
100
AcDbLine
 10
305.671919640166
 20
424.1709807150441
 30
0.0
 11
295.543215213448
 21
413.11743946935
 31
0.0
  0
ARC
  5
584
330
1E
100
AcDbEntity
  8
SCHRAFF
100
AcDbCircle
 10
293.5754994138921
 20
565.1174394693514
 30
0.0
 40
3.5
100
AcDbArc
 50
250.3769335251439
 51
10.15009542095269
  0
HATCH
  5
586
330
1E
100
AcDbEntity
  8
SCHRAFF
100
AcDbHatch
 10
0.0
 20
0.0
 30
0.0
210
0.0
220
0.0
230
1.0
  2
_U
 70
     0
 71
     0
 91
        2
 92
        7
 72
     1
 73
     1
 93
        4
 10
208.0025729569083
 20
564.5690455827755
 42
0.0
 10
207.6490195663149
 20
564.2154921921822
 42
0.0
 10
206.1302762503601
 20
565.7342355081366
 42
0.5760313318603869
 10
210.7509072196126
 20
561.8207113200719
 42
0.0
 97
        0
 92
        7
 72
     1
 73
     1
 93
        4
 10
297.0207225774243
 20
565.7342355081371
 42
0.0
 10
295.4897129762649
 20
564.2032259069778
 42
0.0
 10
295.1361595856714
 20
564.5567792975714
 42
0.0
 10
292.4000916081716
 20
561.8207113200719
 42
0.5760313318604339
 97
        0
 75
     0
 76
     0
 52
0.0
 41
0.1
 77
     0
 78
     1
 53
0.0
 43
28.63674848197729
 44
121.9883951241793
 45
0.0
 46
0.1
 79
     0
 47
0.1173469678841337
 98
        2
 10
208.1528424837429
 20
562.9186154404101
 10
294.941638481157
 20
562.8012683778958
  0
LINE
  5
588
102
{ACAD_REACTORS
330
57E
330
FE2
102
}
330
1E
100
AcDbEntity
  8
STEMPEL
100
AcDbLine
 10
292.2085388862571
 20
428.1174394693502
 30
0.0
 11
374.0754994138919
 21
428.11743946935
 31
0.0
  0
LINE
  5
58B
330
1E
100
AcDbEntity
  8
STEMPEL
100
AcDbLine
 10
291.6842643390365
 20
434.11743946935
 30
0.0
 11
376.8365637475952
 21
434.1174394693498
 31
0.0
  0
LINE
  5
58C
330
1E
100
AcDbEntity
  8
STEMPEL
100
AcDbLine
 10
288.0754994138931
 20
440.1174394693509
 30
0.0
 11
360.4176421893185
 21
440.117439469351
 31
0.0
  0
LINE
  5
58D
330
1E
100
AcDbEntity
  8
STEMPEL
100
AcDbLine
 10
288.0754994138931
 20
440.1174394693509
 30
0.0
 11
360.4176421893186
 21
440.117439469351
 31
0.0
  0
HATCH
  5
58E
330
1E
100
AcDbEntity
  8
SCHRAFF
100
AcDbHatch
 10
0.0
 20
0.0
 30
0.0
210
0.0
220
0.0
230
1.0
  2
_USER
 70
     0
 71
     0
 91
        7
 92
        7
 72
     1
 73
     1
 93
        4
 10
139.5754994138918
 20
440.1174394693508
 42
1.0
 10
139.5754994138918
 20
434.1174394693501
 42
0.0
 10
155.0754994138917
 20
434.1174394693501
 42
0.0
 10
155.0754994138918
 20
440.1174394693508
 42
0.0
 97
        0
 92
        7
 72
     1
 73
     1
 93
        4
 10
168.0754994138918
 20
440.1174394693508
 42
0.0
 10
168.0754994138918
 20
434.1174394693501
 42
0.0
 10
186.0754994138921
 20
434.1174394693501
 42
1.0
 10
186.0754994138921
 20
440.1174394693508
 42
0.0
 97
        0
 92
        7
 72
     1
 73
     1
 93
        4
 10
317.0754994138917
 20
434.11743946935
 42
0.0
 10
322.9754994138918
 20
434.11743946935
 42
0.0
 10
322.9754994138918
 20
440.117439469351
 42
0.0
 10
317.0754994138917
 20
440.117439469351
 42
1.0
 97
        0
 92
        7
 72
     1
 73
     1
 93
        7
 10
322.9754994138919
 20
440.117439469351
 42
0.0
 10
322.9754994138919
 20
434.1174394693498
 42
0.0
 10
370.5754994138918
 20
434.1174394693498
 42
0.0
 10
370.5754994138916
 20
454.1174394693515
 42
0.0
 10
365.5754994138917
 20
454.1174394693515
 42
0.0
 10
365.4168806651005
 20
445.0301774371647
 42
-0.4091108014277173
 10
360.4176421893185
 20
440.117439469351
 42
0.0
 97
        0
 92
        7
 72
     1
 73
     1
 93
        5
 10
381.5754994138917
 20
454.1174394693515
 42
0.0
 10
376.5754994138905
 20
454.1174394693515
 42
0.0
 10
376.5754994138923
 20
434.1174394693498
 42
0.0
 10
376.8365637475963
 20
434.1174394693498
 42
0.4193348017583005
 10
381.835802223377
 20
439.2047015015362
 42
0.0
 97
        0
 92
        7
 72
     0
 73
     1
 93
        4
 10
376.5754994138905
 20
454.1174394693515
 10
375.9254994138915
 20
454.1174394693515
 10
375.9254994138918
 20
434.1174394693498
 10
376.5754994138924
 20
434.1174394693498
 97
        0
 92
        7
 72
     0
 73
     1
 93
        4
 10
371.2254994138917
 20
454.1174394693515
 10
370.5754994138916
 20
454.1174394693515
 10
370.5754994138916
 20
434.1174394693498
 10
371.2254994138917
 20
434.1174394693498
 97
        0
 75
     0
 76
     0
 52
135.0
 41
5.0
 77
     0
 78
     1
 53
135.0
 43
0.0000000000002274
 44
-0.0000000000001705
 45
-3.535533905932737
 46
-3.535533905932737
 79
     0
 47
0.1103864733436293
 98
        7
 10
145.2998211952928
 20
437.9130845762374
 10
176.8196338895687
 20
437.4931185375299
 10
315.086552930759
 20
436.6531845043371
 10
329.3755357421079
 20
437.4931185375299
 10
380.2275050582308
 20
448.8322152730771
 10
376.3533497089453
 20
446.4672051322734
 10
370.9405766429142
 20
451.5449841506661
  0
HATCH
  5
5A2
330
1E
100
AcDbEntity
  8
SCHRAFF
100
AcDbHatch
 10
0.0
 20
0.0
 30
0.0
210
0.0
220
0.0
230
1.0
  2
_USER
 70
     0
 71
     1
 91
        2
 92
        7
 72
     1
 73
     1
 93
       20
 10
212.275499413894
 20
316.5061658867676
 42
0.1346873523285358
 10
213.955499413894
 20
310.3826374921246
 42
-0.134687352328547
 10
215.0754994138941
 20
306.3002852290291
 42
0.0
 10
215.0754994138922
 20
133.0519480549883
 42
0.0
 10
215.5072129752069
 20
128.1174394693501
 42
0.0
 10
217.0129427315219
 20
128.1174394693501
 42
0.0
 10
216.5754994138922
 20
133.1174394693505
 42
0.0
 10
216.575499413894
 20
306.3002852290293
 42
0.1346873523285402
 10
215.245499413894
 20
311.148078541455
 42
-0.1346873523285376
 10
213.775499413894
 20
316.5061658867676
 42
0.0
 10
213.7754994138922
 20
391.6174394693506
 42
0.0926930603363569
 10
212.8633055293951
 20
396.4956704190397
 42
-0.0934034108731629
 10
211.2754994138921
 20
405.0536394361484
 42
0.0
 10
211.2754994138921
 20
420.5685170622321
 42
-0.1093332246020502
 10
213.4700259253123
 20
430.4845041249215
 42
0.0
 10
212.1101020856166
 20
431.117439469351
 42
0.1093332246020707
 10
209.7754994138921
 20
420.5685170622327
 42
0.0
 10
209.7754994138921
 20
404.9191594211499
 42
0.0920044384189743
 10
211.4646604054504
 20
395.9536447579631
 42
-0.0926930603363508
 10
212.2754994138921
 20
391.6174394693509
 42
0.0
 97
       20
330
5CC
330
5CA
330
5AA
330
6C2
330
6C1
330
6BD
330
5AB
330
5CB
330
5CD
330
5C2
330
5C8
330
5C7
330
5B3
330
5B8
330
5B7
330
5B9
330
5B2
330
5C6
330
5C9
330
5C3
 92
        7
 72
     1
 73
     1
 93
       20
 10
289.37549941389
 20
316.5061658867676
 42
-0.1346873523285325
 10
287.9054994138901
 20
311.1480785414551
 42
0.1346873523285118
 10
286.5754994138941
 20
306.3002852290294
 42
0.0
 10
286.5754994138922
 20
133.1174394693581
 42
0.0
 10
286.1380560962619
 20
128.1174394693501
 42
0.0
 10
287.6437858525768
 20
128.1174394693501
 42
0.0
 10
288.0754994138922
 20
133.0519480549964
 42
0.0
 10
288.0754994138941
 20
306.3002852290296
 42
-0.1346873523284942
 10
289.1954994138901
 20
310.3826374921246
 42
0.1346873523285353
 10
290.87549941389
 20
316.5061658867676
 42
0.0
 10
290.875499413892
 20
391.6174394693506
 42
-0.0926930603363671
 10
291.686338422334
 20
395.9536447579635
 42
0.0920044384190862
 10
293.375499413892
 20
404.9191594211615
 42
0.0
 10
293.375499413892
 20
420.5685170622321
 42
0.109333224602077
 10
291.0408967421675
 20
431.117439469351
 42
0.0
 10
289.680972902472
 20
430.4845041249215
 42
-0.1093332246020444
 10
291.875499413892
 20
420.5685170622326
 42
0.0
 10
291.875499413892
 20
405.0536394361468
 42
-0.0934034108731535
 10
290.2876932983887
 20
396.4956704190391
 42
0.0926930603363346
 10
289.375499413892
 20
391.6174394693511
 42
0.0
 97
       20
330
5DF
330
5DE
330
5A8
330
6CA
330
6CE
330
6C9
330
5A9
330
5DD
330
5E0
330
5D6
330
5DC
330
5DA
330
5B4
330
5BA
330
5B7
330
5BB
330
5B5
330
5DB
330
5D9
330
5D5
 75
     0
 76
     0
 52
45.0
 41
2.0
 77
     0
 78
     1
 53
45.0
 43
0.0000000000002274
 44
-0.0000000000001705
 45
-1.414213562373094
 46
1.414213562373095
 79
     0
 47
0.5341172407613316
 98
        2
 10
213.2158122985986
 20
340.6285111199405
 10
289.6461026791497
 20
350.7767378108652
  0
HATCH
  5
5A3
330
1E
100
AcDbEntity
  8
SCHRAFF
100
AcDbHatch
 10
0.0
 20
0.0
 30
0.0
210
0.0
220
0.0
230
1.0
  2
_USER
 70
     0
 71
     0
 91
        2
 92
        7
 72
     1
 73
     1
 93
       10
 10
216.5754994138937
 20
555.4250513139248
 42
0.1989123673796638
 10
214.6716934916067
 20
560.0212453916376
 42
0.0
 10
209.0632331286881
 20
565.6297057545555
 42
0.0
 10
208.0025729569084
 20
564.5690455827757
 42
0.0
 10
213.6110333198269
 20
558.9605852198578
 42
-0.1989123673796737
 10
215.0754994138942
 20
555.4250513139248
 42
0.0
 10
215.0754994138922
 20
323.0519480549868
 42
0.0
 10
215.5072129752068
 20
318.11743946935
 42
0.0
 10
217.0129427315217
 20
318.11743946935
 42
0.0
 10
216.575499413892
 20
323.1174394693497
 42
0.0
 97
        0
 92
        7
 72
     1
 73
     1
 93
       10
 10
288.0754994138943
 20
555.4250513139252
 42
-0.1989123673795876
 10
289.5399655079575
 20
558.9605852198583
 42
0.0
 10
295.1361595856716
 20
564.5567792975716
 42
0.0
 10
294.0754994138922
 20
565.6174394693514
 42
0.0
 10
288.4793053361779
 20
560.0212453916379
 42
0.1989123673796076
 10
286.5754994138942
 20
555.4250513139249
 42
0.0
 10
286.575499413892
 20
323.1174394693562
 42
0.0
 10
286.1380560962616
 20
318.11743946935
 42
0.0
 10
287.6437858525767
 20
318.11743946935
 42
0.0
 10
288.075499413892
 20
323.0519480549968
 42
0.0
 97
        0
 75
     0
 76
     0
 52
135.0
 41
2.0
 77
     0
 78
     1
 53
135.0
 43
0.0000000000002274
 44
-0.0000000000001705
 45
-1.414213562373095
 46
-1.414213562373094
 79
     0
 47
0.6632054384004947
 98
        2
 10
216.1671786191675
 20
549.9927572546067
 10
287.1780301030424
 20
553.3087839853228
  0
LINE
  5
5A4
102
{ACAD_REACTORS
330
57E
102
}
330
1E
100
AcDbEntity
  8
STEMPEL
100
AcDbLine
 10
198.953633861238
 20
425.5221611302756
 30
0.0
 11
209.7754994138924
 21
413.7121672552367
 31
0.0
  0
LINE
  5
5A5
102
{ACAD_REACTORS
330
57E
102
}
330
1E
100
AcDbEntity
  8
STEMPEL
100
AcDbLine
 10
197.4790791876179
 20
424.1709807150441
 30
0.0
 11
207.607783614336
 21
413.11743946935
 31
0.0
  0
HATCH
  5
5A6
330
1E
100
AcDbEntity
  8
SCHRAFF
100
AcDbHatch
 10
0.0
 20
0.0
 30
0.0
210
0.0
220
0.0
230
1.0
  2
NET
 70
     0
 71
     0
 91
        2
 92
        7
 72
     1
 73
     1
 93
       13
 10
288.0754994138928
 20
414.4949404701545
 42
0.128517640521409
 10
289.2835986574373
 20
416.1174394693508
 42
0.075813045109402
 10
289.5621493557915
 20
417.2909088571061
 42
-1.021524369171772
 10
290.922131190385
 20
417.4871462526091
 42
0.0
 10
291.3038523181737
 20
415.6608125335933
 42
0.0
 10
291.875499413892
 20
415.6608125335933
 42
0.0
 10
291.875499413892
 20
420.5685170622321
 42
0.1093332246020502
 10
289.6809729024719
 20
430.4845041249215
 42
0.0
 10
291.0408967421675
 20
431.117439469351
 42
0.0
 10
293.3754994138896
 20
431.1174394693508
 42
0.0
 10
290.8436726466669
 20
435.6085243661834
 42
0.7040385315423109
 10
288.9877531763054
 20
435.2910876470178
 42
0.0
 10
288.0754994138929
 20
430.1174394693709
 42
0.0
 97
        0
 92
        7
 72
     1
 73
     1
 93
       13
 10
215.0754994138931
 20
430.1174394693306
 42
0.0
 10
214.1632456514737
 20
435.2910876470178
 42
0.7040385315425906
 10
212.3073261811121
 20
435.6085243661834
 42
0.0
 10
209.7754994138895
 20
431.1174394693509
 42
0.0
 10
212.1101020856166
 20
431.117439469351
 42
0.0
 10
213.4700259253122
 20
430.4845041249215
 42
0.109333224602045
 10
211.2754994138921
 20
420.5685170622325
 42
0.0
 10
211.2754994138921
 20
415.6608125335933
 42
0.0
 10
211.8471465096052
 20
415.6608125335934
 42
0.0
 10
212.2288676373938
 20
417.4871462526077
 42
-1.021524369174619
 10
213.5888494719874
 20
417.290908857106
 42
0.0758130451093995
 10
213.8674001703416
 20
416.1174394693508
 42
0.1285176405219647
 10
215.0754994138929
 20
414.494940470149
 42
0.0
 97
        0
 75
     0
 76
     1
 52
45.0
 41
15.0
 77
     0
 78
     2
 53
45.0
 43
20.17268000242052
 44
-67.90875063864115
 45
-1.325825214724776
 46
1.325825214724776
 79
     0
 53
135.0
 43
20.17268000242052
 44
-67.90875063864115
 45
-1.325825214724776
 46
-1.325825214724776
 79
     0
 47
0.2686080656016512
 98
        2
 10
289.1622795879905
 20
423.1125023446283
 10
214.1675204759983
 20
422.8438939195652
  0
DIMENSION
  5
5A7
330
1E
100
AcDbEntity
  8
BEM
100
AcDbDimension
  2
*D1
 10
99.83346326163905
 20
428.1174394693502
 30
0.0
 11
93.33346326163896
 21
278.1174394693502
 31
0.0
 70
    32
 71
     5
 42
300.0000000000001
  3
Standard
100
AcDbAlignedDimension
 13
215.5072129752068
 23
128.1174394693501
 33
0.0
 14
129.0754994138918
 24
428.1174394693501
 34
0.0
 50
90.0
100
AcDbRotatedDimension
1001
ACAD
1000
DSTYLE
1002
{
1070
    40
1040
2.0
1070
    41
1040
3.5
1070
    42
1040
1.0
1070
    43
1040
7.0
1070
    44
1040
1.0
1070
    47
1040
2.0
1070
    48
1040
2.0
1070
    73
1070
     0
1070
    74
1070
     0
1070
    77
1070
     1
1070
    78
1070
     8
1070
    79
1070
     2
1070
   140
1040
3.5
1070
   141
1040
1.5
1070
   146
1040
0.5142857142857144
1070
   147
1040
1.5
1070
   172
1070
     1
1070
   178
1070
     1
1070
   179
1070
     2
1070
   279
1070
     0
1002
}
  0
LINE
  5
5A8
102
{ACAD_REACTORS
330
5A2
102
}
330
1E
100
AcDbEntity
  8
STEMPEL
  6
Continuous
100
AcDbLine
 10
293.375499413892
 20
420.5685170622321
 30
0.0
 11
293.375499413892
 21
405.0557195175413
 31
0.0
  0
LINE
  5
5A9
102
{ACAD_REACTORS
330
5A2
102
}
330
1E
100
AcDbEntity
  8
STEMPEL
  6
Continuous
100
AcDbLine
 10
291.875499413892
 20
420.5685170622321
 30
0.0
 11
291.875499413892
 21
404.9212395025596
 31
0.0
  0
LINE
  5
5AA
102
{ACAD_REACTORS
330
5A2
102
}
330
1E
100
AcDbEntity
  8
STEMPEL
  6
Continuous
100
AcDbLine
 10
211.2754994138921
 20
420.5685170622321
 30
0.0
 11
211.2754994138921
 21
404.9212395025596
 31
0.0
  0
LINE
  5
5AB
102
{ACAD_REACTORS
330
5A2
102
}
330
1E
100
AcDbEntity
  8
STEMPEL
  6
Continuous
100
AcDbLine
 10
209.7754994138921
 20
420.5685170622321
 30
0.0
 11
209.7754994138921
 21
405.0557195175413
 31
0.0
  0
LINE
  5
5AC
330
1E
100
AcDbEntity
  8
STEMPEL
  6
Continuous
100
AcDbLine
 10
288.0754994138943
 20
555.4250513139252
 30
0.0
 11
288.075499413892
 21
323.0519480549968
 31
0.0
  0
LINE
  5
5AD
330
1E
100
AcDbEntity
  8
STEMPEL
  6
Continuous
100
AcDbLine
 10
286.5754994138942
 20
555.4250513139252
 30
0.0
 11
286.575499413892
 21
323.1174394693562
 31
0.0
  0
LINE
  5
5AE
330
1E
100
AcDbEntity
  8
STEMPEL
  6
Continuous
100
AcDbLine
 10
215.0754994138942
 20
555.4250513139249
 30
0.0
 11
215.0754994138922
 21
323.0519480549876
 31
0.0
  0
LINE
  5
5AF
330
1E
100
AcDbEntity
  8
STEMPEL
  6
Continuous
100
AcDbLine
 10
216.5754994138937
 20
555.4250513139248
 30
0.0
 11
216.575499413892
 21
323.11743946935
 31
0.0
  0
LINE
  5
5B0
330
1E
100
AcDbEntity
  8
MITTEL
100
AcDbLine
 10
251.5754994138918
 20
700.6174394693509
 30
0.0
 11
251.5754994138919
 21
123.1174394693501
 31
0.0
  0
DIMENSION
  5
5B1
330
1E
100
AcDbEntity
  8
BEM
100
AcDbDimension
  2
*D2
 10
288.0754994138921
 20
110.1952762542606
 30
0.0
 11
251.5754994138922
 21
116.6952762542606
 31
0.0
 70
    32
  1
%%c<>
 71
     5
 42
72.99999999999989
  3
Standard
100
AcDbAlignedDimension
 13
215.0754994138922
 23
133.0519480549881
 33
0.0
 14
288.0754994138921
 24
133.0519480549879
 34
0.0
100
AcDbRotatedDimension
1001
ACAD
1000
DSTYLE
1002
{
1070
    40
1040
2.0
1070
    41
1040
3.5
1070
    42
1040
1.0
1070
    43
1040
7.0
1070
    44
1040
1.0
1070
    47
1040
0.7
1070
    48
1040
0.7
1070
    73
1070
     0
1070
    74
1070
     0
1070
    77
1070
     1
1070
    78
1070
     8
1070
    79
1070
     2
1070
   140
1040
3.5
1070
   141
1040
1.5
1070
   147
1040
1.5
1070
   172
1070
     1
1070
   178
1070
     1
1070
   179
1070
     2
1070
   279
1070
     0
1002
}
  0
LINE
  5
5B2
102
{ACAD_REACTORS
330
5A2
102
}
330
1E
100
AcDbEntity
  8
STEMPEL
  6
Continuous
100
AcDbLine
 10
216.575499413894
 20
306.3002852290293
 30
0.0
 11
216.5754994138922
 21
133.1174394693502
 31
0.0
  0
LINE
  5
5B3
102
{ACAD_REACTORS
330
5A2
102
}
330
1E
100
AcDbEntity
  8
STEMPEL
  6
Continuous
100
AcDbLine
 10
215.0754994138941
 20
306.3002852290294
 30
0.0
 11
215.0754994138922
 21
133.0519480549881
 31
0.0
  0
LINE
  5
5B4
102
{ACAD_REACTORS
330
5A2
102
}
330
1E
100
AcDbEntity
  8
STEMPEL
  6
Continuous
100
AcDbLine
 10
286.5754994138941
 20
306.3002852290295
 30
0.0
 11
286.5754994138922
 21
133.1174394693584
 31
0.0
  0
LINE
  5
5B5
102
{ACAD_REACTORS
330
5A2
102
}
330
1E
100
AcDbEntity
  8
STEMPEL
  6
Continuous
100
AcDbLine
 10
288.0754994138941
 20
306.3002852290296
 30
0.0
 11
288.0754994138922
 21
133.1174394693502
 31
0.0
  0
LINE
  5
5B6
330
1E
100
AcDbEntity
  8
HILF
100
AcDbLine
 10
285.0697696575764
 20
133.1174394693502
 30
0.0
 11
218.0812291702073
 21
133.1174394693502
 31
0.0
  0
LINE
  5
5B7
102
{ACAD_REACTORS
330
5A2
102
}
330
1E
100
AcDbEntity
  8
STEMPEL
100
AcDbLine
 10
287.6437858525768
 20
128.1174394693501
 30
0.0
 11
215.5072129752068
 21
128.1174394693501
 31
0.0
  0
LINE
  5
5B8
102
{ACAD_REACTORS
330
5A2
102
}
330
1E
100
AcDbEntity
  8
STEMPEL
100
AcDbLine
 10
215.0754994138922
 20
133.0519480549881
 30
0.0
 11
215.5072129752068
 21
128.1174394693501
 31
0.0
  0
LINE
  5
5B9
102
{ACAD_REACTORS
330
5A2
102
}
330
1E
100
AcDbEntity
  8
STEMPEL
100
AcDbLine
 10
216.5754994138922
 20
133.1174394693502
 30
0.0
 11
217.0129427315219
 21
128.1174394693501
 31
0.0
  0
LINE
  5
5BA
102
{ACAD_REACTORS
330
5A2
102
}
330
1E
100
AcDbEntity
  8
STEMPEL
100
AcDbLine
 10
286.5754994138922
 20
133.1174394693584
 30
0.0
 11
286.1380560962619
 21
128.1174394693501
 31
0.0
  0
LINE
  5
5BB
102
{ACAD_REACTORS
330
5A2
102
}
330
1E
100
AcDbEntity
  8
STEMPEL
100
AcDbLine
 10
288.069791461029
 20
132.9867058552287
 30
0.0
 11
287.6437858525768
 21
128.1174394693501
 31
0.0
  0
HATCH
  5
5BC
330
1E
100
AcDbEntity
  8
SCHRAFF
100
AcDbHatch
 10
0.0
 20
0.0
 30
0.0
210
0.0
220
0.0
230
1.0
  2
_USER
 70
     0
 71
     0
 91
        2
 92
        7
 72
     1
 73
     1
 93
        5
 10
209.7754994138924
 20
413.7121672552368
 42
0.0
 10
209.0823382879563
 20
414.4686198845813
 42
0.0
 10
207.6077836143361
 20
413.1174394693501
 42
0.0
 10
206.7902791111103
 20
414.0095890833826
 42
0.4436072552951912
 10
209.7754994138924
 20
410.7121672552367
 42
0.0
 97
        0
 92
        7
 72
     1
 73
     1
 93
        5
 10
296.3607197166742
 20
414.0095890833832
 42
0.0
 10
295.5432152134481
 20
413.1174394693501
 42
0.0
 10
294.0686605398279
 20
414.4686198845813
 42
0.0
 10
293.3754994138923
 20
413.712167255237
 42
0.0
 10
293.3754994138923
 20
410.7121672552371
 42
0.4436072552951932
 97
        0
 75
     0
 76
     0
 52
45.0
 41
0.1
 77
     0
 78
     1
 53
45.0
 43
31.08896478471513
 44
-36.59366315087996
 45
-0.0707106781186548
 46
0.0707106781186548
 79
     0
 47
0.1418006302582077
 98
        2
 10
208.5623145631715
 20
412.1652620753601
 10
294.8418672175502
 20
412.5906645374904
  0
LINE
  5
5BD
330
1E
100
AcDbEntity
  8
HILF
  6
Continuous
100
AcDbLine
 10
217.8217648895337
 20
309.2409118554063
 30
0.0
 11
285.3292339382541
 21
309.2409118554063
 31
0.0
  0
LINE
  5
5BE
330
1E
100
AcDbEntity
  8
HILF
  6
Continuous
100
AcDbLine
 10
216.0383709583675
 20
313.7626337791187
 30
0.0
 11
287.1126278694164
 21
313.7626337791187
 31
0.0
  0
LINE
  5
5BF
330
1E
100
AcDbEntity
  8
HILF
100
AcDbLine
 10
285.0697696575764
 20
323.11743946935
 30
0.0
 11
218.081229170207
 21
323.11743946935
 31
0.0
  0
LINE
  5
5C0
330
1E
100
AcDbEntity
  8
STEMPEL
100
AcDbLine
 10
287.5505982134626
 20
318.1161449156225
 30
0.0
 11
215.600400614321
 21
318.1161449156225
 31
0.0
  0
LINE
  5
5C1
330
1E
100
AcDbEntity
  8
STEMPEL
100
AcDbLine
 10
287.6437858525767
 20
318.11743946935
 30
0.0
 11
215.5072129752068
 21
318.11743946935
 31
0.0
  0
LINE
  5
5C2
102
{ACAD_REACTORS
330
5A2
102
}
330
1E
100
AcDbEntity
  8
STEMPEL
  6
Continuous
100
AcDbLine
 10
212.2754994138921
 20
391.6174394693506
 30
0.0
 11
212.275499413894
 21
316.5061658867676
 31
0.0
  0
LINE
  5
5C3
102
{ACAD_REACTORS
330
5A2
102
}
330
1E
100
AcDbEntity
  8
STEMPEL
  6
Continuous
100
AcDbLine
 10
213.7754994138922
 20
391.6174394693506
 30
0.0
 11
213.775499413894
 21
316.5061658867676
 31
0.0
  0
LINE
  5
5C4
330
1E
100
AcDbEntity
  8
STEMPEL
100
AcDbLine
 10
215.0754994138922
 20
323.0519480549876
 30
0.0
 11
215.5072129752068
 21
318.11743946935
 31
0.0
  0
LINE
  5
5C5
330
1E
100
AcDbEntity
  8
STEMPEL
100
AcDbLine
 10
216.575499413892
 20
323.11743946935
 30
0.0
 11
217.0129427315217
 21
318.11743946935
 31
0.0
  0
ARC
  5
5C6
102
{ACAD_REACTORS
330
5A2
102
}
330
1E
100
AcDbEntity
  8
STEMPEL
  6
Continuous
100
AcDbCircle
 10
207.0754994138944
 20
306.3002852290294
 30
0.0
 40
9.499999999999602
100
AcDbArc
 50
359.9999999999992
 51
30.68341710897484
  0
ARC
  5
5C7
102
{ACAD_REACTORS
330
5A2
102
}
330
1E
100
AcDbEntity
  8
STEMPEL
  6
Continuous
100
AcDbCircle
 10
207.0754994138944
 20
306.3002852290295
 30
0.0
 40
7.999999999999658
100
AcDbArc
 50
359.9999999999984
 51
30.68341710897484
  0
ARC
  5
5C8
102
{ACAD_REACTORS
330
5A2
102
}
330
1E
100
AcDbEntity
  8
STEMPEL
  6
Continuous
100
AcDbCircle
 10
224.275499413894
 20
316.5061658867676
 30
0.0
 40
12.0
100
AcDbArc
 50
180.0
 51
210.6834171089748
  0
ARC
  5
5C9
102
{ACAD_REACTORS
330
5A2
102
}
330
1E
100
AcDbEntity
  8
STEMPEL
  6
Continuous
100
AcDbCircle
 10
224.275499413894
 20
316.5061658867676
 30
0.0
 40
10.5
100
AcDbArc
 50
180.0
 51
210.6834171089748
  0
ARC
  5
5CA
102
{ACAD_REACTORS
330
5A2
102
}
330
1E
100
AcDbEntity
  8
STEMPEL
  6
Continuous
100
AcDbCircle
 10
234.7754994138921
 20
404.9874394693506
 30
0.0
 40
23.50009324312573
100
AcDbArc
 50
179.8435140456689
 51
201.183154393037
  0
ARC
  5
5CB
102
{ACAD_REACTORS
330
5A2
102
}
330
1E
100
AcDbEntity
  8
STEMPEL
  6
Continuous
100
AcDbCircle
 10
234.7754994138921
 20
404.9874394693506
 30
0.0
 40
25.00009324312574
100
AcDbArc
 50
179.8435140456689
 51
201.183154393037
  0
ARC
  5
5CC
102
{ACAD_REACTORS
330
5A2
102
}
330
1E
100
AcDbEntity
  8
STEMPEL
  6
Continuous
100
AcDbCircle
 10
200.2754994138921
 20
391.6174394693506
 30
0.0
 40
13.5
100
AcDbArc
 50
0.0
 51
21.18315439303776
  0
ARC
  5
5CD
102
{ACAD_REACTORS
330
5A2
102
}
330
1E
100
AcDbEntity
  8
STEMPEL
  6
Continuous
100
AcDbCircle
 10
200.2754994138921
 20
391.6174394693506
 30
0.0
 40
12.0
100
AcDbArc
 50
0.0
 51
21.18315439303776
  0
ARC
  5
5CE
330
1E
100
AcDbEntity
  8
SCHRAFF
100
AcDbCircle
 10
209.7754994138924
 20
413.7121672552367
 30
0.0
 40
3.0
100
AcDbArc
 50
174.3103148957807
 51
270.0
  0
LINE
  5
5CF
102
{ACAD_REACTORS
330
57E
102
}
330
1E
100
AcDbEntity
  8
STEMPEL
100
AcDbLine
 10
207.607783614336
 20
413.11743946935
 30
0.0
 11
209.0823382879563
 21
414.4686198845813
 31
0.0
  0
ARC
  5
5D0
330
1E
100
AcDbEntity
  8
STEMPEL
100
AcDbCircle
 10
217.5754994138895
 20
417.6174394693509
 30
0.0
 40
4.0
100
AcDbArc
 50
184.6824168622704
 51
202.0243128370452
  0
ARC
  5
5D1
330
1E
100
AcDbEntity
  8
STEMPEL
100
AcDbCircle
 10
217.5754994138895
 20
417.6174394693509
 30
0.0
 40
4.0
100
AcDbArc
 50
202.0243128370452
 51
231.3178125465766
  0
LINE
  5
5D2
330
1E
100
AcDbEntity
  8
STEMPEL
100
AcDbLine
 10
211.8471465096052
 20
415.6608125335933
 30
0.0
 11
212.2524683360509
 21
417.6000631141906
 31
0.0
  0
LINE
  5
5D3
330
1E
100
AcDbEntity
  8
STEMPEL
100
AcDbLine
 10
211.2754994138895
 20
415.6608125335933
 30
0.0
 11
214.0867158100718
 21
415.6608125335933
 31
0.0
  0
ARC
  5
5D4
330
1E
100
AcDbEntity
  8
STEMPEL
100
AcDbCircle
 10
212.9109482475642
 20
417.4035097300848
 30
0.0
 40
0.6871892218815297
100
AcDbArc
 50
350.569149099932
 51
163.3798649374571
  0
LINE
  5
5D5
102
{ACAD_REACTORS
330
5A2
102
}
330
1E
100
AcDbEntity
  8
STEMPEL
  6
Continuous
100
AcDbLine
 10
290.875499413892
 20
391.6174394693506
 30
0.0
 11
290.87549941389
 21
316.5061658867676
 31
0.0
  0
LINE
  5
5D6
102
{ACAD_REACTORS
330
5A2
102
}
330
1E
100
AcDbEntity
  8
STEMPEL
  6
Continuous
100
AcDbLine
 10
289.375499413892
 20
391.6174394693506
 30
0.0
 11
289.37549941389
 21
316.5061658867676
 31
0.0
  0
LINE
  5
5D7
330
1E
100
AcDbEntity
  8
STEMPEL
100
AcDbLine
 10
286.575499413892
 20
323.1174394693562
 30
0.0
 11
286.1380560962616
 21
318.11743946935
 31
0.0
  0
LINE
  5
5D8
330
1E
100
AcDbEntity
  8
STEMPEL
100
AcDbLine
 10
288.075499413892
 20
323.0519480549968
 30
0.0
 11
287.6437858525767
 21
318.11743946935
 31
0.0
  0
ARC
  5
5D9
102
{ACAD_REACTORS
330
5A2
102
}
330
1E
100
AcDbEntity
  8
STEMPEL
  6
Continuous
100
AcDbCircle
 10
278.87549941389
 20
316.5061658867676
 30
0.0
 40
12.0
100
AcDbArc
 50
329.3165828910252
 51
0.0
  0
ARC
  5
5DA
102
{ACAD_REACTORS
330
5A2
102
}
330
1E
100
AcDbEntity
  8
STEMPEL
  6
Continuous
100
AcDbCircle
 10
296.0754994138896
 20
306.3002852290294
 30
0.0
 40
9.499999999999602
100
AcDbArc
 50
149.3165828910251
 51
180.0000000000008
  0
ARC
  5
5DB
102
{ACAD_REACTORS
330
5A2
102
}
330
1E
100
AcDbEntity
  8
STEMPEL
  6
Continuous
100
AcDbCircle
 10
296.0754994138898
 20
306.3002852290295
 30
0.0
 40
7.999999999999658
100
AcDbArc
 50
149.3165828910251
 51
180.0000000000016
  0
ARC
  5
5DC
102
{ACAD_REACTORS
330
5A2
102
}
330
1E
100
AcDbEntity
  8
STEMPEL
  6
Continuous
100
AcDbCircle
 10
278.87549941389
 20
316.5061658867676
 30
0.0
 40
10.5
100
AcDbArc
 50
329.3165828910252
 51
0.0
  0
ARC
  5
5DD
102
{ACAD_REACTORS
330
5A2
102
}
330
1E
100
AcDbEntity
  8
STEMPEL
  6
Continuous
100
AcDbCircle
 10
268.375499413892
 20
404.9874394693506
 30
0.0
 40
23.50009324312573
100
AcDbArc
 50
338.8168456069626
 51
0.1564859543310882
  0
ARC
  5
5DE
102
{ACAD_REACTORS
330
5A2
102
}
330
1E
100
AcDbEntity
  8
STEMPEL
  6
Continuous
100
AcDbCircle
 10
268.375499413892
 20
404.9874394693506
 30
0.0
 40
25.00009324312574
100
AcDbArc
 50
338.8168456069626
 51
0.1564859543310882
  0
ARC
  5
5DF
102
{ACAD_REACTORS
330
5A2
102
}
330
1E
100
AcDbEntity
  8
STEMPEL
  6
Continuous
100
AcDbCircle
 10
302.8754994138921
 20
391.6174394693506
 30
0.0
 40
12.0
100
AcDbArc
 50
158.8168456069622
 51
180.0
  0
ARC
  5
5E0
102
{ACAD_REACTORS
330
5A2
102
}
330
1E
100
AcDbEntity
  8
STEMPEL
  6
Continuous
100
AcDbCircle
 10
302.8754994138921
 20
391.6174394693506
 30
0.0
 40
13.5
100
AcDbArc
 50
158.8168456069622
 51
180.0
  0
LINE
  5
5E1
330
1E
100
AcDbEntity
  8
STEMPEL
100
AcDbLine
 10
291.3038523181738
 20
415.6608125335933
 30
0.0
 11
290.8985304917282
 21
417.6000631141906
 31
0.0
  0
LINE
  5
5E2
330
1E
100
AcDbEntity
  8
STEMPEL
100
AcDbLine
 10
291.8754994138897
 20
415.6608125335933
 30
0.0
 11
289.0642830177073
 21
415.6608125335933
 31
0.0
  0
ARC
  5
5E3
330
1E
100
AcDbEntity
  8
STEMPEL
100
AcDbCircle
 10
285.5754994138895
 20
417.6174394693509
 30
0.0
 40
4.0
100
AcDbArc
 50
337.9756871629548
 51
355.3175831377287
  0
ARC
  5
5E4
330
1E
100
AcDbEntity
  8
STEMPEL
100
AcDbCircle
 10
290.2400505802148
 20
417.4035097300848
 30
0.0
 40
0.6871892218815297
100
AcDbArc
 50
16.62013506254284
 51
189.430850900068
  0
ARC
  5
5E5
330
1E
100
AcDbEntity
  8
STEMPEL
100
AcDbCircle
 10
285.5754994138895
 20
417.6174394693509
 30
0.0
 40
4.0
100
AcDbArc
 50
308.682187453548
 51
337.9756871629548
  0
LINE
  5
5E6
102
{ACAD_REACTORS
330
57E
102
}
330
1E
100
AcDbEntity
  8
STEMPEL
100
AcDbLine
 10
295.543215213448
 20
413.11743946935
 30
0.0
 11
294.0686605398279
 21
414.4686198845813
 31
0.0
  0
DIMENSION
  5
5E7
330
1E
100
AcDbEntity
  8
BEM
100
AcDbDimension
  2
*D3
 10
99.83346326163905
 20
578.1174394693501
 30
0.0
 11
93.33346326163896
 21
503.1174394693501
 31
0.0
 70
    32
  1
min.35 - max.200
 71
     5
 42
149.9999999999999
  3
Standard
100
AcDbAlignedDimension
 13
129.0754994138918
 23
428.1174394693501
 33
0.0
 14
129.0754994138917
 24
578.1174394693501
 34
0.0
 50
90.0
100
AcDbRotatedDimension
1001
ACAD
1000
DSTYLE
1002
{
1070
    40
1040
2.0
1070
    41
1040
3.5
1070
    42
1040
1.0
1070
    43
1040
7.0
1070
    44
1040
1.0
1070
    73
1070
     0
1070
    74
1070
     0
1070
    77
1070
     1
1070
    78
1070
     8
1070
    79
1070
     2
1070
   140
1040
3.5
1070
   141
1040
1.5
1070
   146
1040
0.5142857142857144
1070
   147
1040
1.5
1070
   172
1070
     1
1070
   178
1070
     1
1070
   179
1070
     2
1070
   271
1070
     2
1070
   272
1070
     2
1070
   284
1070
     8
1070
   285
1070
     8
1070
   286
1070
     8
1070
   340
1005
24
1002
}
  0
LINE
  5
5ED
330
1E
100
AcDbEntity
  8
STEMPEL
100
AcDbLine
 10
139.5754994138918
 20
440.1174394693508
 30
0.0
 11
215.0754994138932
 21
440.1174394693509
 31
0.0
  0
LINE
  5
5F0
330
1E
100
AcDbEntity
  8
STEMPEL
100
AcDbLine
 10
201.5754994138918
 20
452.1174394693501
 30
0.0
 11
211.5754994138915
 21
452.1174394693501
 31
0.0
  0
LINE
  5
5F1
330
1E
100
AcDbEntity
  8
STEMPEL
100
AcDbLine
 10
210.5754994138917
 20
453.1174394693501
 30
0.0
 11
202.5754994138917
 21
453.1174394693501
 31
0.0
  0
LINE
  5
5F4
330
1E
100
AcDbEntity
  8
STEMPEL
100
AcDbLine
 10
166.5754994138918
 20
434.1174394693501
 30
0.0
 11
211.4667344887424
 21
434.11743946935
 31
0.0
  0
LINE
  5
5F7
330
1E
100
AcDbEntity
  8
STEMPEL
100
AcDbLine
 10
139.5754994138918
 20
440.1174394693508
 30
0.0
 11
215.0754994138932
 21
440.1174394693508
 31
0.0
  0
LINE
  5
5F8
102
{ACAD_REACTORS
330
57E
330
FE2
102
}
330
1E
100
AcDbEntity
  8
STEMPEL
100
AcDbLine
 10
129.0754994138918
 20
428.1174394693501
 30
0.0
 11
210.942459941527
 21
428.1174394693502
 31
0.0
  0
LINE
  5
601
102
{ACAD_REACTORS
330
57E
102
}
330
1E
100
AcDbEntity
  8
STEMPEL
100
AcDbLine
 10
135.2930138351638
 20
426.1174394693503
 30
0.0
 11
193.0554151667574
 21
426.1174394693498
 31
0.0
  0
LINE
  5
602
330
1E
100
AcDbEntity
  8
STEMPEL
100
AcDbLine
 10
198.7684438676415
 20
422.7638860787561
 30
0.0
 11
130.4897129762647
 21
422.7638860787561
 31
0.0
  0
LINE
  5
603
330
1E
100
AcDbEntity
  8
STEMPEL
100
AcDbLine
 10
156.5754994138918
 20
452.1174394693501
 30
0.0
 11
166.5754994138916
 21
452.1174394693501
 31
0.0
  0
LINE
  5
604
330
1E
100
AcDbEntity
  8
STEMPEL
100
AcDbLine
 10
165.5754994138918
 20
453.1174394693501
 30
0.0
 11
157.5754994138918
 21
453.1174394693501
 31
0.0
  0
ARC
  5
609
102
{ACAD_REACTORS
330
57E
102
}
330
1E
100
AcDbEntity
  8
STEMPEL
100
AcDbCircle
 10
135.2930138351638
 20
422.6174394693497
 30
0.0
 40
5.499999999999851
100
AcDbArc
 50
90.0
 51
135.0000000000006
  0
ARC
  5
60A
102
{ACAD_REACTORS
330
57E
102
}
330
1E
100
AcDbEntity
  8
STEMPEL
100
AcDbCircle
 10
135.2930138351638
 20
422.6174394693497
 30
0.0
 40
3.499999999999851
100
AcDbArc
 50
90.0
 51
135.0000000000006
  0
LINE
  5
60B
330
1E
100
AcDbEntity
  8
STEMPEL
100
AcDbLine
 10
139.5754994138918
 20
434.1174394693502
 30
0.0
 11
156.5754994138918
 21
434.1174394693501
 31
0.0
  0
LINE
  5
60E
102
{ACAD_REACTORS
330
57E
102
}
330
1E
100
AcDbEntity
  8
STEMPEL
100
AcDbLine
 10
130.4897129762647
 20
422.7638860787563
 30
0.0
 11
132.8181401010107
 21
425.0923132035025
 31
0.0
  0
LINE
  5
60F
102
{ACAD_REACTORS
330
57E
102
}
330
1E
100
AcDbEntity
  8
STEMPEL
100
AcDbLine
 10
129.0754994138916
 20
424.1780996411295
 30
0.0
 11
130.4897129762645
 21
422.7638860787561
 31
0.0
  0
LINE
  5
610
102
{ACAD_REACTORS
330
57E
102
}
330
1E
100
AcDbEntity
  8
STEMPEL
100
AcDbLine
 10
129.0754994138916
 20
424.1780996411295
 30
0.0
 11
131.4039265386376
 21
426.5065267658757
 31
0.0
  0
LINE
  5
612
102
{ACAD_REACTORS
330
FE2
102
}
330
1E
100
AcDbEntity
  8
STEMPEL
100
AcDbLine
 10
129.0754994138918
 20
431.1174394693502
 30
0.0
 11
129.0754994138918
 21
428.1174394693501
 31
0.0
  0
LINE
  5
613
330
1E
100
AcDbEntity
  8
STEMPEL
100
AcDbLine
 10
157.5754994138918
 20
453.1174394693501
 30
0.0
 11
156.5754994138918
 21
452.1174394693501
 31
0.0
  0
LINE
  5
614
330
1E
100
AcDbEntity
  8
HILF
100
AcDbLine
 10
157.5754994138918
 20
453.1174394693499
 30
0.0
 11
157.5754994138918
 21
450.1174394693507
 31
0.0
  0
ARC
  5
615
330
1E
100
AcDbEntity
  8
STEMPEL
100
AcDbCircle
 10
139.5754994138918
 20
437.1174394693507
 30
0.0
 40
3.0
100
AcDbArc
 50
90.0
 51
270.0
  0
POINT
  5
616
330
1E
100
AcDbEntity
  8
BEM
100
AcDbPoint
 10
136.5754994138918
 20
437.1174394693507
 30
0.0
  0
LINE
  5
617
330
1E
100
AcDbEntity
  8
STEMPEL
100
AcDbLine
 10
155.0754994138918
 20
440.1174394693508
 30
0.0
 11
155.0754994138918
 21
434.11743946935
 31
0.0
  0
LINE
  5
618
330
1E
100
AcDbEntity
  8
STEMPEL
100
AcDbLine
 10
156.5754994138917
 20
440.1174394693508
 30
0.0
 11
156.5754994138918
 21
428.1174394693501
 31
0.0
  0
LINE
  5
619
330
1E
100
AcDbEntity
  8
HILF
100
AcDbLine
 10
157.5754994138918
 20
440.1174394693508
 30
0.0
 11
157.5754994138918
 21
428.1174394693501
 31
0.0
  0
LINE
  5
61A
102
{ACAD_REACTORS
330
FE2
102
}
330
1E
100
AcDbEntity
  8
STEMPEL
100
AcDbLine
 10
155.0754994138918
 20
431.1174394693502
 30
0.0
 11
155.0754994138918
 21
428.1174394693501
 31
0.0
  0
LINE
  5
620
330
1E
100
AcDbEntity
  8
STEMPEL
100
AcDbLine
 10
156.5754994138918
 20
452.1174394693501
 30
0.0
 11
156.5754994138918
 21
450.1174394693508
 31
0.0
  0
LINE
  5
621
330
1E
100
AcDbEntity
  8
STEMPEL
100
AcDbLine
 10
166.5754994138918
 20
452.1174394693501
 30
0.0
 11
165.5754994138918
 21
453.1174394693501
 31
0.0
  0
LINE
  5
622
102
{ACAD_REACTORS
330
57E
102
}
330
1E
100
AcDbEntity
  8
MITTEL
100
AcDbLine
 10
161.5754994138918
 20
458.1174394693501
 30
0.0
 11
161.5754994138918
 21
423.1174394693499
 31
0.0
  0
LINE
  5
623
330
1E
100
AcDbEntity
  8
HILF
100
AcDbLine
 10
165.5754994138918
 20
453.1174394693501
 30
0.0
 11
165.5754994138918
 21
450.1174394693507
 31
0.0
  0
LINE
  5
626
330
1E
100
AcDbEntity
  8
STEMPEL
100
AcDbLine
 10
168.0754994138918
 20
440.1174394693508
 30
0.0
 11
168.0754994138918
 21
434.11743946935
 31
0.0
  0
LINE
  5
627
330
1E
100
AcDbEntity
  8
HILF
100
AcDbLine
 10
165.5754994138918
 20
440.1174394693508
 30
0.0
 11
165.5754994138918
 21
428.11743946935
 31
0.0
  0
LINE
  5
628
330
1E
100
AcDbEntity
  8
STEMPEL
100
AcDbLine
 10
166.5754994138918
 20
440.1174394693508
 30
0.0
 11
166.5754994138918
 21
428.11743946935
 31
0.0
  0
LINE
  5
629
102
{ACAD_REACTORS
330
FE2
102
}
330
1E
100
AcDbEntity
  8
STEMPEL
100
AcDbLine
 10
168.0754994138918
 20
431.1174394693502
 30
0.0
 11
168.0754994138918
 21
428.11743946935
 31
0.0
  0
LINE
  5
62B
330
1E
100
AcDbEntity
  8
STEMPEL
100
AcDbLine
 10
166.5754994138918
 20
452.1174394693499
 30
0.0
 11
166.5754994138919
 21
450.1174394693508
 31
0.0
  0
LINE
  5
62E
330
1E
100
AcDbEntity
  8
STEMPEL
100
AcDbLine
 10
202.5754994138917
 20
453.1174394693501
 30
0.0
 11
201.5754994138918
 21
452.1174394693501
 31
0.0
  0
LINE
  5
62F
330
1E
100
AcDbEntity
  8
HILF
100
AcDbLine
 10
202.5754994138917
 20
453.1174394693499
 30
0.0
 11
202.5754994138918
 21
450.1174394693507
 31
0.0
  0
ARC
  5
630
330
1E
100
AcDbEntity
  8
STEMPEL
100
AcDbCircle
 10
186.0754994138921
 20
437.117439469351
 30
0.0
 40
3.0
100
AcDbArc
 50
270.0
 51
90.0
  0
LINE
  5
632
102
{ACAD_REACTORS
330
FE2
102
}
330
1E
100
AcDbEntity
  8
STEMPEL
100
AcDbLine
 10
189.0754994138918
 20
431.1174394693501
 30
0.0
 11
189.0754994138918
 21
428.1174394693501
 31
0.0
  0
ARC
  5
633
102
{ACAD_REACTORS
330
57E
102
}
330
1E
100
AcDbEntity
  8
STEMPEL
100
AcDbCircle
 10
193.0554151667573
 20
420.11743946935
 30
0.0
 40
8.0
100
AcDbArc
 50
42.50000000000558
 51
90.0
  0
ARC
  5
634
102
{ACAD_REACTORS
330
57E
102
}
330
1E
100
AcDbEntity
  8
STEMPEL
100
AcDbCircle
 10
193.0554151667573
 20
420.11743946935
 30
0.0
 40
6.0
100
AcDbArc
 50
42.50000000000558
 51
90.0
  0
LINE
  5
635
330
1E
100
AcDbEntity
  8
HILF
100
AcDbLine
 10
202.5754994138917
 20
434.11743946935
 30
0.0
 11
202.5754994138917
 21
431.1174394693501
 31
0.0
  0
LINE
  5
636
330
1E
100
AcDbEntity
  8
STEMPEL
100
AcDbLine
 10
201.5754994138918
 20
434.11743946935
 30
0.0
 11
201.5754994138917
 21
431.1174394693501
 31
0.0
  0
LINE
  5
63B
330
1E
100
AcDbEntity
  8
STEMPEL
100
AcDbLine
 10
201.5754994138918
 20
452.1174394693501
 30
0.0
 11
201.5754994138918
 21
450.1174394693508
 31
0.0
  0
TEXT
  5
6B7
330
1E
100
AcDbEntity
  8
TEXT
 62
     1
100
AcDbText
 10
244.9667846841526
 20
474.633918859403
 30
0.0
 40
7.0
  1
DN70
 50
90.0
 41
0.8
  7
GREEKS
100
AcDbText
  0
LINE
  5
6B8
330
1E
100
AcDbEntity
  8
STEMPEL
100
AcDbLine
 10
211.5754994138917
 20
452.1174394693501
 30
0.0
 11
210.5754994138917
 21
453.1174394693501
 31
0.0
  0
LINE
  5
6B9
330
1E
100
AcDbEntity
  8
HILF
100
AcDbLine
 10
210.5754994138917
 20
453.1174394693501
 30
0.0
 11
210.5754994138918
 21
450.1174394693507
 31
0.0
  0
LINE
  5
6BA
330
1E
100
AcDbEntity
  8
MITTEL
100
AcDbLine
 10
206.5754994138917
 20
458.1174394693501
 30
0.0
 11
206.5754994138917
 21
423.1174394693499
 31
0.0
  0
LINE
  5
6BB
330
1E
100
AcDbEntity
  8
STEMPEL
100
AcDbLine
 10
212.110102085614
 20
431.117439469351
 30
0.0
 11
209.7754994138895
 21
431.117439469351
 31
0.0
  0
LINE
  5
6BC
330
1E
100
AcDbEntity
  8
STEMPEL
100
AcDbLine
 10
209.7754994138895
 20
431.117439469351
 30
0.0
 11
212.3073261811121
 21
435.6085243661834
 31
0.0
  0
ARC
  5
6BD
102
{ACAD_REACTORS
330
5A2
102
}
330
1E
100
AcDbEntity
  8
STEMPEL
  6
Continuous
100
AcDbCircle
 10
234.7754994138921
 20
420.5685170622323
 30
0.0
 40
25.0
100
AcDbArc
 50
155.0418036876905
 51
180.0
  0
LINE
  5
6BE
330
1E
100
AcDbEntity
  8
STEMPEL
100
AcDbLine
 10
215.0754994138895
 20
430.117439469351
 30
0.0
 11
214.1632456514737
 21
435.2910876470178
 31
0.0
  0
ARC
  5
6BF
330
1E
100
AcDbEntity
  8
STEMPEL
100
AcDbCircle
 10
213.1784378984614
 20
435.117439469351
 30
0.0
 40
1.0
100
AcDbArc
 50
10.00000000000021
 51
150.5880863344662
  0
LINE
  5
6C0
330
1E
100
AcDbEntity
  8
STEMPEL
100
AcDbLine
 10
213.1784378984614
 20
436.1174394693509
 30
0.0
 11
215.0754994138931
 21
436.1174394693509
 31
0.0
  0
LINE
  5
6C1
102
{ACAD_REACTORS
330
5A2
102
}
330
1E
100
AcDbEntity
  8
STEMPEL
100
AcDbLine
 10
213.4700259253122
 20
430.4845041249215
 30
0.0
 11
212.1101020856166
 21
431.117439469351
 31
0.0
  0
ARC
  5
6C2
102
{ACAD_REACTORS
330
5A2
102
}
330
1E
100
AcDbEntity
  8
STEMPEL
  6
Continuous
100
AcDbCircle
 10
234.7754994138921
 20
420.5685170622323
 30
0.0
 40
23.5
100
AcDbArc
 50
155.0418036876905
 51
180.0
  0
LINE
  5
6C3
330
1E
100
AcDbEntity
  8
STEMPEL
100
AcDbLine
 10
211.5754994138917
 20
452.1174394693499
 30
0.0
 11
211.5754994138918
 21
450.1174394693508
 31
0.0
  0
LINE
  5
6C7
330
1E
100
AcDbEntity
  8
STEMPEL
100
AcDbLine
 10
293.3754994138896
 20
431.117439469351
 30
0.0
 11
291.0408967421649
 21
431.117439469351
 31
0.0
  0
LINE
  5
6C8
330
1E
100
AcDbEntity
  8
STEMPEL
100
AcDbLine
 10
293.3754994138896
 20
431.117439469351
 30
0.0
 11
290.8436726466669
 21
435.6085243661834
 31
0.0
  0
ARC
  5
6C9
102
{ACAD_REACTORS
330
5A2
102
}
330
1E
100
AcDbEntity
  8
STEMPEL
  6
Continuous
100
AcDbCircle
 10
268.375499413892
 20
420.5685170622323
 30
0.0
 40
23.5
100
AcDbArc
 50
0.0
 51
24.95819631230951
  0
ARC
  5
6CA
102
{ACAD_REACTORS
330
5A2
102
}
330
1E
100
AcDbEntity
  8
STEMPEL
  6
Continuous
100
AcDbCircle
 10
268.375499413892
 20
420.5685170622323
 30
0.0
 40
25.0
100
AcDbArc
 50
0.0
 51
24.95819631230951
  0
LINE
  5
6CB
330
1E
100
AcDbEntity
  8
STEMPEL
100
AcDbLine
 10
288.0754994138929
 20
436.1174394693509
 30
0.0
 11
289.9725609293175
 21
436.1174394693509
 31
0.0
  0
LINE
  5
6CC
330
1E
100
AcDbEntity
  8
STEMPEL
100
AcDbLine
 10
288.0754994138895
 20
430.117439469351
 30
0.0
 11
288.9877531763054
 21
435.2910876470178
 31
0.0
  0
ARC
  5
6CD
330
1E
100
AcDbEntity
  8
STEMPEL
100
AcDbCircle
 10
289.9725609293175
 20
435.117439469351
 30
0.0
 40
1.0
100
AcDbArc
 50
29.41191366553379
 51
169.9999999999997
  0
LINE
  5
6CE
102
{ACAD_REACTORS
330
5A2
102
}
330
1E
100
AcDbEntity
  8
STEMPEL
100
AcDbLine
 10
289.680972902472
 20
430.4845041249215
 30
0.0
 11
291.0408967421675
 21
431.117439469351
 31
0.0
  0
LINE
  5
6CF
330
1E
100
AcDbEntity
  8
STEMPEL
100
AcDbLine
 10
209.0632331286881
 20
565.6297057545555
 30
0.0
 11
294.0877656990961
 21
565.6297057545555
 31
0.0
  0
LINE
  5
6D0
330
1E
100
AcDbEntity
  8
HILF
100
AcDbLine
 10
217.6789611749978
 20
557.9124936242983
 30
0.0
 11
285.4720376527863
 21
557.9124936242983
 31
0.0
  0
ARC
  5
6D5
330
1E
100
AcDbEntity
  8
STEMPEL
100
AcDbCircle
 10
210.0754994138945
 20
555.4250513139248
 30
0.0
 40
6.5
100
AcDbArc
 50
0.0
 51
45.0
  0
LINE
  5
6D6
330
1E
100
AcDbEntity
  8
STEMPEL
100
AcDbLine
 10
208.0025729569083
 20
564.5690455827757
 30
0.0
 11
213.6110333198269
 21
558.9605852198578
 31
0.0
  0
ARC
  5
6D7
330
1E
100
AcDbEntity
  8
SCHRAFF
100
AcDbCircle
 10
209.5754994138923
 20
565.1174394693514
 30
0.0
 40
3.5
100
AcDbArc
 50
169.8499045790564
 51
289.6230664748492
  0
LINE
  5
6D8
330
1E
100
AcDbEntity
  8
STEMPEL
100
AcDbLine
 10
209.063233128688
 20
565.6297057545552
 30
0.0
 11
207.6490195663149
 21
564.2154921921822
 31
0.0
  0
ARC
  5
6D9
330
1E
100
AcDbEntity
  8
STEMPEL
100
AcDbCircle
 10
210.0754994138945
 20
555.4250513139249
 30
0.0
 40
5.0
100
AcDbArc
 50
0.0
 51
45.0
  0
LINE
  5
6F9
330
1E
100
AcDbEntity
  8
STEMPEL
100
AcDbLine
 10
295.1361595856715
 20
564.5567792975716
 30
0.0
 11
289.5399655079575
 21
558.9605852198583
 31
0.0
  0
ARC
  5
6FA
330
1E
100
AcDbEntity
  8
STEMPEL
100
AcDbCircle
 10
293.0754994138899
 20
555.4250513139252
 30
0.0
 40
5.0
100
AcDbArc
 50
135.0000000000003
 51
180.0
  0
ARC
  5
6FB
330
1E
100
AcDbEntity
  8
STEMPEL
100
AcDbCircle
 10
293.0754994138899
 20
555.4250513139252
 30
0.0
 40
6.5
100
AcDbArc
 50
135.0000000000003
 51
180.0
  0
LINE
  5
6FC
330
1E
100
AcDbEntity
  8
STEMPEL
100
AcDbLine
 10
294.075499413892
 20
565.6174394693514
 30
0.0
 11
295.4897129762651
 21
564.2032259069781
 31
0.0
  0
LINE
  5
742
102
{ACAD_REACTORS
330
57E
102
}
330
1E
100
AcDbEntity
  8
STEMPEL
100
AcDbLine
 10
367.8579849926199
 20
426.1174394693503
 30
0.0
 11
310.0955836610265
 21
426.1174394693498
 31
0.0
  0
LINE
  5
743
330
1E
100
AcDbEntity
  8
STEMPEL
100
AcDbLine
 10
304.3825549601425
 20
422.7638860787561
 30
0.0
 11
372.661285851519
 21
422.7638860787561
 31
0.0
  0
LINE
  5
744
330
1E
100
AcDbEntity
  8
STEMPEL
100
AcDbLine
 10
326.9754994138919
 20
453.1174394693506
 30
0.0
 11
318.9754994138919
 21
453.1174394693506
 31
0.0
  0
LINE
  5
745
330
1E
100
AcDbEntity
  8
STEMPEL
100
AcDbLine
 10
317.975499413892
 20
452.1174394693505
 30
0.0
 11
327.9754994138917
 21
452.1174394693505
 31
0.0
  0
LINE
  5
74A
330
1E
100
AcDbEntity
  8
STEMPEL
100
AcDbLine
 10
318.9754994138919
 20
453.1174394693506
 30
0.0
 11
317.975499413892
 21
452.1174394693505
 31
0.0
  0
LINE
  5
74B
330
1E
100
AcDbEntity
  8
HILF
100
AcDbLine
 10
318.9754994138919
 20
453.1174394693506
 30
0.0
 11
318.975499413892
 21
450.1174394693509
 31
0.0
  0
ARC
  5
74C
102
{ACAD_REACTORS
330
57E
102
}
330
1E
100
AcDbEntity
  8
STEMPEL
100
AcDbCircle
 10
310.0955836610266
 20
420.11743946935
 30
0.0
 40
8.0
100
AcDbArc
 50
90.0
 51
137.4999999999941
  0
ARC
  5
74D
102
{ACAD_REACTORS
330
57E
102
}
330
1E
100
AcDbEntity
  8
STEMPEL
100
AcDbCircle
 10
310.0955836610266
 20
420.11743946935
 30
0.0
 40
6.0
100
AcDbArc
 50
90.0
 51
137.4999999999941
  0
ARC
  5
74E
330
1E
100
AcDbEntity
  8
STEMPEL
100
AcDbCircle
 10
317.0754994138917
 20
437.117439469351
 30
0.0
 40
3.0
100
AcDbArc
 50
90.0
 51
270.0
  0
LINE
  5
74F
102
{ACAD_REACTORS
330
FE2
102
}
330
1E
100
AcDbEntity
  8
STEMPEL
100
AcDbLine
 10
314.0754994138919
 20
431.11743946935
 30
0.0
 11
314.0754994138919
 21
428.1174394693501
 31
0.0
  0
LINE
  5
751
330
1E
100
AcDbEntity
  8
HILF
100
AcDbLine
 10
318.9754994138923
 20
434.11743946935
 30
0.0
 11
318.9754994138922
 21
431.1174394693501
 31
0.0
  0
LINE
  5
752
330
1E
100
AcDbEntity
  8
STEMPEL
100
AcDbLine
 10
317.9754994138922
 20
434.11743946935
 30
0.0
 11
317.9754994138922
 21
431.11743946935
 31
0.0
  0
LINE
  5
758
330
1E
100
AcDbEntity
  8
STEMPEL
100
AcDbLine
 10
317.975499413892
 20
452.1174394693505
 30
0.0
 11
317.975499413892
 21
450.117439469351
 31
0.0
  0
LINE
  5
759
330
1E
100
AcDbEntity
  8
STEMPEL
100
AcDbLine
 10
327.975499413892
 20
452.1174394693505
 30
0.0
 11
326.9754994138919
 21
453.1174394693506
 31
0.0
  0
LINE
  5
75A
330
1E
100
AcDbEntity
  8
HILF
100
AcDbLine
 10
326.9754994138919
 20
453.1174394693506
 30
0.0
 11
326.975499413892
 21
450.1174394693509
 31
0.0
  0
LINE
  5
75B
102
{ACAD_REACTORS
330
57E
330
FE2
102
}
330
1E
100
AcDbEntity
  8
MITTEL
100
AcDbLine
 10
322.9754994138918
 20
458.11743946935
 30
0.0
 11
322.9754994138919
 21
423.1174394693499
 31
0.0
  0
LINE
  5
75E
330
1E
100
AcDbEntity
  8
STEMPEL
100
AcDbLine
 10
327.9754994138919
 20
434.11743946935
 30
0.0
 11
327.9754994138921
 21
431.11743946935
 31
0.0
  0
LINE
  5
75F
330
1E
100
AcDbEntity
  8
HILF
100
AcDbLine
 10
326.9754994138922
 20
434.11743946935
 30
0.0
 11
326.9754994138922
 21
431.11743946935
 31
0.0
  0
LINE
  5
761
330
1E
100
AcDbEntity
  8
STEMPEL
100
AcDbLine
 10
327.975499413892
 20
452.1174394693505
 30
0.0
 11
327.9754994138919
 21
450.1174394693509
 31
0.0
  0
LINE
  5
764
330
1E
100
AcDbEntity
  8
STEMPEL
100
AcDbLine
 10
365.1360559465295
 20
454.1174394693515
 30
0.0
 11
381.575499413892
 21
454.1174394693515
 31
0.0
  0
LINE
  5
765
330
1E
100
AcDbEntity
  8
STEMPEL
100
AcDbLine
 10
365.1360559465295
 20
454.1174394693519
 30
0.0
 11
364.9774371977382
 21
445.0301774371658
 31
0.0
  0
LINE
  5
766
330
1E
100
AcDbEntity
  8
STEMPEL
100
AcDbLine
 10
365.5754994138917
 20
454.1174394693507
 30
0.0
 11
365.4168806651005
 21
445.0301774371649
 31
0.0
  0
ARC
  5
767
330
1E
100
AcDbEntity
  8
STEMPEL
100
AcDbCircle
 10
359.9781987219562
 20
445.1174394693522
 30
0.0
 40
5.0
100
AcDbArc
 50
270.0
 51
359.0000000000015
  0
ARC
  5
768
330
1E
100
AcDbEntity
  8
STEMPEL
100
AcDbCircle
 10
360.4176421893185
 20
445.117439469351
 30
0.0
 40
5.0
100
AcDbArc
 50
270.0
 51
359.0000000000015
  0
LINE
  5
769
330
1E
100
AcDbEntity
  8
MITTEL
100
AcDbLine
 10
373.5754994138919
 20
459.1174394693514
 30
0.0
 11
373.5754994138917
 21
429.1174394693499
 31
0.0
  0
LINE
  5
76A
330
1E
100
AcDbEntity
  8
STEMPEL
100
AcDbLine
 10
371.2254994138917
 20
454.1174394693515
 30
0.0
 11
371.2254994138918
 21
434.1174394693501
 31
0.0
  0
LINE
  5
76B
330
1E
100
AcDbEntity
  8
HILF
100
AcDbLine
 10
370.5754994138918
 20
454.1174394693515
 30
0.0
 11
370.5754994138918
 21
434.1174394693501
 31
0.0
  0
LINE
  5
76C
330
1E
100
AcDbEntity
  8
STEMPEL
100
AcDbLine
 10
375.9254994138914
 20
454.1174394693515
 30
0.0
 11
375.9254994138919
 21
434.1174394693501
 31
0.0
  0
LINE
  5
76D
330
1E
100
AcDbEntity
  8
HILF
100
AcDbLine
 10
376.5754994138905
 20
454.1174394693515
 30
0.0
 11
376.5754994138924
 21
434.1174394693501
 31
0.0
  0
LINE
  5
76E
330
1E
100
AcDbEntity
  8
STEMPEL
100
AcDbLine
 10
381.5754994138917
 20
454.1174394693507
 30
0.0
 11
381.835802223377
 21
439.2047015015373
 31
0.0
  0
ARC
  5
76F
330
1E
100
AcDbEntity
  8
STEMPEL
100
AcDbCircle
 10
376.8365637475952
 20
439.117439469351
 30
0.0
 40
5.0
100
AcDbArc
 50
270.0
 51
1.000000000000133
  0
LINE
  5
770
102
{ACAD_REACTORS
330
57E
102
}
330
1E
100
AcDbEntity
  8
STEMPEL
100
AcDbLine
 10
374.0754994138921
 20
424.1780996411295
 30
0.0
 11
371.7470722891461
 21
426.5065267658757
 31
0.0
  0
LINE
  5
771
102
{ACAD_REACTORS
330
57E
102
}
330
1E
100
AcDbEntity
  8
STEMPEL
100
AcDbLine
 10
372.661285851519
 20
422.7638860787563
 30
0.0
 11
370.332858726773
 21
425.0923132035025
 31
0.0
  0
ARC
  5
772
102
{ACAD_REACTORS
330
57E
102
}
330
1E
100
AcDbEntity
  8
STEMPEL
100
AcDbCircle
 10
367.8579849926199
 20
422.6174394693497
 30
0.0
 40
3.499999999999851
100
AcDbArc
 50
44.99999999999942
 51
90.0
  0
ARC
  5
773
102
{ACAD_REACTORS
330
57E
102
}
330
1E
100
AcDbEntity
  8
STEMPEL
100
AcDbCircle
 10
367.8579849926199
 20
422.6174394693497
 30
0.0
 40
5.499999999999851
100
AcDbArc
 50
44.99999999999942
 51
90.0
  0
LINE
  5
775
102
{ACAD_REACTORS
330
FE2
102
}
330
1E
100
AcDbEntity
  8
STEMPEL
100
AcDbLine
 10
374.0754994138918
 20
431.1174394693498
 30
0.0
 11
374.0754994138919
 21
428.1174394693501
 31
0.0
  0
LINE
  5
776
102
{ACAD_REACTORS
330
57E
102
}
330
1E
100
AcDbEntity
  8
STEMPEL
100
AcDbLine
 10
374.0754994138921
 20
424.1780996411295
 30
0.0
 11
372.6612858515192
 21
422.7638860787561
 31
0.0
  0
TEXT
  5
7F7
330
1E
100
AcDbEntity
  8
TEXT
100
AcDbText
 10
482.3280000000001
 20
471.8550995097767
 30
0.0
 40
5.0
  1
Erstellt mit AUTOCAD 2004
 50
90.0
 41
0.8
  7
GREEKS
100
AcDbText
  0
TEXT
  5
7F8
330
1E
100
AcDbEntity
  8
TEXT
100
AcDbText
 10
551.3702584697737
 20
654.9837501577824
 30
0.0
 40
4.0
  1
22721070W.DWG
 50
90.0
 41
0.8
  7
GREEKS
100
AcDbText
  0
TEXT
  5
7F9
330
1E
100
AcDbEntity
  8
TEXT
100
AcDbText
 10
542.3598805695784
 20
655.1296391125313
 30
0.0
 40
5.0
  1
EDV-Art.Nr. 22721.070X
 50
90.0
 41
0.8
  7
GREEKS
100
AcDbText
  0
TEXT
  5
7FA
330
1E
100
AcDbEntity
  8
TEXT
100
AcDbText
 10
522.4966558241471
 20
655.1296391125313
 30
0.0
 40
5.0
  1
Notablauf DN70, zweiteilig
 50
90.0
 41
0.7
  7
GREEKS
100
AcDbText
  0
TEXT
  5
7FB
330
1E
100
AcDbEntity
  8
TEXT
 62
     1
100
AcDbText
 10
506.5825121074622
 20
654.3055652248177
 30
0.0
 40
7.0
  1
Drainlet Kompletteinheit
 50
90.0
 41
0.7
  7
GREEKS
100
AcDbText
  0
LINE
  5
7FC
330
1E
100
AcDbEntity
  8
STEMPEL
100
AcDbLine
 10
584.0
 20
479.9999999999998
 30
0.0
 11
584.0
 21
829.9999999999997
 31
0.0
  0
TEXT
  5
7FD
330
1E
100
AcDbEntity
  8
TEXT
100
AcDbText
 10
563.1543942980694
 20
654.7422383911357
 30
0.0
 40
5.0
  1
Bauvorhaben
 50
90.0
 41
0.8
  7
GREEKS
100
AcDbText
  0
TEXT
  5
7FE
330
1E
100
AcDbEntity
  8
TEXT
100
AcDbText
 10
491.4510671988221
 20
654.8779403809008
 30
0.0
 40
5.0
  1
Benennung
 50
90.0
 41
0.8
  7
GREEKS
100
AcDbText
  0
LINE
  5
7FF
330
1E
100
AcDbEntity
  8
HILF
100
AcDbLine
 10
579.1060174197168
 20
653.4909699289883
 30
0.0
 11
579.1060174197168
 21
824.8588839326725
 31
0.0
  0
LINE
  5
800
330
1E
100
AcDbEntity
  8
HILF
100
AcDbLine
 10
544.0000000000001
 20
654.7736801096946
 30
0.0
 11
544.0000000000001
 21
744.8353916556307
 31
0.0
  0
LINE
  5
801
330
1E
100
AcDbEntity
  8
HILF
100
AcDbLine
 10
534.0000000000001
 20
654.7736801096946
 30
0.0
 11
534.0000000000001
 21
744.8353916556307
 31
0.0
  0
LINE
  5
802
330
1E
100
AcDbEntity
  8
HILF
100
AcDbLine
 10
524.0000000000001
 20
654.7736801096946
 30
0.0
 11
524.0000000000001
 21
744.8353916556307
 31
0.0
  0
LINE
  5
803
330
1E
100
AcDbEntity
  8
HILF
100
AcDbLine
 10
509.9624175243587
 20
654.7736801096946
 30
0.0
 11
509.9624175243587
 21
744.8353916556309
 31
0.0
  0
LINE
  5
804
330
1E
100
AcDbEntity
  8
STEMPEL
100
AcDbLine
 10
514.0
 20
829.9999999999997
 30
0.0
 11
514.0000000000001
 21
566.0
 31
0.0
  0
LINE
  5
805
330
1E
100
AcDbEntity
  8
STEMPEL
100
AcDbLine
 10
554.0
 20
829.9999999999997
 30
0.0
 11
554.0
 21
566.0
 31
0.0
  0
LINE
  5
806
330
1E
100
AcDbEntity
  8
STEMPEL
100
AcDbLine
 10
484.0
 20
829.9999999999997
 30
0.0
 11
484.0
 21
469.9999999999999
 31
0.0
  0
INSERT
  5
807
330
1E
100
AcDbEntity
  8
STEMPEL
100
AcDbBlockReference
  2
LOGO
 10
548.9789472355168
 20
570.9955485457794
 30
0.0
 41
2.0
 42
2.0
 43
2.0
 50
90.0
  0
LINE
  5
808
330
1E
100
AcDbEntity
  8
STEMPEL
100
AcDbLine
 10
584.0
 20
469.9999999999999
 30
0.0
 11
484.0
 21
469.9999999999999
 31
0.0
  0
TEXT
  5
809
330
1E
100
AcDbEntity
  8
TEXT
100
AcDbText
 10
575.3284373066019
 20
530.0571803261054
 30
0.0
 40
4.0
  1
Tag
 50
90.0
 41
0.8
  7
GREEKS
 72
     1
 11
575.3284373066019
 21
533.7905136594388
 31
0.0
100
AcDbText
  0
TEXT
  5
80A
330
1E
100
AcDbEntity
  8
TEXT
100
AcDbText
 10
580.3453415397281
 20
478.2664110704575
 30
0.0
 40
4.0
  1
Index
 50
180.0
 41
0.8
  7
GREEKS
100
AcDbText
  0
TEXT
  5
80B
330
1E
100
AcDbEntity
  8
TEXT
100
AcDbText
 10
575.3261810501586
 20
492.7826069847974
 30
0.0
 40
4.0
  1
Änderung
 50
90.0
 41
0.8
  7
GREEKS
 72
     1
 11
575.3261810501586
 21
503.5254641276546
 31
0.0
100
AcDbText
  0
LINE
  5
80C
330
1E
100
AcDbEntity
  8
VOLL
100
AcDbLine
 10
484.0000000000001
 20
544.0
 30
0.0
 11
584.0000000000001
 21
544.0
 31
0.0
  0
LINE
  5
80D
330
1E
100
AcDbEntity
  8
VOLL
100
AcDbLine
 10
484.0000000000001
 20
524.0
 30
0.0
 11
584.0000000000001
 21
524.0
 31
0.0
  0
LINE
  5
80E
330
1E
100
AcDbEntity
  8
VOLL
100
AcDbLine
 10
484.0
 20
484.0
 30
0.0
 11
584.0000000000001
 21
483.9999999999999
 31
0.0
  0
LINE
  5
80F
330
1E
100
AcDbEntity
  8
STEMPEL
100
AcDbLine
 10
484.0
 20
649.9999999999998
 30
0.0
 11
584.0000000000001
 21
649.9999999999998
 31
0.0
  0
LINE
  5
810
330
1E
100
AcDbEntity
  8
STEMPEL
100
AcDbLine
 10
484.0000000000001
 20
566.0
 30
0.0
 11
584.0000000000001
 21
566.0
 31
0.0
  0
TEXT
  5
811
330
1E
100
AcDbEntity
  8
TEXT
100
AcDbText
 10
575.4067578303359
 20
548.6614567187547
 30
0.0
 40
4.0
  1
Name
 50
90.0
 41
0.8
  7
GREEKS
 72
     1
 11
575.4067578303359
 21
554.9852662425641
 31
0.0
100
AcDbText
  0
LINE
  5
812
330
1E
100
AcDbEntity
  8
HILF
100
AcDbLine
 10
554.0
 20
470.0000000000001
 30
0.0
 11
554.0
 21
566.0
 31
0.0
  0
LINE
  5
813
330
1E
100
AcDbEntity
  8
HILF
100
AcDbLine
 10
544.0
 20
470.0000000000001
 30
0.0
 11
544.0000000000001
 21
566.0
 31
0.0
  0
LINE
  5
814
330
1E
100
AcDbEntity
  8
HILF
100
AcDbLine
 10
534.0
 20
470.0000000000001
 30
0.0
 11
534.0000000000001
 21
566.0
 31
0.0
  0
LINE
  5
815
330
1E
100
AcDbEntity
  8
HILF
100
AcDbLine
 10
524.0000000000001
 20
470.0000000000001
 30
0.0
 11
524.0000000000001
 21
566.0
 31
0.0
  0
LINE
  5
816
330
1E
100
AcDbEntity
  8
HILF
100
AcDbLine
 10
514.0000000000001
 20
470.0000000000001
 30
0.0
 11
514.0000000000001
 21
566.0
 31
0.0
  0
LINE
  5
817
330
1E
100
AcDbEntity
  8
HILF
100
AcDbLine
 10
504.0
 20
470.0000000000001
 30
0.0
 11
504.0
 21
566.0
 31
0.0
  0
LINE
  5
818
330
1E
100
AcDbEntity
  8
HILF
100
AcDbLine
 10
494.0
 20
470.0000000000001
 30
0.0
 11
494.0
 21
566.0
 31
0.0
  0
LINE
  5
819
330
1E
100
AcDbEntity
  8
STEMPEL
100
AcDbLine
 10
564.0000000000001
 20
565.9999999999997
 30
0.0
 11
564.0
 21
469.9999999999999
 31
0.0
  0
TEXT
  5
81A
330
1E
100
AcDbEntity
  8
TEXT
100
AcDbText
 10
530.8923495917427
 20
590.7037590129978
 30
0.0
 40
4.0
  1
17.02.
 50
90.0
 41
0.8
  7
GREEKS
 72
     1
 11
530.8923495917427
 21
597.4085209177596
 31
0.0
100
AcDbText
  0
TEXT
  5
81B
330
1E
100
AcDbEntity
  8
TEXT
100
AcDbText
 10
530.9103608027649
 20
624.4216048581255
 30
0.0
 40
4.0
  1
Koeh
 50
90.0
 41
0.8
  7
GREEKS
 72
     1
 11
530.9103608027649
 21
629.6787477152683
 31
0.0
100
AcDbText
  0
TEXT
  5
81C
330
1E
100
AcDbEntity
  8
TEXT
100
AcDbText
 10
530.3700963038203
 20
567.5836127167615
 30
0.0
 40
4.0
  1
Gez.
 50
90.0
 41
0.8
  7
GREEKS
100
AcDbText
  0
LINE
  5
81D
330
1E
100
AcDbEntity
  8
VOLL
100
AcDbLine
 10
484.0000000000002
 20
610.0
 30
0.0
 11
554.0
 21
609.9999999999997
 31
0.0
  0
LINE
  5
81E
330
1E
100
AcDbEntity
  8
VOLL
100
AcDbLine
 10
514.0000000000001
 20
584.0
 30
0.0
 11
554.0
 21
584.0
 31
0.0
  0
TEXT
  5
81F
330
1E
100
AcDbEntity
  8
TEXT
100
AcDbText
 10
503.2363615897698
 20
612.6261322080837
 30
0.0
 40
4.0
  1
DIN EN1124-3
 50
90.0
 41
0.8
  7
GREEKS
 72
     1
 11
503.2363615897698
 21
629.6166083985599
 31
0.0
100
AcDbText
  0
TEXT
  5
820
330
1E
100
AcDbEntity
  8
TEXT
100
AcDbText
 10
491.581583156518
 20
614.2858954734049
 30
0.0
 40
5.0
  1
Zul. Abw.
 50
90.0
 41
0.8
  7
GREEKS
100
AcDbText
  0
LINE
  5
821
330
1E
100
AcDbEntity
  8
HILF
100
AcDbLine
 10
524.0000000000001
 20
566.0
 30
0.0
 11
524.0000000000001
 21
649.9999999999998
 31
0.0
  0
TEXT
  5
822
330
1E
100
AcDbEntity
  8
TEXT
 62
     1
100
AcDbText
 10
505.8509857108604
 20
580.5006306481886
 30
0.0
 40
7.0
  1
1:2
 50
90.0
 41
0.8
  7
GREEKS
100
AcDbText
  0
TEXT
  5
823
330
1E
100
AcDbEntity
  8
TEXT
100
AcDbText
 10
491.537910491291
 20
573.5163572150376
 30
0.0
 40
5.0
  1
Maßstab
 50
90.0
 41
0.8
  7
GREEKS
100
AcDbText
  0
TEXT
  5
824
330
1E
100
AcDbEntity
  8
TEXT
100
AcDbText
 10
520.8597452884832
 20
568.6221098221039
 30
0.0
 40
4.0
  1
2011
 50
90.0
 41
0.8
  7
GREEKS
100
AcDbText
  0
TEXT
  5
825
330
1E
100
AcDbEntity
  8
TEXT
100
AcDbText
 10
520.6811949877008
 20
592.3311673153651
 30
0.0
 40
4.0
  1
Tag
 50
90.0
 41
0.8
  7
GREEKS
100
AcDbText
  0
TEXT
  5
826
330
1E
100
AcDbEntity
  8
TEXT
100
AcDbText
 10
520.6903890808478
 20
622.4626584226293
 30
0.0
 40
4.0
  1
Name
 50
90.0
 41
0.8
  7
GREEKS
100
AcDbText
  0
LINE
  5
827
330
1E
100
AcDbEntity
  8
HILF
100
AcDbLine
 10
544.0000000000001
 20
566.0
 30
0.0
 11
544.0000000000001
 21
649.9999999999998
 31
0.0
  0
LINE
  5
828
330
1E
100
AcDbEntity
  8
HILF
100
AcDbLine
 10
534.0000000000001
 20
566.0
 30
0.0
 11
534.0000000000001
 21
649.9999999999998
 31
0.0
  0
TEXT
  5
829
330
1E
100
AcDbEntity
  8
TEXT
100
AcDbText
 10
540.3107370857163
 20
567.5515086571672
 30
0.0
 40
4.0
  1
Gepr.
 50
90.0
 41
0.8
  7
GREEKS
100
AcDbText
  0
TEXT
  5
82A
330
1E
100
AcDbEntity
  8
TEXT
100
AcDbText
 10
550.4705361035019
 20
567.6006777387303
 30
0.0
 40
4.0
  1
Norm.
 50
90.0
 41
0.8
  7
GREEKS
100
AcDbText
  0
LINE
  5
82C
330
1E
100
AcDbEntity
  8
HILF
100
AcDbLine
 10
510.2201636304418
 20
756.723861629699
 30
0.0
 11
510.2201636304418
 21
824.8588839326725
 31
0.0
  0
LINE
  5
82D
330
1E
100
AcDbEntity
  8
VOLL
100
AcDbLine
 10
534.0
 20
751.9999999999997
 30
0.0
 11
534.0
 21
829.9999999999997
 31
0.0
  0
LINE
  5
82E
330
1E
100
AcDbEntity
  8
STEMPEL
100
AcDbLine
 10
484.0000000000002
 20
751.9999999999997
 30
0.0
 11
554.0
 21
751.9999999999997
 31
0.0
  0
TEXT
  5
82F
330
1E
100
AcDbEntity
  8
TEXT
 62
     1
100
AcDbText
 10
505.8509857108604
 20
767.4074767277957
 30
0.0
 40
7.0
  1
22721070W
 50
90.0
 41
0.8
  7
GREEKS
 72
     1
 11
505.8509857108604
 21
790.8741433944624
 31
0.0
100
AcDbText
  0
TEXT
  5
830
330
1E
100
AcDbEntity
  8
TEXT
100
AcDbText
 10
491.6867965462863
 20
756.1787549576338
 30
0.0
 40
5.0
  1
Zeichnungs Nr.
 50
90.0
 41
0.8
  7
GREEKS
100
AcDbText
  0
TEXT
  5
831
330
1E
100
AcDbEntity
  8
TEXT
100
AcDbText
 10
520.8188176290002
 20
756.723861629699
 30
0.0
 40
5.0
  1
Ersatz für:
 50
90.0
 41
0.8
  7
GREEKS
100
AcDbText
  0
TEXT
  5
832
330
1E
100
AcDbEntity
  8
TEXT
100
AcDbText
 10
541.925838221214
 20
757.2400861497003
 30
0.0
 40
5.0
  1
ersetzt durch:
 50
90.0
 41
0.8
  7
GREEKS
100
AcDbText
  0
ARC
  5
B85
330
1E
100
AcDbEntity
  8
STEMPEL
100
AcDbCircle
 10
331.5754994138922
 20
688.1174394693511
 30
0.0
 40
6.0
100
AcDbArc
 50
90.0
 51
90.0
  0
ARC
  5
B86
330
1E
100
AcDbEntity
  8
STEMPEL
100
AcDbCircle
 10
331.5754994138922
 20
688.1174394693511
 30
0.0
 40
6.0
100
AcDbArc
 50
59.48712567237889
 51
90.0
  0
ARC
  5
B87
330
1E
100
AcDbEntity
  8
STEMPEL
100
AcDbCircle
 10
331.5754994138922
 20
688.1174394693511
 30
0.0
 40
5.0
100
AcDbArc
 50
59.46264995170093
 51
90.0
  0
ARC
  5
B88
330
1E
100
AcDbEntity
  8
STEMPEL
100
AcDbCircle
 10
361.0866430182036
 20
683.6372764518134
 30
0.0
 40
5.0
100
AcDbArc
 50
239.7435628364698
 51
239.9329541615142
  0
ARC
  5
B89
330
1E
100
AcDbEntity
  8
STEMPEL
100
AcDbCircle
 10
355.575499413892
 20
674.117381502036
 30
0.0
 40
5.0
100
AcDbArc
 50
0.0
 51
59.74358352518112
  0
ARC
  5
B8A
330
1E
100
AcDbEntity
  8
STEMPEL
100
AcDbCircle
 10
355.575499413892
 20
674.117381502036
 30
0.0
 40
6.0
100
AcDbArc
 50
0.0
 51
59.74358352518112
  0
LINE
  5
B8B
330
1E
100
AcDbEntity
  8
STEMPEL
100
AcDbLine
 10
361.5754994138918
 20
669.1174394693514
 30
0.0
 11
360.5754994138917
 21
669.1174394693514
 31
0.0
  0
LINE
  5
B8C
330
1E
100
AcDbEntity
  8
STEMPEL
100
AcDbLine
 10
361.5754994138918
 20
629.1174394693514
 30
0.0
 11
360.5754994138917
 21
629.1174394693514
 31
0.0
  0
LINE
  5
B8D
330
1E
100
AcDbEntity
  8
STEMPEL
100
AcDbLine
 10
349.498544920555
 20
661.6174394693516
 30
0.0
 11
349.498544920555
 21
636.6174394693548
 31
0.0
  0
LINE
  5
B91
330
1E
100
AcDbEntity
  8
STEMPEL
100
AcDbLine
 10
381.5754994138917
 20
605.1174394693518
 30
0.0
 11
381.575499413892
 21
604.1174394693515
 31
0.0
  0
LINE
  5
B93
330
1E
100
AcDbEntity
  8
STEMPEL
100
AcDbLine
 10
377.575499413892
 20
605.1174394693515
 30
0.0
 11
377.575499413892
 21
604.1174394693515
 31
0.0
  0
LINE
  5
B96
330
1E
100
AcDbEntity
  8
STEMPEL
100
AcDbLine
 10
369.575499413892
 20
605.117439469352
 30
0.0
 11
369.575499413892
 21
604.1174394693515
 31
0.0
  0
LINE
  5
B9F
330
1E
100
AcDbEntity
  8
STEMPEL
100
AcDbLine
 10
375.9254994138919
 20
590.7174394693519
 30
0.0
 11
376.5754994138918
 21
591.3674394693518
 31
0.0
  0
LINE
  5
BA2
330
1E
100
AcDbEntity
  8
STEMPEL
100
AcDbLine
 10
370.5754994138918
 20
591.3674394693518
 30
0.0
 11
371.2254994138918
 21
590.7174394693519
 31
0.0
  0
LINE
  5
BA4
330
1E
100
AcDbEntity
  8
STEMPEL
100
AcDbLine
 10
371.2254994138918
 20
590.7174394693519
 30
0.0
 11
375.9254994138919
 21
590.7174394693519
 31
0.0
  0
LINE
  5
BA5
330
1E
100
AcDbEntity
  8
STEMPEL
100
AcDbLine
 10
370.5754994138918
 20
591.3674394693518
 30
0.0
 11
376.5754994138918
 21
591.3674394693518
 31
0.0
  0
LINE
  5
BA6
330
1E
100
AcDbEntity
  8
MITTEL
100
AcDbLine
 10
373.5754994138917
 20
616.7174394693518
 30
0.0
 11
373.5754994138917
 21
584.1174394693502
 31
0.0
  0
LINE
  5
BA7
330
1E
100
AcDbEntity
  8
HILF
100
AcDbLine
 10
371.2254994138918
 20
590.7174394693519
 30
0.0
 11
371.2254994138918
 21
605.1174394693518
 31
0.0
  0
LINE
  5
BA8
330
1E
100
AcDbEntity
  8
STEMPEL
100
AcDbLine
 10
370.5754994138918
 20
605.1174394693518
 30
0.0
 11
370.5754994138918
 21
591.3674394693518
 31
0.0
  0
LINE
  5
BA9
330
1E
100
AcDbEntity
  8
HILF
100
AcDbLine
 10
375.9254994138919
 20
590.7174394693519
 30
0.0
 11
375.9254994138919
 21
605.1174394693518
 31
0.0
  0
LINE
  5
BAA
330
1E
100
AcDbEntity
  8
STEMPEL
100
AcDbLine
 10
376.5754994138918
 20
605.1174394693518
 30
0.0
 11
376.5754994138918
 21
591.3674394693518
 31
0.0
  0
LINE
  5
BAB
330
1E
100
AcDbEntity
  8
STEMPEL
100
AcDbLine
 10
376.5754994138918
 20
604.1174394693515
 30
0.0
 11
381.575499413892
 21
604.1174394693515
 31
0.0
  0
LINE
  5
BAC
330
1E
100
AcDbEntity
  8
STEMPEL
100
AcDbLine
 10
379.575499413892
 20
605.1174394693516
 30
0.0
 11
367.5754994138917
 21
605.117439469352
 31
0.0
  0
LINE
  5
BAF
330
1E
100
AcDbEntity
  8
STEMPEL
100
AcDbLine
 10
374.075499413892
 20
574.1780996411295
 30
0.0
 11
372.6612858515191
 21
572.7638860787562
 31
0.0
  0
LINE
  5
BB0
102
{ACAD_REACTORS
330
FC9
102
}
330
1E
100
AcDbEntity
  8
STEMPEL
100
AcDbLine
 10
374.0754994138919
 20
581.1174394693501
 30
0.0
 11
374.0754994138919
 21
578.1174394693501
 31
0.0
  0
ARC
  5
BB1
330
1E
100
AcDbEntity
  8
STEMPEL
100
AcDbCircle
 10
367.8579849926198
 20
572.6174394693497
 30
0.0
 40
5.499999999999851
100
AcDbArc
 50
45.0
 51
90.0
  0
ARC
  5
BB2
330
1E
100
AcDbEntity
  8
STEMPEL
100
AcDbCircle
 10
367.8579849926198
 20
572.6174394693497
 30
0.0
 40
3.499999999999851
100
AcDbArc
 50
45.0
 51
90.0
  0
LINE
  5
BB3
330
1E
100
AcDbEntity
  8
STEMPEL
100
AcDbLine
 10
372.6612858515189
 20
572.7638860787565
 30
0.0
 11
370.3328587267729
 21
575.0923132035025
 31
0.0
  0
LINE
  5
BB4
330
1E
100
AcDbEntity
  8
STEMPEL
100
AcDbLine
 10
374.075499413892
 20
574.1780996411295
 30
0.0
 11
371.747072289146
 21
576.5065267658757
 31
0.0
  0
LINE
  5
BB7
330
1E
100
AcDbEntity
  8
STEMPEL
100
AcDbLine
 10
362.9862713565274
 20
605.1174394693515
 30
0.0
 11
362.0221571867649
 21
605.1174394693515
 31
0.0
  0
LINE
  5
BB8
330
1E
100
AcDbEntity
  8
STEMPEL
100
AcDbLine
 10
360.3658121728567
 20
616.6174394693497
 30
0.0
 11
360.3658121728567
 21
610.1174394693519
 31
0.0
  0
LINE
  5
BB9
330
1E
100
AcDbEntity
  8
STEMPEL
100
AcDbLine
 10
358.4079192895563
 20
616.6174394693497
 30
0.0
 11
358.4079192895563
 21
610.1174394693508
 31
0.0
  0
LINE
  5
BBA
330
1E
100
AcDbEntity
  8
STEMPEL
100
AcDbLine
 10
359.4016980030942
 20
616.6174394693497
 30
0.0
 11
359.4016980030942
 21
610.1174394693519
 31
0.0
  0
ARC
  5
BBB
330
1E
100
AcDbEntity
  8
STEMPEL
100
AcDbCircle
 10
366.575499413892
 20
610.1174394693519
 30
0.0
 40
5.0
100
AcDbArc
 50
180.0
 51
270.0
  0
LWPOLYLINE
  5
BBC
330
1E
100
AcDbEntity
  8
STEMPEL
100
AcDbPolyline
 90
       10
 70
   128
 43
0.0
 10
-365.8718009038876
 20
604.1174394693527
 10
-365.0137279076148
 20
604.1835666839253
 10
-364.1609157079927
 20
604.4361204336555
 10
-363.3401574010757
 20
604.8671661499732
 10
-362.5772390346765
 20
605.4631615204129
 10
-361.8961294791775
 20
606.2053819521336
 10
-361.3182273892316
 20
607.0705088489311
 10
-360.8616889148255
 20
608.0313622196472
 10
-360.540857283228
 20
609.0577546013594
 10
-360.3658121728567
 20
610.1174394693519
210
0.0
220
0.0
230
-1.0
  0
ARC
  5
BBD
330
1E
100
AcDbEntity
  8
STEMPEL
100
AcDbCircle
 10
366.575499413892
 20
610.1174394693519
 30
0.0
 40
6.0
100
AcDbArc
 50
180.0
 51
270.0
  0
LWPOLYLINE
  5
BBE
330
1E
100
AcDbEntity
  8
STEMPEL
100
AcDbPolyline
 90
       10
 70
   128
 43
0.0
 10
-363.9139080205871
 20
604.1174394693515
 10
-363.0558350243143
 20
604.1835666839242
 10
-362.2030228246922
 20
604.4361204336544
 10
-361.3822645177752
 20
604.867166149972
 10
-360.619346151376
 20
605.4631615204118
 10
-359.938236595877
 20
606.2053819521325
 10
-359.3603345059312
 20
607.0705088489299
 10
-358.903796031525
 20
608.031362219646
 10
-358.5829643999275
 20
609.0577546013583
 10
-358.4079192895563
 20
610.1174394693508
210
0.0
220
0.0
230
-1.0
  0
LWPOLYLINE
  5
BBF
330
1E
100
AcDbEntity
  8
STEMPEL
100
AcDbPolyline
 90
        7
 70
   128
 43
0.0
 10
-362.0221571867651
 20
605.117439469352
 10
-361.3454553116876
 20
605.727040197211
 10
-360.7459058880536
 20
606.4545992811226
 10
-360.239617214904
 20
607.280569142803
 10
-359.8401919228584
 20
608.182758168006
 10
-359.5583615075955
 20
609.1369269361996
 10
-359.401698003094
 20
610.1174394693519
210
0.0
220
0.0
230
-1.0
  0
LINE
  5
BC4
330
1E
100
AcDbEntity
  8
STEMPEL
100
AcDbLine
 10
350.0956278771525
 20
616.6174394693497
 30
0.0
 11
350.0956278771525
 21
610.1174394693531
 31
0.0
  0
LINE
  5
BC5
330
1E
100
AcDbEntity
  8
STEMPEL
100
AcDbLine
 10
354.9098250261229
 20
616.6174394693497
 30
0.0
 11
354.9098250261229
 21
610.1174394693531
 31
0.0
  0
LWPOLYLINE
  5
BC6
330
1E
100
AcDbEntity
  8
STEMPEL
100
AcDbPolyline
 90
        7
 70
   128
 43
0.0
 10
-352.2491995098212
 20
605.1174394693515
 10
-351.6291089867568
 20
605.7267773711924
 10
-351.0972888399733
 20
606.4542076444816
 10
-350.6680430402421
 20
607.2801651384253
 10
-350.3529166924447
 20
608.1824346888875
 10
-350.160385515479
 20
609.1367486231308
 10
-350.0956278771525
 20
610.1174394693519
210
0.0
220
0.0
230
-1.0
  0
LINE
  5
BC7
330
1E
100
AcDbEntity
  8
STEMPEL
100
AcDbLine
 10
349.1695735406452
 20
616.6174394693497
 30
0.0
 11
349.1695735406452
 21
610.1174394693531
 31
0.0
  0
LWPOLYLINE
  5
BC8
330
1E
100
AcDbEntity
  8
STEMPEL
100
AcDbPolyline
 90
       10
 70
   128
 43
0.0
 10
-353.9849380672192
 20
604.1174394693515
 10
-353.1487587923775
 20
604.2085929512783
 10
-352.3379864016749
 20
604.4792837446362
 10
-351.5772558039321
 20
604.9212870466448
 10
-350.8896814134134
 20
605.5211728106378
 10
-350.296154830045
 20
606.2607138112325
 10
-349.8147100587237
 20
607.1174394693517
 10
-349.4599755552033
 20
608.0653186093977
 10
-349.2427297478692
 20
609.0755504033503
 10
-349.1695735406452
 20
610.1174394693519
210
0.0
220
0.0
230
-1.0
  0
LINE
  5
BC9
330
1E
100
AcDbEntity
  8
STEMPEL
100
AcDbLine
 10
357.0633966587916
 20
605.1174394693515
 30
0.0
 11
352.2491995098201
 21
605.1174394693515
 31
0.0
  0
LWPOLYLINE
  5
BCA
330
1E
100
AcDbEntity
  8
STEMPEL
100
AcDbPolyline
 90
       10
 70
   128
 43
0.0
 10
-359.725189552697
 20
604.1174394693515
 10
-358.8890102778553
 20
604.2085929512783
 10
-358.0782378871527
 20
604.4792837446362
 10
-357.3175072894098
 20
604.9212870466448
 10
-356.6299328988912
 20
605.5211728106378
 10
-356.0364063155228
 20
606.2607138112325
 10
-355.5549615442014
 20
607.1174394693517
 10
-355.2002270406811
 20
608.0653186093977
 10
-354.9829812333469
 20
609.0755504033503
 10
-354.9098250261229
 20
610.1174394693519
210
0.0
220
0.0
230
-1.0
  0
LINE
  5
BCB
330
1E
100
AcDbEntity
  8
STEMPEL
100
AcDbLine
 10
381.5754994138917
 20
605.1174394693515
 30
0.0
 11
366.5754994138918
 21
605.1174394693519
 31
0.0
  0
LINE
  5
BCC
330
1E
100
AcDbEntity
  8
STEMPEL
100
AcDbLine
 10
360.575499413892
 20
674.117381502036
 30
0.0
 11
360.575499413892
 21
610.1174394693519
 31
0.0
  0
LINE
  5
BCD
330
1E
100
AcDbEntity
  8
STEMPEL
100
AcDbLine
 10
361.5754994138922
 20
674.117381502036
 30
0.0
 11
361.5754994138922
 21
610.1174394693519
 31
0.0
  0
LWPOLYLINE
  5
BCE
330
1E
100
AcDbEntity
  8
STEMPEL
100
AcDbPolyline
 90
       18
 70
   128
 43
0.0
 10
354.9098250261229
 20
616.6174394693497
 10
354.8609556812067
 20
617.9955608529742
 10
354.7160118333866
 20
619.3267519657539
 10
354.4799293715594
 20
620.5656806909307
 10
354.1607478008127
 20
621.6701567967
 10
353.7693364667223
 20
622.6025686739529
 10
353.3190244128243
 20
623.3311641545141
 10
352.8251464760249
 20
623.8311317931474
 10
352.3045210771199
 20
624.0854457915641
 10
351.7748774896481
 20
624.0854457915641
 10
351.2542520907432
 20
623.8311317931474
 10
350.7603741539437
 20
623.3311641545141
 10
350.3100621000458
 20
622.6025686739529
 10
349.9186507659554
 20
621.6701567967
 10
349.5994691952087
 20
620.5656806909307
 10
349.3633867333815
 20
619.3267519657539
 10
349.2184428855614
 20
617.9955608529742
 10
349.1695735406452
 20
616.6174394693497
  0
LWPOLYLINE
  5
BCF
330
1E
100
AcDbEntity
  8
STEMPEL
100
AcDbPolyline
 90
        9
 70
   128
 43
0.0
 10
352.5027264516361
 20
624.0191977140148
 10
352.0136659083673
 20
623.6927648162573
 10
351.5540529404664
 20
623.1474958030002
 10
351.1381031368421
 20
622.4002555598722
 10
350.7786816075507
 20
621.4741558370946
 10
350.4869050726632
 20
620.3978404151244
 10
350.2717980279249
 20
619.2045991674936
 10
350.1400136218174
 20
617.9313384224176
 10
350.0956278771525
 20
616.6174394693513
  0
LWPOLYLINE
  5
BD0
330
1E
100
AcDbEntity
  8
STEMPEL
100
AcDbPolyline
 90
       18
 70
   128
 43
0.0
 10
360.3658121728567
 20
616.6174394693497
 10
360.3491437493799
 20
617.9955608529742
 10
360.2997061021197
 20
619.3267519657539
 10
360.2191827708591
 20
620.5656806909307
 10
360.1103158810674
 20
621.6701567967
 10
359.9768127641052
 20
622.6025686739529
 10
359.823219708501
 20
623.3311641545141
 10
359.654767141549
 20
623.8311317931474
 10
359.4771915133801
 20
624.0854457915641
 10
359.2965399490331
 20
624.0854457915641
 10
359.118964320864
 20
623.8311317931474
 10
358.950511753912
 20
623.3311641545141
 10
358.796918698308
 20
622.6025686739529
 10
358.6634155813456
 20
621.6701567967
 10
358.5545486915539
 20
620.5656806909307
 10
358.4740253602936
 20
619.3267519657539
 10
358.4245877130332
 20
617.9955608529742
 10
358.4079192895563
 20
616.6174394693497
  0
LWPOLYLINE
  5
BD1
330
1E
100
AcDbEntity
  8
STEMPEL
100
AcDbPolyline
 90
        7
 70
   128
 43
0.0
 10
359.8837550879757
 20
623.0794935251894
 10
359.7459260784053
 20
622.327387288251
 10
359.6270618014391
 20
621.4046736775363
 10
359.530713799538
 20
620.338922427632
 10
359.4597608519998
 20
619.1619770908109
 10
359.4163229599919
 20
617.9090035844089
 10
359.4016980030942
 20
616.6174394693497
  0
LINE
  5
BD2
330
1E
100
AcDbEntity
  8
STEMPEL
100
AcDbLine
 10
341.9985449205551
 20
661.6174394693516
 30
0.0
 11
341.9985449205551
 21
636.6174394693532
 31
0.0
  0
LINE
  5
BD3
330
1E
100
AcDbEntity
  8
STEMPEL
100
AcDbLine
 10
342.8666089402441
 20
636.6174394693516
 30
0.0
 11
342.8666089402441
 21
661.6174394693532
 31
0.0
  0
ELLIPSE
  5
BD4
330
1E
100
AcDbEntity
  8
STEMPEL
100
AcDbEllipse
 10
306.447509583013
 20
661.6174394693516
 30
0.0
 11
0.0
 21
7.5
 31
0.0
210
0.0
220
0.0
230
-1.0
 40
0.8660254037843856
 41
4.712388980384689
 42
6.24459510668465
  0
ELLIPSE
  5
BD5
330
1E
100
AcDbEntity
  8
STEMPEL
100
AcDbEllipse
 10
305.9463325875711
 20
661.6174394693516
 30
0.0
 11
0.0
 21
7.5
 31
0.0
210
0.0
220
0.0
230
-1.0
 40
0.8660254037843856
 41
4.712388980384689
 42
7.853981633974482
  0
ELLIPSE
  5
BD6
330
1E
100
AcDbEntity
  8
STEMPEL
100
AcDbEllipse
 10
306.447509583013
 20
636.6174394693516
 30
0.0
 11
0.0
 21
-7.5
 31
0.0
210
0.0
220
0.0
230
1.0
 40
0.8660254037843856
 41
4.712388980384689
 42
6.24459510668465
  0
ELLIPSE
  5
BD7
330
1E
100
AcDbEntity
  8
STEMPEL
100
AcDbEllipse
 10
305.9463325875711
 20
636.6174394693516
 30
0.0
 11
0.0
 21
-7.5
 31
0.0
210
0.0
220
0.0
230
1.0
 40
0.8660254037843856
 41
4.712388980384689
 42
7.853981633974482
  0
LINE
  5
BD8
330
1E
100
AcDbEntity
  8
STEMPEL
100
AcDbLine
 10
299.4511420591882
 20
661.6174394693516
 30
0.0
 11
299.4511420591882
 21
636.6174394693516
 31
0.0
  0
LINE
  5
BD9
330
1E
100
AcDbEntity
  8
STEMPEL
100
AcDbLine
 10
299.9523190546302
 20
661.6174394693516
 30
0.0
 11
299.9523190546302
 21
636.6174394693516
 31
0.0
  0
LINE
  5
BDA
330
1E
100
AcDbEntity
  8
STEMPEL
100
AcDbLine
 10
312.4415231159539
 20
661.6174394693516
 30
0.0
 11
312.4415231159539
 21
636.6174394693532
 31
0.0
  0
LINE
  5
BDB
330
1E
100
AcDbEntity
  8
STEMPEL
100
AcDbLine
 10
342.4117743569634
 20
616.6174394693497
 30
0.0
 11
342.4117743569634
 21
610.1174394693531
 31
0.0
  0
LINE
  5
BDC
330
1E
100
AcDbEntity
  8
STEMPEL
100
AcDbLine
 10
334.0755738086523
 20
616.6174394693497
 30
0.0
 11
334.0755738086523
 21
610.1174394693531
 31
0.0
  0
LINE
  5
BDD
330
1E
100
AcDbEntity
  8
STEMPEL
100
AcDbLine
 10
333.2803529218316
 20
616.6174394693497
 30
0.0
 11
333.2803529218316
 21
610.1174394693531
 31
0.0
  0
LWPOLYLINE
  5
BDE
330
1E
100
AcDbEntity
  8
STEMPEL
100
AcDbPolyline
 90
        7
 70
   128
 43
0.0
 10
-336.0271506371707
 20
605.1174394693515
 10
-335.4652216639065
 20
605.7267773711924
 10
-334.9832837243194
 20
606.4542076444817
 10
-334.5942991445695
 20
607.2801651384253
 10
-334.3087301534631
 20
608.1824346888875
 10
-334.1342574876671
 20
609.1367486231308
 10
-334.0755738086523
 20
610.1174394693519
210
0.0
220
0.0
230
-1.0
  0
LWPOLYLINE
  5
BDF
330
1E
100
AcDbEntity
  8
STEMPEL
100
AcDbPolyline
 90
       10
 70
   128
 43
0.0
 10
-337.6440590964376
 20
604.1174394693515
 10
-336.8863094713433
 20
604.2085929512783
 10
-336.1515836851677
 20
604.4792837446362
 10
-335.4622060091347
 20
604.9212870466448
 10
-334.8391228350881
 20
605.5211728106378
 10
-334.3012662299768
 20
606.2607138112325
 10
-333.8649786945778
 20
607.1174394693517
 10
-333.5435166048826
 20
608.0653186093977
 10
-333.3466474238185
 20
609.0755504033503
 10
-333.2803529218318
 20
610.1174394693519
210
0.0
220
0.0
230
-1.0
  0
LINE
  5
BE2
330
1E
100
AcDbEntity
  8
STEMPEL
100
AcDbLine
 10
327.9754994138918
 20
602.1174394693505
 30
0.0
 11
326.9754994138919
 21
603.1174394693505
 31
0.0
  0
LINE
  5
BE3
330
1E
100
AcDbEntity
  8
STEMPEL
100
AcDbLine
 10
323.7233816644798
 20
616.6174394693497
 30
0.0
 11
323.7233816644798
 21
610.1174394693531
 31
0.0
  0
LWPOLYLINE
  5
BE4
330
1E
100
AcDbEntity
  8
STEMPEL
100
AcDbPolyline
 90
       10
 70
   128
 43
0.0
 10
-327.3859848000041
 20
604.1174394693527
 10
-326.7499804400031
 20
604.2085929512794
 10
-326.1333007506469
 20
604.4792837446372
 10
-325.5546832322418
 20
604.921287046646
 10
-325.0317088852901
 20
605.521172810639
 10
-324.5802680206855
 20
606.2607138112337
 10
-324.2140774406596
 20
607.1174394693529
 10
-323.9442636606846
 20
608.0653186093988
 10
-323.7790248359329
 20
609.0755504033515
 10
-323.7233816644798
 20
610.1174394693531
210
0.0
220
0.0
230
-1.0
  0
LINE
  5
BE6
330
1E
100
AcDbEntity
  8
HILF
100
AcDbLine
 10
326.9754994138919
 20
603.1174394693505
 30
0.0
 11
326.9754994138918
 21
600.1174394693508
 31
0.0
  0
LINE
  5
BE7
330
1E
100
AcDbEntity
  8
STEMPEL
100
AcDbLine
 10
327.9754994138918
 20
602.1174394693505
 30
0.0
 11
327.9754994138918
 21
600.1174394693508
 31
0.0
  0
LINE
  5
BEA
330
1E
100
AcDbEntity
  8
HILF
100
AcDbLine
 10
326.9754994138921
 20
584.11743946935
 30
0.0
 11
326.9754994138921
 21
581.1174394693506
 31
0.0
  0
LINE
  5
BEB
330
1E
100
AcDbEntity
  8
STEMPEL
100
AcDbLine
 10
327.9754994138918
 20
584.11743946935
 30
0.0
 11
327.9754994138921
 21
581.1174394693506
 31
0.0
  0
LINE
  5
BEC
102
{ACAD_REACTORS
330
FC9
102
}
330
1E
100
AcDbEntity
  8
MITTEL
100
AcDbLine
 10
322.9754994138917
 20
608.11743946935
 30
0.0
 11
322.9754994138918
 21
573.1174394693498
 31
0.0
  0
LINE
  5
BED
330
1E
100
AcDbEntity
  8
STEMPEL
100
AcDbLine
 10
318.9754994138918
 20
603.1174394693505
 30
0.0
 11
318.906646954875
 21
603.0485870103336
 31
0.0
  0
LINE
  5
BF9
330
1E
100
AcDbEntity
  8
HILF
100
AcDbLine
 10
318.9754994138918
 20
603.1174394693505
 30
0.0
 11
318.9754994138918
 21
601.7174394693415
 31
0.0
  0
LINE
  5
BFC
330
1E
100
AcDbEntity
  8
STEMPEL
100
AcDbLine
 10
317.9754994138921
 20
584.11743946935
 30
0.0
 11
317.9754994138921
 21
581.1174394693506
 31
0.0
  0
LINE
  5
BFD
330
1E
100
AcDbEntity
  8
HILF
100
AcDbLine
 10
318.9754994138921
 20
584.11743946935
 30
0.0
 11
318.9754994138919
 21
581.1174394693505
 31
0.0
  0
LINE
  5
BFE
102
{ACAD_REACTORS
330
FC9
102
}
330
1E
100
AcDbEntity
  8
STEMPEL
100
AcDbLine
 10
314.0754994138918
 20
581.1174394693501
 30
0.0
 11
314.0754994138918
 21
578.1174394693501
 31
0.0
  0
ARC
  5
BFF
330
1E
100
AcDbEntity
  8
STEMPEL
100
AcDbCircle
 10
309.8892079128766
 20
570.11743946935
 30
0.0
 40
8.0
100
AcDbArc
 50
90.0
 51
135.0
  0
ARC
  5
C00
330
1E
100
AcDbEntity
  8
STEMPEL
100
AcDbCircle
 10
309.8892079128766
 20
570.11743946935
 30
0.0
 40
6.0
100
AcDbArc
 50
90.0
 51
135.0
  0
LINE
  5
C02
330
1E
100
AcDbEntity
  8
STEMPEL
100
AcDbLine
 10
325.3836795323299
 20
605.1174394693513
 30
0.0
 11
318.7996373449258
 21
605.1174394693515
 31
0.0
  0
LINE
  5
C03
330
1E
100
AcDbEntity
  8
STEMPEL
100
AcDbLine
 10
318.954809758719
 20
602.1174394693505
 30
0.0
 11
327.9754994138916
 21
602.1174394693505
 31
0.0
  0
LINE
  5
C08
330
1E
100
AcDbEntity
  8
STEMPEL
100
AcDbLine
 10
326.9754994138919
 20
603.1174394693505
 30
0.0
 11
318.9754994138918
 21
603.1174394693505
 31
0.0
  0
LWPOLYLINE
  5
C09
330
1E
100
AcDbEntity
  8
STEMPEL
100
AcDbPolyline
 90
       17
 70
   128
 43
0.0
 10
323.72338166448
 20
616.6174394693497
 10
323.6220690526757
 20
617.9955608529742
 10
323.3215812967464
 20
619.3267519657539
 10
322.8321511468252
 20
620.5656806909307
 10
322.1704455596607
 20
621.6701567967
 10
321.3589981253956
 20
622.6025686739529
 10
320.4254417131799
 20
623.3311641545141
 10
319.4015674669538
 20
623.8311317931474
 10
318.3222421961712
 20
624.0854457915641
 10
317.22422102842
 20
624.0854457915641
 10
316.1448957576372
 20
623.8311317931474
 10
315.1210215114111
 20
623.3311641545141
 10
314.1874650991954
 20
622.6025686739529
 10
313.3760176649303
 20
621.6701567967
 10
312.714312077766
 20
620.5656806909307
 10
312.2248819278448
 20
619.3267519657539
 10
312.1776341347003
 20
619.1174394693498
  0
LWPOLYLINE
  5
C0A
330
1E
100
AcDbEntity
  8
STEMPEL
100
AcDbPolyline
 90
        8
 70
   128
 43
0.0
 10
318.078328836215
 20
624.1075735471733
 10
316.9619211148438
 20
623.9002664107663
 10
315.8966418631016
 20
623.4310116833126
 10
314.9208068800633
 20
622.7166874461439
 10
314.0695148472052
 20
621.7829864027476
 10
313.3733849044688
 20
620.6634917675871
 10
312.8574553457775
 20
619.3984693502484
 10
312.792157452488
 20
619.1174394693498
  0
LWPOLYLINE
  5
C0B
330
1E
100
AcDbEntity
  8
STEMPEL
100
AcDbPolyline
 90
       18
 70
   128
 43
0.0
 10
342.4117743569634
 20
616.6174394693497
 10
342.3340344557032
 20
617.9955608529742
 10
342.1034620910214
 20
619.3267519657539
 10
341.7279091282562
 20
620.5656806909307
 10
341.2201645731286
 20
621.6701567967
 10
340.5975190574907
 20
622.6025686739529
 10
339.8811760275965
 20
623.3311641545141
 10
339.0955296861707
 20
623.8311317931474
 10
338.2673342770913
 20
624.0854457915641
 10
337.4247930017036
 20
624.0854457915641
 10
336.5965975926242
 20
623.8311317931474
 10
335.8109512511983
 20
623.3311641545141
 10
335.0946082213043
 20
622.6025686739529
 10
334.4719627056663
 20
621.6701567967
 10
333.9642181505385
 20
620.5656806909307
 10
333.5886651877733
 20
619.3267519657539
 10
333.3580928230915
 20
617.9955608529742
 10
333.2803529218316
 20
616.6174394693497
  0
LWPOLYLINE
  5
C0C
330
1E
100
AcDbEntity
  8
STEMPEL
100
AcDbPolyline
 90
       10
 70
   128
 43
0.0
 10
338.6412845262185
 20
624.1174394693529
 10
337.8484571803588
 20
624.0034976169445
 10
337.0797194922129
 20
623.665134125247
 10
336.3584291674353
 20
623.112629997736
 10
335.706502247554
 20
622.3627727927448
 10
335.1437472021382
 20
621.4383465420014
 10
334.6872630584753
 20
620.3674394693521
 10
334.3509198562785
 20
619.1825905442944
 10
334.1449372135485
 20
617.9198008018536
 10
334.0755738086525
 20
616.6174394693513
  0
LINE
  5
C0D
330
1E
100
AcDbEntity
  8
STEMPEL
100
AcDbLine
 10
344.3633511854819
 20
605.1174394693515
 30
0.0
 11
336.0271506371701
 21
605.1174394693515
 31
0.0
  0
LWPOLYLINE
  5
C0E
330
1E
100
AcDbEntity
  8
STEMPEL
100
AcDbPolyline
 90
       10
 70
   128
 43
0.0
 10
-346.7754805315694
 20
604.1174394693515
 10
-346.0177309064752
 20
604.2085929512783
 10
-345.2830051202996
 20
604.4792837446362
 10
-344.5936274442666
 20
604.9212870466448
 10
-343.97054427022
 20
605.5211728106378
 10
-343.4326876651087
 20
606.2607138112325
 10
-342.9964001297096
 20
607.1174394693517
 10
-342.6749380400145
 20
608.0653186093977
 10
-342.4780688589503
 20
609.0755504033503
 10
-342.4117743569636
 20
610.1174394693519
210
0.0
220
0.0
230
-1.0
  0
LINE
  5
C10
330
1E
100
AcDbEntity
  8
STEMPEL
100
AcDbLine
 10
304.0503731480442
 20
572.7638860787562
 30
0.0
 11
372.6612858515189
 21
572.7638860787562
 31
0.0
  0
LINE
  5
C11
330
1E
100
AcDbEntity
  8
STEMPEL
100
AcDbLine
 10
367.8579849926198
 20
576.1174394693503
 30
0.0
 11
309.8892079128764
 21
576.1174394693499
 31
0.0
  0
ELLIPSE
  5
C12
330
1E
100
AcDbEntity
  8
STEMPEL
100
AcDbEllipse
 10
346.6166089402439
 20
636.6174394693532
 30
0.0
 11
0.0
 21
-7.499999999999999
 31
0.0
210
0.0
220
0.0
230
1.0
 40
0.4999999999999926
 41
4.712388980384689
 42
6.167183451052224
  0
ELLIPSE
  5
C13
330
1E
100
AcDbEntity
  8
STEMPEL
100
AcDbEllipse
 10
345.7485449205551
 20
636.6174394693532
 30
0.0
 11
0.0
 21
-7.499999999999999
 31
0.0
210
0.0
220
0.0
230
1.0
 40
0.4999999999999926
 41
4.712388980384689
 42
7.853981633974482
  0
ELLIPSE
  5
C14
330
1E
100
AcDbEntity
  8
STEMPEL
100
AcDbEllipse
 10
346.6166089402439
 20
661.6174394693516
 30
0.0
 11
0.0
 21
7.499999999999999
 31
0.0
210
0.0
220
0.0
230
-1.0
 40
0.4999999999999926
 41
4.712388980384689
 42
6.167183451052224
  0
ELLIPSE
  5
C15
330
1E
100
AcDbEntity
  8
STEMPEL
100
AcDbEllipse
 10
345.7485449205551
 20
661.6174394693516
 30
0.0
 11
0.0
 21
7.499999999999999
 31
0.0
210
0.0
220
0.0
230
-1.0
 40
0.4999999999999926
 41
4.712388980384689
 42
7.853981633974482
  0
LINE
  5
C16
330
1E
100
AcDbEntity
  8
STEMPEL
100
AcDbLine
 10
358.0948529820191
 20
678.4362769162322
 30
0.0
 11
334.1159990890681
 21
692.4239300824178
 31
0.0
  0
LINE
  5
C17
330
1E
100
AcDbEntity
  8
STEMPEL
100
AcDbLine
 10
358.6081940356
 20
679.2945200293948
 30
0.0
 11
334.6218911601332
 21
693.2865300400834
 31
0.0
  0
ARC
  5
C18
330
1E
100
AcDbEntity
  8
STEMPEL
100
AcDbCircle
 10
277.0150140089488
 20
695.6174394693512
 30
0.0
 40
2.5
100
AcDbArc
 50
209.9999999999925
 51
270.0
  0
ARC
  5
C19
330
1E
100
AcDbEntity
  8
STEMPEL
100
AcDbCircle
 10
277.0150140089488
 20
695.6174394693512
 30
0.0
 40
1.5
100
AcDbArc
 50
209.9999999999925
 51
270.0
  0
LINE
  5
C1A
330
1E
100
AcDbEntity
  8
STEMPEL
100
AcDbLine
 10
274.2169377975947
 20
694.6174394693512
 30
0.0
 11
274.4169377975948
 21
694.6174394693512
 31
0.0
  0
ARC
  5
C1B
330
1E
100
AcDbEntity
  8
STEMPEL
100
AcDbCircle
 10
274.4169377975948
 20
694.1174394693511
 30
0.0
 40
0.5
100
AcDbArc
 50
29.99999999999246
 51
90.0
  0
ARC
  5
C1C
330
1E
100
AcDbEntity
  8
STEMPEL
100
AcDbCircle
 10
274.4169377975948
 20
694.1174394693511
 30
0.0
 40
1.5
100
AcDbArc
 50
29.99999999999246
 51
90.0
  0
ARC
  5
C1D
330
1E
100
AcDbEntity
  8
STEMPEL
100
AcDbCircle
 10
271.6188615862423
 20
695.6174394693512
 30
0.0
 40
1.5
100
AcDbArc
 50
270.0
 51
329.999999999993
  0
ARC
  5
C1E
330
1E
100
AcDbEntity
  8
STEMPEL
100
AcDbCircle
 10
265.1650140089482
 20
695.6174394693512
 30
0.0
 40
2.5
100
AcDbArc
 50
209.9999999999997
 51
270.0
  0
ARC
  5
C1F
330
1E
100
AcDbEntity
  8
STEMPEL
100
AcDbCircle
 10
265.1650140089482
 20
695.6174394693512
 30
0.0
 40
1.5
100
AcDbArc
 50
209.9999999999997
 51
270.0
  0
ARC
  5
C20
330
1E
100
AcDbEntity
  8
STEMPEL
100
AcDbCircle
 10
262.5669377975949
 20
694.1174394693511
 30
0.0
 40
1.5
100
AcDbArc
 50
29.99999999999973
 51
90.0
  0
LINE
  5
C21
330
1E
100
AcDbEntity
  8
STEMPEL
100
AcDbLine
 10
262.3669377975948
 20
694.6174394693513
 30
0.0
 11
262.5669377975949
 21
694.6174394693513
 31
0.0
  0
ARC
  5
C22
330
1E
100
AcDbEntity
  8
STEMPEL
100
AcDbCircle
 10
262.5669377975949
 20
694.1174394693511
 30
0.0
 40
0.5
100
AcDbArc
 50
29.99999999999973
 51
90.0
  0
LINE
  5
C23
330
1E
100
AcDbEntity
  8
STEMPEL
100
AcDbLine
 10
265.1650140089482
 20
694.1174394693513
 30
0.0
 11
271.6188615862423
 21
694.1174394693513
 31
0.0
  0
LINE
  5
C24
330
1E
100
AcDbEntity
  8
STEMPEL
100
AcDbLine
 10
265.1650140089482
 20
694.1174394693511
 30
0.0
 11
271.6188615862423
 21
694.1174394693511
 31
0.0
  0
ARC
  5
C25
330
1E
100
AcDbEntity
  8
STEMPEL
100
AcDbCircle
 10
260.2416969318915
 20
694.6174394693512
 30
0.0
 40
1.5
100
AcDbArc
 50
194.4775121859299
 51
270.0
  0
ARC
  5
C26
330
1E
100
AcDbEntity
  8
STEMPEL
100
AcDbCircle
 10
260.4304461244908
 20
694.6174394693512
 30
0.0
 40
1.5
100
AcDbArc
 50
270.0
 51
345.5224878140768
  0
ARC
  5
C27
330
1E
100
AcDbEntity
  8
STEMPEL
100
AcDbCircle
 10
260.2416969318915
 20
694.6174394693512
 30
0.0
 40
0.5
100
AcDbArc
 50
194.4775121859299
 51
270.0
  0
ARC
  5
C28
330
1E
100
AcDbEntity
  8
STEMPEL
100
AcDbCircle
 10
258.3052052587882
 20
694.1174394693511
 30
0.0
 40
0.5
100
AcDbArc
 50
14.47751218592986
 51
90.0
  0
ARC
  5
C29
330
1E
100
AcDbEntity
  8
STEMPEL
100
AcDbCircle
 10
258.3052052587882
 20
694.1174394693511
 30
0.0
 40
1.5
100
AcDbArc
 50
14.47751218592986
 51
90.0
  0
ARC
  5
C2A
330
1E
100
AcDbEntity
  8
STEMPEL
100
AcDbCircle
 10
260.4304461244908
 20
694.6174394693512
 30
0.0
 40
0.5
100
AcDbArc
 50
270.0
 51
345.5224878140768
  0
LINE
  5
C2B
330
1E
100
AcDbEntity
  8
STEMPEL
100
AcDbLine
 10
260.2416969318915
 20
694.1174394693511
 30
0.0
 11
260.4304461244908
 21
694.1174394693511
 31
0.0
  0
ARC
  5
C2C
330
1E
100
AcDbEntity
  8
STEMPEL
100
AcDbCircle
 10
262.3669377975948
 20
694.1174394693511
 30
0.0
 40
1.5
100
AcDbArc
 50
90.0
 51
165.5224878140769
  0
ARC
  5
C2D
330
1E
100
AcDbEntity
  8
STEMPEL
100
AcDbCircle
 10
262.3669377975948
 20
694.1174394693511
 30
0.0
 40
0.5
100
AcDbArc
 50
90.0
 51
165.5224878140769
  0
ARC
  5
C2E
330
1E
100
AcDbEntity
  8
STEMPEL
100
AcDbCircle
 10
271.6188615862423
 20
695.6174394693512
 30
0.0
 40
2.5
100
AcDbArc
 50
270.0
 51
329.999999999993
  0
ARC
  5
C2F
330
1E
100
AcDbEntity
  8
STEMPEL
100
AcDbCircle
 10
274.2169377975947
 20
694.1174394693511
 30
0.0
 40
1.5
100
AcDbArc
 50
90.0
 51
149.9999999999922
  0
ARC
  5
C30
330
1E
100
AcDbEntity
  8
STEMPEL
100
AcDbCircle
 10
274.2169377975947
 20
694.1174394693511
 30
0.0
 40
0.5
100
AcDbArc
 50
90.0
 51
149.9999999999922
  0
ARC
  5
C31
330
1E
100
AcDbEntity
  8
STEMPEL
100
AcDbCircle
 10
245.618861586242
 20
695.6174394693512
 30
0.0
 40
2.5
100
AcDbArc
 50
270.0
 51
330.0000000000003
  0
ARC
  5
C32
330
1E
100
AcDbEntity
  8
STEMPEL
100
AcDbCircle
 10
248.2169377975947
 20
694.1174394693511
 30
0.0
 40
1.5
100
AcDbArc
 50
90.0
 51
149.9999999999994
  0
ARC
  5
C33
330
1E
100
AcDbEntity
  8
STEMPEL
100
AcDbCircle
 10
245.618861586242
 20
695.6174394693512
 30
0.0
 40
1.5
100
AcDbArc
 50
270.0
 51
330.0000000000003
  0
ARC
  5
C34
330
1E
100
AcDbEntity
  8
STEMPEL
100
AcDbCircle
 10
248.2169377975947
 20
694.1174394693511
 30
0.0
 40
0.5
100
AcDbArc
 50
90.0
 51
149.9999999999994
  0
LINE
  5
C35
330
1E
100
AcDbEntity
  8
STEMPEL
100
AcDbLine
 10
239.1650140089478
 20
694.1174394693511
 30
0.0
 11
245.618861586242
 21
694.1174394693511
 31
0.0
  0
LINE
  5
C36
330
1E
100
AcDbEntity
  8
STEMPEL
100
AcDbLine
 10
239.1650140089478
 20
694.1174394693511
 30
0.0
 11
245.618861586242
 21
694.1174394693511
 31
0.0
  0
ARC
  5
C37
330
1E
100
AcDbEntity
  8
STEMPEL
100
AcDbCircle
 10
233.768861586241
 20
695.6174394693512
 30
0.0
 40
2.5
100
AcDbArc
 50
270.0
 51
330.0000000000076
  0
ARC
  5
C38
330
1E
100
AcDbEntity
  8
STEMPEL
100
AcDbCircle
 10
236.3669377975948
 20
694.1174394693511
 30
0.0
 40
1.5
100
AcDbArc
 50
90.0
 51
150.0000000000075
  0
ARC
  5
C39
330
1E
100
AcDbEntity
  8
STEMPEL
100
AcDbCircle
 10
233.768861586241
 20
695.6174394693512
 30
0.0
 40
1.5
100
AcDbArc
 50
270.0
 51
330.0000000000076
  0
ARC
  5
C3A
330
1E
100
AcDbEntity
  8
STEMPEL
100
AcDbCircle
 10
236.3669377975948
 20
694.1174394693511
 30
0.0
 40
0.5
100
AcDbArc
 50
90.0
 51
150.0000000000075
  0
LINE
  5
C3B
330
1E
100
AcDbEntity
  8
STEMPEL
100
AcDbLine
 10
236.3669377975948
 20
694.6174394693513
 30
0.0
 11
236.5669377975948
 21
694.6174394693513
 31
0.0
  0
ARC
  5
C3C
330
1E
100
AcDbEntity
  8
STEMPEL
100
AcDbCircle
 10
236.5669377975948
 20
694.1174394693511
 30
0.0
 40
0.5
100
AcDbArc
 50
29.99999999999973
 51
90.0
  0
ARC
  5
C3D
330
1E
100
AcDbEntity
  8
STEMPEL
100
AcDbCircle
 10
236.5669377975948
 20
694.1174394693511
 30
0.0
 40
1.5
100
AcDbArc
 50
29.99999999999973
 51
90.0
  0
ARC
  5
C3E
330
1E
100
AcDbEntity
  8
STEMPEL
100
AcDbCircle
 10
231.7100140089487
 20
695.6174394693512
 30
0.0
 40
2.5
100
AcDbArc
 50
209.9999999999925
 51
270.0
  0
ARC
  5
C3F
330
1E
100
AcDbEntity
  8
STEMPEL
100
AcDbCircle
 10
231.7100140089487
 20
695.6174394693512
 30
0.0
 40
1.5
100
AcDbArc
 50
209.9999999999925
 51
270.0
  0
ARC
  5
C40
330
1E
100
AcDbEntity
  8
STEMPEL
100
AcDbCircle
 10
228.9119377975949
 20
694.1174394693511
 30
0.0
 40
0.5
100
AcDbArc
 50
90.0
 51
149.9999999999994
  0
LINE
  5
C41
330
1E
100
AcDbEntity
  8
STEMPEL
100
AcDbLine
 10
228.9119377975949
 20
694.6174394693512
 30
0.0
 11
229.1119377975949
 21
694.6174394693512
 31
0.0
  0
ARC
  5
C42
330
1E
100
AcDbEntity
  8
STEMPEL
100
AcDbCircle
 10
229.1119377975949
 20
694.1174394693511
 30
0.0
 40
0.5
100
AcDbArc
 50
29.99999999999973
 51
90.0
  0
ARC
  5
C43
330
1E
100
AcDbEntity
  8
STEMPEL
100
AcDbCircle
 10
229.1119377975949
 20
694.1174394693511
 30
0.0
 40
1.5
100
AcDbArc
 50
29.99999999999246
 51
90.0
  0
ARC
  5
C44
330
1E
100
AcDbEntity
  8
STEMPEL
100
AcDbCircle
 10
228.9119377975949
 20
694.1174394693511
 30
0.0
 40
1.5
100
AcDbArc
 50
90.0
 51
149.9999999999994
  0
LINE
  5
C45
330
1E
100
AcDbEntity
  8
STEMPEL
100
AcDbLine
 10
231.7100140089487
 20
694.117439469351
 30
0.0
 11
233.768861586241
 21
694.117439469351
 31
0.0
  0
LINE
  5
C46
330
1E
100
AcDbEntity
  8
STEMPEL
100
AcDbLine
 10
231.7100140089487
 20
694.1174394693511
 30
0.0
 11
233.768861586241
 21
694.1174394693511
 31
0.0
  0
ARC
  5
C47
330
1E
100
AcDbEntity
  8
STEMPEL
100
AcDbCircle
 10
239.1650140089478
 20
695.6174394693512
 30
0.0
 40
2.5
100
AcDbArc
 50
209.9999999999997
 51
270.0
  0
ARC
  5
C48
330
1E
100
AcDbEntity
  8
STEMPEL
100
AcDbCircle
 10
239.1650140089478
 20
695.6174394693512
 30
0.0
 40
1.5
100
AcDbArc
 50
209.9999999999997
 51
270.0
  0
ARC
  5
C49
330
1E
100
AcDbEntity
  8
STEMPEL
100
AcDbCircle
 10
226.3138615862413
 20
695.6174394693512
 30
0.0
 40
2.5
100
AcDbArc
 50
270.0
 51
330.0000000000003
  0
ARC
  5
C4A
330
1E
100
AcDbEntity
  8
STEMPEL
100
AcDbCircle
 10
226.3138615862413
 20
695.6174394693512
 30
0.0
 40
1.5
100
AcDbArc
 50
270.0
 51
330.0000000000003
  0
LINE
  5
C4B
330
1E
100
AcDbEntity
  8
STEMPEL
100
AcDbLine
 10
248.2169377975947
 20
694.6174394693513
 30
0.0
 11
258.3052052587882
 21
694.6174394693513
 31
0.0
  0
LINE
  5
C4C
330
1E
100
AcDbEntity
  8
STEMPEL
100
AcDbLine
 10
228.9119377975949
 20
695.6174394693512
 30
0.0
 11
274.4169377975948
 21
695.6174394693512
 31
0.0
  0
ARC
  5
C4D
330
1E
100
AcDbEntity
  8
STEMPEL
100
AcDbCircle
 10
171.575499413892
 20
688.1174394693511
 30
0.0
 40
6.0
100
AcDbArc
 50
90.0
 51
90.0
  0
ARC
  5
C4E
330
1E
100
AcDbEntity
  8
STEMPEL
100
AcDbCircle
 10
171.575499413892
 20
688.1174394693511
 30
0.0
 40
5.0
100
AcDbArc
 50
90.0
 51
120.5373500482991
  0
ARC
  5
C4F
330
1E
100
AcDbEntity
  8
STEMPEL
100
AcDbCircle
 10
171.575499413892
 20
688.1174394693511
 30
0.0
 40
6.0
100
AcDbArc
 50
90.0
 51
120.5128743276211
  0
LINE
  5
C50
330
1E
100
AcDbEntity
  8
STEMPEL
100
AcDbLine
 10
171.575499413892
 20
694.1174394693509
 30
0.0
 11
226.3138615862413
 21
694.117439469351
 31
0.0
  0
LINE
  5
C51
330
1E
100
AcDbEntity
  8
STEMPEL
100
AcDbLine
 10
259.075499413892
 20
661.6174394693516
 30
0.0
 11
259.075499413892
 21
636.6174394693516
 31
0.0
  0
LWPOLYLINE
  5
C5D
330
1E
100
AcDbEntity
  8
STEMPEL
100
AcDbPolyline
 90
        8
 70
   128
 43
0.0
 10
293.3809256656061
 20
624.1145658923898
 10
292.0567162152763
 20
623.935732985342
 10
290.7887368180902
 20
623.4854570680179
 10
289.6240181300047
 20
622.7804393358788
 10
288.605760761398
 20
621.8468296194952
 10
287.7717329221357
 20
620.7192564605191
 10
287.1528695599418
 20
619.4395427035673
 10
287.0642823798366
 20
619.1174394693498
  0
LWPOLYLINE
  5
C5E
330
1E
100
AcDbEntity
  8
STEMPEL
100
AcDbPolyline
 90
       16
 70
   128
 43
0.0
 10
272.7618911020378
 20
619.1174394693498
 10
272.7028460595009
 20
619.3267519657539
 10
272.0912106349085
 20
620.5656806909307
 10
271.2642845090343
 20
621.6701567967
 10
270.2502276593059
 20
622.6025686739529
 10
269.0835725755142
 20
623.3311641545141
 10
267.804048297289
 20
623.8311317931474
 10
266.4552274893049
 20
624.0854457915641
 10
265.0830426264456
 20
624.0854457915641
 10
263.7342218184615
 20
623.8311317931474
 10
262.4546975402361
 20
623.3311641545141
 10
261.2880424564444
 20
622.6025686739529
 10
260.2739856067162
 20
621.6701567967
 10
259.4470594808417
 20
620.5656806909307
 10
258.8354240562494
 20
619.3267519657539
 10
258.7763790137124
 20
619.1174394693498
  0
LWPOLYLINE
  5
C5F
330
1E
100
AcDbEntity
  8
STEMPEL
100
AcDbPolyline
 90
        8
 70
   128
 43
0.0
 10
265.8345517826187
 20
624.1171492291244
 10
264.3932117987408
 20
623.9618478352008
 10
263.0091308952913
 20
623.5274475881865
 10
261.7349062827593
 20
622.8304563679111
 10
260.6189604630294
 20
621.8973609164655
 10
259.7037010995764
 20
620.763620301122
 10
259.0239094608014
 20
619.4723184150527
 10
258.917812554694
 20
619.1174394693498
  0
LINE
  5
C60
330
1E
100
AcDbEntity
  8
STEMPEL
100
AcDbLine
 10
244.075499413892
 20
661.61743946935
 30
0.0
 11
244.075499413892
 21
636.61743946935
 31
0.0
  0
LINE
  5
C74
330
1E
100
AcDbEntity
  8
STEMPEL
100
AcDbLine
 10
211.5754994138917
 20
584.1174394693503
 30
0.0
 11
211.575499413892
 21
581.1174394693503
 31
0.0
  0
LINE
  5
C75
330
1E
100
AcDbEntity
  8
HILF
100
AcDbLine
 10
210.575499413892
 20
584.1174394693503
 30
0.0
 11
210.575499413892
 21
581.1174394693503
 31
0.0
  0
LINE
  5
C76
330
1E
100
AcDbEntity
  8
MITTEL
100
AcDbLine
 10
206.5754994138917
 20
608.11743946935
 30
0.0
 11
206.5754994138917
 21
573.1174394693497
 31
0.0
  0
LWPOLYLINE
  5
C77
330
1E
100
AcDbEntity
  8
STEMPEL
100
AcDbPolyline
 90
        8
 70
   128
 43
0.0
 10
-209.7700731621778
 20
624.1145658923898
 10
-211.0942826125076
 20
623.935732985342
 10
-212.3622620096937
 20
623.4854570680179
 10
-213.5269806977794
 20
622.7804393358788
 10
-214.545238066386
 20
621.8468296194952
 10
-215.3792659056482
 20
620.7192564605191
 10
-215.9981292678422
 20
619.4395427035673
 10
-216.0867164479474
 20
619.1174394693497
210
0.0
220
0.0
230
-1.0
  0
LWPOLYLINE
  5
C78
330
1E
100
AcDbEntity
  8
STEMPEL
100
AcDbPolyline
 90
        8
 70
   128
 43
0.0
 10
-237.3164470451655
 20
624.1171492291244
 10
-238.7577870290432
 20
623.9618478352008
 10
-240.1418679324927
 20
623.5274475881865
 10
-241.4160925450246
 20
622.8304563679111
 10
-242.5320383647545
 20
621.8973609164655
 10
-243.4472977282076
 20
620.763620301122
 10
-244.1270893669828
 20
619.4723184150527
 10
-244.2331862730902
 20
619.1174394693497
210
0.0
220
0.0
230
-1.0
  0
LWPOLYLINE
  5
C79
330
1E
100
AcDbEntity
  8
STEMPEL
100
AcDbPolyline
 90
       16
 70
   128
 43
0.0
 10
-230.3891077257461
 20
619.1174394693497
 10
-230.4481527682831
 20
619.3267519657539
 10
-231.0597881928754
 20
620.5656806909307
 10
-231.8867143187499
 20
621.6701567967
 10
-232.9007711684781
 20
622.6025686739529
 10
-234.0674262522698
 20
623.3311641545141
 10
-235.3469505304952
 20
623.8311317931474
 10
-236.6957713384793
 20
624.0854457915641
 10
-238.0679562013386
 20
624.0854457915641
 10
-239.4167770093227
 20
623.8311317931474
 10
-240.6963012875479
 20
623.3311641545141
 10
-241.8629563713396
 20
622.6025686739529
 10
-242.8770132210679
 20
621.6701567967
 10
-243.7039393469422
 20
620.5656806909307
 10
-244.3155747715346
 20
619.3267519657539
 10
-244.3746198140716
 20
619.1174394693497
210
0.0
220
0.0
230
-1.0
  0
ARC
  5
C7A
330
1E
100
AcDbEntity
  8
STEMPEL
100
AcDbCircle
 10
251.575499413892
 20
661.6174394693516
 30
0.0
 40
7.5
100
AcDbArc
 50
0.0000000000260551
 51
16.56282650976208
  0
ARC
  5
C7B
330
1E
100
AcDbEntity
  8
STEMPEL
100
AcDbCircle
 10
251.5754994138919
 20
636.6174394693516
 30
0.0
 40
7.5
100
AcDbArc
 50
179.999999999987
 51
359.999999999974
  0
ELLIPSE
  5
C7C
330
1E
100
AcDbEntity
  8
STEMPEL
100
AcDbEllipse
 10
196.7034892447707
 20
661.6174394693516
 30
0.0
 11
0.0
 21
7.5
 31
0.0
210
0.0
220
0.0
230
1.0
 40
0.8660254037843856
 41
4.712388980384689
 42
6.24459510668465
  0
ELLIPSE
  5
C7D
330
1E
100
AcDbEntity
  8
STEMPEL
100
AcDbEllipse
 10
197.2046662402126
 20
661.6174394693516
 30
0.0
 11
0.0
 21
7.5
 31
0.0
210
0.0
220
0.0
230
1.0
 40
0.8660254037843856
 41
4.712388980384689
 42
7.853981633974482
  0
ELLIPSE
  5
C7E
330
1E
100
AcDbEntity
  8
STEMPEL
100
AcDbEllipse
 10
196.7034892447707
 20
636.6174394693516
 30
0.0
 11
0.0
 21
-7.5
 31
0.0
210
0.0
220
0.0
230
-1.0
 40
0.8660254037843856
 41
4.712388980384689
 42
6.24459510668465
  0
ELLIPSE
  5
C7F
330
1E
100
AcDbEntity
  8
STEMPEL
100
AcDbEllipse
 10
197.2046662402126
 20
636.6174394693516
 30
0.0
 11
0.0
 21
-7.5
 31
0.0
210
0.0
220
0.0
230
-1.0
 40
0.8660254037843856
 41
4.712388980384689
 42
7.853981633974482
  0
LINE
  5
C80
330
1E
100
AcDbEntity
  8
STEMPEL
100
AcDbLine
 10
203.1986797731536
 20
661.6174394693516
 30
0.0
 11
203.1986797731536
 21
636.6174394693516
 31
0.0
  0
LINE
  5
C81
330
1E
100
AcDbEntity
  8
STEMPEL
100
AcDbLine
 10
190.7094757118298
 20
661.6174394693516
 30
0.0
 11
190.7094757118298
 21
636.6174394693532
 31
0.0
  0
LINE
  5
C82
330
1E
100
AcDbEntity
  8
STEMPEL
100
AcDbLine
 10
203.6998567685956
 20
661.6174394693516
 30
0.0
 11
203.6998567685956
 21
636.6174394693516
 31
0.0
  0
LINE
  5
C83
330
1E
100
AcDbEntity
  8
STEMPEL
100
AcDbLine
 10
160.2843898875399
 20
636.6174394693516
 30
0.0
 11
160.2843898875399
 21
661.6174394693532
 31
0.0
  0
LINE
  5
C84
330
1E
100
AcDbEntity
  8
STEMPEL
100
AcDbLine
 10
161.1524539072287
 20
661.6174394693516
 30
0.0
 11
161.1524539072287
 21
636.6174394693532
 31
0.0
  0
LINE
  5
C94
330
1E
100
AcDbEntity
  8
STEMPEL
100
AcDbLine
 10
201.575499413892
 20
584.1174394693503
 30
0.0
 11
201.575499413892
 21
581.1174394693503
 31
0.0
  0
LINE
  5
C95
330
1E
100
AcDbEntity
  8
HILF
100
AcDbLine
 10
202.5754994138921
 20
584.1174394693503
 30
0.0
 11
202.5754994138919
 21
581.1174394693502
 31
0.0
  0
ARC
  5
C96
330
1E
100
AcDbEntity
  8
STEMPEL
100
AcDbCircle
 10
193.2617909149073
 20
570.11743946935
 30
0.0
 40
6.0
100
AcDbArc
 50
45.0
 51
90.0
  0
ARC
  5
C97
330
1E
100
AcDbEntity
  8
STEMPEL
100
AcDbCircle
 10
193.2617909149073
 20
570.11743946935
 30
0.0
 40
8.0
100
AcDbArc
 50
45.0
 51
90.0
  0
LINE
  5
C98
102
{ACAD_REACTORS
330
FC9
102
}
330
1E
100
AcDbEntity
  8
STEMPEL
100
AcDbLine
 10
189.0754994138917
 20
581.1174394693503
 30
0.0
 11
189.0754994138917
 21
578.1174394693501
 31
0.0
  0
LINE
  5
C9A
330
1E
100
AcDbEntity
  8
STEMPEL
100
AcDbLine
 10
179.4276171633041
 20
616.6174394693497
 30
0.0
 11
179.4276171633041
 21
610.1174394693531
 31
0.0
  0
LWPOLYLINE
  5
C9B
330
1E
100
AcDbEntity
  8
STEMPEL
100
AcDbPolyline
 90
       10
 70
   128
 43
0.0
 10
175.7650140277801
 20
604.1174394693515
 10
176.401018387781
 20
604.2085929512783
 10
177.0176980771371
 20
604.4792837446362
 10
177.5963155955421
 20
604.9212870466448
 10
178.1192899424941
 20
605.5211728106378
 10
178.5707308070984
 20
606.2607138112325
 10
178.9369213871245
 20
607.1174394693517
 10
179.2067351670994
 20
608.0653186093977
 10
179.371973991851
 20
609.0755504033503
 10
179.4276171633041
 20
610.1174394693519
  0
LINE
  5
C9C
330
1E
100
AcDbEntity
  8
STEMPEL
100
AcDbLine
 10
169.8706459059524
 20
616.6174394693497
 30
0.0
 11
169.8706459059524
 21
610.1174394693531
 31
0.0
  0
LINE
  5
C9F
330
1E
100
AcDbEntity
  8
STEMPEL
100
AcDbLine
 10
169.0754250191316
 20
616.6174394693497
 30
0.0
 11
169.0754250191316
 21
610.1174394693531
 31
0.0
  0
LWPOLYLINE
  5
CA0
330
1E
100
AcDbEntity
  8
STEMPEL
100
AcDbPolyline
 90
        7
 70
   128
 43
0.0
 10
167.1238481906134
 20
605.1174394693515
 10
167.6857771638774
 20
605.7267773711924
 10
168.1677151034646
 20
606.4542076444817
 10
168.5566996832144
 20
607.2801651384253
 10
168.8422686743211
 20
608.1824346888875
 10
169.0167413401168
 20
609.1367486231308
 10
169.0754250191319
 20
610.1174394693519
  0
LINE
  5
CA1
330
1E
100
AcDbEntity
  8
STEMPEL
100
AcDbLine
 10
166.575499413892
 20
602.1174394693502
 30
0.0
 11
165.575499413892
 21
603.1174394693501
 31
0.0
  0
LINE
  5
CA3
330
1E
100
AcDbEntity
  8
STEMPEL
100
AcDbLine
 10
160.7392244708205
 20
616.6174394693497
 30
0.0
 11
160.7392244708205
 21
610.1174394693531
 31
0.0
  0
LINE
  5
CA4
330
1E
100
AcDbEntity
  8
STEMPEL
100
AcDbLine
 10
158.7611089640259
 20
605.1174394693515
 30
0.0
 11
167.1238481906134
 21
605.1174394693515
 31
0.0
  0
LINE
  5
CA6
330
1E
100
AcDbEntity
  8
STEMPEL
100
AcDbLine
 10
166.575499413892
 20
602.1174394693501
 30
0.0
 11
166.575499413892
 21
600.1174394693507
 31
0.0
  0
LINE
  5
CA7
330
1E
100
AcDbEntity
  8
HILF
100
AcDbLine
 10
165.575499413892
 20
603.1174394693501
 30
0.0
 11
165.575499413892
 21
600.1174394693508
 31
0.0
  0
LWPOLYLINE
  5
CA8
330
1E
100
AcDbEntity
  8
STEMPEL
100
AcDbPolyline
 90
        8
 70
   128
 43
0.0
 10
166.4350588030865
 20
604.1174394693514
 10
167.6887928186495
 20
604.9212870466448
 10
168.3118759926958
 20
605.5211728106378
 10
168.8497325978073
 20
606.2607138112325
 10
169.2860201332062
 20
607.1174394693517
 10
169.6074822229016
 20
608.0653186093977
 10
169.8043514039655
 20
609.0755504033503
 10
169.8706459059524
 20
610.1174394693519
  0
LINE
  5
CAB
102
{ACAD_REACTORS
330
FC9
102
}
330
1E
100
AcDbEntity
  8
STEMPEL
100
AcDbLine
 10
168.0754994138918
 20
581.1174394693503
 30
0.0
 11
168.0754994138918
 21
578.1174394693501
 31
0.0
  0
LINE
  5
CAC
330
1E
100
AcDbEntity
  8
MITTEL
100
AcDbLine
 10
161.5754994138919
 20
608.11743946935
 30
0.0
 11
161.5754994138919
 21
573.1174394693498
 31
0.0
  0
LINE
  5
CAE
330
1E
100
AcDbEntity
  8
HILF
100
AcDbLine
 10
165.575499413892
 20
590.1174394693509
 30
0.0
 11
165.575499413892
 21
578.1174394693501
 31
0.0
  0
LINE
  5
CAF
330
1E
100
AcDbEntity
  8
STEMPEL
100
AcDbLine
 10
166.575499413892
 20
590.1174394693507
 30
0.0
 11
166.575499413892
 21
578.1174394693501
 31
0.0
  0
LINE
  5
CB0
330
1E
100
AcDbEntity
  8
STEMPEL
100
AcDbLine
 10
177.7895940871988
 20
605.1174394693515
 30
0.0
 11
184.351361482857
 21
605.1174394693515
 31
0.0
  0
LWPOLYLINE
  5
CB1
330
1E
100
AcDbEntity
  8
STEMPEL
100
AcDbPolyline
 90
       10
 70
   128
 43
0.0
 10
-164.5097143015657
 20
624.1174394693529
 10
-165.3025416474254
 20
624.0034976169445
 10
-166.071279335571
 20
623.665134125247
 10
-166.7925696603486
 20
623.112629997736
 10
-167.4444965802301
 20
622.3627727927448
 10
-168.0072516256457
 20
621.4383465420014
 10
-168.4637357693086
 20
620.3674394693521
 10
-168.8000789715054
 20
619.1825905442944
 10
-169.0060616142354
 20
617.9198008018536
 10
-169.0754250191316
 20
616.6174394693513
210
0.0
220
0.0
230
-1.0
  0
LWPOLYLINE
  5
CB2
330
1E
100
AcDbEntity
  8
STEMPEL
100
AcDbPolyline
 90
       18
 70
   128
 43
0.0
 10
-160.7392244708208
 20
616.6174394693497
 10
-160.8169643720807
 20
617.9955608529742
 10
-161.0475367367626
 20
619.3267519657539
 10
-161.4230896995277
 20
620.5656806909307
 10
-161.9308342546555
 20
621.6701567967
 10
-162.5534797702935
 20
622.6025686739529
 10
-163.2698228001875
 20
623.3311641545141
 10
-164.0554691416134
 20
623.8311317931474
 10
-164.8836645506928
 20
624.0854457915641
 10
-165.7262058260805
 20
624.0854457915641
 10
-166.5544012351599
 20
623.8311317931474
 10
-167.3400475765859
 20
623.3311641545141
 10
-168.0563906064799
 20
622.6025686739529
 10
-168.6790361221178
 20
621.6701567967
 10
-169.1867806772454
 20
620.5656806909307
 10
-169.5623336400106
 20
619.3267519657539
 10
-169.7929060046924
 20
617.9955608529742
 10
-169.8706459059526
 20
616.6174394693497
210
0.0
220
0.0
230
-1.0
  0
LWPOLYLINE
  5
CB3
330
1E
100
AcDbEntity
  8
STEMPEL
100
AcDbPolyline
 90
       17
 70
   128
 43
0.0
 10
-179.4276171633041
 20
616.6174394693497
 10
-179.5289297751085
 20
617.9955608529742
 10
-179.8294175310377
 20
619.3267519657539
 10
-180.3188476809589
 20
620.5656806909307
 10
-180.9805532681232
 20
621.6701567967
 10
-181.7920007023883
 20
622.6025686739529
 10
-182.725557114604
 20
623.3311641545141
 10
-183.7494313608301
 20
623.8311317931474
 10
-184.828756631613
 20
624.0854457915641
 10
-185.9267777993641
 20
624.0854457915641
 10
-187.0061030701467
 20
623.8311317931474
 10
-188.0299773163729
 20
623.3311641545141
 10
-188.9635337285886
 20
622.6025686739529
 10
-189.7749811628537
 20
621.6701567967
 10
-190.4366867500182
 20
620.5656806909307
 10
-190.9261168999394
 20
619.3267519657539
 10
-190.9733646930839
 20
619.1174394693497
210
0.0
220
0.0
230
-1.0
  0
LWPOLYLINE
  5
CB4
330
1E
100
AcDbEntity
  8
STEMPEL
100
AcDbPolyline
 90
        8
 70
   128
 43
0.0
 10
-185.072669991569
 20
624.1075735471733
 10
-186.1890777129401
 20
623.9002664107663
 10
-187.2543569646825
 20
623.4310116833126
 10
-188.2301919477209
 20
622.7166874461439
 10
-189.0814839805787
 20
621.7829864027476
 10
-189.7776139233151
 20
620.6634917675871
 10
-190.2935434820065
 20
619.3984693502484
 10
-190.358841375296
 20
619.1174394693497
210
0.0
220
0.0
230
-1.0
  0
ARC
  5
CB5
330
1E
100
AcDbEntity
  8
STEMPEL
100
AcDbCircle
 10
147.575499413892
 20
674.117381502036
 30
0.0
 40
6.0
100
AcDbArc
 50
120.2564164748189
 51
180.0
  0
ARC
  5
CB6
330
1E
100
AcDbEntity
  8
STEMPEL
100
AcDbCircle
 10
147.575499413892
 20
674.117381502036
 30
0.0
 40
5.0
100
AcDbArc
 50
120.2564164748189
 51
180.0
  0
ARC
  5
CB7
330
1E
100
AcDbEntity
  8
STEMPEL
100
AcDbCircle
 10
142.0643558095803
 20
683.6372764518134
 30
0.0
 40
5.0
100
AcDbArc
 50
300.0670458384858
 51
300.2564371635302
  0
LINE
  5
CB8
330
1E
100
AcDbEntity
  8
STEMPEL
100
AcDbLine
 10
141.5754994138917
 20
669.1174394693514
 30
0.0
 11
142.5754994138917
 21
669.1174394693514
 31
0.0
  0
LINE
  5
CB9
330
1E
100
AcDbEntity
  8
STEMPEL
100
AcDbLine
 10
141.5754994138915
 20
629.1174394693514
 30
0.0
 11
142.5754994138917
 21
629.1174394693514
 31
0.0
  0
LINE
  5
CBA
330
1E
100
AcDbEntity
  8
STEMPEL
100
AcDbLine
 10
153.6524539072288
 20
661.6174394693516
 30
0.0
 11
153.6524539072288
 21
636.6174394693548
 31
0.0
  0
LINE
  5
CBB
330
1E
100
AcDbEntity
  8
STEMPEL
100
AcDbLine
 10
153.9814252871388
 20
616.6174394693497
 30
0.0
 11
153.9814252871388
 21
610.1174394693531
 31
0.0
  0
LINE
  5
CBC
330
1E
100
AcDbEntity
  8
STEMPEL
100
AcDbLine
 10
153.0553709506316
 20
616.6174394693497
 30
0.0
 11
153.0553709506316
 21
610.1174394693531
 31
0.0
  0
LINE
  5
CBF
330
1E
100
AcDbEntity
  8
STEMPEL
100
AcDbLine
 10
157.5754994138919
 20
603.1174394693501
 30
0.0
 11
156.5754994138919
 21
602.1174394693502
 31
0.0
  0
LINE
  5
CC1
330
1E
100
AcDbEntity
  8
STEMPEL
100
AcDbLine
 10
148.241173801661
 20
616.6174394693497
 30
0.0
 11
148.241173801661
 21
610.1174394693531
 31
0.0
  0
LINE
  5
CC2
330
1E
100
AcDbEntity
  8
STEMPEL
100
AcDbLine
 10
150.9017993179633
 20
605.1174394693519
 30
0.0
 11
148.7863918983616
 21
605.117439469352
 31
0.0
  0
LWPOLYLINE
  5
CC6
330
1E
100
AcDbEntity
  8
STEMPEL
100
AcDbPolyline
 90
       10
 70
   128
 43
0.0
 10
149.1660607605649
 20
604.1174394693515
 10
150.0022400354064
 20
604.2085929512783
 10
150.813012426109
 20
604.4792837446362
 10
151.5737430238518
 20
604.9212870466448
 10
152.2613174143707
 20
605.5211728106378
 10
152.8548439977392
 20
606.2607138112325
 10
153.3362887690602
 20
607.1174394693517
 10
153.6910232725806
 20
608.0653186093977
 10
153.9082690799148
 20
609.0755504033503
 10
153.9814252871388
 20
610.1174394693519
  0
LWPOLYLINE
  5
CC7
330
1E
100
AcDbEntity
  8
STEMPEL
100
AcDbPolyline
 90
        7
 70
   128
 43
0.0
 10
150.9017993179629
 20
605.1174394693515
 10
151.5218898410273
 20
605.7267773711924
 10
152.0537099878106
 20
606.4542076444816
 10
152.4829557875419
 20
607.2801651384253
 10
152.7980821353392
 20
608.1824346888875
 10
152.9906133123052
 20
609.1367486231308
 10
153.0553709506314
 20
610.1174394693519
  0
LINE
  5
CD0
330
1E
100
AcDbEntity
  8
MITTEL
100
AcDbLine
 10
154.7863918983616
 20
616.7174394693518
 30
0.0
 11
154.7863918983616
 21
588.1174394693507
 31
0.0
  0
LINE
  5
CD1
330
1E
100
AcDbEntity
  8
STEMPEL
100
AcDbLine
 10
156.5754994138919
 20
602.1174394693502
 30
0.0
 11
156.5754994138919
 21
600.1174394693507
 31
0.0
  0
LINE
  5
CD2
330
1E
100
AcDbEntity
  8
HILF
100
AcDbLine
 10
157.5754994138919
 20
603.1174394693501
 30
0.0
 11
157.5754994138919
 21
600.1174394693507
 31
0.0
  0
LINE
  5
CD3
330
1E
100
AcDbEntity
  8
STEMPEL
100
AcDbLine
 10
142.7851866549272
 20
616.6174394693497
 30
0.0
 11
142.7851866549272
 21
610.1174394693519
 31
0.0
  0
LINE
  5
CD4
330
1E
100
AcDbEntity
  8
STEMPEL
100
AcDbLine
 10
143.7493008246899
 20
616.6174394693497
 30
0.0
 11
143.7493008246899
 21
610.1174394693519
 31
0.0
  0
LINE
  5
CD5
330
1E
100
AcDbEntity
  8
STEMPEL
100
AcDbLine
 10
144.7430795382276
 20
616.6174394693497
 30
0.0
 11
144.7430795382276
 21
610.1174394693508
 31
0.0
  0
LWPOLYLINE
  5
CD6
330
1E
100
AcDbEntity
  8
STEMPEL
100
AcDbPolyline
 90
        7
 70
   128
 43
0.0
 10
141.1288416410191
 20
605.117439469352
 10
141.8055435160965
 20
605.727040197211
 10
142.4050929397303
 20
606.4545992811226
 10
142.9113816128801
 20
607.280569142803
 10
143.3108069049256
 20
608.182758168006
 10
143.5926373201885
 20
609.1369269361996
 10
143.7493008246899
 20
610.1174394693519
  0
LWPOLYLINE
  5
CD7
330
1E
100
AcDbEntity
  8
STEMPEL
100
AcDbPolyline
 90
       10
 70
   128
 43
0.0
 10
139.2370908071968
 20
604.1174394693515
 10
140.0951638034696
 20
604.1835666839242
 10
140.947976003092
 20
604.4361204336544
 10
141.768734310009
 20
604.867166149972
 10
142.5316526764079
 20
605.4631615204118
 10
143.2127622319072
 20
606.2053819521325
 10
143.7906643218527
 20
607.0705088489299
 10
144.247202796259
 20
608.031362219646
 10
144.5680344278567
 20
609.0577546013583
 10
144.7430795382276
 20
610.1174394693508
  0
LWPOLYLINE
  5
CD8
330
1E
100
AcDbEntity
  8
STEMPEL
100
AcDbPolyline
 90
       10
 70
   128
 43
0.0
 10
137.2791979238964
 20
604.1174394693527
 10
138.1372709201691
 20
604.1835666839253
 10
138.9900831197915
 20
604.4361204336555
 10
139.8108414267085
 20
604.8671661499732
 10
140.5737597931074
 20
605.4631615204129
 10
141.2548693486067
 20
606.2053819521336
 10
141.8327714385523
 20
607.0705088489311
 10
142.2893099129585
 20
608.0313622196472
 10
142.6101415445562
 20
609.0577546013594
 10
142.7851866549272
 20
610.1174394693519
  0
ARC
  5
CD9
330
1E
100
AcDbEntity
  8
STEMPEL
100
AcDbCircle
 10
136.5754994138919
 20
610.1174394693519
 30
0.0
 40
5.0
100
AcDbArc
 50
270.0
 51
0.0
  0
ARC
  5
CDA
330
1E
100
AcDbEntity
  8
STEMPEL
100
AcDbCircle
 10
136.5754994138919
 20
610.1174394693519
 30
0.0
 40
6.0
100
AcDbArc
 50
270.0
 51
0.0
  0
LINE
  5
CDB
330
1E
100
AcDbEntity
  8
STEMPEL
100
AcDbLine
 10
140.1647274712566
 20
605.1174394693515
 30
0.0
 11
141.1288416410193
 21
605.1174394693515
 31
0.0
  0
LINE
  5
CE0
330
1E
100
AcDbEntity
  8
STEMPEL
100
AcDbLine
 10
143.7649459580243
 20
604.1174394693521
 30
0.0
 11
155.5754994138917
 21
604.1174394693512
 31
0.0
  0
LINE
  5
CE1
330
1E
100
AcDbEntity
  8
STEMPEL
100
AcDbLine
 10
146.0876021689926
 20
605.1174394693515
 30
0.0
 11
150.9017993179639
 21
605.1174394693515
 31
0.0
  0
LWPOLYLINE
  5
CE2
330
1E
100
AcDbEntity
  8
STEMPEL
100
AcDbPolyline
 90
       10
 70
   128
 43
0.0
 10
143.4258092750872
 20
604.1174394693515
 10
144.2619885499286
 20
604.2085929512783
 10
145.0727609406312
 20
604.4792837446362
 10
145.8334915383741
 20
604.9212870466448
 10
146.521065928893
 20
605.5211728106378
 10
147.1145925122614
 20
606.2607138112325
 10
147.5960372835825
 20
607.1174394693517
 10
147.9507717871029
 20
608.0653186093977
 10
148.168017594437
 20
609.0755504033503
 10
148.241173801661
 20
610.1174394693519
  0
LINE
  5
CE3
102
{ACAD_REACTORS
330
FC9
102
}
330
1E
100
AcDbEntity
  8
STEMPEL
100
AcDbLine
 10
155.0754994138917
 20
581.1174394693503
 30
0.0
 11
155.0754994138917
 21
578.1174394693501
 31
0.0
  0
LINE
  5
CE5
330
1E
100
AcDbEntity
  8
HILF
100
AcDbLine
 10
157.5754994138919
 20
590.1174394693507
 30
0.0
 11
157.5754994138919
 21
578.1174394693501
 31
0.0
  0
LINE
  5
CE6
330
1E
100
AcDbEntity
  8
STEMPEL
100
AcDbLine
 10
156.5754994138919
 20
590.1174394693507
 30
0.0
 11
156.5754994138919
 21
578.1174394693501
 31
0.0
  0
LINE
  5
CE7
330
1E
100
AcDbEntity
  8
STEMPEL
100
AcDbLine
 10
121.5754994138917
 20
605.1174394693518
 30
0.0
 11
121.5754994138917
 21
604.1174394693515
 31
0.0
  0
LINE
  5
CE8
102
{ACAD_REACTORS
330
FC9
102
}
330
1E
100
AcDbEntity
  8
STEMPEL
100
AcDbLine
 10
129.0754994138917
 20
581.1174394693503
 30
0.0
 11
129.0754994138917
 21
578.1174394693501
 31
0.0
  0
LINE
  5
CE9
330
1E
100
AcDbEntity
  8
STEMPEL
100
AcDbLine
 10
129.0754994138915
 20
574.1780996411295
 30
0.0
 11
131.4039265386375
 21
576.5065267658757
 31
0.0
  0
LINE
  5
CEA
330
1E
100
AcDbEntity
  8
STEMPEL
100
AcDbLine
 10
129.0754994138915
 20
574.1780996411295
 30
0.0
 11
130.4897129762644
 21
572.7638860787562
 31
0.0
  0
LINE
  5
CEB
330
1E
100
AcDbEntity
  8
STEMPEL
100
AcDbLine
 10
130.4897129762646
 20
572.7638860787565
 30
0.0
 11
132.8181401010106
 21
575.0923132035025
 31
0.0
  0
LINE
  5
CED
330
1E
100
AcDbEntity
  8
STEMPEL
100
AcDbLine
 10
121.575499413892
 20
605.1174394693515
 30
0.0
 11
136.5754994138922
 21
605.1174394693519
 31
0.0
  0
LINE
  5
CEF
102
{ACAD_REACTORS
330
FC9
102
}
330
1E
100
AcDbEntity
  8
STEMPEL
100
AcDbLine
 10
129.0754994138917
 20
581.1174394693503
 30
0.0
 11
156.5754994138919
 21
581.1174394693503
 31
0.0
  0
ARC
  5
CF1
330
1E
100
AcDbEntity
  8
STEMPEL
100
AcDbCircle
 10
135.2930138351637
 20
572.6174394693497
 30
0.0
 40
3.499999999999851
100
AcDbArc
 50
90.0
 51
135.0
  0
ARC
  5
CF2
330
1E
100
AcDbEntity
  8
STEMPEL
100
AcDbCircle
 10
135.2930138351637
 20
572.6174394693497
 30
0.0
 40
5.499999999999851
100
AcDbArc
 50
90.0
 51
135.0
  0
LINE
  5
CF3
330
1E
100
AcDbEntity
  8
STEMPEL
100
AcDbLine
 10
141.575499413892
 20
674.117381502036
 30
0.0
 11
141.575499413892
 21
610.1174394693519
 31
0.0
  0
LINE
  5
CF4
330
1E
100
AcDbEntity
  8
STEMPEL
100
AcDbLine
 10
142.575499413892
 20
674.117381502036
 30
0.0
 11
142.575499413892
 21
610.1174394693519
 31
0.0
  0
LWPOLYLINE
  5
CF5
330
1E
100
AcDbEntity
  8
STEMPEL
100
AcDbPolyline
 90
       18
 70
   128
 43
0.0
 10
-148.241173801661
 20
616.6174394693497
 10
-148.2900431465773
 20
617.9955608529742
 10
-148.4349869943974
 20
619.3267519657539
 10
-148.6710694562246
 20
620.5656806909307
 10
-148.9902510269715
 20
621.6701567967
 10
-149.3816623610617
 20
622.6025686739529
 10
-149.8319744149596
 20
623.3311641545141
 10
-150.325852351759
 20
623.8311317931474
 10
-150.846477750664
 20
624.0854457915641
 10
-151.3761213381358
 20
624.0854457915641
 10
-151.8967467370407
 20
623.8311317931474
 10
-152.3906246738402
 20
623.3311641545141
 10
-152.8409367277381
 20
622.6025686739529
 10
-153.2323480618286
 20
621.6701567967
 10
-153.5515296325752
 20
620.5656806909307
 10
-153.7876120944024
 20
619.3267519657539
 10
-153.9325559422225
 20
617.9955608529742
 10
-153.9814252871388
 20
616.6174394693497
210
0.0
220
0.0
230
-1.0
  0
LWPOLYLINE
  5
CF6
330
1E
100
AcDbEntity
  8
STEMPEL
100
AcDbPolyline
 90
       18
 70
   128
 43
0.0
 10
-142.7851866549272
 20
616.6174394693497
 10
-142.801855078404
 20
617.9955608529742
 10
-142.8512927256645
 20
619.3267519657539
 10
-142.9318160569248
 20
620.5656806909307
 10
-143.0406829467165
 20
621.6701567967
 10
-143.1741860636789
 20
622.6025686739529
 10
-143.3277791192829
 20
623.3311641545141
 10
-143.496231686235
 20
623.8311317931474
 10
-143.673807314404
 20
624.0854457915641
 10
-143.8544588787511
 20
624.0854457915641
 10
-144.0320345069199
 20
623.8311317931474
 10
-144.2004870738719
 20
623.3311641545141
 10
-144.3540801294762
 20
622.6025686739529
 10
-144.4875832464383
 20
621.6701567967
 10
-144.59645013623
 20
620.5656806909307
 10
-144.6769734674906
 20
619.3267519657539
 10
-144.726411114751
 20
617.9955608529742
 10
-144.7430795382276
 20
616.6174394693497
210
0.0
220
0.0
230
-1.0
  0
LWPOLYLINE
  5
CF7
330
1E
100
AcDbEntity
  8
STEMPEL
100
AcDbPolyline
 90
        7
 70
   128
 43
0.0
 10
-143.2672437398084
 20
623.0794935251894
 10
-143.4050727493786
 20
622.327387288251
 10
-143.5239370263448
 20
621.4046736775363
 10
-143.6202850282461
 20
620.338922427632
 10
-143.6912379757843
 20
619.1619770908109
 10
-143.7346758677922
 20
617.9090035844089
 10
-143.7493008246897
 20
616.6174394693497
210
0.0
220
0.0
230
-1.0
  0
LWPOLYLINE
  5
CF8
330
1E
100
AcDbEntity
  8
STEMPEL
100
AcDbPolyline
 90
        9
 70
   128
 43
0.0
 10
-150.648272376148
 20
624.0191977140148
 10
-151.1373329194166
 20
623.6927648162573
 10
-151.5969458873176
 20
623.1474958030002
 10
-152.0128956909418
 20
622.4002555598722
 10
-152.3723172202335
 20
621.4741558370946
 10
-152.664093755121
 20
620.3978404151244
 10
-152.879200799859
 20
619.2045991674936
 10
-153.0109852059665
 20
617.9313384224176
 10
-153.0553709506314
 20
616.6174394693513
210
0.0
220
0.0
230
-1.0
  0
LINE
  5
CF9
330
1E
100
AcDbEntity
  8
STEMPEL
100
AcDbLine
 10
156.5754994138919
 20
602.1174394693502
 30
0.0
 11
166.5754994138917
 21
602.1174394693502
 31
0.0
  0
LINE
  5
CFA
330
1E
100
AcDbEntity
  8
STEMPEL
100
AcDbLine
 10
165.575499413892
 20
603.1174394693501
 30
0.0
 11
157.5754994138919
 21
603.1174394693501
 31
0.0
  0
LWPOLYLINE
  5
CFF
330
1E
100
AcDbEntity
  8
STEMPEL
100
AcDbPolyline
 90
        8
 70
   128
 43
0.0
 10
157.3036373679547
 20
604.1174394693507
 10
158.5573713835176
 20
604.9212870466443
 10
159.1804545575639
 20
605.5211728106371
 10
159.7183111626755
 20
606.2607138112318
 10
160.1545986980743
 20
607.1174394693512
 10
160.4760607877697
 20
608.0653186093972
 10
160.6729299688336
 20
609.0755504033498
 10
160.7392244708205
 20
610.1174394693514
  0
LINE
  5
D01
330
1E
100
AcDbEntity
  8
STEMPEL
100
AcDbLine
 10
199.1006256797395
 20
572.7638860787562
 30
0.0
 11
130.4897129762646
 21
572.7638860787562
 31
0.0
  0
LINE
  5
D02
330
1E
100
AcDbEntity
  8
STEMPEL
100
AcDbLine
 10
135.2930138351637
 20
576.1174394693503
 30
0.0
 11
193.2617909149071
 21
576.1174394693498
 31
0.0
  0
ELLIPSE
  5
D03
330
1E
100
AcDbEntity
  8
STEMPEL
100
AcDbEllipse
 10
157.4024539072288
 20
661.6174394693516
 30
0.0
 11
0.0
 21
7.499999999999999
 31
0.0
210
0.0
220
0.0
230
1.0
 40
0.4999999999999926
 41
4.712388980384689
 42
7.853981633974482
  0
ELLIPSE
  5
D04
330
1E
100
AcDbEntity
  8
STEMPEL
100
AcDbEllipse
 10
156.5343898875398
 20
661.6174394693516
 30
0.0
 11
0.0
 21
7.499999999999999
 31
0.0
210
0.0
220
0.0
230
1.0
 40
0.4999999999999926
 41
4.712388980384689
 42
6.167183451052224
  0
ELLIPSE
  5
D05
330
1E
100
AcDbEntity
  8
STEMPEL
100
AcDbEllipse
 10
156.5343898875398
 20
636.6174394693532
 30
0.0
 11
0.0
 21
-7.499999999999999
 31
0.0
210
0.0
220
0.0
230
-1.0
 40
0.4999999999999926
 41
4.712388980384689
 42
6.167183451052224
  0
ELLIPSE
  5
D06
330
1E
100
AcDbEntity
  8
STEMPEL
100
AcDbEllipse
 10
157.4024539072288
 20
636.6174394693532
 30
0.0
 11
0.0
 21
-7.499999999999999
 31
0.0
210
0.0
220
0.0
230
-1.0
 40
0.4999999999999926
 41
4.712388980384689
 42
7.853981633974482
  0
LWPOLYLINE
  5
D08
330
1E
100
AcDbEntity
  8
STEMPEL
100
AcDbPolyline
 90
       16
 70
   128
 43
0.0
 10
-203.4456540191603
 20
619.1174394693497
 10
-203.500675239625
 20
619.3267519657539
 10
-204.0706287208068
 20
620.5656806909307
 10
-204.841201197763
 20
621.6701567967
 10
-205.7861517489905
 20
622.6025686739529
 10
-206.8733012168106
 20
623.3311641545141
 10
-208.0656280299888
 20
623.8311317931474
 10
-209.3225289289405
 20
624.0854457915641
 10
-210.6012016610389
 20
624.0854457915641
 10
-211.8581025599908
 20
623.8311317931474
 10
-213.050429373169
 20
623.3311641545141
 10
-214.1375788409892
 20
622.6025686739529
 10
-215.0825293922167
 20
621.6701567967
 10
-215.8531018691726
 20
620.5656806909307
 10
-216.4230553503544
 20
619.3267519657539
 10
-216.4780765708191
 20
619.1174394693497
210
0.0
220
0.0
230
-1.0
  0
LINE
  5
D0F
330
1E
100
AcDbEntity
  8
STEMPEL
100
AcDbLine
 10
144.5428047921841
 20
679.2945200293948
 30
0.0
 11
168.529107667651
 21
693.2865300400834
 31
0.0
  0
LINE
  5
D10
330
1E
100
AcDbEntity
  8
STEMPEL
100
AcDbLine
 10
145.0561458457648
 20
678.4362769162322
 30
0.0
 11
169.0349997387161
 21
692.4239300824178
 31
0.0
  0
DIMENSION
  5
D11
330
1E
100
AcDbEntity
  8
BEM
100
AcDbDimension
  2
*D4
 10
99.85251693616852
 20
584.1174394693494
 30
0.0
 11
93.35251693616843
 21
639.11743946935
 31
0.0
 70
    32
 71
     5
 42
110.0000000000014
  3
Standard
100
AcDbAlignedDimension
 13
171.575499413892
 23
694.1174394693509
 33
0.0
 14
134.5754994138923
 24
584.1174394693494
 34
0.0
 50
90.0
100
AcDbRotatedDimension
1001
ACAD
1000
DSTYLE
1002
{
1070
    40
1040
2.0
1070
    41
1040
3.5
1070
    42
1040
1.0
1070
    43
1040
7.0
1070
    44
1040
1.0
1070
    73
1070
     0
1070
    74
1070
     0
1070
    77
1070
     1
1070
    78
1070
     8
1070
    79
1070
     2
1070
   140
1040
3.5
1070
   141
1040
1.5
1070
   146
1040
0.5142857142857144
1070
   147
1040
1.5
1070
   172
1070
     1
1070
   178
1070
     1
1070
   179
1070
     2
1070
   271
1070
     2
1070
   272
1070
     2
1070
   284
1070
     8
1070
   285
1070
     8
1070
   286
1070
     8
1070
   340
1005
24
1002
}
  0
DIMENSION
  5
D12
330
1E
100
AcDbEntity
  8
BEM
100
AcDbDimension
  2
*D5
 10
381.5754994138917
 20
716.4249937803922
 30
0.0
 11
251.5754994138919
 21
722.9249937803922
 31
0.0
 70
    32
  1
%%c<>
 71
     5
 42
259.9999999999998
  3
Standard
100
AcDbAlignedDimension
 13
121.575499413892
 23
605.1174394693515
 33
0.0
 14
381.5754994138917
 24
605.1174394693518
 34
0.0
100
AcDbRotatedDimension
1001
ACAD
1000
DSTYLE
1002
{
1070
    40
1040
2.0
1070
    41
1040
3.5
1070
    42
1040
1.0
1070
    43
1040
7.0
1070
    44
1040
1.0
1070
    73
1070
     0
1070
    74
1070
     0
1070
    77
1070
     1
1070
    78
1070
     8
1070
    79
1070
     2
1070
   140
1040
3.5
1070
   141
1040
1.5
1070
   146
1040
0.5142857142857144
1070
   147
1040
1.5
1070
   172
1070
     1
1070
   178
1070
     1
1070
   179
1070
     2
1070
   271
1070
     2
1070
   272
1070
     2
1070
   284
1070
     8
1070
   285
1070
     8
1070
   286
1070
     8
1070
   340
1005
24
1002
}
  0
DIMENSION
  5
D13
330
1E
100
AcDbEntity
  8
BEM
100
AcDbDimension
  2
*D6
 10
361.5754994138922
 20
702.9297924660848
 30
0.0
 11
251.5754994138921
 21
709.4297924660848
 31
0.0
 70
    32
  1
%%c<>
 71
     5
 42
220.0000000000002
  3
Standard
100
AcDbAlignedDimension
 13
141.575499413892
 23
674.117381502036
 33
0.0
 14
361.5754994138922
 24
674.117381502036
 34
0.0
100
AcDbRotatedDimension
1001
ACAD
1000
DSTYLE
1002
{
1070
    40
1040
2.0
1070
    41
1040
3.5
1070
    42
1040
1.0
1070
    43
1040
7.0
1070
    44
1040
1.0
1070
    73
1070
     0
1070
    74
1070
     0
1070
    77
1070
     1
1070
    78
1070
     8
1070
    79
1070
     2
1070
   140
1040
3.5
1070
   141
1040
1.5
1070
   146
1040
0.5142857142857144
1070
   147
1040
1.5
1070
   172
1070
     1
1070
   178
1070
     1
1070
   179
1070
     2
1070
   271
1070
     2
1070
   272
1070
     2
1070
   284
1070
     8
1070
   285
1070
     8
1070
   286
1070
     8
1070
   340
1005
24
1002
}
  0
LINE
  5
D14
102
{ACAD_REACTORS
330
FC9
102
}
330
1E
100
AcDbEntity
  8
STEMPEL
100
AcDbLine
 10
129.0754994138917
 20
578.1174394693501
 30
0.0
 11
374.0754994138919
 21
578.1174394693501
 31
0.0
  0
LINE
  5
D17
102
{ACAD_REACTORS
330
FC9
102
}
330
1E
100
AcDbEntity
  8
STEMPEL
100
AcDbLine
 10
166.575499413892
 20
581.1174394693503
 30
0.0
 11
374.0754994138919
 21
581.1174394693501
 31
0.0
  0
LWPOLYLINE
  5
D18
330
1E
100
AcDbEntity
  8
STEMPEL
100
AcDbPolyline
 90
       16
 70
   128
 43
0.0
 10
299.7053448086236
 20
619.1174394693498
 10
299.650323588159
 20
619.3267519657539
 10
299.0803701069772
 20
620.5656806909307
 10
298.3097976300212
 20
621.6701567967
 10
297.3648470787937
 20
622.6025686739529
 10
296.2776976109735
 20
623.3311641545141
 10
295.0853707977953
 20
623.8311317931474
 10
293.8284698988434
 20
624.0854457915641
 10
292.549797166745
 20
624.0854457915641
 10
291.2928962677934
 20
623.8311317931474
 10
290.1005694546149
 20
623.3311641545141
 10
289.013419986795
 20
622.6025686739529
 10
288.0684694355675
 20
621.6701567967
 10
287.2978969586113
 20
620.5656806909307
 10
286.7279434774296
 20
619.3267519657539
 10
286.6729222569649
 20
619.1174394693498
  0
LINE
  5
D19
330
1E
100
AcDbEntity
  8
STEMPEL
100
AcDbLine
 10
121.5754994138917
 20
604.1174394693514
 30
0.0
 11
184.299637344926
 21
604.1174394693514
 31
0.0
  0
LINE
  5
D1B
330
1E
100
AcDbEntity
  8
STEMPEL
100
AcDbLine
 10
171.575499413892
 20
693.1174394693508
 30
0.0
 11
331.5754994138922
 21
693.1174394693515
 31
0.0
  0
LINE
  5
D1C
330
1E
100
AcDbEntity
  8
STEMPEL
100
AcDbLine
 10
277.0150140089488
 20
694.1174394693513
 30
0.0
 11
331.5754994138922
 21
694.1174394693515
 31
0.0
  0
LINE
  5
D1F
102
{ACAD_REACTORS
330
FC9
102
}
330
1E
100
AcDbEntity
  8
STEMPEL
100
AcDbLine
 10
135.2930138351641
 20
578.1174394693502
 30
0.0
 11
367.8579849926198
 21
578.1174394693501
 31
0.0
  0
HATCH
  5
D20
330
1E
100
AcDbEntity
  8
SCHRAFF
100
AcDbHatch
 10
0.0
 20
0.0
 30
0.0
210
0.0
220
0.0
230
1.0
  2
ANSI31
 70
     0
 71
     0
 91
        5
 92
        7
 72
     1
 73
     1
 93
       39
 10
331.5754994138921
 20
694.1174394693514
 42
0.0
 10
277.0150140089486
 20
694.1174394693511
 42
-0.2679491924311848
 10
275.7159759032717
 20
694.8674394693512
 42
0.2859076546239628
 10
274.3169377975945
 20
695.6141024240608
 42
0.2859076546237491
 10
272.9178996919184
 20
694.8674394693512
 42
-0.2679491924311245
 10
271.6188615862417
 20
694.1174394693511
 42
0.0
 10
265.1650140089482
 20
694.1174394693511
 42
-0.2679491924311449
 10
263.8659759032715
 20
694.8674394693512
 42
0.2859076546238214
 10
262.466937797595
 20
695.6141024240608
 42
0.3607372083888889
 10
260.9145690427669
 20
694.4924394693511
 42
-0.3419987131196436
 10
260.4304461244909
 20
694.1174394693511
 42
0.0
 10
260.2416969318915
 20
694.1174394693511
 42
-0.341998713119513
 10
259.7575740136159
 20
694.4924394693511
 42
0.3419987131196436
 10
258.3052052587881
 20
695.6174394693512
 42
0.0
 10
251.575499413892
 20
695.6174394693512
 42
0.0
 10
251.575499413892
 20
694.6174394693512
 42
0.0
 10
258.3052052587882
 20
694.6174394693512
 42
-0.3419987131195064
 10
258.7893281770638
 20
694.2424394693512
 42
0.3596757619904947
 10
260.3360715281912
 20
693.1204112680225
 42
0.3596757619905158
 10
261.8828148793185
 20
694.2424394693512
 42
-0.3419987131196715
 10
262.3669377975945
 20
694.6174394693512
 42
0.0
 10
262.5669377975947
 20
694.6174394693512
 42
-0.267949192431149
 10
262.999950499487
 20
694.3674394693512
 42
0.2679491924311241
 10
265.1650140089482
 20
693.1174394693513
 42
0.0
 10
271.6188615862422
 20
693.1174394693513
 42
0.2679491924310771
 10
273.7839250957031
 20
694.3674394693509
 42
-0.2679491924312612
 10
274.2169377975954
 20
694.6174394693512
 42
0.0
 10
274.4169377975946
 20
694.6174394693512
 42
-0.2679491924313018
 10
274.8499504994873
 20
694.3674394693514
 42
0.2679491924311406
 10
277.0150140089486
 20
693.1174394693514
 42
0.0
 10
331.57549941389
 20
693.1174394693514
 42
-0.1340385084113211
 10
334.1159990890686
 20
692.4239300824174
 42
0.0
 10
358.0948529820189
 20
678.4362769162323
 42
-0.2667503951500854
 10
360.575499413892
 20
674.1173815020358
 42
0.0
 10
360.575499413892
 20
669.1174394693514
 42
0.0
 10
361.575499413892
 20
669.1174394693514
 42
0.0
 10
361.5754994138921
 20
674.1173815020356
 42
0.2662608607120724
 10
358.6081940355667
 20
679.2945200294143
 42
0.0
 10
334.5754994138403
 20
693.3135918920875
 42
0.1316524975848892
 97
        0
 92
        7
 72
     1
 73
     1
 93
        8
 10
361.575499413892
 20
629.1174394693514
 42
0.0
 10
360.575499413892
 20
629.1174394693514
 42
0.0
 10
360.575499413892
 20
610.1174394693519
 42
0.4142135623731166
 10
366.575499413892
 20
604.1174394693515
 42
0.0
 10
369.5754994138919
 20
604.1174394693515
 42
0.0
 10
369.5754994138919
 20
605.1174394693519
 42
0.0
 10
366.5754994138918
 20
605.1174394693519
 42
-0.4142135623730752
 10
361.5754994138921
 20
610.1174394693519
 42
0.0
 97
        0
 92
        7
 72
     0
 73
     1
 93
        4
 10
381.5754994138917
 20
605.1174394693515
 10
377.5754994138919
 20
605.1174394693516
 10
377.5754994138919
 20
604.1174394693515
 10
381.5754994138919
 20
604.1174394693514
 97
        0
 92
        7
 72
     1
 73
     1
 93
        8
 10
142.575499413892
 20
610.1174394693519
 42
0.0
 10
142.575499413892
 20
629.1174394693514
 42
0.0
 10
141.5754994138918
 20
629.1174394693514
 42
0.0
 10
141.5754994138918
 20
610.1174394693519
 42
-0.4142135623730909
 10
136.5754994138919
 20
605.1174394693519
 42
0.0
 10
121.5754994138917
 20
605.1174394693515
 42
0.0
 10
121.5754994138916
 20
604.1174394693515
 42
0.0
 10
136.5754994138919
 20
604.1174394693515
 42
0.4142135623731175
 97
        0
 92
        7
 72
     1
 73
     1
 93
       40
 10
228.4789250957024
 20
694.3674394693512
 42
-0.2679491924310875
 10
228.9119377975946
 20
694.6174394693512
 42
0.0
 10
229.1119377975948
 20
694.6174394693512
 42
-0.2679491924312574
 10
229.5449504994873
 20
694.3674394693514
 42
0.267949192431145
 10
231.7100140089486
 20
693.1174394693512
 42
0.0
 10
233.768861586241
 20
693.1174394693512
 42
0.2679491924311416
 10
235.9339250957022
 20
694.3674394693513
 42
-0.2679491924310647
 10
236.3669377975944
 20
694.6174394693512
 42
0.0
 10
236.5669377975947
 20
694.6174394693512
 42
-0.267949192430994
 10
236.9999504994867
 20
694.3674394693512
 42
0.2679491924311175
 10
239.1650140089478
 20
693.1174394693512
 42
0.0
 10
245.6188615862419
 20
693.1174394693512
 42
0.2679491924310871
 10
247.7839250957028
 20
694.3674394693509
 42
-0.2679491924312534
 10
248.2169377975951
 20
694.6174394693512
 42
0.0
 10
251.575499413892
 20
694.6174394693512
 42
0.0
 10
251.575499413892
 20
695.6174394693512
 42
0.0
 10
248.2169377975946
 20
695.6174394693512
 42
0.2679491924310706
 10
246.9178996919183
 20
694.8674394693512
 42
-0.2679491924311357
 10
245.6188615862416
 20
694.1174394693511
 42
0.0
 10
239.1650140089477
 20
694.1174394693511
 42
-0.2679491924310962
 10
237.8659759032712
 20
694.8674394693512
 42
0.2859076546238522
 10
236.4669377975946
 20
695.6141024240608
 42
0.2859076546238809
 10
235.0678996919178
 20
694.8674394693512
 42
-0.2679491924311237
 10
233.7688615862412
 20
694.1174394693511
 42
0.0
 10
231.7100140089486
 20
694.1174394693511
 42
-0.2679491924311723
 10
230.4109759032717
 20
694.8674394693512
 42
0.2859076546238861
 10
229.0119377975949
 20
695.6141024240608
 42
0.2859076546239122
 10
227.612899691918
 20
694.8674394693512
 42
-0.267949192431137
 10
226.3138615862414
 20
694.117439469351
 42
0.0
 10
171.5754994138919
 20
694.1174394693507
 42
0.1316524975836561
 10
168.5754994139681
 20
693.3135918921018
 42
0.0
 10
144.5428047921872
 20
679.2945200293968
 42
0.2662608607105233
 10
141.5754994138918
 20
674.1173815020361
 42
0.0
 10
141.5754994138918
 20
669.1174394693514
 42
0.0
 10
142.575499413892
 20
669.1174394693514
 42
0.0
 10
142.575499413892
 20
674.1173815020361
 42
-0.2667503951500889
 10
145.0561458457648
 20
678.4362769162322
 42
0.0
 10
169.0349997387057
 20
692.4239300824117
 42
-0.1340385084119114
 10
171.5754994138919
 20
693.1174394693511
 42
0.0
 10
226.3138615862413
 20
693.1174394693512
 42
0.2679491924311331
 97
        0
 75
     0
 76
     1
 52
0.0
 41
20.0
 77
     0
 78
     1
 53
45.0
 43
13.1320278592168
 44
187.291089120838
 45
-1.767766952966368
 46
1.767766952966368
 79
     0
 47
0.2376111440341236
 98
        5
 10
313.6855770756181
 20
693.9122622522693
 10
361.3662913876094
 20
620.2479673738642
 10
379.8961672872786
 20
604.9000463422771
 10
128.4484903114119
 20
604.4763060111518
 10
178.8668009088217
 20
693.8180985320025
  0
LINE
  5
D21
330
1E
100
AcDbEntity
  8
STEMPEL
100
AcDbLine
 10
305.6465672257577
 20
574.3600801564696
 30
0.0
 11
295.489712976265
 21
564.2032259069781
 31
0.0
  0
LINE
  5
D22
330
1E
100
AcDbEntity
  8
STEMPEL
100
AcDbLine
 10
304.2323536633846
 20
575.7742937188427
 30
0.0
 11
288.4793053361779
 21
560.0212453916379
 31
0.0
  0
HATCH
  5
D23
330
1E
100
AcDbEntity
  8
SCHRAFF
100
AcDbHatch
 10
0.0
 20
0.0
 30
0.0
210
0.0
220
0.0
230
1.0
  2
_USER
 70
     0
 71
     0
 91
        4
 92
        7
 72
     1
 73
     1
 93
        8
 10
161.5754994138919
 20
578.1174394693501
 42
0.0
 10
135.2930138351641
 20
578.1174394693502
 42
0.1989123673797054
 10
131.4039265386375
 20
576.5065267658757
 42
0.0
 10
129.0754994138916
 20
574.1780996411295
 42
0.0
 10
130.4897129762644
 20
572.7638860787563
 42
0.0
 10
132.8181401010106
 20
575.0923132035025
 42
-0.1989123673796754
 10
135.2930138351634
 20
576.1174394693503
 42
0.0
 10
161.5754994138919
 20
576.11743946935
 42
0.0
 97
        0
 92
        7
 72
     1
 73
     1
 93
        8
 10
193.2617909149073
 20
578.1174394693502
 42
0.0
 10
161.5754994138919
 20
578.1174394693502
 42
0.0
 10
161.5754994138919
 20
576.11743946935
 42
0.0
 10
193.2617909149071
 20
576.1174394693498
 42
-0.1989123673796662
 10
197.5044316020266
 20
574.3600801564694
 42
0.0
 10
207.649019566315
 20
564.2154921921822
 42
0.0
 10
209.0632331286883
 20
565.6297057545555
 42
0.0
 10
198.9186451643995
 20
575.7742937188427
 42
0.1989123673796524
 97
        0
 92
        7
 72
     1
 73
     1
 93
        8
 10
367.8579849926198
 20
578.1174394693501
 42
0.0
 10
322.9754994138918
 20
578.1174394693501
 42
0.0
 10
322.9754994138918
 20
576.11743946935
 42
0.0
 10
367.8579849926198
 20
576.1174394693503
 42
-0.1989123673796966
 10
370.3328587267729
 20
575.0923132035025
 42
0.0
 10
372.661285851519
 20
572.7638860787562
 42
0.0
 10
374.075499413892
 20
574.1780996411295
 42
0.0
 10
371.747072289146
 20
576.5065267658757
 42
0.1989123673796782
 97
        0
 92
        7
 72
     1
 73
     1
 93
        8
 10
322.9754994138918
 20
578.11743946935
 42
0.0
 10
309.8892079128765
 20
578.11743946935
 42
0.198912367379642
 10
304.2323536633846
 20
575.7742937188425
 42
0.0
 10
294.075499413892
 20
565.6174394693513
 42
0.0
 10
295.4897129762649
 20
564.2032259069781
 42
0.0
 10
305.6465672257577
 20
574.3600801564696
 42
-0.1989123673796247
 10
309.8892079128764
 20
576.1174394693499
 42
0.0
 10
322.9754994138918
 20
576.11743946935
 42
0.0
 97
        0
 75
     0
 76
     0
 52
45.0
 41
2.0
 77
     0
 78
     1
 53
45.0
 43
0.0000000000002274
 44
0.0
 45
-1.414213562373094
 46
1.414213562373095
 79
     0
 47
0.318069369701126
 98
        4
 10
156.3168858950414
 20
576.6477501637571
 10
165.5471196696692
 20
576.6477501637571
 10
335.1924577858797
 20
576.9658194981141
 10
317.3685558903328
 20
576.6477501637571
  0
LINE
  5
D24
330
1E
100
AcDbEntity
  8
STEMPEL
100
AcDbLine
 10
198.9186451643995
 20
575.7742937188427
 30
0.0
 11
214.6716934916067
 21
560.0212453916376
 31
0.0
  0
LINE
  5
D25
330
1E
100
AcDbEntity
  8
STEMPEL
100
AcDbLine
 10
197.5044316020264
 20
574.3600801564696
 30
0.0
 11
207.649019566315
 21
564.2154921921822
 31
0.0
  0
LINE
  5
D88
330
1E
100
AcDbEntity
  8
TEXT
 62
     2
100
AcDbLine
 10
326.4286549137283
 20
518.6905174543778
 30
0.0
 11
315.9621478316432
 21
580.7678760298769
 31
0.0
  0
TEXT
  5
D89
330
1E
100
AcDbEntity
  8
TEXT
 62
     1
100
AcDbText
 10
329.1095081675379
 20
522.1743516152883
 30
0.0
 40
7.0
  1
Kompressionsdichtung
 41
0.8
100
AcDbText
  0
LINE
  5
D8A
330
1E
100
AcDbEntity
  8
TEXT
 62
     2
100
AcDbLine
 10
432.3672194888614
 20
518.6905174543778
 30
0.0
 11
326.4286549137283
 21
518.6905174543778
 31
0.0
  0
TEXT
  5
D8B
330
1E
100
AcDbEntity
  8
TEXT
 62
     1
100
AcDbText
 10
329.1095081675379
 20
509.3980206465787
 30
0.0
 40
7.0
  1
EDV-Art.Nr. 21920.070X
 41
0.8
100
AcDbText
  0
LINE
  5
D8C
330
1E
100
AcDbEntity
  8
TEXT
 62
     2
100
AcDbLine
 10
315.8768969459148
 20
492.9203271701275
 30
0.0
 11
287.3109274653936
 21
479.5906218583452
 31
0.0
  0
TEXT
  5
D8D
330
1E
100
AcDbEntity
  8
TEXT
 62
     1
100
AcDbText
 10
316.4722528246692
 20
483.6278303623284
 30
0.0
 40
7.0
  1
EDV-Art.Nr. 21976.070X
 41
0.8
100
AcDbText
  0
TEXT
  5
D8E
330
1E
100
AcDbEntity
  8
TEXT
 62
     1
100
AcDbText
 10
316.4722528246692
 20
496.404161331038
 30
0.0
 40
7.0
  1
Ablaufkörper DN70
 41
0.8
100
AcDbText
  0
LINE
  5
D8F
330
1E
100
AcDbEntity
  8
TEXT
 62
     2
100
AcDbLine
 10
421.8154615210479
 20
492.9203271701275
 30
0.0
 11
315.8768969459148
 21
492.9203271701275
 31
0.0
  0
LINE
  5
D90
102
{ACAD_REACTORS
330
FC9
102
}
330
1E
100
AcDbEntity
  8
TEXT
 62
     2
100
AcDbLine
 10
342.7992386847482
 20
549.2075623687196
 30
0.0
 11
338.8533442785774
 21
588.5131590329442
 31
0.0
  0
TEXT
  5
D91
330
1E
100
AcDbEntity
  8
TEXT
 62
     1
100
AcDbText
 10
344.613123916831
 20
552.6913965296301
 30
0.0
 40
7.0
  1
Losflansch DN70
 41
0.8
100
AcDbText
  0
LINE
  5
D92
330
1E
100
AcDbEntity
  8
TEXT
 62
     2
100
AcDbLine
 10
448.7378032598813
 20
549.2075623687196
 30
0.0
 11
342.7992386847482
 21
549.2075623687196
 31
0.0
  0
TEXT
  5
D93
330
1E
100
AcDbEntity
  8
TEXT
 62
     1
100
AcDbText
 10
343.3945945635025
 20
539.9150655609205
 30
0.0
 40
7.0
  1
EDV-Art.Nr. 21907.070X
 41
0.8
100
AcDbText
  0
LINE
  5
D98
330
1E
100
AcDbEntity
  8
TEXT
 62
     2
100
AcDbLine
 10
322.6338805241474
 20
734.7949946162936
 30
0.0
 11
310.8371543504282
 21
718.4655143566951
 31
0.0
  0
TEXT
  5
D99
330
1E
100
AcDbEntity
  8
TEXT
 62
     1
100
AcDbText
 10
324.7476095151253
 20
726.1160174680212
 30
0.0
 40
7.0
  1
EDV-Art.Nr. 21011.000X
 41
0.8
  7
GREEKS
100
AcDbText
  0
TEXT
  5
D9A
330
1E
100
AcDbEntity
  8
TEXT
 62
     1
100
AcDbText
 10
324.7476095151253
 20
738.1749000331901
 30
0.0
 40
7.0
  1
Drainlethaube
 41
0.8
  7
GREEKS
100
AcDbText
  0
LINE
  5
D9B
330
1E
100
AcDbEntity
  8
TEXT
 62
     2
100
AcDbLine
 10
322.6338805241474
 20
734.7949946162936
 30
0.0
 11
428.5788413901018
 21
734.7949946162937
 31
0.0
  0
LINE
  5
D9C
330
1E
100
AcDbEntity
  8
TEXT
 62
     2
100
AcDbLine
 10
307.8008728695158
 20
714.2625772218484
 30
0.0
 11
301.1356463498089
 21
705.0363153525357
 31
0.0
  0
LINE
  5
D9D
330
1E
100
AcDbEntity
  8
TEXT
 62
     2
100
AcDbLine
 10
296.9185299071074
 20
699.1988212300618
 30
0.0
 11
287.034484601757
 21
685.5169470963492
 31
0.0
  0
TEXT
  5
DAD
330
1E
100
AcDbEntity
  8
TEXT
 62
     1
100
AcDbText
 10
343.3945945635027
 20
389.9150655609204
 30
0.0
 40
7.0
  1
EDV-Art.Nr. 21905.070X
 41
0.8
100
AcDbText
  0
LINE
  5
DAE
330
1E
100
AcDbEntity
  8
TEXT
 62
     2
100
AcDbLine
 10
448.7378032598813
 20
399.2075623687195
 30
0.0
 11
342.7992386847483
 21
399.2075623687195
 31
0.0
  0
TEXT
  5
DAF
330
1E
100
AcDbEntity
  8
TEXT
 62
     1
100
AcDbText
 10
344.6131239168311
 20
402.69139652963
 30
0.0
 40
7.0
  1
Losflansch DN70
 41
0.8
100
AcDbText
  0
LINE
  5
DB0
102
{ACAD_REACTORS
330
FE2
102
}
330
1E
100
AcDbEntity
  8
TEXT
 62
     2
100
AcDbLine
 10
342.7992386847483
 20
399.2075623687195
 30
0.0
 11
338.8533442785775
 21
438.5131590329441
 31
0.0
  0
TEXT
  5
DB1
330
1E
100
AcDbEntity
  8
TEXT
 62
     1
100
AcDbText
 10
329.109508167538
 20
359.3980206465786
 30
0.0
 40
7.0
  1
EDV-Art.Nr. 21920.070X
 41
0.8
100
AcDbText
  0
LINE
  5
DB2
330
1E
100
AcDbEntity
  8
TEXT
 62
     2
100
AcDbLine
 10
432.3672194888615
 20
368.6905174543777
 30
0.0
 11
326.4286549137285
 21
368.6905174543777
 31
0.0
  0
TEXT
  5
DB3
330
1E
100
AcDbEntity
  8
TEXT
 62
     1
100
AcDbText
 10
329.109508167538
 20
372.1743516152882
 30
0.0
 40
7.0
  1
Kompressionsdichtung
 41
0.8
100
AcDbText
  0
LINE
  5
DB4
330
1E
100
AcDbEntity
  8
TEXT
 62
     2
100
AcDbLine
 10
326.4286549137285
 20
368.6905174543777
 30
0.0
 11
315.9621478316433
 21
429.7678760298769
 31
0.0
  0
TEXT
  5
DBF
330
1E
100
AcDbEntity
  8
TEXT
 62
     1
100
AcDbText
 10
318.9478966543278
 20
200.5158028829135
 30
0.0
 40
7.0
  1
EDV-Art.Nr. 21975.070X
 41
0.8
  7
GREEKS
100
AcDbText
  0
TEXT
  5
DC0
330
1E
100
AcDbEntity
  8
TEXT
 62
     1
100
AcDbText
 10
319.5548562669195
 20
214.2642013608334
 30
0.0
 40
7.0
  1
Unterteil DN70
 41
0.8
  7
GREEKS
100
AcDbText
  0
LINE
  5
DC1
330
1E
100
AcDbEntity
  8
TEXT
 62
     2
100
AcDbLine
 10
318.2034871187433
 20
211.4625063661615
 30
0.0
 11
421.8979460517743
 21
211.4625063661615
 31
0.0
  0
LINE
  5
DC2
330
1E
100
AcDbEntity
  8
TEXT
 62
     2
100
AcDbLine
 10
318.2034871187433
 20
211.4625063661615
 30
0.0
 11
287.1562299203646
 21
196.4524519062175
 31
0.0
  0
HATCH
  5
DFF
330
1E
100
AcDbEntity
  8
SCHRAFF
100
AcDbHatch
 10
0.0
 20
0.0
 30
0.0
210
0.0
220
0.0
230
1.0
  2
HONEY
 70
     0
 71
     0
 91
        2
 92
        7
 72
     1
 73
     1
 93
        7
 10
255.575499413892
 20
693.1174394693514
 42
0.0
 10
255.5754994138919
 20
671.1174394693514
 42
0.0
 10
360.575499413892
 20
671.1174394693515
 42
0.0
 10
360.575499413892
 20
674.117381502036
 42
0.2667503951500763
 10
358.0948529820189
 20
678.4362769162323
 42
0.0
 10
334.0736463059887
 20
692.4486358520502
 42
0.1315436689467474
 10
331.5754994138921
 20
693.1174394693514
 42
0.0
 97
        0
 92
        7
 72
     1
 73
     1
 93
        7
 10
171.5754994138919
 20
693.1174394693511
 42
0.1315436689462666
 10
169.0773525218055
 20
692.4486358520564
 42
0.0
 10
145.0561458457648
 20
678.4362769162322
 42
0.266750395150088
 10
142.575499413892
 20
674.1173815020361
 42
0.0
 10
142.575499413892
 20
671.1174394693509
 42
0.0
 10
247.575499413892
 20
671.1174394693514
 42
0.0
 10
247.5754994138919
 20
693.1174394693513
 42
0.0
 97
        0
 75
     0
 76
     1
 52
0.0
 41
30.0
 77
     0
 78
     3
 53
0.0
 43
13.1320278592168
 44
217.4923387666544
 45
5.625
 46
3.247595249999999
 79
     2
 49
3.75
 49
-7.5
 53
120.0
 43
13.1320278592168
 44
217.4923387666544
 45
-5.624999987709673
 46
3.247595271287468
 79
     2
 49
3.749999999999999
 49
-7.499999999999998
 53
60.0
 43
13.1320278592168
 44
217.4923387666544
 45
0.0000000122903263
 46
6.495190521287468
 79
     2
 49
-7.5
 49
3.75
 47
0.3214602750441732
 98
        2
 10
283.0928587236769
 20
684.4653285481654
 10
222.3039119332504
 20
684.4653285481654
  0
HATCH
  5
E00
330
1E
100
AcDbEntity
  8
SCHRAFF
100
AcDbHatch
 10
0.0
 20
0.0
 30
0.0
210
0.0
220
0.0
230
1.0
  2
_USER
 70
     0
 71
     1
 91
        2
 92
        7
 72
     0
 73
     1
 93
        4
 10
358.3254994138919
 20
671.1174394693516
 10
256.3254994138919
 20
671.1174394693513
 10
256.3254994138919
 20
669.1174394693514
 10
358.3254994138919
 20
669.1174394693515
 97
        4
330
E18
330
E19
330
E2D
330
E2A
 92
        7
 72
     0
 73
     1
 93
        4
 10
246.8254994138919
 20
671.1174394693513
 10
144.8254994138919
 20
671.1174394693509
 10
144.8254994138919
 20
669.117439469351
 10
246.8254994138918
 20
669.1174394693511
 97
        4
330
E2C
330
E2B
330
E2D
330
E1A
 75
     0
 76
     0
 52
135.0
 41
2.0
 77
     0
 78
     1
 53
135.0
 43
13.1320278592168
 44
195.3447556008436
 45
-1.414213562373095
 46
-1.414213562373094
 79
     0
 47
0.2882846600731254
 98
        2
 10
299.580352346796
 20
671.5457147318695
 10
235.5464452783165
 20
671.5457147318695
  0
ARC
  5
E01
330
1E
100
AcDbEntity
  8
STEMPEL
100
AcDbCircle
 10
245.0754994138918
 20
660.7016360656366
 30
0.0
 40
0.5
100
AcDbArc
 50
0.0
 51
71.12924595933046
  0
ARC
  5
E02
330
1E
100
AcDbEntity
  8
STEMPEL
100
AcDbCircle
 10
258.0754994138918
 20
660.7016360656366
 30
0.0
 40
0.5
100
AcDbArc
 50
108.8707540406695
 51
180.0
  0
LINE
  5
E03
330
1E
100
AcDbEntity
  8
STEMPEL
100
AcDbLine
 10
245.5754994138918
 20
660.7016360656366
 30
0.0
 11
245.5754994138918
 21
658.5174394693511
 31
0.0
  0
LINE
  5
E04
330
1E
100
AcDbEntity
  8
STEMPEL
100
AcDbLine
 10
257.5754994138919
 20
660.7016360656366
 30
0.0
 11
257.5754994138919
 21
658.5174394693511
 31
0.0
  0
LINE
  5
E05
330
1E
100
AcDbEntity
  8
STEMPEL
100
AcDbLine
 10
245.5754994138918
 20
658.5174394693511
 30
0.0
 11
257.5754994138919
 21
658.5174394693511
 31
0.0
  0
LINE
  5
E06
330
1E
100
AcDbEntity
  8
STEMPEL
100
AcDbLine
 10
258.7643073687079
 20
666.9315142802846
 30
0.0
 11
258.3651084721112
 21
667.1619918706949
 31
0.0
  0
LINE
  5
E07
330
1E
100
AcDbEntity
  8
STEMPEL
100
AcDbLine
 10
256.9619501386508
 20
667.5174394693513
 30
0.0
 11
256.9665796086975
 21
667.5174394693513
 31
0.0
  0
LINE
  5
E08
330
1E
100
AcDbEntity
  8
STEMPEL
100
AcDbLine
 10
258.7643073687079
 20
661.6033646584177
 30
0.0
 11
258.3651084721112
 21
661.3728870680074
 31
0.0
  0
LINE
  5
E09
330
1E
100
AcDbEntity
  8
STEMPEL
100
AcDbLine
 10
256.9619501386508
 20
661.017439469351
 30
0.0
 11
256.9665796086975
 21
661.017439469351
 31
0.0
  0
LINE
  5
E0A
330
1E
100
AcDbEntity
  8
STEMPEL
100
AcDbLine
 10
258.7643073687079
 20
666.9315142802847
 30
0.0
 11
258.7643073687079
 21
661.6033646584178
 31
0.0
  0
LINE
  5
E0B
330
1E
100
AcDbEntity
  8
STEMPEL
100
AcDbLine
 10
255.1699033912999
 20
666.9007065040812
 30
0.0
 11
255.1699033913
 21
661.6341724346211
 31
0.0
  0
LINE
  5
E0C
330
1E
100
AcDbEntity
  8
STEMPEL
100
AcDbLine
 10
247.981095436484
 20
666.9007065040812
 30
0.0
 11
247.9810954364839
 21
661.6341724346211
 31
0.0
  0
ARC
  5
E0D
330
1E
100
AcDbEntity
  8
STEMPEL
100
AcDbCircle
 10
251.5754994138919
 20
671.800144669351
 30
0.0
 40
10.7827052
100
AcDbArc
 50
250.5278273813848
 51
289.4721726186153
  0
ARC
  5
E0E
330
1E
100
AcDbEntity
  8
STEMPEL
100
AcDbCircle
 10
251.5754994138919
 20
656.7347342693513
 30
0.0
 40
10.7827052
100
AcDbArc
 50
70.52782738138472
 51
109.4721726186152
  0
ARC
  5
E0F
330
1E
100
AcDbEntity
  8
STEMPEL
100
AcDbCircle
 10
256.9671053800039
 20
663.9443904072146
 30
0.0
 40
2.926950985085932
100
AcDbArc
 50
232.1193642828198
 51
301.469194524079
  0
ARC
  5
E10
330
1E
100
AcDbEntity
  8
STEMPEL
100
AcDbCircle
 10
256.9671053800039
 20
664.5904885314877
 30
0.0
 40
2.926950985085932
100
AcDbArc
 50
58.53080547592095
 51
127.8806357171802
  0
LINE
  5
E11
330
1E
100
AcDbEntity
  8
STEMPEL
100
AcDbLine
 10
244.3866914590759
 20
666.9315142802846
 30
0.0
 11
244.7858903556726
 21
667.1619918706949
 31
0.0
  0
LINE
  5
E12
330
1E
100
AcDbEntity
  8
STEMPEL
100
AcDbLine
 10
244.3866914590759
 20
661.6033646584177
 30
0.0
 11
244.7858903556726
 21
661.3728870680074
 31
0.0
  0
LINE
  5
E13
330
1E
100
AcDbEntity
  8
STEMPEL
100
AcDbLine
 10
244.3866914590759
 20
666.9315142802846
 30
0.0
 11
244.3866914590759
 21
661.6033646584177
 31
0.0
  0
LINE
  5
E14
330
1E
100
AcDbEntity
  8
STEMPEL
100
AcDbLine
 10
246.1844192190666
 20
661.0174394693512
 30
0.0
 11
256.9665796087079
 21
661.017439469351
 31
0.0
  0
ARC
  5
E15
330
1E
100
AcDbEntity
  8
STEMPEL
100
AcDbCircle
 10
246.1838934477799
 20
663.9443904072146
 30
0.0
 40
2.926950985085932
100
AcDbArc
 50
238.530805475921
 51
307.8806357171803
  0
LINE
  5
E16
330
1E
100
AcDbEntity
  8
STEMPEL
100
AcDbLine
 10
246.1844192190666
 20
667.5174394693511
 30
0.0
 11
256.9665796087079
 21
667.5174394693513
 31
0.0
  0
ARC
  5
E17
330
1E
100
AcDbEntity
  8
STEMPEL
100
AcDbCircle
 10
246.1838934477799
 20
664.5904885314877
 30
0.0
 40
2.926950985085932
100
AcDbArc
 50
52.11936428281976
 51
121.469194524079
  0
LINE
  5
E18
102
{ACAD_REACTORS
330
E00
102
}
330
1E
100
AcDbEntity
  8
STEMPEL
100
AcDbLine
 10
255.5754994138919
 20
671.1174394693514
 30
0.0
 11
360.575499413892
 21
671.1174394693516
 31
0.0
  0
LINE
  5
E19
102
{ACAD_REACTORS
330
E00
102
}
330
1E
100
AcDbEntity
  8
STEMPEL
100
AcDbLine
 10
256.325499413892
 20
671.1174394693514
 30
0.0
 11
256.3254994138919
 21
669.1174394693513
 31
0.0
  0
LINE
  5
E1A
102
{ACAD_REACTORS
330
E00
102
}
330
1E
100
AcDbEntity
  8
STEMPEL
100
AcDbLine
 10
246.8254994138919
 20
671.1174394693512
 30
0.0
 11
246.8254994138919
 21
669.1174394693511
 31
0.0
  0
LINE
  5
E1B
330
1E
100
AcDbEntity
  8
STEMPEL
100
AcDbLine
 10
247.5754994138919
 20
658.5174394693511
 30
0.0
 11
247.575499413892
 21
654.1174394693514
 31
0.0
  0
LINE
  5
E1C
330
1E
100
AcDbEntity
  8
HILF
100
AcDbLine
 10
248.5754994138919
 20
658.5174394693511
 30
0.0
 11
248.575499413892
 21
653.1174394693514
 31
0.0
  0
LINE
  5
E1D
330
1E
100
AcDbEntity
  8
HILF
100
AcDbLine
 10
254.5754994138919
 20
658.5174394693511
 30
0.0
 11
254.5754994138919
 21
653.1174394693514
 31
0.0
  0
LINE
  5
E1E
330
1E
100
AcDbEntity
  8
STEMPEL
100
AcDbLine
 10
255.5754994138918
 20
658.5174394693511
 30
0.0
 11
255.5754994138919
 21
654.1174394693514
 31
0.0
  0
LINE
  5
E1F
330
1E
100
AcDbEntity
  8
STEMPEL
100
AcDbLine
 10
259.5754994138919
 20
669.1174394693513
 30
0.0
 11
259.5754994138919
 21
667.5174394693513
 31
0.0
  0
LINE
  5
E20
330
1E
100
AcDbEntity
  8
STEMPEL
100
AcDbLine
 10
243.5754994138918
 20
669.1174394693513
 30
0.0
 11
243.5754994138919
 21
667.5174394693513
 31
0.0
  0
LINE
  5
E21
330
1E
100
AcDbEntity
  8
STEMPEL
100
AcDbLine
 10
243.5754994138919
 20
667.5174394693513
 30
0.0
 11
259.5754994138919
 21
667.5174394693513
 31
0.0
  0
LINE
  5
E22
330
1E
100
AcDbEntity
  8
STEMPEL
100
AcDbLine
 10
247.5754994138919
 20
654.1174394693514
 30
0.0
 11
248.575499413892
 21
653.1174394693514
 31
0.0
  0
LINE
  5
E23
330
1E
100
AcDbEntity
  8
STEMPEL
100
AcDbLine
 10
255.5754994138919
 20
654.1174394693514
 30
0.0
 11
254.5754994138919
 21
653.1174394693514
 31
0.0
  0
LINE
  5
E24
330
1E
100
AcDbEntity
  8
HILF
100
AcDbLine
 10
248.575499413892
 20
693.1174394693512
 30
0.0
 11
248.5754994138919
 21
669.1174394693511
 31
0.0
  0
LINE
  5
E25
330
1E
100
AcDbEntity
  8
HILF
100
AcDbLine
 10
254.575499413892
 20
693.1174394693512
 30
0.0
 11
254.5754994138919
 21
669.1174394693514
 31
0.0
  0
LINE
  5
E26
330
1E
100
AcDbEntity
  8
STEMPEL
100
AcDbLine
 10
247.5754994138919
 20
654.1174394693514
 30
0.0
 11
255.5754994138919
 21
654.1174394693514
 31
0.0
  0
LINE
  5
E27
330
1E
100
AcDbEntity
  8
STEMPEL
100
AcDbLine
 10
248.575499413892
 20
653.1174394693514
 30
0.0
 11
254.5754994138918
 21
653.1174394693514
 31
0.0
  0
LINE
  5
E28
330
1E
100
AcDbEntity
  8
STEMPEL
100
AcDbLine
 10
255.575499413892
 20
693.1174394693512
 30
0.0
 11
255.5754994138919
 21
669.1174394693513
 31
0.0
  0
LINE
  5
E29
330
1E
100
AcDbEntity
  8
STEMPEL
100
AcDbLine
 10
247.575499413892
 20
693.1174394693512
 30
0.0
 11
247.575499413892
 21
669.1174394693513
 31
0.0
  0
LINE
  5
E2A
102
{ACAD_REACTORS
330
E00
102
}
330
1E
100
AcDbEntity
  8
STEMPEL
100
AcDbLine
 10
358.3254994138919
 20
671.1174394693516
 30
0.0
 11
358.3254994138919
 21
669.1174394693515
 31
0.0
  0
LINE
  5
E2B
102
{ACAD_REACTORS
330
E00
102
}
330
1E
100
AcDbEntity
  8
STEMPEL
100
AcDbLine
 10
144.8254994138919
 20
671.1174394693509
 30
0.0
 11
144.8254994138919
 21
669.1174394693511
 31
0.0
  0
LINE
  5
E2C
102
{ACAD_REACTORS
330
E00
102
}
330
1E
100
AcDbEntity
  8
STEMPEL
100
AcDbLine
 10
142.575499413892
 20
671.1174394693509
 30
0.0
 11
247.5754994138919
 21
671.1174394693513
 31
0.0
  0
LINE
  5
E2D
102
{ACAD_REACTORS
330
E00
102
}
330
1E
100
AcDbEntity
  8
STEMPEL
100
AcDbLine
 10
144.8254994138919
 20
669.117439469351
 30
0.0
 11
358.3254994138919
 21
669.1174394693517
 31
0.0
  0
ARC
  5
E2E
330
1E
100
AcDbEntity
  8
STEMPEL
100
AcDbCircle
 10
251.575499413892
 20
661.6174394693516
 30
0.0
 40
7.5
100
AcDbArc
 50
163.4371734902396
 51
180.000000000013
  0
LINE
  5
E68
330
1E
100
AcDbEntity
  8
STEMPEL
100
AcDbLine
 10
318.8513614828567
 20
604.1174394693515
 30
0.0
 11
370.5754994138918
 21
604.1174394693516
 31
0.0
  0
TEXT
  5
E93
330
1E
100
AcDbEntity
  8
VOLL
100
AcDbText
 10
454.0472036440582
 20
566.8119911182093
 30
0.0
 40
1.8
  1

 50
270.0
  7
GREEKS
100
AcDbText
  0
ARC
  5
E98
330
1E
100
AcDbEntity
  8
STEMPEL
100
AcDbCircle
 10
367.0254994138917
 20
605.6674394693518
 30
0.0
 40
0.5500000000000003
100
AcDbArc
 50
110.0000000000006
 51
270.0
  0
ARC
  5
E99
330
1E
100
AcDbEntity
  8
STEMPEL
100
AcDbCircle
 10
380.1254994138917
 20
605.6674394693518
 30
0.0
 40
0.5500000000000009
100
AcDbArc
 50
270.0
 51
69.99999999999935
  0
LINE
  5
E9A
330
1E
100
AcDbEntity
  8
STEMPEL
100
AcDbLine
 10
380.3136104927208
 20
606.1842704107841
 30
0.0
 11
379.349002105788
 21
606.5353591513512
 31
0.0
  0
LINE
  5
E9B
330
1E
100
AcDbEntity
  8
STEMPEL
100
AcDbLine
 10
367.8019967219955
 20
606.5353591513512
 30
0.0
 11
366.8373883350627
 21
606.1842704107841
 31
0.0
  0
LINE
  5
E9E
330
1E
100
AcDbEntity
  8
STEMPEL
100
AcDbLine
 10
378.5754994138918
 20
611.7174394693519
 30
0.0
 11
368.5754994138918
 21
611.7174394693519
 31
0.0
  0
LINE
  5
E9F
330
1E
100
AcDbEntity
  8
STEMPEL
100
AcDbLine
 10
379.3490021057881
 20
611.510180047715
 30
0.0
 11
379.3490021057881
 21
606.5353591513512
 31
0.0
  0
LINE
  5
EA0
330
1E
100
AcDbEntity
  8
STEMPEL
100
AcDbLine
 10
376.4622507598399
 20
611.510180047715
 30
0.0
 11
376.4622507598399
 21
606.5353591513512
 31
0.0
  0
LINE
  5
EA1
330
1E
100
AcDbEntity
  8
STEMPEL
100
AcDbLine
 10
370.6887480679436
 20
611.510180047715
 30
0.0
 11
370.6887480679436
 21
606.5353591513512
 31
0.0
  0
LINE
  5
EA2
330
1E
100
AcDbEntity
  8
STEMPEL
100
AcDbLine
 10
367.8019967219955
 20
611.510180047715
 30
0.0
 11
367.8019967219955
 21
606.5353591513512
 31
0.0
  0
LINE
  5
EA3
330
1E
100
AcDbEntity
  8
STEMPEL
100
AcDbLine
 10
380.1254994138917
 20
605.1174394693519
 30
0.0
 11
367.0254994138917
 21
605.1174394693519
 31
0.0
  0
LINE
  5
EA4
330
1E
100
AcDbEntity
  8
STEMPEL
100
AcDbLine
 10
380.3136104927208
 20
606.1842704107841
 30
0.0
 11
366.8373883350627
 21
606.1842704107841
 31
0.0
  0
ARC
  5
EAC
330
1E
100
AcDbEntity
  8
STEMPEL
100
AcDbCircle
 10
377.905626432814
 20
606.5879023308288
 30
0.0
 40
5.129537138523076
100
AcDbArc
 50
73.65710669401657
 51
106.3428933059834
  0
LINE
  5
EAD
330
1E
100
AcDbEntity
  8
STEMPEL
100
AcDbLine
 10
378.5754994138918
 20
611.7174394693519
 30
0.0
 11
379.3490021057881
 21
611.510180047715
 31
0.0
  0
LINE
  5
EAE
330
1E
100
AcDbEntity
  8
STEMPEL
100
AcDbLine
 10
368.5754994138918
 20
611.7174394693519
 30
0.0
 11
367.8019967219955
 21
611.510180047715
 31
0.0
  0
ARC
  5
EAF
330
1E
100
AcDbEntity
  8
STEMPEL
100
AcDbCircle
 10
369.2453723949695
 20
606.5879023308288
 30
0.0
 40
5.129537138523076
100
AcDbArc
 50
73.65710669401657
 51
106.3428933059834
  0
ARC
  5
EB0
330
1E
100
AcDbEntity
  8
STEMPEL
100
AcDbCircle
 10
373.5754994138917
 20
591.510180047715
 30
0.0
 40
20.20725942163691
100
AcDbArc
 50
81.78678929826011
 51
98.21321070173988
  0
ARC
  5
EB1
330
1E
100
AcDbEntity
  8
HILF
100
AcDbCircle
 10
377.905626432814
 20
602.9749661456472
 30
0.0
 40
3.841839622940954
100
AcDbArc
 50
67.9324721810082
 51
112.0675278189918
  0
ARC
  5
EB2
330
1E
100
AcDbEntity
  8
HILF
100
AcDbCircle
 10
369.2453723949695
 20
602.9761307075355
 30
0.0
 40
3.840760399790701
100
AcDbArc
 50
67.92594526323999
 51
112.07405473676
  0
ARC
  5
EB3
330
1E
100
AcDbEntity
  8
HILF
100
AcDbCircle
 10
373.5754994138917
 20
591.8761474421256
 30
0.0
 40
14.94074366520046
100
AcDbArc
 50
78.85962783889434
 51
101.1403721611056
  0
ARC
  5
EB5
330
1E
100
AcDbEntity
  8
HILF
100
AcDbCircle
 10
154.7863918983616
 20
591.8761474421256
 30
0.0
 40
14.94074366520046
100
AcDbArc
 50
100.2909006776783
 51
101.1403721611056
  0
ARC
  5
EB6
330
1E
100
AcDbEntity
  8
HILF
100
AcDbCircle
 10
150.4562648794394
 20
602.9761307075355
 30
0.0
 40
3.840760399790701
100
AcDbArc
 50
67.92594526323999
 51
112.07405473676
  0
ARC
  5
EB7
330
1E
100
AcDbEntity
  8
HILF
100
AcDbCircle
 10
159.1165189172838
 20
602.9749661456472
 30
0.0
 40
3.841839622940954
100
AcDbArc
 50
67.9324721810082
 51
77.40284130776723
  0
ARC
  5
EB8
330
1E
100
AcDbEntity
  8
STEMPEL
100
AcDbCircle
 10
154.7863918983616
 20
591.510180047715
 30
0.0
 40
20.20725942163691
100
AcDbArc
 50
94.91416948520919
 51
98.21321070173988
  0
ARC
  5
EB9
330
1E
100
AcDbEntity
  8
STEMPEL
100
AcDbCircle
 10
150.4562648794394
 20
606.5879023308288
 30
0.0
 40
5.129537138523076
100
AcDbArc
 50
73.65710669401657
 51
106.3428933059834
  0
LINE
  5
EBA
330
1E
100
AcDbEntity
  8
STEMPEL
100
AcDbLine
 10
149.7863918983616
 20
611.7174394693519
 30
0.0
 11
149.0128892064653
 21
611.510180047715
 31
0.0
  0
LINE
  5
EBD
330
1E
100
AcDbEntity
  8
STEMPEL
100
AcDbLine
 10
161.5245029771907
 20
606.1842704107841
 30
0.0
 11
159.6627150729185
 21
606.1842704107841
 31
0.0
  0
LINE
  5
EBF
330
1E
100
AcDbEntity
  8
STEMPEL
100
AcDbLine
 10
149.0128892064653
 20
611.510180047715
 30
0.0
 11
149.0128892064653
 21
606.5353591513512
 31
0.0
  0
LINE
  5
EC0
330
1E
100
AcDbEntity
  8
STEMPEL
100
AcDbLine
 10
151.8996405524135
 20
611.510180047715
 30
0.0
 11
151.8996405524135
 21
606.5353591513512
 31
0.0
  0
LINE
  5
EC2
330
1E
100
AcDbEntity
  8
STEMPEL
100
AcDbLine
 10
160.5598945902579
 20
608.4955107411664
 30
0.0
 11
160.5598945902579
 21
606.5353591513512
 31
0.0
  0
LINE
  5
EC3
330
1E
100
AcDbEntity
  8
STEMPEL
100
AcDbLine
 10
153.0553709506316
 20
611.7174394693519
 30
0.0
 11
149.7863918983616
 21
611.7174394693519
 31
0.0
  0
LINE
  5
EC4
330
1E
100
AcDbEntity
  8
STEMPEL
100
AcDbLine
 10
149.0128892064653
 20
606.5353591513512
 30
0.0
 11
148.0482808195325
 21
606.1842704107841
 31
0.0
  0
LINE
  5
EC5
330
1E
100
AcDbEntity
  8
STEMPEL
100
AcDbLine
 10
161.5245029771907
 20
606.1842704107841
 30
0.0
 11
160.5598945902579
 21
606.5353591513512
 31
0.0
  0
ARC
  5
EC6
330
1E
100
AcDbEntity
  8
STEMPEL
100
AcDbCircle
 10
161.3363918983616
 20
605.6674394693518
 30
0.0
 40
0.5500000000000009
100
AcDbArc
 50
270.0
 51
69.99999999999935
  0
ARC
  5
EC7
330
1E
100
AcDbEntity
  8
STEMPEL
100
AcDbCircle
 10
148.2363918983616
 20
605.6674394693518
 30
0.0
 40
0.5500000000000003
100
AcDbArc
 50
110.0000000000006
 51
270.0
  0
LINE
  5
EC9
330
1E
100
AcDbEntity
  8
STEMPEL
100
AcDbLine
 10
151.856360407351
 20
606.1842704107841
 30
0.0
 11
148.0482808195325
 21
606.1842704107841
 31
0.0
  0
LINE
  5
F15
102
{ACAD_REACTORS
330
FE2
102
}
330
1E
100
AcDbEntity
  8
STEMPEL
100
AcDbLine
 10
166.5754994138918
 20
431.1174394693502
 30
0.0
 11
211.670995938101
 21
431.1174394693501
 31
0.0
  0
LINE
  5
F16
102
{ACAD_REACTORS
330
FE2
102
}
330
1E
100
AcDbEntity
  8
STEMPEL
100
AcDbLine
 10
129.0754994138918
 20
431.1174394693502
 30
0.0
 11
156.5754994138918
 21
431.1174394693502
 31
0.0
  0
LINE
  5
F19
102
{ACAD_REACTORS
330
FE2
102
}
330
1E
100
AcDbEntity
  8
STEMPEL
100
AcDbLine
 10
291.4800028896832
 20
431.1174394693501
 30
0.0
 11
374.0754994138918
 21
431.1174394693498
 31
0.0
  0
TEXT
  5
F36
330
1E
100
AcDbEntity
  8
VOLL
100
AcDbText
 10
240.4725409212996
 20
524.459502655312
 30
0.0
 40
1.8
  1

  7
GREEKS
100
AcDbText
  0
ARC
  5
F4C
330
1E
100
AcDbEntity
  8
STEMPEL
100
AcDbCircle
 10
322.9754994138917
 20
569.8065503368962
 30
0.0
 40
30.31088913245485
100
AcDbArc
 50
81.78678929826221
 51
97.40051944419846
  0
ARC
  5
F4E
330
1E
100
AcDbEntity
  8
STEMPEL
100
AcDbCircle
 10
329.4706899422751
 20
592.4231337615665
 30
0.0
 40
7.694305707784447
100
AcDbArc
 50
73.65710669401501
 51
106.342893305985
  0
ARC
  5
F4F
330
1E
100
AcDbEntity
  8
HILF
100
AcDbCircle
 10
322.9754994138917
 20
570.2189784216898
 30
0.0
 40
22.41111549782308
100
AcDbArc
 50
78.85962783890615
 51
99.02521875168837
  0
ARC
  5
F50
330
1E
100
AcDbEntity
  8
HILF
100
AcDbCircle
 10
329.4706899422751
 20
586.8689533198213
 30
0.0
 40
5.761140599691502
100
AcDbArc
 50
67.92594526326206
 51
112.0740547367379
  0
POINT
  5
F52
330
1E
100
AcDbEntity
  8
0
100
AcDbPoint
 10
322.9754994138917
 20
590.117439469351
 30
0.0
210
0.0000000000000001
220
1.0
230
0.0
  0
LINE
  5
F53
330
1E
100
AcDbEntity
  8
STEMPEL
100
AcDbLine
 10
319.058258034581
 20
600.1174394693508
 30
0.0
 11
330.4754994138917
 21
600.1174394693509
 31
0.0
  0
LINE
  5
F54
330
1E
100
AcDbEntity
  8
STEMPEL
100
AcDbLine
 10
331.6357534517361
 20
592.2077959855507
 30
0.0
 11
331.6357534517361
 21
599.8065503368955
 31
0.0
  0
LINE
  5
F55
330
1E
100
AcDbEntity
  8
STEMPEL
100
AcDbLine
 10
327.3056264328139
 20
592.2077959855507
 30
0.0
 11
327.3056264328139
 21
599.8065503368955
 31
0.0
  0
LINE
  5
F57
330
1E
100
AcDbEntity
  8
STEMPEL
100
AcDbLine
 10
333.382014521386
 20
591.5722089349404
 30
0.0
 11
319.5002527173957
 21
591.5722089349404
 31
0.0
  0
LINE
  5
F5B
330
1E
100
AcDbEntity
  8
STEMPEL
100
AcDbLine
 10
331.6357534517361
 20
599.8065503368955
 30
0.0
 11
330.4754994138917
 21
600.1174394693509
 31
0.0
  0
LINE
  5
F5C
330
1E
100
AcDbEntity
  8
STEMPEL
100
AcDbLine
 10
333.382014521386
 20
591.5722089349404
 30
0.0
 11
331.6357534517361
 21
592.2077959855507
 31
0.0
  0
ARC
  5
F5F
330
1E
100
AcDbEntity
  8
STEMPEL
100
AcDbCircle
 10
333.1254994138917
 20
590.867439469351
 30
0.0
 40
0.750000000000001
100
AcDbArc
 50
269.9999991462263
 51
70.00000000000047
  0
ARC
  5
F60
330
1E
100
AcDbEntity
  8
STEMPEL
100
AcDbCircle
 10
161.5754994138919
 20
569.8065503368959
 30
0.0
 40
30.31088913245485
100
AcDbArc
 50
81.78678929826221
 51
98.2132107017378
  0
ARC
  5
F61
330
1E
100
AcDbEntity
  8
STEMPEL
100
AcDbCircle
 10
155.0803088855087
 20
592.4231337615663
 30
0.0
 40
7.694305707784447
100
AcDbArc
 50
73.65710669401501
 51
106.342893305985
  0
ARC
  5
F62
330
1E
100
AcDbEntity
  8
STEMPEL
100
AcDbCircle
 10
168.0706899422752
 20
592.4231337615663
 30
0.0
 40
7.694305707784447
100
AcDbArc
 50
73.65710669401501
 51
106.342893305985
  0
ARC
  5
F63
330
1E
100
AcDbEntity
  8
HILF
100
AcDbCircle
 10
161.5754994138919
 20
570.2189784216896
 30
0.0
 40
22.41111549782308
100
AcDbArc
 50
78.85962783890615
 51
101.1403721610938
  0
ARC
  5
F64
330
1E
100
AcDbEntity
  8
HILF
100
AcDbCircle
 10
168.0706899422752
 20
586.8689533198211
 30
0.0
 40
5.761140599691502
100
AcDbArc
 50
67.92594526326206
 51
112.0740547367379
  0
ARC
  5
F65
330
1E
100
AcDbEntity
  8
HILF
100
AcDbCircle
 10
155.0803088855087
 20
586.8689533198211
 30
0.0
 40
5.761140599691502
100
AcDbArc
 50
67.92594526326206
 51
112.0740547367379
  0
POINT
  5
F66
330
1E
100
AcDbEntity
  8
0
100
AcDbPoint
 10
161.5754994138919
 20
590.1174394693507
 30
0.0
210
0.0000000000000001
220
1.0
230
0.0
  0
LINE
  5
F67
330
1E
100
AcDbEntity
  8
STEMPEL
100
AcDbLine
 10
154.075499413892
 20
600.1174394693507
 30
0.0
 11
169.0754994138919
 21
600.1174394693507
 31
0.0
  0
LINE
  5
F68
330
1E
100
AcDbEntity
  8
STEMPEL
100
AcDbLine
 10
170.2357534517364
 20
592.2077959855506
 30
0.0
 11
170.2357534517364
 21
599.8065503368954
 31
0.0
  0
LINE
  5
F69
330
1E
100
AcDbEntity
  8
STEMPEL
100
AcDbLine
 10
165.9056264328142
 20
592.2077959855506
 30
0.0
 11
165.9056264328142
 21
599.8065503368954
 31
0.0
  0
LINE
  5
F6A
330
1E
100
AcDbEntity
  8
STEMPEL
100
AcDbLine
 10
157.2453723949698
 20
592.2077959855506
 30
0.0
 11
157.2453723949698
 21
599.8065503368954
 31
0.0
  0
LINE
  5
F6B
330
1E
100
AcDbEntity
  8
STEMPEL
100
AcDbLine
 10
171.9820145213862
 20
591.5722089349401
 30
0.0
 11
151.1689843063977
 21
591.5722089349401
 31
0.0
  0
LINE
  5
F6C
330
1E
100
AcDbEntity
  8
STEMPEL
100
AcDbLine
 10
171.725499413892
 20
590.1174394693507
 30
0.0
 11
151.425499413892
 21
590.1174394693507
 31
0.0
  0
LINE
  5
F6D
330
1E
100
AcDbEntity
  8
STEMPEL
100
AcDbLine
 10
152.9152453760476
 20
592.2077959855506
 30
0.0
 11
152.9152453760476
 21
599.8065503368954
 31
0.0
  0
LINE
  5
F6E
330
1E
100
AcDbEntity
  8
STEMPEL
100
AcDbLine
 10
154.075499413892
 20
600.1174394693507
 30
0.0
 11
152.9152453760476
 21
599.8065503368954
 31
0.0
  0
LINE
  5
F6F
330
1E
100
AcDbEntity
  8
STEMPEL
100
AcDbLine
 10
170.2357534517364
 20
599.8065503368954
 30
0.0
 11
169.0754994138919
 21
600.1174394693507
 31
0.0
  0
LINE
  5
F70
330
1E
100
AcDbEntity
  8
STEMPEL
100
AcDbLine
 10
171.9820145213862
 20
591.5722089349401
 30
0.0
 11
170.2357534517364
 21
592.2077959855506
 31
0.0
  0
LINE
  5
F71
330
1E
100
AcDbEntity
  8
STEMPEL
100
AcDbLine
 10
152.9152453760476
 20
592.2077959855506
 30
0.0
 11
151.1689843063977
 21
591.5722089349401
 31
0.0
  0
ARC
  5
F72
330
1E
100
AcDbEntity
  8
STEMPEL
100
AcDbCircle
 10
151.425499413892
 20
590.8674394693507
 30
0.0
 40
0.7500000000000013
100
AcDbArc
 50
109.9999999999995
 51
269.9999991462263
  0
ARC
  5
F73
330
1E
100
AcDbEntity
  8
STEMPEL
100
AcDbCircle
 10
171.725499413892
 20
590.8674394693507
 30
0.0
 40
0.750000000000001
100
AcDbArc
 50
269.9999991462263
 51
70.00000000000047
  0
ARC
  5
F74
330
1E
100
AcDbEntity
  8
STEMPEL
100
AcDbCircle
 10
322.9754994138918
 20
419.8065503368961
 30
0.0
 40
30.31088913245485
100
AcDbArc
 50
81.78678929826221
 51
98.2132107017378
  0
ARC
  5
F75
330
1E
100
AcDbEntity
  8
STEMPEL
100
AcDbCircle
 10
316.4803088855085
 20
442.4231337615665
 30
0.0
 40
7.694305707784447
100
AcDbArc
 50
73.65710669401501
 51
106.342893305985
  0
ARC
  5
F76
330
1E
100
AcDbEntity
  8
STEMPEL
100
AcDbCircle
 10
329.4706899422751
 20
442.4231337615665
 30
0.0
 40
7.694305707784447
100
AcDbArc
 50
73.65710669401501
 51
106.342893305985
  0
ARC
  5
F77
330
1E
100
AcDbEntity
  8
HILF
100
AcDbCircle
 10
322.9754994138918
 20
420.2189784216897
 30
0.0
 40
22.41111549782308
100
AcDbArc
 50
78.85962783890615
 51
101.1403721610938
  0
ARC
  5
F78
330
1E
100
AcDbEntity
  8
HILF
100
AcDbCircle
 10
329.4706899422751
 20
436.8689533198213
 30
0.0
 40
5.761140599691502
100
AcDbArc
 50
67.92594526326206
 51
112.0740547367379
  0
ARC
  5
F79
330
1E
100
AcDbEntity
  8
HILF
100
AcDbCircle
 10
316.4803088855085
 20
436.8689533198213
 30
0.0
 40
5.761140599691502
100
AcDbArc
 50
67.92594526326206
 51
112.0740547367379
  0
POINT
  5
F7A
330
1E
100
AcDbEntity
  8
0
100
AcDbPoint
 10
322.9754994138918
 20
440.117439469351
 30
0.0
210
0.0000000000000001
220
1.0
230
0.0
  0
LINE
  5
F7B
330
1E
100
AcDbEntity
  8
STEMPEL
100
AcDbLine
 10
315.4754994138918
 20
450.1174394693509
 30
0.0
 11
330.4754994138918
 21
450.1174394693509
 31
0.0
  0
LINE
  5
F7C
330
1E
100
AcDbEntity
  8
STEMPEL
100
AcDbLine
 10
331.6357534517363
 20
442.2077959855508
 30
0.0
 11
331.6357534517363
 21
449.8065503368955
 31
0.0
  0
LINE
  5
F7D
330
1E
100
AcDbEntity
  8
STEMPEL
100
AcDbLine
 10
327.3056264328141
 20
442.2077959855508
 30
0.0
 11
327.3056264328141
 21
449.8065503368955
 31
0.0
  0
LINE
  5
F7E
330
1E
100
AcDbEntity
  8
STEMPEL
100
AcDbLine
 10
318.6453723949696
 20
442.2077959855508
 30
0.0
 11
318.6453723949696
 21
449.8065503368955
 31
0.0
  0
LINE
  5
F7F
330
1E
100
AcDbEntity
  8
STEMPEL
100
AcDbLine
 10
333.3820145213861
 20
441.5722089349404
 30
0.0
 11
312.5689843063976
 21
441.5722089349404
 31
0.0
  0
LINE
  5
F80
330
1E
100
AcDbEntity
  8
STEMPEL
100
AcDbLine
 10
333.1254994138918
 20
440.117439469351
 30
0.0
 11
312.8254994138919
 21
440.117439469351
 31
0.0
  0
LINE
  5
F81
330
1E
100
AcDbEntity
  8
STEMPEL
100
AcDbLine
 10
314.3152453760475
 20
442.2077959855508
 30
0.0
 11
314.3152453760475
 21
449.8065503368955
 31
0.0
  0
LINE
  5
F82
330
1E
100
AcDbEntity
  8
STEMPEL
100
AcDbLine
 10
315.4754994138918
 20
450.1174394693509
 30
0.0
 11
314.3152453760475
 21
449.8065503368955
 31
0.0
  0
LINE
  5
F83
330
1E
100
AcDbEntity
  8
STEMPEL
100
AcDbLine
 10
331.6357534517363
 20
449.8065503368955
 30
0.0
 11
330.4754994138918
 21
450.1174394693509
 31
0.0
  0
LINE
  5
F84
330
1E
100
AcDbEntity
  8
STEMPEL
100
AcDbLine
 10
333.3820145213861
 20
441.5722089349404
 30
0.0
 11
331.6357534517363
 21
442.2077959855508
 31
0.0
  0
LINE
  5
F85
330
1E
100
AcDbEntity
  8
STEMPEL
100
AcDbLine
 10
314.3152453760475
 20
442.2077959855508
 30
0.0
 11
312.5689843063976
 21
441.5722089349404
 31
0.0
  0
ARC
  5
F86
330
1E
100
AcDbEntity
  8
STEMPEL
100
AcDbCircle
 10
312.8254994138919
 20
440.867439469351
 30
0.0
 40
0.7500000000000013
100
AcDbArc
 50
109.9999999999995
 51
269.9999991462263
  0
ARC
  5
F87
330
1E
100
AcDbEntity
  8
STEMPEL
100
AcDbCircle
 10
333.1254994138918
 20
440.867439469351
 30
0.0
 40
0.750000000000001
100
AcDbArc
 50
269.9999991462263
 51
70.00000000000047
  0
ARC
  5
F88
330
1E
100
AcDbEntity
  8
STEMPEL
100
AcDbCircle
 10
161.5754994138918
 20
419.8065503368959
 30
0.0
 40
30.31088913245485
100
AcDbArc
 50
81.78678929826221
 51
98.2132107017378
  0
ARC
  5
F89
330
1E
100
AcDbEntity
  8
STEMPEL
100
AcDbCircle
 10
155.0803088855085
 20
442.4231337615664
 30
0.0
 40
7.694305707784447
100
AcDbArc
 50
73.65710669401501
 51
106.342893305985
  0
ARC
  5
F8A
330
1E
100
AcDbEntity
  8
STEMPEL
100
AcDbCircle
 10
168.0706899422751
 20
442.4231337615664
 30
0.0
 40
7.694305707784447
100
AcDbArc
 50
73.65710669401501
 51
106.342893305985
  0
ARC
  5
F8B
330
1E
100
AcDbEntity
  8
HILF
100
AcDbCircle
 10
161.5754994138918
 20
420.2189784216896
 30
0.0
 40
22.41111549782308
100
AcDbArc
 50
78.85962783890615
 51
101.1403721610938
  0
ARC
  5
F8C
330
1E
100
AcDbEntity
  8
HILF
100
AcDbCircle
 10
168.0706899422751
 20
436.8689533198211
 30
0.0
 40
5.761140599691502
100
AcDbArc
 50
67.92594526326206
 51
112.0740547367379
  0
ARC
  5
F8D
330
1E
100
AcDbEntity
  8
HILF
100
AcDbCircle
 10
155.0803088855085
 20
436.8689533198211
 30
0.0
 40
5.761140599691502
100
AcDbArc
 50
67.92594526326206
 51
112.0740547367379
  0
POINT
  5
F8E
330
1E
100
AcDbEntity
  8
0
100
AcDbPoint
 10
161.5754994138918
 20
440.1174394693508
 30
0.0
210
0.0000000000000001
220
1.0
230
0.0
  0
LINE
  5
F8F
330
1E
100
AcDbEntity
  8
STEMPEL
100
AcDbLine
 10
154.0754994138919
 20
450.1174394693507
 30
0.0
 11
169.0754994138918
 21
450.1174394693507
 31
0.0
  0
LINE
  5
F90
330
1E
100
AcDbEntity
  8
STEMPEL
100
AcDbLine
 10
170.2357534517362
 20
442.2077959855506
 30
0.0
 11
170.2357534517362
 21
449.8065503368954
 31
0.0
  0
LINE
  5
F91
330
1E
100
AcDbEntity
  8
STEMPEL
100
AcDbLine
 10
165.9056264328141
 20
442.2077959855506
 30
0.0
 11
165.9056264328141
 21
449.8065503368954
 31
0.0
  0
LINE
  5
F92
330
1E
100
AcDbEntity
  8
STEMPEL
100
AcDbLine
 10
157.2453723949696
 20
442.2077959855506
 30
0.0
 11
157.2453723949696
 21
449.8065503368954
 31
0.0
  0
LINE
  5
F93
330
1E
100
AcDbEntity
  8
STEMPEL
100
AcDbLine
 10
171.9820145213861
 20
441.5722089349402
 30
0.0
 11
151.1689843063976
 21
441.5722089349402
 31
0.0
  0
LINE
  5
F94
330
1E
100
AcDbEntity
  8
STEMPEL
100
AcDbLine
 10
171.7254994138919
 20
440.1174394693508
 30
0.0
 11
151.4254994138918
 21
440.1174394693508
 31
0.0
  0
LINE
  5
F95
330
1E
100
AcDbEntity
  8
STEMPEL
100
AcDbLine
 10
152.9152453760475
 20
442.2077959855506
 30
0.0
 11
152.9152453760475
 21
449.8065503368954
 31
0.0
  0
LINE
  5
F96
330
1E
100
AcDbEntity
  8
STEMPEL
100
AcDbLine
 10
154.0754994138919
 20
450.1174394693507
 30
0.0
 11
152.9152453760475
 21
449.8065503368954
 31
0.0
  0
LINE
  5
F97
330
1E
100
AcDbEntity
  8
STEMPEL
100
AcDbLine
 10
170.2357534517362
 20
449.8065503368954
 30
0.0
 11
169.0754994138918
 21
450.1174394693507
 31
0.0
  0
LINE
  5
F98
330
1E
100
AcDbEntity
  8
STEMPEL
100
AcDbLine
 10
171.9820145213861
 20
441.5722089349402
 30
0.0
 11
170.2357534517362
 21
442.2077959855506
 31
0.0
  0
LINE
  5
F99
330
1E
100
AcDbEntity
  8
STEMPEL
100
AcDbLine
 10
152.9152453760475
 20
442.2077959855506
 30
0.0
 11
151.1689843063976
 21
441.5722089349402
 31
0.0
  0
ARC
  5
F9A
330
1E
100
AcDbEntity
  8
STEMPEL
100
AcDbCircle
 10
151.4254994138918
 20
440.8674394693508
 30
0.0
 40
0.7500000000000013
100
AcDbArc
 50
109.9999999999995
 51
269.9999991462263
  0
ARC
  5
F9B
330
1E
100
AcDbEntity
  8
STEMPEL
100
AcDbCircle
 10
171.7254994138919
 20
440.8674394693508
 30
0.0
 40
0.750000000000001
100
AcDbArc
 50
269.9999991462263
 51
70.00000000000047
  0
ARC
  5
F9C
330
1E
100
AcDbEntity
  8
STEMPEL
100
AcDbCircle
 10
206.5754994138917
 20
419.8065503368959
 30
0.0
 40
30.31088913245485
100
AcDbArc
 50
81.78678929826221
 51
98.2132107017378
  0
ARC
  5
F9D
330
1E
100
AcDbEntity
  8
STEMPEL
100
AcDbCircle
 10
200.0803088855084
 20
442.4231337615664
 30
0.0
 40
7.694305707784447
100
AcDbArc
 50
73.65710669401501
 51
106.342893305985
  0
ARC
  5
F9E
330
1E
100
AcDbEntity
  8
STEMPEL
100
AcDbCircle
 10
213.070689942275
 20
442.4231337615664
 30
0.0
 40
7.694305707784447
100
AcDbArc
 50
74.89685203626483
 51
106.342893305985
  0
ARC
  5
F9F
330
1E
100
AcDbEntity
  8
HILF
100
AcDbCircle
 10
206.5754994138917
 20
420.2189784216896
 30
0.0
 40
22.41111549782308
100
AcDbArc
 50
78.85962783890615
 51
101.1403721610938
  0
ARC
  5
FA0
330
1E
100
AcDbEntity
  8
HILF
100
AcDbCircle
 10
213.070689942275
 20
436.8689533198211
 30
0.0
 40
5.761140599691502
100
AcDbArc
 50
69.63568072596913
 51
112.0740547367379
  0
ARC
  5
FA1
330
1E
100
AcDbEntity
  8
HILF
100
AcDbCircle
 10
200.0803088855084
 20
436.8689533198211
 30
0.0
 40
5.761140599691502
100
AcDbArc
 50
67.92594526326206
 51
112.0740547367379
  0
POINT
  5
FA2
330
1E
100
AcDbEntity
  8
0
100
AcDbPoint
 10
206.5754994138917
 20
440.1174394693508
 30
0.0
210
0.0000000000000001
220
1.0
230
0.0
  0
LINE
  5
FA3
330
1E
100
AcDbEntity
  8
STEMPEL
100
AcDbLine
 10
199.0754994138917
 20
450.1174394693507
 30
0.0
 11
214.0754994138918
 21
450.1174394693507
 31
0.0
  0
LINE
  5
FA5
330
1E
100
AcDbEntity
  8
STEMPEL
100
AcDbLine
 10
210.905626432814
 20
442.2077959855506
 30
0.0
 11
210.905626432814
 21
449.8065503368954
 31
0.0
  0
LINE
  5
FA6
330
1E
100
AcDbEntity
  8
STEMPEL
100
AcDbLine
 10
202.2453723949696
 20
442.2077959855506
 30
0.0
 11
202.2453723949696
 21
449.8065503368954
 31
0.0
  0
LINE
  5
FA7
330
1E
100
AcDbEntity
  8
STEMPEL
100
AcDbLine
 10
215.0754994138932
 20
441.5722089349402
 30
0.0
 11
196.1689843063975
 21
441.5722089349402
 31
0.0
  0
LINE
  5
FA9
330
1E
100
AcDbEntity
  8
STEMPEL
100
AcDbLine
 10
197.9152453760474
 20
442.2077959855506
 30
0.0
 11
197.9152453760474
 21
449.8065503368954
 31
0.0
  0
LINE
  5
FAA
330
1E
100
AcDbEntity
  8
STEMPEL
100
AcDbLine
 10
199.0754994138917
 20
450.1174394693507
 30
0.0
 11
197.9152453760474
 21
449.8065503368954
 31
0.0
  0
LINE
  5
FAB
330
1E
100
AcDbEntity
  8
STEMPEL
100
AcDbLine
 10
215.0754994138933
 20
449.8494902769191
 30
0.0
 11
214.0754994138918
 21
450.1174394693507
 31
0.0
  0
LINE
  5
FAD
330
1E
100
AcDbEntity
  8
STEMPEL
100
AcDbLine
 10
197.9152453760474
 20
442.2077959855506
 30
0.0
 11
196.1689843063975
 21
441.5722089349402
 31
0.0
  0
ARC
  5
FAE
330
1E
100
AcDbEntity
  8
STEMPEL
100
AcDbCircle
 10
196.4254994138917
 20
440.8674394693508
 30
0.0
 40
0.7500000000000013
100
AcDbArc
 50
109.9999999999995
 51
269.9999991462263
  0
HATCH
  5
FC9
330
1E
100
AcDbEntity
  8
SCHRAFF
100
AcDbHatch
 10
0.0
 20
0.0
 30
0.0
210
0.0
220
0.0
230
1.0
  2
NET
 70
     0
 71
     1
 91
        5
 92
        7
 72
     0
 73
     1
 93
        5
 10
374.0754994138919
 20
581.1174394693502
 10
339.5958016111779
 20
581.1174394693501
 10
339.8969720353197
 20
578.11743946935
 10
367.8579849926198
 20
578.1174394693501
 10
374.0754994138919
 20
578.1174394693501
 97
        5
330
D17
330
D90
330
D1F
330
D14
330
BB0
 92
        7
 72
     0
 73
     1
 93
        4
 10
339.595801611178
 20
581.1174394693502
 10
322.9754994138918
 20
581.1174394693503
 10
322.9754994138918
 20
578.1174394693501
 10
339.8969720353198
 20
578.11743946935
 97
        4
330
D17
330
BEC
330
D1F
330
D90
 92
        7
 72
     0
 73
     1
 93
        4
 10
322.9754994138918
 20
581.1174394693503
 10
314.0754994138918
 20
581.1174394693503
 10
314.0754994138918
 20
578.11743946935
 10
322.9754994138918
 20
578.11743946935
 97
        4
330
D17
330
BFE
330
D1F
330
BEC
 92
        7
 72
     0
 73
     1
 93
        4
 10
189.0754994138917
 20
581.1174394693503
 10
168.0754994138918
 20
581.1174394693503
 10
168.0754994138918
 20
578.1174394693501
 10
189.0754994138917
 20
578.1174394693501
 97
        4
330
D17
330
CAB
330
D1F
330
C98
 92
        7
 72
     0
 73
     1
 93
        4
 10
155.0754994138917
 20
581.1174394693503
 10
129.0754994138917
 20
581.1174394693502
 10
129.0754994138917
 20
578.1174394693502
 10
155.0754994138917
 20
578.1174394693502
 97
        4
330
CEF
330
CE8
330
D14
330
CE3
 75
     0
 76
     1
 52
45.0
 41
15.0
 77
     0
 78
     2
 53
45.0
 43
0.0
 44
0.0
 45
-1.325825214724776
 46
1.325825214724776
 79
     0
 53
135.0
 43
0.0
 44
0.0
 45
-1.325825214724776
 46
-1.325825214724776
 79
     0
 47
0.3053295794072406
 98
        5
 10
348.3564090346326
 20
579.5800486479345
 10
336.7499492788152
 20
580.1907089610065
 10
320.867424006196
 20
580.1907089610065
 10
180.0627243369326
 20
579.5800486479345
 10
135.7749130979691
 20
579.8853797824188
  0
HATCH
  5
FE2
330
1E
100
AcDbEntity
  8
SCHRAFF
100
AcDbHatch
 10
0.0
 20
0.0
 30
0.0
210
0.0
220
0.0
230
1.0
  2
NET
 70
     0
 71
     1
 91
        5
 92
        7
 72
     0
 73
     1
 93
        4
 10
339.5958016111781
 20
431.1174394693499
 10
339.8969720353199
 20
428.1174394693501
 10
374.075499413892
 20
428.11743946935
 10
374.0754994138918
 20
431.1174394693497
 97
        4
330
DB0
330
588
330
775
330
F19
 92
        7
 72
     0
 73
     1
 93
        4
 10
339.5958016111781
 20
431.1174394693499
 10
322.9754994138919
 20
431.1174394693499
 10
322.9754994138919
 20
428.11743946935
 10
339.8969720353199
 20
428.11743946935
 97
        4
330
F19
330
75B
330
588
330
DB0
 92
        7
 72
     0
 73
     1
 93
        4
 10
322.9754994138919
 20
431.1174394693499
 10
314.0754994138919
 20
431.11743946935
 10
314.0754994138918
 20
428.1174394693501
 10
322.9754994138919
 20
428.1174394693501
 97
        4
330
F19
330
74F
330
588
330
75B
 92
        7
 72
     0
 73
     1
 93
        4
 10
189.0754994138918
 20
431.1174394693501
 10
168.0754994138918
 20
431.1174394693502
 10
168.0754994138918
 20
428.1174394693502
 10
189.0754994138918
 20
428.1174394693502
 97
        4
330
F15
330
629
330
5F8
330
632
 92
        7
 72
     0
 73
     1
 93
        4
 10
155.0754994138918
 20
431.1174394693502
 10
129.0754994138918
 20
431.1174394693501
 10
129.0754994138918
 20
428.1174394693502
 10
155.0754994138918
 20
428.1174394693502
 97
        4
330
F16
330
612
330
5F8
330
61A
 75
     0
 76
     1
 52
45.0
 41
15.0
 77
     0
 78
     2
 53
45.0
 43
0.0
 44
0.0
 45
-1.325825214724776
 46
1.325825214724776
 79
     0
 53
135.0
 43
0.0
 44
0.0
 45
-1.325825214724776
 46
-1.325825214724776
 79
     0
 47
0.3053295794072406
 98
        5
 10
343.1640458959855
 20
429.3578952372288
 10
330.030416804967
 20
429.9685535944038
 10
319.6456905276727
 20
429.9685535944038
 10
173.6486277197623
 20
429.0525660586411
 10
140.3564111553855
 20
429.6632244158165
  0
TEXT
  5
100B
330
1E
100
AcDbEntity
  8
TEXT
 62
     1
100
AcDbText
 10
530.7667429524892
 20
790.8741433944624
 30
0.0
 40
7.0
  1

 50
90.0
 41
0.8
  7
GREEKS
 72
     1
 11
530.7667429524892
 21
790.8741433944624
 31
0.0
100
AcDbText
  0
DIMENSION
  5
1031
330
1E
100
AcDbEntity
  8
BEM
100
AcDbDimension
  2
*D7
 10
114.0967346671045
 20
584.1174394693494
 30
0.0
 11
107.5967346671044
 21
601.6174394693496
 31
0.0
 70
    32
 71
     5
 42
35.00000000000034
  3
Standard
100
AcDbAlignedDimension
 13
185.075499413891
 23
619.1174394693497
 33
0.0
 14
134.5754994138923
 24
584.1174394693494
 34
0.0
 50
90.0
100
AcDbRotatedDimension
1001
ACAD
1000
DSTYLE
1002
{
1070
    40
1040
2.0
1070
    41
1040
3.5
1070
    42
1040
1.0
1070
    43
1040
7.0
1070
    44
1040
1.0
1070
    73
1070
     0
1070
    74
1070
     0
1070
    77
1070
     1
1070
    78
1070
     8
1070
    79
1070
     2
1070
   140
1040
3.5
1070
   141
1040
1.5
1070
   146
1040
0.5142857142857144
1070
   147
1040
1.5
1070
   172
1070
     1
1070
   178
1070
     1
1070
   179
1070
     2
1070
   271
1070
     2
1070
   272
1070
     2
1070
   284
1070
     8
1070
   285
1070
     8
1070
   286
1070
     8
1002
}
  0
LINE
  5
1093
330
1E
100
AcDbEntity
  8
HILF
100
AcDbLine
 10
370.5754994138918
 20
584.1174394693519
 30
0.0
 11
370.5754994138918
 21
604.1174394693519
 31
0.0
  0
LINE
  5
1094
330
1E
100
AcDbEntity
  8
STEMPEL
100
AcDbLine
 10
371.5754994138917
 20
584.1174394693519
 30
0.0
 11
371.5754994138917
 21
604.1174394693519
 31
0.0
  0
LINE
  5
1095
330
1E
100
AcDbEntity
  8
STEMPEL
100
AcDbLine
 10
369.5754994138919
 20
590.1174394693518
 30
0.0
 11
369.5754994138916
 21
598.1174394693518
 31
0.0
  0
LINE
  5
1096
330
1E
100
AcDbEntity
  8
HILF
100
AcDbLine
 10
376.5754994138918
 20
584.1174394693519
 30
0.0
 11
376.5754994138918
 21
604.1174394693519
 31
0.0
  0
LINE
  5
1097
330
1E
100
AcDbEntity
  8
STEMPEL
100
AcDbLine
 10
375.5754994138917
 20
584.1174394693519
 30
0.0
 11
375.5754994138917
 21
604.1174394693519
 31
0.0
  0
LINE
  5
1098
330
1E
100
AcDbEntity
  8
STEMPEL
100
AcDbLine
 10
377.5754994138919
 20
590.1174394693521
 30
0.0
 11
377.5754994138917
 21
598.1174394693518
 31
0.0
  0
HATCH
  5
1099
330
1E
100
AcDbEntity
  8
SCHRAFF
100
AcDbHatch
 10
0.0
 20
0.0
 30
0.0
210
0.0
220
0.0
230
1.0
  2
_USER
 70
     0
 71
     0
 91
        4
 92
        7
 72
     0
 73
     1
 93
       12
 10
370.5754994138918
 20
604.1174394693519
 10
369.5754994138917
 20
604.1174394693519
 10
369.5754994138916
 20
601.1174394693519
 10
370.0754994138919
 20
601.1174394693519
 10
370.0754994138919
 20
598.1174394693518
 10
369.5754994138916
 20
598.1174394693518
 10
369.5754994138919
 20
590.1174394693518
 10
370.0754994138919
 20
590.1174394693518
 10
370.0754994138918
 20
587.1174394693521
 10
369.5754994138919
 20
587.1174394693521
 10
369.5754994138919
 20
584.1174394693516
 10
370.5754994138918
 20
584.1174394693514
 97
        0
 92
        7
 72
     0
 73
     1
 93
        5
 10
371.5754994138917
 20
604.1174394693519
 10
370.5754994138918
 20
604.1174394693519
 10
370.5754994138918
 20
584.1174394693514
 10
370.8014196482934
 20
584.1174394693514
 10
371.5754994138917
 20
586.3810849232857
 97
        0
 92
        7
 72
     0
 73
     1
 93
        4
 10
376.5754994138918
 20
604.1174394693521
 10
375.5754994138917
 20
604.1174394693521
 10
375.5754994138917
 20
584.1174394693514
 10
376.5754994138918
 20
584.1174394693514
 97
        0
 92
        7
 72
     0
 73
     1
 93
       12
 10
377.5754994138917
 20
604.1174394693519
 10
376.5754994138916
 20
604.1174394693519
 10
376.5754994138918
 20
584.1174394693514
 10
377.5754994138917
 20
584.1174394693514
 10
377.5754994138919
 20
587.1174394693521
 10
377.0754994138919
 20
587.1174394693521
 10
377.0754994138919
 20
590.1174394693521
 10
377.5754994138919
 20
590.1174394693521
 10
377.5754994138917
 20
598.1174394693518
 10
377.0754994138918
 20
598.1174394693518
 10
377.0754994138919
 20
601.1174394693519
 10
377.5754994138917
 20
601.1174394693519
 97
        0
 75
     0
 76
     0
 52
135.0
 41
1.0
 77
     0
 78
     1
 53
135.0
 43
26.57549941389189
 44
81.09390385076579
 45
-0.7071067811865476
 46
-0.7071067811865475
 79
     0
 47
0.0527561546155446
 98
        4
 10
370.2374511529555
 20
602.5182701633006
 10
371.2932903856862
 20
602.5182701633006
 10
376.3613138059312
 20
602.7820505479232
 10
377.2059847469462
 20
602.7292936411397
  0
LINE
  5
109A
330
1E
100
AcDbEntity
  8
STEMPEL
100
AcDbLine
 10
365.1360559465294
 20
604.1174394693519
 30
0.0
 11
364.9259859016162
 21
592.0825346564766
 31
0.0
  0
LINE
  5
109B
330
1E
100
AcDbEntity
  8
STEMPEL
100
AcDbLine
 10
365.5754994138916
 20
604.1174394693507
 30
0.0
 11
365.3654293689784
 21
592.0825346564766
 31
0.0
  0
LINE
  5
109C
330
1E
100
AcDbEntity
  8
STEMPEL
100
AcDbLine
 10
381.5754994138917
 20
604.1174394693507
 30
0.0
 11
381.9157208635474
 21
584.6261656725696
 31
0.0
  0
ARC
  5
109D
330
1E
100
AcDbEntity
  8
STEMPEL
100
AcDbCircle
 10
363.3657339786656
 20
592.1174394693512
 30
0.0
 40
2.0
100
AcDbArc
 50
270.0
 51
358.9999999999982
  0
ARC
  5
109E
330
1E
100
AcDbEntity
  8
STEMPEL
100
AcDbCircle
 10
362.9262905113034
 20
592.1174394693511
 30
0.0
 40
2.0
100
AcDbArc
 50
270.0
 51
358.9999999999982
  0
LINE
  5
109F
330
1E
100
AcDbEntity
  8
STEMPEL
100
AcDbLine
 10
369.5754994138919
 20
584.1174394693521
 30
0.0
 11
369.5754994138919
 21
587.1174394693521
 31
0.0
  0
LINE
  5
10A0
330
1E
100
AcDbEntity
  8
STEMPEL
100
AcDbLine
 10
370.0754994138919
 20
587.1174394693518
 30
0.0
 11
370.0754994138919
 21
590.1174394693518
 31
0.0
  0
LINE
  5
10A1
330
1E
100
AcDbEntity
  8
STEMPEL
100
AcDbLine
 10
370.0754994138919
 20
587.1174394693521
 30
0.0
 11
369.5754994138919
 21
587.1174394693521
 31
0.0
  0
LINE
  5
10A2
330
1E
100
AcDbEntity
  8
STEMPEL
100
AcDbLine
 10
370.0754994138919
 20
590.1174394693518
 30
0.0
 11
369.5754994138919
 21
590.1174394693518
 31
0.0
  0
LINE
  5
10A3
330
1E
100
AcDbEntity
  8
STEMPEL
100
AcDbLine
 10
377.5754994138919
 20
584.1174394693521
 30
0.0
 11
377.5754994138919
 21
587.1174394693521
 31
0.0
  0
ARC
  5
10A4
330
1E
100
AcDbEntity
  8
STEMPEL
100
AcDbCircle
 10
381.4157970159692
 20
584.617439469351
 30
0.0
 40
0.5
100
AcDbArc
 50
270.0
 51
0.9999999999952489
  0
LINE
  5
10A5
330
1E
100
AcDbEntity
  8
STEMPEL
100
AcDbLine
 10
377.0754994138919
 20
587.1174394693521
 30
0.0
 11
377.0754994138919
 21
590.1174394693521
 31
0.0
  0
LINE
  5
10A6
330
1E
100
AcDbEntity
  8
STEMPEL
100
AcDbLine
 10
377.5754994138919
 20
587.1174394693521
 30
0.0
 11
377.0754994138918
 21
587.1174394693521
 31
0.0
  0
LINE
  5
10A7
330
1E
100
AcDbEntity
  8
STEMPEL
100
AcDbLine
 10
377.5754994138919
 20
590.1174394693521
 30
0.0
 11
377.0754994138919
 21
590.1174394693521
 31
0.0
  0
LINE
  5
10A8
330
1E
100
AcDbEntity
  8
STEMPEL
100
AcDbLine
 10
365.1360559465294
 20
604.1174394693523
 30
0.0
 11
381.5754994138917
 21
604.1174394693507
 31
0.0
  0
LINE
  5
10A9
330
1E
100
AcDbEntity
  8
STEMPEL
100
AcDbLine
 10
370.0754994138919
 20
601.1174394693519
 30
0.0
 11
369.5754994138917
 21
601.1174394693519
 31
0.0
  0
LINE
  5
10AA
330
1E
100
AcDbEntity
  8
STEMPEL
100
AcDbLine
 10
369.5754994138916
 20
601.1174394693519
 30
0.0
 11
369.5754994138917
 21
604.1174394693519
 31
0.0
  0
LINE
  5
10AB
330
1E
100
AcDbEntity
  8
STEMPEL
100
AcDbLine
 10
370.0754994138919
 20
598.1174394693518
 30
0.0
 11
370.0754994138919
 21
601.117439469352
 31
0.0
  0
LINE
  5
10AC
330
1E
100
AcDbEntity
  8
STEMPEL
100
AcDbLine
 10
370.0754994138919
 20
598.1174394693518
 30
0.0
 11
369.5754994138917
 21
598.1174394693518
 31
0.0
  0
LINE
  5
10AD
330
1E
100
AcDbEntity
  8
STEMPEL
100
AcDbLine
 10
377.0754994138919
 20
598.1174394693518
 30
0.0
 11
377.0754994138919
 21
601.117439469352
 31
0.0
  0
LINE
  5
10AE
330
1E
100
AcDbEntity
  8
STEMPEL
100
AcDbLine
 10
377.5754994138917
 20
598.1174394693518
 30
0.0
 11
377.0754994138919
 21
598.1174394693518
 31
0.0
  0
LINE
  5
10AF
330
1E
100
AcDbEntity
  8
STEMPEL
100
AcDbLine
 10
377.5754994138917
 20
601.1174394693519
 30
0.0
 11
377.0754994138919
 21
601.1174394693519
 31
0.0
  0
LINE
  5
10B0
330
1E
100
AcDbEntity
  8
STEMPEL
100
AcDbLine
 10
377.5754994138917
 20
601.1174394693519
 30
0.0
 11
377.5754994138917
 21
604.1174394693519
 31
0.0
  0
HATCH
  5
10B1
330
1E
100
AcDbEntity
  8
SCHRAFF
100
AcDbHatch
 10
0.0
 20
0.0
 30
0.0
210
0.0
220
0.0
230
1.0
  2
_USER
 70
     0
 71
     0
 91
        5
 92
        7
 72
     1
 73
     1
 93
       13
 10
314.0754994138919
 20
584.1174394693507
 42
0.0
 10
369.5754994138919
 20
584.1174394693509
 42
0.0
 10
369.5754994138919
 20
587.1174394693521
 42
0.0
 10
370.0754994138919
 20
587.1174394693521
 42
0.0
 10
370.0754994138919
 20
590.1174394693518
 42
0.0
 10
369.5754994138919
 20
590.1174394693518
 42
0.0
 10
369.5754994138917
 20
597.690372236607
 42
0.0
 10
365.5353715339408
 20
601.8185147666404
 42
0.0
 10
365.3654293689784
 20
592.0825346564766
 42
-0.4091108014277168
 10
363.3657339786656
 20
590.1174394693511
 42
0.0
 10
319.5754994138917
 20
590.1174394693509
 42
0.0
 10
318.0754994138908
 20
619.1174394693511
 42
0.0
 10
315.5754994138908
 20
619.117439469351
 42
0.0
 97
        0
 92
        7
 72
     0
 73
     1
 93
        6
 10
168.5754994138913
 20
590.1174394693509
 10
168.5754994138913
 20
584.1174394693496
 10
189.0754994138918
 20
584.1174394693497
 10
187.5754994138909
 20
619.117439469351
 10
185.0754994138913
 20
619.1174394693509
 10
183.5754994138917
 20
590.117439469351
 97
        0
 92
        7
 72
     1
 73
     1
 93
        6
 10
154.5754994138913
 20
584.1174394693494
 42
0.0
 10
154.5754994138915
 20
590.1174394693507
 42
0.0
 10
134.5754994138923
 20
590.1174394693507
 42
0.414213562373094
 10
134.0754994138923
 20
589.6174394693507
 42
0.0
 10
134.0754994138924
 20
584.6174394693494
 42
0.4142135623730971
 10
134.5754994138923
 20
584.1174394693494
 42
0.0
 97
        0
 92
        7
 72
     1
 73
     1
 93
       13
 10
381.5754994138917
 20
604.1174394693507
 42
0.0
 10
377.5754994138917
 20
604.1174394693512
 42
0.0
 10
377.5754994138917
 20
601.1174394693519
 42
0.0
 10
377.0754994138919
 20
601.1174394693519
 42
0.0
 10
377.0754994138919
 20
598.1174394693518
 42
0.0
 10
377.5754994138917
 20
598.1174394693518
 42
0.0
 10
377.5754994138919
 20
590.1174394693521
 42
0.0
 10
377.0754994138919
 20
590.1174394693521
 42
0.0
 10
377.075499413892
 20
587.1174394693521
 42
0.0
 10
377.575499413892
 20
587.1174394693521
 42
0.0
 10
377.5754994138919
 20
584.1174394693511
 42
0.0
 10
381.4157970159692
 20
584.1174394693509
 42
0.4193348017583757
 10
381.9157208635474
 20
584.6261656725696
 42
0.0
 97
        0
 92
       23
 72
     0
 73
     1
 93
        8
 10
365.5754994138916
 20
604.1174394693522
 10
365.5353715339409
 20
601.8185147666404
 10
369.5754994138916
 20
597.6903722366071
 10
369.5754994138916
 20
598.1174394693519
 10
370.0754994138919
 20
598.1174394693518
 10
370.0754994138919
 20
601.1174394693519
 10
369.5754994138916
 20
601.1174394693519
 10
369.5754994138917
 20
604.1174394693519
 97
        0
 75
     0
 76
     0
 52
45.0
 41
5.0
 77
     0
 78
     1
 53
45.0
 43
50.14710974566387
 44
114.4687337066519
 45
-3.535533905932737
 46
3.535533905932737
 79
     0
 47
0.2836031840932441
 98
        5
 10
315.9607452113963
 20
602.8636377565463
 10
175.5295352741155
 20
587.2654627002975
 10
142.3367028929761
 20
586.9818590396301
 10
380.3605123122805
 20
595.2063513671644
 10
368.4451355899867
 20
603.147241417214
  0
LINE
  5
10B2
330
1E
100
AcDbEntity
  8
STEMPEL
100
AcDbLine
 10
185.0754994138909
 20
619.117439469351
 30
0.0
 11
318.0754994138908
 21
619.117439469351
 31
0.0
  0
LINE
  5
10B3
330
1E
100
AcDbEntity
  8
STEMPEL
100
AcDbLine
 10
134.5754994138923
 20
584.1174394693494
 30
0.0
 11
156.5754994138919
 21
584.1174394693495
 31
0.0
  0
LINE
  5
10B4
330
1E
100
AcDbEntity
  8
STEMPEL
100
AcDbLine
 10
315.5754994138908
 20
619.117439469351
 30
0.0
 11
314.0754994138919
 21
584.1174394693505
 31
0.0
  0
LINE
  5
10B5
330
1E
100
AcDbEntity
  8
STEMPEL
100
AcDbLine
 10
318.0754994138908
 20
619.117439469351
 30
0.0
 11
319.5754994138917
 21
590.117439469351
 31
0.0
  0
LINE
  5
10B6
330
1E
100
AcDbEntity
  8
STEMPEL
100
AcDbLine
 10
319.5754994138917
 20
590.117439469351
 30
0.0
 11
363.3657339786656
 21
590.1174394693511
 31
0.0
  0
LINE
  5
10B7
330
1E
100
AcDbEntity
  8
STEMPEL
100
AcDbLine
 10
185.0754994138912
 20
619.1174394693491
 30
0.0
 11
183.5754994138917
 21
590.117439469351
 31
0.0
  0
LINE
  5
10B8
330
1E
100
AcDbEntity
  8
STEMPEL
100
AcDbLine
 10
187.5754994138909
 20
619.117439469351
 30
0.0
 11
189.0754994138918
 21
584.1174394693496
 31
0.0
  0
LINE
  5
10B9
330
1E
100
AcDbEntity
  8
STEMPEL
100
AcDbLine
 10
134.5754994138923
 20
590.1174394693507
 30
0.0
 11
183.5754994138917
 21
590.117439469351
 31
0.0
  0
LINE
  5
10BA
330
1E
100
AcDbEntity
  8
STEMPEL
100
AcDbLine
 10
165.995689889931
 20
604.1174394693503
 30
0.0
 11
166.020919796559
 21
602.6720190866832
 31
0.0
  0
LINE
  5
10BB
330
1E
100
AcDbEntity
  8
STEMPEL
100
AcDbLine
 10
156.6091112144778
 20
604.1174394693512
 30
0.0
 11
156.6091112144779
 21
602.1510512699361
 31
0.0
  0
LINE
  5
10BC
330
1E
100
AcDbEntity
  8
STEMPEL
100
AcDbLine
 10
143.7649459580242
 20
604.1174394693521
 30
0.0
 11
143.5205750490296
 21
590.1174394693507
 31
0.0
  0
LINE
  5
10BD
330
1E
100
AcDbEntity
  8
STEMPEL
100
AcDbLine
 10
134.0754994138924
 20
584.6174394693494
 30
0.0
 11
134.0754994138923
 21
589.6174394693507
 31
0.0
  0
ARC
  5
10BE
330
1E
100
AcDbEntity
  8
STEMPEL
100
AcDbCircle
 10
134.5754994138923
 20
584.6174394693494
 30
0.0
 40
0.5
100
AcDbArc
 50
180.0
 51
270.0
  0
ARC
  5
10BF
330
1E
100
AcDbEntity
  8
STEMPEL
100
AcDbCircle
 10
134.5754994138923
 20
589.6174394693507
 30
0.0
 40
0.5
100
AcDbArc
 50
90.0
 51
180.0
  0
LINE
  5
10C0
330
1E
100
AcDbEntity
  8
STEMPEL
100
AcDbLine
 10
154.5754994138915
 20
590.1174394693511
 30
0.0
 11
154.5754994138913
 21
584.1174394693491
 31
0.0
  0
LINE
  5
10C2
330
1E
100
AcDbEntity
  8
STEMPEL
100
AcDbLine
 10
168.5754994138913
 20
590.1174394693511
 30
0.0
 11
168.5754994138913
 21
584.1174394693494
 31
0.0
  0
LINE
  5
10C4
330
1E
100
AcDbEntity
  8
STEMPEL
100
AcDbLine
 10
143.7649459580242
 20
604.1174394693521
 30
0.0
 11
165.995689889931
 21
604.1174394693503
 31
0.0
  0
LINE
  5
10D7
330
1E
100
AcDbEntity
  8
STEMPEL
100
AcDbLine
 10
166.575499413892
 20
584.1174394693496
 30
0.0
 11
381.4157970159692
 21
584.1174394693509
 31
0.0
  0
ENDSEC
  0
SECTION
  2
OBJECTS
  0
DICTIONARY
  5
C
330
0
100
AcDbDictionary
281
     1
  3
ACAD_COLOR
350
11A
  3
ACAD_GROUP
350
D
  3
ACAD_LAYOUT
350
19
  3
ACAD_MATERIAL
350
119
  3
ACAD_MLINESTYLE
350
16
  3
ACAD_PLOTSETTINGS
350
18
  3
ACAD_PLOTSTYLENAME
350
E
  3
AcDbVariableDictionary
350
125
  0
DICTIONARY
  5
DB
330
1E
100
AcDbDictionary
280
     1
281
     1
  3
ACAD_LAYOUTSELFREF
360
10F
  0
DICTIONARY
  5
DD
330
1A
100
AcDbDictionary
280
     1
281
     1
  3
ACAD_LAYOUTSELFREF
360
10E
  0
DICTIONARY
  5
11A
102
{ACAD_REACTORS
330
C
102
}
330
C
100
AcDbDictionary
281
     1
  0
DICTIONARY
  5
D
102
{ACAD_REACTORS
330
C
102
}
330
C
100
AcDbDictionary
281
     1
  0
DICTIONARY
  5
19
102
{ACAD_REACTORS
330
C
102
}
330
C
100
AcDbDictionary
281
     1
  3
Layout1
350
1D
  3
Model
350
21
  0
DICTIONARY
  5
119
102
{ACAD_REACTORS
330
C
102
}
330
C
100
AcDbDictionary
281
     1
  0
DICTIONARY
  5
16
102
{ACAD_REACTORS
330
C
102
}
330
C
100
AcDbDictionary
281
     1
  3
Standard
350
17
  0
DICTIONARY
  5
18
102
{ACAD_REACTORS
330
C
102
}
330
C
100
AcDbDictionary
281
     1
  0
ACDBDICTIONARYWDFLT
  5
E
102
{ACAD_REACTORS
330
C
102
}
330
C
100
AcDbDictionary
281
     1
  3
Normal
350
F
100
AcDbDictionaryWithDefault
340
F
  0
DICTIONARY
  5
125
102
{ACAD_REACTORS
330
C
102
}
330
C
100
AcDbDictionary
281
     1
  3
DIMASSOC
350
126
  3
PROJECTNAME
350
127
  0
XRECORD
  5
10F
102
{ACAD_REACTORS
330
DB
102
}
330
DB
100
AcDbXrecord
280
     1
340
1E
  0
XRECORD
  5
10E
102
{ACAD_REACTORS
330
DD
102
}
330
DD
100
AcDbXrecord
280
     1
340
1A
  0
LAYOUT
  5
1D
102
{ACAD_REACTORS
330
19
102
}
330
19
100
AcDbPlotSettings
  1

  2
\\NT_WORK01\HP LaserJet 5000 PCL 6
  4

  6

 40
0.0
 41
0.0
 42
0.0
 43
0.0
 44
0.0
 45
0.0
 46
0.0
 47
0.0
 48
0.0
 49
0.0
140
0.0
141
0.0
142
1.0
143
1.0
 70
   688
 72
     0
 73
     0
 74
     5
  7

 75
    16
147
1.0
 76
     0
 77
     2
 78
   300
148
0.0
149
0.0
100
AcDbLayout
  1
Layout1
 70
     0
 71
     1
 10
0.0
 20
0.0
 11
12.0
 21
9.0
 12
0.0
 22
0.0
 32
0.0
 14
1.000000000000000E+20
 24
1.000000000000000E+20
 34
1.000000000000000E+20
 15
-1.000000000000000E+20
 25
-1.000000000000000E+20
 35
-1.000000000000000E+20
146
0.0
 13
0.0
 23
0.0
 33
0.0
 16
1.0
 26
0.0
 36
0.0
 17
0.0
 27
1.0
 37
0.0
 76
     0
330
1A
  0
LAYOUT
  5
21
102
{ACAD_REACTORS
330
19
102
}
330
19
100
AcDbPlotSettings
  1

  2
\\NT_WORK01\HP LaserJet 5000 PCL 6
  4

  6

 40
0.0
 41
0.0
 42
0.0
 43
0.0
 44
0.0
 45
0.0
 46
0.0
 47
0.0
 48
0.0
 49
0.0
140
0.0
141
0.0
142
1.0
143
1.0
 70
  1712
 72
     0
 73
     0
 74
     0
  7

 75
     0
147
1.0
 76
     0
 77
     2
 78
   300
148
0.0
149
0.0
100
AcDbLayout
  1
Model
 70
     1
 71
     0
 10
0.0
 20
0.0
 11
12.0
 21
9.0
 12
0.0
 22
0.0
 32
0.0
 14
0.0
 24
0.0
 34
0.0
 15
0.0
 25
0.0
 35
0.0
146
0.0
 13
0.0
 23
0.0
 33
0.0
 16
1.0
 26
0.0
 36
0.0
 17
0.0
 27
1.0
 37
0.0
 76
     0
330
1E
  0
MLINESTYLE
  5
17
102
{ACAD_REACTORS
330
16
102
}
330
16
100
AcDbMlineStyle
  2
STANDARD
 70
     0
  3

 62
   256
 51
90.0
 52
90.0
 71
     2
 49
0.5
 62
   256
  6
BYLAYER
 49
-0.5
 62
   256
  6
BYLAYER
  0
ACDBPLACEHOLDER
  5
F
102
{ACAD_REACTORS
330
E
102
}
330
E
  0
DICTIONARYVAR
  5
126
102
{ACAD_REACTORS
330
125
102
}
330
125
100
DictionaryVariables
280
     0
  1
1
  0
DICTIONARYVAR
  5
127
102
{ACAD_REACTORS
330
125
102
}
330
125
100
DictionaryVariables
280
     0
  1

  0
ENDSEC
  0
EOF
