  0
SECTION
  2
HEADER
  9
$ACADVER
  1
AC1018
  9
$ACADMAINTVER
 70
     2
  9
$DWGCODEPAGE
  3
ANSI_1252
  9
$INSBASE
 10
0.0
 20
0.0
 30
0.0
  9
$EXTMIN
 10
-0.0000000000001137
 20
-0.0000000000001137
 30
0.0
  9
$EXTMAX
 10
420.0
 20
594.0000000000002
 30
0.0
  9
$LIMMIN
 10
0.0
 20
0.0
  9
$LIMMAX
 10
419.9999999999999
 20
594.0
  9
$ORTHOMODE
 70
     1
  9
$REGENMODE
 70
     1
  9
$FILLMODE
 70
     1
  9
$QTEXTMODE
 70
     0
  9
$MIRRTEXT
 70
     1
  9
$LTSCALE
 40
20.0
  9
$ATTMODE
 70
     1
  9
$TEXTSIZE
 40
2.5
  9
$TRACEWID
 40
0.5
  9
$TEXTSTYLE
  7
GREEKS
  9
$CLAYER
  8
SCHRAFF
  9
$CELTYPE
  6
BYLAYER
  9
$CECOLOR
 62
   256
  9
$CELTSCALE
 40
1.0
  9
$DISPSILH
 70
     0
  9
$DIMSCALE
 40
2.0
  9
$DIMASZ
 40
3.5
  9
$DIMEXO
 40
1.0
  9
$DIMDLI
 40
8.0
  9
$DIMRND
 40
0.0
  9
$DIMDLE
 40
0.0
  9
$DIMEXE
 40
1.0
  9
$DIMTP
 40
2.0
  9
$DIMTM
 40
2.0
  9
$DIMTXT
 40
3.5
  9
$DIMCEN
 40
1.5
  9
$DIMTSZ
 40
0.0
  9
$DIMTOL
 70
     0
  9
$DIMLIM
 70
     0
  9
$DIMTIH
 70
     0
  9
$DIMTOH
 70
     0
  9
$DIMSE1
 70
     0
  9
$DIMSE2
 70
     0
  9
$DIMTAD
 70
     1
  9
$DIMZIN
 70
     8
  9
$DIMBLK
  1

  9
$DIMASO
 70
     1
  9
$DIMSHO
 70
     0
  9
$DIMPOST
  1

  9
$DIMAPOST
  1

  9
$DIMALT
 70
     0
  9
$DIMALTD
 70
     2
  9
$DIMALTF
 40
25.4
  9
$DIMLFAC
 40
1.0
  9
$DIMTOFL
 70
     1
  9
$DIMTVP
 40
0.0
  9
$DIMTIX
 70
     0
  9
$DIMSOXD
 70
     0
  9
$DIMSAH
 70
     0
  9
$DIMBLK1
  1

  9
$DIMBLK2
  1

  9
$DIMSTYLE
  2
STANDARD
  9
$DIMCLRD
 70
     0
  9
$DIMCLRE
 70
     0
  9
$DIMCLRT
 70
     1
  9
$DIMTFAC
 40
0.5
  9
$DIMGAP
 40
1.5
  9
$DIMJUST
 70
     0
  9
$DIMSD1
 70
     0
  9
$DIMSD2
 70
     0
  9
$DIMTOLJ
 70
     1
  9
$DIMTZIN
 70
     8
  9
$DIMALTZ
 70
     8
  9
$DIMALTTZ
 70
     8
  9
$DIMUPT
 70
     0
  9
$DIMDEC
 70
     1
  9
$DIMTDEC
 70
     1
  9
$DIMALTU
 70
     2
  9
$DIMALTTD
 70
     2
  9
$DIMTXSTY
  7
GREEKS
  9
$DIMAUNIT
 70
     0
  9
$DIMADEC
 70
     2
  9
$DIMALTRND
 40
0.0
  9
$DIMAZIN
 70
     2
  9
$DIMDSEP
 70
    46
  9
$DIMATFIT
 70
     0
  9
$DIMFRAC
 70
     0
  9
$DIMLDRBLK
  1

  9
$DIMLUNIT
 70
     2
  9
$DIMLWD
 70
    -2
  9
$DIMLWE
 70
    -2
  9
$DIMTMOVE
 70
     0
  9
$LUNITS
 70
     2
  9
$LUPREC
 70
     2
  9
$SKETCHINC
 40
1.0
  9
$FILLETRAD
 40
0.0
  9
$AUNITS
 70
     0
  9
$AUPREC
 70
     0
  9
$MENU
  1
ACAD
  9
$ELEVATION
 40
0.0
  9
$PELEVATION
 40
0.0
  9
$THICKNESS
 40
0.0
  9
$LIMCHECK
 70
     0
  9
$CHAMFERA
 40
0.0
  9
$CHAMFERB
 40
0.0
  9
$CHAMFERC
 40
0.0
  9
$CHAMFERD
 40
0.0
  9
$SKPOLY
 70
     0
  9
$TDCREATE
 40
2452389.632394560
  9
$TDUCREATE
 40
2452389.590727894
  9
$TDUPDATE
 40
2455589.477339815
  9
$TDUUPDATE
 40
2455589.435673148
  9
$TDINDWG
 40
1.3968398148
  9
$TDUSRTIMER
 40
1.3968398148
  9
$USRTIMER
 70
     1
  9
$ANGBASE
 50
0.0
  9
$ANGDIR
 70
     0
  9
$PDMODE
 70
     0
  9
$PDSIZE
 40
0.0
  9
$PLINEWID
 40
0.0
  9
$SPLFRAME
 70
     0
  9
$SPLINETYPE
 70
     6
  9
$SPLINESEGS
 70
     8
  9
$HANDSEED
  5
B84
  9
$SURFTAB1
 70
     6
  9
$SURFTAB2
 70
     6
  9
$SURFTYPE
 70
     6
  9
$SURFU
 70
     6
  9
$SURFV
 70
     6
  9
$UCSBASE
  2

  9
$UCSNAME
  2

  9
$UCSORG
 10
0.0
 20
0.0
 30
0.0
  9
$UCSXDIR
 10
1.0
 20
0.0
 30
0.0
  9
$UCSYDIR
 10
0.0
 20
1.0
 30
0.0
  9
$UCSORTHOREF
  2

  9
$UCSORTHOVIEW
 70
     0
  9
$UCSORGTOP
 10
0.0
 20
0.0
 30
0.0
  9
$UCSORGBOTTOM
 10
0.0
 20
0.0
 30
0.0
  9
$UCSORGLEFT
 10
0.0
 20
0.0
 30
0.0
  9
$UCSORGRIGHT
 10
0.0
 20
0.0
 30
0.0
  9
$UCSORGFRONT
 10
0.0
 20
0.0
 30
0.0
  9
$UCSORGBACK
 10
0.0
 20
0.0
 30
0.0
  9
$PUCSBASE
  2

  9
$PUCSNAME
  2

  9
$PUCSORG
 10
0.0
 20
0.0
 30
0.0
  9
$PUCSXDIR
 10
1.0
 20
0.0
 30
0.0
  9
$PUCSYDIR
 10
0.0
 20
1.0
 30
0.0
  9
$PUCSORTHOREF
  2

  9
$PUCSORTHOVIEW
 70
     0
  9
$PUCSORGTOP
 10
0.0
 20
0.0
 30
0.0
  9
$PUCSORGBOTTOM
 10
0.0
 20
0.0
 30
0.0
  9
$PUCSORGLEFT
 10
0.0
 20
0.0
 30
0.0
  9
$PUCSORGRIGHT
 10
0.0
 20
0.0
 30
0.0
  9
$PUCSORGFRONT
 10
0.0
 20
0.0
 30
0.0
  9
$PUCSORGBACK
 10
0.0
 20
0.0
 30
0.0
  9
$USERI1
 70
     0
  9
$USERI2
 70
     0
  9
$USERI3
 70
     0
  9
$USERI4
 70
     0
  9
$USERI5
 70
     0
  9
$USERR1
 40
0.0
  9
$USERR2
 40
0.0
  9
$USERR3
 40
0.0
  9
$USERR4
 40
0.0
  9
$USERR5
 40
0.0
  9
$WORLDVIEW
 70
     1
  9
$SHADEDGE
 70
     3
  9
$SHADEDIF
 70
    70
  9
$TILEMODE
 70
     1
  9
$MAXACTVP
 70
    16
  9
$PINSBASE
 10
2.245140564963854
 20
50.00000000000001
 30
-1.032422173993944
  9
$PLIMCHECK
 70
     0
  9
$PEXTMIN
 10
1.000000000000000E+20
 20
1.000000000000000E+20
 30
1.000000000000000E+20
  9
$PEXTMAX
 10
-1.000000000000000E+20
 20
-1.000000000000000E+20
 30
-1.000000000000000E+20
  9
$PLIMMIN
 10
0.0
 20
0.0
  9
$PLIMMAX
 10
12.0
 20
9.0
  9
$UNITMODE
 70
     0
  9
$VISRETAIN
 70
     0
  9
$PLINEGEN
 70
     0
  9
$PSLTSCALE
 70
     0
  9
$TREEDEPTH
 70
  3020
  9
$CMLSTYLE
  2
STANDARD
  9
$CMLJUST
 70
     0
  9
$CMLSCALE
 40
1.0
  9
$PROXYGRAPHICS
 70
     1
  9
$MEASUREMENT
 70
     0
  9
$CELWEIGHT
370
    -1
  9
$ENDCAPS
280
     0
  9
$JOINSTYLE
280
     0
  9
$LWDISPLAY
290
     0
  9
$INSUNITS
 70
     0
  9
$HYPERLINKBASE
  1

  9
$STYLESHEET
  1
monochrome1.ctb
  9
$XEDIT
290
     1
  9
$CEPSNTYPE
380
     0
  9
$PSTYLEMODE
290
     1
  9
$FINGERPRINTGUID
  2
{6AFE7F11-3ED7-4246-B8A7-6D2CC13042CA}
  9
$VERSIONGUID
  2
{0904A153-9A63-4E65-9167-87A3DF694024}
  9
$EXTNAMES
290
     1
  9
$PSVPSCALE
 40
0.0
  9
$OLESTARTUP
290
     0
  9
$SORTENTS
280
    96
  9
$INDEXCTL
280
     0
  9
$HIDETEXT
280
     0
  9
$XCLIPFRAME
290
     0
  9
$HALOGAP
280
     0
  9
$OBSCOLOR
 70
   257
  9
$OBSLTYPE
280
     0
  9
$INTERSECTIONDISPLAY
280
     0
  9
$INTERSECTIONCOLOR
 70
   257
  9
$DIMASSOC
280
     1
  9
$PROJECTNAME
  1

  0
ENDSEC
  0
SECTION
  2
CLASSES
  0
CLASS
  1
DICTIONARYVAR
  2
AcDbDictionaryVar
  3
ObjectDBX Classes
 90
        0
 91
        3
280
     0
281
     0
  0
CLASS
  1
ACDBDICTIONARYWDFLT
  2
AcDbDictionaryWithDefault
  3
ObjectDBX Classes
 90
        0
 91
        1
280
     1
281
     0
  0
ENDSEC
  0
SECTION
  2
TABLES
  0
TABLE
  2
VPORT
  5
16
330
0
100
AcDbSymbolTable
 70
     2
  0
VPORT
  5
B83
330
16
100
AcDbSymbolTableRecord
100
AcDbViewportTableRecord
  2
*Active
 70
     0
 10
0.0
 20
0.0
 11
1.0
 21
1.0
 12
210.0
 22
297.0
 13
0.0
 23
0.0
 14
1.0
 24
1.0
 15
20.0
 25
20.0
 16
0.0
 26
0.0
 36
1.0
 17
0.0
 27
0.0
 37
0.0
 40
594.0845053863559
 41
1.336927223719676
 42
50.0
 43
0.0
 44
0.0
 50
0.0
 51
0.0
 71
     0
 72
  1500
 73
     1
 74
     0
 75
     0
 76
     0
 77
     0
 78
     0
281
     0
 65
     1
110
0.0
120
0.0
130
0.0
111
1.0
121
0.0
131
0.0
112
0.0
122
1.0
132
0.0
 79
     0
146
0.0
  0
ENDTAB
  0
TABLE
  2
LTYPE
  5
11
330
0
100
AcDbSymbolTable
 70
     3
  0
LTYPE
  5
12
330
11
100
AcDbSymbolTableRecord
100
AcDbLinetypeTableRecord
  2
BYBLOCK
 70
     0
  3

 72
    65
 73
     0
 40
0.0
  0
LTYPE
  5
13
330
11
100
AcDbSymbolTableRecord
100
AcDbLinetypeTableRecord
  2
BYLAYER
 70
     0
  3

 72
    65
 73
     0
 40
0.0
  0
LTYPE
  5
7
330
11
100
AcDbSymbolTableRecord
100
AcDbLinetypeTableRecord
  2
AUSGEZOGEN
 70
     0
  3
Ausgezogene Linie
 72
    65
 73
     0
 40
0.0
  0
LTYPE
  5
10A
330
11
100
AcDbSymbolTableRecord
100
AcDbLinetypeTableRecord
  2
STRICHPUNKT
 70
     0
  3
__ . __ . __ . __ . __ . __ . __ . __ . __ . __
 72
    65
 73
     4
 40
1.0
 49
0.5
 74
     0
 49
-0.25
 74
     0
 49
0.0
 74
     0
 49
-0.25
 74
     0
  0
LTYPE
  5
24
330
11
100
AcDbSymbolTableRecord
100
AcDbLinetypeTableRecord
  2
Continuous
 70
     0
  3
Solid line
 72
    65
 73
     0
 40
0.0
  0
ENDTAB
  0
TABLE
  2
LAYER
  5
E
330
0
100
AcDbSymbolTable
 70
     9
  0
LAYER
  5
6
330
E
100
AcDbSymbolTableRecord
100
AcDbLayerTableRecord
  2
0
 70
     0
 62
     7
  6
AUSGEZOGEN
370
    -3
390
5C6
  0
LAYER
  5
BA
330
E
100
AcDbSymbolTableRecord
100
AcDbLayerTableRecord
  2
VOLL
 70
     0
 62
     1
  6
AUSGEZOGEN
370
    -3
390
5C6
  0
LAYER
  5
31
330
E
100
AcDbSymbolTableRecord
100
AcDbLayerTableRecord
  2
HILF
 70
     0
 62
     2
  6
AUSGEZOGEN
370
    -3
390
5C6
  0
LAYER
  5
109
330
E
100
AcDbSymbolTableRecord
100
AcDbLayerTableRecord
  2
MITTEL
 70
     0
 62
     2
  6
STRICHPUNKT
370
    -3
390
5C6
  0
LAYER
  5
33
330
E
100
AcDbSymbolTableRecord
100
AcDbLayerTableRecord
  2
BEM
 70
     0
 62
     7
  6
AUSGEZOGEN
370
    -3
390
5C6
  0
LAYER
  5
28
330
E
100
AcDbSymbolTableRecord
100
AcDbLayerTableRecord
  2
STEMPEL
 70
     0
 62
     3
  6
AUSGEZOGEN
370
    -3
390
5C6
  0
LAYER
  5
3C
330
E
100
AcDbSymbolTableRecord
100
AcDbLayerTableRecord
  2
DEFPOINTS
 70
     0
 62
     7
  6
AUSGEZOGEN
290
     0
370
    -3
390
5C6
  0
LAYER
  5
1F
330
E
100
AcDbSymbolTableRecord
100
AcDbLayerTableRecord
  2
SCHRAFF
 70
     0
 62
     7
  6
AUSGEZOGEN
370
    -3
390
5C6
  0
LAYER
  5
1E6
330
E
100
AcDbSymbolTableRecord
100
AcDbLayerTableRecord
  2
TEXT
 70
     0
 62
     7
  6
AUSGEZOGEN
370
    -3
390
5C6
  0
ENDTAB
  0
TABLE
  2
STYLE
  5
F
330
0
100
AcDbSymbolTable
 70
     2
  0
STYLE
  5
10
330
F
100
AcDbSymbolTableRecord
100
AcDbTextStyleTableRecord
  2
STANDARD
 70
     0
 40
0.0
 41
0.8
 50
0.0
 71
     0
 42
3.5
  3
simplex.shx
  4

  0
STYLE
  5
20
330
F
100
AcDbSymbolTableRecord
100
AcDbTextStyleTableRecord
  2
GREEKS
 70
     0
 40
0.0
 41
0.8
 50
0.0
 71
     0
 42
2.5
  3
SIMPLEX.shx
  4

  0
ENDTAB
  0
TABLE
  2
VIEW
  5
14
330
0
100
AcDbSymbolTable
 70
     0
  0
ENDTAB
  0
TABLE
  2
UCS
  5
15
330
0
100
AcDbSymbolTable
 70
     0
  0
ENDTAB
  0
TABLE
  2
APPID
  5
18
330
0
100
AcDbSymbolTable
 70
     1
  0
APPID
  5
19
330
18
100
AcDbSymbolTableRecord
100
AcDbRegAppTableRecord
  2
ACAD
 70
     0
  0
ENDTAB
  0
TABLE
  2
DIMSTYLE
  5
1A
330
0
100
AcDbSymbolTable
 70
     1
100
AcDbDimStyleTable
 71
     1
340
22
  0
DIMSTYLE
105
22
102
{ACAD_REACTORS
330
43
330
32
330
DC
330
A1
330
9E3
102
}
330
1A
100
AcDbSymbolTableRecord
100
AcDbDimStyleTableRecord
  2
STANDARD
 70
     0
 40
2.0
 41
3.5
 42
1.0
 43
8.0
 44
1.0
 47
2.0
 48
2.0
 73
     0
 74
     0
 77
     1
 78
     8
 79
     2
140
3.5
141
1.5
146
0.5
147
1.5
172
     1
178
     1
179
     2
271
     1
272
     1
284
     8
285
     8
286
     8
289
     0
340
20
  0
ENDTAB
  0
TABLE
  2
BLOCK_RECORD
  5
1
330
0
100
AcDbSymbolTable
 70
     6
  0
BLOCK_RECORD
  5
2
102
{ACAD_XDICTIONARY
360
3
102
}
330
1
100
AcDbSymbolTableRecord
100
AcDbBlockTableRecord
  2
*MODEL_SPACE
340
5CB
  0
BLOCK_RECORD
  5
9
102
{ACAD_XDICTIONARY
360
A
102
}
330
1
100
AcDbSymbolTableRecord
100
AcDbBlockTableRecord
  2
*PAPER_SPACE
340
5CC
  0
BLOCK_RECORD
  5
63
330
1
100
AcDbSymbolTableRecord
100
AcDbBlockTableRecord
  2
LOGO
340
0
102
{BLKREFS
331
62
102
}
  0
BLOCK_RECORD
  5
40F
330
1
100
AcDbSymbolTableRecord
100
AcDbBlockTableRecord
  2
*D1
340
0
  0
BLOCK_RECORD
  5
426
330
1
100
AcDbSymbolTableRecord
100
AcDbBlockTableRecord
  2
*D2
340
0
  0
BLOCK_RECORD
  5
5E1
330
1
100
AcDbSymbolTableRecord
100
AcDbBlockTableRecord
  2
*D3
340
0
  0
BLOCK_RECORD
  5
5ED
330
1
100
AcDbSymbolTableRecord
100
AcDbBlockTableRecord
  2
*D4
340
0
  0
BLOCK_RECORD
  5
9E4
330
1
100
AcDbSymbolTableRecord
100
AcDbBlockTableRecord
  2
*D5
340
0
  0
ENDTAB
  0
ENDSEC
  0
SECTION
  2
BLOCKS
  0
BLOCK
  5
5
330
2
100
AcDbEntity
  8
0
100
AcDbBlockBegin
  2
*MODEL_SPACE
 70
     0
 10
0.0
 20
0.0
 30
0.0
  3
*MODEL_SPACE
  1

  0
ENDBLK
  5
8
330
2
100
AcDbEntity
  8
0
100
AcDbBlockEnd
  0
BLOCK
  5
C
330
9
100
AcDbEntity
 67
     1
  8
0
100
AcDbBlockBegin
  2
*PAPER_SPACE
 70
     0
 10
0.0
 20
0.0
 30
0.0
  3
*PAPER_SPACE
  1

  0
ENDBLK
  5
D
330
9
100
AcDbEntity
 67
     1
  8
0
100
AcDbBlockEnd
  0
BLOCK
  5
7E
330
63
100
AcDbEntity
  8
0
100
AcDbBlockBegin
  2
LOGO
 70
     0
 10
0.0
 20
0.0
 30
0.0
  3
LOGO
  1

  0
ARC
  5
64
330
63
100
AcDbEntity
  8
0
100
AcDbCircle
 10
11.59973089678112
 20
-9.271599258481501
 30
0.0
 40
4.5
100
AcDbArc
 50
270.0
 51
231.0575587310159
  0
LINE
  5
65
330
63
100
AcDbEntity
  8
0
100
AcDbLine
 10
3.599730896781125
 20
-4.771599258481529
 30
0.0
 11
3.599730896781153
 21
-11.77159925848133
 31
0.0
  0
LINE
  5
66
330
63
100
AcDbEntity
  8
0
100
AcDbLine
 10
2.599730896781125
 20
-4.771599258481529
 30
0.0
 11
2.599730896781153
 21
-11.77159925848133
 31
0.0
  0
CIRCLE
  5
67
330
63
100
AcDbEntity
  8
0
100
AcDbCircle
 10
11.59973089678112
 20
-9.271599258481501
 30
0.0
 40
3.5
  0
ARC
  5
68
330
63
100
AcDbEntity
  8
0
100
AcDbCircle
 10
31.59973089678115
 20
-9.271599258481472
 30
0.0
 40
4.5
100
AcDbArc
 50
270.0
 51
231.0575587310182
  0
LINE
  5
69
330
63
100
AcDbEntity
  8
0
100
AcDbLine
 10
17.59973089678112
 20
-4.771599258481472
 30
0.0
 11
17.59973089678115
 21
-13.77159925848147
 31
0.0
  0
ARC
  5
6A
330
63
100
AcDbEntity
  8
0
100
AcDbCircle
 10
22.59973089678116
 20
-7.271599258481472
 30
0.0
 40
2.5
100
AcDbArc
 50
293.1161887722295
 51
90.0
  0
CIRCLE
  5
6B
330
63
100
AcDbEntity
  8
0
100
AcDbCircle
 10
31.59973089678115
 20
-9.271599258481472
 30
0.0
 40
3.5
  0
ARC
  5
6C
330
63
100
AcDbEntity
  8
0
100
AcDbCircle
 10
4.599730896781153
 20
-11.77159925848133
 30
0.0
 40
1.0
100
AcDbArc
 50
180.0
 51
270.0
  0
ARC
  5
6D
330
63
100
AcDbEntity
  8
0
100
AcDbCircle
 10
4.599730896781153
 20
-11.77159925848133
 30
0.0
 40
2.0
100
AcDbArc
 50
179.9999999999992
 51
270.0
  0
LINE
  5
6E
330
63
100
AcDbEntity
  8
0
100
AcDbLine
 10
11.59973089678115
 20
-13.77159925848144
 30
0.0
 11
4.599730896781153
 21
-13.77159925848147
 31
0.0
  0
LINE
  5
6F
330
63
100
AcDbEntity
  8
0
100
AcDbLine
 10
8.771303772034769
 20
-12.77159925848136
 30
0.0
 11
4.599730896781153
 21
-12.77159925848133
 31
0.0
  0
LINE
  5
70
330
63
100
AcDbEntity
  8
0
100
AcDbLine
 10
31.59973089678115
 20
-13.77159925848147
 30
0.0
 11
23.6715276665056
 21
-13.77159925848144
 31
0.0
  0
LINE
  5
71
330
63
100
AcDbEntity
  8
0
100
AcDbLine
 10
23.56565672307022
 20
-9.51278021337896
 30
0.0
 11
24.4388546544846
 21
-12.77159925848144
 31
0.0
  0
LINE
  5
72
330
63
100
AcDbEntity
  8
0
100
AcDbLine
 10
22.59973089678116
 20
-9.771599258481472
 30
0.0
 11
18.59973089678112
 21
-9.771599258481472
 31
0.0
  0
LINE
  5
73
330
63
100
AcDbEntity
  8
0
100
AcDbLine
 10
18.59973089678115
 20
-13.77159925848144
 30
0.0
 11
17.59973089678115
 21
-13.77159925848144
 31
0.0
  0
LINE
  5
74
330
63
100
AcDbEntity
  8
0
100
AcDbLine
 10
18.59973089678115
 20
-9.771599258481472
 30
0.0
 11
18.59973089678115
 21
-13.77159925848144
 31
0.0
  0
LINE
  5
75
330
63
100
AcDbEntity
  8
0
100
AcDbLine
 10
22.59973089678116
 20
-9.771599258481472
 30
0.0
 11
23.67152766650562
 21
-13.77159925848147
 31
0.0
  0
ARC
  5
76
330
63
100
AcDbEntity
  8
0
100
AcDbCircle
 10
22.59973089678116
 20
-7.271599258481472
 30
0.0
 40
2.5
100
AcDbArc
 50
270.0
 51
270.0000000000007
  0
LINE
  5
77
330
63
100
AcDbEntity
  8
0
100
AcDbLine
 10
28.77130377203494
 20
-12.77159925848147
 30
0.0
 11
24.43885465448463
 21
-12.77159925848144
 31
0.0
  0
LINE
  5
78
330
63
100
AcDbEntity
  8
0
100
AcDbLine
 10
3.599730896781125
 20
-4.771599258481472
 30
0.0
 11
2.599730896781125
 21
-4.771599258481472
 31
0.0
  0
LINE
  5
79
330
63
100
AcDbEntity
  8
0
100
AcDbLine
 10
22.59973089678116
 20
-8.771599258481472
 30
0.0
 11
18.59973089678115
 21
-8.771599258481472
 31
0.0
  0
LINE
  5
7A
330
63
100
AcDbEntity
  8
0
100
AcDbLine
 10
22.59973089678116
 20
-5.771599258481472
 30
0.0
 11
18.59973089678115
 21
-5.771599258481472
 31
0.0
  0
LINE
  5
7B
330
63
100
AcDbEntity
  8
0
100
AcDbLine
 10
22.59973089678116
 20
-4.771599258481472
 30
0.0
 11
17.59973089678115
 21
-4.771599258481472
 31
0.0
  0
LINE
  5
7C
330
63
100
AcDbEntity
  8
0
100
AcDbLine
 10
18.59973089678115
 20
-5.771599258481472
 30
0.0
 11
18.59973089678115
 21
-8.771599258481472
 31
0.0
  0
ARC
  5
7D
330
63
100
AcDbEntity
  8
0
100
AcDbCircle
 10
22.59973089678116
 20
-7.271599258481472
 30
0.0
 40
1.5
100
AcDbArc
 50
270.0
 51
90.0
  0
ENDBLK
  5
7F
330
63
100
AcDbEntity
  8
0
100
AcDbBlockEnd
  0
BLOCK
  5
432
330
40F
100
AcDbEntity
  8
0
100
AcDbBlockBegin
  2
*D1
 70
     1
 10
0.0
 20
0.0
 30
0.0
  3
*D1
  1

  0
LINE
  5
B06
330
40F
100
AcDbEntity
  8
BEM
 62
     0
370
    -2
100
AcDbLine
 10
82.40245077624265
 20
438.5409929784382
 30
0.0
 11
56.65162248140084
 21
438.5409929784382
 31
0.0
  0
LINE
  5
B07
330
40F
100
AcDbEntity
  8
BEM
 62
     0
370
    -2
100
AcDbLine
 10
144.4479904216573
 20
548.5409929784374
 30
0.0
 11
56.65162248140087
 21
548.5409929784374
 31
0.0
  0
LINE
  5
B08
330
40F
100
AcDbEntity
  8
BEM
 62
     0
370
    -2
100
AcDbLine
 10
58.65162248140084
 20
445.5409929784382
 30
0.0
 11
58.65162248140086
 21
541.5409929784374
 31
0.0
  0
SOLID
  5
B09
330
40F
100
AcDbEntity
  8
BEM
 62
     0
100
AcDbTrace
 10
57.48495581473417
 20
445.5409929784382
 30
0.0
 11
59.81828914806751
 21
445.5409929784382
 31
0.0
 12
58.65162248140084
 22
438.5409929784382
 32
0.0
 13
58.65162248140084
 23
438.5409929784382
 33
0.0
  0
SOLID
  5
B0A
330
40F
100
AcDbEntity
  8
BEM
 62
     0
100
AcDbTrace
 10
57.4849558147342
 20
541.5409929784374
 30
0.0
 11
59.81828914806753
 21
541.5409929784374
 31
0.0
 12
58.65162248140086
 22
548.5409929784374
 32
0.0
 13
58.65162248140086
 23
548.5409929784374
 33
0.0
  0
MTEXT
  5
B0B
330
40F
100
AcDbEntity
  8
BEM
 62
     1
100
AcDbMText
 10
52.15162248140077
 20
493.5409929784378
 30
0.0
 40
7.0
 41
0.0
 71
     5
 72
     1
  1
\A1;110
  7
GREEKS
 11
0.0000000000000001
 21
1.0
 31
0.0
 73
     1
 44
1.0
  0
POINT
  5
B0C
330
40F
100
AcDbEntity
  8
DEFPOINTS
 62
     0
100
AcDbPoint
 10
84.40245077624267
 20
438.5409929784382
 30
0.0
  0
POINT
  5
B0D
330
40F
100
AcDbEntity
  8
DEFPOINTS
 62
     0
100
AcDbPoint
 10
146.4479904216573
 20
548.5409929784374
 30
0.0
  0
POINT
  5
B0E
330
40F
100
AcDbEntity
  8
DEFPOINTS
 62
     0
100
AcDbPoint
 10
58.65162248140086
 20
548.5409929784374
 30
0.0
  0
ENDBLK
  5
43C
330
40F
100
AcDbEntity
  8
0
100
AcDbBlockEnd
  0
BLOCK
  5
556
330
426
100
AcDbEntity
  8
0
100
AcDbBlockBegin
  2
*D2
 70
     1
 10
0.0
 20
0.0
 30
0.0
  3
*D2
  1

  0
LINE
  5
9DA
330
426
100
AcDbEntity
  8
BEM
 62
     0
370
    -2
100
AcDbLine
 10
74.44799042165726
 20
432.5409929784382
 30
0.0
 11
56.65162248140092
 21
432.5409929784382
 31
0.0
  0
LINE
  5
9DB
330
426
100
AcDbEntity
  8
BEM
 62
     0
370
    -2
100
AcDbLine
 10
173.6402600547778
 20
122.5409929784391
 30
0.0
 11
56.65162248140086
 21
122.5409929784392
 31
0.0
  0
LINE
  5
9DC
330
426
100
AcDbEntity
  8
BEM
 62
     0
370
    -2
100
AcDbLine
 10
58.65162248140092
 20
425.5409929784382
 30
0.0
 11
58.65162248140086
 21
129.5409929784392
 31
0.0
  0
SOLID
  5
9DD
330
426
100
AcDbEntity
  8
BEM
 62
     0
100
AcDbTrace
 10
57.48495581473425
 20
425.5409929784382
 30
0.0
 11
59.81828914806758
 21
425.5409929784382
 31
0.0
 12
58.65162248140093
 22
432.5409929784382
 32
0.0
 13
58.65162248140093
 23
432.5409929784382
 33
0.0
  0
SOLID
  5
9DE
330
426
100
AcDbEntity
  8
BEM
 62
     0
100
AcDbTrace
 10
57.48495581473419
 20
129.5409929784392
 30
0.0
 11
59.81828914806752
 21
129.5409929784392
 31
0.0
 12
58.65162248140086
 22
122.5409929784392
 32
0.0
 13
58.65162248140086
 23
122.5409929784392
 33
0.0
  0
MTEXT
  5
9DF
330
426
100
AcDbEntity
  8
BEM
 62
     1
100
AcDbMText
 10
52.15162248140084
 20
277.5409929784387
 30
0.0
 40
7.0
 41
0.0
 71
     5
 72
     1
  1
\A1;310
  7
GREEKS
 11
0.0000000000000001
 21
1.0
 31
0.0
 73
     1
 44
1.0
  0
POINT
  5
9E0
330
426
100
AcDbEntity
  8
DEFPOINTS
 62
     0
100
AcDbPoint
 10
76.44799042165726
 20
432.5409929784382
 30
0.0
  0
POINT
  5
9E1
330
426
100
AcDbEntity
  8
DEFPOINTS
 62
     0
100
AcDbPoint
 10
175.6402600547778
 20
122.5409929784391
 30
0.0
  0
POINT
  5
9E2
330
426
100
AcDbEntity
  8
DEFPOINTS
 62
     0
100
AcDbPoint
 10
58.65162248140086
 20
122.5409929784392
 30
0.0
  0
ENDBLK
  5
560
330
426
100
AcDbEntity
  8
0
100
AcDbBlockEnd
  0
BLOCK
  5
5EB
330
5E1
100
AcDbEntity
  8
0
100
AcDbBlockBegin
  2
*D3
 70
     1
 10
0.0
 20
0.0
 30
0.0
  3
*D3
  1

  0
LINE
  5
9AD
330
5E1
100
AcDbEntity
  8
BEM
 62
     0
370
    -2
100
AcDbLine
 10
116.4479904216573
 20
530.5409350111228
 30
0.0
 11
116.4479904216573
 21
558.5950809779818
 31
0.0
  0
LINE
  5
9AE
330
5E1
100
AcDbEntity
  8
BEM
 62
     0
370
    -2
100
AcDbLine
 10
336.4479904216576
 20
530.5409350111228
 30
0.0
 11
336.4479904216576
 21
558.5950809779818
 31
0.0
  0
LINE
  5
9AF
330
5E1
100
AcDbEntity
  8
BEM
 62
     0
370
    -2
100
AcDbLine
 10
123.4479904216573
 20
556.5950809779819
 30
0.0
 11
329.4479904216576
 21
556.5950809779819
 31
0.0
  0
SOLID
  5
9B0
330
5E1
100
AcDbEntity
  8
BEM
 62
     0
100
AcDbTrace
 10
123.4479904216573
 20
557.7617476446484
 30
0.0
 11
123.4479904216573
 21
555.4284143113152
 31
0.0
 12
116.4479904216573
 22
556.5950809779819
 32
0.0
 13
116.4479904216573
 23
556.5950809779819
 33
0.0
  0
SOLID
  5
9B1
330
5E1
100
AcDbEntity
  8
BEM
 62
     0
100
AcDbTrace
 10
329.4479904216576
 20
557.7617476446484
 30
0.0
 11
329.4479904216576
 21
555.4284143113152
 31
0.0
 12
336.4479904216576
 22
556.5950809779819
 32
0.0
 13
336.4479904216576
 23
556.5950809779819
 33
0.0
  0
MTEXT
  5
9B2
330
5E1
100
AcDbEntity
  8
BEM
 62
     1
100
AcDbMText
 10
226.4479904216575
 20
563.0950809779818
 30
0.0
 40
7.0
 41
0.0
 71
     5
 72
     1
  1
\A1;%%c220
  7
GREEKS
 73
     1
 44
1.0
  0
POINT
  5
9B3
330
5E1
100
AcDbEntity
  8
DEFPOINTS
 62
     0
100
AcDbPoint
 10
116.4479904216573
 20
528.5409350111227
 30
0.0
  0
POINT
  5
9B4
330
5E1
100
AcDbEntity
  8
DEFPOINTS
 62
     0
100
AcDbPoint
 10
336.4479904216576
 20
528.5409350111227
 30
0.0
  0
POINT
  5
9B5
330
5E1
100
AcDbEntity
  8
DEFPOINTS
 62
     0
100
AcDbPoint
 10
336.4479904216576
 20
556.5950809779819
 30
0.0
  0
ENDBLK
  5
5EC
330
5E1
100
AcDbEntity
  8
0
100
AcDbBlockEnd
  0
BLOCK
  5
5F7
330
5ED
100
AcDbEntity
  8
0
100
AcDbBlockBegin
  2
*D4
 70
     1
 10
0.0
 20
0.0
 30
0.0
  3
*D4
  1

  0
LINE
  5
B21
330
5ED
100
AcDbEntity
  8
BEM
 62
     0
370
    -2
100
AcDbLine
 10
76.44799042165726
 20
437.5409929784382
 30
0.0
 11
76.44799042165728
 21
571.722285124563
 31
0.0
  0
LINE
  5
B22
330
5ED
100
AcDbEntity
  8
BEM
 62
     0
370
    -2
100
AcDbLine
 10
376.4479904216573
 20
437.5409929784382
 30
0.0
 11
376.4479904216573
 21
571.722285124563
 31
0.0
  0
LINE
  5
B23
330
5ED
100
AcDbEntity
  8
BEM
 62
     0
370
    -2
100
AcDbLine
 10
83.44799042165728
 20
569.7222851245629
 30
0.0
 11
369.4479904216573
 21
569.7222851245629
 31
0.0
  0
SOLID
  5
B24
330
5ED
100
AcDbEntity
  8
BEM
 62
     0
100
AcDbTrace
 10
83.44799042165728
 20
570.8889517912296
 30
0.0
 11
83.44799042165728
 21
568.5556184578963
 31
0.0
 12
76.44799042165728
 22
569.7222851245629
 32
0.0
 13
76.44799042165728
 23
569.7222851245629
 33
0.0
  0
SOLID
  5
B25
330
5ED
100
AcDbEntity
  8
BEM
 62
     0
100
AcDbTrace
 10
369.4479904216573
 20
570.8889517912296
 30
0.0
 11
369.4479904216573
 21
568.5556184578963
 31
0.0
 12
376.4479904216573
 22
569.7222851245629
 32
0.0
 13
376.4479904216573
 23
569.7222851245629
 33
0.0
  0
MTEXT
  5
B26
330
5ED
100
AcDbEntity
  8
BEM
 62
     1
100
AcDbMText
 10
226.4479904216573
 20
576.2222851245629
 30
0.0
 40
7.0
 41
0.0
 71
     5
 72
     1
  1
\A1;%%c300
  7
GREEKS
 73
     1
 44
1.0
  0
POINT
  5
B27
330
5ED
100
AcDbEntity
  8
DEFPOINTS
 62
     0
100
AcDbPoint
 10
76.44799042165726
 20
435.5409929784382
 30
0.0
  0
POINT
  5
B28
330
5ED
100
AcDbEntity
  8
DEFPOINTS
 62
     0
100
AcDbPoint
 10
376.4479904216573
 20
435.5409929784382
 30
0.0
  0
POINT
  5
B29
330
5ED
100
AcDbEntity
  8
DEFPOINTS
 62
     0
100
AcDbPoint
 10
376.4479904216573
 20
569.7222851245629
 30
0.0
  0
ENDBLK
  5
5F8
330
5ED
100
AcDbEntity
  8
0
100
AcDbBlockEnd
  0
BLOCK
  5
9EE
330
9E4
100
AcDbEntity
  8
0
100
AcDbBlockBegin
  2
*D5
 70
     1
 10
0.0
 20
0.0
 30
0.0
  3
*D5
  1

  0
LINE
  5
9F0
330
9E4
100
AcDbEntity
  8
BEM
 62
     0
370
    -2
100
AcDbLine
 10
277.9479904216572
 20
132.4536710926218
 30
0.0
 11
277.9479904216572
 21
155.3074233625634
 31
0.0
  0
LINE
  5
9F1
330
9E4
100
AcDbEntity
  8
BEM
 62
     0
370
    -2
100
AcDbLine
 10
174.947990421657
 20
132.4536710926226
 30
0.0
 11
174.947990421657
 21
155.3074233625634
 31
0.0
  0
LINE
  5
9F2
330
9E4
100
AcDbEntity
  8
BEM
 62
     0
370
    -2
100
AcDbLine
 10
270.9479904216572
 20
153.3074233625634
 30
0.0
 11
181.9479904216571
 21
153.3074233625634
 31
0.0
  0
SOLID
  5
9F3
330
9E4
100
AcDbEntity
  8
BEM
 62
     0
100
AcDbTrace
 10
270.9479904216572
 20
154.4740900292301
 30
0.0
 11
270.9479904216572
 21
152.1407566958968
 31
0.0
 12
277.9479904216572
 22
153.3074233625634
 32
0.0
 13
277.9479904216572
 23
153.3074233625634
 33
0.0
  0
SOLID
  5
9F4
330
9E4
100
AcDbEntity
  8
BEM
 62
     0
100
AcDbTrace
 10
181.9479904216571
 20
154.4740900292301
 30
0.0
 11
181.9479904216571
 21
152.1407566958968
 31
0.0
 12
174.947990421657
 22
153.3074233625634
 32
0.0
 13
174.947990421657
 23
153.3074233625634
 33
0.0
  0
MTEXT
  5
9F5
330
9E4
100
AcDbEntity
  8
BEM
 62
     1
100
AcDbMText
 10
226.4479904216571
 20
159.8074233625634
 30
0.0
 40
7.0
 41
0.0
 71
     5
 72
     1
  1
\A1;%%c103
  7
GREEKS
 73
     1
 44
1.0
  0
POINT
  5
9F6
330
9E4
100
AcDbEntity
  8
DEFPOINTS
 62
     0
100
AcDbPoint
 10
277.9479904216572
 20
130.4536710926218
 30
0.0
  0
POINT
  5
9F7
330
9E4
100
AcDbEntity
  8
DEFPOINTS
 62
     0
100
AcDbPoint
 10
174.947990421657
 20
130.4536710926226
 30
0.0
  0
POINT
  5
9F8
330
9E4
100
AcDbEntity
  8
DEFPOINTS
 62
     0
100
AcDbPoint
 10
174.947990421657
 20
153.3074233625634
 30
0.0
  0
ENDBLK
  5
9EF
330
9E4
100
AcDbEntity
  8
0
100
AcDbBlockEnd
  0
ENDSEC
  0
SECTION
  2
ENTITIES
  0
HATCH
  5
23
330
2
100
AcDbEntity
  8
SCHRAFF
  6
Continuous
100
AcDbHatch
 10
0.0
 20
0.0
 30
0.0
210
0.0
220
0.0
230
1.0
  2
ANSI31
 70
     0
 71
     0
 91
        4
 92
        7
 72
     1
 73
     1
 93
       44
 10
117.4479904216574
 20
528.5409350111227
 42
-0.266750395150088
 10
119.9286368535302
 20
532.859830425319
 42
0.0
 10
143.9074907464712
 20
546.8474835914983
 42
-0.134038508411906
 10
146.4479904216572
 20
547.5409929784374
 42
0.0
 10
201.1863525940067
 20
547.5409929784379
 42
0.2679491924311371
 10
203.3514161034678
 20
548.7909929784378
 42
-0.2679491924311204
 10
203.7844288053601
 20
549.0409929784378
 42
0.0
 10
203.9844288053602
 20
549.0409929784378
 42
-0.2679491924312574
 10
204.4174415072528
 20
548.7909929784381
 42
0.2679491924311556
 10
206.582505016714
 20
547.5409929784379
 42
0.0
 10
208.6413525940064
 20
547.5409929784379
 42
0.2679491924311518
 10
210.8064161034676
 20
548.7909929784378
 42
-0.2679491924310975
 10
211.2394288053598
 20
549.0409929784378
 42
0.0
 10
211.4394288053602
 20
549.0409929784378
 42
-0.2679491924309788
 10
211.8724415072521
 20
548.7909929784378
 42
0.2679491924311251
 10
214.0375050167131
 20
547.5409929784379
 42
0.0
 10
220.4913525940074
 20
547.5409929784379
 42
0.2679491924310973
 10
222.6564161034683
 20
548.7909929784376
 42
-0.2679491924312862
 10
223.0894288053606
 20
549.0409929784378
 42
0.0
 10
226.4479904216574
 20
549.0409929784381
 42
0.0
 10
226.4479904216574
 20
550.0409929784378
 42
0.0
 10
223.08942880536
 20
550.0409929784378
 42
0.2679491924310756
 10
221.7903906996836
 20
549.2909929784379
 42
-0.2679491924311246
 10
220.491352594007
 20
548.5409929784379
 42
0.0
 10
214.0375050167131
 20
548.5409929784379
 42
-0.2679491924310962
 10
212.7384669110366
 20
549.2909929784379
 42
0.2859076546238575
 10
211.33942880536
 20
550.0376559331474
 42
0.2859076546238756
 10
209.9403906996833
 20
549.2909929784379
 42
-0.2679491924311237
 10
208.6413525940066
 20
548.5409929784379
 42
0.0
 10
206.5825050167141
 20
548.5409929784379
 42
-0.2679491924311723
 10
205.2834669110372
 20
549.2909929784379
 42
0.2859076546238861
 10
203.8844288053604
 20
550.0376559331474
 42
0.2859076546239122
 10
202.4853906996834
 20
549.2909929784379
 42
-0.2679491924311319
 10
201.1863525940068
 20
548.5409929784379
 42
0.0
 10
146.4479904216572
 20
548.5409929784374
 42
0.1316524975837886
 10
143.4479904217309
 20
547.7371454011869
 42
0.0
 10
119.41529579996
 20
533.7180735384878
 42
0.2662608607109036
 10
116.4479904216573
 20
528.5409350111227
 42
0.0
 10
116.4479904216573
 20
464.5409929784388
 42
-0.4142135623730909
 10
111.4479904216574
 20
459.5409929784388
 42
0.0
 10
96.44799042165717
 20
459.5409929784383
 42
0.0
 10
96.44799042165708
 20
458.5409929784383
 42
0.0
 10
111.4479904216574
 20
458.5409929784383
 42
0.4142135623730952
 10
117.4479904216574
 20
464.5409929784383
 42
0.0
 97
        0
 92
        7
 72
     1
 73
     1
 93
       31
 10
286.5903347671464
 20
548.5409929784383
 42
0.0
 10
251.8875050167141
 20
548.5409929784379
 42
-0.2679491924311948
 10
250.5884669110371
 20
549.2909929784379
 42
0.2859076546239628
 10
249.1894288053599
 20
550.0376559331474
 42
0.2859076546237491
 10
247.7903906996838
 20
549.2909929784379
 42
-0.2679491924311143
 10
246.4913525940072
 20
548.5409929784379
 42
0.0
 10
240.0375050167137
 20
548.5409929784379
 42
-0.2679491924311449
 10
238.7384669110369
 20
549.2909929784379
 42
0.2859076546238161
 10
237.3394288053605
 20
550.0376559331477
 42
0.3607372083888945
 10
235.7870600505322
 20
548.9159929784379
 42
-0.3419987131196436
 10
235.3029371322564
 20
548.5409929784379
 42
0.0
 10
235.1141879396569
 20
548.5409929784379
 42
-0.3419987131195289
 10
234.6300650213813
 20
548.9159929784379
 42
0.3419987131196487
 10
233.1776962665535
 20
550.0409929784378
 42
0.0
 10
226.4479904216574
 20
550.0409929784378
 42
0.0
 10
226.4479904216574
 20
549.0409929784378
 42
0.0
 10
233.1776962665536
 20
549.0409929784378
 42
-0.3419987131195064
 10
233.6618191848292
 20
548.6659929784378
 42
0.3596757619904947
 10
235.2085625359566
 20
547.5439647771091
 42
0.3596757619905158
 10
236.755305887084
 20
548.6659929784378
 42
-0.3419987131196715
 10
237.2394288053599
 20
549.0409929784378
 42
0.0
 10
237.4394288053601
 20
549.0409929784378
 42
-0.2679491924311643
 10
237.8724415072525
 20
548.7909929784378
 42
0.2679491924311343
 10
240.0375050167137
 20
547.5409929784379
 42
0.0
 10
246.4913525940077
 20
547.5409929784379
 42
0.2679491924310781
 10
248.6564161034685
 20
548.7909929784376
 42
-0.2679491924312612
 10
249.0894288053608
 20
549.0409929784378
 42
0.0
 10
249.2894288053601
 20
549.0409929784378
 42
-0.2679491924313018
 10
249.7224415072528
 20
548.7909929784381
 42
0.2679491924311476
 10
251.887505016714
 20
547.5409929784379
 42
0.0
 10
287.0910380933403
 20
547.5409929784383
 42
0.0
 97
        0
 92
        7
 72
     1
 73
     1
 93
       16
 10
306.4479904216576
 20
548.5409929784383
 42
0.0
 10
286.5903347671465
 20
548.5409929784383
 42
0.0
 10
287.0910380933403
 20
547.5409929784381
 42
0.0
 10
306.4479904216576
 20
547.5409929784383
 42
-0.1340385084118612
 10
308.9884900968426
 20
546.8474835914991
 42
0.0
 10
332.9673439897846
 20
532.859830425319
 42
-0.2667503951500871
 10
335.4479904216574
 20
528.5409350111227
 42
0.0
 10
335.4479904216574
 20
464.5409929784388
 42
0.4142135623731166
 10
341.4479904216574
 20
458.5409929784383
 42
0.0
 10
344.4479904216573
 20
458.5409929784383
 42
0.0
 10
344.4479904216573
 20
459.5409929784385
 42
0.0
 10
341.4479904216572
 20
459.5409929784388
 42
-0.4142135623730784
 10
336.4479904216576
 20
464.5409929784388
 42
0.0
 10
336.4479904216576
 20
528.5409350111227
 42
0.2662608607107455
 10
333.4806850433579
 20
533.718073538486
 42
0.0
 10
309.4479904215808
 20
547.7371454011887
 42
0.131652497583648
 97
        0
 92
        7
 72
     0
 73
     1
 93
        4
 10
356.4479904216573
 20
459.5409929784383
 10
352.4479904216573
 20
459.5409929784383
 10
352.4479904216573
 20
458.5409929784383
 10
356.4479904216573
 20
458.5409929784383
 97
        0
 75
     0
 76
     1
 52
0.0
 41
20.0
 77
     0
 78
     1
 53
45.0
 43
-11.99548113301776
 44
41.71464262992469
 45
-1.767766952966368
 46
1.767766952966368
 79
     0
 47
0.4197568243763778
 98
        4
 10
117.1433974282566
 20
497.6164808584061
 10
271.3108011460807
 20
547.9873010327454
 10
303.6565493042439
 20
547.9873010327454
 10
353.6454356501839
 20
458.9988527034858
  0
LINE
  5
27
330
2
100
AcDbEntity
  8
STEMPEL
100
AcDbLine
 10
214.0375050167131
 20
548.5409929784379
 30
0.0
 11
220.4913525940074
 21
548.5409929784379
 31
0.0
  0
LINE
  5
29
330
2
100
AcDbEntity
  8
STEMPEL
100
AcDbLine
 10
214.0375050167131
 20
548.5409929784379
 30
0.0
 11
220.4913525940074
 21
548.5409929784379
 31
0.0
  0
LINE
  5
2A
330
2
100
AcDbEntity
  8
STEMPEL
100
AcDbLine
 10
203.7844288053602
 20
550.0409929784378
 30
0.0
 11
249.2894288053601
 21
550.0409929784378
 31
0.0
  0
LINE
  5
2B
330
2
100
AcDbEntity
  8
STEMPEL
100
AcDbLine
 10
204.2319437951134
 20
459.5409929784383
 30
0.0
 11
218.9727832660348
 21
459.5409929784383
 31
0.0
  0
LWPOLYLINE
  5
2C
330
2
100
AcDbEntity
  8
STEMPEL
100
AcDbPolyline
 90
       18
 70
   128
 43
0.0
 10
-204.8185183173705
 20
471.0409929784365
 10
-204.9451275635469
 20
472.4191143620611
 10
-205.3206437760485
 20
473.7503054748407
 10
-205.9322792006409
 20
474.9892342000174
 10
-206.7592053265152
 20
476.0937103057866
 10
-207.7732621762435
 20
477.0261221830395
 10
-208.9399172600352
 20
477.7547176636009
 10
-210.2194415382605
 20
478.2546853022341
 10
-211.5682623462446
 20
478.5089993006507
 10
-212.9404472091039
 20
478.5089993006507
 10
-214.289268017088
 20
478.2546853022341
 10
-215.5687922953133
 20
477.7547176636009
 10
-216.735447379105
 20
477.0261221830395
 10
-217.7495042288333
 20
476.0937103057866
 10
-218.5764303547077
 20
474.9892342000174
 10
-219.1880657793
 20
473.7503054748407
 10
-219.5635819918017
 20
472.4191143620611
 10
-219.6901912379781
 20
471.0409929784365
210
0.0
220
0.0
230
-1.0
  0
LWPOLYLINE
  5
2D
330
2
100
AcDbEntity
  8
STEMPEL
100
AcDbPolyline
 90
        9
 70
   128
 43
0.0
 10
-212.1889380529307
 20
478.5407027382112
 10
-213.6302780368086
 20
478.3854013442875
 10
-215.0143589402581
 20
477.9510010972732
 10
-216.2885835527901
 20
477.2540098769979
 10
-217.4045293725199
 20
476.3209144255523
 10
-218.319788735973
 20
475.1871738102087
 10
-218.9995803747481
 20
473.8958719241394
 10
-219.4180711573975
 20
472.4960802319798
 10
-219.5593577882914
 20
471.0409929784381
210
0.0
220
0.0
230
-1.0
  0
LINE
  5
2F
330
2
100
AcDbEntity
  8
STEMPEL
100
AcDbLine
 10
146.4479904216573
 20
547.5409929784374
 30
0.0
 11
306.4479904216576
 21
547.5409929784383
 31
0.0
  0
DIMENSION
  5
32
330
2
100
AcDbEntity
  8
BEM
100
AcDbDimension
  2
*D4
 10
376.4479904216573
 20
569.7222851245629
 30
0.0
 11
226.4479904216573
 21
576.2222851245629
 31
0.0
 70
    32
  1
%%c<>
 71
     5
 42
300.0
  3
STANDARD
100
AcDbAlignedDimension
 13
76.44799042165726
 23
435.5409929784382
 33
0.0
 14
376.4479904216573
 24
435.5409929784382
 34
0.0
100
AcDbRotatedDimension
  0
DIMENSION
  5
43
330
2
100
AcDbEntity
  8
BEM
100
AcDbDimension
  2
*D3
 10
336.4479904216576
 20
556.5950809779819
 30
0.0
 11
226.4479904216575
 21
563.0950809779818
 31
0.0
 70
    32
  1
%%c<>
 71
     5
 42
220.0000000000002
  3
STANDARD
100
AcDbAlignedDimension
 13
116.4479904216573
 23
528.5409350111227
 33
0.0
 14
336.4479904216576
 24
528.5409350111227
 34
0.0
100
AcDbRotatedDimension
  0
LINE
  5
50
102
{ACAD_REACTORS
330
B74
102
}
330
2
100
AcDbEntity
  8
STEMPEL
100
AcDbLine
 10
368.4479904216573
 20
438.5409929784382
 30
0.0
 11
119.4479904216573
 21
438.5409929784382
 31
0.0
  0
LINE
  5
51
102
{ACAD_REACTORS
330
B74
102
}
330
2
100
AcDbEntity
  8
STEMPEL
100
AcDbLine
 10
84.44799042165731
 20
444.5409929784382
 30
0.0
 11
335.7901331970841
 21
444.5409929784384
 31
0.0
  0
LINE
  5
53
102
{ACAD_REACTORS
330
B43
102
}
330
2
100
AcDbEntity
  8
STEMPEL
100
AcDbLine
 10
119.4479904216573
 20
435.5409929784381
 30
0.0
 11
376.4479904216573
 21
435.5409929784382
 31
0.0
  0
LINE
  5
55
330
2
100
AcDbEntity
  8
STEMPEL
100
AcDbLine
 10
203.023794970811
 20
458.5409929784382
 30
0.0
 11
218.023794970811
 21
458.5409929784382
 31
0.0
  0
LINE
  5
57
330
2
100
AcDbEntity
  8
HILF
100
AcDbLine
 10
420.0
 20
0.0
 30
0.0
 11
0.0
 21
0.0
 31
0.0
  0
LINE
  5
58
330
2
100
AcDbEntity
  8
STEMPEL
100
AcDbLine
 10
410.0
 20
10.0
 30
0.0
 11
39.99999999999989
 21
10.0
 31
0.0
  0
LINE
  5
59
330
2
100
AcDbEntity
  8
STEMPEL
100
AcDbLine
 10
49.99999999999989
 20
10.0
 30
0.0
 11
410.0
 21
10.0
 31
0.0
  0
LINE
  5
5A
330
2
100
AcDbEntity
  8
STEMPEL
100
AcDbLine
 10
410.0
 20
110.0
 30
0.0
 11
40.0
 21
110.0
 31
0.0
  0
LINE
  5
5B
330
2
100
AcDbEntity
  8
STEMPEL
100
AcDbLine
 10
410.0
 20
80.0
 30
0.0
 11
146.0000000000001
 21
79.99999999999994
 31
0.0
  0
LINE
  5
5C
330
2
100
AcDbEntity
  8
STEMPEL
100
AcDbLine
 10
410.0
 20
40.0
 30
0.0
 11
146.0000000000001
 21
39.99999999999997
 31
0.0
  0
LINE
  5
5D
330
2
100
AcDbEntity
  8
HILF
100
AcDbLine
 10
419.9999999999999
 20
594.0000000000002
 30
0.0
 11
0.0
 21
594.0
 31
0.0
  0
LINE
  5
5E
330
2
100
AcDbEntity
  8
STEMPEL
100
AcDbLine
 10
410.0
 20
584.0
 30
0.0
 11
39.99999999999989
 21
584.0
 31
0.0
  0
LINE
  5
5F
330
2
100
AcDbEntity
  8
HILF
100
AcDbLine
 10
146.0000000000001
 20
49.99999999999997
 30
0.0
 11
230.0
 21
49.99999999999997
 31
0.0
  0
LINE
  5
60
330
2
100
AcDbEntity
  8
HILF
100
AcDbLine
 10
146.0000000000001
 20
59.99999999999997
 30
0.0
 11
230.0
 21
59.99999999999997
 31
0.0
  0
LINE
  5
61
330
2
100
AcDbEntity
  8
HILF
100
AcDbLine
 10
146.0000000000001
 20
69.99999999999994
 30
0.0
 11
230.0
 21
69.99999999999994
 31
0.0
  0
INSERT
  5
62
330
2
100
AcDbEntity
  8
STEMPEL
100
AcDbBlockReference
  2
LOGO
 10
150.9955485457794
 20
45.02105276448321
 30
0.0
 41
2.0
 42
2.0
 43
2.0
  0
TEXT
  5
80
330
2
100
AcDbEntity
  8
TEXT
100
AcDbText
 10
202.4626584226295
 20
73.30961091915225
 30
0.0
 40
4.0
  1
Name
 41
0.8
  7
GREEKS
100
AcDbText
  0
TEXT
  5
82
330
2
100
AcDbEntity
  8
TEXT
100
AcDbText
 10
204.4216048581258
 20
63.0896391972351
 30
0.0
 40
4.0
  1
Koeh
 41
0.8
  7
GREEKS
 72
     1
 11
209.6787477152686
 21
63.0896391972351
 31
0.0
100
AcDbText
  0
TEXT
  5
83
330
2
100
AcDbEntity
  8
TEXT
100
AcDbText
 10
194.2858954734051
 20
102.4184168434819
 30
0.0
 40
5.0
  1
Zul. Abw.
 41
0.8
  7
GREEKS
100
AcDbText
  0
TEXT
  5
84
330
2
100
AcDbEntity
  8
TEXT
100
AcDbText
 10
192.626132208084
 20
90.76363841023022
 30
0.0
 40
4.0
  1
DIN EN1124-3
 41
0.8
  7
GREEKS
 72
     1
 11
209.6166083985602
 21
90.76363841023022
 31
0.0
100
AcDbText
  0
LINE
  5
85
102
{ACAD_REACTORS
330
B43
102
}
330
2
100
AcDbEntity
  8
STEMPEL
100
AcDbLine
 10
76.44799042165726
 20
432.5409929784391
 30
0.0
 11
376.4479904216573
 21
432.5409929784381
 31
0.0
  0
LINE
  5
9E
330
2
100
AcDbEntity
  8
HILF
100
AcDbLine
 10
0.0
 20
0.0
 30
0.0
 11
-0.0000000000001137
 21
594.0
 31
0.0
  0
LINE
  5
9F
330
2
100
AcDbEntity
  8
STEMPEL
100
AcDbLine
 10
40.0
 20
10.0
 30
0.0
 11
39.99999999999989
 21
584.0
 31
0.0
  0
DIMENSION
  5
A1
330
2
100
AcDbEntity
  8
BEM
100
AcDbDimension
  2
*D2
 10
58.65162248140086
 20
122.5409929784392
 30
0.0
 11
52.15162248140084
 21
277.5409929784387
 31
0.0
 70
    32
 71
     5
 42
309.999999999999
  3
STANDARD
100
AcDbAlignedDimension
 13
76.44799042165726
 23
432.5409929784382
 33
0.0
 14
175.6402600547778
 24
122.5409929784391
 34
0.0
 50
90.0
100
AcDbRotatedDimension
  0
LINE
  5
AF
330
2
100
AcDbEntity
  8
HILF
100
AcDbLine
 10
40.00000000000011
 20
39.99999999999997
 30
0.0
 11
146.0000000000001
 21
39.99999999999997
 31
0.0
  0
LINE
  5
B0
330
2
100
AcDbEntity
  8
HILF
100
AcDbLine
 10
40.00000000000011
 20
49.99999999999997
 30
0.0
 11
146.0000000000001
 21
49.99999999999997
 31
0.0
  0
LINE
  5
B1
330
2
100
AcDbEntity
  8
HILF
100
AcDbLine
 10
40.00000000000011
 20
59.99999999999997
 30
0.0
 11
146.0000000000001
 21
59.99999999999997
 31
0.0
  0
LINE
  5
B2
330
2
100
AcDbEntity
  8
HILF
100
AcDbLine
 10
40.00000000000011
 20
69.99999999999994
 30
0.0
 11
146.0000000000001
 21
69.99999999999994
 31
0.0
  0
LINE
  5
B3
330
2
100
AcDbEntity
  8
STEMPEL
100
AcDbLine
 10
145.9999999999999
 20
29.99999999999997
 30
0.0
 11
40.0
 21
29.99999999999997
 31
0.0
  0
LINE
  5
B4
330
2
100
AcDbEntity
  8
HILF
100
AcDbLine
 10
40.00000000000011
 20
79.99999999999994
 30
0.0
 11
146.0000000000001
 21
79.99999999999994
 31
0.0
  0
LINE
  5
B5
330
2
100
AcDbEntity
  8
HILF
100
AcDbLine
 10
40.00000000000011
 20
90.00000000000005
 30
0.0
 11
146.0000000000001
 21
90.00000000000005
 31
0.0
  0
LINE
  5
B6
330
2
100
AcDbEntity
  8
HILF
100
AcDbLine
 10
40.00000000000011
 20
100.0
 30
0.0
 11
146.0000000000001
 21
100.0
 31
0.0
  0
TEXT
  5
B7
330
2
100
AcDbEntity
  8
TEXT
100
AcDbText
 10
67.32496897887824
 20
18.67381894984132
 30
0.0
 40
4.0
  1
Änderung
 41
0.8
  7
GREEKS
100
AcDbText
  0
TEXT
  5
B8
330
2
100
AcDbEntity
  8
TEXT
100
AcDbText
 10
42.59108645678998
 20
112.9572572751345
 30
0.0
 40
5.0
  1
Erstellt mit AUTOCAD 2004
 41
0.8
  7
GREEKS
100
AcDbText
  0
LINE
  5
B9
330
2
100
AcDbEntity
  8
VOLL
100
AcDbLine
 10
54.00000000000011
 20
110.0
 30
0.0
 11
54.0
 21
9.999999999999971
 31
0.0
  0
TEXT
  5
BB
330
2
100
AcDbEntity
  8
TEXT
100
AcDbText
 10
48.26641107045759
 20
13.65465846027192
 30
0.0
 40
4.0
  1
Index
 50
90.0
 41
0.8
  7
GREEKS
100
AcDbText
  0
LINE
  5
BC
330
2
100
AcDbEntity
  8
HILF
100
AcDbLine
 10
31.08767135713856
 20
297.0
 30
0.0
 11
0.0000000000001137
 21
297.0
 31
0.0
  0
LINE
  5
BD
330
2
100
AcDbEntity
  8
VOLL
100
AcDbLine
 10
104.0000000000001
 20
109.9999999999999
 30
0.0
 11
104.0
 21
9.999999999999971
 31
0.0
  0
LINE
  5
BE
330
2
100
AcDbEntity
  8
VOLL
100
AcDbLine
 10
124.0000000000001
 20
109.9999999999999
 30
0.0
 11
124.0
 21
9.999999999999971
 31
0.0
  0
TEXT
  5
BF
330
2
100
AcDbEntity
  8
TEXT
100
AcDbText
 10
109.4723536997203
 20
18.6715626933981
 30
0.0
 40
4.0
  1
Tag
 41
0.8
  7
GREEKS
100
AcDbText
  0
TEXT
  5
C0
330
2
100
AcDbEntity
  8
TEXT
100
AcDbText
 10
128.2201504717681
 20
18.59324216966408
 30
0.0
 40
4.0
  1
Name
 41
0.8
  7
GREEKS
100
AcDbText
  0
LINE
  5
C1
330
2
100
AcDbEntity
  8
STEMPEL
100
AcDbLine
 10
146.0000000000001
 20
109.9999999999999
 30
0.0
 11
146.0
 21
9.999999999999971
 31
0.0
  0
TEXT
  5
C2
330
2
100
AcDbEntity
  8
TEXT
100
AcDbText
 10
170.703759012998
 20
63.10765040825732
 30
0.0
 40
4.0
  1
27.01.
 41
0.8
  7
GREEKS
 72
     1
 11
177.4085209177599
 21
63.10765040825732
 31
0.0
100
AcDbText
  0
TEXT
  5
C3
330
2
100
AcDbEntity
  8
TEXT
100
AcDbText
 10
172.331167315365
 20
73.31880501229926
 30
0.0
 40
4.0
  1
Tag
 41
0.8
  7
GREEKS
100
AcDbText
  0
TEXT
  5
C4
330
2
100
AcDbEntity
  8
TEXT
100
AcDbText
 10
153.5163572150377
 20
102.4620895087088
 30
0.0
 40
5.0
  1
Maßstab
 41
0.8
  7
GREEKS
100
AcDbText
  0
TEXT
  5
C5
330
2
100
AcDbEntity
  8
TEXT
100
AcDbText
 10
147.5836127167615
 20
63.62990369617964
 30
0.0
 40
4.0
  1
Gez.
 41
0.8
  7
GREEKS
100
AcDbText
  0
LINE
  5
C6
330
2
100
AcDbEntity
  8
VOLL
100
AcDbLine
 10
164.0000000000001
 20
79.99999999999994
 30
0.0
 11
164.0000000000001
 21
39.99999999999997
 31
0.0
  0
TEXT
  5
C7
330
2
100
AcDbEntity
  8
TEXT
100
AcDbText
 10
147.6006777387303
 20
43.52946389649807
 30
0.0
 40
4.0
  1
Norm.
 41
0.8
  7
GREEKS
100
AcDbText
  0
TEXT
  5
C8
330
2
100
AcDbEntity
  8
TEXT
100
AcDbText
 10
147.5515086571672
 20
53.68926291428377
 30
0.0
 40
4.0
  1
Gepr.
 41
0.8
  7
GREEKS
100
AcDbText
  0
TEXT
  5
C9
330
2
100
AcDbEntity
  8
TEXT
 62
     1
100
AcDbText
 10
160.5006306481887
 20
88.14901428913959
 30
0.0
 40
7.0
  1
1:2
 41
0.8
  7
GREEKS
100
AcDbText
  0
TEXT
  5
CB
330
2
100
AcDbEntity
  8
TEXT
100
AcDbText
 10
148.622109822104
 20
73.14025471151666
 30
0.0
 40
4.0
  1
2011
 41
0.8
  7
GREEKS
100
AcDbText
  0
LINE
  5
CC
330
2
100
AcDbEntity
  8
VOLL
100
AcDbLine
 10
190.0000000000001
 20
109.9999999999998
 30
0.0
 11
190.0
 21
39.99999999999997
 31
0.0
  0
DIMENSION
  5
DC
330
2
100
AcDbEntity
  8
BEM
100
AcDbDimension
  2
*D1
 10
58.65162248140086
 20
548.5409929784374
 30
0.0
 11
52.15162248140077
 21
493.5409929784378
 31
0.0
 70
    32
 71
     5
 42
109.9999999999992
  3
STANDARD
100
AcDbAlignedDimension
 13
84.40245077624267
 23
438.5409929784382
 33
0.0
 14
146.4479904216573
 24
548.5409929784374
 34
0.0
 50
90.0
100
AcDbRotatedDimension
  0
LINE
  5
E9
330
2
100
AcDbEntity
  8
STEMPEL
100
AcDbLine
 10
109.4479904216573
 20
438.5409929784382
 30
0.0
 11
84.44799042165731
 21
438.5409929784382
 31
0.0
  0
LINE
  5
EE
102
{ACAD_REACTORS
330
B74
102
}
330
2
100
AcDbEntity
  8
STEMPEL
100
AcDbLine
 10
84.44799042165731
 20
438.5409929784382
 30
0.0
 11
109.4479904216573
 21
438.5409929784382
 31
0.0
  0
LINE
  5
F0
102
{ACAD_REACTORS
330
B43
102
}
330
2
100
AcDbEntity
  8
STEMPEL
100
AcDbLine
 10
76.44799042165726
 20
435.5409929784382
 30
0.0
 11
109.4479904216573
 21
435.5409929784381
 31
0.0
  0
ARC
  5
F1
102
{ACAD_REACTORS
330
B74
102
}
330
2
100
AcDbEntity
  8
STEMPEL
100
AcDbCircle
 10
84.44799042165731
 20
441.5409929784382
 30
0.0
 40
3.0
100
AcDbArc
 50
89.99999999999946
 51
270.0000000000005
  0
LINE
  5
F7
102
{ACAD_REACTORS
330
B43
102
}
330
2
100
AcDbEntity
  8
STEMPEL
100
AcDbLine
 10
76.44799042165726
 20
432.5409929784382
 30
0.0
 11
76.44799042165726
 21
435.5409929784382
 31
0.0
  0
LINE
  5
FB
330
2
100
AcDbEntity
  8
STEMPEL
100
AcDbLine
 10
117.4479904216574
 20
528.5409350111227
 30
0.0
 11
117.4479904216574
 21
464.5409929784388
 31
0.0
  0
LINE
  5
FC
330
2
100
AcDbEntity
  8
STEMPEL
100
AcDbLine
 10
116.4479904216573
 20
528.5409350111227
 30
0.0
 11
116.4479904216573
 21
464.5409929784388
 31
0.0
  0
ARC
  5
FD
330
2
100
AcDbEntity
  8
STEMPEL
100
AcDbCircle
 10
111.4479904216574
 20
464.5409929784388
 30
0.0
 40
6.0
100
AcDbArc
 50
270.0000000000017
 51
0.0
  0
ARC
  5
FE
330
2
100
AcDbEntity
  8
STEMPEL
100
AcDbCircle
 10
111.4479904216574
 20
464.5409929784388
 30
0.0
 40
5.0
100
AcDbArc
 50
270.0000000000017
 51
0.0
  0
LWPOLYLINE
  5
FF
330
2
100
AcDbEntity
  8
STEMPEL
100
AcDbPolyline
 90
       10
 70
   128
 43
0.0
 10
112.1516889316618
 20
458.5409929784394
 10
113.0097619279346
 20
458.6071201930121
 10
113.8625741275568
 20
458.8596739427422
 10
114.6833324344738
 20
459.2907196590598
 10
115.4462508008728
 20
459.8867150294997
 10
116.127360356372
 20
460.6289354612205
 10
116.7052624463177
 20
461.4940623580179
 10
117.1618009207239
 20
462.4549157287339
 10
117.4826325523215
 20
463.4813081104461
 10
117.6576776626926
 20
464.5409929784388
  0
LWPOLYLINE
  5
100
330
2
100
AcDbEntity
  8
STEMPEL
100
AcDbPolyline
 90
       10
 70
   128
 43
0.0
 10
114.1095818149623
 20
458.5409929784383
 10
114.967654811235
 20
458.6071201930109
 10
115.8204670108573
 20
458.859673942741
 10
116.6412253177743
 20
459.2907196590586
 10
117.4041436841732
 20
459.8867150294987
 10
118.0852532396725
 20
460.6289354612191
 10
118.6631553296182
 20
461.4940623580167
 10
119.1196938040244
 20
462.4549157287328
 10
119.440525435622
 20
463.4813081104449
 10
119.6155705459931
 20
464.5409929784376
  0
LINE
  5
101
330
2
100
AcDbEntity
  8
STEMPEL
100
AcDbLine
 10
115.037218479022
 20
459.5409929784383
 30
0.0
 11
116.0013326487847
 21
459.5409929784383
 31
0.0
  0
LINE
  5
106
330
2
100
AcDbEntity
  8
STEMPEL
100
AcDbLine
 10
109.4479904216573
 20
456.540992978439
 30
0.0
 11
119.4479904216573
 21
456.540992978439
 31
0.0
  0
LINE
  5
107
330
2
100
AcDbEntity
  8
STEMPEL
100
AcDbLine
 10
118.4479904216573
 20
457.5409929784389
 30
0.0
 11
110.4479904216573
 21
457.5409929784389
 31
0.0
  0
LINE
  5
108
330
2
100
AcDbEntity
  8
MITTEL
100
AcDbLine
 10
114.4479904216573
 20
462.5409929784389
 30
0.0
 11
114.4479904216573
 21
432.5409929784389
 31
0.0
  0
LINE
  5
10B
330
2
100
AcDbEntity
  8
STEMPEL
100
AcDbLine
 10
96.44799042165733
 20
459.5409929784383
 30
0.0
 11
111.4479904216575
 21
459.5409929784388
 31
0.0
  0
LINE
  5
10C
330
2
100
AcDbEntity
  8
STEMPEL
100
AcDbLine
 10
96.44799042165722
 20
459.5409929784385
 30
0.0
 11
96.44799042165709
 21
458.5409929784383
 31
0.0
  0
LINE
  5
10D
330
2
100
AcDbEntity
  8
HILF
100
AcDbLine
 10
110.4479904216573
 20
444.5409929784381
 30
0.0
 11
110.4479904216573
 21
432.5409929784389
 31
0.0
  0
LINE
  5
10E
330
2
100
AcDbEntity
  8
STEMPEL
100
AcDbLine
 10
109.4479904216573
 20
444.5409929784382
 30
0.0
 11
109.4479904216573
 21
432.5409929784389
 31
0.0
  0
LINE
  5
114
102
{ACAD_REACTORS
330
B74
102
}
330
2
100
AcDbEntity
  8
STEMPEL
100
AcDbLine
 10
107.4479904216573
 20
444.5409929784381
 30
0.0
 11
107.4479904216573
 21
438.5409929784382
 31
0.0
  0
LINE
  5
117
330
2
100
AcDbEntity
  8
STEMPEL
100
AcDbLine
 10
110.4479904216573
 20
457.5409929784389
 30
0.0
 11
109.4479904216573
 21
456.5409929784388
 31
0.0
  0
LINE
  5
118
330
2
100
AcDbEntity
  8
STEMPEL
100
AcDbLine
 10
109.4479904216573
 20
456.5409929784388
 30
0.0
 11
109.4479904216573
 21
454.5409929784383
 31
0.0
  0
LINE
  5
119
330
2
100
AcDbEntity
  8
HILF
100
AcDbLine
 10
110.4479904216573
 20
457.5409929784389
 30
0.0
 11
110.4479904216573
 21
454.5409929784382
 31
0.0
  0
LWPOLYLINE
  5
11A
330
2
100
AcDbEntity
  8
STEMPEL
100
AcDbPolyline
 90
        7
 70
   128
 43
0.0
 10
141.9963391983787
 20
459.5409929784383
 10
142.5582681716428
 20
460.150330880279
 10
143.04020611123
 20
460.8777611535685
 10
143.4291906909798
 20
461.7037186475121
 10
143.7147596820864
 20
462.6059881979744
 10
143.8892323478822
 20
463.5603021322175
 10
143.9479160268972
 20
464.5409929784388
  0
LWPOLYLINE
  5
11B
330
2
100
AcDbEntity
  8
STEMPEL
100
AcDbPolyline
 90
       10
 70
   128
 43
0.0
 10
140.3794307391119
 20
458.5409929784383
 10
141.1371803642061
 20
458.6321464603651
 10
141.8719061503817
 20
458.9028372537228
 10
142.5612838264148
 20
459.3448405557316
 10
143.1843670004611
 20
459.9447263197244
 10
143.7222236055727
 20
460.6842673203192
 10
144.1585111409716
 20
461.5409929784386
 10
144.4799732306669
 20
462.4888721184844
 10
144.6768424117309
 20
463.4991039124371
 10
144.7431369137177
 20
464.5409929784388
  0
LWPOLYLINE
  5
11C
330
2
100
AcDbEntity
  8
STEMPEL
100
AcDbPolyline
 90
        7
 70
   128
 43
0.0
 10
125.7742903257283
 20
459.5409929784383
 10
126.3943808487927
 20
460.150330880279
 10
126.926200995576
 20
460.8777611535685
 10
127.3554467953073
 20
461.7037186475121
 10
127.6705731431046
 20
462.6059881979744
 10
127.8631043200705
 20
463.5603021322175
 10
127.9278619583968
 20
464.5409929784388
  0
LWPOLYLINE
  5
11D
330
2
100
AcDbEntity
  8
STEMPEL
100
AcDbPolyline
 90
        7
 70
   128
 43
0.0
 10
116.0013326487844
 20
459.5409929784388
 10
116.6780345238619
 20
460.1505937062978
 10
117.2775839474958
 20
460.8781527902094
 10
117.7838726206455
 20
461.7041226518896
 10
118.183297912691
 20
462.6063116770928
 10
118.4651283279539
 20
463.5604804452865
 10
118.6217918324554
 20
464.5409929784388
  0
LWPOLYLINE
  5
11E
330
2
100
AcDbEntity
  8
STEMPEL
100
AcDbPolyline
 90
       10
 70
   128
 43
0.0
 10
118.2983002828525
 20
458.5409929784383
 10
119.1344795576941
 20
458.6321464603651
 10
119.9452519483967
 20
458.9028372537228
 10
120.7059825461395
 20
459.3448405557316
 10
121.3935569366583
 20
459.9447263197244
 10
121.9870835200267
 20
460.6842673203192
 10
122.4685282913479
 20
461.5409929784386
 10
122.8232627948683
 20
462.4888721184844
 10
123.0405086022025
 20
463.4991039124371
 10
123.1136648094264
 20
464.5409929784388
  0
LWPOLYLINE
  5
11F
330
2
100
AcDbEntity
  8
STEMPEL
100
AcDbPolyline
 90
       10
 70
   128
 43
0.0
 10
124.0385517683302
 20
458.5409929784383
 10
124.8747310431718
 20
458.6321464603651
 10
125.6855034338744
 20
458.9028372537228
 10
126.4462340316173
 20
459.3448405557316
 10
127.133808422136
 20
459.9447263197244
 10
127.7273350055045
 20
460.6842673203192
 10
128.2087797768257
 20
461.5409929784386
 10
128.5635142803461
 20
462.4888721184844
 10
128.7807600876802
 20
463.4991039124371
 10
128.8539162949042
 20
464.5409929784388
  0
LWPOLYLINE
  5
120
330
2
100
AcDbEntity
  8
STEMPEL
100
AcDbPolyline
 90
       10
 70
   128
 43
0.0
 10
131.24800930398
 20
458.5409929784383
 10
132.0057589290743
 20
458.6321464603651
 10
132.7404847152498
 20
458.9028372537228
 10
133.4298623912829
 20
459.3448405557316
 10
134.0529455653292
 20
459.9447263197244
 10
134.5908021704408
 20
460.6842673203192
 10
135.0270897058397
 20
461.5409929784386
 10
135.348551795535
 20
462.4888721184844
 10
135.545420976599
 20
463.4991039124371
 10
135.6117154785858
 20
464.5409929784388
  0
LINE
  5
122
330
2
100
AcDbEntity
  8
STEMPEL
100
AcDbLine
 10
119.4479904216573
 20
444.5409929784382
 30
0.0
 11
119.4479904216573
 21
432.5409929784389
 31
0.0
  0
LINE
  5
123
330
2
100
AcDbEntity
  8
HILF
100
AcDbLine
 10
118.4479904216573
 20
444.5409929784381
 30
0.0
 11
118.4479904216573
 21
432.5409929784389
 31
0.0
  0
LINE
  5
129
330
2
100
AcDbEntity
  8
STEMPEL
100
AcDbLine
 10
120.9600931767579
 20
459.5409929784383
 30
0.0
 11
125.7742903257293
 21
459.5409929784383
 31
0.0
  0
LINE
  5
12D
102
{ACAD_REACTORS
330
B74
102
}
330
2
100
AcDbEntity
  8
STEMPEL
100
AcDbLine
 10
121.4479904216573
 20
444.5409929784382
 30
0.0
 11
121.4479904216573
 21
438.5409929784382
 31
0.0
  0
LINE
  5
12F
330
2
100
AcDbEntity
  8
STEMPEL
100
AcDbLine
 10
119.4479904216573
 20
456.5409929784388
 30
0.0
 11
118.4479904216573
 21
457.5409929784389
 31
0.0
  0
LINE
  5
130
330
2
100
AcDbEntity
  8
STEMPEL
100
AcDbLine
 10
119.4479904216573
 20
456.5409929784388
 30
0.0
 11
119.4479904216573
 21
454.5409929784383
 31
0.0
  0
LINE
  5
131
330
2
100
AcDbEntity
  8
HILF
100
AcDbLine
 10
118.4479904216573
 20
457.5409929784389
 30
0.0
 11
118.4479904216573
 21
454.5409929784383
 31
0.0
  0
LINE
  5
136
102
{ACAD_REACTORS
330
B43
102
}
330
2
100
AcDbEntity
  8
STEMPEL
100
AcDbLine
 10
146.4479904216572
 20
432.5409929784382
 30
0.0
 11
146.4479904216572
 21
435.5409929784382
 31
0.0
  0
LINE
  5
137
330
2
100
AcDbEntity
  8
STEMPEL
100
AcDbLine
 10
133.6601386500675
 20
459.5409929784383
 30
0.0
 11
141.9963391983795
 21
459.5409929784383
 31
0.0
  0
ARC
  5
138
102
{ACAD_REACTORS
330
B74
102
}
330
2
100
AcDbEntity
  8
STEMPEL
100
AcDbCircle
 10
144.4479904216574
 20
441.5409929784382
 30
0.0
 40
3.0
100
AcDbArc
 50
269.9999999999995
 51
90.00000000000055
  0
LWPOLYLINE
  5
139
330
2
100
AcDbEntity
  8
STEMPEL
100
AcDbPolyline
 90
       18
 70
   128
 43
0.0
 10
-123.1136648094264
 20
471.0409929784365
 10
-123.1625341543427
 20
472.4191143620611
 10
-123.3074780021628
 20
473.7503054748407
 10
-123.54356046399
 20
474.9892342000174
 10
-123.8627420347368
 20
476.0937103057866
 10
-124.2541533688271
 20
477.0261221830395
 10
-124.704465422725
 20
477.7547176636009
 10
-125.1983433595245
 20
478.2546853022341
 10
-125.7189687584294
 20
478.5089993006507
 10
-126.2486123459012
 20
478.5089993006507
 10
-126.7692377448062
 20
478.2546853022341
 10
-127.2631156816056
 20
477.7547176636009
 10
-127.7134277355036
 20
477.0261221830395
 10
-128.1048390695939
 20
476.0937103057866
 10
-128.4240206403406
 20
474.9892342000174
 10
-128.6601031021679
 20
473.7503054748407
 10
-128.8050469499879
 20
472.4191143620611
 10
-128.8539162949042
 20
471.0409929784365
210
0.0
220
0.0
230
-1.0
  0
LWPOLYLINE
  5
13A
330
2
100
AcDbEntity
  8
STEMPEL
100
AcDbPolyline
 90
        7
 70
   128
 43
0.0
 10
-118.1397347475737
 20
477.5030470342763
 10
-118.277563757144
 20
476.7509407973376
 10
-118.3964280341102
 20
475.8282271866229
 10
-118.4927760360114
 20
474.7624759367186
 10
-118.5637289835496
 20
473.5855305998976
 10
-118.6071668755575
 20
472.3325570934958
 10
-118.6217918324551
 20
471.0409929784365
210
0.0
220
0.0
230
-1.0
  0
LWPOLYLINE
  5
13B
330
2
100
AcDbEntity
  8
STEMPEL
100
AcDbPolyline
 90
       18
 70
   128
 43
0.0
 10
-117.6576776626926
 20
471.0409929784365
 10
-117.6743460861694
 20
472.4191143620611
 10
-117.7237837334298
 20
473.7503054748407
 10
-117.8043070646902
 20
474.9892342000174
 10
-117.9131739544819
 20
476.0937103057866
 10
-118.0466770714442
 20
477.0261221830395
 10
-118.2002701270483
 20
477.7547176636009
 10
-118.3687226940004
 20
478.2546853022341
 10
-118.5462983221693
 20
478.5089993006507
 10
-118.7269498865164
 20
478.5089993006507
 10
-118.9045255146853
 20
478.2546853022341
 10
-119.0729780816374
 20
477.7547176636009
 10
-119.2265711372415
 20
477.0261221830395
 10
-119.3600742542038
 20
476.0937103057866
 10
-119.4689411439954
 20
474.9892342000174
 10
-119.5494644752559
 20
473.7503054748407
 10
-119.5989021225163
 20
472.4191143620611
 10
-119.6155705459931
 20
471.0409929784365
210
0.0
220
0.0
230
-1.0
  0
LINE
  5
13C
330
2
100
AcDbEntity
  8
STEMPEL
100
AcDbLine
 10
119.6155705459931
 20
471.0409929784365
 30
0.0
 11
119.6155705459931
 21
464.5409929784376
 31
0.0
  0
LINE
  5
13D
330
2
100
AcDbEntity
  8
STEMPEL
100
AcDbLine
 10
118.6217918324553
 20
471.0409929784365
 30
0.0
 11
118.6217918324553
 21
464.5409929784388
 31
0.0
  0
LINE
  5
13E
330
2
100
AcDbEntity
  8
STEMPEL
100
AcDbLine
 10
117.6576776626926
 20
471.0409929784365
 30
0.0
 11
117.6576776626926
 21
464.5409929784388
 31
0.0
  0
LINE
  5
13F
330
2
100
AcDbEntity
  8
STEMPEL
100
AcDbLine
 10
123.1136648094265
 20
471.0409929784365
 30
0.0
 11
123.1136648094265
 21
464.5409929784399
 31
0.0
  0
LWPOLYLINE
  5
140
330
2
100
AcDbEntity
  8
STEMPEL
100
AcDbPolyline
 90
        9
 70
   128
 43
0.0
 10
-125.5207633839133
 20
478.4427512231014
 10
-126.009823927182
 20
478.1163183253442
 10
-126.469436895083
 20
477.5710493120869
 10
-126.8853866987072
 20
476.8238090689589
 10
-127.2448082279988
 20
475.8977093461814
 10
-127.5365847628863
 20
474.821393924211
 10
-127.7516918076245
 20
473.6281526765802
 10
-127.883476213732
 20
472.3548919315045
 10
-127.9278619583968
 20
471.0409929784381
210
0.0
220
0.0
230
-1.0
  0
LINE
  5
141
330
2
100
AcDbEntity
  8
STEMPEL
100
AcDbLine
 10
127.927861958397
 20
471.0409929784365
 30
0.0
 11
127.927861958397
 21
464.5409929784399
 31
0.0
  0
LINE
  5
142
330
2
100
AcDbEntity
  8
STEMPEL
100
AcDbLine
 10
128.8539162949042
 20
471.0409929784365
 30
0.0
 11
128.8539162949042
 21
464.5409929784399
 31
0.0
  0
LWPOLYLINE
  5
143
330
2
100
AcDbEntity
  8
STEMPEL
100
AcDbPolyline
 90
       18
 70
   128
 43
0.0
 10
-135.6117154785861
 20
471.0409929784365
 10
-135.6894553798462
 20
472.4191143620611
 10
-135.920027744528
 20
473.7503054748407
 10
-136.2955807072931
 20
474.9892342000174
 10
-136.8033252624209
 20
476.0937103057866
 10
-137.4259707780588
 20
477.0261221830395
 10
-138.1423138079528
 20
477.7547176636009
 10
-138.9279601493788
 20
478.2546853022341
 10
-139.7561555584581
 20
478.5089993006507
 10
-140.5986968338458
 20
478.5089993006507
 10
-141.4268922429253
 20
478.2546853022341
 10
-142.2125385843512
 20
477.7547176636009
 10
-142.9288816142452
 20
477.0261221830395
 10
-143.5515271298831
 20
476.0937103057866
 10
-144.0592716850109
 20
474.9892342000174
 10
-144.434824647776
 20
473.7503054748407
 10
-144.6653970124579
 20
472.4191143620611
 10
-144.7431369137179
 20
471.0409929784365
210
0.0
220
0.0
230
-1.0
  0
LWPOLYLINE
  5
144
330
2
100
AcDbEntity
  8
STEMPEL
100
AcDbPolyline
 90
       10
 70
   128
 43
0.0
 10
-139.382205309331
 20
478.5409929784397
 10
-140.1750326551907
 20
478.4270511260311
 10
-140.9437703433364
 20
478.0886876343339
 10
-141.665060668114
 20
477.5361835068228
 10
-142.3169875879955
 20
476.7863263018315
 10
-142.8797426334111
 20
475.8619000510881
 10
-143.336226777074
 20
474.7909929784388
 10
-143.6725699792708
 20
473.6061440533811
 10
-143.8785526220009
 20
472.3433543109402
 10
-143.947916026897
 20
471.0409929784381
210
0.0
220
0.0
230
-1.0
  0
LINE
  5
145
330
2
100
AcDbEntity
  8
STEMPEL
100
AcDbLine
 10
135.611715478586
 20
471.0409929784365
 30
0.0
 11
135.611715478586
 21
464.5409929784399
 31
0.0
  0
LINE
  5
146
330
2
100
AcDbEntity
  8
STEMPEL
100
AcDbLine
 10
143.9479160268971
 20
471.0409929784365
 30
0.0
 11
143.9479160268971
 21
464.5409929784399
 31
0.0
  0
LINE
  5
147
330
2
100
AcDbEntity
  8
STEMPEL
100
AcDbLine
 10
144.7431369137178
 20
471.0409929784365
 30
0.0
 11
144.7431369137178
 21
464.5409929784399
 31
0.0
  0
LINE
  5
15A
330
2
100
AcDbEntity
  8
STEMPEL
100
AcDbLine
 10
176.6877483761906
 20
459.5409929784383
 30
0.0
 11
190.162357098185
 21
459.5409929784383
 31
0.0
  0
LWPOLYLINE
  5
15B
330
2
100
AcDbEntity
  8
STEMPEL
100
AcDbPolyline
 90
       18
 70
   128
 43
0.0
 10
-177.9052598089197
 20
471.0409929784365
 10
-178.0232408442008
 20
472.4191143620611
 10
-178.3731662473904
 20
473.7503054748407
 10
-178.9431197285722
 20
474.9892342000174
 10
-179.7136922055283
 20
476.0937103057866
 10
-180.6586427567558
 20
477.0261221830395
 10
-181.745792224576
 20
477.7547176636009
 10
-182.9381190377541
 20
478.2546853022341
 10
-184.195019936706
 20
478.5089993006507
 10
-185.4736926688043
 20
478.5089993006507
 10
-186.7305935677561
 20
478.2546853022341
 10
-187.9229203809343
 20
477.7547176636009
 10
-189.0100698487544
 20
477.0261221830395
 10
-189.955020399982
 20
476.0937103057866
 10
-190.725592876938
 20
474.9892342000174
 10
-191.2955463581198
 20
473.7503054748407
 10
-191.6454717613095
 20
472.4191143620611
 10
-191.7634527965906
 20
471.0409929784365
210
0.0
220
0.0
230
-1.0
  0
LWPOLYLINE
  5
15C
330
2
100
AcDbEntity
  8
STEMPEL
100
AcDbPolyline
 90
       10
 70
   128
 43
0.0
 10
175.1829164817106
 20
458.5409929784383
 10
175.6556464394642
 20
458.6321464603651
 10
176.1140127366644
 20
458.9028372537228
 10
176.5440881453151
 20
459.3448405557316
 10
176.9328050417534
 20
459.9447263197244
 10
177.2683524597811
 20
460.6842673203192
 10
177.5405349608966
 20
461.5409929784386
 10
177.7410824175348
 20
462.4888721184844
 10
177.8639012967072
 20
463.4991039124371
 10
177.9052598089197
 20
464.5409929784388
  0
LWPOLYLINE
  5
15D
330
2
100
AcDbEntity
  8
STEMPEL
100
AcDbPolyline
 90
       10
 70
   128
 43
0.0
 10
150.6375050355454
 20
458.5409929784383
 10
151.2735093955464
 20
458.6321464603651
 10
151.8901890849025
 20
458.9028372537228
 10
152.4688066033075
 20
459.3448405557316
 10
152.9917809502594
 20
459.9447263197244
 10
153.4432218148639
 20
460.6842673203192
 10
153.8094123948899
 20
461.5409929784386
 10
154.0792261748648
 20
462.4888721184844
 10
154.2444649996165
 20
463.4991039124371
 10
154.3001081710696
 20
464.5409929784388
  0
LWPOLYLINE
  5
15E
330
2
100
AcDbEntity
  8
STEMPEL
100
AcDbPolyline
 90
       10
 70
   128
 43
0.0
 10
162.5378051399143
 20
458.5409929784383
 10
163.1738094999152
 20
458.6321464603651
 10
163.7904891892713
 20
458.9028372537228
 10
164.3691067076764
 20
459.3448405557316
 10
164.8920810546283
 20
459.9447263197244
 10
165.3435219192327
 20
460.6842673203192
 10
165.7097124992587
 20
461.5409929784386
 10
165.9795262792337
 20
462.4888721184844
 10
166.1447651039853
 20
463.4991039124371
 10
166.2004082754384
 20
464.5409929784388
  0
LWPOLYLINE
  5
15F
330
2
100
AcDbEntity
  8
STEMPEL
100
AcDbPolyline
 90
        7
 70
   128
 43
0.0
 10
163.9521907514707
 20
459.5409929784383
 10
164.4238363520375
 20
460.150330880279
 10
164.8283428284204
 20
460.8777611535685
 10
165.1548304709094
 20
461.7037186475121
 10
165.3945179843176
 20
462.6059881979744
 10
165.5409586719437
 20
463.5603021322175
 10
165.5902138275761
 20
464.5409929784388
  0
LINE
  5
160
330
2
100
AcDbEntity
  8
MITTEL
100
AcDbLine
 10
170.4479904216574
 20
462.5409929784388
 30
0.0
 11
170.4479904216574
 21
432.5409929784387
 31
0.0
  0
LINE
  5
16A
330
2
100
AcDbEntity
  8
STEMPEL
100
AcDbLine
 10
152.6620850949642
 20
459.5409929784383
 30
0.0
 11
163.9521907514713
 21
459.5409929784383
 31
0.0
  0
LINE
  5
16E
330
2
100
AcDbEntity
  8
HILF
100
AcDbLine
 10
166.4479904216574
 20
438.5409929784382
 30
0.0
 11
166.4479904216574
 21
435.5409929784382
 31
0.0
  0
LINE
  5
16F
330
2
100
AcDbEntity
  8
STEMPEL
100
AcDbLine
 10
165.4479904216574
 20
438.5409929784382
 30
0.0
 11
165.4479904216574
 21
435.5409929784382
 31
0.0
  0
LINE
  5
170
330
2
100
AcDbEntity
  8
STEMPEL
100
AcDbLine
 10
175.4479904216574
 20
438.5409929784382
 30
0.0
 11
175.4479904216574
 21
435.5409929784383
 31
0.0
  0
LINE
  5
171
330
2
100
AcDbEntity
  8
HILF
100
AcDbLine
 10
174.4479904216574
 20
438.5409929784381
 30
0.0
 11
174.4479904216574
 21
435.5409929784382
 31
0.0
  0
LINE
  5
174
330
2
100
AcDbEntity
  8
STEMPEL
100
AcDbLine
 10
174.4479904216574
 20
457.5409929784386
 30
0.0
 11
166.4479904216574
 21
457.5409929784387
 31
0.0
  0
LINE
  5
175
330
2
100
AcDbEntity
  8
STEMPEL
100
AcDbLine
 10
165.4479904216575
 20
456.5409929784388
 30
0.0
 11
175.4479904216573
 21
456.5409929784388
 31
0.0
  0
LINE
  5
177
330
2
100
AcDbEntity
  8
STEMPEL
100
AcDbLine
 10
166.4479904216574
 20
457.5409929784387
 30
0.0
 11
165.4479904216574
 21
456.5409929784387
 31
0.0
  0
LINE
  5
178
330
2
100
AcDbEntity
  8
HILF
100
AcDbLine
 10
166.4479904216574
 20
457.5409929784387
 30
0.0
 11
166.4479904216574
 21
454.5409929784383
 31
0.0
  0
LINE
  5
179
330
2
100
AcDbEntity
  8
STEMPEL
100
AcDbLine
 10
165.4479904216574
 20
456.5409929784387
 30
0.0
 11
165.4479904216574
 21
454.5409929784383
 31
0.0
  0
LINE
  5
17F
330
2
100
AcDbEntity
  8
STEMPEL
100
AcDbLine
 10
175.4479904216574
 20
456.5409929784387
 30
0.0
 11
174.4479904216574
 21
457.5409929784386
 31
0.0
  0
LINE
  5
180
330
2
100
AcDbEntity
  8
HILF
100
AcDbLine
 10
174.4479904216574
 20
457.5409929784386
 30
0.0
 11
174.4479904216574
 21
454.5409929784383
 31
0.0
  0
LINE
  5
181
330
2
100
AcDbEntity
  8
STEMPEL
100
AcDbLine
 10
175.4479904216574
 20
456.5409929784387
 30
0.0
 11
175.4479904216574
 21
454.5409929784383
 31
0.0
  0
LWPOLYLINE
  5
182
330
2
100
AcDbEntity
  8
STEMPEL
100
AcDbPolyline
 90
       18
 70
   128
 43
0.0
 10
-154.3001081710694
 20
471.0409929784365
 10
-154.4014207828738
 20
472.4191143620611
 10
-154.701908538803
 20
473.7503054748407
 10
-155.1913386887242
 20
474.9892342000174
 10
-155.8530442758886
 20
476.0937103057866
 10
-156.6644917101538
 20
477.0261221830395
 10
-157.5980481223695
 20
477.7547176636009
 10
-158.6219223685956
 20
478.2546853022341
 10
-159.7012476393783
 20
478.5089993006507
 10
-160.7992688071294
 20
478.5089993006507
 10
-161.8785940779122
 20
478.2546853022341
 10
-162.9024683241383
 20
477.7547176636009
 10
-163.836024736354
 20
477.0261221830395
 10
-164.6474721706191
 20
476.0937103057866
 10
-165.3091777577835
 20
474.9892342000174
 10
-165.7986079077047
 20
473.7503054748407
 10
-166.0990956636339
 20
472.4191143620611
 10
-166.2004082754383
 20
471.0409929784365
210
0.0
220
0.0
230
-1.0
  0
LWPOLYLINE
  5
183
330
2
100
AcDbEntity
  8
STEMPEL
100
AcDbPolyline
 90
        9
 70
   128
 43
0.0
 10
-159.9451609993344
 20
478.5311270562602
 10
-161.0615687207056
 20
478.323819919853
 10
-162.1268479724478
 20
477.8545651923992
 10
-163.1026829554862
 20
477.1402409552307
 10
-163.9539749883441
 20
476.2065399118342
 10
-164.6501049310805
 20
475.0870452766738
 10
-165.1660344897719
 20
473.8220228593351
 10
-165.4832067899878
 20
472.4569727901259
 10
-165.590213827576
 20
471.0409929784381
210
0.0
220
0.0
230
-1.0
  0
LINE
  5
184
330
2
100
AcDbEntity
  8
STEMPEL
100
AcDbLine
 10
154.3001081710696
 20
471.0409929784365
 30
0.0
 11
154.3001081710696
 21
464.5409929784399
 31
0.0
  0
LINE
  5
185
330
2
100
AcDbEntity
  8
STEMPEL
100
AcDbLine
 10
165.5902138275761
 20
471.0409929784365
 30
0.0
 11
165.5902138275761
 21
464.5409929784399
 31
0.0
  0
LINE
  5
186
330
2
100
AcDbEntity
  8
STEMPEL
100
AcDbLine
 10
166.2004082754384
 20
471.0409929784365
 30
0.0
 11
166.2004082754384
 21
464.5409929784399
 31
0.0
  0
LINE
  5
187
330
2
100
AcDbEntity
  8
STEMPEL
100
AcDbLine
 10
177.9052598089197
 20
471.0409929784365
 30
0.0
 11
177.9052598089197
 21
464.5409929784399
 31
0.0
  0
LWPOLYLINE
  5
188
330
2
100
AcDbEntity
  8
STEMPEL
100
AcDbPolyline
 90
       10
 70
   128
 43
0.0
 10
203.5069435808625
 20
458.5409929784383
 10
203.734696143731
 20
458.6321464603651
 10
203.9555285602252
 20
458.9028372537228
 10
204.1627309491165
 20
459.3448405557316
 10
204.3500075706677
 20
459.9447263197244
 10
204.5116681194996
 20
460.6842673203192
 10
204.6428006216403
 20
461.5409929784386
 10
204.7394206823681
 20
462.4888721184844
 10
204.7985925500304
 20
463.4991039124371
 10
204.8185183173703
 20
464.5409929784388
  0
LWPOLYLINE
  5
189
330
2
100
AcDbEntity
  8
STEMPEL
100
AcDbPolyline
 90
        7
 70
   128
 43
0.0
 10
190.1623570981845
 20
459.5409929784383
 10
190.5129223125965
 20
460.150330880279
 10
190.8135842915352
 20
460.8777611535685
 10
191.0562563534698
 20
461.7037186475121
 10
191.2344115285183
 20
462.6059881979744
 10
191.3432581094988
 20
463.5603021322175
 10
191.3798685309136
 20
464.5409929784388
  0
LWPOLYLINE
  5
18A
330
2
100
AcDbEntity
  8
STEMPEL
100
AcDbPolyline
 90
       10
 70
   128
 43
0.0
 10
189.0411094693815
 20
458.5409929784383
 10
189.5138394271351
 20
458.6321464603651
 10
189.9722057243353
 20
458.9028372537228
 10
190.4022811329861
 20
459.3448405557316
 10
190.7909980294243
 20
459.9447263197244
 10
191.126545447452
 20
460.6842673203192
 10
191.3987279485676
 20
461.5409929784386
 10
191.5992754052057
 20
462.4888721184844
 10
191.7220942843781
 20
463.4991039124371
 10
191.7634527965906
 20
464.5409929784388
  0
LINE
  5
18B
330
2
100
AcDbEntity
  8
MITTEL
100
AcDbLine
 10
210.523794970811
 20
433.5409929784383
 30
0.0
 11
210.523794970811
 21
471.1409929784371
 31
0.0
  0
ARC
  5
18C
330
2
100
AcDbEntity
  8
STEMPEL
100
AcDbCircle
 10
197.8659377462376
 20
449.5409929784385
 30
0.0
 40
5.0
100
AcDbArc
 50
270.0
 51
358.9999999999999
  0
LINE
  5
18D
330
2
100
AcDbEntity
  8
STEMPEL
100
AcDbLine
 10
202.8651762220195
 20
449.4537309462519
 30
0.0
 11
203.023794970811
 21
458.5409929784382
 31
0.0
  0
LWPOLYLINE
  5
18E
330
2
100
AcDbEntity
  8
STEMPEL
100
AcDbPolyline
 90
        9
 70
   128
 43
0.0
 10
-184.6425641699432
 20
478.5381194014766
 10
-185.966773620273
 20
478.3592864944288
 10
-187.2347530174591
 20
477.9090105771046
 10
-188.3994717055447
 20
477.2039928449654
 10
-189.4177290741514
 20
476.2703831285819
 10
-190.2517569134137
 20
475.142809969606
 10
-190.8706202756076
 20
473.8630962126541
 10
-191.2513648840817
 20
472.4787077531185
 10
-191.3798685309136
 20
471.0409929784381
210
0.0
220
0.0
230
-1.0
  0
LINE
  5
18F
330
2
100
AcDbEntity
  8
STEMPEL
100
AcDbLine
 10
191.3798685309136
 20
471.0409929784365
 30
0.0
 11
191.3798685309136
 21
464.5409929784399
 31
0.0
  0
LINE
  5
190
330
2
100
AcDbEntity
  8
STEMPEL
100
AcDbLine
 10
191.7634527965906
 20
471.0409929784349
 30
0.0
 11
191.7634527965906
 21
464.5409929784399
 31
0.0
  0
LINE
  5
191
330
2
100
AcDbEntity
  8
STEMPEL
100
AcDbLine
 10
204.8185183173703
 20
471.0409929784381
 30
0.0
 11
204.8185183173703
 21
464.5409929784399
 31
0.0
  0
LINE
  5
192
330
2
100
AcDbEntity
  8
STEMPEL
100
AcDbLine
 10
146.4479904216573
 20
548.5409929784374
 30
0.0
 11
201.1863525940067
 21
548.5409929784379
 31
0.0
  0
ARC
  5
193
330
2
100
AcDbEntity
  8
STEMPEL
100
AcDbCircle
 10
122.4479904216574
 20
528.5409350111227
 30
0.0
 40
6.0
100
AcDbArc
 50
120.2564164748152
 51
180.0
  0
LINE
  5
194
330
2
100
AcDbEntity
  8
STEMPEL
100
AcDbLine
 10
119.9286368535303
 20
532.859830425319
 30
0.0
 11
143.9074907464815
 21
546.8474835915045
 31
0.0
  0
LINE
  5
195
330
2
100
AcDbEntity
  8
STEMPEL
100
AcDbLine
 10
119.4152957999495
 20
533.7180735384817
 30
0.0
 11
143.4015986754164
 21
547.7100835491702
 31
0.0
  0
ARC
  5
196
330
2
100
AcDbEntity
  8
STEMPEL
100
AcDbCircle
 10
122.4479904216574
 20
528.5409350111227
 30
0.0
 40
5.0
100
AcDbArc
 50
120.2564164748152
 51
180.0
  0
ARC
  5
197
330
2
100
AcDbEntity
  8
STEMPEL
100
AcDbCircle
 10
116.9368468173457
 20
538.0608299609001
 30
0.0
 40
5.0
100
AcDbArc
 50
300.0670458384848
 51
300.2564371635294
  0
ARC
  5
198
330
2
100
AcDbEntity
  8
STEMPEL
100
AcDbCircle
 10
146.4479904216573
 20
542.5409929784378
 30
0.0
 40
6.0
100
AcDbArc
 50
90.0
 51
120.512874327619
  0
ARC
  5
199
330
2
100
AcDbEntity
  8
STEMPEL
100
AcDbCircle
 10
146.4479904216573
 20
542.5409929784378
 30
0.0
 40
5.0
100
AcDbArc
 50
90.0
 51
120.5373500483013
  0
ARC
  5
19A
330
2
100
AcDbEntity
  8
STEMPEL
100
AcDbCircle
 10
146.4479904216573
 20
542.5409929784378
 30
0.0
 40
6.0
100
AcDbArc
 50
90.0
 51
90.0
  0
ARC
  5
19B
330
2
100
AcDbEntity
  8
STEMPEL
100
AcDbCircle
 10
206.5825050167141
 20
550.0409929784378
 30
0.0
 40
1.5
100
AcDbArc
 50
209.9999999999947
 51
270.0
  0
ARC
  5
19C
330
2
100
AcDbEntity
  8
STEMPEL
100
AcDbCircle
 10
206.5825050167141
 20
550.0409929784378
 30
0.0
 40
2.5
100
AcDbArc
 50
209.9999999999937
 51
270.0
  0
ARC
  5
19D
330
2
100
AcDbEntity
  8
STEMPEL
100
AcDbCircle
 10
201.1863525940067
 20
550.0409929784378
 30
0.0
 40
1.5
100
AcDbArc
 50
270.0
 51
330.0000000000029
  0
ARC
  5
19E
330
2
100
AcDbEntity
  8
STEMPEL
100
AcDbCircle
 10
201.1863525940067
 20
550.0409929784378
 30
0.0
 40
2.5
100
AcDbArc
 50
270.0
 51
330.0000000000015
  0
ARC
  5
19F
330
2
100
AcDbEntity
  8
STEMPEL
100
AcDbCircle
 10
203.7844288053602
 20
548.5409929784379
 30
0.0
 40
1.5
100
AcDbArc
 50
89.99999999999994
 51
150.0000000000024
  0
ARC
  5
1A0
330
2
100
AcDbEntity
  8
STEMPEL
100
AcDbCircle
 10
203.9844288053603
 20
548.5409929784379
 30
0.0
 40
1.5
100
AcDbArc
 50
29.99999999999394
 51
89.99999999999994
  0
ARC
  5
1A1
330
2
100
AcDbEntity
  8
STEMPEL
100
AcDbCircle
 10
203.9844288053603
 20
548.5409929784379
 30
0.0
 40
0.5
100
AcDbArc
 50
29.99999999999891
 51
89.99999999999994
  0
LINE
  5
1A2
330
2
100
AcDbEntity
  8
STEMPEL
100
AcDbLine
 10
203.7844288053602
 20
549.0409929784378
 30
0.0
 11
203.9844288053603
 21
549.0409929784378
 31
0.0
  0
ARC
  5
1A3
330
2
100
AcDbEntity
  8
STEMPEL
100
AcDbCircle
 10
203.7844288053602
 20
548.5409929784379
 30
0.0
 40
0.5
100
AcDbArc
 50
89.99999999999994
 51
149.9999999999994
  0
ARC
  5
1A4
330
2
100
AcDbEntity
  8
STEMPEL
100
AcDbCircle
 10
211.2394288053601
 20
548.5409929784379
 30
0.0
 40
1.5
100
AcDbArc
 50
89.99999999999994
 51
150.0000000000048
  0
ARC
  5
1A5
330
2
100
AcDbEntity
  8
STEMPEL
100
AcDbCircle
 10
208.6413525940064
 20
550.0409929784378
 30
0.0
 40
2.5
100
AcDbArc
 50
270.0
 51
330.000000000005
  0
LINE
  5
1A6
330
2
100
AcDbEntity
  8
STEMPEL
100
AcDbLine
 10
206.5825050167141
 20
548.5409929784379
 30
0.0
 11
208.6413525940064
 21
548.5409929784379
 31
0.0
  0
LINE
  5
1A7
330
2
100
AcDbEntity
  8
STEMPEL
100
AcDbLine
 10
206.5825050167141
 20
548.5409929784379
 30
0.0
 11
208.6413525940064
 21
548.5409929784379
 31
0.0
  0
ARC
  5
1A8
330
2
100
AcDbEntity
  8
STEMPEL
100
AcDbCircle
 10
208.6413525940064
 20
550.0409929784378
 30
0.0
 40
1.5
100
AcDbArc
 50
270.0
 51
330.000000000005
  0
ARC
  5
1A9
330
2
100
AcDbEntity
  8
STEMPEL
100
AcDbCircle
 10
211.4394288053602
 20
548.5409929784379
 30
0.0
 40
1.5
100
AcDbArc
 50
30.00000000000242
 51
89.99999999999994
  0
ARC
  5
1AA
330
2
100
AcDbEntity
  8
STEMPEL
100
AcDbCircle
 10
211.4394288053602
 20
548.5409929784379
 30
0.0
 40
0.5
100
AcDbArc
 50
30.00000000000242
 51
89.99999999999994
  0
LINE
  5
1AB
330
2
100
AcDbEntity
  8
STEMPEL
100
AcDbLine
 10
211.2394288053601
 20
549.0409929784378
 30
0.0
 11
211.4394288053602
 21
549.0409929784378
 31
0.0
  0
ARC
  5
1AC
330
2
100
AcDbEntity
  8
STEMPEL
100
AcDbCircle
 10
211.2394288053601
 20
548.5409929784379
 30
0.0
 40
0.5
100
AcDbArc
 50
89.99999999999994
 51
150.0000000000048
  0
ARC
  5
1AD
330
2
100
AcDbEntity
  8
STEMPEL
100
AcDbCircle
 10
214.0375050167131
 20
550.0409929784378
 30
0.0
 40
1.5
100
AcDbArc
 50
210.0000000000016
 51
270.0
  0
ARC
  5
1AE
330
2
100
AcDbEntity
  8
STEMPEL
100
AcDbCircle
 10
214.0375050167131
 20
550.0409929784378
 30
0.0
 40
2.5
100
AcDbArc
 50
210.0000000000016
 51
270.0
  0
LINE
  5
1AF
330
2
100
AcDbEntity
  8
HILF
100
AcDbLine
 10
420.0
 20
-0.0000000000001137
 30
0.0
 11
419.9999999999999
 21
594.0
 31
0.0
  0
LINE
  5
1B0
330
2
100
AcDbEntity
  8
STEMPEL
100
AcDbLine
 10
410.0
 20
10.0
 30
0.0
 11
410.0
 21
584.0
 31
0.0
  0
LINE
  5
1BC
330
2
100
AcDbEntity
  8
HILF
100
AcDbLine
 10
233.4909699289885
 20
14.89398258028314
 30
0.0
 11
404.8588839326728
 21
14.89398258028314
 31
0.0
  0
LINE
  5
1BD
330
2
100
AcDbEntity
  8
VOLL
100
AcDbLine
 10
332.0
 20
60.0
 30
0.0
 11
410.0
 21
60.0
 31
0.0
  0
LINE
  5
1BE
330
2
100
AcDbEntity
  8
HILF
100
AcDbLine
 10
336.7238616296993
 20
83.77983636955827
 30
0.0
 11
404.8588839326728
 21
83.77983636955827
 31
0.0
  0
TEXT
  5
1BF
330
2
100
AcDbEntity
  8
TEXT
100
AcDbText
 10
337.2400861497006
 20
52.07416177878602
 30
0.0
 40
5.0
  1
ersetzt durch:
 41
0.8
  7
GREEKS
100
AcDbText
  0
TEXT
  5
1C0
330
2
100
AcDbEntity
  8
TEXT
100
AcDbText
 10
336.7238616296993
 20
73.1811823709997
 30
0.0
 40
5.0
  1
Ersatz für:
 41
0.8
  7
GREEKS
100
AcDbText
  0
TEXT
  5
1C1
330
2
100
AcDbEntity
  8
TEXT
100
AcDbText
 10
336.178754957634
 20
102.3132034537136
 30
0.0
 40
5.0
  1
Zeichnungs Nr.
 41
0.8
  7
GREEKS
100
AcDbText
  0
TEXT
  5
1C3
330
2
100
AcDbEntity
  8
TEXT
100
AcDbText
 10
235.1296391125316
 20
71.50334417585288
 30
0.0
 40
5.0
  1
DN100 mit Klemmflansch, einteilig
 41
0.7
  7
GREEKS
100
AcDbText
  0
TEXT
  5
1C4
330
2
100
AcDbEntity
  8
TEXT
 62
     1
100
AcDbText
 10
234.7736801096947
 20
87.41748789253779
 30
0.0
 40
7.0
  1
Drainjet Kompletteinheit
 41
0.7
  7
GREEKS
100
AcDbText
  0
LINE
  5
1C5
330
2
100
AcDbEntity
  8
HILF
100
AcDbLine
 10
234.7736801096947
 20
49.99999999999997
 30
0.0
 11
324.8353916556309
 21
49.99999999999997
 31
0.0
  0
LINE
  5
1C6
330
2
100
AcDbEntity
  8
HILF
100
AcDbLine
 10
234.7736801096947
 20
59.99999999999997
 30
0.0
 11
324.8353916556309
 21
59.99999999999997
 31
0.0
  0
LINE
  5
1C7
330
2
100
AcDbEntity
  8
HILF
100
AcDbLine
 10
234.7736801096947
 20
69.99999999999994
 30
0.0
 11
324.8353916556309
 21
69.99999999999994
 31
0.0
  0
LINE
  5
1C8
330
2
100
AcDbEntity
  8
HILF
100
AcDbLine
 10
234.7736801096947
 20
84.03758247564139
 30
0.0
 11
324.8353916556311
 21
84.03758247564139
 31
0.0
  0
TEXT
  5
1C9
330
2
100
AcDbEntity
  8
TEXT
100
AcDbText
 10
235.1296391125316
 20
51.5033441758529
 30
0.0
 40
5.0
  1
EDV-Art.Nr. 22101.100X
 41
0.8
  7
GREEKS
100
AcDbText
  0
LINE
  5
1CA
330
2
100
AcDbEntity
  8
STEMPEL
100
AcDbLine
 10
230.0
 20
110.0
 30
0.0
 11
230.0
 21
9.999999999999971
 31
0.0
  0
TEXT
  5
1CB
330
2
100
AcDbEntity
  8
TEXT
100
AcDbText
 10
234.9837501577827
 20
42.62974153022632
 30
0.0
 40
4.0
  1
22101100W.DWG
 41
0.8
  7
GREEKS
100
AcDbText
  0
TEXT
  5
1CC
330
2
100
AcDbEntity
  8
TEXT
100
AcDbText
 10
234.742238391136
 20
30.84560570193057
 30
0.0
 40
5.0
  1
Bauvorhaben
 41
0.8
  7
GREEKS
100
AcDbText
  0
TEXT
  5
1CD
330
2
100
AcDbEntity
  8
TEXT
100
AcDbText
 10
234.877940380901
 20
102.5489328011779
 30
0.0
 40
5.0
  1
Benennung
 41
0.8
  7
GREEKS
100
AcDbText
  0
LINE
  5
1CE
330
2
100
AcDbEntity
  8
STEMPEL
100
AcDbLine
 10
332.0
 20
109.9999999999997
 30
0.0
 11
332.0
 21
40.0
 31
0.0
  0
TEXT
  5
1D2
330
2
100
AcDbEntity
  8
TEXT
 62
     1
100
AcDbText
 10
347.220303250285
 20
87.41748789253779
 30
0.0
 40
7.0
  1
22101100W
 41
0.8
  7
GREEKS
 72
     1
 11
369.620303250285
 21
87.41748789253779
 31
0.0
100
AcDbText
  0
LINE
  5
1D7
330
2
100
AcDbEntity
  8
STEMPEL
100
AcDbLine
 10
345.4479904216575
 20
451.1409929784386
 30
0.0
 11
351.4479904216575
 21
451.1409929784386
 31
0.0
  0
LINE
  5
1D8
330
2
100
AcDbEntity
  8
STEMPEL
100
AcDbLine
 10
345.4479904216575
 20
451.1409929784386
 30
0.0
 11
346.0979904216571
 21
450.4909929784385
 31
0.0
  0
LINE
  5
1D9
330
2
100
AcDbEntity
  8
STEMPEL
100
AcDbLine
 10
356.4479904216571
 20
459.5409929784383
 30
0.0
 11
341.4479904216572
 21
459.5409929784388
 31
0.0
  0
LINE
  5
1DF
330
2
100
AcDbEntity
  8
STEMPEL
100
AcDbLine
 10
336.4479904216576
 20
528.5409350111227
 30
0.0
 11
336.4479904216576
 21
464.5409929784388
 31
0.0
  0
LINE
  5
1E0
330
2
100
AcDbEntity
  8
STEMPEL
100
AcDbLine
 10
335.4479904216574
 20
528.5409350111227
 30
0.0
 11
335.4479904216574
 21
464.5409929784388
 31
0.0
  0
LINE
  5
1E1
330
2
100
AcDbEntity
  8
MITTEL
100
AcDbLine
 10
226.4479904216575
 20
553.5409929784369
 30
0.0
 11
226.4479904216567
 21
167.8274383428704
 31
0.0
  0
LINE
  5
1EA
330
2
100
AcDbEntity
  8
STEMPEL
100
AcDbLine
 10
248.6640370482015
 20
459.5409929784383
 30
0.0
 11
233.9231975772801
 21
459.5409929784383
 31
0.0
  0
LWPOLYLINE
  5
1EB
330
2
100
AcDbEntity
  8
STEMPEL
100
AcDbPolyline
 90
       18
 70
   128
 43
0.0
 10
248.0774625259444
 20
471.0409929784365
 10
247.950853279768
 20
472.4191143620611
 10
247.5753370672663
 20
473.7503054748407
 10
246.963701642674
 20
474.9892342000174
 10
246.1367755167996
 20
476.0937103057866
 10
245.1227186670713
 20
477.0261221830395
 10
243.9560635832796
 20
477.7547176636009
 10
242.6765393050543
 20
478.2546853022341
 10
241.3277184970702
 20
478.5089993006507
 10
239.9555336342109
 20
478.5089993006507
 10
238.6067128262268
 20
478.2546853022341
 10
237.3271885480015
 20
477.7547176636009
 10
236.1605334642098
 20
477.0261221830395
 10
235.1464766144816
 20
476.0937103057866
 10
234.3195504886072
 20
474.9892342000174
 10
233.7079150640148
 20
473.7503054748407
 10
233.3323988515132
 20
472.4191143620611
 10
233.2057896053368
 20
471.0409929784365
  0
LWPOLYLINE
  5
1F0
330
2
100
AcDbEntity
  8
STEMPEL
100
AcDbPolyline
 90
        7
 70
   128
 43
0.0
 10
-233.9231975772804
 20
459.5409929784383
 10
-233.754301731512
 20
460.150330880279
 10
-233.6094483429393
 20
460.8777611535685
 10
-233.4925334253722
 20
461.7037186475121
 10
-233.4067015523545
 20
462.6059881979744
 10
-233.3542612799089
 20
463.5603021322175
 10
-233.3366230550235
 20
464.5409929784388
210
0.0
220
0.0
230
-1.0
  0
LWPOLYLINE
  5
1F1
330
2
100
AcDbEntity
  8
STEMPEL
100
AcDbPolyline
 90
       10
 70
   128
 43
0.0
 10
-234.5173643418447
 20
458.5409929784383
 10
-234.2896117789762
 20
458.6321464603651
 10
-234.068779362482
 20
458.9028372537228
 10
-233.8615769735908
 20
459.3448405557316
 10
-233.6743003520396
 20
459.9447263197244
 10
-233.5126398032076
 20
460.6842673203192
 10
-233.381507301067
 20
461.5409929784386
 10
-233.2848872403391
 20
462.4888721184844
 10
-233.2257153726768
 20
463.4991039124371
 10
-233.2057896053369
 20
464.5409929784388
210
0.0
220
0.0
230
-1.0
  0
LWPOLYLINE
  5
1F2
330
2
100
AcDbEntity
  8
STEMPEL
100
AcDbPolyline
 90
        7
 70
   128
 43
0.0
 10
218.9727832660344
 20
459.5409929784383
 10
219.1416791118029
 20
460.150330880279
 10
219.2865325003755
 20
460.8777611535685
 10
219.4034474179426
 20
461.7037186475121
 10
219.4892792909603
 20
462.6059881979744
 10
219.541719563406
 20
463.5603021322175
 10
219.5593577882913
 20
464.5409929784388
  0
LWPOLYLINE
  5
1F3
330
2
100
AcDbEntity
  8
STEMPEL
100
AcDbPolyline
 90
       10
 70
   128
 43
0.0
 10
218.3786165014701
 20
458.5409929784383
 10
218.6063690643386
 20
458.6321464603651
 10
218.8272014808328
 20
458.9028372537228
 10
219.0344038697241
 20
459.3448405557316
 10
219.2216804912753
 20
459.9447263197244
 10
219.3833410401072
 20
460.6842673203192
 10
219.5144735422478
 20
461.5409929784386
 10
219.6110936029757
 20
462.4888721184844
 10
219.670265470638
 20
463.4991039124371
 10
219.6901912379779
 20
464.5409929784388
  0
LINE
  5
1F4
330
2
100
AcDbEntity
  8
MITTEL
100
AcDbLine
 10
241.0669239503032
 20
462.5409929784388
 30
0.0
 11
241.0669239503032
 21
432.5409929784387
 31
0.0
  0
ARC
  5
1F5
330
2
100
AcDbEntity
  8
STEMPEL
100
AcDbCircle
 10
223.1816521953845
 20
449.5409929784382
 30
0.0
 40
5.0
100
AcDbArc
 50
181.0
 51
270.0
  0
LINE
  5
1F6
330
2
100
AcDbEntity
  8
STEMPEL
100
AcDbLine
 10
218.1824137196024
 20
449.4537309462518
 30
0.0
 11
218.023794970811
 21
458.5409929784382
 31
0.0
  0
LINE
  5
1F8
330
2
100
AcDbEntity
  8
HILF
100
AcDbLine
 10
237.0669239503031
 20
438.5409929784382
 30
0.0
 11
237.0669239503031
 21
435.5409929784381
 31
0.0
  0
LINE
  5
1F9
330
2
100
AcDbEntity
  8
STEMPEL
100
AcDbLine
 10
236.0669239503031
 20
438.5409929784382
 30
0.0
 11
236.0669239503031
 21
435.5409929784381
 31
0.0
  0
LINE
  5
1FA
330
2
100
AcDbEntity
  8
HILF
100
AcDbLine
 10
245.0669239503031
 20
438.5409929784382
 30
0.0
 11
245.0669239503031
 21
435.5409929784381
 31
0.0
  0
LINE
  5
1FB
330
2
100
AcDbEntity
  8
STEMPEL
100
AcDbLine
 10
246.0669239503031
 20
438.5409929784382
 30
0.0
 11
246.0669239503031
 21
435.5409929784381
 31
0.0
  0
LINE
  5
1FC
330
2
100
AcDbEntity
  8
STEMPEL
100
AcDbLine
 10
236.0669239503033
 20
456.5409929784388
 30
0.0
 11
246.066923950303
 21
456.5409929784388
 31
0.0
  0
LINE
  5
1FD
330
2
100
AcDbEntity
  8
STEMPEL
100
AcDbLine
 10
245.0669239503032
 20
457.5409929784386
 30
0.0
 11
237.0669239503031
 21
457.5409929784387
 31
0.0
  0
LINE
  5
204
330
2
100
AcDbEntity
  8
STEMPEL
100
AcDbLine
 10
237.0669239503031
 20
457.5409929784387
 30
0.0
 11
236.0669239503031
 21
456.5409929784387
 31
0.0
  0
LINE
  5
205
330
2
100
AcDbEntity
  8
HILF
100
AcDbLine
 10
237.0669239503031
 20
457.5409929784387
 30
0.0
 11
237.0669239503031
 21
454.5409929784383
 31
0.0
  0
LINE
  5
206
330
2
100
AcDbEntity
  8
STEMPEL
100
AcDbLine
 10
236.0669239503031
 20
456.5409929784387
 30
0.0
 11
236.0669239503031
 21
454.5409929784383
 31
0.0
  0
LINE
  5
208
330
2
100
AcDbEntity
  8
STEMPEL
100
AcDbLine
 10
246.0669239503031
 20
456.5409929784387
 30
0.0
 11
245.0669239503032
 21
457.5409929784386
 31
0.0
  0
LINE
  5
209
330
2
100
AcDbEntity
  8
STEMPEL
100
AcDbLine
 10
246.0669239503031
 20
456.5409929784387
 30
0.0
 11
246.0669239503031
 21
454.5409929784383
 31
0.0
  0
LINE
  5
20A
330
2
100
AcDbEntity
  8
HILF
100
AcDbLine
 10
245.0669239503032
 20
457.5409929784386
 30
0.0
 11
245.0669239503032
 21
454.5409929784384
 31
0.0
  0
LINE
  5
20B
330
2
100
AcDbEntity
  8
STEMPEL
100
AcDbLine
 10
219.5593577882914
 20
471.0409929784365
 30
0.0
 11
219.5593577882914
 21
464.5409929784399
 31
0.0
  0
LINE
  5
20C
330
2
100
AcDbEntity
  8
STEMPEL
100
AcDbLine
 10
219.690191237978
 20
471.0409929784349
 30
0.0
 11
219.690191237978
 21
464.5409929784399
 31
0.0
  0
LWPOLYLINE
  5
20D
330
2
100
AcDbEntity
  8
STEMPEL
100
AcDbPolyline
 90
        9
 70
   128
 43
0.0
 10
240.7070427903841
 20
478.5407027382112
 10
239.2657028065062
 20
478.3854013442875
 10
237.8816219030567
 20
477.9510010972732
 10
236.6073972905248
 20
477.2540098769979
 10
235.4914514707949
 20
476.3209144255523
 10
234.5761921073418
 20
475.1871738102087
 10
233.8964004685667
 20
473.8958719241394
 10
233.4779096859173
 20
472.4960802319798
 10
233.3366230550234
 20
471.0409929784381
  0
LINE
  5
20E
330
2
100
AcDbEntity
  8
STEMPEL
100
AcDbLine
 10
233.2057896053369
 20
471.0409929784349
 30
0.0
 11
233.2057896053369
 21
464.5409929784399
 31
0.0
  0
LINE
  5
20F
330
2
100
AcDbEntity
  8
STEMPEL
100
AcDbLine
 10
233.3366230550234
 20
471.0409929784365
 30
0.0
 11
233.3366230550234
 21
464.5409929784399
 31
0.0
  0
LWPOLYLINE
  5
210
330
2
100
AcDbEntity
  8
STEMPEL
100
AcDbPolyline
 90
       10
 70
   128
 43
0.0
 10
-277.7130643616042
 20
458.5409929784383
 10
-277.2403344038506
 20
458.6321464603651
 10
-276.7819681066504
 20
458.9028372537228
 10
-276.3518926979997
 20
459.3448405557316
 10
-275.9631758015614
 20
459.9447263197244
 10
-275.6276283835338
 20
460.6842673203192
 10
-275.3554458824182
 20
461.5409929784386
 10
-275.1548984257801
 20
462.4888721184844
 10
-275.0320795466076
 20
463.4991039124371
 10
-274.9907210343952
 20
464.5409929784388
210
0.0
220
0.0
230
-1.0
  0
LWPOLYLINE
  5
211
330
2
100
AcDbEntity
  8
STEMPEL
100
AcDbPolyline
 90
        7
 70
   128
 43
0.0
 10
-262.7336237451303
 20
459.5409929784383
 10
-262.3830585307183
 20
460.150330880279
 10
-262.0823965517796
 20
460.8777611535685
 10
-261.839724489845
 20
461.7037186475121
 10
-261.6615693147966
 20
462.6059881979744
 10
-261.552722733816
 20
463.5603021322175
 10
-261.5161123124012
 20
464.5409929784388
210
0.0
220
0.0
230
-1.0
  0
LWPOLYLINE
  5
212
330
2
100
AcDbEntity
  8
STEMPEL
100
AcDbPolyline
 90
       10
 70
   128
 43
0.0
 10
-249.3890372624523
 20
458.5409929784383
 10
-249.1612846995838
 20
458.6321464603651
 10
-248.9404522830896
 20
458.9028372537228
 10
-248.7332498941984
 20
459.3448405557316
 10
-248.5459732726472
 20
459.9447263197244
 10
-248.3843127238152
 20
460.6842673203192
 10
-248.2531802216746
 20
461.5409929784386
 10
-248.1565601609467
 20
462.4888721184844
 10
-248.0973882932845
 20
463.4991039124371
 10
-248.0774625259445
 20
464.5409929784388
210
0.0
220
0.0
230
-1.0
  0
LWPOLYLINE
  5
213
330
2
100
AcDbEntity
  8
STEMPEL
100
AcDbPolyline
 90
       10
 70
   128
 43
0.0
 10
-263.8548713739333
 20
458.5409929784383
 10
-263.3821414161797
 20
458.6321464603651
 10
-262.9237751189795
 20
458.9028372537228
 10
-262.4936997103288
 20
459.3448405557316
 10
-262.1049828138905
 20
459.9447263197244
 10
-261.7694353958628
 20
460.6842673203192
 10
-261.4972528947472
 20
461.5409929784386
 10
-261.2967054381091
 20
462.4888721184844
 10
-261.1738865589367
 20
463.4991039124371
 10
-261.1325280467243
 20
464.5409929784388
210
0.0
220
0.0
230
-1.0
  0
LINE
  5
214
330
2
100
AcDbEntity
  8
STEMPEL
100
AcDbLine
 10
276.2082324671243
 20
459.5409929784383
 30
0.0
 11
262.7336237451299
 21
459.5409929784383
 31
0.0
  0
LWPOLYLINE
  5
217
330
2
100
AcDbEntity
  8
STEMPEL
100
AcDbPolyline
 90
       18
 70
   128
 43
0.0
 10
274.9907210343952
 20
471.0409929784365
 10
274.8727399991141
 20
472.4191143620611
 10
274.5228145959244
 20
473.7503054748407
 10
273.9528611147426
 20
474.9892342000174
 10
273.1822886377865
 20
476.0937103057866
 10
272.237338086559
 20
477.0261221830395
 10
271.150188618739
 20
477.7547176636009
 10
269.9578618055607
 20
478.2546853022341
 10
268.7009609066089
 20
478.5089993006507
 10
267.4222881745105
 20
478.5089993006507
 10
266.1653872755587
 20
478.2546853022341
 10
264.9730604623804
 20
477.7547176636009
 10
263.8859109945604
 20
477.0261221830395
 10
262.9409604433329
 20
476.0937103057866
 10
262.1703879663768
 20
474.9892342000174
 10
261.600434485195
 20
473.7503054748407
 10
261.2505090820054
 20
472.4191143620611
 10
261.1325280467243
 20
471.0409929784365
  0
LWPOLYLINE
  5
218
330
2
100
AcDbEntity
  8
STEMPEL
100
AcDbPolyline
 90
        9
 70
   128
 43
0.0
 10
268.2534166733716
 20
478.5381194014766
 10
266.9292072230418
 20
478.3592864944288
 10
265.6612278258557
 20
477.9090105771046
 10
264.4965091377701
 20
477.2039928449654
 10
263.4782517691634
 20
476.2703831285819
 10
262.6442239299012
 20
475.142809969606
 10
262.0253605677072
 20
473.8630962126541
 10
261.6446159592331
 20
472.4787077531185
 10
261.5161123124012
 20
471.0409929784381
  0
LINE
  5
219
330
2
100
AcDbEntity
  8
STEMPEL
100
AcDbLine
 10
248.0774625259446
 20
471.0409929784381
 30
0.0
 11
248.0774625259446
 21
464.5409929784399
 31
0.0
  0
LINE
  5
21A
330
2
100
AcDbEntity
  8
STEMPEL
100
AcDbLine
 10
261.1325280467243
 20
471.0409929784349
 30
0.0
 11
261.1325280467243
 21
464.5409929784399
 31
0.0
  0
LINE
  5
21B
330
2
100
AcDbEntity
  8
STEMPEL
100
AcDbLine
 10
261.5161123124012
 20
471.0409929784365
 30
0.0
 11
261.5161123124012
 21
464.5409929784399
 31
0.0
  0
LINE
  5
21C
330
2
100
AcDbEntity
  8
STEMPEL
100
AcDbLine
 10
274.9907210343952
 20
471.0409929784365
 30
0.0
 11
274.9907210343952
 21
464.5409929784399
 31
0.0
  0
LINE
  5
228
330
2
100
AcDbEntity
  8
STEMPEL
100
AcDbLine
 10
319.2358421932473
 20
459.5409929784383
 30
0.0
 11
310.8996416449354
 21
459.5409929784383
 31
0.0
  0
LWPOLYLINE
  5
229
330
2
100
AcDbEntity
  8
STEMPEL
100
AcDbPolyline
 90
       10
 70
   128
 43
0.0
 10
313.5137755339838
 20
478.5409929784397
 10
312.7209481881241
 20
478.4270511260311
 10
311.9522104999784
 20
478.0886876343339
 10
311.2309201752008
 20
477.5361835068228
 10
310.5789932553193
 20
476.7863263018315
 10
310.0162382099037
 20
475.8619000510881
 10
309.5597540662408
 20
474.7909929784388
 10
309.223410864044
 20
473.6061440533811
 10
309.0174282213139
 20
472.3433543109402
 10
308.9480648164179
 20
471.0409929784381
  0
LWPOLYLINE
  5
22A
330
2
100
AcDbEntity
  8
STEMPEL
100
AcDbPolyline
 90
       18
 70
   128
 43
0.0
 10
317.2842653647288
 20
471.0409929784365
 10
317.2065254634687
 20
472.4191143620611
 10
316.9759530987868
 20
473.7503054748407
 10
316.6004001360217
 20
474.9892342000174
 10
316.092655580894
 20
476.0937103057866
 10
315.470010065256
 20
477.0261221830395
 10
314.7536670353619
 20
477.7547176636009
 10
313.9680206939361
 20
478.2546853022341
 10
313.1398252848567
 20
478.5089993006507
 10
312.297284009469
 20
478.5089993006507
 10
311.4690886003895
 20
478.2546853022341
 10
310.6834422589638
 20
477.7547176636009
 10
309.9670992290696
 20
477.0261221830395
 10
309.3444537134317
 20
476.0937103057866
 10
308.836709158304
 20
474.9892342000174
 10
308.4611561955388
 20
473.7503054748407
 10
308.230583830857
 20
472.4191143620611
 10
308.1528439295969
 20
471.0409929784365
  0
LWPOLYLINE
  5
22B
330
2
100
AcDbEntity
  8
STEMPEL
100
AcDbPolyline
 90
        7
 70
   128
 43
0.0
 10
-310.8996416449361
 20
459.5409929784383
 10
-310.337712671672
 20
460.150330880279
 10
-309.8557747320848
 20
460.8777611535685
 10
-309.466790152335
 20
461.7037186475121
 10
-309.1812211612286
 20
462.6059881979744
 10
-309.0067484954326
 20
463.5603021322175
 10
-308.9480648164177
 20
464.5409929784388
210
0.0
220
0.0
230
-1.0
  0
LWPOLYLINE
  5
22C
330
2
100
AcDbEntity
  8
STEMPEL
100
AcDbPolyline
 90
       10
 70
   128
 43
0.0
 10
-312.5165501042029
 20
458.5409929784383
 10
-311.7588004791087
 20
458.6321464603651
 10
-311.0240746929331
 20
458.9028372537228
 10
-310.3346970169
 20
459.3448405557316
 10
-309.7116138428536
 20
459.9447263197244
 10
-309.1737572377422
 20
460.6842673203192
 10
-308.7374697023432
 20
461.5409929784386
 10
-308.416007612648
 20
462.4888721184844
 10
-308.2191384315839
 20
463.4991039124371
 10
-308.1528439295971
 20
464.5409929784388
210
0.0
220
0.0
230
-1.0
  0
LWPOLYLINE
  5
22D
330
2
100
AcDbEntity
  8
STEMPEL
100
AcDbPolyline
 90
       10
 70
   128
 43
0.0
 10
-302.2584758077694
 20
458.5409929784383
 10
-301.6224714477685
 20
458.6321464603651
 10
-301.0057917584123
 20
458.9028372537228
 10
-300.4271742400073
 20
459.3448405557316
 10
-299.9041998930554
 20
459.9447263197244
 10
-299.4527590284509
 20
460.6842673203192
 10
-299.086568448425
 20
461.5409929784386
 10
-298.81675466845
 20
462.4888721184844
 10
-298.6515158436983
 20
463.4991039124371
 10
-298.5958726722452
 20
464.5409929784388
210
0.0
220
0.0
230
-1.0
  0
LWPOLYLINE
  5
22E
330
2
100
AcDbEntity
  8
STEMPEL
100
AcDbPolyline
 90
       10
 70
   128
 43
0.0
 10
-290.3581757034006
 20
458.5409929784383
 10
-289.7221713433996
 20
458.6321464603651
 10
-289.1054916540435
 20
458.9028372537228
 10
-288.5268741356384
 20
459.3448405557316
 10
-288.0038997886866
 20
459.9447263197244
 10
-287.5524589240821
 20
460.6842673203192
 10
-287.1862683440561
 20
461.5409929784386
 10
-286.9164545640812
 20
462.4888721184844
 10
-286.7512157393295
 20
463.4991039124371
 10
-286.6955725678764
 20
464.5409929784388
210
0.0
220
0.0
230
-1.0
  0
LWPOLYLINE
  5
22F
330
2
100
AcDbEntity
  8
STEMPEL
100
AcDbPolyline
 90
        7
 70
   128
 43
0.0
 10
-288.9437900918441
 20
459.5409929784383
 10
-288.4721444912773
 20
460.150330880279
 10
-288.0676380148944
 20
460.8777611535685
 10
-287.7411503724054
 20
461.7037186475121
 10
-287.5014628589971
 20
462.6059881979744
 10
-287.3550221713712
 20
463.5603021322175
 10
-287.3057670157388
 20
464.5409929784388
210
0.0
220
0.0
230
-1.0
  0
LINE
  5
230
330
2
100
AcDbEntity
  8
STEMPEL
100
AcDbLine
 10
300.2338957483506
 20
459.5409929784383
 30
0.0
 11
288.9437900918435
 21
459.5409929784383
 31
0.0
  0
LINE
  5
238
102
{ACAD_REACTORS
330
B43
102
}
330
2
100
AcDbEntity
  8
STEMPEL
100
AcDbLine
 10
306.4479904216573
 20
432.5409929784382
 30
0.0
 11
306.4479904216573
 21
435.5409929784382
 31
0.0
  0
ARC
  5
239
102
{ACAD_REACTORS
330
B74
102
}
330
2
100
AcDbEntity
  8
STEMPEL
100
AcDbCircle
 10
308.4479904216574
 20
441.5409929784385
 30
0.0
 40
2.999999999999886
100
AcDbArc
 50
90.0
 51
270.0
  0
LWPOLYLINE
  5
23A
330
2
100
AcDbEntity
  8
STEMPEL
100
AcDbPolyline
 90
       18
 70
   128
 43
0.0
 10
298.5958726722454
 20
471.0409929784365
 10
298.494560060441
 20
472.4191143620611
 10
298.1940723045118
 20
473.7503054748407
 10
297.7046421545906
 20
474.9892342000174
 10
297.0429365674262
 20
476.0937103057866
 10
296.2314891331611
 20
477.0261221830395
 10
295.2979327209454
 20
477.7547176636009
 10
294.2740584747193
 20
478.2546853022341
 10
293.1947332039365
 20
478.5089993006507
 10
292.0967120361854
 20
478.5089993006507
 10
291.0173867654027
 20
478.2546853022341
 10
289.9935125191765
 20
477.7547176636009
 10
289.0599561069608
 20
477.0261221830395
 10
288.2485086726957
 20
476.0937103057866
 10
287.5868030855313
 20
474.9892342000174
 10
287.0973729356101
 20
473.7503054748407
 10
286.7968851796809
 20
472.4191143620611
 10
286.6955725678765
 20
471.0409929784365
  0
LWPOLYLINE
  5
23B
330
2
100
AcDbEntity
  8
STEMPEL
100
AcDbPolyline
 90
        9
 70
   128
 43
0.0
 10
292.9508198439804
 20
478.5311270562602
 10
291.8344121226093
 20
478.323819919853
 10
290.769132870867
 20
477.8545651923992
 10
289.7932978878287
 20
477.1402409552307
 10
288.9420058549707
 20
476.2065399118342
 10
288.2458759122343
 20
475.0870452766738
 10
287.7299463535429
 20
473.8220228593351
 10
287.4127740533271
 20
472.4569727901259
 10
287.3057670157389
 20
471.0409929784381
  0
LINE
  5
23C
330
2
100
AcDbEntity
  8
STEMPEL
100
AcDbLine
 10
286.6955725678764
 20
471.0409929784365
 30
0.0
 11
286.6955725678764
 21
464.5409929784399
 31
0.0
  0
LINE
  5
23D
330
2
100
AcDbEntity
  8
STEMPEL
100
AcDbLine
 10
287.3057670157388
 20
471.0409929784365
 30
0.0
 11
287.3057670157388
 21
464.5409929784399
 31
0.0
  0
LINE
  5
23E
330
2
100
AcDbEntity
  8
STEMPEL
100
AcDbLine
 10
298.5958726722452
 20
471.0409929784365
 30
0.0
 11
298.5958726722452
 21
464.5409929784399
 31
0.0
  0
LINE
  5
23F
330
2
100
AcDbEntity
  8
STEMPEL
100
AcDbLine
 10
308.152843929597
 20
471.0409929784365
 30
0.0
 11
308.152843929597
 21
464.5409929784399
 31
0.0
  0
LINE
  5
240
330
2
100
AcDbEntity
  8
STEMPEL
100
AcDbLine
 10
308.9480648164177
 20
471.0409929784365
 30
0.0
 11
308.9480648164177
 21
464.5409929784399
 31
0.0
  0
LWPOLYLINE
  5
242
330
2
100
AcDbEntity
  8
STEMPEL
100
AcDbPolyline
 90
        7
 70
   128
 43
0.0
 10
-336.8946481945304
 20
459.5409929784388
 10
-336.217946319453
 20
460.1505937062978
 10
-335.6183968958191
 20
460.8781527902094
 10
-335.1121082226695
 20
461.7041226518896
 10
-334.7126829306238
 20
462.6063116770928
 10
-334.4308525153609
 20
463.5604804452865
 10
-334.2741890108595
 20
464.5409929784388
210
0.0
220
0.0
230
-1.0
  0
LWPOLYLINE
  5
243
330
2
100
AcDbEntity
  8
STEMPEL
100
AcDbPolyline
 90
       10
 70
   128
 43
0.0
 10
-334.5976805604623
 20
458.5409929784383
 10
-333.7615012856208
 20
458.6321464603651
 10
-332.9507288949181
 20
458.9028372537228
 10
-332.1899982971753
 20
459.3448405557316
 10
-331.5024239066565
 20
459.9447263197244
 10
-330.9088973232881
 20
460.6842673203192
 10
-330.4274525519669
 20
461.5409929784386
 10
-330.0727180484465
 20
462.4888721184844
 10
-329.8554722411124
 20
463.4991039124371
 10
-329.7823160338884
 20
464.5409929784388
210
0.0
220
0.0
230
-1.0
  0
LWPOLYLINE
  5
244
330
2
100
AcDbEntity
  8
STEMPEL
100
AcDbPolyline
 90
       10
 70
   128
 43
0.0
 10
-338.7863990283526
 20
458.5409929784383
 10
-337.9283260320798
 20
458.6071201930109
 10
-337.0755138324576
 20
458.859673942741
 10
-336.2547555255405
 20
459.2907196590586
 10
-335.4918371591415
 20
459.8867150294987
 10
-334.8107276036424
 20
460.6289354612191
 10
-334.2328255136966
 20
461.4940623580167
 10
-333.7762870392904
 20
462.4549157287328
 10
-333.4554554076929
 20
463.4813081104449
 10
-333.2804102973217
 20
464.5409929784376
210
0.0
220
0.0
230
-1.0
  0
ARC
  5
245
330
2
100
AcDbEntity
  8
STEMPEL
100
AcDbCircle
 10
341.4479904216574
 20
464.5409929784388
 30
0.0
 40
6.0
100
AcDbArc
 50
180.0
 51
269.9999999999983
  0
LWPOLYLINE
  5
246
330
2
100
AcDbEntity
  8
STEMPEL
100
AcDbPolyline
 90
       10
 70
   128
 43
0.0
 10
-340.744291911653
 20
458.5409929784394
 10
-339.8862189153803
 20
458.6071201930121
 10
-339.033406715758
 20
458.8596739427422
 10
-338.212648408841
 20
459.2907196590598
 10
-337.4497300424419
 20
459.8867150294997
 10
-336.7686204869428
 20
460.6289354612205
 10
-336.1907183969971
 20
461.4940623580179
 10
-335.7341799225909
 20
462.4549157287339
 10
-335.4133482909933
 20
463.4813081104461
 10
-335.2383031806222
 20
464.5409929784388
210
0.0
220
0.0
230
-1.0
  0
ARC
  5
247
330
2
100
AcDbEntity
  8
STEMPEL
100
AcDbCircle
 10
341.4479904216574
 20
464.5409929784388
 30
0.0
 40
5.0
100
AcDbArc
 50
180.0
 51
269.9999999999981
  0
LWPOLYLINE
  5
248
330
2
100
AcDbEntity
  8
STEMPEL
100
AcDbPolyline
 90
       10
 70
   128
 43
0.0
 10
-328.8574290749846
 20
458.5409929784383
 10
-328.021249800143
 20
458.6321464603651
 10
-327.2104774094404
 20
458.9028372537228
 10
-326.4497468116975
 20
459.3448405557316
 10
-325.7621724211788
 20
459.9447263197244
 10
-325.1686458378103
 20
460.6842673203192
 10
-324.6872010664891
 20
461.5409929784386
 10
-324.3324665629688
 20
462.4888721184844
 10
-324.1152207556346
 20
463.4991039124371
 10
-324.0420645484106
 20
464.5409929784388
210
0.0
220
0.0
230
-1.0
  0
LWPOLYLINE
  5
249
330
2
100
AcDbEntity
  8
STEMPEL
100
AcDbPolyline
 90
        7
 70
   128
 43
0.0
 10
-327.1216905175866
 20
459.5409929784383
 10
-326.5015999945223
 20
460.150330880279
 10
-325.9697798477388
 20
460.8777611535685
 10
-325.5405340480075
 20
461.7037186475121
 10
-325.2254077002102
 20
462.6059881979744
 10
-325.0328765232443
 20
463.5603021322175
 10
-324.968118884918
 20
464.5409929784388
210
0.0
220
0.0
230
-1.0
  0
LWPOLYLINE
  5
24A
330
2
100
AcDbEntity
  8
STEMPEL
100
AcDbPolyline
 90
       10
 70
   128
 43
0.0
 10
-321.6479715393348
 20
458.5409929784383
 10
-320.8902219142406
 20
458.6321464603651
 10
-320.155496128065
 20
458.9028372537228
 10
-319.4661184520319
 20
459.3448405557316
 10
-318.8430352779854
 20
459.9447263197244
 10
-318.305178672874
 20
460.6842673203192
 10
-317.8688911374751
 20
461.5409929784386
 10
-317.5474290477798
 20
462.4888721184844
 10
-317.3505598667158
 20
463.4991039124371
 10
-317.284265364729
 20
464.5409929784388
210
0.0
220
0.0
230
-1.0
  0
LINE
  5
24B
102
{ACAD_REACTORS
330
B43
330
B74
102
}
330
2
100
AcDbEntity
  8
MITTEL
100
AcDbLine
 10
329.9224980629215
 20
462.5409929784389
 30
0.0
 11
329.9224980629215
 21
432.5409929784389
 31
0.0
  0
LINE
  5
24C
330
2
100
AcDbEntity
  8
STEMPEL
100
AcDbLine
 10
331.9358876665569
 20
459.5409929784383
 30
0.0
 11
327.1216905175855
 21
459.5409929784383
 31
0.0
  0
LINE
  5
251
330
2
100
AcDbEntity
  8
STEMPEL
100
AcDbLine
 10
325.9224980629215
 20
457.5409929784389
 30
0.0
 11
333.9224980629215
 21
457.5409929784389
 31
0.0
  0
LINE
  5
252
330
2
100
AcDbEntity
  8
STEMPEL
100
AcDbLine
 10
334.9224980629215
 20
456.540992978439
 30
0.0
 11
324.9224980629215
 21
456.540992978439
 31
0.0
  0
LINE
  5
253
330
2
100
AcDbEntity
  8
STEMPEL
100
AcDbLine
 10
324.9224980629215
 20
438.5409929784382
 30
0.0
 11
324.9224980629215
 21
435.5409929784382
 31
0.0
  0
LINE
  5
254
330
2
100
AcDbEntity
  8
HILF
100
AcDbLine
 10
325.9224980629215
 20
438.5409929784382
 30
0.0
 11
325.9224980629214
 21
435.5409929784382
 31
0.0
  0
LINE
  5
25A
330
2
100
AcDbEntity
  8
STEMPEL
100
AcDbLine
 10
324.9224980629215
 20
456.5409929784388
 30
0.0
 11
325.9224980629215
 21
457.5409929784389
 31
0.0
  0
LINE
  5
25B
330
2
100
AcDbEntity
  8
STEMPEL
100
AcDbLine
 10
324.9224980629215
 20
456.5409929784388
 30
0.0
 11
324.9224980629215
 21
454.5409929784383
 31
0.0
  0
LINE
  5
25C
330
2
100
AcDbEntity
  8
HILF
100
AcDbLine
 10
325.9224980629215
 20
457.5409929784389
 30
0.0
 11
325.9224980629215
 21
454.5409929784384
 31
0.0
  0
LINE
  5
25D
330
2
100
AcDbEntity
  8
STEMPEL
100
AcDbLine
 10
334.9224980629215
 20
438.5409929784383
 30
0.0
 11
334.9224980629215
 21
435.5409929784382
 31
0.0
  0
LINE
  5
25E
330
2
100
AcDbEntity
  8
HILF
100
AcDbLine
 10
333.9224980629216
 20
438.5409929784382
 30
0.0
 11
333.9224980629215
 21
435.5409929784382
 31
0.0
  0
LINE
  5
25F
330
2
100
AcDbEntity
  8
STEMPEL
100
AcDbLine
 10
337.8587623642928
 20
459.5409929784383
 30
0.0
 11
336.8946481945302
 21
459.5409929784383
 31
0.0
  0
ARC
  5
262
102
{ACAD_REACTORS
330
B74
102
}
330
2
100
AcDbEntity
  8
STEMPEL
100
AcDbCircle
 10
335.7901331970841
 20
449.5409929784385
 30
0.0
 40
5.0
100
AcDbArc
 50
270.0
 51
359.0000000000015
  0
LINE
  5
264
330
2
100
AcDbEntity
  8
STEMPEL
100
AcDbLine
 10
333.9224980629215
 20
457.5409929784389
 30
0.0
 11
334.9224980629215
 21
456.5409929784388
 31
0.0
  0
LINE
  5
265
330
2
100
AcDbEntity
  8
HILF
100
AcDbLine
 10
333.9224980629215
 20
457.5409929784389
 30
0.0
 11
333.9224980629215
 21
454.5409929784384
 31
0.0
  0
LINE
  5
266
330
2
100
AcDbEntity
  8
STEMPEL
100
AcDbLine
 10
334.9224980629215
 20
456.5409929784388
 30
0.0
 11
334.9224980629215
 21
454.5409929784384
 31
0.0
  0
LINE
  5
267
330
2
100
AcDbEntity
  8
STEMPEL
100
AcDbLine
 10
345.4479904216571
 20
459.5409929784385
 30
0.0
 11
345.4479904216575
 21
451.1409929784386
 31
0.0
  0
LINE
  5
26A
102
{ACAD_REACTORS
330
B74
102
}
330
2
100
AcDbEntity
  8
STEMPEL
100
AcDbLine
 10
340.789371672866
 20
449.4537309462521
 30
0.0
 11
340.9479904216573
 21
458.5409929784382
 31
0.0
  0
LINE
  5
26B
330
2
100
AcDbEntity
  8
STEMPEL
100
AcDbLine
 10
344.4479904216573
 20
459.5409929784388
 30
0.0
 11
344.4479904216573
 21
458.5409929784383
 31
0.0
  0
LWPOLYLINE
  5
26C
330
2
100
AcDbEntity
  8
STEMPEL
100
AcDbPolyline
 90
       18
 70
   128
 43
0.0
 10
329.7823160338884
 20
471.0409929784365
 10
329.7334466889721
 20
472.4191143620611
 10
329.588502841152
 20
473.7503054748407
 10
329.3524203793248
 20
474.9892342000174
 10
329.0332388085782
 20
476.0937103057866
 10
328.6418274744877
 20
477.0261221830395
 10
328.1915154205898
 20
477.7547176636009
 10
327.6976374837904
 20
478.2546853022341
 10
327.1770120848854
 20
478.5089993006507
 10
326.6473684974136
 20
478.5089993006507
 10
326.1267430985086
 20
478.2546853022341
 10
325.6328651617092
 20
477.7547176636009
 10
325.1825531078113
 20
477.0261221830395
 10
324.7911417737208
 20
476.0937103057866
 10
324.4719602029742
 20
474.9892342000174
 10
324.235877741147
 20
473.7503054748407
 10
324.0909338933269
 20
472.4191143620611
 10
324.0420645484106
 20
471.0409929784365
  0
LINE
  5
26D
330
2
100
AcDbEntity
  8
STEMPEL
100
AcDbLine
 10
317.2842653647289
 20
471.0409929784365
 30
0.0
 11
317.2842653647289
 21
464.5409929784399
 31
0.0
  0
LWPOLYLINE
  5
26E
330
2
100
AcDbEntity
  8
STEMPEL
100
AcDbPolyline
 90
        9
 70
   128
 43
0.0
 10
327.3752174594016
 20
478.4427512231014
 10
326.8861569161328
 20
478.1163183253442
 10
326.4265439482318
 20
477.5710493120869
 10
326.0105941446076
 20
476.8238090689589
 10
325.651172615316
 20
475.8977093461814
 10
325.3593960804285
 20
474.821393924211
 10
325.1442890356904
 20
473.6281526765802
 10
325.0125046295829
 20
472.3548919315045
 10
324.968118884918
 20
471.0409929784381
  0
LINE
  5
26F
330
2
100
AcDbEntity
  8
STEMPEL
100
AcDbLine
 10
324.0420645484106
 20
471.0409929784365
 30
0.0
 11
324.0420645484106
 21
464.5409929784399
 31
0.0
  0
LINE
  5
270
330
2
100
AcDbEntity
  8
STEMPEL
100
AcDbLine
 10
324.9681188849179
 20
471.0409929784365
 30
0.0
 11
324.9681188849179
 21
464.5409929784399
 31
0.0
  0
LWPOLYLINE
  5
271
330
2
100
AcDbEntity
  8
STEMPEL
100
AcDbPolyline
 90
        7
 70
   128
 43
0.0
 10
334.7562460957411
 20
477.5030470342763
 10
334.6184170861708
 20
476.7509407973376
 10
334.4995528092046
 20
475.8282271866229
 10
334.4032048073034
 20
474.7624759367186
 10
334.3322518597653
 20
473.5855305998976
 10
334.2888139677573
 20
472.3325570934958
 10
334.2741890108597
 20
471.0409929784365
  0
LWPOLYLINE
  5
272
330
2
100
AcDbEntity
  8
STEMPEL
100
AcDbPolyline
 90
       18
 70
   128
 43
0.0
 10
335.2383031806222
 20
471.0409929784365
 10
335.2216347571454
 20
472.4191143620611
 10
335.172197109885
 20
473.7503054748407
 10
335.0916737786246
 20
474.9892342000174
 10
334.9828068888329
 20
476.0937103057866
 10
334.8493037718706
 20
477.0261221830395
 10
334.6957107162665
 20
477.7547176636009
 10
334.5272581493144
 20
478.2546853022341
 10
334.3496825211455
 20
478.5089993006507
 10
334.1690309567984
 20
478.5089993006507
 10
333.9914553286295
 20
478.2546853022341
 10
333.8230027616774
 20
477.7547176636009
 10
333.6694097060733
 20
477.0261221830395
 10
333.5359065891111
 20
476.0937103057866
 10
333.4270396993194
 20
474.9892342000174
 10
333.3465163680589
 20
473.7503054748407
 10
333.2970787207986
 20
472.4191143620611
 10
333.2804102973217
 20
471.0409929784365
  0
LINE
  5
273
330
2
100
AcDbEntity
  8
STEMPEL
100
AcDbLine
 10
329.7823160338884
 20
471.0409929784365
 30
0.0
 11
329.7823160338884
 21
464.5409929784399
 31
0.0
  0
LINE
  5
274
330
2
100
AcDbEntity
  8
STEMPEL
100
AcDbLine
 10
334.2741890108596
 20
471.0409929784365
 30
0.0
 11
334.2741890108596
 21
464.5409929784388
 31
0.0
  0
LINE
  5
275
330
2
100
AcDbEntity
  8
STEMPEL
100
AcDbLine
 10
333.2804102973217
 20
471.0409929784365
 30
0.0
 11
333.2804102973217
 21
464.5409929784376
 31
0.0
  0
LINE
  5
276
330
2
100
AcDbEntity
  8
STEMPEL
100
AcDbLine
 10
335.2383031806222
 20
471.0409929784365
 30
0.0
 11
335.2383031806222
 21
464.5409929784388
 31
0.0
  0
LINE
  5
279
330
2
100
AcDbEntity
  8
STEMPEL
100
AcDbLine
 10
251.8875050167141
 20
548.5409929784379
 30
0.0
 11
306.4479904216576
 21
548.5409929784383
 31
0.0
  0
ARC
  5
27A
330
2
100
AcDbEntity
  8
STEMPEL
100
AcDbCircle
 10
246.4913525940077
 20
550.0409929784378
 30
0.0
 40
2.5
100
AcDbArc
 50
270.0
 51
329.9999999999922
  0
ARC
  5
27B
330
2
100
AcDbEntity
  8
STEMPEL
100
AcDbCircle
 10
246.4913525940077
 20
550.0409929784378
 30
0.0
 40
1.5
100
AcDbArc
 50
270.0
 51
329.9999999999922
  0
LINE
  5
27C
330
2
100
AcDbEntity
  8
STEMPEL
100
AcDbLine
 10
223.0894288053601
 20
549.0409929784378
 30
0.0
 11
233.1776962665537
 21
549.0409929784378
 31
0.0
  0
ARC
  5
27D
330
2
100
AcDbEntity
  8
STEMPEL
100
AcDbCircle
 10
223.0894288053601
 20
548.5409929784379
 30
0.0
 40
1.5
100
AcDbArc
 50
89.99999999999998
 51
149.9999999999961
  0
ARC
  5
27E
330
2
100
AcDbEntity
  8
STEMPEL
100
AcDbCircle
 10
220.4913525940074
 20
550.0409929784378
 30
0.0
 40
2.5
100
AcDbArc
 50
270.0
 51
329.9999999999958
  0
ARC
  5
27F
330
2
100
AcDbEntity
  8
STEMPEL
100
AcDbCircle
 10
220.4913525940074
 20
550.0409929784378
 30
0.0
 40
1.5
100
AcDbArc
 50
270.0
 51
329.9999999999958
  0
ARC
  5
280
330
2
100
AcDbEntity
  8
STEMPEL
100
AcDbCircle
 10
223.0894288053601
 20
548.5409929784379
 30
0.0
 40
0.5
100
AcDbArc
 50
89.99999999999998
 51
149.9999999999961
  0
ARC
  5
281
330
2
100
AcDbEntity
  8
STEMPEL
100
AcDbCircle
 10
240.0375050167137
 20
550.0409929784378
 30
0.0
 40
1.5
100
AcDbArc
 50
209.9999999999974
 51
270.0
  0
ARC
  5
282
330
2
100
AcDbEntity
  8
STEMPEL
100
AcDbCircle
 10
240.0375050167137
 20
550.0409929784378
 30
0.0
 40
2.5
100
AcDbArc
 50
209.9999999999974
 51
270.0
  0
ARC
  5
283
330
2
100
AcDbEntity
  8
STEMPEL
100
AcDbCircle
 10
233.1776962665537
 20
548.5409929784379
 30
0.0
 40
1.5
100
AcDbArc
 50
14.47751218593105
 51
89.99999999999992
  0
ARC
  5
284
330
2
100
AcDbEntity
  8
STEMPEL
100
AcDbCircle
 10
235.114187939657
 20
549.0409929784378
 30
0.0
 40
0.5
100
AcDbArc
 50
194.4775121859298
 51
270.0
  0
ARC
  5
285
330
2
100
AcDbEntity
  8
STEMPEL
100
AcDbCircle
 10
235.114187939657
 20
549.0409929784378
 30
0.0
 40
1.5
100
AcDbArc
 50
194.4775121859298
 51
270.0
  0
ARC
  5
286
330
2
100
AcDbEntity
  8
STEMPEL
100
AcDbCircle
 10
233.1776962665537
 20
548.5409929784379
 30
0.0
 40
0.5
100
AcDbArc
 50
14.47751218593105
 51
89.99999999999992
  0
ARC
  5
287
330
2
100
AcDbEntity
  8
STEMPEL
100
AcDbCircle
 10
237.4394288053602
 20
548.5409929784379
 30
0.0
 40
0.5
100
AcDbArc
 50
29.99999999999758
 51
89.99999999999994
  0
LINE
  5
288
330
2
100
AcDbEntity
  8
STEMPEL
100
AcDbLine
 10
237.2394288053602
 20
549.0409929784378
 30
0.0
 11
237.4394288053602
 21
549.0409929784378
 31
0.0
  0
ARC
  5
289
330
2
100
AcDbEntity
  8
STEMPEL
100
AcDbCircle
 10
237.2394288053602
 20
548.5409929784379
 30
0.0
 40
0.5
100
AcDbArc
 50
89.99999999999998
 51
165.5224878140734
  0
LINE
  5
28A
330
2
100
AcDbEntity
  8
STEMPEL
100
AcDbLine
 10
235.114187939657
 20
548.5409929784379
 30
0.0
 11
235.3029371322561
 21
548.5409929784379
 31
0.0
  0
ARC
  5
28B
330
2
100
AcDbEntity
  8
STEMPEL
100
AcDbCircle
 10
235.3029371322561
 20
549.0409929784378
 30
0.0
 40
0.5
100
AcDbArc
 50
270.0
 51
345.5224878140727
  0
ARC
  5
28C
330
2
100
AcDbEntity
  8
STEMPEL
100
AcDbCircle
 10
237.2394288053602
 20
548.5409929784379
 30
0.0
 40
1.5
100
AcDbArc
 50
89.99999999999998
 51
165.5224878140734
  0
ARC
  5
28D
330
2
100
AcDbEntity
  8
STEMPEL
100
AcDbCircle
 10
237.4394288053602
 20
548.5409929784379
 30
0.0
 40
1.5
100
AcDbArc
 50
29.99999999999758
 51
89.99999999999994
  0
ARC
  5
28E
330
2
100
AcDbEntity
  8
STEMPEL
100
AcDbCircle
 10
235.3029371322561
 20
549.0409929784378
 30
0.0
 40
1.5
100
AcDbArc
 50
270.0
 51
345.5224878140727
  0
LINE
  5
28F
330
2
100
AcDbEntity
  8
STEMPEL
100
AcDbLine
 10
240.0375050167137
 20
548.5409929784379
 30
0.0
 11
246.4913525940077
 21
548.5409929784379
 31
0.0
  0
LINE
  5
290
330
2
100
AcDbEntity
  8
STEMPEL
100
AcDbLine
 10
240.0375050167137
 20
548.5409929784379
 30
0.0
 11
246.4913525940077
 21
548.5409929784379
 31
0.0
  0
ARC
  5
291
330
2
100
AcDbEntity
  8
STEMPEL
100
AcDbCircle
 10
251.8875050167141
 20
550.0409929784378
 30
0.0
 40
1.5
100
AcDbArc
 50
209.9999999999917
 51
270.0
  0
ARC
  5
292
330
2
100
AcDbEntity
  8
STEMPEL
100
AcDbCircle
 10
251.8875050167141
 20
550.0409929784378
 30
0.0
 40
2.5
100
AcDbArc
 50
209.9999999999917
 51
270.0
  0
ARC
  5
293
330
2
100
AcDbEntity
  8
STEMPEL
100
AcDbCircle
 10
249.2894288053601
 20
548.5409929784379
 30
0.0
 40
1.5
100
AcDbArc
 50
29.99999999999219
 51
89.99999999999992
  0
ARC
  5
294
330
2
100
AcDbEntity
  8
STEMPEL
100
AcDbCircle
 10
249.2894288053601
 20
548.5409929784379
 30
0.0
 40
0.5
100
AcDbArc
 50
29.99999999999219
 51
89.99999999999992
  0
LINE
  5
295
330
2
100
AcDbEntity
  8
STEMPEL
100
AcDbLine
 10
249.08942880536
 20
549.0409929784378
 30
0.0
 11
249.2894288053601
 21
549.0409929784378
 31
0.0
  0
ARC
  5
296
330
2
100
AcDbEntity
  8
STEMPEL
100
AcDbCircle
 10
249.08942880536
 20
548.5409929784379
 30
0.0
 40
0.5
100
AcDbArc
 50
89.99999999999998
 51
149.9999999999912
  0
ARC
  5
297
330
2
100
AcDbEntity
  8
STEMPEL
100
AcDbCircle
 10
249.08942880536
 20
548.5409929784379
 30
0.0
 40
1.5
100
AcDbArc
 50
89.99999999999998
 51
149.9999999999912
  0
LINE
  5
298
330
2
100
AcDbEntity
  8
STEMPEL
100
AcDbLine
 10
333.4806850433654
 20
533.7180735384817
 30
0.0
 11
309.4943821678985
 21
547.7100835491702
 31
0.0
  0
LINE
  5
299
330
2
100
AcDbEntity
  8
STEMPEL
100
AcDbLine
 10
332.9673439897846
 20
532.859830425319
 30
0.0
 11
308.9884900968334
 21
546.8474835915045
 31
0.0
  0
ARC
  5
29A
330
2
100
AcDbEntity
  8
STEMPEL
100
AcDbCircle
 10
306.4479904216576
 20
542.5409929784378
 30
0.0
 40
6.0
100
AcDbArc
 50
59.48712567238093
 51
90.0
  0
ARC
  5
29B
330
2
100
AcDbEntity
  8
STEMPEL
100
AcDbCircle
 10
306.4479904216576
 20
542.5409929784378
 30
0.0
 40
5.0
100
AcDbArc
 50
59.46264995169869
 51
90.0
  0
ARC
  5
29C
330
2
100
AcDbEntity
  8
STEMPEL
100
AcDbCircle
 10
306.4479904216576
 20
542.5409929784378
 30
0.0
 40
6.0
100
AcDbArc
 50
90.0
 51
90.0
  0
ARC
  5
29D
330
2
100
AcDbEntity
  8
STEMPEL
100
AcDbCircle
 10
330.4479904216574
 20
528.5409350111227
 30
0.0
 40
6.0
100
AcDbArc
 50
0.000000000000007
 51
59.74358352518475
  0
ARC
  5
29E
330
2
100
AcDbEntity
  8
STEMPEL
100
AcDbCircle
 10
330.4479904216574
 20
528.5409350111227
 30
0.0
 40
5.0
100
AcDbArc
 50
0.000000000000007
 51
59.74358352518475
  0
ARC
  5
29F
330
2
100
AcDbEntity
  8
STEMPEL
100
AcDbCircle
 10
335.9591340259691
 20
538.0608299609001
 30
0.0
 40
5.0
100
AcDbArc
 50
239.7435628364705
 51
239.9329541615152
  0
LINE
  5
2B2
330
2
100
AcDbEntity
  8
MITTEL
100
AcDbLine
 10
348.4479904216573
 20
433.5409929784384
 30
0.0
 11
348.4479904216573
 21
471.1409929784386
 31
0.0
  0
LINE
  5
2B3
102
{ACAD_REACTORS
330
B74
102
}
330
2
100
AcDbEntity
  8
STEMPEL
100
AcDbLine
 10
361.1058476462307
 20
444.5409929784383
 30
0.0
 11
368.4479904216573
 21
444.5409929784383
 31
0.0
  0
LINE
  5
2B4
102
{ACAD_REACTORS
330
B74
102
}
330
2
100
AcDbEntity
  8
STEMPEL
100
AcDbLine
 10
96.44799042165709
 20
458.5409929784411
 30
0.0
 11
345.4479904216571
 21
458.5409929784384
 31
0.0
  0
LINE
  5
2B5
330
2
100
AcDbEntity
  8
HILF
100
AcDbLine
 10
346.0979904216566
 20
450.4909929784385
 30
0.0
 11
346.0979904216564
 21
459.5409929784385
 31
0.0
  0
LINE
  5
2B6
330
2
100
AcDbEntity
  8
STEMPEL
100
AcDbLine
 10
351.4479904216571
 20
459.5409929784384
 30
0.0
 11
351.4479904216575
 21
451.1409929784386
 31
0.0
  0
LINE
  5
2B7
330
2
100
AcDbEntity
  8
HILF
100
AcDbLine
 10
350.7979904216569
 20
450.4909929784385
 30
0.0
 11
350.7979904216565
 21
459.5409929784383
 31
0.0
  0
LINE
  5
2B8
330
2
100
AcDbEntity
  8
STEMPEL
100
AcDbLine
 10
346.0979904216571
 20
450.4909929784385
 30
0.0
 11
350.7979904216573
 21
450.4909929784385
 31
0.0
  0
LINE
  5
2BC
330
2
100
AcDbEntity
  8
STEMPEL
100
AcDbLine
 10
350.7979904216573
 20
450.4909929784385
 30
0.0
 11
351.4479904216575
 21
451.1409929784386
 31
0.0
  0
LINE
  5
2BD
330
2
100
AcDbEntity
  8
STEMPEL
100
AcDbLine
 10
352.4479904216573
 20
459.5409929784383
 30
0.0
 11
352.4479904216573
 21
458.5409929784383
 31
0.0
  0
ARC
  5
2BE
102
{ACAD_REACTORS
330
B74
102
}
330
2
100
AcDbEntity
  8
STEMPEL
100
AcDbCircle
 10
361.1058476462308
 20
449.5409929784383
 30
0.0
 40
4.99999999999995
100
AcDbArc
 50
181.0000000000005
 51
269.9999999999994
  0
LINE
  5
2BF
330
2
100
AcDbEntity
  8
STEMPEL
100
AcDbLine
 10
356.4479904216572
 20
459.5409929784385
 30
0.0
 11
356.4479904216573
 21
458.5409929784383
 31
0.0
  0
LINE
  5
2C0
102
{ACAD_REACTORS
330
B74
102
}
330
2
100
AcDbEntity
  8
STEMPEL
100
AcDbLine
 10
355.9479904216573
 20
458.5409929784383
 30
0.0
 11
356.1066091704489
 21
449.4537309462518
 31
0.0
  0
LINE
  5
2C6
102
{ACAD_REACTORS
330
B43
102
}
330
2
100
AcDbEntity
  8
STEMPEL
100
AcDbLine
 10
376.4479904216573
 20
432.5409929784382
 30
0.0
 11
376.4479904216573
 21
435.5409929784382
 31
0.0
  0
ARC
  5
2C8
102
{ACAD_REACTORS
330
B74
102
}
330
2
100
AcDbEntity
  8
STEMPEL
100
AcDbCircle
 10
368.4479904216573
 20
441.5409929784383
 30
0.0
 40
3.000000000000028
100
AcDbArc
 50
270.0
 51
90.0
  0
LINE
  5
346
102
{ACAD_REACTORS
330
B74
102
}
330
2
100
AcDbEntity
  8
STEMPEL
100
AcDbLine
 10
351.4479904216571
 20
458.5409929784383
 30
0.0
 11
356.4479904216574
 21
458.5409929784383
 31
0.0
  0
LINE
  5
447
330
2
100
AcDbEntity
  8
STEMPEL
100
AcDbLine
 10
216.523794970811
 20
459.5409929784382
 30
0.0
 11
204.5237949708107
 21
459.5409929784387
 31
0.0
  0
LINE
  5
57D
102
{ACAD_REACTORS
330
B43
102
}
330
2
100
AcDbEntity
  8
STEMPEL
100
AcDbLine
 10
107.4479904216573
 20
435.540992978438
 30
0.0
 11
107.4479904216573
 21
432.540992978439
 31
0.0
  0
LINE
  5
57E
102
{ACAD_REACTORS
330
B43
102
}
330
2
100
AcDbEntity
  8
STEMPEL
100
AcDbLine
 10
121.4479904216573
 20
435.5409929784382
 30
0.0
 11
121.4479904216573
 21
432.5409929784389
 31
0.0
  0
TEXT
  5
5CE
330
2
100
AcDbEntity
  8
TEXT
100
AcDbText
 10
416.5811541437437
 20
12.14804815338303
 30
0.0
 40
4.0
  1
Diese Zeichnung ist urheberrechtlich geschützt und bleibt unser Eigentum. Sie darf weder ganz noch teilweise vervielfältigt und nicht an Dritte weitergegeben werden.
 50
90.0
 41
0.8
  7
GREEKS
100
AcDbText
  0
LINE
  5
66C
102
{ACAD_REACTORS
330
B74
102
}
330
2
100
AcDbEntity
  8
STEMPEL
100
AcDbLine
 10
351.9479904216573
 20
452.5409929784387
 30
0.0
 11
351.9479904216573
 21
455.5409929784388
 31
0.0
  0
LINE
  5
66D
330
2
100
AcDbEntity
  8
HILF
100
AcDbLine
 10
351.4479904216572
 20
438.5409929784386
 30
0.0
 11
351.4479904216572
 21
451.1409929784386
 31
0.0
  0
LINE
  5
66E
330
2
100
AcDbEntity
  8
STEMPEL
100
AcDbLine
 10
350.4479904216572
 20
438.5409929784386
 30
0.0
 11
350.4479904216572
 21
450.4909929784385
 31
0.0
  0
LINE
  5
66F
102
{ACAD_REACTORS
330
B74
102
}
330
2
100
AcDbEntity
  8
STEMPEL
100
AcDbLine
 10
351.9479904216573
 20
441.5409929784388
 30
0.0
 11
351.9479904216573
 21
444.5409929784389
 31
0.0
  0
LINE
  5
670
102
{ACAD_REACTORS
330
B74
102
}
330
2
100
AcDbEntity
  8
STEMPEL
100
AcDbLine
 10
352.4479904216573
 20
441.5409929784388
 30
0.0
 11
351.9479904216572
 21
441.5409929784388
 31
0.0
  0
LINE
  5
671
102
{ACAD_REACTORS
330
B74
102
}
330
2
100
AcDbEntity
  8
STEMPEL
100
AcDbLine
 10
352.4479904216573
 20
438.5409929784388
 30
0.0
 11
352.4479904216573
 21
441.5409929784388
 31
0.0
  0
LINE
  5
672
102
{ACAD_REACTORS
330
B74
102
}
330
2
100
AcDbEntity
  8
STEMPEL
100
AcDbLine
 10
352.4479904216572
 20
452.5409929784387
 30
0.0
 11
351.9479904216573
 21
452.5409929784387
 31
0.0
  0
LINE
  5
673
102
{ACAD_REACTORS
330
B74
102
}
330
2
100
AcDbEntity
  8
STEMPEL
100
AcDbLine
 10
352.4479904216573
 20
444.5409929784389
 30
0.0
 11
351.9479904216573
 21
444.5409929784388
 31
0.0
  0
LINE
  5
674
102
{ACAD_REACTORS
330
B74
102
}
330
2
100
AcDbEntity
  8
STEMPEL
100
AcDbLine
 10
352.4479904216573
 20
444.5409929784388
 30
0.0
 11
352.4479904216571
 21
452.5409929784387
 31
0.0
  0
LINE
  5
675
102
{ACAD_REACTORS
330
B74
102
}
330
2
100
AcDbEntity
  8
STEMPEL
100
AcDbLine
 10
352.4479904216572
 20
455.5409929784387
 30
0.0
 11
351.9479904216573
 21
455.5409929784387
 31
0.0
  0
LINE
  5
676
102
{ACAD_REACTORS
330
B74
102
}
330
2
100
AcDbEntity
  8
STEMPEL
100
AcDbLine
 10
352.4479904216571
 20
455.5409929784387
 30
0.0
 11
352.4479904216572
 21
458.5409929784387
 31
0.0
  0
LINE
  5
679
102
{ACAD_REACTORS
330
B74
102
}
330
2
100
AcDbEntity
  8
STEMPEL
100
AcDbLine
 10
344.9479904216573
 20
452.5409929784387
 30
0.0
 11
344.9479904216573
 21
455.5409929784388
 31
0.0
  0
LINE
  5
67A
330
2
100
AcDbEntity
  8
HILF
100
AcDbLine
 10
345.4479904216572
 20
438.5409929784386
 30
0.0
 11
345.4479904216572
 21
451.1409929784386
 31
0.0
  0
LINE
  5
67B
330
2
100
AcDbEntity
  8
STEMPEL
100
AcDbLine
 10
346.4479904216572
 20
438.5409929784386
 30
0.0
 11
346.4479904216572
 21
450.4909929784385
 31
0.0
  0
LINE
  5
67C
102
{ACAD_REACTORS
330
B74
102
}
330
2
100
AcDbEntity
  8
STEMPEL
100
AcDbLine
 10
344.9479904216573
 20
441.5409929784387
 30
0.0
 11
344.9479904216573
 21
444.5409929784387
 31
0.0
  0
LINE
  5
67D
102
{ACAD_REACTORS
330
B74
102
}
330
2
100
AcDbEntity
  8
STEMPEL
100
AcDbLine
 10
344.9479904216573
 20
441.5409929784388
 30
0.0
 11
344.4479904216573
 21
441.5409929784388
 31
0.0
  0
LINE
  5
67E
102
{ACAD_REACTORS
330
B74
102
}
330
2
100
AcDbEntity
  8
STEMPEL
100
AcDbLine
 10
344.4479904216573
 20
438.5409929784388
 30
0.0
 11
344.4479904216573
 21
441.5409929784388
 31
0.0
  0
LINE
  5
67F
102
{ACAD_REACTORS
330
B74
102
}
330
2
100
AcDbEntity
  8
STEMPEL
100
AcDbLine
 10
344.9479904216573
 20
452.5409929784387
 30
0.0
 11
344.4479904216572
 21
452.5409929784387
 31
0.0
  0
LINE
  5
680
102
{ACAD_REACTORS
330
B74
102
}
330
2
100
AcDbEntity
  8
STEMPEL
100
AcDbLine
 10
344.9479904216573
 20
444.5409929784387
 30
0.0
 11
344.4479904216573
 21
444.5409929784387
 31
0.0
  0
LINE
  5
681
102
{ACAD_REACTORS
330
B74
102
}
330
2
100
AcDbEntity
  8
STEMPEL
100
AcDbLine
 10
344.4479904216573
 20
444.5409929784386
 30
0.0
 11
344.4479904216571
 21
452.5409929784387
 31
0.0
  0
LINE
  5
682
102
{ACAD_REACTORS
330
B74
102
}
330
2
100
AcDbEntity
  8
STEMPEL
100
AcDbLine
 10
344.9479904216573
 20
455.5409929784387
 30
0.0
 11
344.4479904216572
 21
455.5409929784387
 31
0.0
  0
LINE
  5
683
102
{ACAD_REACTORS
330
B74
102
}
330
2
100
AcDbEntity
  8
STEMPEL
100
AcDbLine
 10
344.4479904216571
 20
455.5409929784386
 30
0.0
 11
344.4479904216572
 21
458.5409929784387
 31
0.0
  0
HATCH
  5
6A8
330
2
100
AcDbEntity
  8
SCHRAFF
100
AcDbHatch
 10
0.0
 20
0.0
 30
0.0
210
0.0
220
0.0
230
1.0
  2
_USER
 70
     0
 71
     0
 91
        4
 92
        7
 72
     0
 73
     1
 93
       13
 10
352.4479904216573
 20
458.5409929784383
 10
351.4479904216572
 20
458.5409929784384
 10
351.4479904216575
 20
451.1409929784386
 10
351.4479904216573
 20
438.5409929784382
 10
352.4479904216573
 20
438.5409929784382
 10
352.4479904216573
 20
441.5409929784388
 10
351.9479904216573
 20
441.5409929784388
 10
351.9479904216573
 20
444.5409929784388
 10
352.4479904216573
 20
444.5409929784389
 10
352.4479904216571
 20
452.5409929784387
 10
351.9479904216573
 20
452.5409929784387
 10
351.9479904216573
 20
455.5409929784387
 10
352.4479904216572
 20
455.5409929784388
 97
        0
 92
        7
 72
     0
 73
     1
 93
        5
 10
351.4479904216571
 20
451.1409929784384
 10
350.7979904216573
 20
450.4909929784385
 10
350.4479904216572
 20
450.4909929784385
 10
350.4479904216572
 20
438.5409929784382
 10
351.4479904216571
 20
438.5409929784382
 97
        0
 92
        7
 72
     0
 73
     1
 93
        5
 10
346.4479904216572
 20
450.4909929784385
 10
346.0979904216571
 20
450.4909929784385
 10
345.4479904216572
 20
451.1409929784389
 10
345.4479904216573
 20
438.5409929784383
 10
346.4479904216572
 20
438.5409929784383
 97
        0
 92
        7
 72
     0
 73
     1
 93
       13
 10
345.4479904216572
 20
451.1409929784386
 10
345.4479904216571
 20
458.5409929784383
 10
344.4479904216572
 20
458.5409929784384
 10
344.4479904216571
 20
455.5409929784387
 10
344.9479904216573
 20
455.5409929784387
 10
344.9479904216573
 20
452.5409929784387
 10
344.4479904216571
 20
452.5409929784387
 10
344.4479904216573
 20
444.5409929784387
 10
344.9479904216573
 20
444.5409929784387
 10
344.9479904216573
 20
441.5409929784387
 10
344.4479904216573
 20
441.5409929784387
 10
344.4479904216573
 20
438.5409929784382
 10
345.4479904216572
 20
438.5409929784382
 97
        0
 75
     0
 76
     0
 52
135.0
 41
2.0
 77
     0
 78
     1
 53
135.0
 43
0.0
 44
24.16173769773968
 45
-1.414213562373095
 46
-1.414213562373094
 79
     0
 47
0.0720222516071515
 98
        4
 10
352.0538799544888
 20
456.5928414469301
 10
351.0448302065715
 20
445.1413038651853
 10
345.6392063622561
 20
448.4543276510103
 10
344.5580810480683
 20
449.75072747176
  0
LINE
  5
6E4
102
{ACAD_REACTORS
330
B43
102
}
330
2
100
AcDbEntity
  8
STEMPEL
100
AcDbLine
 10
82.99063110877648
 20
432.5409929784392
 30
0.0
 11
369.9053497345392
 21
432.5409929784381
 31
0.0
  0
TEXT
  5
6FB
330
2
100
AcDbEntity
  8
TEXT
 62
     1
100
AcDbText
 10
216.5534483049897
 20
280.7955975263787
 30
0.0
 40
7.0
  1
DN100
 50
90.0
 41
0.8
  7
GREEKS
 72
     1
 11
216.5534483049897
 21
293.1955975263787
 31
0.0
100
AcDbText
  0
LINE
  5
7A0
330
2
100
AcDbEntity
  8
TEXT
 62
     2
100
AcDbLine
 10
394.1850372842715
 20
524.1740561582083
 30
0.0
 11
335.9044203854131
 21
526.0099586706214
 31
0.0
  0
LINE
  5
7C8
330
2
100
AcDbEntity
  8
TEXT
 62
     2
100
AcDbLine
 10
394.1850372842715
 20
418.229095292254
 30
0.0
 11
394.1850372842715
 21
524.1740561582083
 31
0.0
  0
TEXT
  5
7C9
330
2
100
AcDbEntity
  8
TEXT
 62
     1
100
AcDbText
 10
390.805131867375
 20
420.3428242832317
 30
0.0
 40
7.0
  1
Drainjethaube
 50
90.0
 41
0.8
  7
GREEKS
100
AcDbText
  0
TEXT
  5
7CA
330
2
100
AcDbEntity
  8
TEXT
 62
     1
100
AcDbText
 10
402.8640144325439
 20
420.3428242832317
 30
0.0
 40
7.0
  1
EDV-Art.Nr. 21015.000X
 50
90.0
 41
0.8
  7
GREEKS
100
AcDbText
  0
LINE
  5
7E1
330
2
100
AcDbEntity
  8
TEXT
 62
     2
100
AcDbLine
 10
403.6609797572033
 20
223.9173040617867
 30
0.0
 11
297.7224151820702
 21
223.9173040617867
 31
0.0
  0
TEXT
  5
7E2
330
2
100
AcDbEntity
  8
TEXT
 62
     1
100
AcDbText
 10
298.3177710608246
 20
227.4011382226972
 30
0.0
 40
7.0
  1
Ablaufkörper DN100
 41
0.8
100
AcDbText
  0
TEXT
  5
7E3
330
2
100
AcDbEntity
  8
TEXT
 62
     1
100
AcDbText
 10
298.3177710608246
 20
214.6248072539876
 30
0.0
 40
7.0
  1
EDV-Art.Nr. 21976.100X
 41
0.8
100
AcDbText
  0
LINE
  5
7E4
330
2
100
AcDbEntity
  8
TEXT
 62
     2
100
AcDbLine
 10
297.7224151820702
 20
223.9173040617867
 30
0.0
 11
276.9294151785331
 21
210.5875987500044
 31
0.0
  0
TEXT
  5
7F3
330
2
100
AcDbEntity
  8
TEXT
 62
     1
100
AcDbText
 10
309.9558056417595
 20
271.7233555059875
 30
0.0
 40
7.0
  1
EDV-Art.Nr. 21905.100X
 50
90.0
 41
0.8
100
AcDbText
  0
LINE
  5
7F4
330
2
100
AcDbEntity
  8
TEXT
 62
     2
100
AcDbLine
 10
300.6633088339604
 20
377.0665642023662
 30
0.0
 11
300.6633088339604
 21
271.1279996272331
 31
0.0
  0
TEXT
  5
7F5
330
2
100
AcDbEntity
  8
TEXT
 62
     1
100
AcDbText
 10
297.17947467305
 20
272.0422713480053
 30
0.0
 40
7.0
  1
Losflansch DN100
 50
90.0
 41
0.8
100
AcDbText
  0
LINE
  5
7F6
102
{ACAD_REACTORS
330
B43
330
B74
102
}
330
2
100
AcDbEntity
  8
TEXT
 62
     2
100
AcDbLine
 10
300.6633088339604
 20
377.0665642023662
 30
0.0
 11
309.1390633141209
 21
443.188377201591
 31
0.0
  0
LINE
  5
7FA
330
2
100
AcDbEntity
  8
TEXT
 62
     2
100
AcDbLine
 10
347.3359077087808
 20
373.2253186789764
 30
0.0
 11
336.8694006266957
 21
434.3026772544755
 31
0.0
  0
TEXT
  5
804
330
2
100
AcDbEntity
  8
TEXT
 62
     1
100
AcDbText
 10
344.3493672167277
 20
262.5023169688132
 30
0.0
 40
7.0
  1
Kompressionsdichtung
 50
90.0
 41
0.8
100
AcDbText
  0
TEXT
  5
805
330
2
100
AcDbEntity
  8
TEXT
 62
     1
100
AcDbText
 10
357.8873805217761
 20
262.8582759716499
 30
0.0
 40
7.0
  1
EDV-Art.Nr. 21810.125X
 50
90.0
 41
0.8
100
AcDbText
  0
LINE
  5
806
330
2
100
AcDbEntity
  8
TEXT
 62
     2
100
AcDbLine
 10
347.3359077087808
 20
261.6955773445736
 30
0.0
 11
347.3359077087808
 21
373.2253186789764
 31
0.0
  0
TEXT
  5
843
330
2
100
AcDbEntity
  8
TEXT
 62
     1
100
AcDbText
 10
216.5534483049896
 20
280.7955975263785
 30
0.0
 40
7.0
  1
DN100
 50
90.0
 41
0.8
  7
GREEKS
 72
     1
 11
216.5534483049896
 21
293.1955975263784
 31
0.0
100
AcDbText
  0
LINE
  5
8D8
330
2
100
AcDbEntity
  8
STEMPEL
100
AcDbLine
 10
376.4479904216572
 20
427.6552065408123
 30
0.0
 11
372.7337768592853
 21
431.3694201031843
 31
0.0
  0
LINE
  5
8D9
330
2
100
AcDbEntity
  8
STEMPEL
100
AcDbLine
 10
376.4479904216572
 20
427.6552065408123
 30
0.0
 11
374.3266700780977
 21
425.5338861972525
 31
0.0
  0
ARC
  5
8DA
330
2
100
AcDbEntity
  8
STEMPEL
100
AcDbCircle
 10
369.9053497345391
 20
428.5409929784379
 30
0.0
 40
1.0
100
AcDbArc
 50
45.0
 51
90.0
  0
LINE
  5
8DB
330
2
100
AcDbEntity
  8
STEMPEL
100
AcDbLine
 10
374.3266700780977
 20
425.5338861972525
 30
0.0
 11
370.6124565157256
 21
429.2480997596245
 31
0.0
  0
ARC
  5
8DC
330
2
100
AcDbEntity
  8
STEMPEL
100
AcDbCircle
 10
369.9053497345391
 20
428.5409929784381
 30
0.0
 40
4.0
100
AcDbArc
 50
45.0
 51
90.0
  0
ARC
  5
8DD
330
2
100
AcDbEntity
  8
STEMPEL
100
AcDbCircle
 10
300.7408836404703
 20
427.5409929784387
 30
0.0
 40
2.0
100
AcDbArc
 50
90.0
 51
134.9999999999988
  0
LINE
  5
8DE
102
{ACAD_REACTORS
330
A10
102
}
330
2
100
AcDbEntity
  8
STEMPEL
100
AcDbLine
 10
285.6979904216571
 20
419.5691675714918
 30
0.0
 11
287.8193107652166
 21
417.4478472279323
 31
0.0
  0
ARC
  5
8DF
330
2
100
AcDbEntity
  8
SCHRAFF
100
AcDbCircle
 10
284.9479904216572
 20
418.8191675714919
 30
0.0
 40
4.0
100
AcDbArc
 50
247.0243128370403
 51
356.4096221092662
  0
ARC
  5
8E0
102
{ACAD_REACTORS
330
A10
102
}
330
2
100
AcDbEntity
  8
STEMPEL
100
AcDbCircle
 10
282.9479904216573
 20
407.6267794160673
 30
0.0
 40
6.5
100
AcDbArc
 50
134.9999999999988
 51
180.0
  0
ARC
  5
8E1
102
{ACAD_REACTORS
330
A10
102
}
330
2
100
AcDbEntity
  8
STEMPEL
100
AcDbCircle
 10
282.9479904216571
 20
407.6267794160673
 30
0.0
 40
5.0
100
AcDbArc
 50
134.9999999999988
 51
180.0
  0
LINE
  5
8E2
102
{ACAD_REACTORS
330
A10
102
}
330
2
100
AcDbEntity
  8
STEMPEL
100
AcDbLine
 10
286.7586505934371
 20
418.5085073997121
 30
0.0
 11
279.4124565157245
 21
411.1623133220002
 31
0.0
  0
LINE
  5
8E3
102
{ACAD_REACTORS
330
A10
102
}
330
2
100
AcDbEntity
  8
STEMPEL
100
AcDbLine
 10
297.2053497345378
 20
431.0765268843717
 30
0.0
 11
278.3517963439449
 21
412.2229734937802
 31
0.0
  0
ARC
  5
8E4
330
2
100
AcDbEntity
  8
STEMPEL
100
AcDbCircle
 10
300.7408836404703
 20
427.5409929784387
 30
0.0
 40
5.0
100
AcDbArc
 50
90.0
 51
134.9999999999988
  0
LINE
  5
8E5
330
2
100
AcDbEntity
  8
STEMPEL
100
AcDbLine
 10
299.3266700780973
 20
428.9552065408119
 30
0.0
 11
287.8193107652166
 21
417.4478472279323
 31
0.0
  0
LINE
  5
8E6
330
2
100
AcDbEntity
  8
STEMPEL
100
AcDbLine
 10
300.7408836404703
 20
429.5409929784385
 30
0.0
 11
369.9053497345391
 21
429.540992978438
 31
0.0
  0
LINE
  5
8E7
330
2
100
AcDbEntity
  8
STEMPEL
100
AcDbLine
 10
295.9124565157235
 20
425.5409929784383
 30
0.0
 11
374.3337768592831
 21
425.5409929784381
 31
0.0
  0
LINE
  5
8E8
102
{ACAD_REACTORS
330
A10
102
}
330
2
100
AcDbEntity
  8
STEMPEL
100
AcDbLine
 10
276.4479904216572
 20
130.519162506985
 30
0.0
 11
275.7499910322214
 21
122.5409929784387
 31
0.0
  0
LINE
  5
8E9
102
{ACAD_REACTORS
330
A10
102
}
330
2
100
AcDbEntity
  8
STEMPEL
100
AcDbLine
 10
277.9479904216572
 20
130.4536710926218
 30
0.0
 11
277.2557207885364
 21
122.5409929784387
 31
0.0
  0
LINE
  5
8EA
102
{ACAD_REACTORS
330
A10
102
}
330
2
100
AcDbEntity
  8
STEMPEL
100
AcDbLine
 10
276.4479904216573
 20
407.6267794160673
 30
0.0
 11
276.4479904216572
 21
130.519162506985
 31
0.0
  0
LINE
  5
8EB
102
{ACAD_REACTORS
330
A10
102
}
330
2
100
AcDbEntity
  8
STEMPEL
100
AcDbLine
 10
277.9479904216571
 20
407.6267794160673
 30
0.0
 11
277.9479904216572
 21
130.4536710926218
 31
0.0
  0
ARC
  5
8EC
102
{ACAD_REACTORS
330
A10
102
}
330
2
100
AcDbEntity
  8
STEMPEL
100
AcDbCircle
 10
169.9479904216573
 20
407.6267794160673
 30
0.0
 40
5.0
100
AcDbArc
 50
0.0
 51
45.00000000000115
  0
ARC
  5
8ED
102
{ACAD_REACTORS
330
A10
102
}
330
2
100
AcDbEntity
  8
STEMPEL
100
AcDbCircle
 10
169.947990421657
 20
407.6267794160673
 30
0.0
 40
6.5
100
AcDbArc
 50
0.0
 51
45.00000000000115
  0
ARC
  5
8EE
330
2
100
AcDbEntity
  8
STEMPEL
100
AcDbCircle
 10
152.1550972028439
 20
427.5409929784387
 30
0.0
 40
2.0
100
AcDbArc
 50
45.00000000000115
 51
90.0
  0
ARC
  5
8EF
330
2
100
AcDbEntity
  8
STEMPEL
100
AcDbCircle
 10
152.1550972028439
 20
427.5409929784387
 30
0.0
 40
5.0
100
AcDbArc
 50
45.00000000000115
 51
90.0
  0
LINE
  5
8F0
102
{ACAD_REACTORS
330
A10
102
}
330
2
100
AcDbEntity
  8
STEMPEL
100
AcDbLine
 10
167.1979904216573
 20
419.5691675714918
 30
0.0
 11
165.0766700780974
 21
417.4478472279321
 31
0.0
  0
LINE
  5
8F1
330
2
100
AcDbEntity
  8
STEMPEL
100
AcDbLine
 10
153.569310765217
 20
428.9552065408119
 30
0.0
 11
165.0766700780974
 21
417.4478472279321
 31
0.0
  0
LINE
  5
8F2
102
{ACAD_REACTORS
330
A10
102
}
330
2
100
AcDbEntity
  8
STEMPEL
100
AcDbLine
 10
155.6906311087766
 20
431.0765268843717
 30
0.0
 11
174.5441844993696
 21
412.22297349378
 31
0.0
  0
LINE
  5
8F3
102
{ACAD_REACTORS
330
A10
102
}
330
2
100
AcDbEntity
  8
STEMPEL
100
AcDbLine
 10
166.1373302498775
 20
418.5085073997121
 30
0.0
 11
173.4835243275898
 21
411.1623133220002
 31
0.0
  0
ARC
  5
8F4
330
2
100
AcDbEntity
  8
SCHRAFF
100
AcDbCircle
 10
167.9479904216573
 20
418.8191675714919
 30
0.0
 40
4.0
100
AcDbArc
 50
183.5903778907337
 51
292.9756871629596
  0
ARC
  5
8F5
330
2
100
AcDbEntity
  8
STEMPEL
100
AcDbCircle
 10
82.99063110877616
 20
428.5409929784392
 30
0.0
 40
1.0
100
AcDbArc
 50
90.0
 51
135.0
  0
LINE
  5
8F6
330
2
100
AcDbEntity
  8
STEMPEL
100
AcDbLine
 10
78.56931076521684
 20
425.5338861972525
 30
0.0
 11
82.28352432758956
 21
429.2480997596256
 31
0.0
  0
ARC
  5
8F7
330
2
100
AcDbEntity
  8
STEMPEL
100
AcDbCircle
 10
82.99063110877634
 20
428.5409929784392
 30
0.0
 40
4.0
100
AcDbArc
 50
90.0
 51
135.0
  0
LINE
  5
8F8
330
2
100
AcDbEntity
  8
STEMPEL
100
AcDbLine
 10
76.44799042165718
 20
427.6552065408123
 30
0.0
 11
80.16220398403019
 21
431.3694201031854
 31
0.0
  0
LINE
  5
8F9
330
2
100
AcDbEntity
  8
STEMPEL
100
AcDbLine
 10
76.44799042165718
 20
427.6552065408123
 30
0.0
 11
78.56931076521684
 21
425.5338861972525
 31
0.0
  0
LINE
  5
8FA
330
2
100
AcDbEntity
  8
STEMPEL
100
AcDbLine
 10
82.99063110877616
 20
429.5409929784391
 30
0.0
 11
152.1550972028439
 21
429.540992978439
 31
0.0
  0
LINE
  5
8FB
330
2
100
AcDbEntity
  8
STEMPEL
100
AcDbLine
 10
78.56220398403024
 20
425.5409929784391
 30
0.0
 11
156.9835243275903
 21
425.5409929784388
 31
0.0
  0
LINE
  5
8FC
102
{ACAD_REACTORS
330
A10
102
}
330
2
100
AcDbEntity
  8
STEMPEL
100
AcDbLine
 10
176.447990421657
 20
130.5191625069851
 30
0.0
 11
177.1459898110929
 21
122.5409929784391
 31
0.0
  0
LINE
  5
8FD
102
{ACAD_REACTORS
330
A10
102
}
330
2
100
AcDbEntity
  8
STEMPEL
100
AcDbLine
 10
174.947990421657
 20
130.4536710926226
 30
0.0
 11
175.6402600547778
 21
122.5409929784391
 31
0.0
  0
LINE
  5
8FE
102
{ACAD_REACTORS
330
A10
102
}
330
2
100
AcDbEntity
  8
STEMPEL
100
AcDbLine
 10
176.4479904216571
 20
407.6267794160673
 30
0.0
 11
176.447990421657
 21
130.5191625069851
 31
0.0
  0
LINE
  5
8FF
102
{ACAD_REACTORS
330
A10
102
}
330
2
100
AcDbEntity
  8
STEMPEL
100
AcDbLine
 10
174.9479904216573
 20
407.6267794160673
 30
0.0
 11
174.947990421657
 21
130.4536710926226
 31
0.0
  0
LINE
  5
901
330
2
100
AcDbEntity
  8
HILF
100
AcDbLine
 10
178.4518102592005
 20
130.5409929784392
 30
0.0
 11
274.4441705841139
 21
130.5409929784389
 31
0.0
  0
LINE
  5
902
102
{ACAD_REACTORS
330
A10
102
}
330
2
100
AcDbEntity
  8
STEMPEL
100
AcDbLine
 10
175.6402600547778
 20
122.5409929784391
 30
0.0
 11
277.2557207885364
 21
122.5409929784387
 31
0.0
  0
LINE
  5
904
330
2
100
AcDbEntity
  8
HILF
100
AcDbLine
 10
177.5514521827608
 20
410.1142217264406
 30
0.0
 11
275.3445286605536
 21
410.1142217264406
 31
0.0
  0
LINE
  5
905
330
2
100
AcDbEntity
  8
STEMPEL
100
AcDbLine
 10
167.1979904216573
 20
419.569167571492
 30
0.0
 11
284.1979904216572
 21
419.5691675714921
 31
0.0
  0
HATCH
  5
907
330
2
100
AcDbEntity
  8
SCHRAFF
100
AcDbHatch
 10
0.0
 20
0.0
 30
0.0
210
0.0
220
0.0
230
1.0
  2
ANSI31
 70
     0
 71
     0
 91
        2
 92
        7
 72
     1
 73
     1
 93
        4
 10
166.1373302498774
 20
418.5085073997121
 42
0.0
 10
165.0766700780974
 20
417.4478472279321
 42
0.0
 10
163.9558413847107
 20
418.5686759213187
 42
0.5171628801835995
 10
169.509352370303
 20
415.1364852792868
 42
0.0
 97
        0
 92
        7
 72
     1
 73
     1
 93
        4
 10
288.9401394586039
 20
418.5686759213194
 42
0.0
 10
287.8193107652166
 20
417.4478472279323
 42
0.0
 10
286.758650593437
 20
418.5085073997121
 42
0.0
 10
283.3866284730115
 20
415.1364852792868
 42
0.5171628801836321
 97
        0
 75
     0
 76
     1
 52
0.0
 41
0.25
 77
     0
 78
     1
 53
45.0
 43
-10.8510738927263
 44
-9.481921075393643
 45
-0.0220970869120796
 46
0.0220970869120796
 79
     0
 47
0.3005004562705639
 98
        2
 10
166.9241468419826
 20
415.9666293048802
 10
285.416057710864
 20
416.2671303373043
  0
HATCH
  5
908
330
2
100
AcDbEntity
  8
SCHRAFF
100
AcDbHatch
 10
0.0
 20
0.0
 30
0.0
210
0.0
220
0.0
230
1.0
  2
_USER
 70
     0
 71
     0
 91
        2
 92
        7
 72
     1
 73
     1
 93
       13
 10
369.9053497345391
 20
429.540992978438
 42
-0.1989123673796548
 10
370.6124565157256
 20
429.2480997596245
 42
0.0
 10
374.3195632969122
 20
425.5409929784381
 42
0.0
 10
374.3337768592831
 20
425.540992978438
 42
0.0
 10
376.4479904216572
 20
427.6552065408123
 42
0.0
 10
372.7337768592853
 20
431.3694201031843
 42
0.1989123673796622
 10
369.9053497345391
 20
432.5409929784381
 42
0.0
 10
300.7408836404703
 20
432.5409929784384
 42
0.1989123673796663
 10
297.2053497345373
 20
431.0765268843712
 42
0.0
 10
285.6979904216571
 20
419.5691675714919
 42
0.0
 10
287.8193107652166
 20
417.4478472279323
 42
0.0
 10
299.3266700780973
 20
428.9552065408119
 42
-0.198912367379648
 10
300.7408836404704
 20
429.5409929784385
 42
0.0
 97
        0
 92
        7
 72
     1
 73
     1
 93
       13
 10
152.1550972028439
 20
429.540992978439
 42
-0.1989123673796202
 10
153.5693107652168
 20
428.9552065408122
 42
0.0
 10
165.0766700780974
 20
417.4478472279322
 42
0.0
 10
167.1979904216572
 20
419.5691675714918
 42
0.0
 10
155.6906311087766
 20
431.0765268843717
 42
0.1989123673796496
 10
152.155097202844
 20
432.5409929784389
 42
0.0
 10
82.99063110877638
 20
432.5409929784392
 42
0.1989123673796586
 10
80.16220398403019
 20
431.3694201031854
 42
0.0
 10
76.44799042165715
 20
427.6552065408123
 42
0.0
 10
78.56220398403038
 20
425.540992978439
 42
0.0
 10
78.57641754640329
 20
425.540992978439
 42
0.0
 10
82.28352432758956
 20
429.2480997596256
 42
-0.1989123673796765
 10
82.99063110877616
 20
429.5409929784391
 42
0.0
 97
        0
 75
     0
 76
     0
 52
45.0
 41
2.0
 77
     0
 78
     1
 53
45.0
 43
-9.704208882147696
 44
-10.69861118187657
 45
-1.414213562373094
 46
1.414213562373095
 79
     0
 47
0.3986818600869664
 98
        2
 10
308.4524750699575
 20
430.7880771988667
 10
146.0701038677325
 20
430.7880771988667
  0
HATCH
  5
95F
330
2
100
AcDbEntity
  8
SCHRAFF
100
AcDbHatch
 10
0.0
 20
0.0
 30
0.0
210
0.0
220
0.0
230
1.0
  2
HONEY
 70
     0
 71
     0
 91
        2
 92
        7
 72
     1
 73
     1
 93
        7
 10
230.4479904216575
 20
547.5409929784396
 42
0.0
 10
230.4479904216573
 20
525.5409929784396
 42
0.0
 10
335.4479904216574
 20
525.5409929784398
 42
0.0
 10
335.4479904216574
 20
528.5409350111242
 42
0.2667503951500763
 10
332.9673439897844
 20
532.8598304253206
 42
0.0
 10
308.9461373137542
 20
546.8721893611386
 42
0.1315436689467474
 10
306.4479904216576
 20
547.5409929784397
 42
0.0
 97
        0
 92
        7
 72
     1
 73
     1
 93
        7
 10
146.4479904216573
 20
547.5409929784393
 42
0.1315436689462666
 10
143.949843529571
 20
546.8721893611445
 42
0.0
 10
119.9286368535303
 20
532.8598304253205
 42
0.266750395150088
 10
117.4479904216574
 20
528.5409350111242
 42
0.0
 10
117.4479904216574
 20
525.5409929784392
 42
0.0
 10
222.4479904216575
 20
525.5409929784396
 42
0.0
 10
222.4479904216574
 20
547.5409929784396
 42
0.0
 97
        0
 75
     0
 76
     1
 52
0.0
 41
30.0
 77
     0
 78
     3
 53
0.0
 43
-11.99548113301773
 44
71.91589227574263
 45
5.625
 46
3.247595249999999
 79
     2
 49
3.75
 49
-7.5
 53
120.0
 43
-11.99548113301773
 44
71.91589227574263
 45
-5.624999987709673
 46
3.247595271287468
 79
     2
 49
3.749999999999998
 49
-7.499999999999997
 53
60.0
 43
-11.99548113301773
 44
71.91589227574263
 45
0.0000000122903263
 46
6.495190521287468
 79
     2
 49
-7.5
 49
3.75
 47
0.3214602750441732
 98
        2
 10
257.9653497314424
 20
538.8888820572535
 10
197.1764029410159
 20
538.8888820572535
  0
HATCH
  5
960
330
2
100
AcDbEntity
  8
SCHRAFF
100
AcDbHatch
 10
0.0
 20
0.0
 30
0.0
210
0.0
220
0.0
230
1.0
  2
_USER
 70
     0
 71
     1
 91
        2
 92
        7
 72
     0
 73
     1
 93
        4
 10
333.1979904216573
 20
525.5409929784398
 10
231.1979904216574
 20
525.5409929784397
 10
231.1979904216574
 20
523.5409929784395
 10
333.1979904216574
 20
523.5409929784398
 97
        4
330
978
330
979
330
98D
330
98A
 92
        7
 72
     0
 73
     1
 93
        4
 10
221.6979904216573
 20
525.5409929784394
 10
119.6979904216574
 20
525.5409929784393
 10
119.6979904216574
 20
523.5409929784394
 10
221.6979904216573
 20
523.5409929784395
 97
        4
330
98C
330
98B
330
98D
330
97A
 75
     0
 76
     0
 52
135.0
 41
2.0
 77
     0
 78
     1
 53
135.0
 43
-11.99548113301773
 44
49.7683091099318
 45
-1.414213562373095
 46
-1.414213562373094
 79
     0
 47
0.2882846600731254
 98
        2
 10
274.4528433545614
 20
525.9692682409577
 10
210.4189362860819
 20
525.9692682409577
  0
ARC
  5
961
330
2
100
AcDbEntity
  8
STEMPEL
100
AcDbCircle
 10
219.9479904216573
 20
515.1251895747249
 30
0.0
 40
0.5
100
AcDbArc
 50
0.0
 51
71.12924595933046
  0
ARC
  5
962
330
2
100
AcDbEntity
  8
STEMPEL
100
AcDbCircle
 10
232.9479904216573
 20
515.1251895747248
 30
0.0
 40
0.5
100
AcDbArc
 50
108.8707540406695
 51
180.0
  0
LINE
  5
963
330
2
100
AcDbEntity
  8
STEMPEL
100
AcDbLine
 10
220.4479904216573
 20
515.1251895747249
 30
0.0
 11
220.4479904216573
 21
512.9409929784393
 31
0.0
  0
LINE
  5
964
330
2
100
AcDbEntity
  8
STEMPEL
100
AcDbLine
 10
232.4479904216573
 20
515.1251895747248
 30
0.0
 11
232.4479904216573
 21
512.9409929784394
 31
0.0
  0
LINE
  5
965
330
2
100
AcDbEntity
  8
STEMPEL
100
AcDbLine
 10
220.4479904216573
 20
512.9409929784393
 30
0.0
 11
232.4479904216573
 21
512.9409929784394
 31
0.0
  0
LINE
  5
966
330
2
100
AcDbEntity
  8
STEMPEL
100
AcDbLine
 10
233.6367983764734
 20
521.3550677893729
 30
0.0
 11
233.2375994798766
 21
521.5855453797831
 31
0.0
  0
LINE
  5
967
330
2
100
AcDbEntity
  8
STEMPEL
100
AcDbLine
 10
231.8344411464162
 20
521.9409929784394
 30
0.0
 11
231.839070616463
 21
521.9409929784394
 31
0.0
  0
LINE
  5
968
330
2
100
AcDbEntity
  8
STEMPEL
100
AcDbLine
 10
233.6367983764734
 20
516.026918167506
 30
0.0
 11
233.2375994798766
 21
515.7964405770956
 31
0.0
  0
LINE
  5
969
330
2
100
AcDbEntity
  8
STEMPEL
100
AcDbLine
 10
231.8344411464162
 20
515.4409929784393
 30
0.0
 11
231.839070616463
 21
515.4409929784393
 31
0.0
  0
LINE
  5
96A
330
2
100
AcDbEntity
  8
STEMPEL
100
AcDbLine
 10
233.6367983764734
 20
521.3550677893729
 30
0.0
 11
233.6367983764734
 21
516.026918167506
 31
0.0
  0
LINE
  5
96B
330
2
100
AcDbEntity
  8
STEMPEL
100
AcDbLine
 10
230.0423943990654
 20
521.3242600131693
 30
0.0
 11
230.0423943990654
 21
516.0577259437093
 31
0.0
  0
LINE
  5
96C
330
2
100
AcDbEntity
  8
STEMPEL
100
AcDbLine
 10
222.8535864442494
 20
521.3242600131693
 30
0.0
 11
222.8535864442494
 21
516.0577259437093
 31
0.0
  0
ARC
  5
96D
330
2
100
AcDbEntity
  8
STEMPEL
100
AcDbCircle
 10
226.4479904216574
 20
526.2236981784393
 30
0.0
 40
10.7827052
100
AcDbArc
 50
250.5278273813848
 51
289.4721726186153
  0
ARC
  5
96E
330
2
100
AcDbEntity
  8
STEMPEL
100
AcDbCircle
 10
226.4479904216574
 20
511.1582877784394
 30
0.0
 40
10.7827052
100
AcDbArc
 50
70.52782738138472
 51
109.4721726186152
  0
ARC
  5
96F
330
2
100
AcDbEntity
  8
STEMPEL
100
AcDbCircle
 10
231.8395963877694
 20
518.3679439163029
 30
0.0
 40
2.926950985085932
100
AcDbArc
 50
232.1193642828198
 51
301.469194524079
  0
ARC
  5
970
330
2
100
AcDbEntity
  8
STEMPEL
100
AcDbCircle
 10
231.8395963877694
 20
519.014042040576
 30
0.0
 40
2.926950985085932
100
AcDbArc
 50
58.53080547592095
 51
127.8806357171802
  0
LINE
  5
971
330
2
100
AcDbEntity
  8
STEMPEL
100
AcDbLine
 10
219.2591824668414
 20
521.3550677893729
 30
0.0
 11
219.6583813634381
 21
521.5855453797831
 31
0.0
  0
LINE
  5
972
330
2
100
AcDbEntity
  8
STEMPEL
100
AcDbLine
 10
219.2591824668414
 20
516.026918167506
 30
0.0
 11
219.6583813634381
 21
515.7964405770956
 31
0.0
  0
LINE
  5
973
330
2
100
AcDbEntity
  8
STEMPEL
100
AcDbLine
 10
219.2591824668414
 20
521.3550677893729
 30
0.0
 11
219.2591824668414
 21
516.026918167506
 31
0.0
  0
LINE
  5
974
330
2
100
AcDbEntity
  8
STEMPEL
100
AcDbLine
 10
221.056910226832
 20
515.4409929784394
 30
0.0
 11
231.8390706164734
 21
515.4409929784393
 31
0.0
  0
ARC
  5
975
330
2
100
AcDbEntity
  8
STEMPEL
100
AcDbCircle
 10
221.0563844555454
 20
518.3679439163029
 30
0.0
 40
2.926950985085932
100
AcDbArc
 50
238.530805475921
 51
307.8806357171803
  0
LINE
  5
976
330
2
100
AcDbEntity
  8
STEMPEL
100
AcDbLine
 10
221.056910226832
 20
521.9409929784394
 30
0.0
 11
231.8390706164734
 21
521.9409929784394
 31
0.0
  0
ARC
  5
977
330
2
100
AcDbEntity
  8
STEMPEL
100
AcDbCircle
 10
221.0563844555454
 20
519.014042040576
 30
0.0
 40
2.926950985085932
100
AcDbArc
 50
52.11936428281976
 51
121.469194524079
  0
LINE
  5
978
102
{ACAD_REACTORS
330
960
102
}
330
2
100
AcDbEntity
  8
STEMPEL
100
AcDbLine
 10
230.4479904216574
 20
525.5409929784396
 30
0.0
 11
335.4479904216574
 21
525.5409929784398
 31
0.0
  0
LINE
  5
979
102
{ACAD_REACTORS
330
960
102
}
330
2
100
AcDbEntity
  8
STEMPEL
100
AcDbLine
 10
231.1979904216574
 20
525.5409929784396
 30
0.0
 11
231.1979904216574
 21
523.5409929784395
 31
0.0
  0
LINE
  5
97A
102
{ACAD_REACTORS
330
960
102
}
330
2
100
AcDbEntity
  8
STEMPEL
100
AcDbLine
 10
221.6979904216573
 20
525.5409929784394
 30
0.0
 11
221.6979904216573
 21
523.5409929784395
 31
0.0
  0
LINE
  5
97B
330
2
100
AcDbEntity
  8
STEMPEL
100
AcDbLine
 10
222.4479904216574
 20
512.9409929784392
 30
0.0
 11
222.4479904216575
 21
508.5409929784396
 31
0.0
  0
LINE
  5
97C
330
2
100
AcDbEntity
  8
HILF
100
AcDbLine
 10
223.4479904216574
 20
512.9409929784392
 30
0.0
 11
223.4479904216574
 21
507.5409929784396
 31
0.0
  0
LINE
  5
97D
330
2
100
AcDbEntity
  8
HILF
100
AcDbLine
 10
229.4479904216573
 20
512.9409929784392
 30
0.0
 11
229.4479904216573
 21
507.5409929784395
 31
0.0
  0
LINE
  5
97E
330
2
100
AcDbEntity
  8
STEMPEL
100
AcDbLine
 10
230.4479904216573
 20
512.9409929784392
 30
0.0
 11
230.4479904216573
 21
508.5409929784396
 31
0.0
  0
LINE
  5
97F
330
2
100
AcDbEntity
  8
STEMPEL
100
AcDbLine
 10
234.4479904216573
 20
523.5409929784395
 30
0.0
 11
234.4479904216573
 21
521.9409929784395
 31
0.0
  0
LINE
  5
980
330
2
100
AcDbEntity
  8
STEMPEL
100
AcDbLine
 10
218.4479904216573
 20
523.5409929784395
 30
0.0
 11
218.4479904216574
 21
521.9409929784394
 31
0.0
  0
LINE
  5
981
330
2
100
AcDbEntity
  8
STEMPEL
100
AcDbLine
 10
218.4479904216574
 20
521.9409929784394
 30
0.0
 11
234.4479904216573
 21
521.9409929784394
 31
0.0
  0
LINE
  5
982
330
2
100
AcDbEntity
  8
STEMPEL
100
AcDbLine
 10
222.4479904216574
 20
508.5409929784396
 30
0.0
 11
223.4479904216574
 21
507.5409929784396
 31
0.0
  0
LINE
  5
983
330
2
100
AcDbEntity
  8
STEMPEL
100
AcDbLine
 10
230.4479904216573
 20
508.5409929784396
 30
0.0
 11
229.4479904216573
 21
507.5409929784395
 31
0.0
  0
LINE
  5
984
330
2
100
AcDbEntity
  8
HILF
100
AcDbLine
 10
223.4479904216574
 20
547.5409929784393
 30
0.0
 11
223.4479904216573
 21
523.5409929784395
 31
0.0
  0
LINE
  5
985
330
2
100
AcDbEntity
  8
HILF
100
AcDbLine
 10
229.4479904216574
 20
547.5409929784395
 30
0.0
 11
229.4479904216573
 21
523.5409929784395
 31
0.0
  0
LINE
  5
986
330
2
100
AcDbEntity
  8
STEMPEL
100
AcDbLine
 10
222.4479904216574
 20
508.5409929784396
 30
0.0
 11
230.4479904216573
 21
508.5409929784396
 31
0.0
  0
LINE
  5
987
330
2
100
AcDbEntity
  8
STEMPEL
100
AcDbLine
 10
223.4479904216574
 20
507.5409929784396
 30
0.0
 11
229.4479904216573
 21
507.5409929784395
 31
0.0
  0
LINE
  5
988
330
2
100
AcDbEntity
  8
STEMPEL
100
AcDbLine
 10
230.4479904216574
 20
547.5409929784395
 30
0.0
 11
230.4479904216573
 21
523.5409929784395
 31
0.0
  0
LINE
  5
989
330
2
100
AcDbEntity
  8
STEMPEL
100
AcDbLine
 10
222.4479904216575
 20
547.5409929784393
 30
0.0
 11
222.4479904216575
 21
523.5409929784395
 31
0.0
  0
LINE
  5
98A
102
{ACAD_REACTORS
330
960
102
}
330
2
100
AcDbEntity
  8
STEMPEL
100
AcDbLine
 10
333.1979904216573
 20
525.5409929784398
 30
0.0
 11
333.1979904216573
 21
523.5409929784398
 31
0.0
  0
LINE
  5
98B
102
{ACAD_REACTORS
330
960
102
}
330
2
100
AcDbEntity
  8
STEMPEL
100
AcDbLine
 10
119.6979904216574
 20
525.5409929784391
 30
0.0
 11
119.6979904216574
 21
523.5409929784394
 31
0.0
  0
LINE
  5
98C
102
{ACAD_REACTORS
330
960
102
}
330
2
100
AcDbEntity
  8
STEMPEL
100
AcDbLine
 10
117.4479904216574
 20
525.5409929784392
 30
0.0
 11
222.4479904216574
 21
525.5409929784396
 31
0.0
  0
LINE
  5
98D
102
{ACAD_REACTORS
330
960
102
}
330
2
100
AcDbEntity
  8
STEMPEL
100
AcDbLine
 10
119.6979904216574
 20
523.5409929784394
 30
0.0
 11
333.1979904216574
 21
523.5409929784398
 31
0.0
  0
DIMENSION
  5
9E3
330
2
100
AcDbEntity
  8
BEM
100
AcDbDimension
  2
*D5
 10
174.947990421657
 20
153.3074233625634
 30
0.0
 11
226.4479904216571
 21
159.8074233625634
 31
0.0
 70
    32
  1
%%c<>
 71
     5
 42
103.0000000000001
  3
STANDARD
100
AcDbAlignedDimension
 13
277.9479904216572
 23
130.4536710926218
 33
0.0
 14
174.947990421657
 24
130.4536710926226
 34
0.0
100
AcDbRotatedDimension
  0
LINE
  5
9F9
330
2
100
AcDbEntity
  8
MITTEL
100
AcDbLine
 10
226.4479904216567
 20
149.6774203091668
 30
0.0
 11
226.4479904216566
 21
117.5409929784391
 31
0.0
  0
HATCH
  5
A10
330
2
100
AcDbEntity
  8
SCHRAFF
100
AcDbHatch
 10
0.0
 20
0.0
 30
0.0
210
0.0
220
0.0
230
1.0
  2
_USER
 70
     0
 71
     1
 91
        2
 92
        7
 72
     1
 73
     1
 93
       10
 10
277.9479904216571
 20
407.6267794160673
 42
-0.1989123673796685
 10
279.4124565157245
 20
411.1623133220002
 42
0.0
 10
286.7586505934369
 20
418.5085073997119
 42
0.0
 10
285.6979904216571
 20
419.5691675714916
 42
0.0
 10
278.3517963439449
 20
412.2229734937802
 42
0.1989123673796641
 10
276.4479904216573
 20
407.6267794160675
 42
0.0
 10
276.4479904216572
 20
130.5191625069853
 42
0.0
 10
275.7499910322214
 20
122.5409929784387
 42
0.0
 10
277.2557207885364
 20
122.5409929784387
 42
0.0
 10
277.9479904216572
 20
130.4536710926217
 42
0.0
 97
       10
330
8E1
330
8E2
330
8DE
330
8E3
330
8E0
330
8EA
330
8E8
330
902
330
8E9
330
8EB
 92
        7
 72
     1
 73
     1
 93
       10
 10
176.4479904216571
 20
407.6267794160673
 42
0.1989123673796637
 10
174.5441844993696
 20
412.22297349378
 42
0.0
 10
167.1979904216573
 20
419.5691675714918
 42
0.0
 10
166.1373302498775
 20
418.5085073997122
 42
0.0
 10
173.4835243275898
 20
411.1623133220002
 42
-0.1989123673796722
 10
174.9479904216573
 20
407.6267794160673
 42
0.0
 10
174.9479904216571
 20
130.4536710926224
 42
0.0
 10
175.6402600547778
 20
122.5409929784391
 42
0.0
 10
177.1459898110929
 20
122.5409929784391
 42
0.0
 10
176.447990421657
 20
130.5191625069849
 42
0.0
 97
       10
330
8ED
330
8F2
330
8F0
330
8F3
330
8EC
330
8FF
330
8FD
330
902
330
8FC
330
8FE
 75
     0
 76
     0
 52
135.0
 41
2.0
 77
     0
 78
     1
 53
135.0
 43
0.0
 44
0.0
 45
-1.414213562373095
 46
-1.414213562373094
 79
     0
 47
0.5185719718719479
 98
        2
 10
277.2100874230564
 20
276.2089813995006
 10
176.0337032134021
 20
285.0247050768357
  0
TEXT
  5
A3B
330
2
100
AcDbEntity
  8
VOLL
100
AcDbText
 10
306.2425884669966
 20
440.3101663657515
 30
0.0
 40
1.8
  1

 50
270.0
  7
GREEKS
100
AcDbText
  0
ARC
  5
A5C
330
2
100
AcDbEntity
  8
HILF
100
AcDbCircle
 10
352.7781174405796
 20
457.3985196547339
 30
0.0
 40
3.841839622940954
100
AcDbArc
 50
67.9324721810082
 51
112.0675278189918
  0
ARC
  5
A5D
330
2
100
AcDbEntity
  8
STEMPEL
100
AcDbCircle
 10
352.7781174405796
 20
461.0114558399154
 30
0.0
 40
5.129537138523076
100
AcDbArc
 50
73.65710669401657
 51
106.3428933059834
  0
LINE
  5
A5E
330
2
100
AcDbEntity
  8
STEMPEL
100
AcDbLine
 10
355.1861015004864
 20
460.6078239198708
 30
0.0
 11
341.7098793428282
 21
460.6078239198708
 31
0.0
  0
LINE
  5
A5F
330
2
100
AcDbEntity
  8
STEMPEL
100
AcDbLine
 10
354.9979904216574
 20
459.5409929784385
 30
0.0
 11
341.8979904216573
 21
459.5409929784385
 31
0.0
  0
LINE
  5
A60
330
2
100
AcDbEntity
  8
STEMPEL
100
AcDbLine
 10
353.4479904216573
 20
466.1409929784386
 30
0.0
 11
343.4479904216573
 21
466.1409929784386
 31
0.0
  0
LINE
  5
A61
330
2
100
AcDbEntity
  8
STEMPEL
100
AcDbLine
 10
342.674487729761
 20
460.9589126604379
 30
0.0
 11
341.7098793428282
 21
460.6078239198708
 31
0.0
  0
ARC
  5
A62
330
2
100
AcDbEntity
  8
STEMPEL
100
AcDbCircle
 10
341.8979904216573
 20
460.0909929784386
 30
0.0
 40
0.5500000000000003
100
AcDbArc
 50
110.0000000000006
 51
270.0
  0
ARC
  5
A63
330
2
100
AcDbEntity
  8
HILF
100
AcDbCircle
 10
344.1178634027351
 20
457.3996842166222
 30
0.0
 40
3.840760399790701
100
AcDbArc
 50
67.92594526323999
 51
112.07405473676
  0
ARC
  5
A64
330
2
100
AcDbEntity
  8
STEMPEL
100
AcDbCircle
 10
344.1178634027351
 20
461.0114558399154
 30
0.0
 40
5.129537138523076
100
AcDbArc
 50
73.65710669401657
 51
106.3428933059834
  0
LINE
  5
A65
330
2
100
AcDbEntity
  8
STEMPEL
100
AcDbLine
 10
343.4479904216573
 20
466.1409929784386
 30
0.0
 11
342.674487729761
 21
465.9337335568016
 31
0.0
  0
LINE
  5
A66
330
2
100
AcDbEntity
  8
STEMPEL
100
AcDbLine
 10
342.674487729761
 20
465.9337335568016
 30
0.0
 11
342.674487729761
 21
460.9589126604379
 31
0.0
  0
ARC
  5
A67
330
2
100
AcDbEntity
  8
HILF
100
AcDbCircle
 10
348.4479904216573
 20
446.2997009512124
 30
0.0
 40
14.94074366520046
100
AcDbArc
 50
78.85962783889434
 51
101.1403721611056
  0
ARC
  5
A68
330
2
100
AcDbEntity
  8
STEMPEL
100
AcDbCircle
 10
348.4479904216573
 20
445.9337335568016
 30
0.0
 40
20.20725942163691
100
AcDbArc
 50
81.78678929826011
 51
98.21321070173988
  0
LINE
  5
A69
330
2
100
AcDbEntity
  8
STEMPEL
100
AcDbLine
 10
345.5612390757092
 20
465.9337335568016
 30
0.0
 11
345.5612390757092
 21
460.9589126604379
 31
0.0
  0
LINE
  5
A6A
330
2
100
AcDbEntity
  8
STEMPEL
100
AcDbLine
 10
351.3347417676055
 20
465.9337335568016
 30
0.0
 11
351.3347417676055
 21
460.9589126604379
 31
0.0
  0
LINE
  5
A6B
330
2
100
AcDbEntity
  8
STEMPEL
100
AcDbLine
 10
355.1861015004864
 20
460.6078239198708
 30
0.0
 11
354.2214931135536
 21
460.9589126604379
 31
0.0
  0
ARC
  5
A6C
330
2
100
AcDbEntity
  8
STEMPEL
100
AcDbCircle
 10
354.9979904216574
 20
460.0909929784386
 30
0.0
 40
0.5500000000000009
100
AcDbArc
 50
270.0
 51
69.99999999999935
  0
LINE
  5
A6D
330
2
100
AcDbEntity
  8
STEMPEL
100
AcDbLine
 10
353.4479904216573
 20
466.1409929784386
 30
0.0
 11
354.2214931135536
 21
465.9337335568016
 31
0.0
  0
LINE
  5
A6E
330
2
100
AcDbEntity
  8
STEMPEL
100
AcDbLine
 10
354.2214931135536
 20
465.9337335568016
 30
0.0
 11
354.2214931135536
 21
460.9589126604379
 31
0.0
  0
ARC
  5
A70
330
2
100
AcDbEntity
  8
STEMPEL
100
AcDbCircle
 10
210.523794970811
 20
445.9337335568001
 30
0.0
 40
20.20725942163691
100
AcDbArc
 50
81.78678929826011
 51
98.21321070173988
  0
ARC
  5
A71
330
2
100
AcDbEntity
  8
HILF
100
AcDbCircle
 10
210.523794970811
 20
446.2997009512108
 30
0.0
 40
14.94074366520046
100
AcDbArc
 50
78.85962783889434
 51
101.1403721611056
  0
LINE
  5
A72
330
2
100
AcDbEntity
  8
STEMPEL
100
AcDbLine
 10
215.523794970811
 20
466.140992978437
 30
0.0
 11
205.523794970811
 21
466.140992978437
 31
0.0
  0
LINE
  5
A74
330
2
100
AcDbEntity
  8
STEMPEL
100
AcDbLine
 10
217.2619060496401
 20
460.6078239198692
 30
0.0
 11
204.4949579140324
 21
460.6078239198692
 31
0.0
  0
ARC
  5
A75
330
2
100
AcDbEntity
  8
STEMPEL
100
AcDbCircle
 10
206.1936679518888
 20
461.0114558399139
 30
0.0
 40
5.129537138523076
100
AcDbArc
 50
73.65710669401657
 51
105.5503179106628
  0
ARC
  5
A76
330
2
100
AcDbEntity
  8
HILF
100
AcDbCircle
 10
206.1936679518888
 20
457.3996842166206
 30
0.0
 40
3.840760399790701
100
AcDbArc
 50
67.92594526323999
 51
112.07405473676
  0
LINE
  5
A77
330
2
100
AcDbEntity
  8
STEMPEL
100
AcDbLine
 10
204.7502922789147
 20
462.6744811404111
 30
0.0
 11
204.7502922789147
 21
460.9589126604364
 31
0.0
  0
LINE
  5
A78
330
2
100
AcDbEntity
  8
STEMPEL
100
AcDbLine
 10
205.523794970811
 20
466.140992978437
 30
0.0
 11
204.8185183173703
 21
465.952014668707
 31
0.0
  0
LINE
  5
A7A
330
2
100
AcDbEntity
  8
STEMPEL
100
AcDbLine
 10
204.7502922789147
 20
460.9589126604364
 30
0.0
 11
204.5421080204533
 21
460.8831397871136
 31
0.0
  0
LINE
  5
A7B
330
2
100
AcDbEntity
  8
STEMPEL
100
AcDbLine
 10
207.6370436248629
 20
465.9337335568001
 30
0.0
 11
207.6370436248629
 21
460.9589126604364
 31
0.0
  0
LINE
  5
A7C
330
2
100
AcDbEntity
  8
STEMPEL
100
AcDbLine
 10
215.523794970811
 20
466.140992978437
 30
0.0
 11
216.2972976627073
 21
465.9337335568001
 31
0.0
  0
ARC
  5
A7D
330
2
100
AcDbEntity
  8
STEMPEL
100
AcDbCircle
 10
214.8539219897332
 20
461.0114558399139
 30
0.0
 40
5.129537138523076
100
AcDbArc
 50
73.65710669401657
 51
106.3428933059834
  0
ARC
  5
A7E
330
2
100
AcDbEntity
  8
HILF
100
AcDbCircle
 10
214.8539219897332
 20
457.3985196547324
 30
0.0
 40
3.841839622940954
100
AcDbArc
 50
67.9324721810082
 51
112.0675278189918
  0
LINE
  5
A7F
330
2
100
AcDbEntity
  8
STEMPEL
100
AcDbLine
 10
213.4105463167591
 20
465.9337335568001
 30
0.0
 11
213.4105463167591
 21
460.9589126604364
 31
0.0
  0
LINE
  5
A80
330
2
100
AcDbEntity
  8
STEMPEL
100
AcDbLine
 10
216.2972976627073
 20
465.9337335568001
 30
0.0
 11
216.2972976627073
 21
460.9589126604364
 31
0.0
  0
ARC
  5
A81
330
2
100
AcDbEntity
  8
STEMPEL
100
AcDbCircle
 10
217.073794970811
 20
460.090992978437
 30
0.0
 40
0.5500000000000009
100
AcDbArc
 50
270.0
 51
69.99999999999935
  0
LINE
  5
A82
330
2
100
AcDbEntity
  8
STEMPEL
100
AcDbLine
 10
217.2619060496401
 20
460.6078239198692
 30
0.0
 11
216.2972976627072
 21
460.9589126604364
 31
0.0
  0
TEXT
  5
AA0
330
2
100
AcDbEntity
  8
VOLL
100
AcDbText
 10
324.1689769830776
 20
510.9977073296728
 30
0.0
 40
1.8
  1

  7
GREEKS
100
AcDbText
  0
ARC
  5
AB6
330
2
100
AcDbEntity
  8
STEMPEL
100
AcDbCircle
 10
323.4273075345382
 20
446.846687270654
 30
0.0
 40
7.694305707784447
100
AcDbArc
 50
73.65710669401501
 51
106.342893305985
  0
ARC
  5
AB7
330
2
100
AcDbEntity
  8
HILF
100
AcDbCircle
 10
323.4273075345382
 20
441.2925068289088
 30
0.0
 40
5.761140599691502
100
AcDbArc
 50
67.92594526326206
 51
112.0740547367379
  0
LINE
  5
AB8
330
2
100
AcDbEntity
  8
STEMPEL
100
AcDbLine
 10
322.4224980629215
 20
454.5409929784384
 30
0.0
 11
337.4224980629215
 21
454.5409929784384
 31
0.0
  0
LINE
  5
AB9
330
2
100
AcDbEntity
  8
STEMPEL
100
AcDbLine
 10
339.3159438071258
 20
445.9957624440279
 30
0.0
 11
319.5159829554273
 21
445.9957624440279
 31
0.0
  0
LINE
  5
ABB
330
2
100
AcDbEntity
  8
STEMPEL
100
AcDbLine
 10
321.2622440250771
 20
446.6313494946382
 30
0.0
 11
321.2622440250771
 21
454.2301038459831
 31
0.0
  0
LINE
  5
ABC
330
2
100
AcDbEntity
  8
STEMPEL
100
AcDbLine
 10
321.2622440250771
 20
446.6313494946382
 30
0.0
 11
319.5159829554273
 21
445.9957624440279
 31
0.0
  0
ARC
  5
ABD
330
2
100
AcDbEntity
  8
STEMPEL
100
AcDbCircle
 10
319.7724980629215
 20
445.2909929784384
 30
0.0
 40
0.7500000000000013
100
AcDbArc
 50
109.9999999999995
 51
269.9999991462263
  0
LINE
  5
ABE
330
2
100
AcDbEntity
  8
STEMPEL
100
AcDbLine
 10
322.4224980629215
 20
454.5409929784384
 30
0.0
 11
321.2622440250771
 21
454.2301038459831
 31
0.0
  0
ARC
  5
ABF
330
2
100
AcDbEntity
  8
STEMPEL
100
AcDbCircle
 10
329.9224980629215
 20
424.2301038459835
 30
0.0
 40
30.31088913245485
100
AcDbArc
 50
81.78678929826221
 51
98.2132107017378
  0
ARC
  5
AC0
330
2
100
AcDbEntity
  8
HILF
100
AcDbCircle
 10
329.9224980629215
 20
424.6425319307772
 30
0.0
 40
22.41111549782308
100
AcDbArc
 50
78.85962783890615
 51
101.1403721610938
  0
LINE
  5
AC1
330
2
100
AcDbEntity
  8
STEMPEL
100
AcDbLine
 10
325.5923710439993
 20
446.6313494946382
 30
0.0
 11
325.5923710439993
 21
454.2301038459831
 31
0.0
  0
POINT
  5
AC2
330
2
100
AcDbEntity
  8
0
100
AcDbPoint
 10
329.9224980629215
 20
444.5409929784384
 30
0.0
210
0.0000000000000001
220
1.0
230
0.0
  0
LINE
  5
AC3
330
2
100
AcDbEntity
  8
STEMPEL
100
AcDbLine
 10
338.5827521007659
 20
446.6313494946382
 30
0.0
 11
338.5827521007659
 21
454.2301038459831
 31
0.0
  0
LINE
  5
AC4
330
2
100
AcDbEntity
  8
STEMPEL
100
AcDbLine
 10
334.2526250818437
 20
446.6313494946382
 30
0.0
 11
334.2526250818437
 21
454.2301038459831
 31
0.0
  0
ARC
  5
AC5
330
2
100
AcDbEntity
  8
HILF
100
AcDbCircle
 10
336.4176885913048
 20
441.2925068289088
 30
0.0
 40
5.761140599691502
100
AcDbArc
 50
67.92594526326206
 51
112.0740547367379
  0
LINE
  5
AC6
330
2
100
AcDbEntity
  8
STEMPEL
100
AcDbLine
 10
339.5726580043302
 20
446.2710532110165
 30
0.0
 11
338.5827521007659
 21
446.6313494946382
 31
0.0
  0
ARC
  5
AC8
330
2
100
AcDbEntity
  8
STEMPEL
100
AcDbCircle
 10
336.4176885913048
 20
446.846687270654
 30
0.0
 40
7.694305707784447
100
AcDbArc
 50
73.65710669401501
 51
106.342893305985
  0
LINE
  5
AC9
330
2
100
AcDbEntity
  8
STEMPEL
100
AcDbLine
 10
338.5827521007659
 20
454.2301038459831
 30
0.0
 11
337.4224980629215
 21
454.5409929784384
 31
0.0
  0
ARC
  5
ACA
330
2
100
AcDbEntity
  8
STEMPEL
100
AcDbCircle
 10
234.5717334219199
 20
446.8466872706539
 30
0.0
 40
7.694305707784447
100
AcDbArc
 50
73.65710669401501
 51
106.342893305985
  0
ARC
  5
ACB
330
2
100
AcDbEntity
  8
HILF
100
AcDbCircle
 10
234.5717334219199
 20
441.2925068289086
 30
0.0
 40
5.761140599691502
100
AcDbArc
 50
67.92594526326206
 51
112.0740547367379
  0
LINE
  5
ACC
330
2
100
AcDbEntity
  8
STEMPEL
100
AcDbLine
 10
233.5669239503031
 20
454.5409929784383
 30
0.0
 11
248.5669239503031
 21
454.5409929784383
 31
0.0
  0
LINE
  5
ACD
330
2
100
AcDbEntity
  8
STEMPEL
100
AcDbLine
 10
251.4734390577974
 20
445.9957624440277
 30
0.0
 11
230.6604088428089
 21
445.9957624440277
 31
0.0
  0
LINE
  5
ACE
330
2
100
AcDbEntity
  8
STEMPEL
100
AcDbLine
 10
251.2169239503031
 20
444.5409929784383
 30
0.0
 11
230.9169239503031
 21
444.5409929784383
 31
0.0
  0
LINE
  5
ACF
330
2
100
AcDbEntity
  8
STEMPEL
100
AcDbLine
 10
232.4066699124588
 20
446.6313494946382
 30
0.0
 11
232.4066699124588
 21
454.230103845983
 31
0.0
  0
LINE
  5
AD0
330
2
100
AcDbEntity
  8
STEMPEL
100
AcDbLine
 10
232.4066699124588
 20
446.6313494946382
 30
0.0
 11
230.6604088428089
 21
445.9957624440277
 31
0.0
  0
ARC
  5
AD1
330
2
100
AcDbEntity
  8
STEMPEL
100
AcDbCircle
 10
230.9169239503031
 20
445.2909929784383
 30
0.0
 40
0.7500000000000013
100
AcDbArc
 50
109.9999999999995
 51
269.9999991462263
  0
LINE
  5
AD2
330
2
100
AcDbEntity
  8
STEMPEL
100
AcDbLine
 10
233.5669239503031
 20
454.5409929784383
 30
0.0
 11
232.4066699124588
 21
454.230103845983
 31
0.0
  0
ARC
  5
AD3
330
2
100
AcDbEntity
  8
STEMPEL
100
AcDbCircle
 10
241.0669239503032
 20
424.2301038459834
 30
0.0
 40
30.31088913245485
100
AcDbArc
 50
81.78678929826221
 51
98.2132107017378
  0
ARC
  5
AD4
330
2
100
AcDbEntity
  8
HILF
100
AcDbCircle
 10
241.0669239503032
 20
424.6425319307771
 30
0.0
 40
22.41111549782308
100
AcDbArc
 50
78.85962783890615
 51
101.1403721610938
  0
LINE
  5
AD5
330
2
100
AcDbEntity
  8
STEMPEL
100
AcDbLine
 10
236.7367969313809
 20
446.6313494946382
 30
0.0
 11
236.7367969313809
 21
454.230103845983
 31
0.0
  0
POINT
  5
AD6
330
2
100
AcDbEntity
  8
0
100
AcDbPoint
 10
241.0669239503032
 20
444.5409929784383
 30
0.0
210
0.0000000000000001
220
1.0
230
0.0
  0
LINE
  5
AD7
330
2
100
AcDbEntity
  8
STEMPEL
100
AcDbLine
 10
249.7271779881475
 20
446.6313494946382
 30
0.0
 11
249.7271779881475
 21
454.230103845983
 31
0.0
  0
LINE
  5
AD8
330
2
100
AcDbEntity
  8
STEMPEL
100
AcDbLine
 10
245.3970509692254
 20
446.6313494946382
 30
0.0
 11
245.3970509692254
 21
454.230103845983
 31
0.0
  0
ARC
  5
AD9
330
2
100
AcDbEntity
  8
HILF
100
AcDbCircle
 10
247.5621144786865
 20
441.2925068289086
 30
0.0
 40
5.761140599691502
100
AcDbArc
 50
67.92594526326206
 51
112.0740547367379
  0
LINE
  5
ADA
330
2
100
AcDbEntity
  8
STEMPEL
100
AcDbLine
 10
251.4734390577974
 20
445.9957624440277
 30
0.0
 11
249.7271779881475
 21
446.6313494946382
 31
0.0
  0
ARC
  5
ADB
330
2
100
AcDbEntity
  8
STEMPEL
100
AcDbCircle
 10
251.2169239503031
 20
445.2909929784383
 30
0.0
 40
0.750000000000001
100
AcDbArc
 50
269.9999991462263
 51
70.00000000000047
  0
ARC
  5
ADC
330
2
100
AcDbEntity
  8
STEMPEL
100
AcDbCircle
 10
247.5621144786865
 20
446.8466872706539
 30
0.0
 40
7.694305707784447
100
AcDbArc
 50
73.65710669401501
 51
106.342893305985
  0
LINE
  5
ADD
330
2
100
AcDbEntity
  8
STEMPEL
100
AcDbLine
 10
249.7271779881475
 20
454.230103845983
 30
0.0
 11
248.5669239503031
 21
454.5409929784383
 31
0.0
  0
ARC
  5
ADE
330
2
100
AcDbEntity
  8
STEMPEL
100
AcDbCircle
 10
163.9527998932742
 20
446.8466872706538
 30
0.0
 40
7.694305707784447
100
AcDbArc
 50
73.65710669401501
 51
106.342893305985
  0
ARC
  5
ADF
330
2
100
AcDbEntity
  8
HILF
100
AcDbCircle
 10
163.9527998932742
 20
441.2925068289086
 30
0.0
 40
5.761140599691502
100
AcDbArc
 50
67.92594526326206
 51
112.0740547367379
  0
LINE
  5
AE0
330
2
100
AcDbEntity
  8
STEMPEL
100
AcDbLine
 10
162.9479904216574
 20
454.5409929784383
 30
0.0
 11
177.9479904216574
 21
454.5409929784383
 31
0.0
  0
LINE
  5
AE1
330
2
100
AcDbEntity
  8
STEMPEL
100
AcDbLine
 10
180.8545055291517
 20
445.9957624440277
 30
0.0
 11
160.0414753141632
 21
445.9957624440277
 31
0.0
  0
LINE
  5
AE2
330
2
100
AcDbEntity
  8
STEMPEL
100
AcDbLine
 10
180.5979904216574
 20
444.5409929784382
 30
0.0
 11
160.2979904216574
 21
444.5409929784382
 31
0.0
  0
LINE
  5
AE3
330
2
100
AcDbEntity
  8
STEMPEL
100
AcDbLine
 10
161.7877363838131
 20
446.6313494946381
 30
0.0
 11
161.7877363838131
 21
454.2301038459829
 31
0.0
  0
LINE
  5
AE4
330
2
100
AcDbEntity
  8
STEMPEL
100
AcDbLine
 10
161.7877363838131
 20
446.6313494946381
 30
0.0
 11
160.0414753141632
 21
445.9957624440277
 31
0.0
  0
ARC
  5
AE5
330
2
100
AcDbEntity
  8
STEMPEL
100
AcDbCircle
 10
160.2979904216574
 20
445.2909929784382
 30
0.0
 40
0.7500000000000013
100
AcDbArc
 50
109.9999999999995
 51
269.9999991462263
  0
LINE
  5
AE6
330
2
100
AcDbEntity
  8
STEMPEL
100
AcDbLine
 10
162.9479904216574
 20
454.5409929784383
 30
0.0
 11
161.7877363838131
 21
454.2301038459829
 31
0.0
  0
ARC
  5
AE7
330
2
100
AcDbEntity
  8
STEMPEL
100
AcDbCircle
 10
170.4479904216574
 20
424.2301038459833
 30
0.0
 40
30.31088913245485
100
AcDbArc
 50
81.78678929826221
 51
98.2132107017378
  0
ARC
  5
AE8
330
2
100
AcDbEntity
  8
HILF
100
AcDbCircle
 10
170.4479904216574
 20
424.642531930777
 30
0.0
 40
22.41111549782308
100
AcDbArc
 50
78.85962783890615
 51
101.1403721610938
  0
LINE
  5
AE9
330
2
100
AcDbEntity
  8
STEMPEL
100
AcDbLine
 10
166.1178634027352
 20
446.6313494946381
 30
0.0
 11
166.1178634027352
 21
454.2301038459829
 31
0.0
  0
POINT
  5
AEA
330
2
100
AcDbEntity
  8
0
100
AcDbPoint
 10
170.4479904216574
 20
444.5409929784382
 30
0.0
210
0.0000000000000001
220
1.0
230
0.0
  0
LINE
  5
AEB
330
2
100
AcDbEntity
  8
STEMPEL
100
AcDbLine
 10
179.1082444595018
 20
446.6313494946381
 30
0.0
 11
179.1082444595018
 21
454.2301038459829
 31
0.0
  0
LINE
  5
AEC
330
2
100
AcDbEntity
  8
STEMPEL
100
AcDbLine
 10
174.7781174405796
 20
446.6313494946381
 30
0.0
 11
174.7781174405796
 21
454.2301038459829
 31
0.0
  0
ARC
  5
AED
330
2
100
AcDbEntity
  8
HILF
100
AcDbCircle
 10
176.9431809500407
 20
441.2925068289086
 30
0.0
 40
5.761140599691502
100
AcDbArc
 50
67.92594526326206
 51
112.0740547367379
  0
LINE
  5
AEE
330
2
100
AcDbEntity
  8
STEMPEL
100
AcDbLine
 10
180.8545055291517
 20
445.9957624440277
 30
0.0
 11
179.1082444595018
 21
446.6313494946381
 31
0.0
  0
ARC
  5
AEF
330
2
100
AcDbEntity
  8
STEMPEL
100
AcDbCircle
 10
180.5979904216574
 20
445.2909929784382
 30
0.0
 40
0.750000000000001
100
AcDbArc
 50
269.9999991462263
 51
70.00000000000047
  0
ARC
  5
AF0
330
2
100
AcDbEntity
  8
STEMPEL
100
AcDbCircle
 10
176.9431809500407
 20
446.8466872706538
 30
0.0
 40
7.694305707784447
100
AcDbArc
 50
73.65710669401501
 51
106.342893305985
  0
LINE
  5
AF1
330
2
100
AcDbEntity
  8
STEMPEL
100
AcDbLine
 10
179.1082444595018
 20
454.2301038459829
 30
0.0
 11
177.9479904216574
 21
454.5409929784383
 31
0.0
  0
ARC
  5
AF2
330
2
100
AcDbEntity
  8
STEMPEL
100
AcDbCircle
 10
107.952799893274
 20
446.8466872706537
 30
0.0
 40
7.694305707784447
100
AcDbArc
 50
73.65710669401501
 51
106.342893305985
  0
ARC
  5
AF3
330
2
100
AcDbEntity
  8
HILF
100
AcDbCircle
 10
107.952799893274
 20
441.2925068289085
 30
0.0
 40
5.761140599691502
100
AcDbArc
 50
67.92594526326206
 51
112.0740547367379
  0
LINE
  5
AF4
330
2
100
AcDbEntity
  8
STEMPEL
100
AcDbLine
 10
106.9479904216573
 20
454.5409929784382
 30
0.0
 11
121.9479904216573
 21
454.5409929784382
 31
0.0
  0
LINE
  5
AF5
330
2
100
AcDbEntity
  8
STEMPEL
100
AcDbLine
 10
124.8545055291516
 20
445.9957624440276
 30
0.0
 11
104.0414753141631
 21
445.9957624440276
 31
0.0
  0
LINE
  5
AF6
102
{ACAD_REACTORS
330
B74
102
}
330
2
100
AcDbEntity
  8
STEMPEL
100
AcDbLine
 10
124.5979904216573
 20
444.5409929784382
 30
0.0
 11
104.2979904216573
 21
444.5409929784382
 31
0.0
  0
LINE
  5
AF7
330
2
100
AcDbEntity
  8
STEMPEL
100
AcDbLine
 10
105.7877363838129
 20
446.6313494946381
 30
0.0
 11
105.7877363838129
 21
454.2301038459828
 31
0.0
  0
LINE
  5
AF8
330
2
100
AcDbEntity
  8
STEMPEL
100
AcDbLine
 10
105.7877363838129
 20
446.6313494946381
 30
0.0
 11
104.0414753141631
 21
445.9957624440276
 31
0.0
  0
ARC
  5
AF9
330
2
100
AcDbEntity
  8
STEMPEL
100
AcDbCircle
 10
104.2979904216573
 20
445.2909929784381
 30
0.0
 40
0.7500000000000013
100
AcDbArc
 50
109.9999999999995
 51
269.9999991462263
  0
LINE
  5
AFA
330
2
100
AcDbEntity
  8
STEMPEL
100
AcDbLine
 10
106.9479904216573
 20
454.5409929784382
 30
0.0
 11
105.7877363838129
 21
454.2301038459828
 31
0.0
  0
ARC
  5
AFB
330
2
100
AcDbEntity
  8
STEMPEL
100
AcDbCircle
 10
114.4479904216573
 20
424.2301038459833
 30
0.0
 40
30.31088913245485
100
AcDbArc
 50
81.78678929826221
 51
98.2132107017378
  0
ARC
  5
AFC
330
2
100
AcDbEntity
  8
HILF
100
AcDbCircle
 10
114.4479904216573
 20
424.6425319307769
 30
0.0
 40
22.41111549782308
100
AcDbArc
 50
78.85962783890615
 51
101.1403721610938
  0
LINE
  5
AFD
330
2
100
AcDbEntity
  8
STEMPEL
100
AcDbLine
 10
110.1178634027351
 20
446.6313494946381
 30
0.0
 11
110.1178634027351
 21
454.2301038459828
 31
0.0
  0
POINT
  5
AFE
330
2
100
AcDbEntity
  8
0
100
AcDbPoint
 10
114.4479904216573
 20
444.5409929784382
 30
0.0
210
0.0000000000000001
220
1.0
230
0.0
  0
LINE
  5
AFF
330
2
100
AcDbEntity
  8
STEMPEL
100
AcDbLine
 10
123.1082444595017
 20
446.6313494946381
 30
0.0
 11
123.1082444595017
 21
454.2301038459828
 31
0.0
  0
LINE
  5
B00
330
2
100
AcDbEntity
  8
STEMPEL
100
AcDbLine
 10
118.7781174405795
 20
446.6313494946381
 30
0.0
 11
118.7781174405795
 21
454.2301038459828
 31
0.0
  0
ARC
  5
B01
330
2
100
AcDbEntity
  8
HILF
100
AcDbCircle
 10
120.9431809500406
 20
441.2925068289085
 30
0.0
 40
5.761140599691502
100
AcDbArc
 50
67.92594526326206
 51
112.0740547367379
  0
LINE
  5
B02
330
2
100
AcDbEntity
  8
STEMPEL
100
AcDbLine
 10
124.8545055291516
 20
445.9957624440276
 30
0.0
 11
123.1082444595017
 21
446.6313494946381
 31
0.0
  0
ARC
  5
B03
330
2
100
AcDbEntity
  8
STEMPEL
100
AcDbCircle
 10
124.5979904216573
 20
445.2909929784381
 30
0.0
 40
0.750000000000001
100
AcDbArc
 50
269.9999991462263
 51
70.00000000000047
  0
ARC
  5
B04
330
2
100
AcDbEntity
  8
STEMPEL
100
AcDbCircle
 10
120.9431809500406
 20
446.8466872706537
 30
0.0
 40
7.694305707784447
100
AcDbArc
 50
73.65710669401501
 51
106.342893305985
  0
LINE
  5
B05
330
2
100
AcDbEntity
  8
STEMPEL
100
AcDbLine
 10
123.1082444595017
 20
454.2301038459828
 30
0.0
 11
121.9479904216573
 21
454.5409929784382
 31
0.0
  0
HATCH
  5
B43
330
2
100
AcDbEntity
  8
SCHRAFF
100
AcDbHatch
 10
0.0
 20
0.0
 30
0.0
210
0.0
220
0.0
230
1.0
  2
NET
 70
     0
 71
     1
 91
        5
 92
        7
 72
     0
 73
     1
 93
        5
 10
376.4479904216573
 20
435.5409929784382
 10
329.9224980629215
 20
435.5409929784382
 10
329.9224980629215
 20
432.5409929784383
 10
369.9053497345392
 20
432.5409929784381
 10
376.4479904216574
 20
432.5409929784381
 97
        5
330
53
330
24B
330
6E4
330
85
330
2C6
 92
        7
 72
     0
 73
     1
 93
        4
 10
329.9224980629215
 20
435.5409929784382
 10
308.1587914771757
 20
435.5409929784382
 10
307.7742396585379
 20
432.5409929784384
 10
329.9224980629215
 20
432.5409929784383
 97
        4
330
53
330
7F6
330
6E4
330
24B
 92
        7
 72
     0
 73
     1
 93
        4
 10
308.1587914771758
 20
435.5409929784382
 10
306.4479904216573
 20
435.5409929784382
 10
306.4479904216573
 20
432.5409929784383
 10
307.7742396585379
 20
432.5409929784384
 97
        4
330
53
330
238
330
6E4
330
7F6
 92
        7
 72
     0
 73
     1
 93
        4
 10
146.4479904216573
 20
435.5409929784382
 10
121.4479904216573
 20
435.5409929784381
 10
121.4479904216573
 20
432.5409929784389
 10
146.4479904216572
 20
432.5409929784389
 97
        4
330
53
330
57E
330
6E4
330
136
 92
        7
 72
     0
 73
     1
 93
        4
 10
107.4479904216573
 20
435.5409929784382
 10
76.44799042165726
 20
435.5409929784382
 10
76.44799042165728
 20
432.5409929784391
 10
107.4479904216573
 20
432.5409929784391
 97
        4
330
F0
330
F7
330
85
330
57D
 75
     0
 76
     1
 52
45.0
 41
15.0
 77
     0
 78
     2
 53
45.0
 43
0.0
 44
0.0
 45
-1.325825214724776
 46
1.325825214724776
 79
     0
 53
135.0
 43
0.0
 44
0.0
 45
-1.325825214724776
 46
-1.325825214724776
 79
     0
 47
0.3286716544206532
 98
        5
 10
358.8001706384416
 20
434.035305357642
 10
322.6340221434116
 20
433.3779615465545
 10
307.5099947463582
 20
434.035305357642
 10
138.5154420179833
 20
433.7066327605489
 10
98.07511278484572
 20
434.3639765716363
  0
HATCH
  5
B74
330
2
100
AcDbEntity
  8
SCHRAFF
100
AcDbHatch
 10
0.0
 20
0.0
 30
0.0
210
0.0
220
0.0
230
1.0
  2
_USER
 70
     0
 71
     1
 91
        5
 92
        7
 72
     1
 73
     1
 93
       15
 10
368.4479904216573
 20
444.5409929784383
 42
0.0
 10
361.1058476462307
 20
444.5409929784383
 42
-0.4091108014277044
 10
356.1066091704489
 20
449.4537309462518
 42
0.0
 10
355.9479904216572
 20
458.5409929784383
 42
0.0
 10
352.4479904216572
 20
458.5409929784383
 42
0.0
 10
352.4479904216571
 20
455.5409929784387
 42
0.0
 10
351.9479904216573
 20
455.5409929784387
 42
0.0
 10
351.9479904216573
 20
452.5409929784387
 42
0.0
 10
352.4479904216571
 20
452.5409929784387
 42
0.0
 10
352.4479904216573
 20
444.5409929784389
 42
0.0
 10
351.9479904216573
 20
444.5409929784388
 42
0.0
 10
351.9479904216573
 20
441.5409929784387
 42
0.0
 10
352.4479904216573
 20
441.5409929784389
 42
0.0
 10
352.4479904216574
 20
438.5409929784382
 42
0.0
 10
368.4479904216573
 20
438.5409929784382
 42
1.0
 97
       15
330
2B3
330
2BE
330
2C0
330
346
330
676
330
675
330
66C
330
672
330
674
330
673
330
66F
330
670
330
671
330
50
330
2C8
 92
        7
 72
     1
 73
     1
 93
       15
 10
344.9479904216573
 20
444.5409929784387
 42
0.0
 10
344.4479904216573
 20
444.5409929784387
 42
0.0
 10
344.4479904216571
 20
452.5409929784387
 42
0.0
 10
344.9479904216573
 20
452.5409929784387
 42
0.0
 10
344.9479904216574
 20
455.5409929784387
 42
0.0
 10
344.4479904216571
 20
455.5409929784387
 42
0.0
 10
344.4479904216572
 20
458.5409929784383
 42
0.0
 10
340.9479904216573
 20
458.5409929784384
 42
0.0
 10
340.789371672866
 20
449.4537309462521
 42
-0.409110801427714
 10
335.7901331970841
 20
444.5409929784384
 42
0.0
 10
329.9224980629215
 20
444.5409929784384
 42
0.0
 10
329.9224980629215
 20
438.5409929784382
 42
0.0
 10
344.4479904216573
 20
438.5409929784382
 42
0.0
 10
344.4479904216573
 20
441.5409929784388
 42
0.0
 10
344.9479904216573
 20
441.5409929784388
 42
0.0
 97
       15
330
680
330
681
330
67F
330
679
330
682
330
683
330
2B4
330
26A
330
262
330
51
330
24B
330
50
330
67E
330
67D
330
67C
 92
        7
 72
     1
 73
     1
 93
        5
 10
329.9224980629214
 20
444.5409929784384
 42
0.0
 10
308.4479904216574
 20
444.5409929784384
 42
1.016055554899218
 10
308.5435383859978
 20
438.5425149334114
 42
0.0
 10
308.5433432958136
 20
438.5409929784382
 42
0.0
 10
329.9224980629215
 20
438.5409929784382
 42
0.0
 97
        5
330
51
330
239
330
7F6
330
50
330
24B
 92
        7
 72
     1
 73
     1
 93
        4
 10
144.4479904216574
 20
444.5409929784382
 42
0.0
 10
121.4479904216573
 20
444.5409929784381
 42
0.0
 10
121.4479904216573
 20
438.5409929784381
 42
0.0
 10
144.4479904216574
 20
438.5409929784381
 42
1.0
 97
        4
330
51
330
12D
330
50
330
138
 92
        7
 72
     1
 73
     1
 93
        5
 10
107.4479904216573
 20
444.5409929784382
 42
0.0
 10
104.2979904216573
 20
444.5409929784382
 42
0.0
 10
84.44799042165731
 20
444.5409929784382
 42
1.0
 10
84.44799042165733
 20
438.5409929784382
 42
0.0
 10
107.4479904216573
 20
438.5409929784382
 42
0.0
 97
        5
330
AF6
330
51
330
F1
330
EE
330
114
 75
     0
 76
     0
 52
45.0
 41
5.0
 77
     0
 78
     1
 53
45.0
 43
0.0
 44
0.0
 45
-3.535533905932737
 46
3.535533905932737
 79
     0
 47
0.3286716544206532
 98
        5
 10
354.8547724928967
 20
442.9094392002809
 10
342.0322279336433
 20
442.2520967722921
 10
318.6886239978667
 20
440.9374091501172
 10
139.1730095480393
 20
439.9513955081336
 10
99.06146056253465
 20
442.5807679862867
  0
ENDSEC
  0
SECTION
  2
OBJECTS
  0
DICTIONARY
  5
1E
330
0
100
AcDbDictionary
281
     1
  3
ACAD_COLOR
350
5C8
  3
ACAD_GROUP
350
1C
  3
ACAD_LAYOUT
350
5C9
  3
ACAD_MATERIAL
350
5C7
  3
ACAD_MLINESTYLE
350
1D
  3
ACAD_PLOTSETTINGS
350
5CA
  3
ACAD_PLOTSTYLENAME
350
5C5
  3
ACDBVARIABLEDICTIONARY
350
2D4
  0
DICTIONARY
  5
3
330
2
100
AcDbDictionary
280
     1
281
     1
  3
ACAD_LAYOUTSELFREF
360
4
  0
DICTIONARY
  5
A
330
9
100
AcDbDictionary
280
     1
281
     1
  3
ACAD_LAYOUTSELFREF
360
B
  0
DICTIONARY
  5
5C8
102
{ACAD_REACTORS
330
1E
102
}
330
1E
100
AcDbDictionary
281
     1
  0
DICTIONARY
  5
1C
102
{ACAD_REACTORS
330
1E
102
}
330
1E
100
AcDbDictionary
281
     1
  0
DICTIONARY
  5
5C9
102
{ACAD_REACTORS
330
1E
102
}
330
1E
100
AcDbDictionary
281
     1
  3
Layout1
350
5CC
  3
Model
350
5CB
  0
DICTIONARY
  5
5C7
102
{ACAD_REACTORS
330
1E
102
}
330
1E
100
AcDbDictionary
281
     1
  0
DICTIONARY
  5
1D
102
{ACAD_REACTORS
330
1E
102
}
330
1E
100
AcDbDictionary
281
     1
  3
STANDARD
350
21
  0
DICTIONARY
  5
5CA
102
{ACAD_REACTORS
330
1E
102
}
330
1E
100
AcDbDictionary
281
     1
  0
ACDBDICTIONARYWDFLT
  5
5C5
102
{ACAD_REACTORS
330
1E
102
}
330
1E
100
AcDbDictionary
281
     1
  3
Normal
350
5C6
100
AcDbDictionaryWithDefault
340
5C6
  0
DICTIONARY
  5
2D4
102
{ACAD_REACTORS
330
1E
102
}
330
1E
100
AcDbDictionary
281
     1
  3
DIMASSOC
350
64B
  3
PROJECTNAME
350
64C
  3
SORTENTS
350
2D5
  0
XRECORD
  5
4
102
{ACAD_REACTORS
330
3
102
}
330
3
100
AcDbXrecord
280
     1
340
2
  0
XRECORD
  5
B
102
{ACAD_REACTORS
330
A
102
}
330
A
100
AcDbXrecord
280
     1
340
9
  0
LAYOUT
  5
5CC
102
{ACAD_REACTORS
330
5C9
102
}
330
5C9
100
AcDbPlotSettings
  1

  2
RICOH Aficio 2027 PCL 6
  4

  6

 40
0.0
 41
0.0
 42
0.0
 43
0.0
 44
0.0
 45
0.0
 46
0.0
 47
0.0
 48
0.0
 49
0.0
140
0.0
141
0.0
142
1.0
143
1.0
 70
   688
 72
     0
 73
     0
 74
     5
  7
monochrome1.ctb
 75
    16
147
1.0
 76
     0
 77
     2
 78
   300
148
0.0
149
0.0
100
AcDbLayout
  1
Layout1
 70
     0
 71
     1
 10
0.0
 20
0.0
 11
12.0
 21
9.0
 12
2.245140564963854
 22
50.00000000000001
 32
-1.032422173993944
 14
1.000000000000000E+20
 24
1.000000000000000E+20
 34
1.000000000000000E+20
 15
-1.000000000000000E+20
 25
-1.000000000000000E+20
 35
-1.000000000000000E+20
146
0.0
 13
0.0
 23
0.0
 33
0.0
 16
1.0
 26
0.0
 36
0.0
 17
0.0
 27
1.0
 37
0.0
 76
     0
330
9
  0
LAYOUT
  5
5CB
102
{ACAD_REACTORS
330
5C9
102
}
330
5C9
100
AcDbPlotSettings
  1

  2
RICOH Aficio 2027 PCL 6
  4
A4
  6

 40
5.027083396911621
 41
5.027085304260253
 42
5.027084350585937
 43
5.027069091796875
 44
209.9733276367187
 45
296.9259948730469
 46
0.0
 47
0.0
 48
0.0
 49
0.0
140
0.0
141
0.0
142
1.0
143
1.0
 70
 11952
 72
     0
 73
     1
 74
     0
  7
monochrome1.ctb
 75
     0
147
1.0
 76
     0
 77
     2
 78
   300
148
2300.430855644151
149
90.63084535396582
100
AcDbLayout
  1
Model
 70
     1
 71
     0
 10
0.0
 20
0.0
 11
12.0
 21
9.0
 12
0.0
 22
0.0
 32
0.0
 14
0.0
 24
0.0
 34
0.0
 15
0.0
 25
0.0
 35
0.0
146
0.0
 13
0.0
 23
0.0
 33
0.0
 16
1.0
 26
0.0
 36
0.0
 17
0.0
 27
1.0
 37
0.0
 76
     0
330
2
  0
MLINESTYLE
  5
21
102
{ACAD_REACTORS
330
1D
102
}
330
1D
100
AcDbMlineStyle
  2
STANDARD
 70
     0
  3

 62
   256
 51
90.0
 52
90.0
 71
     2
 49
0.5
 62
   256
  6
BYLAYER
 49
-0.5
 62
   256
  6
BYLAYER
  0
ACDBPLACEHOLDER
  5
5C6
102
{ACAD_REACTORS
330
5C5
102
}
330
5C5
  0
DICTIONARYVAR
  5
64B
102
{ACAD_REACTORS
330
2D4
102
}
330
2D4
100
DictionaryVariables
280
     0
  1
1
  0
DICTIONARYVAR
  5
64C
102
{ACAD_REACTORS
330
2D4
102
}
330
2D4
100
DictionaryVariables
280
     0
  1

  0
DICTIONARYVAR
  5
2D5
102
{ACAD_REACTORS
330
2D4
102
}
330
2D4
100
DictionaryVariables
280
     0
  1
96
  0
ENDSEC
  0
EOF
