  0
SECTION
  2
HEADER
  9
$ACADVER
  1
AC1018
  9
$ACADMAINTVER
 70
   104
  9
$DWGCODEPAGE
  3
ANSI_1252
  9
$LASTSAVEDBY
  1
w.koehlhoff
  9
$INSBASE
 10
0.0
 20
0.0
 30
0.0
  9
$EXTMIN
 10
-0.0640771341750224
 20
-0.045311687738149
 30
-0.000000000000013
  9
$EXTMAX
 10
840.000003912033
 20
594.0000027663659
 30
0.0000000000000023
  9
$LIMMIN
 10
0.0
 20
0.0
  9
$LIMMAX
 10
840.0
 20
594.0
  9
$ORTHOMODE
 70
     1
  9
$REGENMODE
 70
     1
  9
$FILLMODE
 70
     1
  9
$QTEXTMODE
 70
     0
  9
$MIRRTEXT
 70
     1
  9
$LTSCALE
 40
20.0
  9
$ATTMODE
 70
     1
  9
$TEXTSIZE
 40
3.5
  9
$TRACEWID
 40
1.0
  9
$TEXTSTYLE
  7
STANDARD
  9
$CLAYER
  8
SCHRAFF
  9
$CELTYPE
  6
ByLayer
  9
$CECOLOR
 62
   256
  9
$CELTSCALE
 40
1.0
  9
$DISPSILH
 70
     0
  9
$DIMSCALE
 40
2.0
  9
$DIMASZ
 40
3.5
  9
$DIMEXO
 40
1.0
  9
$DIMDLI
 40
7.0
  9
$DIMRND
 40
0.0
  9
$DIMDLE
 40
0.0
  9
$DIMEXE
 40
1.0
  9
$DIMTP
 40
0.0
  9
$DIMTM
 40
0.0
  9
$DIMTXT
 40
3.5
  9
$DIMCEN
 40
1.5
  9
$DIMTSZ
 40
0.0
  9
$DIMTOL
 70
     0
  9
$DIMLIM
 70
     0
  9
$DIMTIH
 70
     0
  9
$DIMTOH
 70
     0
  9
$DIMSE1
 70
     0
  9
$DIMSE2
 70
     0
  9
$DIMTAD
 70
     1
  9
$DIMZIN
 70
     8
  9
$DIMBLK
  1

  9
$DIMASO
 70
     1
  9
$DIMSHO
 70
     0
  9
$DIMPOST
  1

  9
$DIMAPOST
  1

  9
$DIMALT
 70
     0
  9
$DIMALTD
 70
     2
  9
$DIMALTF
 40
25.4
  9
$DIMLFAC
 40
1.0
  9
$DIMTOFL
 70
     1
  9
$DIMTVP
 40
0.0
  9
$DIMTIX
 70
     0
  9
$DIMSOXD
 70
     0
  9
$DIMSAH
 70
     0
  9
$DIMBLK1
  1

  9
$DIMBLK2
  1

  9
$DIMSTYLE
  2
Standard
  9
$DIMCLRD
 70
     0
  9
$DIMCLRE
 70
     0
  9
$DIMCLRT
 70
     1
  9
$DIMTFAC
 40
0.5142857142857144
  9
$DIMGAP
 40
1.5
  9
$DIMJUST
 70
     0
  9
$DIMSD1
 70
     0
  9
$DIMSD2
 70
     0
  9
$DIMTOLJ
 70
     1
  9
$DIMTZIN
 70
     8
  9
$DIMALTZ
 70
     8
  9
$DIMALTTZ
 70
     8
  9
$DIMUPT
 70
     0
  9
$DIMDEC
 70
     2
  9
$DIMTDEC
 70
     2
  9
$DIMALTU
 70
     2
  9
$DIMALTTD
 70
     2
  9
$DIMTXSTY
  7
STANDARD
  9
$DIMAUNIT
 70
     0
  9
$DIMADEC
 70
     2
  9
$DIMALTRND
 40
0.0
  9
$DIMAZIN
 70
     2
  9
$DIMDSEP
 70
    46
  9
$DIMATFIT
 70
     3
  9
$DIMFRAC
 70
     0
  9
$DIMLDRBLK
  1

  9
$DIMLUNIT
 70
     2
  9
$DIMLWD
 70
    -2
  9
$DIMLWE
 70
    -2
  9
$DIMTMOVE
 70
     0
  9
$LUNITS
 70
     2
  9
$LUPREC
 70
     2
  9
$SKETCHINC
 40
1.0
  9
$FILLETRAD
 40
0.0
  9
$AUNITS
 70
     0
  9
$AUPREC
 70
     0
  9
$MENU
  1
ACAD
  9
$ELEVATION
 40
0.0
  9
$PELEVATION
 40
0.0
  9
$THICKNESS
 40
0.0
  9
$LIMCHECK
 70
     0
  9
$CHAMFERA
 40
0.0
  9
$CHAMFERB
 40
0.0
  9
$CHAMFERC
 40
0.0
  9
$CHAMFERD
 40
0.0
  9
$SKPOLY
 70
     0
  9
$TDCREATE
 40
2455397.825393172
  9
$TDUCREATE
 40
2455397.783726505
  9
$TDUPDATE
 40
2456594.653600626
  9
$TDUUPDATE
 40
2456594.611933958
  9
$TDINDWG
 40
0.0552001736
  9
$TDUSRTIMER
 40
0.0552001736
  9
$USRTIMER
 70
     1
  9
$ANGBASE
 50
0.0
  9
$ANGDIR
 70
     0
  9
$PDMODE
 70
     0
  9
$PDSIZE
 40
0.0
  9
$PLINEWID
 40
0.0
  9
$SPLFRAME
 70
     0
  9
$SPLINETYPE
 70
     6
  9
$SPLINESEGS
 70
     8
  9
$HANDSEED
  5
87C
  9
$SURFTAB1
 70
     6
  9
$SURFTAB2
 70
     6
  9
$SURFTYPE
 70
     6
  9
$SURFU
 70
     6
  9
$SURFV
 70
     6
  9
$UCSBASE
  2

  9
$UCSNAME
  2

  9
$UCSORG
 10
0.0
 20
0.0
 30
0.0
  9
$UCSXDIR
 10
1.0
 20
0.0
 30
0.0
  9
$UCSYDIR
 10
0.0
 20
1.0
 30
0.0
  9
$UCSORTHOREF
  2

  9
$UCSORTHOVIEW
 70
     0
  9
$UCSORGTOP
 10
0.0
 20
0.0
 30
0.0
  9
$UCSORGBOTTOM
 10
0.0
 20
0.0
 30
0.0
  9
$UCSORGLEFT
 10
0.0
 20
0.0
 30
0.0
  9
$UCSORGRIGHT
 10
0.0
 20
0.0
 30
0.0
  9
$UCSORGFRONT
 10
0.0
 20
0.0
 30
0.0
  9
$UCSORGBACK
 10
0.0
 20
0.0
 30
0.0
  9
$PUCSBASE
  2

  9
$PUCSNAME
  2

  9
$PUCSORG
 10
0.0
 20
0.0
 30
0.0
  9
$PUCSXDIR
 10
1.0
 20
0.0
 30
0.0
  9
$PUCSYDIR
 10
0.0
 20
1.0
 30
0.0
  9
$PUCSORTHOREF
  2

  9
$PUCSORTHOVIEW
 70
     0
  9
$PUCSORGTOP
 10
0.0
 20
0.0
 30
0.0
  9
$PUCSORGBOTTOM
 10
0.0
 20
0.0
 30
0.0
  9
$PUCSORGLEFT
 10
0.0
 20
0.0
 30
0.0
  9
$PUCSORGRIGHT
 10
0.0
 20
0.0
 30
0.0
  9
$PUCSORGFRONT
 10
0.0
 20
0.0
 30
0.0
  9
$PUCSORGBACK
 10
0.0
 20
0.0
 30
0.0
  9
$USERI1
 70
     0
  9
$USERI2
 70
     0
  9
$USERI3
 70
     0
  9
$USERI4
 70
     0
  9
$USERI5
 70
     0
  9
$USERR1
 40
0.0
  9
$USERR2
 40
0.0
  9
$USERR3
 40
0.0
  9
$USERR4
 40
0.0
  9
$USERR5
 40
0.0
  9
$WORLDVIEW
 70
     1
  9
$SHADEDGE
 70
     3
  9
$SHADEDIF
 70
    70
  9
$TILEMODE
 70
     1
  9
$MAXACTVP
 70
    16
  9
$PINSBASE
 10
0.0
 20
0.0
 30
0.0
  9
$PLIMCHECK
 70
     0
  9
$PEXTMIN
 10
1.000000000000000E+20
 20
1.000000000000000E+20
 30
1.000000000000000E+20
  9
$PEXTMAX
 10
-1.000000000000000E+20
 20
-1.000000000000000E+20
 30
-1.000000000000000E+20
  9
$PLIMMIN
 10
0.0
 20
0.0
  9
$PLIMMAX
 10
12.0
 20
9.0
  9
$UNITMODE
 70
     0
  9
$VISRETAIN
 70
     0
  9
$PLINEGEN
 70
     0
  9
$PSLTSCALE
 70
     0
  9
$TREEDEPTH
 70
  3020
  9
$CMLSTYLE
  2
Standard
  9
$CMLJUST
 70
     0
  9
$CMLSCALE
 40
1.0
  9
$PROXYGRAPHICS
 70
     1
  9
$MEASUREMENT
 70
     0
  9
$CELWEIGHT
370
    -1
  9
$ENDCAPS
280
     0
  9
$JOINSTYLE
280
     0
  9
$LWDISPLAY
290
     0
  9
$INSUNITS
 70
     0
  9
$HYPERLINKBASE
  1

  9
$STYLESHEET
  1
monochrome1.ctb
  9
$XEDIT
290
     1
  9
$CEPSNTYPE
380
     0
  9
$PSTYLEMODE
290
     1
  9
$FINGERPRINTGUID
  2
{D68B0D0D-A558-11D7-B632-000102183313}
  9
$VERSIONGUID
  2
{630D0907-DCD9-4638-A8E6-CA4E05B69F4C}
  9
$EXTNAMES
290
     1
  9
$PSVPSCALE
 40
0.0
  9
$OLESTARTUP
290
     0
  9
$SORTENTS
280
   127
  9
$INDEXCTL
280
     0
  9
$HIDETEXT
280
     0
  9
$XCLIPFRAME
290
     0
  9
$HALOGAP
280
     0
  9
$OBSCOLOR
 70
   257
  9
$OBSLTYPE
280
     0
  9
$INTERSECTIONDISPLAY
280
     0
  9
$INTERSECTIONCOLOR
 70
   257
  9
$DIMASSOC
280
     1
  9
$PROJECTNAME
  1

  0
ENDSEC
  0
SECTION
  2
CLASSES
  0
CLASS
  1
ACDBDICTIONARYWDFLT
  2
AcDbDictionaryWithDefault
  3
ObjectDBX Classes
 90
        0
 91
        1
280
     0
281
     0
  0
CLASS
  1
DICTIONARYVAR
  2
AcDbDictionaryVar
  3
ObjectDBX Classes
 90
        0
 91
        7
280
     0
281
     0
  0
CLASS
  1
MATERIAL
  2
AcDbMaterial
  3
ObjectDBX Classes
 90
     1153
 91
        3
280
     0
281
     0
  0
CLASS
  1
VISUALSTYLE
  2
AcDbVisualStyle
  3
ObjectDBX Classes
 90
     4095
 91
       24
280
     0
281
     0
  0
CLASS
  1
TABLESTYLE
  2
AcDbTableStyle
  3
ObjectDBX Classes
 90
     4095
 91
        1
280
     0
281
     0
  0
CLASS
  1
SCALE
  2
AcDbScale
  3
ObjectDBX Classes
 90
     1153
 91
       17
280
     0
281
     0
  0
CLASS
  1
MLEADERSTYLE
  2
AcDbMLeaderStyle
  3
ACDB_MLEADERSTYLE_CLASS
 90
     4095
 91
        1
280
     0
281
     0
  0
CLASS
  1
ACDBSECTIONVIEWSTYLE
  2
AcDbSectionViewStyle
  3
ObjectDBX Classes
 90
     1025
 91
        1
280
     0
281
     0
  0
CLASS
  1
ACDBDETAILVIEWSTYLE
  2
AcDbDetailViewStyle
  3
ObjectDBX Classes
 90
     1025
 91
        1
280
     0
281
     0
  0
CLASS
  1
SORTENTSTABLE
  2
AcDbSortentsTable
  3
ObjectDBX Classes
 90
        0
 91
        0
280
     0
281
     0
  0
CLASS
  1
CELLSTYLEMAP
  2
AcDbCellStyleMap
  3
ObjectDBX Classes
 90
     1152
 91
        3
280
     0
281
     0
  0
ENDSEC
  0
SECTION
  2
TABLES
  0
TABLE
  2
VPORT
  5
8
102
{ACAD_XDICTIONARY
360
76E
102
}
330
0
100
AcDbSymbolTable
 70
     1
  0
VPORT
  5
6E1
330
8
100
AcDbSymbolTableRecord
100
AcDbViewportTableRecord
  2
*Active
 70
     0
 10
0.0
 20
0.0
 11
1.0
 21
1.0
 12
419.967963388929
 22
296.9773455393139
 13
0.0
 23
0.0
 14
1.0
 24
1.0
 15
10.0
 25
10.0
 16
0.0
 26
0.0
 36
1.0
 17
0.0
 27
0.0
 37
0.0
 40
598.0546191635806
 41
1.70045045045045
 42
50.0
 43
0.0
 44
0.0
 50
0.0
 51
0.0
 71
     0
 72
  1500
 73
     1
 74
     0
 75
     0
 76
     0
 77
     0
 78
     0
281
     0
 65
     1
110
0.0
120
0.0
130
0.0
111
1.0
121
0.0
131
0.0
112
0.0
122
1.0
132
0.0
 79
     0
146
0.0
1001
ACAD_NAV_VCDISPLAY
1070
     3
  0
ENDTAB
  0
TABLE
  2
LTYPE
  5
5
330
0
100
AcDbSymbolTable
 70
     5
  0
LTYPE
  5
13
330
5
100
AcDbSymbolTableRecord
100
AcDbLinetypeTableRecord
  2
ByBlock
 70
     0
  3

 72
    65
 73
     0
 40
0.0
  0
LTYPE
  5
14
330
5
100
AcDbSymbolTableRecord
100
AcDbLinetypeTableRecord
  2
ByLayer
 70
     0
  3

 72
    65
 73
     0
 40
0.0
  0
LTYPE
  5
15
330
5
100
AcDbSymbolTableRecord
100
AcDbLinetypeTableRecord
  2
Continuous
 70
     0
  3
Solid line
 72
    65
 73
     0
 40
0.0
  0
LTYPE
  5
25
330
5
100
AcDbSymbolTableRecord
100
AcDbLinetypeTableRecord
  2
STRICHPUNKT
 70
     0
  3
__ . __ . __ . __ . __ . __ . __ . __ . __ . __
 72
    65
 73
     4
 40
1.0
 49
0.5
 74
     0
 49
-0.25
 74
     0
 49
0.0
 74
     0
 49
-0.25
 74
     0
  0
LTYPE
  5
34
330
5
100
AcDbSymbolTableRecord
100
AcDbLinetypeTableRecord
  2
AUSGEZOGEN
 70
     0
  3
Ausgezogene Linie
 72
    65
 73
     0
 40
0.0
  0
LTYPE
  5
72B
330
5
100
AcDbSymbolTableRecord
100
AcDbLinetypeTableRecord
  2
PHANTOM2
 70
     0
  3
Phantom (.5x) ___ _ _ ___ _ _ ___ _ _ ___ _ _
 72
    65
 73
     6
 40
1.25
 49
0.625
 74
     0
 49
-0.125
 74
     0
 49
0.125
 74
     0
 49
-0.125
 74
     0
 49
0.125
 74
     0
 49
-0.125
 74
     0
  0
ENDTAB
  0
TABLE
  2
LAYER
  5
2
102
{ACAD_XDICTIONARY
360
7B5
102
}
330
0
100
AcDbSymbolTable
 70
     9
  0
LAYER
  5
10
102
{ACAD_XDICTIONARY
360
75B
102
}
330
2
100
AcDbSymbolTableRecord
100
AcDbLayerTableRecord
  2
0
 70
     0
 62
     7
  6
Continuous
370
    -3
390
F
  0
LAYER
  5
2B
102
{ACAD_XDICTIONARY
360
75D
102
}
330
2
100
AcDbSymbolTableRecord
100
AcDbLayerTableRecord
  2
VOLL
 70
     0
 62
     1
  6
Continuous
370
    -3
390
F
  0
LAYER
  5
2C
102
{ACAD_XDICTIONARY
360
75F
102
}
330
2
100
AcDbSymbolTableRecord
100
AcDbLayerTableRecord
  2
HILF
 70
     0
 62
     2
  6
Continuous
370
    -3
390
F
  0
LAYER
  5
2D
102
{ACAD_XDICTIONARY
360
761
102
}
330
2
100
AcDbSymbolTableRecord
100
AcDbLayerTableRecord
  2
MITTEL
 70
     0
 62
     2
  6
STRICHPUNKT
370
    -3
390
F
  0
LAYER
  5
2F
102
{ACAD_XDICTIONARY
360
763
102
}
330
2
100
AcDbSymbolTableRecord
100
AcDbLayerTableRecord
  2
BEM
 70
     0
 62
     7
  6
Continuous
370
    -3
390
F
  0
LAYER
  5
30
102
{ACAD_XDICTIONARY
360
765
102
}
330
2
100
AcDbSymbolTableRecord
100
AcDbLayerTableRecord
  2
STEMPEL
 70
     0
 62
     3
  6
Continuous
370
    -3
390
F
  0
LAYER
  5
33
102
{ACAD_XDICTIONARY
360
767
102
}
330
2
100
AcDbSymbolTableRecord
100
AcDbLayerTableRecord
  2
TEXT
 70
     0
 62
     7
  6
Continuous
370
    -3
390
F
  0
LAYER
  5
230
330
2
100
AcDbSymbolTableRecord
100
AcDbLayerTableRecord
  2
DEFPOINTS
 70
     0
 62
     7
  6
AUSGEZOGEN
290
     0
370
    -3
390
F
  0
LAYER
  5
231
102
{ACAD_XDICTIONARY
360
769
102
}
330
2
100
AcDbSymbolTableRecord
100
AcDbLayerTableRecord
  2
SCHRAFF
 70
     0
 62
     7
  6
AUSGEZOGEN
370
    -3
390
F
  0
ENDTAB
  0
TABLE
  2
STYLE
  5
3
330
0
100
AcDbSymbolTable
 70
     3
  0
STYLE
  5
11
330
3
100
AcDbSymbolTableRecord
100
AcDbTextStyleTableRecord
  2
STANDARD
 70
     0
 40
0.0
 41
0.8
 50
0.0
 71
     0
 42
3.5
  3
simplex.shx
  4

  0
STYLE
  5
24
330
3
100
AcDbSymbolTableRecord
100
AcDbTextStyleTableRecord
  2
GREEKS
 70
     0
 40
0.0
 41
0.8
 50
0.0
 71
     0
 42
2.5
  3
SIMPLEX.shx
  4

  0
ENDTAB
  0
TABLE
  2
VIEW
  5
6
330
0
100
AcDbSymbolTable
 70
     0
  0
ENDTAB
  0
TABLE
  2
UCS
  5
7
330
0
100
AcDbSymbolTable
 70
     0
  0
ENDTAB
  0
TABLE
  2
APPID
  5
9
330
0
100
AcDbSymbolTable
 70
     4
  0
APPID
  5
12
330
9
100
AcDbSymbolTableRecord
100
AcDbRegAppTableRecord
  2
ACAD
 70
     0
  0
APPID
  5
732
330
9
100
AcDbSymbolTableRecord
100
AcDbRegAppTableRecord
  2
ACAD_NAV_VCDISPLAY
 70
     0
  0
APPID
  5
759
330
9
100
AcDbSymbolTableRecord
100
AcDbRegAppTableRecord
  2
ACAD_EXEMPT_FROM_CAD_STANDARDS
 70
     0
  0
APPID
  5
7A4
330
9
100
AcDbSymbolTableRecord
100
AcDbRegAppTableRecord
  2
ACAD_MLEADERVER
 70
     0
  0
ENDTAB
  0
TABLE
  2
DIMSTYLE
  5
A
330
0
100
AcDbSymbolTable
 70
     2
100
AcDbDimStyleTable
 71
     1
340
A2
  0
DIMSTYLE
105
A2
102
{ACAD_REACTORS
330
361
330
366
330
36A
330
371
330
3F6
330
3F7
330
3FA
102
}
330
A
100
AcDbSymbolTableRecord
100
AcDbDimStyleTableRecord
  2
Standard
 70
     0
340
11
  0
ENDTAB
  0
TABLE
  2
BLOCK_RECORD
  5
1
330
0
100
AcDbSymbolTable
 70
    10
  0
BLOCK_RECORD
  5
1E
102
{ACAD_XDICTIONARY
360
DB
102
}
330
1
100
AcDbSymbolTableRecord
100
AcDbBlockTableRecord
  2
*Model_Space
340
21
  0
BLOCK_RECORD
  5
1A
102
{ACAD_XDICTIONARY
360
DD
102
}
330
1
100
AcDbSymbolTableRecord
100
AcDbBlockTableRecord
  2
*Paper_Space
340
1D
  0
BLOCK_RECORD
  5
22
330
1
100
AcDbSymbolTableRecord
100
AcDbBlockTableRecord
  2
LOGO
340
0
102
{BLKREFS
331
56
102
}
  0
BLOCK_RECORD
  5
23
330
1
100
AcDbSymbolTableRecord
100
AcDbBlockTableRecord
  2
LORO
340
0
102
{BLKREFS
331
9B
102
}
  0
BLOCK_RECORD
  5
47E
330
1
100
AcDbSymbolTableRecord
100
AcDbBlockTableRecord
  2
*D2
340
0
  0
BLOCK_RECORD
  5
48A
330
1
100
AcDbSymbolTableRecord
100
AcDbBlockTableRecord
  2
*D3
340
0
  0
BLOCK_RECORD
  5
49B
330
1
100
AcDbSymbolTableRecord
100
AcDbBlockTableRecord
  2
*D4
340
0
  0
BLOCK_RECORD
  5
4A7
330
1
100
AcDbSymbolTableRecord
100
AcDbBlockTableRecord
  2
*D5
340
0
  0
BLOCK_RECORD
  5
4B3
330
1
100
AcDbSymbolTableRecord
100
AcDbBlockTableRecord
  2
*D6
340
0
  0
BLOCK_RECORD
  5
4BF
330
1
100
AcDbSymbolTableRecord
100
AcDbBlockTableRecord
  2
*D7
340
0
  0
BLOCK_RECORD
  5
4CB
330
1
100
AcDbSymbolTableRecord
100
AcDbBlockTableRecord
  2
*D8
340
0
  0
ENDTAB
  0
ENDSEC
  0
SECTION
  2
BLOCKS
  0
BLOCK
  5
37
330
1E
100
AcDbEntity
  8
0
100
AcDbBlockBegin
  2
*Model_Space
 70
     0
 10
0.0
 20
0.0
 30
0.0
  3
*Model_Space
  1

  0
ENDBLK
  5
38
330
1E
100
AcDbEntity
  8
0
100
AcDbBlockEnd
  0
BLOCK
  5
35
330
1A
100
AcDbEntity
 67
     1
  8
0
100
AcDbBlockBegin
  2
*Paper_Space
 70
     0
 10
0.0
 20
0.0
 30
0.0
  3
*Paper_Space
  1

  0
ENDBLK
  5
36
330
1A
100
AcDbEntity
 67
     1
  8
0
100
AcDbBlockEnd
  0
BLOCK
  5
39
330
22
100
AcDbEntity
  8
0
100
AcDbBlockBegin
  2
LOGO
 70
     0
 10
0.0
 20
0.0
 30
0.0
  3
LOGO
  1

  0
ARC
  5
3A
330
22
100
AcDbEntity
  8
0
100
AcDbCircle
 10
11.59973089678112
 20
-9.271599258481501
 30
0.0
 40
4.5
100
AcDbArc
 50
270.0
 51
231.0575587310159
  0
LINE
  5
3B
330
22
100
AcDbEntity
  8
0
100
AcDbLine
 10
3.599730896781125
 20
-4.771599258481529
 30
0.0
 11
3.599730896781153
 21
-11.77159925848133
 31
0.0
  0
LINE
  5
3C
330
22
100
AcDbEntity
  8
0
100
AcDbLine
 10
2.599730896781125
 20
-4.771599258481529
 30
0.0
 11
2.599730896781153
 21
-11.77159925848133
 31
0.0
  0
CIRCLE
  5
3D
330
22
100
AcDbEntity
  8
0
100
AcDbCircle
 10
11.59973089678112
 20
-9.271599258481501
 30
0.0
 40
3.5
  0
ARC
  5
3E
330
22
100
AcDbEntity
  8
0
100
AcDbCircle
 10
31.59973089678115
 20
-9.271599258481472
 30
0.0
 40
4.5
100
AcDbArc
 50
270.0
 51
231.0575587310182
  0
LINE
  5
3F
330
22
100
AcDbEntity
  8
0
100
AcDbLine
 10
17.59973089678112
 20
-4.771599258481472
 30
0.0
 11
17.59973089678115
 21
-13.77159925848147
 31
0.0
  0
ARC
  5
40
330
22
100
AcDbEntity
  8
0
100
AcDbCircle
 10
22.59973089678116
 20
-7.271599258481472
 30
0.0
 40
2.5
100
AcDbArc
 50
293.1161887722295
 51
90.0
  0
CIRCLE
  5
41
330
22
100
AcDbEntity
  8
0
100
AcDbCircle
 10
31.59973089678115
 20
-9.271599258481472
 30
0.0
 40
3.5
  0
ARC
  5
42
330
22
100
AcDbEntity
  8
0
100
AcDbCircle
 10
4.599730896781153
 20
-11.77159925848133
 30
0.0
 40
1.0
100
AcDbArc
 50
180.0
 51
270.0
  0
ARC
  5
43
330
22
100
AcDbEntity
  8
0
100
AcDbCircle
 10
4.599730896781153
 20
-11.77159925848133
 30
0.0
 40
2.0
100
AcDbArc
 50
179.9999999999992
 51
270.0
  0
LINE
  5
44
330
22
100
AcDbEntity
  8
0
100
AcDbLine
 10
11.59973089678115
 20
-13.77159925848144
 30
0.0
 11
4.599730896781153
 21
-13.77159925848147
 31
0.0
  0
LINE
  5
45
330
22
100
AcDbEntity
  8
0
100
AcDbLine
 10
8.771303772034769
 20
-12.77159925848136
 30
0.0
 11
4.599730896781153
 21
-12.77159925848133
 31
0.0
  0
LINE
  5
46
330
22
100
AcDbEntity
  8
0
100
AcDbLine
 10
31.59973089678115
 20
-13.77159925848147
 30
0.0
 11
23.6715276665056
 21
-13.77159925848144
 31
0.0
  0
LINE
  5
47
330
22
100
AcDbEntity
  8
0
100
AcDbLine
 10
23.56565672307022
 20
-9.51278021337896
 30
0.0
 11
24.4388546544846
 21
-12.77159925848144
 31
0.0
  0
LINE
  5
48
330
22
100
AcDbEntity
  8
0
100
AcDbLine
 10
22.59973089678116
 20
-9.771599258481472
 30
0.0
 11
18.59973089678112
 21
-9.771599258481472
 31
0.0
  0
LINE
  5
49
330
22
100
AcDbEntity
  8
0
100
AcDbLine
 10
18.59973089678115
 20
-13.77159925848144
 30
0.0
 11
17.59973089678115
 21
-13.77159925848144
 31
0.0
  0
LINE
  5
4A
330
22
100
AcDbEntity
  8
0
100
AcDbLine
 10
18.59973089678115
 20
-9.771599258481472
 30
0.0
 11
18.59973089678115
 21
-13.77159925848144
 31
0.0
  0
LINE
  5
4B
330
22
100
AcDbEntity
  8
0
100
AcDbLine
 10
22.59973089678116
 20
-9.771599258481472
 30
0.0
 11
23.67152766650562
 21
-13.77159925848147
 31
0.0
  0
ARC
  5
4C
330
22
100
AcDbEntity
  8
0
100
AcDbCircle
 10
22.59973089678116
 20
-7.271599258481472
 30
0.0
 40
2.5
100
AcDbArc
 50
270.0
 51
270.0000000000007
  0
LINE
  5
4D
330
22
100
AcDbEntity
  8
0
100
AcDbLine
 10
28.77130377203494
 20
-12.77159925848147
 30
0.0
 11
24.43885465448463
 21
-12.77159925848144
 31
0.0
  0
LINE
  5
4E
330
22
100
AcDbEntity
  8
0
100
AcDbLine
 10
3.599730896781125
 20
-4.771599258481472
 30
0.0
 11
2.599730896781125
 21
-4.771599258481472
 31
0.0
  0
LINE
  5
4F
330
22
100
AcDbEntity
  8
0
100
AcDbLine
 10
22.59973089678116
 20
-8.771599258481472
 30
0.0
 11
18.59973089678115
 21
-8.771599258481472
 31
0.0
  0
LINE
  5
50
330
22
100
AcDbEntity
  8
0
100
AcDbLine
 10
22.59973089678116
 20
-5.771599258481472
 30
0.0
 11
18.59973089678115
 21
-5.771599258481472
 31
0.0
  0
LINE
  5
51
330
22
100
AcDbEntity
  8
0
100
AcDbLine
 10
22.59973089678116
 20
-4.771599258481472
 30
0.0
 11
17.59973089678115
 21
-4.771599258481472
 31
0.0
  0
LINE
  5
52
330
22
100
AcDbEntity
  8
0
100
AcDbLine
 10
18.59973089678115
 20
-5.771599258481472
 30
0.0
 11
18.59973089678115
 21
-8.771599258481472
 31
0.0
  0
ARC
  5
53
330
22
100
AcDbEntity
  8
0
100
AcDbCircle
 10
22.59973089678116
 20
-7.271599258481472
 30
0.0
 40
1.5
100
AcDbArc
 50
270.0
 51
90.0
  0
ENDBLK
  5
54
330
22
100
AcDbEntity
  8
0
100
AcDbBlockEnd
  0
BLOCK
  5
55
330
23
100
AcDbEntity
  8
0
100
AcDbBlockBegin
  2
LORO
 70
     0
 10
0.0
 20
0.0
 30
0.0
  3
LORO
  1

  0
INSERT
  5
56
330
23
100
AcDbEntity
  8
STEMPEL
100
AcDbBlockReference
  2
LOGO
 10
-1.748032802467321
 20
3.771489518552062
 30
0.0
  0
ENDBLK
  5
57
330
23
100
AcDbEntity
  8
0
100
AcDbBlockEnd
  0
BLOCK
  5
488
330
47E
100
AcDbEntity
  8
0
100
AcDbBlockBegin
  2
*D2
 70
     1
 10
0.0
 20
0.0
 30
0.0
  3
*D2
  1

  0
LINE
  5
4D7
330
47E
100
AcDbEntity
  8
BEM
 62
     0
440
 16777216
370
    -2
100
AcDbLine
 10
306.5352952104511
 20
179.4784238565951
 30
0.0
 11
306.5352952104511
 21
159.8379625762319
 31
0.0
  0
LINE
  5
4D8
330
47E
100
AcDbEntity
  8
BEM
 62
     0
440
 16777216
370
    -2
100
AcDbLine
 10
562.7520484454207
 20
179.4784238565943
 30
0.0
 11
562.7520484454207
 21
159.8379625762319
 31
0.0
  0
LINE
  5
4D9
330
47E
100
AcDbEntity
  8
BEM
 62
     0
440
 16777216
370
    -2
100
AcDbLine
 10
313.5352952104511
 20
161.8379625762319
 30
0.0
 11
555.7520484454207
 21
161.8379625762319
 31
0.0
  0
SOLID
  5
4DA
330
47E
100
AcDbEntity
  8
BEM
 62
     0
440
 16777216
100
AcDbTrace
 10
313.5352952104511
 20
163.0046292428986
 30
0.0
 11
313.5352952104511
 21
160.6712959095652
 31
0.0
 12
306.5352952104511
 22
161.8379625762319
 32
0.0
 13
306.5352952104511
 23
161.8379625762319
 33
0.0
  0
SOLID
  5
4DB
330
47E
100
AcDbEntity
  8
BEM
 62
     0
440
 16777216
100
AcDbTrace
 10
555.7520484454207
 20
163.0046292428986
 30
0.0
 11
555.7520484454207
 21
160.6712959095652
 31
0.0
 12
562.7520484454207
 22
161.8379625762319
 32
0.0
 13
562.7520484454207
 23
161.8379625762319
 33
0.0
  0
MTEXT
  5
4DC
330
47E
100
AcDbEntity
  8
BEM
 62
     1
440
 16777216
100
AcDbMText
 10
434.6436718279359
 20
167.3379625762319
 30
0.0
 40
7.0
 41
0.0
 71
     5
 72
     1
  1
\A1;256
 73
     1
 44
1.0
  0
POINT
  5
4DD
330
47E
100
AcDbEntity
  8
DEFPOINTS
 62
     0
440
 16777216
100
AcDbPoint
 10
306.5352952104511
 20
181.4784238565951
 30
0.0
  0
POINT
  5
4DE
330
47E
100
AcDbEntity
  8
DEFPOINTS
 62
     0
440
 16777216
100
AcDbPoint
 10
562.7520484454207
 20
181.4784238565943
 30
0.0
  0
POINT
  5
4DF
330
47E
100
AcDbEntity
  8
DEFPOINTS
 62
     0
440
 16777216
100
AcDbPoint
 10
562.7520484454207
 20
161.8379625762319
 30
0.0
  0
ENDBLK
  5
489
330
47E
100
AcDbEntity
  8
0
100
AcDbBlockEnd
  0
BLOCK
  5
499
330
48A
100
AcDbEntity
  8
0
100
AcDbBlockBegin
  2
*D3
 70
     1
 10
0.0
 20
0.0
 30
0.0
  3
*D3
  1

  0
LINE
  5
4E0
330
48A
100
AcDbEntity
  8
BEM
 62
     0
440
 16777216
370
    -2
100
AcDbLine
 10
399.1811965227541
 20
279.5803686773552
 30
0.0
 11
484.8810889089301
 21
279.5803686773543
 31
0.0
  0
ARC
  5
4E1
330
48A
100
AcDbEntity
  8
BEM
 62
     0
440
 16777216
370
    -2
100
AcDbCircle
 10
397.1811965227542
 20
279.5803686773552
 30
0.0
 40
85.69989238617603
100
AcDbArc
 50
347.6296785455984
 51
356.9999999999998
  0
LINE
  5
4E2
330
48A
100
AcDbEntity
  8
BEM
 62
     0
440
 16777216
370
    -2
100
AcDbLine
 10
480.8914268760779
 20
261.2209327057464
 30
0.0
 11
478.66344118335
 21
251.0623855776873
 31
0.0
  0
ARC
  5
4E3
330
48A
100
AcDbEntity
  8
BEM
 62
     0
440
 16777216
370
    -2
100
AcDbCircle
 10
397.1811965227542
 20
279.5803686773552
 30
0.0
 40
85.69989238617603
100
AcDbArc
 50
347.6375137352464
 51
352.3187568676231
  0
ARC
  5
4E4
330
48A
100
AcDbEntity
  8
BEM
 62
     0
440
 16777216
370
    -2
100
AcDbCircle
 10
397.1811965227542
 20
279.5803686773552
 30
0.0
 40
85.69989238617603
100
AcDbArc
 50
4.681243132376122
 51
9.362486264752805
  0
ARC
  5
4E5
330
48A
100
AcDbEntity
  8
BEM
 62
     0
440
 16777216
370
    -2
100
AcDbCircle
 10
397.1811965227542
 20
279.5803686773552
 30
0.0
 40
85.69989238617603
100
AcDbArc
 50
356.9999999999998
 51
359.9999999999994
  0
SOLID
  5
4E6
330
48A
100
AcDbEntity
  8
BEM
 62
     0
440
 16777216
100
AcDbTrace
 10
480.9505024739872
 20
268.23415941152
 30
0.0
 11
483.2737067117284
 21
268.0169808808466
 31
0.0
 12
482.763640184878
 22
275.0951828594071
 32
0.0
 13
482.763640184878
 23
275.0951828594071
 33
0.0
  0
SOLID
  5
4E7
330
48A
100
AcDbEntity
  8
BEM
 62
     0
440
 16777216
100
AcDbTrace
 10
483.7609008763613
 20
286.6221754066728
 30
0.0
 11
481.4295142632077
 21
286.5268816269577
 31
0.0
 12
482.8810889089301
 22
279.5803686773543
 32
0.0
 13
482.8810889089301
 23
279.5803686773543
 33
0.0
  0
MTEXT
  5
4E8
330
48A
100
AcDbEntity
  8
BEM
 62
     1
440
 16777216
100
AcDbMText
 10
474.405125452375
 20
257.3199208061404
 30
0.0
 40
7.0
 41
0.0
 71
     5
 72
     1
  1
\A1;3°
 11
0.2142293935315356
 21
0.9767833776979985
 31
0.0
 73
     1
 44
1.0
  0
POINT
  5
4E9
330
48A
100
AcDbEntity
  8
DEFPOINTS
 62
     0
440
 16777216
100
AcDbPoint
 10
482.868036400223
 20
278.0846993237996
 30
0.0
  0
POINT
  5
4EA
330
48A
100
AcDbEntity
  8
DEFPOINTS
 62
     0
440
 16777216
100
AcDbPoint
 10
650.1770851270093
 20
266.3214159878658
 30
0.0
  0
POINT
  5
4EB
330
48A
100
AcDbEntity
  8
DEFPOINTS
 62
     0
440
 16777216
100
AcDbPoint
 10
397.1811965227455
 20
279.5803686773552
 30
0.0
  0
POINT
  5
4EC
330
48A
100
AcDbEntity
  8
DEFPOINTS
 62
     0
440
 16777216
100
AcDbPoint
 10
395.1811965227454
 20
279.5803686773552
 30
0.0
  0
POINT
  5
4ED
330
48A
100
AcDbEntity
  8
DEFPOINTS
 62
     0
440
 16777216
100
AcDbPoint
 10
397.1811965227455
 20
279.5803686773557
 30
0.0
  0
ENDBLK
  5
49A
330
48A
100
AcDbEntity
  8
0
100
AcDbBlockEnd
  0
BLOCK
  5
4A5
330
49B
100
AcDbEntity
  8
0
100
AcDbBlockBegin
  2
*D4
 70
     1
 10
0.0
 20
0.0
 30
0.0
  3
*D4
  1

  0
LINE
  5
5E9
330
49B
100
AcDbEntity
  8
BEM
 62
     0
440
 16777216
370
    -2
100
AcDbLine
 10
397.1811965227455
 20
159.8379625762319
 30
0.0
 11
397.1811965227455
 21
142.3514556653283
 31
0.0
  0
LINE
  5
5EA
330
49B
100
AcDbEntity
  8
BEM
 62
     0
440
 16777216
370
    -2
100
AcDbLine
 10
682.1811965227453
 20
262.6441515816881
 30
0.0
 11
682.1811965227453
 21
142.3514556653283
 31
0.0
  0
LINE
  5
5EB
330
49B
100
AcDbEntity
  8
BEM
 62
     0
440
 16777216
370
    -2
100
AcDbLine
 10
404.1811965227455
 20
144.3514556653283
 30
0.0
 11
675.1811965227453
 21
144.3514556653283
 31
0.0
  0
SOLID
  5
5EC
330
49B
100
AcDbEntity
  8
BEM
 62
     0
440
 16777216
100
AcDbTrace
 10
404.1811965227455
 20
145.518122331995
 30
0.0
 11
404.1811965227455
 21
143.1847889986616
 31
0.0
 12
397.1811965227455
 22
144.3514556653283
 32
0.0
 13
397.1811965227455
 23
144.3514556653283
 33
0.0
  0
SOLID
  5
5ED
330
49B
100
AcDbEntity
  8
BEM
 62
     0
440
 16777216
100
AcDbTrace
 10
675.1811965227453
 20
145.518122331995
 30
0.0
 11
675.1811965227453
 21
143.1847889986616
 31
0.0
 12
682.1811965227453
 22
144.3514556653283
 32
0.0
 13
682.1811965227453
 23
144.3514556653283
 33
0.0
  0
MTEXT
  5
5EE
330
49B
100
AcDbEntity
  8
BEM
 62
     1
440
 16777216
100
AcDbMText
 10
539.6811965227454
 20
149.8514556653283
 30
0.0
 40
7.0
 41
0.0
 71
     5
 72
     1
  1
\A1;285
 73
     1
 44
1.0
  0
POINT
  5
5EF
330
49B
100
AcDbEntity
  8
DEFPOINTS
 62
     0
440
 16777216
100
AcDbPoint
 10
397.1811965227455
 20
161.8379625762319
 30
0.0
  0
POINT
  5
5F0
330
49B
100
AcDbEntity
  8
DEFPOINTS
 62
     0
440
 16777216
100
AcDbPoint
 10
682.1811965227453
 20
264.6441515816881
 30
0.0
  0
POINT
  5
5F1
330
49B
100
AcDbEntity
  8
DEFPOINTS
 62
     0
440
 16777216
100
AcDbPoint
 10
682.1811965227453
 20
144.3514556653283
 30
0.0
  0
ENDBLK
  5
4A6
330
49B
100
AcDbEntity
  8
0
100
AcDbBlockEnd
  0
BLOCK
  5
4B1
330
4A7
100
AcDbEntity
  8
0
100
AcDbBlockBegin
  2
*D5
 70
     1
 10
0.0
 20
0.0
 30
0.0
  3
*D5
  1

  0
LINE
  5
6C0
330
4A7
100
AcDbEntity
  8
BEM
 62
     0
440
 16777216
370
    -2
100
AcDbLine
 10
232.1811965227458
 20
392.4784238565954
 30
0.0
 11
232.1811965227458
 21
432.1823370621955
 31
0.0
  0
LINE
  5
6C1
330
4A7
100
AcDbEntity
  8
BEM
 62
     0
440
 16777216
370
    -2
100
AcDbLine
 10
562.1811965227458
 20
392.4784238565946
 30
0.0
 11
562.1811965227458
 21
432.1823370621955
 31
0.0
  0
LINE
  5
6C2
330
4A7
100
AcDbEntity
  8
BEM
 62
     0
440
 16777216
370
    -2
100
AcDbLine
 10
239.1811965227458
 20
430.1823370621955
 30
0.0
 11
555.1811965227458
 21
430.1823370621955
 31
0.0
  0
SOLID
  5
6C3
330
4A7
100
AcDbEntity
  8
BEM
 62
     0
440
 16777216
100
AcDbTrace
 10
239.1811965227458
 20
431.3490037288622
 30
0.0
 11
239.1811965227458
 21
429.0156703955288
 31
0.0
 12
232.1811965227458
 22
430.1823370621955
 32
0.0
 13
232.1811965227458
 23
430.1823370621955
 33
0.0
  0
SOLID
  5
6C4
330
4A7
100
AcDbEntity
  8
BEM
 62
     0
440
 16777216
100
AcDbTrace
 10
555.1811965227458
 20
431.3490037288622
 30
0.0
 11
555.1811965227458
 21
429.0156703955288
 31
0.0
 12
562.1811965227458
 22
430.1823370621955
 32
0.0
 13
562.1811965227458
 23
430.1823370621955
 33
0.0
  0
MTEXT
  5
6C5
330
4A7
100
AcDbEntity
  8
BEM
 62
     1
440
 16777216
100
AcDbMText
 10
397.1811965227459
 20
436.6823370621955
 30
0.0
 40
7.0
 41
0.0
 71
     5
 72
     1
  1
\A1;%%c330
 73
     1
 44
1.0
  0
POINT
  5
6C6
330
4A7
100
AcDbEntity
  8
DEFPOINTS
 62
     0
440
 16777216
100
AcDbPoint
 10
232.1811965227458
 20
390.4784238565954
 30
0.0
  0
POINT
  5
6C7
330
4A7
100
AcDbEntity
  8
DEFPOINTS
 62
     0
440
 16777216
100
AcDbPoint
 10
562.1811965227458
 20
390.4784238565946
 30
0.0
  0
POINT
  5
6C8
330
4A7
100
AcDbEntity
  8
DEFPOINTS
 62
     0
440
 16777216
100
AcDbPoint
 10
562.1811965227458
 20
430.1823370621955
 30
0.0
  0
ENDBLK
  5
4B2
330
4A7
100
AcDbEntity
  8
0
100
AcDbBlockEnd
  0
BLOCK
  5
4BD
330
4B3
100
AcDbEntity
  8
0
100
AcDbBlockBegin
  2
*D6
 70
     1
 10
0.0
 20
0.0
 30
0.0
  3
*D6
  1

  0
LINE
  5
5E0
330
4B3
100
AcDbEntity
  8
BEM
 62
     0
440
 16777216
370
    -2
100
AcDbLine
 10
574.9359573346619
 20
387.4784238565947
 30
0.0
 11
756.3117932591871
 21
387.4784238565946
 31
0.0
  0
LINE
  5
5E1
330
4B3
100
AcDbEntity
  8
BEM
 62
     0
440
 16777216
370
    -2
100
AcDbLine
 10
564.7520484454207
 20
181.4784238565943
 30
0.0
 11
756.3117932591869
 21
181.4784238565942
 31
0.0
  0
LINE
  5
5E2
330
4B3
100
AcDbEntity
  8
BEM
 62
     0
440
 16777216
370
    -2
100
AcDbLine
 10
754.311793259187
 20
380.4784238565946
 30
0.0
 11
754.311793259187
 21
188.4784238565942
 31
0.0
  0
SOLID
  5
5E3
330
4B3
100
AcDbEntity
  8
BEM
 62
     0
440
 16777216
100
AcDbTrace
 10
753.1451265925205
 20
380.4784238565946
 30
0.0
 11
755.4784599258537
 21
380.4784238565946
 31
0.0
 12
754.311793259187
 22
387.4784238565946
 32
0.0
 13
754.311793259187
 23
387.4784238565946
 33
0.0
  0
SOLID
  5
5E4
330
4B3
100
AcDbEntity
  8
BEM
 62
     0
440
 16777216
100
AcDbTrace
 10
753.1451265925203
 20
188.4784238565942
 30
0.0
 11
755.4784599258535
 21
188.4784238565942
 31
0.0
 12
754.311793259187
 22
181.4784238565942
 32
0.0
 13
754.311793259187
 23
181.4784238565942
 33
0.0
  0
MTEXT
  5
5E5
330
4B3
100
AcDbEntity
  8
BEM
 62
     1
440
 16777216
100
AcDbMText
 10
748.8117932591869
 20
284.4784238565945
 30
0.0
 40
7.0
 41
0.0
 71
     5
 72
     1
  1
\A1;206
 11
0.0000000000000001
 21
1.0
 31
0.0
 73
     1
 44
1.0
  0
POINT
  5
5E6
330
4B3
100
AcDbEntity
  8
DEFPOINTS
 62
     0
440
 16777216
100
AcDbPoint
 10
572.9359573346619
 20
387.4784238565947
 30
0.0
  0
POINT
  5
5E7
330
4B3
100
AcDbEntity
  8
DEFPOINTS
 62
     0
440
 16777216
100
AcDbPoint
 10
562.7520484454207
 20
181.4784238565943
 30
0.0
  0
POINT
  5
5E8
330
4B3
100
AcDbEntity
  8
DEFPOINTS
 62
     0
440
 16777216
100
AcDbPoint
 10
754.311793259187
 20
181.4784238565942
 30
0.0
  0
ENDBLK
  5
4BE
330
4B3
100
AcDbEntity
  8
0
100
AcDbBlockEnd
  0
BLOCK
  5
4C9
330
4BF
100
AcDbEntity
  8
0
100
AcDbBlockBegin
  2
*D7
 70
     1
 10
0.0
 20
0.0
 30
0.0
  3
*D7
  1

  0
LINE
  5
5D7
330
4BF
100
AcDbEntity
  8
BEM
 62
     0
440
 16777216
370
    -2
100
AcDbLine
 10
677.6725013348648
 20
331.4717032928109
 30
0.0
 11
708.6579308183022
 21
329.8478257434527
 31
0.0
  0
LINE
  5
5D8
330
4BF
100
AcDbEntity
  8
BEM
 62
     0
440
 16777216
370
    -2
100
AcDbLine
 10
670.7118191545537
 20
198.6539751704525
 30
0.0
 11
701.6972486379911
 21
197.0300976210944
 31
0.0
  0
LINE
  5
5D9
330
4BF
100
AcDbEntity
  8
BEM
 62
     0
440
 16777216
370
    -2
100
AcDbLine
 10
706.2943200550925
 20
322.9620909126566
 30
0.0
 11
700.0663412621825
 21
204.1251762768623
 31
0.0
  0
SOLID
  5
5DA
330
4BF
100
AcDbEntity
  8
BEM
 62
     0
440
 16777216
100
AcDbTrace
 10
705.1292522645455
 20
323.0231495282733
 30
0.0
 11
707.4593878456395
 21
322.9010322970398
 31
0.0
 12
706.6606717487931
 22
329.9524976559386
 32
0.0
 13
706.6606717487931
 23
329.9524976559386
 33
0.0
  0
SOLID
  5
5DB
330
4BF
100
AcDbEntity
  8
BEM
 62
     0
440
 16777216
100
AcDbTrace
 10
698.9012734716355
 20
204.1862348924791
 30
0.0
 11
701.2314090527295
 21
204.0641176612456
 31
0.0
 12
699.699989568482
 22
197.1347695335803
 32
0.0
 13
699.699989568482
 23
197.1347695335803
 33
0.0
  0
MTEXT
  5
5DC
330
4BF
100
AcDbEntity
  8
BEM
 62
     1
440
 16777216
100
AcDbMText
 10
697.6878682174873
 20
263.8314813540956
 30
0.0
 40
7.0
 41
0.0
 71
     5
 72
     1
  1
\A1;%%c133
 11
0.0523359562429406
 21
0.9986295347545739
 31
0.0
 73
     1
 44
1.0
  0
POINT
  5
5DD
330
4BF
100
AcDbEntity
  8
DEFPOINTS
 62
     0
440
 16777216
100
AcDbPoint
 10
675.6752422653555
 20
331.5763752052967
 30
0.0
  0
POINT
  5
5DE
330
4BF
100
AcDbEntity
  8
DEFPOINTS
 62
     0
440
 16777216
100
AcDbPoint
 10
668.7145600850445
 20
198.7586470829384
 30
0.0
  0
POINT
  5
5DF
330
4BF
100
AcDbEntity
  8
DEFPOINTS
 62
     0
440
 16777216
100
AcDbPoint
 10
699.699989568482
 20
197.1347695335803
 30
0.0
  0
ENDBLK
  5
4CA
330
4BF
100
AcDbEntity
  8
0
100
AcDbBlockEnd
  0
BLOCK
  5
4D5
330
4CB
100
AcDbEntity
  8
0
100
AcDbBlockBegin
  2
*D8
 70
     1
 10
0.0
 20
0.0
 30
0.0
  3
*D8
  1

  0
LINE
  5
5F3
330
4CB
100
AcDbEntity
  8
SCHRAFF
 62
     0
440
 16777216
370
    -2
100
AcDbLine
 10
557.8172354920667
 20
387.4784238565947
 30
0.0
 11
732.0989724298374
 21
387.4784238565946
 31
0.0
  0
LINE
  5
5F4
330
4CB
100
AcDbEntity
  8
SCHRAFF
 62
     0
440
 16777216
370
    -2
100
AcDbLine
 10
710.1532966932905
 20
264.6441515816881
 30
0.0
 11
732.0989724298374
 21
264.6441515816881
 31
0.0
  0
LINE
  5
5F5
330
4CB
100
AcDbEntity
  8
SCHRAFF
 62
     0
440
 16777216
370
    -2
100
AcDbLine
 10
730.0989724298374
 20
380.4784238565946
 30
0.0
 11
730.0989724298374
 21
271.6441515816881
 31
0.0
  0
SOLID
  5
5F6
330
4CB
100
AcDbEntity
  8
SCHRAFF
 62
     0
440
 16777216
100
AcDbTrace
 10
728.9323057631707
 20
380.4784238565946
 30
0.0
 11
731.265639096504
 21
380.4784238565946
 31
0.0
 12
730.0989724298374
 22
387.4784238565946
 32
0.0
 13
730.0989724298374
 23
387.4784238565946
 33
0.0
  0
SOLID
  5
5F7
330
4CB
100
AcDbEntity
  8
SCHRAFF
 62
     0
440
 16777216
100
AcDbTrace
 10
728.9323057631707
 20
271.6441515816881
 30
0.0
 11
731.265639096504
 21
271.6441515816881
 31
0.0
 12
730.0989724298374
 22
264.6441515816881
 32
0.0
 13
730.0989724298374
 23
264.6441515816881
 33
0.0
  0
MTEXT
  5
5F8
330
4CB
100
AcDbEntity
  8
SCHRAFF
 62
     1
440
 16777216
100
AcDbMText
 10
724.5989724298373
 20
326.0612877191415
 30
0.0
 40
7.0
 41
0.0
 71
     5
 72
     1
  1
\A1;123
 11
0.0000000000000001
 21
1.0
 31
0.0
 73
     1
 44
1.0
  0
POINT
  5
5F9
330
4CB
100
AcDbEntity
  8
DEFPOINTS
 62
     0
440
 16777216
100
AcDbPoint
 10
555.8172354920667
 20
387.4784238565947
 30
0.0
  0
POINT
  5
5FA
330
4CB
100
AcDbEntity
  8
DEFPOINTS
 62
     0
440
 16777216
100
AcDbPoint
 10
708.1532966932904
 20
264.6441515816881
 30
0.0
  0
POINT
  5
5FB
330
4CB
100
AcDbEntity
  8
DEFPOINTS
 62
     0
440
 16777216
100
AcDbPoint
 10
730.0989724298374
 20
264.6441515816881
 30
0.0
  0
ENDBLK
  5
4D6
330
4CB
100
AcDbEntity
  8
0
100
AcDbBlockEnd
  0
ENDSEC
  0
SECTION
  2
ENTITIES
  0
LINE
  5
58
330
1E
100
AcDbEntity
  8
STEMPEL
100
AcDbLine
 10
830.0000000000002
 20
110.0
 30
0.0
 11
470.0000000000001
 21
110.0
 31
0.0
  0
LINE
  5
59
330
1E
100
AcDbEntity
  8
STEMPEL
100
AcDbLine
 10
470.0000000000001
 20
110.0
 30
0.0
 11
470.0000000000001
 21
10.0
 31
0.0
  0
LINE
  5
5A
330
1E
100
AcDbEntity
  8
STEMPEL
100
AcDbLine
 10
566.0000000000002
 20
109.9999999999999
 30
0.0
 11
566.0000000000001
 21
9.999999999999886
 31
0.0
  0
LINE
  5
5B
330
1E
100
AcDbEntity
  8
STEMPEL
100
AcDbLine
 10
650.0
 20
110.0
 30
0.0
 11
650.0
 21
10.0
 31
0.0
  0
LINE
  5
5C
330
1E
100
AcDbEntity
  8
STEMPEL
100
AcDbLine
 10
752.0000000000002
 20
109.9999999999997
 30
0.0
 11
752.0000000000002
 21
40.0
 31
0.0
  0
LINE
  5
5D
330
1E
100
AcDbEntity
  8
STEMPEL
100
AcDbLine
 10
566.0
 20
30.0
 30
0.0
 11
470.0000000000001
 21
30.0
 31
0.0
  0
LINE
  5
5E
330
1E
100
AcDbEntity
  8
STEMPEL
100
AcDbLine
 10
830.0000000000002
 20
40.0
 30
0.0
 11
566.0000000000001
 21
40.0
 31
0.0
  0
LINE
  5
5F
330
1E
100
AcDbEntity
  8
STEMPEL
100
AcDbLine
 10
830.0000000000002
 20
80.0
 30
0.0
 11
566.0000000000002
 21
80.0
 31
0.0
  0
LINE
  5
60
330
1E
100
AcDbEntity
  8
VOLL
100
AcDbLine
 10
484.0000000000002
 20
110.0
 30
0.0
 11
484.0000000000001
 21
9.999999999999985
 31
0.0
  0
LINE
  5
61
330
1E
100
AcDbEntity
  8
VOLL
100
AcDbLine
 10
524.0000000000001
 20
109.9999999999999
 30
0.0
 11
524.0000000000001
 21
9.999999999999943
 31
0.0
  0
LINE
  5
62
330
1E
100
AcDbEntity
  8
VOLL
100
AcDbLine
 10
544.0000000000002
 20
109.9999999999999
 30
0.0
 11
544.0000000000001
 21
9.999999999999914
 31
0.0
  0
LINE
  5
63
330
1E
100
AcDbEntity
  8
VOLL
100
AcDbLine
 10
584.0000000000002
 20
80.0
 30
0.0
 11
584.0000000000002
 21
40.0
 31
0.0
  0
LINE
  5
64
330
1E
100
AcDbEntity
  8
VOLL
100
AcDbLine
 10
610.0000000000002
 20
109.9999999999998
 30
0.0
 11
610.0000000000001
 21
40.0
 31
0.0
  0
LINE
  5
65
330
1E
100
AcDbEntity
  8
HILF
100
AcDbLine
 10
470.0000000000001
 20
100.0
 30
0.0
 11
566.0000000000002
 21
100.0
 31
0.0
  0
LINE
  5
66
330
1E
100
AcDbEntity
  8
HILF
100
AcDbLine
 10
470.0000000000001
 20
90.0
 30
0.0
 11
566.0000000000002
 21
90.0
 31
0.0
  0
LINE
  5
67
330
1E
100
AcDbEntity
  8
HILF
100
AcDbLine
 10
470.0000000000001
 20
80.0
 30
0.0
 11
566.0000000000002
 21
80.0
 31
0.0
  0
LINE
  5
68
330
1E
100
AcDbEntity
  8
HILF
100
AcDbLine
 10
470.0000000000001
 20
70.0
 30
0.0
 11
566.0000000000002
 21
70.0
 31
0.0
  0
LINE
  5
69
330
1E
100
AcDbEntity
  8
HILF
100
AcDbLine
 10
470.0000000000001
 20
60.0
 30
0.0
 11
566.0000000000002
 21
60.0
 31
0.0
  0
LINE
  5
6A
330
1E
100
AcDbEntity
  8
HILF
100
AcDbLine
 10
470.0000000000001
 20
50.0
 30
0.0
 11
566.0000000000002
 21
50.0
 31
0.0
  0
LINE
  5
6B
330
1E
100
AcDbEntity
  8
HILF
100
AcDbLine
 10
470.0000000000001
 20
40.0
 30
0.0
 11
566.0000000000002
 21
40.0
 31
0.0
  0
LINE
  5
6C
330
1E
100
AcDbEntity
  8
HILF
100
AcDbLine
 10
566.0000000000002
 20
70.0
 30
0.0
 11
650.0
 21
70.0
 31
0.0
  0
LINE
  5
6D
330
1E
100
AcDbEntity
  8
HILF
100
AcDbLine
 10
566.0000000000002
 20
60.0
 30
0.0
 11
650.0
 21
60.0
 31
0.0
  0
LINE
  5
6E
330
1E
100
AcDbEntity
  8
HILF
100
AcDbLine
 10
566.0000000000002
 20
50.0
 30
0.0
 11
650.0
 21
50.0
 31
0.0
  0
LINE
  5
6F
330
1E
100
AcDbEntity
  8
HILF
100
AcDbLine
 10
654.7736801096948
 20
84.03758247564136
 30
0.0
 11
746.6297842514811
 21
84.03758247564136
 31
0.0
  0
LINE
  5
70
330
1E
100
AcDbEntity
  8
HILF
100
AcDbLine
 10
654.7736801096948
 20
70.0
 30
0.0
 11
746.6297842514811
 21
70.0
 31
0.0
  0
LINE
  5
71
330
1E
100
AcDbEntity
  8
HILF
100
AcDbLine
 10
654.7736801096948
 20
60.0
 30
0.0
 11
746.6297842514811
 21
60.0
 31
0.0
  0
LINE
  5
72
330
1E
100
AcDbEntity
  8
HILF
100
AcDbLine
 10
654.7736801096948
 20
50.0
 30
0.0
 11
746.6297842514811
 21
50.0
 31
0.0
  0
LINE
  5
73
330
1E
100
AcDbEntity
  8
VOLL
100
AcDbLine
 10
752.0000000000002
 20
60.0
 30
0.0
 11
830.0000000000002
 21
60.0
 31
0.0
  0
LINE
  5
74
330
1E
100
AcDbEntity
  8
HILF
100
AcDbLine
 10
756.7238616296995
 20
83.77983636955823
 30
0.0
 11
824.858883932673
 21
83.77983636955823
 31
0.0
  0
LINE
  5
75
330
1E
100
AcDbEntity
  8
HILF
100
AcDbLine
 10
654.7736801096948
 20
14.89398258028305
 30
0.0
 11
824.858883932673
 21
14.89398258028305
 31
0.0
  0
TEXT
  5
76
330
1E
100
AcDbEntity
  8
TEXT
100
AcDbText
 10
492.3998239263297
 20
18.67381894984129
 30
0.0
 40
4.0
  1
Änderung
 41
0.8
  7
GREEKS
 72
     1
 11
503.1426810691868
 21
18.67381894984129
 31
0.0
100
AcDbText
  0
TEXT
  5
78
330
1E
100
AcDbEntity
  8
TEXT
100
AcDbText
 10
573.5163572150378
 20
102.4620895087088
 30
0.0
 40
5.0
  1
Maßstab
 41
0.8
  7
GREEKS
100
AcDbText
  0
TEXT
  5
79
330
1E
100
AcDbEntity
  8
TEXT
100
AcDbText
 10
654.8779403809011
 20
102.5489328011779
 30
0.0
 40
5.0
  1
Benennung
 41
0.8
  7
GREEKS
100
AcDbText
  0
TEXT
  5
7A
330
1E
100
AcDbEntity
  8
TEXT
100
AcDbText
 10
756.1787549576343
 20
102.3132034537135
 30
0.0
 40
5.0
  1
Zeichnungs Nr.
 41
0.8
  7
GREEKS
100
AcDbText
  0
TEXT
  5
7B
330
1E
100
AcDbEntity
  8
TEXT
100
AcDbText
 10
654.742238391136
 20
30.84560570193055
 30
0.0
 40
5.0
  1
Bauvorhaben
 41
0.8
  7
GREEKS
100
AcDbText
  0
TEXT
  5
7C
330
1E
100
AcDbEntity
  8
TEXT
100
AcDbText
 10
756.7238616296995
 20
73.18118237099965
 30
0.0
 40
5.0
  1
Ersatz für:
 41
0.8
  7
GREEKS
100
AcDbText
  0
TEXT
  5
7D
330
1E
100
AcDbEntity
  8
TEXT
100
AcDbText
 10
478.2664110704577
 20
13.65465846027187
 30
0.0
 40
4.0
  1
Index
 50
90.0
 41
0.8
  7
GREEKS
100
AcDbText
  0
TEXT
  5
7E
330
1E
100
AcDbEntity
  8
TEXT
100
AcDbText
 10
529.8990113186979
 20
18.67156269339808
 30
0.0
 40
4.0
  1
Tag
 41
0.8
  7
GREEKS
 72
     1
 11
533.6323446520313
 21
18.67156269339808
 31
0.0
100
AcDbText
  0
TEXT
  5
7F
330
1E
100
AcDbEntity
  8
TEXT
100
AcDbText
 10
548.9795678138293
 20
18.59324216966404
 30
0.0
 40
4.0
  1
Name
 41
0.8
  7
GREEKS
 72
     1
 11
555.3033773376388
 21
18.59324216966404
 31
0.0
100
AcDbText
  0
TEXT
  5
80
330
1E
100
AcDbEntity
  8
TEXT
100
AcDbText
 10
592.3311673153651
 20
73.31880501229919
 30
0.0
 40
4.0
  1
Tag
 41
0.8
  7
GREEKS
100
AcDbText
  0
TEXT
  5
81
330
1E
100
AcDbEntity
  8
TEXT
100
AcDbText
 10
622.4626584226296
 20
73.3096109191522
 30
0.0
 40
4.0
  1
Name
 41
0.8
  7
GREEKS
100
AcDbText
  0
TEXT
  5
82
330
1E
100
AcDbEntity
  8
TEXT
100
AcDbText
 10
567.5836127167616
 20
63.62990369617961
 30
0.0
 40
4.0
  1
Gez.
 41
0.8
  7
GREEKS
100
AcDbText
  0
TEXT
  5
83
330
1E
100
AcDbEntity
  8
TEXT
100
AcDbText
 10
567.5515086571673
 20
53.68926291428373
 30
0.0
 40
4.0
  1
Gepr.
 41
0.8
  7
GREEKS
100
AcDbText
  0
TEXT
  5
84
330
1E
100
AcDbEntity
  8
TEXT
100
AcDbText
 10
567.6006777387304
 20
43.52946389649804
 30
0.0
 40
4.0
  1
Norm.
 41
0.8
  7
GREEKS
100
AcDbText
  0
TEXT
  5
85
330
1E
100
AcDbEntity
  8
TEXT
100
AcDbText
 10
757.2400861497007
 20
52.07416177878596
 30
0.0
 40
5.0
  1
ersetzt durch:
 41
0.8
  7
GREEKS
100
AcDbText
  0
TEXT
  5
86
330
1E
100
AcDbEntity
  8
TEXT
100
AcDbText
 10
568.8693027807324
 20
72.96682596523723
 30
0.0
 40
4.0
  1
2013
 41
0.8
  7
GREEKS
100
AcDbText
  0
LINE
  5
87
330
1E
100
AcDbEntity
  8
HILF
100
AcDbLine
 10
0.0
 20
0.0
 30
0.0
 11
840.0
 21
0.0
 31
0.0
  0
LINE
  5
88
330
1E
100
AcDbEntity
  8
HILF
100
AcDbLine
 10
840.0
 20
0.0
 30
0.0
 11
840.0
 21
594.0
 31
0.0
  0
LINE
  5
89
330
1E
100
AcDbEntity
  8
HILF
100
AcDbLine
 10
840.0
 20
594.0
 30
0.0
 11
0.0
 21
594.0
 31
0.0
  0
LINE
  5
8B
330
1E
100
AcDbEntity
  8
STEMPEL
100
AcDbLine
 10
830.0
 20
584.0
 30
0.0
 11
40.0
 21
584.0
 31
0.0
  0
LINE
  5
8D
330
1E
100
AcDbEntity
  8
STEMPEL
100
AcDbLine
 10
40.0
 20
10.0
 30
0.0
 11
830.0
 21
10.0
 31
0.0
  0
LINE
  5
8E
330
1E
100
AcDbEntity
  8
STEMPEL
100
AcDbLine
 10
830.0
 20
10.0
 30
0.0
 11
830.0
 21
584.0
 31
0.0
  0
TEXT
  5
91
330
1E
100
AcDbEntity
  8
TEXT
100
AcDbText
 10
618.509022641583
 20
102.83989611379
 30
0.0
 40
5.0
  1
Zul.Abw.
 41
0.8
  7
GREEKS
100
AcDbText
  0
TEXT
  5
9A
330
1E
100
AcDbEntity
  8
TEXT
100
AcDbText
 10
470.0441139350127
 20
114.1143585051043
 30
0.0
 40
5.0
  1
Erstellt mit AUTOCAD 2004
 41
0.8
  7
GREEKS
100
AcDbText
  0
INSERT
  5
9B
330
1E
100
AcDbEntity
  8
HILF
100
AcDbBlockReference
  2
LORO
 10
573.0624985962354
 20
36.9805930029896
 30
0.0
 41
2.0
 42
2.0
 43
2.0
  0
LINE
  5
9C
330
1E
100
AcDbEntity
  8
BEM
100
AcDbLine
 10
456.0
 20
0.0
 30
0.0
 11
456.0
 21
10.0
 31
0.0
  0
LINE
  5
13E
330
1E
100
AcDbEntity
  8
HILF
100
AcDbLine
 10
0.0
 20
0.0
 30
0.0
 11
0.0
 21
594.0
 31
0.0
  0
LINE
  5
13F
330
1E
100
AcDbEntity
  8
STEMPEL
100
AcDbLine
 10
40.0
 20
10.0
 30
0.0
 11
40.0
 21
584.0
 31
0.0
  0
LINE
  5
14A
330
1E
100
AcDbEntity
  8
HILF
100
AcDbLine
 10
0.0
 20
297.0
 30
0.0
 11
40.0
 21
297.0
 31
0.0
  0
TEXT
  5
15B
330
1E
100
AcDbEntity
  8
TEXT
100
AcDbText
 10
837.3022923857165
 20
10.16790107998861
 30
0.0
 40
4.0
  1
Diese Zeichnung ist urheberrechtlich geschützt und bleibt unser Eigentum. Sie darf weder ganz noch teilweise verfielfältigt und nicht an Dritte weitergegeben werden.
 50
90.0
 41
0.8
  7
GREEKS
100
AcDbText
  0
HATCH
  5
35A
330
1E
100
AcDbEntity
  8
SCHRAFF
100
AcDbHatch
 10
0.0
 20
0.0
 30
0.0
210
0.0
220
0.0
230
1.0
  2
_USER
 70
     0
 71
     1
 91
        2
 92
        7
 72
     1
 73
     1
 93
       14
 10
332.6811965227373
 20
342.5803686773562
 42
0.1898598886695146
 10
329.3229875675134
 20
351.1054878257113
 42
-0.1898598886695124
 10
323.6811965227374
 20
365.4276879949478
 42
0.0
 10
323.6811965227374
 20
377.8760464121305
 42
-0.1095178116832436
 10
326.2577323792294
 20
389.49804861
 42
0.0
 10
327.1811965227374
 20
391.478423856595
 42
0.0
 10
324.9744406848123
 20
391.478423856595
 42
0.0
 10
324.4451168051562
 20
390.3432851334816
 42
0.1095178116832431
 10
321.6811965227373
 20
377.8760464121308
 42
0.0
 10
321.6811965227373
 20
365.4276879949478
 42
0.1898598886695138
 10
327.8603010003493
 20
349.7414687619744
 42
-0.1898598886695214
 10
330.6811965227374
 20
342.5803686773559
 42
0.0
 10
330.6811965227349
 20
216.4742249908085
 42
0.0
 10
332.6811965227372
 20
218.3721541242404
 42
0.0
 97
       14
330
3C3
330
3D3
330
3D1
330
3D5
330
3C0
330
35F
330
3DD
330
3C1
330
3D2
330
3C4
330
3C2
330
374
330
367
330
375
 92
        7
 72
     1
 73
     1
 93
       13
 10
472.6811965227371
 20
377.8760464121307
 42
0.109517811683244
 10
469.9172762403182
 20
390.3432851334816
 42
0.0
 10
469.387952360662
 20
391.4784238565951
 42
0.0
 10
467.1811965227369
 20
391.4784238565951
 42
0.0
 10
468.1046606662449
 20
389.49804861
 42
-0.1095178116832458
 10
470.681196522737
 20
377.8760464121302
 42
0.0
 10
470.6811965227369
 20
365.4276879949478
 42
-0.1898598886695135
 10
465.0394054779609
 20
351.1054878257112
 42
0.1898598886695001
 10
461.6811965227371
 20
342.5803686773568
 42
0.0
 10
461.6811965227371
 20
340.7885832304572
 42
0.0
 10
463.6817382451964
 20
342.6870264393058
 42
-0.18723009547706
 10
466.5020920451251
 20
349.7414687619746
 42
0.1898598886695129
 10
472.6811965227371
 20
365.4276879949478
 42
0.0
 97
       13
330
412
330
432
330
35F
330
411
330
42A
330
421
330
424
330
41C
330
41F
330
367
330
41D
330
425
330
422
 75
     0
 76
     0
 52
135.0
 41
2.0
 77
     0
 78
     1
 53
135.0
 43
-0.0000000000001137
 44
0.0
 45
-1.414213562373095
 46
-1.414213562373094
 79
     0
 47
0.4332433353244344
 98
        2
 10
332.1163874202146
 20
331.1113375811071
 10
471.7255433012723
 20
374.8689157485214
  0
HATCH
  5
35B
330
1E
100
AcDbEntity
  8
SCHRAFF
100
AcDbHatch
 10
0.0
 20
0.0
 30
0.0
210
0.0
220
0.0
230
1.0
  2
HONEY
 70
     0
 71
     1
 91
        3
 92
        7
 72
     1
 73
     1
 93
       11
 10
573.1811965227454
 20
380.4784238565945
 42
0.0
 10
549.1811965227456
 20
380.4784238565953
 42
0.0
 10
549.1811965227456
 20
382.4784238565954
 42
0.0
 10
487.23144905444
 20
382.4784238565954
 42
0.0
 10
478.1764861057017
 20
373.4234609078578
 42
0.0
 10
476.8678599424343
 20
371.2626622820789
 42
-0.2529325187183624
 10
475.6811965227458
 20
367.6489246877939
 42
0.0
 10
475.6811965227459
 20
358.9281713249016
 42
0.0
 10
472.2358042348568
 20
354.5670624569631
 42
0.608665182975543
 10
475.1651471702253
 20
348.0928980890518
 42
0.0
 10
571.2201208154766
 20
343.0588702312125
 42
0.0
 97
       11
330
406
330
431
330
42F
330
41A
330
42C
330
420
330
423
330
426
330
427
330
405
330
457
 92
        7
 72
     1
 73
     1
 93
       15
 10
397.1811965227456
 20
209.9849906304998
 42
0.0
 10
327.6811965227454
 20
213.6273312906713
 42
0.0
 10
327.6811965227454
 20
274.3245969837816
 42
0.0
 10
317.6811965227453
 20
274.8486747766121
 42
0.0
 10
317.6811965227453
 20
294.8761216965703
 42
0.0
 10
327.6811965227454
 20
294.3520439037396
 42
0.0
 10
327.6811965227455
 20
347.5361507560348
 42
0.0
 10
318.6811965227455
 20
358.9281713249022
 42
0.0
 10
318.6811965227455
 20
367.6489246877776
 42
-0.2529325187199412
 10
317.4945331030398
 20
371.2626622820789
 42
0.0
 10
316.1859069397456
 20
373.4234609079019
 42
0.0
 10
307.1309439910516
 20
382.4784238565954
 42
0.0
 10
287.1811965227457
 20
382.4784238565954
 42
0.0
 10
306.535295210451
 20
181.4784238565951
 42
0.0
 10
397.1811965227455
 20
181.4784238565948
 42
0.0
 97
       15
330
360
330
37E
330
382
330
383
330
381
330
376
330
3C7
330
3C9
330
3C6
330
3CC
330
3CD
330
387
330
377
330
362
330
37D
 92
        7
 72
     0
 73
     1
 93
        4
 10
563.788415028979
 20
201.2534762960632
 10
397.1811965227455
 20
209.9849906304998
 10
397.1811965227455
 20
181.4784238565948
 10
562.7520484454207
 20
181.4784238565943
 97
        4
330
360
330
37D
330
362
330
3FB
 75
     0
 76
     1
 52
0.0
 41
40.0
 77
     0
 78
     3
 53
0.0
 43
-0.0000000000001137
 44
0.0
 45
7.5
 46
4.330127
 79
     2
 49
5.0
 49
-10.0
 53
120.0
 43
-0.0000000000001137
 44
0.0
 45
-7.499999983612898
 46
4.330127028383291
 79
     2
 49
4.999999999999998
 49
-9.999999999999996
 53
60.0
 43
-0.0000000000001137
 44
0.0
 45
0.0000000163871017
 46
8.66025402838329
 79
     2
 49
-10.0
 49
5.0
 47
0.5853472928651592
 98
        3
 10
543.5655102399485
 20
366.3831394018589
 10
360.7999524431733
 20
200.1445048444566
 10
448.6680084109783
 20
194.8763800985389
  0
HATCH
  5
35C
330
1E
100
AcDbEntity
  8
SCHRAFF
100
AcDbHatch
 10
0.0
 20
0.0
 30
0.0
210
0.0
220
0.0
230
1.0
  2
_USER
 70
     0
 71
     1
 91
        2
 92
        7
 72
     1
 73
     1
 93
       12
 10
238.5451575534252
 20
387.4784238565953
 42
0.1989123673796683
 10
234.3025168663056
 20
385.7210645437147
 42
0.0
 10
232.181196522746
 20
383.599744200155
 42
0.0
 10
234.3025168663054
 20
381.4784238565953
 42
0.0
 10
236.4238372098656
 20
383.599744200155
 42
-0.1989123673796692
 10
238.5451575534254
 20
384.4784238565954
 42
0.0
 10
307.8003702730888
 20
384.4784238565955
 42
-0.2623450888925101
 10
310.3664630535708
 20
383.0325048847149
 42
0.0
 10
318.8651037422557
 20
368.9995811693214
 42
0.0
 10
321.4311965227372
 20
370.5536621974411
 42
0.0
 10
312.9325558340518
 20
384.5865859128352
 42
0.2623450888924354
 10
307.8003702730888
 20
387.4784238565951
 42
0.0
 97
       12
330
388
330
39A
330
397
330
396
330
399
330
395
330
38A
330
3D0
330
3CC
330
3CE
330
3CB
330
3CF
 92
        7
 72
     1
 73
     1
 93
       12
 10
486.5620227723852
 20
387.4784238565947
 42
0.2623450888925057
 10
481.4298372114214
 20
384.5865859128336
 42
0.0
 10
472.931196522737
 20
370.5536621974411
 42
0.0
 10
475.4972893032185
 20
368.9995811693214
 42
0.0
 10
483.9959299919037
 20
383.0325048847157
 42
-0.2623450888924266
 10
486.5620227723852
 20
384.4784238565954
 42
0.0
 10
555.8172354920667
 20
384.4784238565954
 42
-0.1989123673796497
 10
557.9385558356262
 20
383.599744200155
 42
0.0
 10
560.0598761791863
 20
381.4784238565953
 42
0.0
 10
562.1811965227458
 20
383.599744200155
 42
0.0
 10
560.0598761791863
 20
385.7210645437147
 42
0.198912367379638
 10
555.817235492067
 20
387.4784238565945
 42
0.0
 97
       12
330
40F
330
419
330
42B
330
42D
330
42C
330
418
330
40C
330
45A
330
458
330
45B
330
45C
330
459
 75
     0
 76
     0
 52
45.0
 41
2.0
 77
     0
 78
     1
 53
45.0
 43
-0.0000000000001137
 44
0.0
 45
-1.414213562373094
 46
1.414213562373095
 79
     0
 47
0.4003993094690267
 98
        2
 10
303.7096490903176
 20
386.1092077889253
 10
530.5059113787073
 20
386.1092077889253
  0
LINE
  5
35D
330
1E
100
AcDbEntity
  8
HILF
100
AcDbLine
 10
333.9384198628541
 20
347.1617228407175
 30
0.0
 11
460.4239731826203
 21
347.1617228407175
 31
0.0
  0
HATCH
  5
35E
330
1E
100
AcDbEntity
  8
SCHRAFF
100
AcDbHatch
 10
0.0
 20
0.0
 30
0.0
210
0.0
220
0.0
230
1.0
  2
_USER
 70
     0
 71
     1
 91
        2
 92
        7
 72
     1
 73
     1
 93
        5
 10
321.6811965227373
 20
370.5536621974409
 42
0.0
 10
321.4311965227371
 20
370.5536621974409
 42
0.0
 10
318.8651037422557
 20
368.9995811693215
 42
0.0
 10
317.4945331030398
 20
371.2626622820789
 42
0.4866147115763046
 10
321.6811965227373
 20
366.5614823417732
 42
0.0
 97
        5
330
3C5
330
3CE
330
3CC
330
3C6
330
3D2
 92
        7
 72
     1
 73
     1
 93
        5
 10
476.8678599424343
 20
371.2626622820789
 42
0.0
 10
475.4972893032185
 20
368.9995811693215
 42
0.0
 10
472.9311965227368
 20
370.553662197441
 42
0.0
 10
472.681196522737
 20
370.553662197441
 42
0.0
 10
472.6811965227371
 20
366.5614823417732
 42
0.4866147115762822
 97
        5
330
42C
330
42D
330
42E
330
422
330
420
 75
     0
 76
     0
 52
0.0
 41
0.1
 77
     0
 78
     1
 53
0.0
 43
0.0
 44
0.0
 45
0.0
 46
0.1
 79
     0
 47
0.223289314921531
 98
        2
 10
320.4108881701166
 20
368.1034592660673
 10
474.1493469062273
 20
368.1034592660673
  0
LINE
  5
35F
102
{ACAD_REACTORS
330
35A
102
}
330
1E
100
AcDbEntity
  8
STEMPEL
100
AcDbLine
 10
469.387952360662
 20
391.478423856595
 30
0.0
 11
324.9744406848121
 21
391.478423856595
 31
0.0
  0
LINE
  5
360
102
{ACAD_REACTORS
330
35B
102
}
330
1E
100
AcDbEntity
  8
STEMPEL
100
AcDbLine
 10
563.7884150289789
 20
201.2534762960632
 30
0.0
 11
327.6811965227454
 21
213.6273312906713
 31
0.0
  0
DIMENSION
  5
361
330
1E
100
AcDbEntity
  8
BEM
100
AcDbDimension
  2
*D2
 10
562.7520484454207
 20
161.8379625762319
 30
0.0
 11
434.6436718279359
 21
167.3379625762319
 31
0.0
 70
    32
 71
     5
 42
256.2167532349697
  3
Standard
100
AcDbAlignedDimension
 13
306.5352952104511
 23
181.4784238565951
 33
0.0
 14
562.7520484454207
 24
181.4784238565943
 34
0.0
100
AcDbRotatedDimension
1001
ACAD
1000
DSTYLE
1002
{
1070
    40
1040
2.0
1070
    41
1040
3.5
1070
    42
1040
1.0
1070
    43
1040
7.0
1070
    44
1040
1.0
1070
    47
1040
2.0
1070
    48
1040
2.0
1070
    73
1070
     0
1070
    74
1070
     0
1070
    77
1070
     1
1070
    78
1070
     8
1070
    79
1070
     2
1070
   140
1040
3.5
1070
   141
1040
1.5
1070
   146
1040
0.5142857142857144
1070
   147
1040
1.0
1070
   172
1070
     1
1070
   178
1070
     1
1070
   179
1070
     1
1070
   271
1070
     0
1070
   272
1070
     0
1070
   279
1070
     0
1002
}
  0
LINE
  5
362
102
{ACAD_REACTORS
330
35B
102
}
330
1E
100
AcDbEntity
  8
STEMPEL
100
AcDbLine
 10
306.5352952104511
 20
181.4784238565951
 30
0.0
 11
562.7520484454207
 21
181.4784238565943
 31
0.0
  0
LINE
  5
363
102
{ACAD_REACTORS
330
5C7
102
}
330
1E
100
AcDbEntity
  8
STEMPEL
100
AcDbLine
 10
275.1811965227461
 20
392.9784238565957
 30
0.0
 11
554.1811965227458
 21
392.9784238565949
 31
0.0
  0
DIMENSION
  5
366
330
1E
100
AcDbEntity
  8
BEM
100
AcDbDimension
  2
*D3
 10
397.1811965227455
 20
279.5803686773557
 30
0.0
 11
474.405125452375
 21
257.3199208061404
 31
0.0
 70
    34
 71
     5
 42
0.0523598775598222
  3
Standard
100
AcDb2LineAngularDimension
 13
397.1811965227455
 23
279.5803686773553
 33
0.0
 14
395.1811965227455
 24
279.5803686773553
 34
0.0
 15
650.1770851270094
 25
266.3214159878659
 35
0.0
 16
482.868036400223
 26
278.0846993237996
 36
0.0
1001
ACAD
1000
DSTYLE
1002
{
1070
    40
1040
2.0
1070
    41
1040
3.5
1070
    42
1040
1.0
1070
    43
1040
7.0
1070
    44
1040
1.0
1070
    47
1040
2.0
1070
    48
1040
2.0
1070
    73
1070
     0
1070
    74
1070
     0
1070
    77
1070
     1
1070
    78
1070
     8
1070
    79
1070
     2
1070
   140
1040
3.5
1070
   141
1040
1.5
1070
   146
1040
0.5142857142857144
1070
   147
1040
1.0
1070
   172
1070
     1
1070
   178
1070
     1
1070
   179
1070
     1
1070
   271
1070
     1
1070
   272
1070
     1
1070
   279
1070
     0
1002
}
  0
LINE
  5
367
102
{ACAD_REACTORS
330
35A
330
613
102
}
330
1E
100
AcDbEntity
  8
STEMPEL
100
AcDbLine
 10
463.6811965227457
 20
342.6865123638951
 30
0.0
 11
330.6811965227435
 21
216.4742249908165
 31
0.0
  0
LINE
  5
368
102
{ACAD_REACTORS
330
613
102
}
330
1E
100
AcDbEntity
  8
STEMPEL
100
AcDbLine
 10
668.7196174608992
 20
200.7611267290966
 30
0.0
 11
332.6811965227457
 21
218.3721541242462
 31
0.0
  0
LINE
  5
369
102
{ACAD_REACTORS
330
613
102
}
330
1E
100
AcDbEntity
  8
STEMPEL
100
AcDbLine
 10
668.7145600850445
 20
198.7586470829384
 30
0.0
 11
330.6811965227435
 21
216.4742249908165
 31
0.0
  0
DIMENSION
  5
36A
330
1E
100
AcDbEntity
  8
BEM
100
AcDbDimension
  2
*D4
 10
682.1811965227453
 20
144.3514556653283
 30
0.0
 11
539.6811965227454
 21
149.8514556653283
 31
0.0
 70
    32
 71
     5
 42
284.9999999999999
  3
Standard
100
AcDbAlignedDimension
 13
397.1811965227455
 23
161.8379625762319
 33
0.0
 14
682.1811965227453
 24
264.6441515816881
 34
0.0
100
AcDbRotatedDimension
1001
ACAD
1000
DSTYLE
1002
{
1070
    40
1040
2.0
1070
    41
1040
3.5
1070
    42
1040
1.0
1070
    43
1040
7.0
1070
    44
1040
1.0
1070
    47
1040
2.0
1070
    48
1040
2.0
1070
    73
1070
     0
1070
    74
1070
     0
1070
    77
1070
     1
1070
    78
1070
     8
1070
    79
1070
     2
1070
   140
1040
3.5
1070
   141
1040
1.5
1070
   146
1040
0.5142857142857144
1070
   147
1040
1.0
1070
   172
1070
     1
1070
   178
1070
     1
1070
   179
1070
     1
1070
   271
1070
     1
1070
   272
1070
     1
1070
   279
1070
     0
1002
}
  0
LINE
  5
36B
330
1E
100
AcDbEntity
  8
MITTEL
100
AcDbLine
 10
687.1743441965186
 20
264.3824718004735
 30
0.0
 11
397.1811965227455
 21
279.5803686773557
 31
0.0
  0
LINE
  5
36C
330
1E
100
AcDbEntity
  8
STEMPEL
100
AcDbLine
 10
468.657036609387
 20
539.6340698271003
 30
0.0
 11
325.705356436105
 21
539.6340698271003
 31
0.0
  0
LINE
  5
36D
102
{ACAD_REACTORS
330
597
102
}
330
1E
100
AcDbEntity
  8
STEMPEL
100
AcDbLine
 10
461.6811965227459
 20
508.6340698271003
 30
0.0
 11
332.681196522746
 21
508.6340698271003
 31
0.0
  0
LINE
  5
36E
330
1E
100
AcDbEntity
  8
STEMPEL
100
AcDbLine
 10
464.681196522746
 20
532.6340698271003
 30
0.0
 11
329.681196522746
 21
532.6340698271003
 31
0.0
  0
LINE
  5
36F
330
1E
100
AcDbEntity
  8
STEMPEL
100
AcDbLine
 10
458.681196522746
 20
510.6340698271004
 30
0.0
 11
335.681196522746
 21
510.6340698271004
 31
0.0
  0
DIMENSION
  5
371
330
1E
100
AcDbEntity
  8
BEM
100
AcDbDimension
  2
*D5
 10
562.1811965227458
 20
430.1823370621955
 30
0.0
 11
397.1811965227459
 21
436.6823370621955
 31
0.0
 70
    32
  1
%%c<>
 71
     5
 42
330.0
  3
Standard
100
AcDbAlignedDimension
 13
232.1811965227458
 23
390.4784238565954
 33
0.0
 14
562.1811965227458
 24
390.4784238565946
 34
0.0
100
AcDbRotatedDimension
1001
ACAD
1000
DSTYLE
1002
{
1070
    40
1040
2.0
1070
    41
1040
3.5
1070
    42
1040
1.0
1070
    43
1040
7.0
1070
    44
1040
1.0
1070
    47
1040
2.0
1070
    48
1040
2.0
1070
    73
1070
     0
1070
    74
1070
     0
1070
    77
1070
     1
1070
    78
1070
     8
1070
    79
1070
     2
1070
   140
1040
3.5
1070
   141
1040
1.5
1070
   146
1040
0.5142857142857144
1070
   147
1040
1.5
1070
   172
1070
     1
1070
   178
1070
     1
1070
   179
1070
     1
1070
   271
1070
     1
1070
   272
1070
     1
1070
   279
1070
     0
1002
}
  0
LINE
  5
372
102
{ACAD_REACTORS
330
5C7
102
}
330
1E
100
AcDbEntity
  8
STEMPEL
100
AcDbLine
 10
240.1811965227458
 20
398.978423856597
 30
0.0
 11
506.5233392981728
 21
398.9784238565957
 31
0.0
  0
LINE
  5
374
102
{ACAD_REACTORS
330
35A
102
}
330
1E
100
AcDbEntity
  8
STEMPEL
100
AcDbLine
 10
330.6811965227374
 20
342.580368677356
 30
0.0
 11
330.6811965227349
 21
216.474224990817
 31
0.0
  0
LINE
  5
375
102
{ACAD_REACTORS
330
35A
102
}
330
1E
100
AcDbEntity
  8
STEMPEL
100
AcDbLine
 10
332.6811965227373
 20
342.5803686773562
 30
0.0
 11
332.6811965227372
 21
218.3721541242467
 31
0.0
  0
LINE
  5
376
102
{ACAD_REACTORS
330
35B
102
}
330
1E
100
AcDbEntity
  8
STEMPEL
100
AcDbLine
 10
327.6811965227455
 20
347.5361507560348
 30
0.0
 11
327.6811965227455
 21
294.3520439037399
 31
0.0
  0
LINE
  5
377
102
{ACAD_REACTORS
330
35B
102
}
330
1E
100
AcDbEntity
  8
STEMPEL
100
AcDbLine
 10
287.1811965227457
 20
382.4784238565954
 30
0.0
 11
306.5352952104511
 21
181.4784238565951
 31
0.0
  0
LINE
  5
378
330
1E
100
AcDbEntity
  8
MITTEL
100
AcDbLine
 10
397.1811965227457
 20
403.9784238565962
 30
0.0
 11
397.1811965227455
 21
279.5803686773558
 31
0.0
  0
LINE
  5
37C
330
1E
100
AcDbEntity
  8
TEXT
 62
     2
100
AcDbLine
 10
233.1718662661513
 20
253.5707517041891
 30
0.0
 11
329.2597620385283
 21
282.1847882720621
 31
0.0
  0
LINE
  5
37D
102
{ACAD_REACTORS
330
35B
330
613
102
}
330
1E
100
AcDbEntity
  8
BEM
100
AcDbLine
 10
397.1811965227455
 20
279.5803686773558
 30
0.0
 11
397.1811965227455
 21
165.6332577086195
 31
0.0
  0
LINE
  5
37E
102
{ACAD_REACTORS
330
35B
102
}
330
1E
100
AcDbEntity
  8
STEMPEL
100
AcDbLine
 10
327.6811965227454
 20
274.3245969837818
 30
0.0
 11
327.6811965227454
 21
213.6273312906713
 31
0.0
  0
HATCH
  5
37F
330
1E
100
AcDbEntity
  8
SCHRAFF
100
AcDbHatch
 10
0.0
 20
0.0
 30
0.0
210
0.0
220
0.0
230
1.0
  2
_USER
 70
     0
 71
     0
 91
        1
 92
        7
 72
     1
 73
     1
 93
        3
 10
335.4448695717985
 20
216.224571465085
 42
0.0
 10
330.6811965227435
 20
216.4742249908165
 42
0.0
 10
330.6811965227435
 20
221.244435447516
 42
1.163635840847562
 97
        0
 75
     0
 76
     0
 52
0.0
 41
0.1
 77
     0
 78
     1
 53
0.0
 43
0.0
 44
0.0
 45
0.0
 46
0.1
 79
     0
 47
0.0651374704686891
 98
        1
 10
332.438666330788
 20
215.4043145514023
  0
ARC
  5
380
330
1E
100
AcDbEntity
  8
SCHRAFF
100
AcDbCircle
 10
332.6811965227457
 20
218.3721541242486
 30
0.0
 40
3.5
100
AcDbArc
 50
124.8499045790949
 51
322.1500954209095
  0
LINE
  5
381
102
{ACAD_REACTORS
330
35B
102
}
330
1E
100
AcDbEntity
  8
STEMPEL
100
AcDbLine
 10
330.6811965227365
 20
294.1948205658909
 30
0.0
 11
317.6811965227371
 21
294.8761216965707
 31
0.0
  0
LINE
  5
382
102
{ACAD_REACTORS
330
35B
102
}
330
1E
100
AcDbEntity
  8
STEMPEL
100
AcDbLine
 10
330.6811965227361
 20
274.1673736459329
 30
0.0
 11
317.6811965227371
 21
274.8486747766125
 31
0.0
  0
LINE
  5
383
102
{ACAD_REACTORS
330
35B
102
}
330
1E
100
AcDbEntity
  8
STEMPEL
100
AcDbLine
 10
317.6811965227453
 20
294.8761216965703
 30
0.0
 11
317.6811965227453
 21
274.848674776612
 31
0.0
  0
LINE
  5
384
330
1E
100
AcDbEntity
  8
TEXT
 62
     2
100
AcDbLine
 10
93.05623205583277
 20
426.1941636795385
 30
0.0
 11
209.6751718867044
 21
426.1941636795383
 31
0.0
  0
TEXT
  5
385
330
1E
100
AcDbEntity
  8
TEXT
 62
     1
100
AcDbText
 10
95.46125798381968
 20
429.4927312760837
 30
0.0
 40
7.0
  1
Losflansch DN125
 41
0.8
  7
GREEKS
100
AcDbText
  0
TEXT
  5
386
330
1E
100
AcDbEntity
  8
TEXT
 62
     1
100
AcDbText
 10
95.46125798381968
 20
416.3480334370196
 30
0.0
 40
7.0
  1
EDV-Art.Nr. 21905.125X
 41
0.8
  7
GREEKS
100
AcDbText
  0
LINE
  5
387
102
{ACAD_REACTORS
330
35B
102
}
330
1E
100
AcDbEntity
  8
STEMPEL
100
AcDbLine
 10
310.7020264518981
 20
382.4784238565954
 30
0.0
 11
287.1811965227457
 21
382.4784238565954
 31
0.0
  0
LINE
  5
388
102
{ACAD_REACTORS
330
35C
330
6DC
102
}
330
1E
100
AcDbEntity
  8
STEMPEL
100
AcDbLine
 10
323.2877502061912
 20
387.4784238565951
 30
0.0
 11
232.1811965227458
 21
387.4784238565953
 31
0.0
  0
ARC
  5
389
330
1E
100
AcDbEntity
  8
STEMPEL
100
AcDbCircle
 10
287.7342317826409
 20
403.9784238565954
 30
0.0
 40
5.0
100
AcDbArc
 50
270.0
 51
358.9999999999982
  0
LINE
  5
38A
102
{ACAD_REACTORS
330
35C
102
}
330
1E
100
AcDbEntity
  8
STEMPEL
100
AcDbLine
 10
238.5451575534252
 20
384.4784238565954
 30
0.0
 11
307.8003702730888
 21
384.4784238565955
 31
0.0
  0
LINE
  5
38D
330
1E
100
AcDbEntity
  8
STEMPEL
100
AcDbLine
 10
275.1811965227461
 20
398.9784238565954
 30
0.0
 11
275.1811965227461
 21
387.4784238565952
 31
0.0
  0
LINE
  5
38E
330
1E
100
AcDbEntity
  8
HILF
100
AcDbLine
 10
274.1811965227461
 20
398.9784238565954
 30
0.0
 11
274.1811965227461
 21
387.4784238565952
 31
0.0
  0
LINE
  5
38F
330
1E
100
AcDbEntity
  8
HILF
100
AcDbLine
 10
266.1811965227461
 20
398.9784238565954
 30
0.0
 11
266.1811965227461
 21
387.4784238565952
 31
0.0
  0
LINE
  5
390
330
1E
100
AcDbEntity
  8
STEMPEL
100
AcDbLine
 10
265.181196522746
 20
398.9784238565954
 30
0.0
 11
265.181196522746
 21
387.4784238565952
 31
0.0
  0
LINE
  5
391
330
1E
100
AcDbEntity
  8
MITTEL
100
AcDbLine
 10
270.1811965227461
 20
417.4784238565952
 30
0.0
 11
270.1811965227461
 21
387.4784238565952
 31
0.0
  0
LINE
  5
393
330
1E
100
AcDbEntity
  8
STEMPEL
100
AcDbLine
 10
234.3025168663054
 20
381.478423856595
 30
0.0
 11
287.2774855709433
 21
381.478423856595
 31
0.0
  0
LINE
  5
394
330
1E
100
AcDbEntity
  8
STEMPEL
100
AcDbLine
 10
234.3025168663054
 20
381.4784238565954
 30
0.0
 11
287.2774855709433
 21
381.4784238565951
 31
0.0
  0
ARC
  5
395
102
{ACAD_REACTORS
330
35C
102
}
330
1E
100
AcDbEntity
  8
STEMPEL
100
AcDbCircle
 10
238.5451575534252
 20
381.4784238565954
 30
0.0
 40
3.0
100
AcDbArc
 50
90.0
 51
134.9999999999994
  0
LINE
  5
396
102
{ACAD_REACTORS
330
35C
102
}
330
1E
100
AcDbEntity
  8
STEMPEL
100
AcDbLine
 10
232.181196522746
 20
383.599744200155
 30
0.0
 11
234.3025168663056
 21
381.4784238565952
 31
0.0
  0
LINE
  5
397
102
{ACAD_REACTORS
330
35C
102
}
330
1E
100
AcDbEntity
  8
STEMPEL
100
AcDbLine
 10
232.181196522746
 20
383.599744200155
 30
0.0
 11
234.3025168663056
 21
385.7210645437147
 31
0.0
  0
LINE
  5
398
102
{ACAD_REACTORS
330
6DC
102
}
330
1E
100
AcDbEntity
  8
STEMPEL
100
AcDbLine
 10
232.1811965227458
 20
390.4784238565955
 30
0.0
 11
232.1811965227458
 21
387.4784238565953
 31
0.0
  0
LINE
  5
399
102
{ACAD_REACTORS
330
35C
102
}
330
1E
100
AcDbEntity
  8
STEMPEL
100
AcDbLine
 10
234.3025168663056
 20
381.4784238565954
 30
0.0
 11
236.4238372098656
 21
383.599744200155
 31
0.0
  0
ARC
  5
39A
102
{ACAD_REACTORS
330
35C
102
}
330
1E
100
AcDbEntity
  8
STEMPEL
100
AcDbCircle
 10
238.5451575534252
 20
381.4784238565954
 30
0.0
 40
6.0
100
AcDbArc
 50
90.0
 51
134.9999999999994
  0
LINE
  5
39B
102
{ACAD_REACTORS
330
6DC
102
}
330
1E
100
AcDbEntity
  8
STEMPEL
100
AcDbLine
 10
263.181196522746
 20
390.4784238565954
 30
0.0
 11
263.181196522746
 21
387.4784238565952
 31
0.0
  0
LINE
  5
39C
102
{ACAD_REACTORS
330
6DC
102
}
330
1E
100
AcDbEntity
  8
STEMPEL
100
AcDbLine
 10
277.1811965227461
 20
390.4784238565952
 30
0.0
 11
277.1811965227461
 21
387.4784238565952
 31
0.0
  0
LINE
  5
39D
330
1E
100
AcDbEntity
  8
TEXT
 62
     2
100
AcDbLine
 10
241.7223003881269
 20
396.283333058719
 30
0.0
 11
209.6751718867044
 21
426.1941636795383
 31
0.0
  0
LINE
  5
39F
102
{ACAD_REACTORS
330
5C7
102
}
330
1E
100
AcDbEntity
  8
STEMPEL
100
AcDbLine
 10
240.1811965227458
 20
392.9784238565954
 30
0.0
 11
265.181196522746
 21
392.9784238565955
 31
0.0
  0
ARC
  5
3A0
102
{ACAD_REACTORS
330
5C7
102
}
330
1E
100
AcDbEntity
  8
STEMPEL
100
AcDbCircle
 10
240.1811965227458
 20
395.9784238565955
 30
0.0
 40
3.0
100
AcDbArc
 50
90.0
 51
270.0
  0
LINE
  5
3A2
330
1E
100
AcDbEntity
  8
STEMPEL
100
AcDbLine
 10
274.1811965227459
 20
412.4784238565961
 30
0.0
 11
266.1811965227458
 21
412.4784238565961
 31
0.0
  0
LINE
  5
3A3
330
1E
100
AcDbEntity
  8
STEMPEL
100
AcDbLine
 10
265.1811965227458
 20
411.4784238565963
 30
0.0
 11
275.1811965227458
 21
411.4784238565963
 31
0.0
  0
LINE
  5
3AB
102
{ACAD_REACTORS
330
5C7
102
}
330
1E
100
AcDbEntity
  8
STEMPEL
100
AcDbLine
 10
263.181196522746
 20
398.9784238565954
 30
0.0
 11
263.181196522746
 21
392.9784238565955
 31
0.0
  0
LINE
  5
3AE
330
1E
100
AcDbEntity
  8
STEMPEL
100
AcDbLine
 10
266.1811965227458
 20
412.4784238565961
 30
0.0
 11
265.1811965227458
 21
411.478423856596
 31
0.0
  0
LINE
  5
3AF
330
1E
100
AcDbEntity
  8
HILF
100
AcDbLine
 10
266.1811965227458
 20
412.4784238565961
 30
0.0
 11
266.1811965227458
 21
408.9784238565967
 31
0.0
  0
LINE
  5
3B0
330
1E
100
AcDbEntity
  8
STEMPEL
100
AcDbLine
 10
265.1811965227458
 20
411.478423856596
 30
0.0
 11
265.1811965227458
 21
408.9784238565967
 31
0.0
  0
LINE
  5
3B1
330
1E
100
AcDbEntity
  8
STEMPEL
100
AcDbLine
 10
265.181196522746
 20
411.4784238565952
 30
0.0
 11
265.181196522746
 21
408.9784238565967
 31
0.0
  0
LINE
  5
3B2
330
1E
100
AcDbEntity
  8
HILF
100
AcDbLine
 10
266.1811965227461
 20
412.4784238565951
 30
0.0
 11
266.1811965227461
 21
408.9784238565967
 31
0.0
  0
LINE
  5
3B6
102
{ACAD_REACTORS
330
5C7
102
}
330
1E
100
AcDbEntity
  8
STEMPEL
100
AcDbLine
 10
277.1811965227461
 20
398.9784238565954
 30
0.0
 11
277.1811965227461
 21
392.9784238565952
 31
0.0
  0
LINE
  5
3B9
330
1E
100
AcDbEntity
  8
STEMPEL
100
AcDbLine
 10
275.1811965227458
 20
411.478423856596
 30
0.0
 11
274.1811965227459
 21
412.4784238565961
 31
0.0
  0
LINE
  5
3BA
330
1E
100
AcDbEntity
  8
HILF
100
AcDbLine
 10
274.1811965227459
 20
412.4784238565961
 30
0.0
 11
274.1811965227459
 21
408.9784238565967
 31
0.0
  0
LINE
  5
3BB
330
1E
100
AcDbEntity
  8
STEMPEL
100
AcDbLine
 10
275.1811965227458
 20
411.478423856596
 30
0.0
 11
275.1811965227458
 21
408.9784238565968
 31
0.0
  0
LINE
  5
3BC
330
1E
100
AcDbEntity
  8
STEMPEL
100
AcDbLine
 10
275.1811965227461
 20
411.4784238565952
 30
0.0
 11
275.1811965227461
 21
408.9784238565967
 31
0.0
  0
LINE
  5
3BD
330
1E
100
AcDbEntity
  8
HILF
100
AcDbLine
 10
274.1811965227461
 20
412.4784238565951
 30
0.0
 11
274.1811965227461
 21
408.9784238565967
 31
0.0
  0
LINE
  5
3C0
102
{ACAD_REACTORS
330
35A
102
}
330
1E
100
AcDbEntity
  8
STEMPEL
100
AcDbLine
 10
327.1811965227374
 20
391.478423856595
 30
0.0
 11
326.2577323792294
 21
389.49804861
 31
0.0
  0
ARC
  5
3C1
102
{ACAD_REACTORS
330
35A
102
}
330
1E
100
AcDbEntity
  8
STEMPEL
100
AcDbCircle
 10
351.1811965227373
 20
377.8760464121307
 30
0.0
 40
29.5
100
AcDbArc
 50
155.0000000000074
 51
180.0
  0
ARC
  5
3C2
102
{ACAD_REACTORS
330
35A
102
}
330
1E
100
AcDbEntity
  8
STEMPEL
100
AcDbCircle
 10
320.1811965227374
 20
342.5803686773562
 30
0.0
 40
10.5
100
AcDbArc
 50
0.0
 51
43.00087522888804
  0
ARC
  5
3C3
102
{ACAD_REACTORS
330
35A
102
}
330
1E
100
AcDbEntity
  8
STEMPEL
100
AcDbCircle
 10
320.1811965227374
 20
342.5803686773562
 30
0.0
 40
12.5
100
AcDbArc
 50
0.0
 51
43.00087522888804
  0
ARC
  5
3C4
102
{ACAD_REACTORS
330
35A
102
}
330
1E
100
AcDbEntity
  8
STEMPEL
100
AcDbCircle
 10
344.6811965227372
 20
365.4276879949478
 30
0.0
 40
23.0
100
AcDbArc
 50
180.0
 51
223.0008752288881
  0
LINE
  5
3C5
102
{ACAD_REACTORS
330
35E
102
}
330
1E
100
AcDbEntity
  8
STEMPEL
100
AcDbLine
 10
321.4311965227371
 20
370.553662197441
 30
0.0
 11
321.6811965227373
 21
370.553662197441
 31
0.0
  0
ARC
  5
3C6
102
{ACAD_REACTORS
330
35E
330
35B
102
}
330
1E
100
AcDbEntity
  8
SCHRAFF
100
AcDbCircle
 10
321.4311965227371
 20
370.553662197441
 30
0.0
 40
4.0
100
AcDbArc
 50
169.790377890732
 51
273.5833216984751
  0
LINE
  5
3C7
102
{ACAD_REACTORS
330
35B
102
}
330
1E
100
AcDbEntity
  8
STEMPEL
100
AcDbLine
 10
318.6811965227455
 20
358.9281713249021
 30
0.0
 11
327.6811965227455
 21
347.5361507560348
 31
0.0
  0
LINE
  5
3C8
330
1E
100
AcDbEntity
  8
STEMPEL
100
AcDbLine
 10
318.6811965227455
 20
358.9281713249021
 30
0.0
 11
322.6186426575158
 21
358.9281713249021
 31
0.0
  0
LINE
  5
3C9
102
{ACAD_REACTORS
330
35B
102
}
330
1E
100
AcDbEntity
  8
STEMPEL
100
AcDbLine
 10
318.6811965227455
 20
369.3032480822588
 30
0.0
 11
318.6811965227455
 21
358.9281713249021
 31
0.0
  0
LINE
  5
3CA
102
{ACAD_REACTORS
330
6DC
102
}
330
1E
100
AcDbEntity
  8
STEMPEL
100
AcDbLine
 10
302.1811965227458
 20
390.4784238565952
 30
0.0
 11
302.1811965227458
 21
387.478423856595
 31
0.0
  0
LINE
  5
3CB
102
{ACAD_REACTORS
330
35C
102
}
330
1E
100
AcDbEntity
  8
STEMPEL
100
AcDbLine
 10
312.9325558340518
 20
384.5865859128352
 30
0.0
 11
321.4311965227371
 21
370.553662197441
 31
0.0
  0
LINE
  5
3CC
102
{ACAD_REACTORS
330
35E
330
35C
330
35B
102
}
330
1E
100
AcDbEntity
  8
STEMPEL
100
AcDbLine
 10
310.3664630535703
 20
383.0325048847157
 30
0.0
 11
318.8651037422557
 21
368.9995811693214
 31
0.0
  0
LINE
  5
3CD
102
{ACAD_REACTORS
330
35B
102
}
330
1E
100
AcDbEntity
  8
STEMPEL
100
AcDbLine
 10
307.1309439910515
 20
382.4784238565954
 30
0.0
 11
316.1859069397457
 21
373.4234609079019
 31
0.0
  0
LINE
  5
3CE
102
{ACAD_REACTORS
330
35E
330
35C
102
}
330
1E
100
AcDbEntity
  8
STEMPEL
100
AcDbLine
 10
321.4311965227371
 20
370.553662197441
 30
0.0
 11
318.8651037422557
 21
368.9995811693214
 31
0.0
  0
ARC
  5
3CF
102
{ACAD_REACTORS
330
35C
102
}
330
1E
100
AcDbEntity
  8
STEMPEL
100
AcDbCircle
 10
307.8003702730888
 20
381.4784238565963
 30
0.0
 40
6.0
100
AcDbArc
 50
31.19999999999809
 51
90.0
  0
ARC
  5
3D0
102
{ACAD_REACTORS
330
35C
102
}
330
1E
100
AcDbEntity
  8
STEMPEL
100
AcDbCircle
 10
307.8003702730888
 20
381.4784238565963
 30
0.0
 40
3.0
100
AcDbArc
 50
31.19999999999809
 51
90.0
  0
LINE
  5
3D1
102
{ACAD_REACTORS
330
35A
102
}
330
1E
100
AcDbEntity
  8
STEMPEL
100
AcDbLine
 10
323.6811965227374
 20
377.8760464121305
 30
0.0
 11
323.6811965227374
 21
365.4276879949478
 31
0.0
  0
LINE
  5
3D2
102
{ACAD_REACTORS
330
35E
330
35A
102
}
330
1E
100
AcDbEntity
  8
STEMPEL
100
AcDbLine
 10
321.6811965227373
 20
377.8760464121307
 30
0.0
 11
321.6811965227373
 21
365.4276879949478
 31
0.0
  0
ARC
  5
3D3
102
{ACAD_REACTORS
330
35A
102
}
330
1E
100
AcDbEntity
  8
STEMPEL
100
AcDbCircle
 10
344.6811965227373
 20
365.4276879949478
 30
0.0
 40
21.0
100
AcDbArc
 50
180.0
 51
223.0008752288881
  0
LINE
  5
3D4
330
1E
100
AcDbEntity
  8
STEMPEL
100
AcDbLine
 10
327.6811965227455
 20
347.5361507560348
 30
0.0
 11
329.4380979475473
 21
347.5361507560348
 31
0.0
  0
ARC
  5
3D5
102
{ACAD_REACTORS
330
35A
102
}
330
1E
100
AcDbEntity
  8
STEMPEL
100
AcDbCircle
 10
351.1811965227373
 20
377.8760464121307
 30
0.0
 40
27.5
100
AcDbArc
 50
155.0000000000074
 51
180.0
  0
LINE
  5
3D6
330
1E
100
AcDbEntity
  8
MITTEL
100
AcDbLine
 10
300.3920890072141
 20
417.978423856597
 30
0.0
 11
300.3920890072142
 21
398.9784238565954
 31
0.0
  0
LINE
  5
3D7
330
1E
100
AcDbEntity
  8
STEMPEL
100
AcDbLine
 10
292.8920890072141
 20
412.9784238565973
 30
0.0
 11
307.8920890072142
 21
412.978423856597
 31
0.0
  0
ARC
  5
3D8
102
{ACAD_REACTORS
330
5C7
102
}
330
1E
100
AcDbEntity
  8
STEMPEL
100
AcDbCircle
 10
300.181196522746
 20
395.978423856596
 30
0.0
 40
3.0
100
AcDbArc
 50
270.0
 51
90.0
  0
LINE
  5
3DA
330
1E
100
AcDbEntity
  8
STEMPEL
100
AcDbLine
 10
292.7334702584227
 20
403.8911618244091
 30
0.0
 11
292.8920890072141
 21
412.9784238565951
 31
0.0
  0
ARC
  5
3DB
330
1E
100
AcDbEntity
  8
STEMPEL
100
AcDbCircle
 10
313.0499462317877
 20
403.9784238565951
 30
0.0
 40
5.0
100
AcDbArc
 50
181.0000000000017
 51
270.0
  0
LINE
  5
3DC
330
1E
100
AcDbEntity
  8
STEMPEL
100
AcDbLine
 10
308.0507077560056
 20
403.8911618244088
 30
0.0
 11
307.8920890072142
 21
412.9784238565951
 31
0.0
  0
LINE
  5
3DD
102
{ACAD_REACTORS
330
35A
102
}
330
1E
100
AcDbEntity
  8
STEMPEL
100
AcDbLine
 10
324.9744406848123
 20
391.478423856595
 30
0.0
 11
324.4451168051562
 21
390.3432851334816
 31
0.0
  0
LINE
  5
3DE
102
{ACAD_REACTORS
330
597
102
}
330
1E
100
AcDbEntity
  8
STEMPEL
100
AcDbLine
 10
329.681196522746
 20
532.6340698271003
 30
0.0
 11
329.681196522746
 21
516.6340698271003
 31
0.0
  0
LINE
  5
3DF
102
{ACAD_REACTORS
330
597
102
}
330
1E
100
AcDbEntity
  8
STEMPEL
100
AcDbLine
 10
323.8811965227459
 20
524.6340698271003
 30
0.0
 11
325.701047694077
 21
529.6340698271003
 31
0.0
  0
LINE
  5
3E0
102
{ACAD_REACTORS
330
597
102
}
330
1E
100
AcDbEntity
  8
STEMPEL
100
AcDbLine
 10
321.481196522746
 20
518.1340698271003
 30
0.0
 11
323.681196522746
 21
515.9340698271003
 31
0.0
  0
LINE
  5
3E1
102
{ACAD_REACTORS
330
597
102
}
330
1E
100
AcDbEntity
  8
STEMPEL
100
AcDbLine
 10
321.481196522746
 20
519.1340698271003
 30
0.0
 11
323.8811965227459
 21
521.5340698271003
 31
0.0
  0
LINE
  5
3E2
102
{ACAD_REACTORS
330
597
102
}
330
1E
100
AcDbEntity
  8
STEMPEL
100
AcDbLine
 10
321.481196522746
 20
509.6340698271003
 30
0.0
 11
323.681196522746
 21
513.4445816037518
 31
0.0
  0
LINE
  5
3E3
102
{ACAD_REACTORS
330
597
102
}
330
1E
100
AcDbEntity
  8
STEMPEL
100
AcDbLine
 10
321.481196522746
 20
509.6340698271003
 30
0.0
 11
329.3645717323906
 21
509.6340698271003
 31
0.0
  0
LINE
  5
3E4
102
{ACAD_REACTORS
330
597
102
}
330
1E
100
AcDbEntity
  8
STEMPEL
100
AcDbLine
 10
321.481196522746
 20
519.1340698271003
 30
0.0
 11
321.481196522746
 21
518.1340698271003
 31
0.0
  0
ARC
  5
3E5
102
{ACAD_REACTORS
330
597
102
}
330
1E
100
AcDbEntity
  8
STEMPEL
100
AcDbCircle
 10
332.681196522746
 20
514.6340698271003
 30
0.0
 40
6.0
100
AcDbArc
 50
199.4712206344929
 51
270.0
  0
ARC
  5
3E6
102
{ACAD_REACTORS
330
597
102
}
330
1E
100
AcDbEntity
  8
STEMPEL
100
AcDbCircle
 10
335.681196522746
 20
516.6340698271003
 30
0.0
 40
6.0
100
AcDbArc
 50
180.0
 51
270.0
  0
LINE
  5
3E7
102
{ACAD_REACTORS
330
597
102
}
330
1E
100
AcDbEntity
  8
STEMPEL
100
AcDbLine
 10
326.481196522746
 20
512.6340698271003
 30
0.0
 11
327.0243422732538
 21
512.6340698271003
 31
0.0
  0
LINE
  5
3E8
102
{ACAD_REACTORS
330
597
102
}
330
1E
100
AcDbEntity
  8
STEMPEL
100
AcDbLine
 10
323.481196522746
 20
509.6340698271003
 30
0.0
 11
326.481196522746
 21
512.6340698271003
 31
0.0
  0
LINE
  5
3E9
102
{ACAD_REACTORS
330
597
102
}
330
1E
100
AcDbEntity
  8
STEMPEL
100
AcDbLine
 10
323.681196522746
 20
515.9340698271003
 30
0.0
 11
323.681196522746
 21
513.4445816037518
 31
0.0
  0
LINE
  5
3EA
102
{ACAD_REACTORS
330
597
102
}
330
1E
100
AcDbEntity
  8
STEMPEL
100
AcDbLine
 10
335.681196522746
 20
510.6340698271004
 30
0.0
 11
335.681196522746
 21
508.6340698271003
 31
0.0
  0
LINE
  5
3EB
102
{ACAD_REACTORS
330
597
102
}
330
1E
100
AcDbEntity
  8
STEMPEL
100
AcDbLine
 10
323.8811965227459
 20
524.6340698271003
 30
0.0
 11
323.8811965227459
 21
521.5340698271003
 31
0.0
  0
LINE
  5
3EC
102
{ACAD_REACTORS
330
597
102
}
330
1E
100
AcDbEntity
  8
STEMPEL
100
AcDbLine
 10
329.681196522746
 20
532.6340698271003
 30
0.0
 11
328.3616289229964
 21
537.5587631533874
 31
0.0
  0
LINE
  5
3ED
102
{ACAD_REACTORS
330
597
102
}
330
1E
100
AcDbEntity
  8
STEMPEL
100
AcDbLine
 10
321.681196522746
 20
532.6340698271003
 30
0.0
 11
323.0007641224956
 21
537.5587631533874
 31
0.0
  0
LINE
  5
3EE
102
{ACAD_REACTORS
330
597
102
}
330
1E
100
AcDbEntity
  8
STEMPEL
100
AcDbLine
 10
321.681196522746
 20
532.6340698271003
 30
0.0
 11
326.181196522746
 21
532.6340698271003
 31
0.0
  0
ARC
  5
3EF
102
{ACAD_REACTORS
330
597
102
}
330
1E
100
AcDbEntity
  8
STEMPEL
100
AcDbCircle
 10
326.181196522746
 20
530.6340698271003
 30
0.0
 40
1.0
100
AcDbArc
 50
270.0
 51
0.0
  0
LINE
  5
3F0
102
{ACAD_REACTORS
330
597
102
}
330
1E
100
AcDbEntity
  8
STEMPEL
100
AcDbLine
 10
325.701047694077
 20
529.6340698271003
 30
0.0
 11
326.181196522746
 21
529.6340698271003
 31
0.0
  0
LINE
  5
3F1
102
{ACAD_REACTORS
330
597
102
}
330
1E
100
AcDbEntity
  8
STEMPEL
100
AcDbLine
 10
327.181196522746
 20
531.6340698271003
 30
0.0
 11
327.181196522746
 21
530.6340698271003
 31
0.0
  0
ARC
  5
3F2
102
{ACAD_REACTORS
330
597
102
}
330
1E
100
AcDbEntity
  8
STEMPEL
100
AcDbCircle
 10
326.181196522746
 20
531.6340698271003
 30
0.0
 40
1.0
100
AcDbArc
 50
0.0
 51
90.0
  0
ARC
  5
3F3
102
{ACAD_REACTORS
330
597
102
}
330
1E
100
AcDbEntity
  8
STEMPEL
100
AcDbCircle
 10
325.705356436105
 20
536.8340698271002
 30
0.0
 40
2.799999999999999
100
AcDbArc
 50
90.0
 51
164.9999999999988
  0
ARC
  5
3F4
102
{ACAD_REACTORS
330
597
102
}
330
1E
100
AcDbEntity
  8
STEMPEL
100
AcDbCircle
 10
325.657036609387
 20
536.8340698271002
 30
0.0
 40
2.799999999999999
100
AcDbArc
 50
15.00000000000116
 51
90.0
  0
LINE
  5
3F5
330
1E
100
AcDbEntity
  8
MITTEL
100
AcDbLine
 10
397.181196522746
 20
544.6340698271004
 30
0.0
 11
397.181196522746
 21
503.6340698271003
 31
0.0
  0
DIMENSION
  5
3F6
330
1E
100
AcDbEntity
  8
BEM
100
AcDbDimension
  2
*D6
 10
754.311793259187
 20
181.4784238565942
 30
0.0
 11
748.8117932591869
 21
284.4784238565945
 31
0.0
 70
    32
 71
     5
 42
206.0000000000004
  3
Standard
100
AcDbAlignedDimension
 13
572.9359573346619
 23
387.4784238565947
 33
0.0
 14
562.7520484454207
 24
181.4784238565943
 34
0.0
 50
90.0
100
AcDbRotatedDimension
1001
ACAD
1000
DSTYLE
1002
{
1070
    40
1040
2.0
1070
    41
1040
3.5
1070
    42
1040
1.0
1070
    43
1040
7.0
1070
    44
1040
1.0
1070
    47
1040
2.0
1070
    48
1040
2.0
1070
    73
1070
     0
1070
    74
1070
     0
1070
    77
1070
     1
1070
    78
1070
     8
1070
    79
1070
     2
1070
   140
1040
3.5
1070
   141
1040
1.5
1070
   146
1040
0.5142857142857144
1070
   147
1040
1.0
1070
   172
1070
     1
1070
   178
1070
     1
1070
   179
1070
     1
1070
   271
1070
     0
1070
   272
1070
     0
1070
   279
1070
     0
1002
}
  0
DIMENSION
  5
3F7
330
1E
100
AcDbEntity
  8
BEM
100
AcDbDimension
  2
*D7
 10
699.699989568482
 20
197.1347695335803
 30
0.0
 11
697.6878682174873
 21
263.8314813540956
 31
0.0
 70
    33
  1
%%c<>
 71
     5
 42
132.9999999999999
  3
Standard
100
AcDbAlignedDimension
 13
675.6752422653557
 23
331.5763752052967
 33
0.0
 14
668.7145600850445
 24
198.7586470829384
 34
0.0
1001
ACAD
1000
DSTYLE
1002
{
1070
    40
1040
2.0
1070
    41
1040
3.5
1070
    42
1040
1.0
1070
    43
1040
7.0
1070
    44
1040
1.0
1070
    47
1040
2.0
1070
    48
1040
2.0
1070
    73
1070
     0
1070
    74
1070
     0
1070
    77
1070
     1
1070
    78
1070
     8
1070
    79
1070
     2
1070
   140
1040
3.5
1070
   141
1040
1.5
1070
   146
1040
0.5142857142857144
1070
   147
1040
1.0
1070
   172
1070
     1
1070
   178
1070
     1
1070
   179
1070
     1
1070
   271
1070
     1
1070
   272
1070
     1
1070
   279
1070
     0
1002
}
  0
LINE
  5
3F8
330
1E
100
AcDbEntity
  8
HILF
100
AcDbLine
 10
675.4658984403834
 20
327.5818570662784
 30
0.0
 11
668.9239039100161
 21
202.7531652219567
 31
0.0
  0
LINE
  5
3F9
102
{ACAD_REACTORS
330
613
102
}
330
1E
100
AcDbEntity
  8
STEMPEL
100
AcDbLine
 10
685.6092016566582
 20
330.0543861081128
 30
0.0
 11
678.7531913888328
 21
199.2339170552635
 31
0.0
  0
DIMENSION
  5
3FA
330
1E
100
AcDbEntity
  8
SCHRAFF
100
AcDbDimension
  2
*D8
 10
730.0989724298374
 20
264.6441515816881
 30
0.0
 11
724.5989724298373
 21
326.0612877191415
 31
0.0
 70
    32
  1
123
 71
     5
 42
122.8342722749065
  3
Standard
100
AcDbAlignedDimension
 13
555.8172354920667
 23
387.4784238565947
 33
0.0
 14
708.1532966932904
 24
264.6441515816881
 34
0.0
 50
90.0
100
AcDbRotatedDimension
1001
ACAD
1000
DSTYLE
1002
{
1070
    40
1040
2.0
1070
    41
1040
3.5
1070
    42
1040
1.0
1070
    43
1040
7.0
1070
    44
1040
1.0
1070
    47
1040
2.0
1070
    48
1040
2.0
1070
    73
1070
     0
1070
    74
1070
     0
1070
    77
1070
     1
1070
    78
1070
     8
1070
    79
1070
     2
1070
   140
1040
3.5
1070
   141
1040
1.5
1070
   146
1040
0.5142857142857144
1070
   147
1040
1.0
1070
   172
1070
     1
1070
   178
1070
     1
1070
   179
1070
     1
1070
   271
1070
     1
1070
   272
1070
     1
1070
   279
1070
     0
1002
}
  0
LINE
  5
3FB
102
{ACAD_REACTORS
330
35B
102
}
330
1E
100
AcDbEntity
  8
STEMPEL
100
AcDbLine
 10
563.9454228977078
 20
204.2493649003273
 30
0.0
 11
562.7520484454207
 21
181.4784238565943
 31
0.0
  0
LINE
  5
3FC
102
{ACAD_REACTORS
330
613
102
}
330
1E
100
AcDbEntity
  8
STEMPEL
100
AcDbLine
 10
678.8583853589837
 20
201.2411375784359
 30
0.0
 11
668.7196174608992
 21
200.7611267290966
 31
0.0
  0
LINE
  5
3FD
102
{ACAD_REACTORS
330
613
102
}
330
1E
100
AcDbEntity
  8
STEMPEL
100
AcDbLine
 10
678.7531913888328
 20
199.2339170552635
 30
0.0
 11
668.7145600850445
 21
198.7586470829384
 31
0.0
  0
TEXT
  5
3FE
330
1E
100
AcDbEntity
  8
TEXT
 62
     1
100
AcDbText
 10
559.5479982193531
 20
274.546753538899
 30
0.0
 40
7.0
  1
DN125
 50
356.5193892912067
 41
0.8
  7
GREEKS
100
AcDbText
  0
TEXT
  5
3FF
330
1E
100
AcDbEntity
  8
TEXT
 62
     1
100
AcDbText
 10
593.2802951662258
 20
405.9106419332151
 30
0.0
 40
7.0
  1
EDV-Art.Nr. 21810.150X
 41
0.8
  7
GREEKS
100
AcDbText
  0
LINE
  5
400
330
1E
100
AcDbEntity
  8
TEXT
 62
     2
100
AcDbLine
 10
590.8752692382389
 20
415.756772175734
 30
0.0
 11
699.9958719755682
 21
415.7567721757338
 31
0.0
  0
TEXT
  5
401
330
1E
100
AcDbEntity
  8
TEXT
 62
     1
100
AcDbText
 10
593.2802951662258
 20
419.0553397722792
 30
0.0
 40
7.0
  1
Kompressionsdichtung
 41
0.8
  7
GREEKS
100
AcDbText
  0
LINE
  5
405
102
{ACAD_REACTORS
330
35B
102
}
330
1E
100
AcDbEntity
  8
STEMPEL
100
AcDbLine
 10
570.9755533503591
 20
343.0716874689443
 30
0.0
 11
475.1651471702253
 21
348.0928980890518
 31
0.0
  0
LINE
  5
406
102
{ACAD_REACTORS
330
35B
102
}
330
1E
100
AcDbEntity
  8
STEMPEL
100
AcDbLine
 10
573.1811965227456
 20
380.4784238565945
 30
0.0
 11
549.1811965227456
 21
380.4784238565952
 31
0.0
  0
LINE
  5
409
102
{ACAD_REACTORS
330
613
102
}
330
1E
100
AcDbEntity
  8
STEMPEL
100
AcDbLine
 10
675.4709558162393
 20
329.5843367124366
 30
0.0
 11
461.6811965227457
 21
340.7885832304653
 31
0.0
  0
LINE
  5
40A
102
{ACAD_REACTORS
330
41B
330
613
102
}
330
1E
100
AcDbEntity
  8
STEMPEL
100
AcDbLine
 10
675.6752422653557
 20
331.5763752052967
 30
0.0
 11
463.6811965227455
 21
342.6865123638951
 31
0.0
  0
LINE
  5
40B
102
{ACAD_REACTORS
330
5C7
102
}
330
1E
100
AcDbEntity
  8
STEMPEL
100
AcDbLine
 10
531.8390537473195
 20
398.9784238565957
 30
0.0
 11
554.1811965227458
 21
398.9784238565957
 31
0.0
  0
LINE
  5
40C
102
{ACAD_REACTORS
330
35C
102
}
330
1E
100
AcDbEntity
  8
STEMPEL
100
AcDbLine
 10
555.8172354920667
 20
384.4784238565954
 30
0.0
 11
486.5620227723852
 21
384.4784238565954
 31
0.0
  0
LINE
  5
40D
330
1E
100
AcDbEntity
  8
STEMPEL
100
AcDbLine
 10
560.0598761791864
 20
381.478423856595
 30
0.0
 11
549.1811965227456
 21
381.478423856595
 31
0.0
  0
LINE
  5
40E
330
1E
100
AcDbEntity
  8
STEMPEL
100
AcDbLine
 10
549.1811965227454
 20
381.4784238565945
 30
0.0
 11
560.059876179186
 21
381.4784238565945
 31
0.0
  0
LINE
  5
40F
102
{ACAD_REACTORS
330
35C
330
6DC
102
}
330
1E
100
AcDbEntity
  8
STEMPEL
100
AcDbLine
 10
562.1811965227458
 20
387.4784238565945
 30
0.0
 11
471.0746428392834
 21
387.4784238565948
 31
0.0
  0
LINE
  5
411
102
{ACAD_REACTORS
330
35A
102
}
330
1E
100
AcDbEntity
  8
STEMPEL
100
AcDbLine
 10
467.1811965227369
 20
391.478423856595
 30
0.0
 11
468.1046606662449
 21
389.49804861
 31
0.0
  0
ARC
  5
412
102
{ACAD_REACTORS
330
35A
102
}
330
1E
100
AcDbEntity
  8
STEMPEL
100
AcDbCircle
 10
443.1811965227371
 20
377.8760464121307
 30
0.0
 40
29.5
100
AcDbArc
 50
0.0
 51
24.99999999999259
  0
LINE
  5
413
330
1E
100
AcDbEntity
  8
STEMPEL
100
AcDbLine
 10
502.9370707397326
 20
392.9784238565951
 30
0.0
 11
502.9370707397323
 21
390.4784238565949
 31
0.0
  0
LINE
  5
414
330
1E
100
AcDbEntity
  8
HILF
100
AcDbLine
 10
501.9370707397321
 20
392.9784238565951
 30
0.0
 11
501.9370707397322
 21
390.4784238565949
 31
0.0
  0
LINE
  5
415
330
1E
100
AcDbEntity
  8
HILF
100
AcDbLine
 10
493.9370707397318
 20
392.9784238565951
 30
0.0
 11
493.9370707397322
 21
390.4784238565949
 31
0.0
  0
LINE
  5
416
330
1E
100
AcDbEntity
  8
STEMPEL
100
AcDbLine
 10
492.9370707397321
 20
392.9784238565951
 30
0.0
 11
492.9370707397322
 21
390.4784238565949
 31
0.0
  0
LINE
  5
417
102
{ACAD_REACTORS
330
5C7
330
6DC
102
}
330
1E
100
AcDbEntity
  8
MITTEL
100
AcDbLine
 10
497.9370707397321
 20
417.4784238565947
 30
0.0
 11
497.9370707397321
 21
387.4784238565952
 31
0.0
  0
ARC
  5
418
102
{ACAD_REACTORS
330
35C
102
}
330
1E
100
AcDbEntity
  8
STEMPEL
100
AcDbCircle
 10
486.5620227723852
 20
381.4784238565963
 30
0.0
 40
3.0
100
AcDbArc
 50
90.0
 51
148.8000000000019
  0
ARC
  5
419
102
{ACAD_REACTORS
330
35C
102
}
330
1E
100
AcDbEntity
  8
STEMPEL
100
AcDbCircle
 10
486.5620227723852
 20
381.4784238565963
 30
0.0
 40
6.0
100
AcDbArc
 50
90.0
 51
148.8000000000019
  0
LINE
  5
41A
102
{ACAD_REACTORS
330
35B
102
}
330
1E
100
AcDbEntity
  8
STEMPEL
100
AcDbLine
 10
487.23144905444
 20
382.4784238565954
 30
0.0
 11
478.1764861057013
 21
373.4234609078574
 31
0.0
  0
HATCH
  5
41B
330
1E
100
AcDbEntity
  8
SCHRAFF
100
AcDbHatch
 10
0.0
 20
0.0
 30
0.0
210
0.0
220
0.0
230
1.0
  2
_USER
 70
     0
 71
     1
 91
        1
 92
        7
 72
     1
 73
     1
 93
        3
 10
466.6770851270094
 20
342.5295044951663
 42
0.3848540056529873
 10
464.1402740350796
 20
345.6511789282273
 42
0.0717954582423468
 10
463.6817327515325
 20
342.6864842613352
 42
0.0
 97
        3
330
41D
330
40A
330
41E
 75
     0
 76
     0
 52
0.0
 41
0.1
 77
     0
 78
     1
 53
0.0
 43
0.0
 44
0.0
 45
0.0
 46
0.1
 79
     0
 47
0.0911416499812219
 98
        1
 10
464.9890587557973
 20
343.7583733916472
  0
ARC
  5
41C
102
{ACAD_REACTORS
330
35A
102
}
330
1E
100
AcDbEntity
  8
STEMPEL
100
AcDbCircle
 10
474.181196522737
 20
342.5803686773562
 30
0.0
 40
12.5
100
AcDbArc
 50
136.9991247711119
 51
180.0
  0
ARC
  5
41D
102
{ACAD_REACTORS
330
41B
330
35A
102
}
330
1E
100
AcDbEntity
  8
STEMPEL
100
AcDbCircle
 10
474.181196522737
 20
342.5803686773562
 30
0.0
 40
10.5
100
AcDbArc
 50
136.9991247711119
 51
179.4209448947722
  0
ARC
  5
41E
102
{ACAD_REACTORS
330
41B
102
}
330
1E
100
AcDbEntity
  8
SCHRAFF
100
AcDbCircle
 10
463.6811965227457
 20
342.6865123638951
 30
0.0
 40
3.0
100
AcDbArc
 50
357.000000000001
 51
81.19768079433695
  0
LINE
  5
41F
102
{ACAD_REACTORS
330
35A
102
}
330
1E
100
AcDbEntity
  8
STEMPEL
100
AcDbLine
 10
461.6811965227371
 20
342.580368677356
 30
0.0
 11
461.681196522737
 21
340.7885832304659
 31
0.0
  0
ARC
  5
420
102
{ACAD_REACTORS
330
35E
330
35B
102
}
330
1E
100
AcDbEntity
  8
SCHRAFF
100
AcDbCircle
 10
472.931196522737
 20
370.553662197441
 30
0.0
 40
4.0
100
AcDbArc
 50
266.4166783015281
 51
10.20962210926793
  0
LINE
  5
421
102
{ACAD_REACTORS
330
35A
102
}
330
1E
100
AcDbEntity
  8
STEMPEL
100
AcDbLine
 10
470.681196522737
 20
377.8760464121303
 30
0.0
 11
470.6811965227369
 21
365.4276879949478
 31
0.0
  0
LINE
  5
422
102
{ACAD_REACTORS
330
35E
330
35A
102
}
330
1E
100
AcDbEntity
  8
STEMPEL
100
AcDbLine
 10
472.6811965227371
 20
377.8760464121307
 30
0.0
 11
472.6811965227371
 21
365.4276879949478
 31
0.0
  0
LINE
  5
423
102
{ACAD_REACTORS
330
35B
102
}
330
1E
100
AcDbEntity
  8
STEMPEL
100
AcDbLine
 10
475.6811965227458
 20
369.3032480822873
 30
0.0
 11
475.6811965227459
 21
358.9281713249019
 31
0.0
  0
ARC
  5
424
102
{ACAD_REACTORS
330
35A
102
}
330
1E
100
AcDbEntity
  8
STEMPEL
100
AcDbCircle
 10
449.6811965227371
 20
365.4276879949478
 30
0.0
 40
21.0
100
AcDbArc
 50
316.999124771112
 51
0.0
  0
ARC
  5
425
102
{ACAD_REACTORS
330
35A
102
}
330
1E
100
AcDbEntity
  8
STEMPEL
100
AcDbCircle
 10
449.6811965227371
 20
365.4276879949478
 30
0.0
 40
23.0
100
AcDbArc
 50
316.999124771112
 51
0.0
  0
LINE
  5
426
102
{ACAD_REACTORS
330
35B
102
}
330
1E
100
AcDbEntity
  8
STEMPEL
100
AcDbLine
 10
475.6811965227462
 20
358.9281713249019
 30
0.0
 11
472.2358042348568
 21
354.5670624569631
 31
0.0
  0
ARC
  5
427
102
{ACAD_REACTORS
330
35B
102
}
330
1E
100
AcDbEntity
  8
STEMPEL
100
AcDbCircle
 10
475.3744909951969
 20
352.0874162280699
 30
0.0
 40
4.0
100
AcDbArc
 50
141.6903237986849
 51
266.9999999999995
  0
LINE
  5
428
330
1E
100
AcDbEntity
  8
STEMPEL
100
AcDbLine
 10
471.7437503879586
 20
358.9281713249022
 30
0.0
 11
475.6811965227459
 21
358.9281713249021
 31
0.0
  0
LINE
  5
429
330
1E
100
AcDbEntity
  8
STEMPEL
100
AcDbLine
 10
475.6811965227459
 20
358.9281713249021
 30
0.0
 11
473.8736206289741
 21
356.6401777958314
 31
0.0
  0
ARC
  5
42A
102
{ACAD_REACTORS
330
35A
102
}
330
1E
100
AcDbEntity
  8
STEMPEL
100
AcDbCircle
 10
443.1811965227371
 20
377.8760464121307
 30
0.0
 40
27.5
100
AcDbArc
 50
0.0
 51
24.99999999999259
  0
LINE
  5
42B
102
{ACAD_REACTORS
330
35C
102
}
330
1E
100
AcDbEntity
  8
STEMPEL
100
AcDbLine
 10
481.4298372114223
 20
384.5865859128352
 30
0.0
 11
472.931196522737
 21
370.553662197441
 31
0.0
  0
LINE
  5
42C
102
{ACAD_REACTORS
330
35E
330
35C
330
35B
102
}
330
1E
100
AcDbEntity
  8
STEMPEL
100
AcDbLine
 10
483.9959299919037
 20
383.0325048847157
 30
0.0
 11
475.4972893032184
 21
368.9995811693214
 31
0.0
  0
LINE
  5
42D
102
{ACAD_REACTORS
330
35E
330
35C
102
}
330
1E
100
AcDbEntity
  8
STEMPEL
100
AcDbLine
 10
472.931196522737
 20
370.553662197441
 30
0.0
 11
475.4972893032184
 21
368.9995811693214
 31
0.0
  0
LINE
  5
42E
102
{ACAD_REACTORS
330
35E
102
}
330
1E
100
AcDbEntity
  8
STEMPEL
100
AcDbLine
 10
472.931196522737
 20
370.553662197441
 30
0.0
 11
472.6811965227371
 21
370.553662197441
 31
0.0
  0
LINE
  5
42F
102
{ACAD_REACTORS
330
35B
102
}
330
1E
100
AcDbEntity
  8
STEMPEL
100
AcDbLine
 10
549.1811965227456
 20
382.4784238565954
 30
0.0
 11
487.23144905444
 21
382.4784238565954
 31
0.0
  0
LINE
  5
430
102
{ACAD_REACTORS
330
6DC
102
}
330
1E
100
AcDbEntity
  8
STEMPEL
100
AcDbLine
 10
492.1811965227458
 20
390.4784238565949
 30
0.0
 11
492.1811965227458
 21
387.4784238565945
 31
0.0
  0
LINE
  5
431
102
{ACAD_REACTORS
330
35B
102
}
330
1E
100
AcDbEntity
  8
STEMPEL
100
AcDbLine
 10
549.1811965227454
 20
382.4784238565954
 30
0.0
 11
549.1811965227456
 21
380.4784238565952
 31
0.0
  0
LINE
  5
432
102
{ACAD_REACTORS
330
35A
102
}
330
1E
100
AcDbEntity
  8
STEMPEL
100
AcDbLine
 10
469.387952360662
 20
391.478423856595
 30
0.0
 11
469.9172762403182
 21
390.3432851334816
 31
0.0
  0
LINE
  5
433
102
{ACAD_REACTORS
330
5C7
102
}
330
1E
100
AcDbEntity
  8
STEMPEL
100
AcDbLine
 10
511.681196522746
 20
412.9784238565957
 30
0.0
 11
526.681196522746
 21
412.9784238565954
 31
0.0
  0
LINE
  5
434
330
1E
100
AcDbEntity
  8
STEMPEL
100
AcDbLine
 10
502.9370707397322
 20
411.478423856596
 30
0.0
 11
501.9370707397321
 21
412.4784238565961
 31
0.0
  0
LINE
  5
435
330
1E
100
AcDbEntity
  8
STEMPEL
100
AcDbLine
 10
492.9370707397321
 20
411.4784238565963
 30
0.0
 11
502.9370707397322
 21
411.4784238565963
 31
0.0
  0
ARC
  5
43B
102
{ACAD_REACTORS
330
5C7
102
}
330
1E
100
AcDbEntity
  8
STEMPEL
100
AcDbCircle
 10
494.1811965227458
 20
395.978423856596
 30
0.0
 40
3.0
100
AcDbArc
 50
90.0
 51
270.0
  0
LINE
  5
43E
330
1E
100
AcDbEntity
  8
STEMPEL
100
AcDbLine
 10
493.9370707397322
 20
412.4784238565961
 30
0.0
 11
492.9370707397321
 21
411.478423856596
 31
0.0
  0
LINE
  5
43F
330
1E
100
AcDbEntity
  8
STEMPEL
100
AcDbLine
 10
492.9370707397321
 20
411.478423856596
 30
0.0
 11
492.9370707397321
 21
408.9784238565957
 31
0.0
  0
LINE
  5
443
330
1E
100
AcDbEntity
  8
HILF
100
AcDbLine
 10
501.9370707397321
 20
412.4784238565961
 30
0.0
 11
501.9370707397321
 21
408.9784238565957
 31
0.0
  0
LINE
  5
445
330
1E
100
AcDbEntity
  8
HILF
100
AcDbLine
 10
493.9370707397322
 20
412.4784238565961
 30
0.0
 11
493.9370707397322
 21
408.9784238565957
 31
0.0
  0
LINE
  5
446
330
1E
100
AcDbEntity
  8
STEMPEL
100
AcDbLine
 10
501.9370707397321
 20
412.4784238565961
 30
0.0
 11
493.9370707397322
 21
412.4784238565961
 31
0.0
  0
LINE
  5
447
102
{ACAD_REACTORS
330
5C7
102
}
330
1E
100
AcDbEntity
  8
STEMPEL
100
AcDbLine
 10
516.8311965227489
 20
412.9784238565957
 30
0.0
 11
516.8311965227464
 21
392.978423856595
 31
0.0
  0
LINE
  5
448
102
{ACAD_REACTORS
330
5C7
102
}
330
1E
100
AcDbEntity
  8
HILF
100
AcDbLine
 10
516.1811965227483
 20
412.9784238565954
 30
0.0
 11
516.1811965227456
 21
392.9784238565952
 31
0.0
  0
ARC
  5
44A
102
{ACAD_REACTORS
330
5C7
102
}
330
1E
100
AcDbEntity
  8
STEMPEL
100
AcDbCircle
 10
506.5233392981728
 20
403.9784238565959
 30
0.0
 40
5.0
100
AcDbArc
 50
270.0
 51
358.9999999999982
  0
LINE
  5
44D
330
1E
100
AcDbEntity
  8
STEMPEL
100
AcDbLine
 10
502.9370707397322
 20
411.478423856596
 30
0.0
 11
502.9370707397322
 21
408.9784238565957
 31
0.0
  0
LINE
  5
450
102
{ACAD_REACTORS
330
5C7
102
}
330
1E
100
AcDbEntity
  8
STEMPEL
100
AcDbLine
 10
511.5225777739546
 20
403.8911618244095
 30
0.0
 11
511.681196522746
 21
412.9784238565957
 31
0.0
  0
LINE
  5
451
330
1E
100
AcDbEntity
  8
MITTEL
100
AcDbLine
 10
519.1811965227465
 20
417.9784238565956
 30
0.0
 11
519.1811965227492
 21
392.9784238565949
 31
0.0
  0
ARC
  5
452
102
{ACAD_REACTORS
330
5C7
102
}
330
1E
100
AcDbEntity
  8
STEMPEL
100
AcDbCircle
 10
531.8390537473195
 20
403.9784238565956
 30
0.0
 40
4.99999999999995
100
AcDbArc
 50
181.0000000000017
 51
270.0
  0
LINE
  5
453
102
{ACAD_REACTORS
330
5C7
102
}
330
1E
100
AcDbEntity
  8
STEMPEL
100
AcDbLine
 10
521.5311965227479
 20
412.9784238565954
 30
0.0
 11
521.5311965227463
 21
392.978423856595
 31
0.0
  0
LINE
  5
454
102
{ACAD_REACTORS
330
5C7
102
}
330
1E
100
AcDbEntity
  8
HILF
100
AcDbLine
 10
522.1811965227486
 20
412.9784238565954
 30
0.0
 11
522.1811965227471
 21
392.9784238565952
 31
0.0
  0
LINE
  5
455
102
{ACAD_REACTORS
330
5C7
102
}
330
1E
100
AcDbEntity
  8
STEMPEL
100
AcDbLine
 10
526.681196522746
 20
412.9784238565958
 30
0.0
 11
526.8398152715375
 21
403.8911618244092
 31
0.0
  0
LINE
  5
456
330
1E
100
AcDbEntity
  8
TEXT
 62
     2
100
AcDbLine
 10
590.8752692382389
 20
415.756772175734
 30
0.0
 11
561.411307259416
 21
389.0359254275531
 31
0.0
  0
LINE
  5
457
102
{ACAD_REACTORS
330
35B
102
}
330
1E
100
AcDbEntity
  8
STEMPEL
100
AcDbLine
 10
573.1811965227456
 20
380.4784238565945
 30
0.0
 11
570.906105078019
 21
337.0670930226856
 31
0.0
  0
LINE
  5
458
102
{ACAD_REACTORS
330
35C
102
}
330
1E
100
AcDbEntity
  8
STEMPEL
100
AcDbLine
 10
560.0598761791863
 20
381.4784238565954
 30
0.0
 11
557.9385558356262
 21
383.599744200155
 31
0.0
  0
ARC
  5
459
102
{ACAD_REACTORS
330
35C
102
}
330
1E
100
AcDbEntity
  8
STEMPEL
100
AcDbCircle
 10
555.8172354920667
 20
381.4784238565954
 30
0.0
 40
6.0
100
AcDbArc
 50
45.00000000000057
 51
90.0
  0
ARC
  5
45A
102
{ACAD_REACTORS
330
35C
102
}
330
1E
100
AcDbEntity
  8
STEMPEL
100
AcDbCircle
 10
555.8172354920667
 20
381.4784238565954
 30
0.0
 40
3.0
100
AcDbArc
 50
45.00000000000057
 51
90.0
  0
LINE
  5
45B
102
{ACAD_REACTORS
330
35C
102
}
330
1E
100
AcDbEntity
  8
STEMPEL
100
AcDbLine
 10
562.1811965227458
 20
383.599744200155
 30
0.0
 11
560.0598761791863
 21
381.4784238565952
 31
0.0
  0
LINE
  5
45C
102
{ACAD_REACTORS
330
35C
102
}
330
1E
100
AcDbEntity
  8
STEMPEL
100
AcDbLine
 10
562.1811965227458
 20
383.599744200155
 30
0.0
 11
560.0598761791863
 21
385.7210645437147
 31
0.0
  0
LINE
  5
45D
102
{ACAD_REACTORS
330
6DC
102
}
330
1E
100
AcDbEntity
  8
STEMPEL
100
AcDbLine
 10
562.1811965227458
 20
390.4784238565946
 30
0.0
 11
562.1811965227458
 21
387.4784238565945
 31
0.0
  0
LINE
  5
45E
102
{ACAD_REACTORS
330
613
102
}
330
1E
100
AcDbEntity
  8
STEMPEL
100
AcDbLine
 10
685.5040076865074
 20
328.0471655849404
 30
0.0
 11
675.4709558162393
 21
329.5843367124366
 31
0.0
  0
LINE
  5
45F
102
{ACAD_REACTORS
330
613
102
}
330
1E
100
AcDbEntity
  8
STEMPEL
100
AcDbLine
 10
685.6092016566582
 20
330.0543861081128
 30
0.0
 11
675.6752422653557
 21
331.5763752052967
 31
0.0
  0
ARC
  5
461
102
{ACAD_REACTORS
330
5C7
102
}
330
1E
100
AcDbEntity
  8
STEMPEL
100
AcDbCircle
 10
554.1811965227458
 20
395.9784238565955
 30
0.0
 40
3.0
100
AcDbArc
 50
270.0
 51
90.0
  0
LINE
  5
463
330
1E
100
AcDbEntity
  8
TEXT
 62
     2
100
AcDbLine
 10
496.3880549196086
 20
551.9511576017018
 30
0.0
 11
603.2522519754815
 21
551.9511576017016
 31
0.0
  0
TEXT
  5
464
330
1E
100
AcDbEntity
  8
TEXT
 62
     1
100
AcDbText
 10
498.7930808475955
 20
555.249725198247
 30
0.0
 40
7.0
  1
Dichtelement DN125
 41
0.8
  7
GREEKS
100
AcDbText
  0
TEXT
  5
465
330
1E
100
AcDbEntity
  8
TEXT
 62
     1
100
AcDbText
 10
498.7930808475955
 20
542.1050273591829
 30
0.0
 40
7.0
  1
EDV-Art.Nr. 00911.125X
 41
0.8
  7
GREEKS
100
AcDbText
  0
LINE
  5
466
330
1E
100
AcDbEntity
  8
TEXT
 62
     2
100
AcDbLine
 10
469.8507720437722
 20
535.4990346665589
 30
0.0
 11
496.3880549196086
 21
551.9511576017018
 31
0.0
  0
LINE
  5
467
102
{ACAD_REACTORS
330
597
102
}
330
1E
100
AcDbEntity
  8
STEMPEL
100
AcDbLine
 10
470.481196522746
 20
524.6340698271003
 30
0.0
 11
468.661345351415
 21
529.6340698271003
 31
0.0
  0
LINE
  5
468
102
{ACAD_REACTORS
330
597
102
}
330
1E
100
AcDbEntity
  8
STEMPEL
100
AcDbLine
 10
464.681196522746
 20
532.6340698271003
 30
0.0
 11
464.681196522746
 21
516.6340698271003
 31
0.0
  0
LINE
  5
469
102
{ACAD_REACTORS
330
597
102
}
330
1E
100
AcDbEntity
  8
STEMPEL
100
AcDbLine
 10
470.8811965227459
 20
509.6340698271003
 30
0.0
 11
467.8811965227459
 21
512.6340698271003
 31
0.0
  0
LINE
  5
46A
102
{ACAD_REACTORS
330
597
102
}
330
1E
100
AcDbEntity
  8
STEMPEL
100
AcDbLine
 10
472.8811965227459
 20
509.6340698271003
 30
0.0
 11
464.9978213131014
 21
509.6340698271003
 31
0.0
  0
ARC
  5
46B
102
{ACAD_REACTORS
330
597
102
}
330
1E
100
AcDbEntity
  8
STEMPEL
100
AcDbCircle
 10
458.681196522746
 20
516.6340698271003
 30
0.0
 40
6.0
100
AcDbArc
 50
270.0
 51
0.0
  0
LINE
  5
46C
102
{ACAD_REACTORS
330
597
102
}
330
1E
100
AcDbEntity
  8
STEMPEL
100
AcDbLine
 10
458.681196522746
 20
510.6340698271004
 30
0.0
 11
458.681196522746
 21
508.6340698271003
 31
0.0
  0
ARC
  5
46D
102
{ACAD_REACTORS
330
597
102
}
330
1E
100
AcDbEntity
  8
STEMPEL
100
AcDbCircle
 10
461.6811965227459
 20
514.6340698271003
 30
0.0
 40
6.0
100
AcDbArc
 50
270.0
 51
340.528779365507
  0
LINE
  5
46E
102
{ACAD_REACTORS
330
597
102
}
330
1E
100
AcDbEntity
  8
STEMPEL
100
AcDbLine
 10
467.8811965227459
 20
512.6340698271003
 30
0.0
 11
467.3380507722382
 21
512.6340698271003
 31
0.0
  0
LINE
  5
46F
102
{ACAD_REACTORS
330
597
102
}
330
1E
100
AcDbEntity
  8
STEMPEL
100
AcDbLine
 10
472.8811965227459
 20
518.1340698271003
 30
0.0
 11
470.6811965227459
 21
515.9340698271003
 31
0.0
  0
LINE
  5
470
102
{ACAD_REACTORS
330
597
102
}
330
1E
100
AcDbEntity
  8
STEMPEL
100
AcDbLine
 10
472.8811965227459
 20
509.6340698271003
 30
0.0
 11
470.6811965227459
 21
513.4445816037518
 31
0.0
  0
LINE
  5
471
102
{ACAD_REACTORS
330
597
102
}
330
1E
100
AcDbEntity
  8
STEMPEL
100
AcDbLine
 10
470.6811965227459
 20
515.9340698271003
 30
0.0
 11
470.6811965227459
 21
513.4445816037518
 31
0.0
  0
LINE
  5
472
102
{ACAD_REACTORS
330
597
102
}
330
1E
100
AcDbEntity
  8
STEMPEL
100
AcDbLine
 10
470.481196522746
 20
524.6340698271003
 30
0.0
 11
470.481196522746
 21
521.5340698271003
 31
0.0
  0
LINE
  5
473
102
{ACAD_REACTORS
330
597
102
}
330
1E
100
AcDbEntity
  8
STEMPEL
100
AcDbLine
 10
472.8811965227459
 20
519.1340698271003
 30
0.0
 11
472.8811965227459
 21
518.1340698271003
 31
0.0
  0
LINE
  5
474
102
{ACAD_REACTORS
330
597
102
}
330
1E
100
AcDbEntity
  8
STEMPEL
100
AcDbLine
 10
472.8811965227459
 20
519.1340698271003
 30
0.0
 11
470.481196522746
 21
521.5340698271003
 31
0.0
  0
LINE
  5
475
102
{ACAD_REACTORS
330
597
102
}
330
1E
100
AcDbEntity
  8
STEMPEL
100
AcDbLine
 10
472.681196522746
 20
532.6340698271003
 30
0.0
 11
468.181196522746
 21
532.6340698271003
 31
0.0
  0
ARC
  5
476
102
{ACAD_REACTORS
330
597
102
}
330
1E
100
AcDbEntity
  8
STEMPEL
100
AcDbCircle
 10
468.657036609387
 20
536.8340698271002
 30
0.0
 40
2.799999999999999
100
AcDbArc
 50
15.00000000000116
 51
90.0
  0
LINE
  5
477
102
{ACAD_REACTORS
330
597
102
}
330
1E
100
AcDbEntity
  8
STEMPEL
100
AcDbLine
 10
468.6613453514149
 20
529.6340698271003
 30
0.0
 11
468.181196522746
 21
529.6340698271003
 31
0.0
  0
LINE
  5
478
102
{ACAD_REACTORS
330
597
102
}
330
1E
100
AcDbEntity
  8
STEMPEL
100
AcDbLine
 10
464.681196522746
 20
532.6340698271003
 30
0.0
 11
466.0007641224955
 21
537.5587631533874
 31
0.0
  0
LINE
  5
479
102
{ACAD_REACTORS
330
597
102
}
330
1E
100
AcDbEntity
  8
STEMPEL
100
AcDbLine
 10
467.181196522746
 20
531.6340698271003
 30
0.0
 11
467.181196522746
 21
530.6340698271003
 31
0.0
  0
ARC
  5
47A
102
{ACAD_REACTORS
330
597
102
}
330
1E
100
AcDbEntity
  8
STEMPEL
100
AcDbCircle
 10
468.181196522746
 20
531.6340698271003
 30
0.0
 40
1.0
100
AcDbArc
 50
90.0
 51
180.0
  0
ARC
  5
47B
102
{ACAD_REACTORS
330
597
102
}
330
1E
100
AcDbEntity
  8
STEMPEL
100
AcDbCircle
 10
468.181196522746
 20
530.6340698271003
 30
0.0
 40
1.0
100
AcDbArc
 50
180.0
 51
270.0
  0
ARC
  5
47C
102
{ACAD_REACTORS
330
597
102
}
330
1E
100
AcDbEntity
  8
STEMPEL
100
AcDbCircle
 10
468.7053564361049
 20
536.8340698271002
 30
0.0
 40
2.799999999999999
100
AcDbArc
 50
90.0
 51
164.9999999999988
  0
LINE
  5
47D
102
{ACAD_REACTORS
330
597
102
}
330
1E
100
AcDbEntity
  8
STEMPEL
100
AcDbLine
 10
472.681196522746
 20
532.6340698271003
 30
0.0
 11
471.3616289229964
 21
537.5587631533874
 31
0.0
  0
TEXT
  5
52B
330
1E
100
AcDbEntity
  8
TEXT
 62
     1
100
AcDbText
 10
582.0000000000001
 20
88.19826583703191
 30
0.0
 40
7.0
  1
1:2
 41
0.8
 72
     1
 11
588.0000000000001
 21
88.19826583703191
 31
0.0
100
AcDbText
  0
TEXT
  5
52C
330
1E
100
AcDbEntity
  8
TEXT
100
AcDbText
 10
613.0095238095239
 20
87.9745185882199
 30
0.0
 40
4.0
  1
DIN EN1124-3
 41
0.8
 72
     1
 11
630.0000000000001
 21
87.9745185882199
 31
0.0
100
AcDbText
  0
TEXT
  5
52D
330
1E
100
AcDbEntity
  8
TEXT
 62
     1
100
AcDbText
 10
654.979117340995
 20
87.58201279045506
 30
0.0
 40
7.0
  1
Unterteileinheit DN125
 41
0.75
100
AcDbText
  0
TEXT
  5
52E
330
1E
100
AcDbEntity
  8
TEXT
 62
     1
100
AcDbText
 10
767.4377728175698
 20
87.3242666843719
 30
0.0
 40
7.0
  1
21996125W
 41
0.8
 72
     1
 11
790.3711061509031
 21
87.3242666843719
 31
0.0
100
AcDbText
  0
TEXT
  5
52F
330
1E
100
AcDbEntity
  8
TEXT
100
AcDbText
 10
654.862987254257
 20
72.0
 30
0.0
 40
5.0
  1
seitlich mit Wärmedämmung
 41
0.8
100
AcDbText
  0
TEXT
  5
530
330
1E
100
AcDbEntity
  8
TEXT
100
AcDbText
 10
654.862987254257
 20
62.0
 30
0.0
 40
5.0
  1
und Heizung, Edelstahl
 41
0.8
100
AcDbText
  0
TEXT
  5
531
330
1E
100
AcDbEntity
  8
TEXT
100
AcDbText
 10
655.162303158329
 20
52.0
 30
0.0
 40
5.0
  1
EDV-Art.Nr. 21996.125X
 41
0.8
100
AcDbText
  0
TEXT
  5
532
330
1E
100
AcDbEntity
  8
TEXT
100
AcDbText
 10
654.9713400534566
 20
42.0
 30
0.0
 40
4.0
  1
21996125W.DWG
 41
0.8
100
AcDbText
  0
TEXT
  5
533
330
1E
100
AcDbEntity
  8
TEXT
100
AcDbText
 10
624.7428571428572
 20
63.0
 30
0.0
 40
4.0
  1
Koeh
 41
0.8
 72
     4
 11
630.0000000000001
 21
65.0
 31
0.0
100
AcDbText
  0
TEXT
  5
534
330
1E
100
AcDbEntity
  8
TEXT
100
AcDbText
 10
590.2952380952382
 20
63.00000000000001
 30
0.0
 40
4.0
  1
28.10.
 41
0.8
 72
     4
 11
597.0000000000001
 21
65.00000000000001
 31
0.0
100
AcDbText
  0
HATCH
  5
597
330
1E
100
AcDbEntity
  8
SCHRAFF
100
AcDbHatch
 10
0.0
 20
0.0
 30
0.0
210
0.0
220
0.0
230
1.0
  2
NET
 70
     0
 71
     1
 91
        2
 92
        7
 72
     1
 73
     1
 93
       24
 10
472.8811965227459
 20
519.1340698271003
 42
0.0
 10
470.4811965227459
 20
521.5340698271002
 42
0.0
 10
470.481196522746
 20
524.6340698271004
 42
0.0
 10
468.661345351415
 20
529.6340698271003
 42
0.0
 10
468.181196522746
 20
529.6340698271003
 42
-0.4142135623730951
 10
467.181196522746
 20
530.6340698271003
 42
0.0
 10
467.181196522746
 20
531.6340698271003
 42
-0.4142135623730951
 10
468.181196522746
 20
532.6340698271003
 42
0.0
 10
472.681196522746
 20
532.6340698271003
 42
0.0
 10
471.3616289229964
 20
537.5587631533874
 42
0.3370502855478885
 10
468.681196522746
 20
539.6339655927648
 42
0.3370502855478998
 10
466.0007641224955
 20
537.5587631533874
 42
0.0
 10
464.681196522746
 20
532.6340698271003
 42
0.0
 10
464.681196522746
 20
516.6340698271003
 42
-0.4142135623730951
 10
458.681196522746
 20
510.6340698271004
 42
0.0
 10
458.681196522746
 20
508.6340698271002
 42
0.0
 10
461.6811965227459
 20
508.6340698271003
 42
0.3178372451957733
 10
467.3380507722382
 20
512.6340698271003
 42
0.0
 10
467.8811965227459
 20
512.6340698271004
 42
0.0
 10
470.881196522746
 20
509.6340698271004
 42
0.0
 10
472.881196522746
 20
509.6340698271004
 42
0.0
 10
470.6811965227459
 20
513.4445816037517
 42
0.0
 10
470.6811965227459
 20
515.9340698271003
 42
0.0
 10
472.8811965227459
 20
518.1340698271003
 42
0.0
 97
       24
330
474
330
472
330
467
330
477
330
47B
330
479
330
47A
330
475
330
47D
330
476
330
47C
330
478
330
468
330
46B
330
46C
330
36D
330
46D
330
46E
330
469
330
46A
330
470
330
471
330
46F
330
473
 92
        7
 72
     1
 73
     1
 93
       24
 10
329.681196522746
 20
532.6340698271003
 42
0.0
 10
328.3616289229964
 20
537.5587631533874
 42
0.3370502855478828
 10
325.681196522746
 20
539.6339655927648
 42
0.3370502855478942
 10
323.0007641224956
 20
537.5587631533874
 42
0.0
 10
321.681196522746
 20
532.6340698271003
 42
0.0
 10
326.181196522746
 20
532.6340698271003
 42
-0.4142135623730951
 10
327.181196522746
 20
531.6340698271003
 42
0.0
 10
327.181196522746
 20
530.6340698271003
 42
-0.4142135623730951
 10
326.181196522746
 20
529.6340698271003
 42
0.0
 10
325.701047694077
 20
529.6340698271003
 42
0.0
 10
323.881196522746
 20
524.6340698271003
 42
0.0
 10
323.8811965227459
 20
521.5340698271003
 42
0.0
 10
321.481196522746
 20
519.1340698271003
 42
0.0
 10
321.481196522746
 20
518.1340698271003
 42
0.0
 10
323.681196522746
 20
515.9340698271003
 42
0.0
 10
323.681196522746
 20
513.4445816037518
 42
0.0
 10
321.481196522746
 20
509.6340698271003
 42
0.0
 10
323.481196522746
 20
509.6340698271003
 42
0.0
 10
326.481196522746
 20
512.6340698271003
 42
0.0
 10
327.0243422732538
 20
512.6340698271003
 42
0.3178372451957735
 10
332.681196522746
 20
508.6340698271003
 42
0.0
 10
335.681196522746
 20
508.6340698271002
 42
0.0
 10
335.681196522746
 20
510.6340698271004
 42
-0.4142135623730951
 10
329.681196522746
 20
516.6340698271003
 42
0.0
 97
       24
330
3EC
330
3F4
330
3F3
330
3ED
330
3EE
330
3F2
330
3F1
330
3EF
330
3F0
330
3DF
330
3EB
330
3E1
330
3E4
330
3E0
330
3E9
330
3E2
330
3E3
330
3E8
330
3E7
330
3E5
330
36D
330
3EA
330
3E6
330
3DE
 75
     0
 76
     1
 52
45.0
 41
15.0
 77
     0
 78
     2
 53
45.0
 43
0.0
 44
0.0
 45
-1.325825214724776
 46
1.325825214724776
 79
     0
 53
135.0
 43
0.0
 44
0.0
 45
-1.325825214724776
 46
-1.325825214724776
 79
     0
 47
0.4348994146340126
 98
        2
 10
466.5637620957364
 20
518.6872867185047
 10
327.3007611770745
 20
521.296683438092
  0
HATCH
  5
5C7
330
1E
100
AcDbEntity
  8
SCHRAFF
100
AcDbHatch
 10
0.0
 20
0.0
 30
0.0
210
0.0
220
0.0
230
1.0
  2
_USER
 70
     0
 71
     1
 91
        7
 92
        7
 72
     1
 73
     1
 93
        4
 10
240.1811965227458
 20
398.978423856597
 42
1.0
 10
240.1811965227458
 20
392.9784238565955
 42
0.0
 10
263.181196522746
 20
392.9784238565955
 42
0.0
 10
263.181196522746
 20
398.9784238565969
 42
0.0
 97
        4
330
372
330
3A0
330
39F
330
3AB
 92
        7
 72
     1
 73
     1
 93
        4
 10
300.181196522746
 20
392.9784238565957
 42
1.0
 10
300.181196522746
 20
398.9784238565967
 42
0.0
 10
277.1811965227461
 20
398.9784238565968
 42
0.0
 10
277.1811965227461
 20
392.9784238565957
 42
0.0
 97
        4
330
372
330
3B6
330
363
330
3D8
 92
        7
 72
     1
 73
     1
 93
        4
 10
494.1811965227458
 20
398.9784238565958
 42
1.0
 10
494.1811965227458
 20
392.9784238565951
 42
0.0
 10
497.9370707397321
 20
392.9784238565952
 42
0.0
 10
497.9370707397321
 20
398.9784238565958
 42
0.0
 97
        4
330
372
330
43B
330
363
330
417
 92
        7
 72
     1
 73
     1
 93
        7
 10
497.9370707397321
 20
398.9784238565957
 42
0.0
 10
497.937070739732
 20
392.9784238565951
 42
0.0
 10
516.1811965227457
 20
392.9784238565951
 42
0.0
 10
516.1811965227484
 20
412.9784238565957
 42
0.0
 10
511.6811965227461
 20
412.9784238565957
 42
0.0
 10
511.5225777739546
 20
403.8911618244095
 42
-0.4091108014277168
 10
506.5233392981728
 20
398.9784238565957
 42
0.0
 97
        7
330
433
330
450
330
44A
330
372
330
417
330
363
330
448
 92
        7
 72
     1
 73
     1
 93
        7
 10
526.8398152715375
 20
403.8911618244092
 42
0.0
 10
526.681196522746
 20
412.9784238565954
 42
0.0
 10
522.1811965227486
 20
412.9784238565955
 42
0.0
 10
522.1811965227471
 20
392.978423856595
 42
0.0
 10
554.1811965227458
 20
392.9784238565949
 42
1.0
 10
554.1811965227458
 20
398.9784238565957
 42
0.0
 10
531.8390537473195
 20
398.9784238565957
 42
-0.4091108014277237
 97
        7
330
40B
330
452
330
455
330
433
330
454
330
363
330
461
 92
        7
 72
     0
 73
     1
 93
        4
 10
521.5311965227463
 20
392.978423856595
 10
522.1811965227471
 20
392.9784238565951
 10
522.1811965227486
 20
412.9784238565955
 10
521.5311965227479
 20
412.9784238565955
 97
        4
330
433
330
453
330
363
330
454
 92
        7
 72
     0
 73
     1
 93
        4
 10
516.1811965227456
 20
392.9784238565949
 10
516.8311965227464
 20
392.9784238565949
 10
516.831196522749
 20
412.9784238565956
 10
516.1811965227484
 20
412.9784238565957
 97
        4
330
433
330
448
330
363
330
447
 75
     0
 76
     0
 52
135.0
 41
5.0
 77
     0
 78
     1
 53
135.0
 43
0.0
 44
0.0
 45
-3.535533905932737
 46
-3.535533905932737
 79
     0
 47
0.1077040927386349
 98
        7
 10
257.0833609262354
 20
396.6810984835113
 10
287.0950287676897
 20
395.7990045181491
 10
494.5286227968181
 20
397.5631910493751
 10
505.1209759935209
 20
396.6810984835113
 10
527.1883796136412
 20
397.5631910493751
 10
521.8137659535455
 20
397.6377913048493
 10
516.4248792068506
 20
400.4380977824332
  0
HATCH
  5
613
330
1E
100
AcDbEntity
  8
SCHRAFF
100
AcDbHatch
 10
0.0
 20
0.0
 30
0.0
210
0.0
220
0.0
230
1.0
  2
_USER
 70
     0
 71
     1
 91
        3
 92
        7
 72
     0
 73
     1
 93
        6
 10
463.6811965227457
 20
342.6865123638951
 10
461.6811965227458
 20
340.7885832304653
 10
675.4709558162395
 20
329.5843367124366
 10
685.5040076865074
 20
328.0471655849405
 10
685.6092016566582
 20
330.0543861081127
 10
675.6752422653561
 20
331.5763752052967
 97
        6
330
367
330
409
330
45E
330
3F9
330
45F
330
40A
 92
        7
 72
     0
 73
     1
 93
        6
 10
397.1811965227455
 20
214.9918523604898
 10
397.1811965227455
 20
212.989107668494
 10
668.7145600850449
 20
198.7586470829384
 10
678.7531913888328
 20
199.2339170552635
 10
678.8583853589834
 20
201.2411375784358
 10
668.7196174608992
 20
200.7611267290966
 97
        6
330
37D
330
369
330
3FD
330
3F9
330
3FC
330
368
 92
        7
 72
     0
 73
     1
 93
        4
 10
332.6811965227435
 20
218.3721541242463
 10
330.6811965227435
 20
216.4742249908165
 10
397.1811965227455
 20
212.9891076684939
 10
397.1811965227455
 20
214.9918523604898
 97
        4
330
367
330
369
330
37D
330
368
 75
     0
 76
     0
 52
45.0
 41
2.0
 77
     0
 78
     1
 53
45.0
 43
0.0
 44
0.0
 45
-1.414213562373094
 46
1.414213562373095
 79
     0
 47
0.6410721167094477
 98
        3
 10
610.7310545338209
 20
333.6333499837695
 10
504.2402938226182
 20
208.624286293078
 10
362.4664522199059
 20
216.3171519662742
  0
HATCH
  5
62A
330
1E
100
AcDbEntity
  8
SCHRAFF
100
AcDbHatch
 10
0.0
 20
0.0
 30
0.0
210
0.0
220
0.0
230
1.0
  2
_USER
 70
     0
 71
     0
 91
        1
 92
        7
 72
     1
 73
     1
 93
        8
 10
330.6811965227448
 20
287.0654859996782
 42
0.4142135623730934
 10
328.6811965227448
 20
289.0654859996782
 42
0.0
 10
327.6811965227448
 20
289.0654859996782
 42
0.4142135623730895
 10
325.6811965227448
 20
287.0654859996782
 42
0.0
 10
325.6811965227448
 20
279.0654859996782
 42
0.4142135623730956
 10
327.6811965227448
 20
277.0654859996782
 42
0.0
 10
328.6811965227448
 20
277.0654859996782
 42
0.4142135623730916
 10
330.6811965227448
 20
279.0654859996782
 42
0.0
 97
        0
 75
     0
 76
     0
 52
45.0
 41
1.0
 77
     0
 78
     1
 53
45.0
 43
-135.8784413323511
 44
-73.71596316775338
 45
-0.7071067811865475
 46
0.7071067811865476
 79
     0
 47
0.182571920725024
 98
        1
 10
325.8358769747483
 20
283.1006455650621
  0
ARC
  5
62B
330
1E
100
AcDbEntity
  8
STEMPEL
100
AcDbCircle
 10
327.6811965227448
 20
287.0654859996782
 30
0.0
 40
2.0
100
AcDbArc
 50
90.0
 51
180.0
  0
ARC
  5
62C
330
1E
100
AcDbEntity
  8
STEMPEL
100
AcDbCircle
 10
328.6811965227448
 20
287.0654859996782
 30
0.0
 40
2.0
100
AcDbArc
 50
0.0
 51
90.0
  0
LINE
  5
62D
330
1E
100
AcDbEntity
  8
STEMPEL
100
AcDbLine
 10
327.6811965227448
 20
289.0654859996782
 30
0.0
 11
330.6811965227448
 21
289.065485999678
 31
0.0
  0
ARC
  5
62E
330
1E
100
AcDbEntity
  8
STEMPEL
100
AcDbCircle
 10
327.6811965227448
 20
279.0654859996782
 30
0.0
 40
2.0
100
AcDbArc
 50
180.0
 51
270.0
  0
ARC
  5
62F
330
1E
100
AcDbEntity
  8
STEMPEL
100
AcDbCircle
 10
328.6811965227448
 20
279.0654859996782
 30
0.0
 40
2.0
100
AcDbArc
 50
270.0
 51
0.0
  0
LINE
  5
630
330
1E
100
AcDbEntity
  8
STEMPEL
100
AcDbLine
 10
327.6811965227448
 20
277.0654859996782
 30
0.0
 11
330.6811965227448
 21
277.0654859996781
 31
0.0
  0
LINE
  5
631
330
1E
100
AcDbEntity
  8
STEMPEL
100
AcDbLine
 10
325.6811965227448
 20
287.0654859996782
 30
0.0
 11
325.6811965227448
 21
279.0654859996782
 31
0.0
  0
LINE
  5
648
330
1E
100
AcDbEntity
  8
TEXT
 62
     2
100
AcDbLine
 10
697.3206369432594
 20
152.9401454044319
 30
0.0
 11
662.2002734133578
 21
199.8555848637278
 31
0.0
  0
TEXT
  5
649
330
1E
100
AcDbEntity
  8
TEXT
 62
     1
100
AcDbText
 10
700.0055807761237
 20
142.1952907430703
 30
0.0
 40
7.0
  1
EDV-Art.Nr. 21987.125X
 41
0.8
  7
GREEKS
100
AcDbText
  0
TEXT
  5
64A
330
1E
100
AcDbEntity
  8
TEXT
 62
     1
100
AcDbText
 10
700.1861360702758
 20
156.5529136766255
 30
0.0
 40
7.0
  1
Unterteil DN125
 41
0.8
  7
GREEKS
100
AcDbText
  0
LINE
  5
64B
330
1E
100
AcDbEntity
  8
TEXT
 62
     2
100
AcDbLine
 10
807.4146704626965
 20
152.9401454044319
 30
0.0
 11
697.3206369432594
 21
152.9401454044319
 31
0.0
  0
LINE
  5
64C
330
1E
100
AcDbEntity
  8
TEXT
 62
     2
100
AcDbLine
 10
280.9010569884529
 20
178.8528977511049
 30
0.0
 11
312.4889637129456
 21
204.022238417782
 31
0.0
  0
LINE
  5
64D
330
1E
100
AcDbEntity
  8
TEXT
 62
     2
100
AcDbLine
 10
280.9010569884529
 20
178.8528977511049
 30
0.0
 11
165.8210989369163
 21
178.8528977511049
 31
0.0
  0
TEXT
  5
64E
330
1E
100
AcDbEntity
  8
TEXT
 62
     1
100
AcDbText
 10
168.6865980639327
 20
182.4656660232984
 30
0.0
 40
7.0
  1
Wärmedämmung DN125
 41
0.8
  7
GREEKS
100
AcDbText
  0
TEXT
  5
64F
330
1E
100
AcDbEntity
  8
TEXT
 62
     1
100
AcDbText
 10
168.5060427697806
 20
168.1080430897433
 30
0.0
 40
7.0
  1
EDV-Art.Nr. 19843.125X
 41
0.8
  7
GREEKS
100
AcDbText
  0
ARC
  5
673
330
1E
100
AcDbEntity
  8
STEMPEL
100
AcDbCircle
 10
270.1811965227461
 20
378.6675347241419
 30
0.0
 40
30.31088913245485
100
AcDbArc
 50
81.78678929826059
 51
98.2132107017394
  0
ARC
  5
674
330
1E
100
AcDbEntity
  8
STEMPEL
100
AcDbCircle
 10
263.6860059943628
 20
401.2841181488123
 30
0.0
 40
7.694305707784447
100
AcDbArc
 50
73.65710669401345
 51
106.3428933059834
  0
ARC
  5
675
330
1E
100
AcDbEntity
  8
STEMPEL
100
AcDbCircle
 10
276.6763870511293
 20
401.2841181488123
 30
0.0
 40
7.694305707784447
100
AcDbArc
 50
73.65710669401345
 51
106.3428933059834
  0
ARC
  5
676
330
1E
100
AcDbEntity
  8
HILF
100
AcDbCircle
 10
270.1811965227461
 20
379.0799628089355
 30
0.0
 40
22.41111549782308
100
AcDbArc
 50
78.85962783890455
 51
101.1403721610954
  0
ARC
  5
677
330
1E
100
AcDbEntity
  8
HILF
100
AcDbCircle
 10
276.6763870511294
 20
395.7299377070672
 30
0.0
 40
5.761140599691502
100
AcDbArc
 50
67.92594526326054
 51
112.0740547367394
  0
ARC
  5
678
330
1E
100
AcDbEntity
  8
HILF
100
AcDbCircle
 10
263.6860059943627
 20
395.7299377070672
 30
0.0
 40
5.761140599691502
100
AcDbArc
 50
67.92594526326054
 51
112.0740547367394
  0
POINT
  5
679
330
1E
100
AcDbEntity
  8
0
100
AcDbPoint
 10
270.1811965227461
 20
398.9784238565968
 30
0.0
210
0.0000000000000001
220
1.0
230
0.0
  0
LINE
  5
67A
330
1E
100
AcDbEntity
  8
STEMPEL
100
AcDbLine
 10
262.6811965227461
 20
408.9784238565967
 30
0.0
 11
277.681196522746
 21
408.9784238565967
 31
0.0
  0
LINE
  5
67B
330
1E
100
AcDbEntity
  8
STEMPEL
100
AcDbLine
 10
278.8414505605904
 20
401.0687803727966
 30
0.0
 11
278.8414505605904
 21
408.6675347241414
 31
0.0
  0
LINE
  5
67C
330
1E
100
AcDbEntity
  8
STEMPEL
100
AcDbLine
 10
274.5113235416683
 20
401.0687803727966
 30
0.0
 11
274.5113235416683
 21
408.6675347241414
 31
0.0
  0
LINE
  5
67D
330
1E
100
AcDbEntity
  8
STEMPEL
100
AcDbLine
 10
265.8510695038239
 20
401.0687803727966
 30
0.0
 11
265.8510695038239
 21
408.6675347241414
 31
0.0
  0
LINE
  5
67E
330
1E
100
AcDbEntity
  8
STEMPEL
100
AcDbLine
 10
280.5877116302403
 20
400.4331933221862
 30
0.0
 11
259.7746814152518
 21
400.4331933221862
 31
0.0
  0
LINE
  5
67F
330
1E
100
AcDbEntity
  8
STEMPEL
100
AcDbLine
 10
280.3311965227461
 20
398.9784238565968
 30
0.0
 11
260.0311965227461
 21
398.9784238565968
 31
0.0
  0
LINE
  5
680
330
1E
100
AcDbEntity
  8
STEMPEL
100
AcDbLine
 10
261.5209424849017
 20
401.0687803727966
 30
0.0
 11
261.5209424849017
 21
408.6675347241414
 31
0.0
  0
LINE
  5
681
330
1E
100
AcDbEntity
  8
STEMPEL
100
AcDbLine
 10
262.6811965227461
 20
408.9784238565967
 30
0.0
 11
261.5209424849017
 21
408.6675347241414
 31
0.0
  0
LINE
  5
682
330
1E
100
AcDbEntity
  8
STEMPEL
100
AcDbLine
 10
278.8414505605904
 20
408.6675347241414
 30
0.0
 11
277.681196522746
 21
408.9784238565967
 31
0.0
  0
LINE
  5
683
330
1E
100
AcDbEntity
  8
STEMPEL
100
AcDbLine
 10
280.5877116302403
 20
400.4331933221862
 30
0.0
 11
278.8414505605904
 21
401.0687803727966
 31
0.0
  0
LINE
  5
684
330
1E
100
AcDbEntity
  8
STEMPEL
100
AcDbLine
 10
261.5209424849017
 20
401.0687803727966
 30
0.0
 11
259.7746814152518
 21
400.4331933221862
 31
0.0
  0
ARC
  5
685
330
1E
100
AcDbEntity
  8
STEMPEL
100
AcDbCircle
 10
260.0311965227461
 20
399.7284238565968
 30
0.0
 40
0.7500000000000013
100
AcDbArc
 50
109.9999999999995
 51
269.9999991462263
  0
ARC
  5
686
330
1E
100
AcDbEntity
  8
STEMPEL
100
AcDbCircle
 10
280.3311965227461
 20
399.7284238565968
 30
0.0
 40
0.750000000000001
100
AcDbArc
 50
269.9999991462263
 51
70.00000000000047
  0
ARC
  5
6A0
330
1E
100
AcDbEntity
  8
STEMPEL
100
AcDbCircle
 10
497.9370707397321
 20
378.6675347241409
 30
0.0
 40
30.31088913245485
100
AcDbArc
 50
81.78678929826059
 51
98.2132107017394
  0
ARC
  5
6A1
330
1E
100
AcDbEntity
  8
STEMPEL
100
AcDbCircle
 10
491.4418802113488
 20
401.2841181488112
 30
0.0
 40
7.694305707784447
100
AcDbArc
 50
73.65710669401345
 51
106.3428933059834
  0
ARC
  5
6A2
330
1E
100
AcDbEntity
  8
STEMPEL
100
AcDbCircle
 10
504.4322612681154
 20
401.2841181488112
 30
0.0
 40
7.694305707784447
100
AcDbArc
 50
73.65710669401345
 51
106.3428933059834
  0
ARC
  5
6A3
330
1E
100
AcDbEntity
  8
HILF
100
AcDbCircle
 10
497.9370707397321
 20
379.0799628089345
 30
0.0
 40
22.41111549782308
100
AcDbArc
 50
78.85962783890455
 51
101.1403721610954
  0
ARC
  5
6A4
330
1E
100
AcDbEntity
  8
HILF
100
AcDbCircle
 10
504.4322612681154
 20
395.7299377070661
 30
0.0
 40
5.761140599691502
100
AcDbArc
 50
67.92594526326054
 51
112.0740547367394
  0
ARC
  5
6A5
330
1E
100
AcDbEntity
  8
HILF
100
AcDbCircle
 10
491.4418802113488
 20
395.7299377070661
 30
0.0
 40
5.761140599691502
100
AcDbArc
 50
67.92594526326054
 51
112.0740547367394
  0
POINT
  5
6A6
330
1E
100
AcDbEntity
  8
0
100
AcDbPoint
 10
497.9370707397321
 20
398.9784238565957
 30
0.0
210
0.0000000000000001
220
1.0
230
0.0
  0
LINE
  5
6A7
330
1E
100
AcDbEntity
  8
STEMPEL
100
AcDbLine
 10
490.4370707397321
 20
408.9784238565957
 30
0.0
 11
505.4370707397321
 21
408.9784238565957
 31
0.0
  0
LINE
  5
6A8
330
1E
100
AcDbEntity
  8
STEMPEL
100
AcDbLine
 10
506.5973247775764
 20
401.0687803727956
 30
0.0
 11
506.5973247775764
 21
408.6675347241403
 31
0.0
  0
LINE
  5
6A9
330
1E
100
AcDbEntity
  8
STEMPEL
100
AcDbLine
 10
502.2671977586543
 20
401.0687803727956
 30
0.0
 11
502.2671977586543
 21
408.6675347241403
 31
0.0
  0
LINE
  5
6AA
330
1E
100
AcDbEntity
  8
STEMPEL
100
AcDbLine
 10
493.6069437208098
 20
401.0687803727956
 30
0.0
 11
493.6069437208098
 21
408.6675347241403
 31
0.0
  0
LINE
  5
6AB
330
1E
100
AcDbEntity
  8
STEMPEL
100
AcDbLine
 10
508.3435858472263
 20
400.4331933221851
 30
0.0
 11
487.5305556322378
 21
400.4331933221851
 31
0.0
  0
LINE
  5
6AD
330
1E
100
AcDbEntity
  8
STEMPEL
100
AcDbLine
 10
489.2768167018878
 20
401.0687803727956
 30
0.0
 11
489.2768167018878
 21
408.6675347241403
 31
0.0
  0
LINE
  5
6AE
330
1E
100
AcDbEntity
  8
STEMPEL
100
AcDbLine
 10
490.4370707397321
 20
408.9784238565957
 30
0.0
 11
489.2768167018878
 21
408.6675347241403
 31
0.0
  0
LINE
  5
6AF
330
1E
100
AcDbEntity
  8
STEMPEL
100
AcDbLine
 10
506.5973247775764
 20
408.6675347241403
 30
0.0
 11
505.4370707397321
 21
408.9784238565957
 31
0.0
  0
LINE
  5
6B0
330
1E
100
AcDbEntity
  8
STEMPEL
100
AcDbLine
 10
508.3435858472263
 20
400.4331933221851
 30
0.0
 11
506.5973247775764
 21
401.0687803727956
 31
0.0
  0
LINE
  5
6B1
330
1E
100
AcDbEntity
  8
STEMPEL
100
AcDbLine
 10
489.2768167018878
 20
401.0687803727956
 30
0.0
 11
487.5305556322378
 21
400.4331933221851
 31
0.0
  0
ARC
  5
6B2
330
1E
100
AcDbEntity
  8
STEMPEL
100
AcDbCircle
 10
487.7870707397321
 20
399.7284238565957
 30
0.0
 40
0.7500000000000013
100
AcDbArc
 50
109.9999999999995
 51
269.9999991462263
  0
ARC
  5
6B3
330
1E
100
AcDbEntity
  8
STEMPEL
100
AcDbCircle
 10
508.0870707397321
 20
399.7284238565957
 30
0.0
 40
0.750000000000001
100
AcDbArc
 50
344.8543283148497
 51
70.00000000000047
  0
LINE
  5
6B4
102
{ACAD_REACTORS
330
6DC
102
}
330
1E
100
AcDbEntity
  8
STEMPEL
100
AcDbLine
 10
469.8542600188171
 20
390.478423856595
 30
0.0
 11
562.1811965227458
 21
390.4784238565946
 31
0.0
  0
LINE
  5
6BE
102
{ACAD_REACTORS
330
6DC
102
}
330
1E
100
AcDbEntity
  8
STEMPEL
100
AcDbLine
 10
275.1811965227461
 20
390.4784238565952
 30
0.0
 11
324.0586074568649
 21
390.4784238565951
 31
0.0
  0
LINE
  5
6BF
102
{ACAD_REACTORS
330
6DC
102
}
330
1E
100
AcDbEntity
  8
STEMPEL
100
AcDbLine
 10
232.1811965227458
 20
390.4784238565954
 30
0.0
 11
265.181196522746
 21
390.4784238565954
 31
0.0
  0
HATCH
  5
6DC
330
1E
100
AcDbEntity
  8
SCHRAFF
100
AcDbHatch
 10
0.0
 20
0.0
 30
0.0
210
0.0
220
0.0
230
1.0
  2
NET
 70
     0
 71
     1
 91
        4
 92
        7
 72
     0
 73
     1
 93
        4
 10
562.1811965227458
 20
390.4784238565946
 10
497.937070739732
 20
390.4784238565948
 10
497.9370707397321
 20
387.4784238565947
 10
562.1811965227459
 20
387.4784238565945
 97
        4
330
6B4
330
417
330
40F
330
45D
 92
        7
 72
     0
 73
     1
 93
        4
 10
497.9370707397321
 20
390.4784238565949
 10
492.1811965227458
 20
390.478423856595
 10
492.1811965227457
 20
387.4784238565947
 10
497.937070739732
 20
387.4784238565946
 97
        4
330
6B4
330
430
330
40F
330
417
 92
        7
 72
     0
 73
     1
 93
        4
 10
302.1811965227458
 20
390.4784238565952
 10
277.181196522746
 20
390.4784238565952
 10
277.1811965227461
 20
387.4784238565951
 10
302.1811965227458
 20
387.4784238565951
 97
        4
330
6BE
330
39C
330
388
330
3CA
 92
        7
 72
     0
 73
     1
 93
        4
 10
263.181196522746
 20
390.4784238565954
 10
232.1811965227458
 20
390.4784238565954
 10
232.1811965227459
 20
387.4784238565953
 10
263.181196522746
 20
387.4784238565952
 97
        4
330
6BF
330
398
330
388
330
39B
 75
     0
 76
     1
 52
45.0
 41
15.0
 77
     0
 78
     2
 53
45.0
 43
0.0
 44
0.0
 45
-1.325825214724776
 46
1.325825214724776
 79
     0
 53
135.0
 43
0.0
 44
0.0
 45
-1.325825214724776
 46
-1.325825214724776
 79
     0
 47
0.3475674320148641
 98
        4
 10
528.5226338945385
 20
389.3543211502813
 10
496.5355802335998
 20
389.3543211502813
 10
294.1826990238501
 20
389.3543211502813
 10
258.7187902383412
 20
389.3543211502813
  0
LINE
  5
742
330
1E
100
AcDbEntity
  8
TEXT
 62
     2
100
AcDbLine
 10
88.51957689799474
 20
253.5707517041891
 30
0.0
 11
233.1718662661513
 21
253.5707517041891
 31
0.0
  0
TEXT
  5
743
330
1E
100
AcDbEntity
  8
TEXT
 62
     1
100
AcDbText
 10
89.01216915956116
 20
256.6995720694212
 30
0.0
 40
7.0
  1
vorkonfektioniertes Heizbandkabel
 41
0.8
  7
GREEKS
100
AcDbText
  0
TEXT
  5
744
330
1E
100
AcDbEntity
  8
TEXT
 62
     1
100
AcDbText
 10
89.01216915956116
 20
244.2408803770142
 30
0.0
 40
7.0
  1
EDV-Art.Nr. 19853.000X
 41
0.8
  7
GREEKS
100
AcDbText
  0
ENDSEC
  0
SECTION
  2
OBJECTS
  0
DICTIONARY
  5
C
330
0
100
AcDbDictionary
281
     1
  3
ACAD_CIP_PREVIOUS_PRODUCT_INFO
350
731
  3
ACAD_COLOR
350
11A
  3
ACAD_DETAILVIEWSTYLE
350
72D
  3
ACAD_GROUP
350
D
  3
ACAD_LAYOUT
350
19
  3
ACAD_MATERIAL
350
119
  3
ACAD_MLEADERSTYLE
350
728
  3
ACAD_MLINESTYLE
350
16
  3
ACAD_PLOTSETTINGS
350
18
  3
ACAD_PLOTSTYLENAME
350
E
  3
ACAD_SCALELIST
350
716
  3
ACAD_SECTIONVIEWSTYLE
350
72A
  3
ACAD_TABLESTYLE
350
714
  3
ACAD_VISUALSTYLE
350
6FB
  3
ACDB_RECOMPOSE_DATA
350
845
  3
AcDbVariableDictionary
350
125
  0
DICTIONARY
  5
76E
330
8
100
AcDbDictionary
280
     1
281
     1
  0
DICTIONARY
  5
7B5
330
2
100
AcDbDictionary
280
     1
281
     1
  3
ACAD_LAYERSTATES
360
7B6
  0
DICTIONARY
  5
75B
330
10
100
AcDbDictionary
280
     1
281
     1
  3
ADSK_XREC_LAYER_RECONCILED
360
75C
  0
DICTIONARY
  5
75D
330
2B
100
AcDbDictionary
280
     1
281
     1
  3
ADSK_XREC_LAYER_RECONCILED
360
75E
  0
DICTIONARY
  5
75F
330
2C
100
AcDbDictionary
280
     1
281
     1
  3
ADSK_XREC_LAYER_RECONCILED
360
760
  0
DICTIONARY
  5
761
330
2D
100
AcDbDictionary
280
     1
281
     1
  3
ADSK_XREC_LAYER_RECONCILED
360
762
  0
DICTIONARY
  5
763
330
2F
100
AcDbDictionary
280
     1
281
     1
  3
ADSK_XREC_LAYER_RECONCILED
360
764
  0
DICTIONARY
  5
765
330
30
100
AcDbDictionary
280
     1
281
     1
  3
ADSK_XREC_LAYER_RECONCILED
360
766
  0
DICTIONARY
  5
767
330
33
100
AcDbDictionary
280
     1
281
     1
  3
ADSK_XREC_LAYER_RECONCILED
360
768
  0
DICTIONARY
  5
769
330
231
100
AcDbDictionary
280
     1
281
     1
  3
ADSK_XREC_LAYER_RECONCILED
360
76A
  0
DICTIONARY
  5
DB
330
1E
100
AcDbDictionary
280
     1
281
     1
  3
ACAD_LAYOUTSELFREF
360
10F
  0
DICTIONARY
  5
DD
330
1A
100
AcDbDictionary
280
     1
281
     1
  3
ACAD_LAYOUTSELFREF
360
10E
  0
XRECORD
  5
731
102
{ACAD_REACTORS
330
C
102
}
330
C
100
AcDbXrecord
280
     1
300
ACD
300
2013
300
ACD_F_S
  0
DICTIONARY
  5
11A
102
{ACAD_REACTORS
330
C
102
}
330
C
100
AcDbDictionary
281
     1
  0
DICTIONARY
  5
72D
102
{ACAD_REACTORS
330
C
102
}
330
C
100
AcDbDictionary
281
     1
  3
Imperial24
350
72E
  0
DICTIONARY
  5
D
102
{ACAD_REACTORS
330
C
102
}
330
C
100
AcDbDictionary
281
     1
  0
DICTIONARY
  5
19
102
{ACAD_REACTORS
330
C
102
}
330
C
100
AcDbDictionary
281
     1
  3
Layout1
350
1D
  3
Model
350
21
  0
DICTIONARY
  5
119
102
{ACAD_REACTORS
330
C
102
}
330
C
100
AcDbDictionary
281
     1
  3
ByBlock
350
6EB
  3
ByLayer
350
6E3
  3
Global
350
6F3
  0
DICTIONARY
  5
728
102
{ACAD_REACTORS
330
C
102
}
330
C
100
AcDbDictionary
281
     1
  3
Standard
350
729
  0
DICTIONARY
  5
16
102
{ACAD_REACTORS
330
C
102
}
330
C
100
AcDbDictionary
281
     1
  3
Standard
350
17
  0
DICTIONARY
  5
18
102
{ACAD_REACTORS
330
C
102
}
330
C
100
AcDbDictionary
281
     1
  0
ACDBDICTIONARYWDFLT
  5
E
102
{ACAD_REACTORS
330
C
102
}
330
C
100
AcDbDictionary
281
     1
  3
Normal
350
F
100
AcDbDictionaryWithDefault
340
F
  0
DICTIONARY
  5
716
102
{ACAD_REACTORS
330
C
102
}
330
C
100
AcDbDictionary
281
     1
  3
A0
350
717
  3
A1
350
718
  3
A2
350
719
  3
A3
350
71A
  3
A4
350
71B
  3
A5
350
71C
  3
A6
350
71D
  3
A7
350
71E
  3
A8
350
71F
  3
A9
350
720
  3
B0
350
721
  3
B1
350
722
  3
B2
350
723
  3
B3
350
724
  3
B4
350
725
  3
B5
350
726
  3
B6
350
727
  0
DICTIONARY
  5
72A
102
{ACAD_REACTORS
330
C
102
}
330
C
100
AcDbDictionary
281
     1
  3
Imperial24
350
72C
  0
DICTIONARY
  5
714
102
{ACAD_REACTORS
330
C
102
}
330
C
100
AcDbDictionary
281
     1
  3
Standard
350
715
  0
DICTIONARY
  5
6FB
102
{ACAD_REACTORS
330
C
102
}
330
C
100
AcDbDictionary
281
     1
  3
2dWireframe
350
701
  3
Basic
350
700
  3
Brighten
350
707
  3
ColorChange
350
70B
  3
Conceptual
350
704
  3
Dim
350
706
  3
EdgeColorOff
350
713
  3
Facepattern
350
70A
  3
Flat
350
6FC
  3
FlatWithEdges
350
6FD
  3
Gouraud
350
6FE
  3
GouraudWithEdges
350
6FF
  3
Hidden
350
703
  3
JitterOff
350
711
  3
Linepattern
350
709
  3
OverhangOff
350
712
  3
Realistic
350
705
  3
Shaded
350
710
  3
Shaded with edges
350
70F
  3
Shades of Gray
350
70C
  3
Sketchy
350
70D
  3
Thicken
350
708
  3
Wireframe
350
702
  3
X-Ray
350
70E
  0
XRECORD
  5
845
102
{ACAD_REACTORS
330
C
102
}
330
C
100
AcDbXrecord
280
     1
 90
        1
330
715
  0
DICTIONARY
  5
125
102
{ACAD_REACTORS
330
C
102
}
330
C
100
AcDbDictionary
281
     1
  3
CANNOSCALE
350
7AB
  3
CMLEADERSTYLE
350
7A8
  3
CTABLESTYLE
350
7A7
  3
CVIEWDETAILSTYLE
350
7A9
  3
CVIEWSECTIONSTYLE
350
7AA
  3
DIMASSOC
350
126
  3
PROJECTNAME
350
127
  0
DICTIONARY
  5
7B6
102
{ACAD_REACTORS
330
7B5
102
}
330
7B5
100
AcDbDictionary
281
     1
  0
XRECORD
  5
75C
102
{ACAD_REACTORS
330
75B
102
}
330
75B
100
AcDbXrecord
280
     1
290
     1
  0
XRECORD
  5
75E
102
{ACAD_REACTORS
330
75D
102
}
330
75D
100
AcDbXrecord
280
     1
290
     1
  0
XRECORD
  5
760
102
{ACAD_REACTORS
330
75F
102
}
330
75F
100
AcDbXrecord
280
     1
290
     1
  0
XRECORD
  5
762
102
{ACAD_REACTORS
330
761
102
}
330
761
100
AcDbXrecord
280
     1
290
     1
  0
XRECORD
  5
764
102
{ACAD_REACTORS
330
763
102
}
330
763
100
AcDbXrecord
280
     1
290
     1
  0
XRECORD
  5
766
102
{ACAD_REACTORS
330
765
102
}
330
765
100
AcDbXrecord
280
     1
290
     1
  0
XRECORD
  5
768
102
{ACAD_REACTORS
330
767
102
}
330
767
100
AcDbXrecord
280
     1
290
     1
  0
XRECORD
  5
76A
102
{ACAD_REACTORS
330
769
102
}
330
769
100
AcDbXrecord
280
     1
290
     1
  0
XRECORD
  5
10F
102
{ACAD_REACTORS
330
DB
102
}
330
DB
100
AcDbXrecord
280
     1
340
1E
  0
XRECORD
  5
10E
102
{ACAD_REACTORS
330
DD
102
}
330
DD
100
AcDbXrecord
280
     1
340
1A
  0
ACDBDETAILVIEWSTYLE
  5
72E
102
{ACAD_REACTORS
330
72D
102
}
330
72D
100
AcDbModelDocViewStyle
 70
     0
  3
Imperial24
290
     0
100
AcDbDetailViewStyle
 70
     0
 71
     0
 90
        3
 71
     1
340
11
 62
   256
 40
0.24
340
0
 62
   256
 40
0.24
300

 40
0.36
280
     3
 71
     2
340
15
 90
       25
 62
   256
 71
     3
340
11
 62
   256
 40
0.24
 90
        1
 40
0.75
 90
        1
300
%<\AcVar ViewType \f "%tc1">% %<\AcVar ViewDetailId>%\PVARIA %<\AcVar ViewScale \f "%sn">%
 71
     4
340
15
 90
       25
 62
   256
340
15
 90
       25
 62
   256
280
     0
  0
LAYOUT
  5
1D
102
{ACAD_REACTORS
330
19
102
}
330
19
100
AcDbPlotSettings
  1

  2
\\NT_WORK01\HP LaserJet 5000 PCL 6
  4

  6

 40
0.0
 41
0.0
 42
0.0
 43
0.0
 44
0.0
 45
0.0
 46
0.0
 47
0.0
 48
0.0
 49
0.0
140
0.0
141
0.0
142
1.0
143
1.0
 70
   688
 72
     0
 73
     0
 74
     5
  7

 75
    16
147
1.0
 76
     0
 77
     2
 78
   300
148
0.0
149
0.0
100
AcDbLayout
  1
Layout1
 70
     0
 71
     1
 10
0.0
 20
0.0
 11
12.0
 21
9.0
 12
0.0
 22
0.0
 32
0.0
 14
1.000000000000000E+20
 24
1.000000000000000E+20
 34
1.000000000000000E+20
 15
-1.000000000000000E+20
 25
-1.000000000000000E+20
 35
-1.000000000000000E+20
146
0.0
 13
0.0
 23
0.0
 33
0.0
 16
1.0
 26
0.0
 36
0.0
 17
0.0
 27
1.0
 37
0.0
 76
     0
330
1A
  0
LAYOUT
  5
21
102
{ACAD_XDICTIONARY
360
7C6
102
}
102
{ACAD_REACTORS
330
19
102
}
330
19
100
AcDbPlotSettings
  1

  2
none_device
  4
Letter_(8.50_x_11.00_Inches)
  6

 40
6.349999904632568
 41
6.349999904632568
 42
6.350006103515625
 43
6.350006103515625
 44
215.8999938964844
 45
279.3999938964844
 46
0.0
 47
0.0
 48
0.0
 49
0.0
140
0.0
141
0.0
142
1.0
143
1.0
 70
 11952
 72
     0
 73
     1
 74
     0
  7

 75
     0
147
1.0
 76
     0
 77
     2
 78
   300
148
-3124.2
149
0.0
100
AcDbLayout
  1
Model
 70
     1
 71
     0
 10
0.0
 20
0.0
 11
12.0
 21
9.0
 12
0.0
 22
0.0
 32
0.0
 14
0.0
 24
0.0
 34
0.0
 15
0.0
 25
0.0
 35
0.0
146
0.0
 13
0.0
 23
0.0
 33
0.0
 16
1.0
 26
0.0
 36
0.0
 17
0.0
 27
1.0
 37
0.0
 76
     0
330
1E
331
6E1
  0
MATERIAL
  5
6EB
102
{ACAD_XDICTIONARY
360
6EC
102
}
102
{ACAD_REACTORS
330
119
102
}
330
119
100
AcDbMaterial
  1
ByBlock
 72
     0
 43
0.0208333333333333
 43
0.0
 43
0.0
 43
0.0
 43
0.0
 43
0.0208333333333333
 43
0.0
 43
0.0
 43
0.0
 43
0.0
 43
1.0
 43
0.0
 43
0.0
 43
0.0
 43
0.0
 43
1.0
 77
     0
 47
0.0208333333333333
 47
0.0
 47
0.0
 47
0.0
 47
0.0
 47
0.0208333333333333
 47
0.0
 47
0.0
 47
0.0
 47
0.0
 47
1.0
 47
0.0
 47
0.0
 47
0.0
 47
0.0
 47
1.0
171
     0
 49
0.0208333333333333
 49
0.0
 49
0.0
 49
0.0
 49
0.0
 49
0.0208333333333333
 49
0.0
 49
0.0
 49
0.0
 49
0.0
 49
1.0
 49
0.0
 49
0.0
 49
0.0
 49
0.0
 49
1.0
175
     0
142
0.0208333333333333
142
0.0
142
0.0
142
0.0
142
0.0
142
0.0208333333333333
142
0.0
142
0.0
142
0.0
142
0.0
142
1.0
142
0.0
142
0.0
142
0.0
142
0.0
142
1.0
179
     0
144
0.0208333333333333
144
0.0
144
0.0
144
0.0
144
0.0
144
0.0208333333333333
144
0.0
144
0.0
144
0.0
144
0.0
144
1.0
144
0.0
144
0.0
144
0.0
144
0.0
144
1.0
147
0.0208333333333333
147
0.0
147
0.0
147
0.0
147
0.0
147
0.0208333333333333
147
0.0
147
0.0
147
0.0
147
0.0
147
1.0
147
0.0
147
0.0
147
0.0
147
0.0
147
1.0
  0
MATERIAL
  5
6E3
102
{ACAD_XDICTIONARY
360
6E4
102
}
102
{ACAD_REACTORS
330
119
102
}
330
119
100
AcDbMaterial
  1
ByLayer
 72
     0
 43
0.0208333333333333
 43
0.0
 43
0.0
 43
0.0
 43
0.0
 43
0.0208333333333333
 43
0.0
 43
0.0
 43
0.0
 43
0.0
 43
1.0
 43
0.0
 43
0.0
 43
0.0
 43
0.0
 43
1.0
 77
     0
 47
0.0208333333333333
 47
0.0
 47
0.0
 47
0.0
 47
0.0
 47
0.0208333333333333
 47
0.0
 47
0.0
 47
0.0
 47
0.0
 47
1.0
 47
0.0
 47
0.0
 47
0.0
 47
0.0
 47
1.0
171
     0
 49
0.0208333333333333
 49
0.0
 49
0.0
 49
0.0
 49
0.0
 49
0.0208333333333333
 49
0.0
 49
0.0
 49
0.0
 49
0.0
 49
1.0
 49
0.0
 49
0.0
 49
0.0
 49
0.0
 49
1.0
175
     0
142
0.0208333333333333
142
0.0
142
0.0
142
0.0
142
0.0
142
0.0208333333333333
142
0.0
142
0.0
142
0.0
142
0.0
142
1.0
142
0.0
142
0.0
142
0.0
142
0.0
142
1.0
179
     0
144
0.0208333333333333
144
0.0
144
0.0
144
0.0
144
0.0
144
0.0208333333333333
144
0.0
144
0.0
144
0.0
144
0.0
144
1.0
144
0.0
144
0.0
144
0.0
144
0.0
144
1.0
147
0.0208333333333333
147
0.0
147
0.0
147
0.0
147
0.0
147
0.0208333333333333
147
0.0
147
0.0
147
0.0
147
0.0
147
1.0
147
0.0
147
0.0
147
0.0
147
0.0
147
1.0
  0
MATERIAL
  5
6F3
102
{ACAD_XDICTIONARY
360
6F4
102
}
102
{ACAD_REACTORS
330
119
102
}
330
119
100
AcDbMaterial
  1
Global
 72
     0
 43
0.0208333333333333
 43
0.0
 43
0.0
 43
0.0
 43
0.0
 43
0.0208333333333333
 43
0.0
 43
0.0
 43
0.0
 43
0.0
 43
1.0
 43
0.0
 43
0.0
 43
0.0
 43
0.0
 43
1.0
 77
     0
 47
0.0208333333333333
 47
0.0
 47
0.0
 47
0.0
 47
0.0
 47
0.0208333333333333
 47
0.0
 47
0.0
 47
0.0
 47
0.0
 47
1.0
 47
0.0
 47
0.0
 47
0.0
 47
0.0
 47
1.0
171
     0
 49
0.0208333333333333
 49
0.0
 49
0.0
 49
0.0
 49
0.0
 49
0.0208333333333333
 49
0.0
 49
0.0
 49
0.0
 49
0.0
 49
1.0
 49
0.0
 49
0.0
 49
0.0
 49
0.0
 49
1.0
175
     0
142
0.0208333333333333
142
0.0
142
0.0
142
0.0
142
0.0
142
0.0208333333333333
142
0.0
142
0.0
142
0.0
142
0.0
142
1.0
142
0.0
142
0.0
142
0.0
142
0.0
142
1.0
179
     0
144
0.0208333333333333
144
0.0
144
0.0
144
0.0
144
0.0
144
0.0208333333333333
144
0.0
144
0.0
144
0.0
144
0.0
144
1.0
144
0.0
144
0.0
144
0.0
144
0.0
144
1.0
147
0.0208333333333333
147
0.0
147
0.0
147
0.0
147
0.0
147
0.0208333333333333
147
0.0
147
0.0
147
0.0
147
0.0
147
1.0
147
0.0
147
0.0
147
0.0
147
0.0
147
1.0
  0
MLEADERSTYLE
  5
729
102
{ACAD_XDICTIONARY
360
87A
102
}
102
{ACAD_REACTORS
330
728
102
}
330
728
100
AcDbMLeaderStyle
170
     2
171
     1
172
     0
 90
        2
 40
0.0
 41
0.0
173
     1
 91
-1056964608
340
13
 92
       -2
290
     1
 42
0.09
291
     1
 43
0.36
  3
Standard
 44
0.18
300

342
11
174
     1
178
     6
175
     1
176
     0
 93
-1056964608
 45
0.18
292
     0
297
     0
 46
0.18
 94
-1056964608
 47
1.0
 49
1.0
140
1.0
293
     1
141
0.0
294
     1
177
     0
142
1.0
295
     0
296
     0
143
0.125
1001
ACAD_MLEADERVER
1070
     2
  0
MLINESTYLE
  5
17
102
{ACAD_REACTORS
330
16
102
}
330
16
100
AcDbMlineStyle
  2
STANDARD
 70
     0
  3

 62
   256
 51
90.0
 52
90.0
 71
     2
 49
0.5
 62
   256
  6
BYLAYER
 49
-0.5
 62
   256
  6
BYLAYER
  0
ACDBPLACEHOLDER
  5
F
102
{ACAD_REACTORS
330
E
102
}
330
E
  0
SCALE
  5
717
102
{ACAD_REACTORS
330
716
102
}
330
716
100
AcDbScale
 70
     0
300
1:1
140
1.0
141
1.0
290
     1
  0
SCALE
  5
718
102
{ACAD_REACTORS
330
716
102
}
330
716
100
AcDbScale
 70
     0
300
1/128" = 1'-0"
140
0.0078125
141
12.0
290
     0
  0
SCALE
  5
719
102
{ACAD_REACTORS
330
716
102
}
330
716
100
AcDbScale
 70
     0
300
1/64" = 1'-0"
140
0.015625
141
12.0
290
     0
  0
SCALE
  5
71A
102
{ACAD_REACTORS
330
716
102
}
330
716
100
AcDbScale
 70
     0
300
1/32" = 1'-0"
140
0.03125
141
12.0
290
     0
  0
SCALE
  5
71B
102
{ACAD_REACTORS
330
716
102
}
330
716
100
AcDbScale
 70
     0
300
1/16" = 1'-0"
140
0.0625
141
12.0
290
     0
  0
SCALE
  5
71C
102
{ACAD_REACTORS
330
716
102
}
330
716
100
AcDbScale
 70
     0
300
3/32" = 1'-0"
140
0.09375
141
12.0
290
     0
  0
SCALE
  5
71D
102
{ACAD_REACTORS
330
716
102
}
330
716
100
AcDbScale
 70
     0
300
1/8" = 1'-0"
140
0.125
141
12.0
290
     0
  0
SCALE
  5
71E
102
{ACAD_REACTORS
330
716
102
}
330
716
100
AcDbScale
 70
     0
300
3/16" = 1'-0"
140
0.1875
141
12.0
290
     0
  0
SCALE
  5
71F
102
{ACAD_REACTORS
330
716
102
}
330
716
100
AcDbScale
 70
     0
300
1/4" = 1'-0"
140
0.25
141
12.0
290
     0
  0
SCALE
  5
720
102
{ACAD_REACTORS
330
716
102
}
330
716
100
AcDbScale
 70
     0
300
3/8" = 1'-0"
140
0.375
141
12.0
290
     0
  0
SCALE
  5
721
102
{ACAD_REACTORS
330
716
102
}
330
716
100
AcDbScale
 70
     0
300
1/2" = 1'-0"
140
0.5
141
12.0
290
     0
  0
SCALE
  5
722
102
{ACAD_REACTORS
330
716
102
}
330
716
100
AcDbScale
 70
     0
300
3/4" = 1'-0"
140
0.75
141
12.0
290
     0
  0
SCALE
  5
723
102
{ACAD_REACTORS
330
716
102
}
330
716
100
AcDbScale
 70
     0
300
1" = 1'-0"
140
1.0
141
12.0
290
     0
  0
SCALE
  5
724
102
{ACAD_REACTORS
330
716
102
}
330
716
100
AcDbScale
 70
     0
300
1-1/2" = 1'-0"
140
1.5
141
12.0
290
     0
  0
SCALE
  5
725
102
{ACAD_REACTORS
330
716
102
}
330
716
100
AcDbScale
 70
     0
300
3" = 1'-0"
140
3.0
141
12.0
290
     0
  0
SCALE
  5
726
102
{ACAD_REACTORS
330
716
102
}
330
716
100
AcDbScale
 70
     0
300
6" = 1'-0"
140
6.0
141
12.0
290
     0
  0
SCALE
  5
727
102
{ACAD_REACTORS
330
716
102
}
330
716
100
AcDbScale
 70
     0
300
1'-0" = 1'-0"
140
12.0
141
12.0
290
     0
  0
ACDBSECTIONVIEWSTYLE
  5
72C
102
{ACAD_REACTORS
330
72A
102
}
330
72A
100
AcDbModelDocViewStyle
 70
     0
  3
Imperial24
290
     0
100
AcDbSectionViewStyle
 70
     0
 71
     0
 90
       78
 71
     1
340
11
 62
   256
 40
0.24
340
0
340
0
 62
   256
 40
0.24
300
I, O, Q, S, X, Z
 40
0.48
 90
        3
 40
0.18
 90
        1
 71
     2
340
72B
 90
       25
 62
   256
340
15
 90
       50
 62
   256
 40
0.24
 40
0.0
 40
0.24
 71
     3
340
11
 62
   256
 40
0.24
 90
        1
 40
0.75
 90
        1
300
%<\AcVar ViewType \f "%tc1">% %<\AcVar ViewSectionStartId>%-%<\AcVar ViewSectionEndId>%\PVARIA %<\AcVar ViewScale \f "%sn">%
 71
     4
 62
   256
 62
   257
300
ANSI31
 40
1.0
 90
        0
290
     0
290
     0
 90
        6
 40
0.0
 40
1.570796326794896
 40
0.2617993877991494
 40
1.308996938995747
 40
-0.2617993877991494
 40
1.832595714594046
  0
TABLESTYLE
  5
715
102
{ACAD_XDICTIONARY
360
76B
102
}
102
{ACAD_REACTORS
330
714
102
}
330
714
100
AcDbTableStyle
  3
Standard
 70
     0
 71
     0
 40
0.06
 41
0.06
280
     0
281
     0
  7
STANDARD
140
0.18
170
     2
 62
     0
 63
     7
283
     0
274
    -2
284
     1
 64
     0
275
    -2
285
     1
 65
     0
276
    -2
286
     1
 66
     0
277
    -2
287
     1
 67
     0
278
    -2
288
     1
 68
     0
279
    -2
289
     1
 69
     0
  7
STANDARD
140
0.25
170
     5
 62
     0
 63
     7
283
     0
274
    -2
284
     1
 64
     0
275
    -2
285
     1
 65
     0
276
    -2
286
     1
 66
     0
277
    -2
287
     1
 67
     0
278
    -2
288
     1
 68
     0
279
    -2
289
     1
 69
     0
  7
STANDARD
140
0.18
170
     5
 62
     0
 63
     7
283
     0
274
    -2
284
     1
 64
     0
275
    -2
285
     1
 65
     0
276
    -2
286
     1
 66
     0
277
    -2
287
     1
 67
     0
278
    -2
288
     1
 68
     0
279
    -2
289
     1
 69
     0
  0
VISUALSTYLE
  5
701
102
{ACAD_XDICTIONARY
360
853
102
}
102
{ACAD_REACTORS
330
6FB
102
}
330
6FB
100
AcDbVisualStyle
  2
2dWireframe
 70
     4
 71
     0
 72
     2
 73
     0
 90
        0
 40
-0.6
 41
-30.0
 62
     5
 63
     7
421
 16777215
 74
     1
 91
        4
 64
     7
 65
   257
 75
     1
175
     1
 42
1.0
 92
        0
 66
   257
 43
1.0
 76
     1
 77
     6
 78
     2
 67
     7
 79
     5
170
     0
171
     0
290
     0
174
     0
 93
        1
 44
0.0
173
     0
291
     0
 45
0.0
1001
ACAD
1000
AcDbSavedByObjectVersion
1070
     0
  0
VISUALSTYLE
  5
700
102
{ACAD_XDICTIONARY
360
851
102
}
102
{ACAD_REACTORS
330
6FB
102
}
330
6FB
100
AcDbVisualStyle
  2
Basic
 70
     7
 71
     1
 72
     0
 73
     1
 90
        0
 40
-0.6
 41
-30.0
 62
     5
 63
     7
421
 16777215
 74
     0
 91
        4
 64
     7
 65
   257
 75
     1
175
     1
 42
1.0
 92
        8
 66
     7
 43
1.0
 76
     1
 77
     6
 78
     2
 67
     7
 79
     5
170
     0
171
     0
290
     0
174
     0
 93
        1
 44
0.0
173
     0
291
     1
 45
0.0
1001
ACAD
1000
AcDbSavedByObjectVersion
1070
     0
  0
VISUALSTYLE
  5
707
102
{ACAD_XDICTIONARY
360
85F
102
}
102
{ACAD_REACTORS
330
6FB
102
}
330
6FB
100
AcDbVisualStyle
  2
Brighten
 70
    12
 71
     2
 72
     2
 73
     0
 90
        0
 40
-0.6
 41
-30.0
 62
     5
 63
     7
421
 16777215
 74
     1
 91
        4
 64
     7
 65
   257
 75
     1
175
     1
 42
1.0
 92
        8
 66
     7
 43
1.0
 76
     1
 77
     6
 78
     2
 67
     7
 79
     5
170
     0
171
     0
290
     0
174
     0
 93
        1
 44
50.0
173
     0
291
     1
 45
0.0
1001
ACAD
1000
AcDbSavedByObjectVersion
1070
     0
  0
VISUALSTYLE
  5
70B
102
{ACAD_XDICTIONARY
360
867
102
}
102
{ACAD_REACTORS
330
6FB
102
}
330
6FB
100
AcDbVisualStyle
  2
ColorChange
 70
    16
 71
     2
 72
     2
 73
     3
 90
        0
 40
-0.6
 41
-30.0
 62
     5
 63
     8
421
  8421504
 74
     1
 91
        4
 64
     7
 65
   257
 75
     1
175
     1
 42
1.0
 92
        8
 66
     8
424
  8421504
 43
1.0
 76
     1
 77
     6
 78
     2
 67
     7
 79
     5
170
     0
171
     0
290
     0
174
     0
 93
        1
 44
0.0
173
     0
291
     1
 45
0.0
1001
ACAD
1000
AcDbSavedByObjectVersion
1070
     0
  0
VISUALSTYLE
  5
704
102
{ACAD_XDICTIONARY
360
859
102
}
102
{ACAD_REACTORS
330
6FB
102
}
330
6FB
100
AcDbVisualStyle
  2
Conceptual
 70
     9
 71
     3
 72
     2
 73
     0
 90
        0
 40
-0.6
 41
-30.0
 62
     5
 63
     7
421
 16777215
 74
     2
 91
        2
 64
     7
 65
   257
 75
     1
175
     1
 42
179.0
 92
        8
 66
     7
 43
1.0
 76
     1
 77
     6
 78
     2
 67
     7
 79
     3
170
     0
171
     0
290
     0
174
     0
 93
        1
 44
0.0
173
     0
291
     0
 45
0.0
1001
ACAD
1000
AcDbSavedByObjectVersion
1070
     0
  0
VISUALSTYLE
  5
706
102
{ACAD_XDICTIONARY
360
85D
102
}
102
{ACAD_REACTORS
330
6FB
102
}
330
6FB
100
AcDbVisualStyle
  2
Dim
 70
    11
 71
     2
 72
     2
 73
     0
 90
        0
 40
-0.6
 41
-30.0
 62
     5
 63
     7
421
 16777215
 74
     1
 91
        4
 64
     7
 65
   257
 75
     1
175
     1
 42
1.0
 92
        8
 66
     7
 43
1.0
 76
     1
 77
     6
 78
     2
 67
     7
 79
     5
170
     0
171
     0
290
     0
174
     0
 93
        1
 44
-50.0
173
     0
291
     1
 45
0.0
1001
ACAD
1000
AcDbSavedByObjectVersion
1070
     0
  0
VISUALSTYLE
  5
713
102
{ACAD_XDICTIONARY
360
877
102
}
102
{ACAD_REACTORS
330
6FB
102
}
330
6FB
100
AcDbVisualStyle
  2
EdgeColorOff
 70
    22
 71
     2
 72
     2
 73
     0
 90
        0
 40
-0.6
 41
-30.0
 62
     5
 63
     7
421
 16777215
 74
     1
 91
        4
 64
     7
 65
   257
 75
     1
175
     1
 42
1.0
 92
        8
 66
     7
 43
1.0
 76
     1
 77
     6
 78
     2
 67
     7
 79
     5
170
     0
171
     0
290
     0
174
     0
 93
        1
 44
0.0
173
     0
291
     1
 45
0.0
1001
ACAD
1000
AcDbSavedByObjectVersion
1070
     0
  0
VISUALSTYLE
  5
70A
102
{ACAD_XDICTIONARY
360
865
102
}
102
{ACAD_REACTORS
330
6FB
102
}
330
6FB
100
AcDbVisualStyle
  2
Facepattern
 70
    15
 71
     2
 72
     2
 73
     0
 90
        0
 40
-0.6
 41
-30.0
 62
     5
 63
     7
421
 16777215
 74
     1
 91
        4
 64
     7
 65
   257
 75
     1
175
     1
 42
1.0
 92
        8
 66
     7
 43
1.0
 76
     1
 77
     6
 78
     2
 67
     7
 79
     5
170
     0
171
     0
290
     0
174
     0
 93
        1
 44
0.0
173
     0
291
     1
 45
0.0
1001
ACAD
1000
AcDbSavedByObjectVersion
1070
     0
  0
VISUALSTYLE
  5
6FC
102
{ACAD_XDICTIONARY
360
849
102
}
102
{ACAD_REACTORS
330
6FB
102
}
330
6FB
100
AcDbVisualStyle
  2
Flat
 70
     0
 71
     2
 72
     1
 73
     1
 90
        2
 40
-0.6
 41
30.0
 62
     5
 63
     7
421
 16777215
 74
     0
 91
        0
 64
     7
 65
   257
 75
     1
175
     1
 42
1.0
 92
        8
 66
     7
 43
1.0
 76
     1
 77
     6
 78
     2
 67
     7
 79
     5
170
     0
171
     0
290
     0
174
     0
 93
       13
 44
0.0
173
     0
291
     1
 45
0.0
1001
ACAD
1000
AcDbSavedByObjectVersion
1070
     0
  0
VISUALSTYLE
  5
6FD
102
{ACAD_XDICTIONARY
360
84B
102
}
102
{ACAD_REACTORS
330
6FB
102
}
330
6FB
100
AcDbVisualStyle
  2
FlatWithEdges
 70
     1
 71
     2
 72
     1
 73
     1
 90
        2
 40
-0.6
 41
30.0
 62
     5
 63
     7
421
 16777215
 74
     1
 91
        0
 64
     7
 65
   257
 75
     1
175
     1
 42
1.0
 92
        0
 66
   257
 43
1.0
 76
     1
 77
     6
 78
     2
 67
     7
 79
     5
170
     0
171
     0
290
     0
174
     0
 93
       13
 44
0.0
173
     0
291
     1
 45
0.0
1001
ACAD
1000
AcDbSavedByObjectVersion
1070
     0
  0
VISUALSTYLE
  5
6FE
102
{ACAD_XDICTIONARY
360
84D
102
}
102
{ACAD_REACTORS
330
6FB
102
}
330
6FB
100
AcDbVisualStyle
  2
Gouraud
 70
     2
 71
     2
 72
     2
 73
     1
 90
        2
 40
-0.6
 41
30.0
 62
     5
 63
     7
421
 16777215
 74
     0
 91
        0
 64
     7
 65
   257
 75
     1
175
     1
 42
1.0
 92
        0
 66
     7
 43
1.0
 76
     1
 77
     6
 78
     2
 67
     7
 79
     5
170
     0
171
     0
290
     0
174
     0
 93
       13
 44
0.0
173
     0
291
     1
 45
0.0
1001
ACAD
1000
AcDbSavedByObjectVersion
1070
     0
  0
VISUALSTYLE
  5
6FF
102
{ACAD_XDICTIONARY
360
84F
102
}
102
{ACAD_REACTORS
330
6FB
102
}
330
6FB
100
AcDbVisualStyle
  2
GouraudWithEdges
 70
     3
 71
     2
 72
     2
 73
     1
 90
        2
 40
-0.6
 41
30.0
 62
     5
 63
     7
421
 16777215
 74
     1
 91
        0
 64
     7
 65
   257
 75
     1
175
     1
 42
1.0
 92
        0
 66
   257
 43
1.0
 76
     1
 77
     6
 78
     2
 67
     7
 79
     5
170
     0
171
     0
290
     0
174
     0
 93
       13
 44
0.0
173
     0
291
     1
 45
0.0
1001
ACAD
1000
AcDbSavedByObjectVersion
1070
     0
  0
VISUALSTYLE
  5
703
102
{ACAD_XDICTIONARY
360
857
102
}
102
{ACAD_REACTORS
330
6FB
102
}
330
6FB
100
AcDbVisualStyle
  2
Hidden
 70
     6
 71
     1
 72
     2
 73
     2
 90
        0
 40
-0.6
 41
-30.0
 62
     5
 63
     7
421
 16777215
 74
     2
 91
        2
 64
     7
 65
   257
 75
     2
175
     1
 42
40.0
 92
        0
 66
   257
 43
1.0
 76
     1
 77
     6
 78
     2
 67
     7
 79
     3
170
     0
171
     0
290
     0
174
     0
 93
        1
 44
0.0
173
     0
291
     0
 45
0.0
1001
ACAD
1000
AcDbSavedByObjectVersion
1070
     0
  0
VISUALSTYLE
  5
711
102
{ACAD_XDICTIONARY
360
873
102
}
102
{ACAD_REACTORS
330
6FB
102
}
330
6FB
100
AcDbVisualStyle
  2
JitterOff
 70
    20
 71
     2
 72
     2
 73
     0
 90
        0
 40
-0.6
 41
-30.0
 62
     5
 63
     7
421
 16777215
 74
     1
 91
        4
 64
     7
 65
   257
 75
     1
175
     1
 42
1.0
 92
       10
 66
     7
 43
1.0
 76
     1
 77
     6
 78
     2
 67
     7
 79
     5
170
     0
171
     0
290
     0
174
     0
 93
        1
 44
0.0
173
     0
291
     1
 45
0.0
1001
ACAD
1000
AcDbSavedByObjectVersion
1070
     0
  0
VISUALSTYLE
  5
709
102
{ACAD_XDICTIONARY
360
863
102
}
102
{ACAD_REACTORS
330
6FB
102
}
330
6FB
100
AcDbVisualStyle
  2
Linepattern
 70
    14
 71
     2
 72
     2
 73
     0
 90
        0
 40
-0.6
 41
-30.0
 62
     5
 63
     7
421
 16777215
 74
     1
 91
        4
 64
     7
 65
   257
 75
     7
175
     7
 42
1.0
 92
        8
 66
     7
 43
1.0
 76
     1
 77
     6
 78
     2
 67
     7
 79
     5
170
     0
171
     0
290
     0
174
     0
 93
        1
 44
0.0
173
     0
291
     1
 45
0.0
1001
ACAD
1000
AcDbSavedByObjectVersion
1070
     0
  0
VISUALSTYLE
  5
712
102
{ACAD_XDICTIONARY
360
875
102
}
102
{ACAD_REACTORS
330
6FB
102
}
330
6FB
100
AcDbVisualStyle
  2
OverhangOff
 70
    21
 71
     2
 72
     2
 73
     0
 90
        0
 40
-0.6
 41
-30.0
 62
     5
 63
     7
421
 16777215
 74
     1
 91
        4
 64
     7
 65
   257
 75
     1
175
     1
 42
1.0
 92
        9
 66
     7
 43
1.0
 76
     1
 77
     6
 78
     2
 67
     7
 79
     5
170
     0
171
     0
290
     0
174
     0
 93
        1
 44
0.0
173
     0
291
     1
 45
0.0
1001
ACAD
1000
AcDbSavedByObjectVersion
1070
     0
  0
VISUALSTYLE
  5
705
102
{ACAD_XDICTIONARY
360
85B
102
}
102
{ACAD_REACTORS
330
6FB
102
}
330
6FB
100
AcDbVisualStyle
  2
Realistic
 70
     8
 71
     2
 72
     2
 73
     0
 90
        2
 40
-0.6
 41
30.0
 62
     5
 63
     7
421
 16777215
 74
     0
 91
        0
 64
     7
 65
   257
 75
     1
175
     1
 42
1.0
 92
        8
 66
   257
 43
1.0
 76
     1
 77
     6
 78
     2
 67
     7
 79
     3
170
     0
171
     0
290
     0
174
     0
 93
       13
 44
0.0
173
     0
291
     0
 45
0.0
1001
ACAD
1000
AcDbSavedByObjectVersion
1070
     0
  0
VISUALSTYLE
  5
710
102
{ACAD_XDICTIONARY
360
871
102
}
102
{ACAD_REACTORS
330
6FB
102
}
330
6FB
100
AcDbVisualStyle
  2
Shaded
 70
    27
 71
     2
 72
     2
 73
     1
 90
        2
 40
-0.6
 41
30.0
 62
     5
 63
     7
421
 16777215
 74
     0
 91
        4
 64
     7
 65
   257
 75
     1
175
     1
 42
1.0
 92
        8
 66
   257
 43
1.0
 76
     1
 77
     6
 78
     2
 67
     8
425
  7895160
 79
     3
170
     0
171
     0
290
     0
174
     0
 93
        5
 44
0.0
173
     0
291
     0
 45
0.0
1001
ACAD
1000
AcDbSavedByObjectVersion
1070
     0
  0
VISUALSTYLE
  5
70F
102
{ACAD_XDICTIONARY
360
86F
102
}
102
{ACAD_REACTORS
330
6FB
102
}
330
6FB
100
AcDbVisualStyle
  2
Shaded with edges
 70
    26
 71
     2
 72
     2
 73
     1
 90
        2
 40
-0.6
 41
30.0
 62
     5
 63
     7
421
 16777215
 74
     1
 91
       10
 64
     7
 65
   257
 75
     2
175
     1
 42
1.0
 92
        8
 66
   257
 43
1.0
 76
     1
 77
     6
 78
     2
 67
     7
 79
     3
170
     0
171
     0
290
     0
174
     0
 93
        5
 44
0.0
173
     0
291
     0
 45
0.0
1001
ACAD
1000
AcDbSavedByObjectVersion
1070
     0
  0
VISUALSTYLE
  5
70C
102
{ACAD_XDICTIONARY
360
869
102
}
102
{ACAD_REACTORS
330
6FB
102
}
330
6FB
100
AcDbVisualStyle
  2
Shades of Gray
 70
    23
 71
     2
 72
     2
 73
     3
 90
        0
 40
-0.6
 41
-30.0
 62
     5
 63
     7
421
 16777215
 74
     2
 91
        2
 64
     7
 65
     7
 75
     1
175
     1
 42
40.0
 92
        8
 66
     7
 43
1.0
 76
     1
 77
     6
 78
     2
 67
     7
 79
     3
170
     0
171
     0
290
     0
174
     0
 93
        1
 44
0.0
173
     0
291
     0
 45
0.0
1001
ACAD
1000
AcDbSavedByObjectVersion
1070
     0
  0
VISUALSTYLE
  5
70D
102
{ACAD_XDICTIONARY
360
86B
102
}
102
{ACAD_REACTORS
330
6FB
102
}
330
6FB
100
AcDbVisualStyle
  2
Sketchy
 70
    24
 71
     1
 72
     2
 73
     2
 90
        0
 40
-0.6
 41
-30.0
 62
     5
 63
     7
421
 16777215
 74
     2
 91
        2
 64
     7
 65
     7
 75
     1
175
     1
 42
40.0
 92
       11
 66
     7
 43
1.0
 76
     1
 77
     6
 78
     2
 67
     7
 79
     6
170
     0
171
     0
290
     0
174
     0
 93
        1
 44
0.0
173
     0
291
     0
 45
0.0
1001
ACAD
1000
AcDbSavedByObjectVersion
1070
     0
  0
VISUALSTYLE
  5
708
102
{ACAD_XDICTIONARY
360
861
102
}
102
{ACAD_REACTORS
330
6FB
102
}
330
6FB
100
AcDbVisualStyle
  2
Thicken
 70
    13
 71
     2
 72
     2
 73
     0
 90
        0
 40
-0.6
 41
-30.0
 62
     5
 63
     7
421
 16777215
 74
     1
 91
        4
 64
     7
 65
   257
 75
     1
175
     1
 42
1.0
 92
       12
 66
     7
 43
1.0
 76
     1
 77
     6
 78
     2
 67
     7
 79
     5
170
     0
171
     0
290
     0
174
     0
 93
        1
 44
0.0
173
     0
291
     1
 45
0.0
1001
ACAD
1000
AcDbSavedByObjectVersion
1070
     0
  0
VISUALSTYLE
  5
702
102
{ACAD_XDICTIONARY
360
855
102
}
102
{ACAD_REACTORS
330
6FB
102
}
330
6FB
100
AcDbVisualStyle
  2
Wireframe
 70
     5
 71
     0
 72
     2
 73
     0
 90
        0
 40
-0.6
 41
-30.0
 62
     5
 63
     7
421
 16777215
 74
     1
 91
        4
 64
     7
 65
   257
 75
     1
175
     1
 42
1.0
 92
        0
 66
   257
 43
1.0
 76
     1
 77
     6
 78
     2
 67
     7
 79
     3
170
     0
171
     0
290
     0
174
     0
 93
        1
 44
0.0
173
     0
291
     0
 45
0.0
1001
ACAD
1000
AcDbSavedByObjectVersion
1070
     0
  0
VISUALSTYLE
  5
70E
102
{ACAD_XDICTIONARY
360
86D
102
}
102
{ACAD_REACTORS
330
6FB
102
}
330
6FB
100
AcDbVisualStyle
  2
X-Ray
 70
    25
 71
     2
 72
     2
 73
     1
 90
        1
 40
0.5
 41
-30.0
 62
     5
 63
     7
421
 16777215
 74
     1
 91
        0
 64
     7
 65
   257
 75
     1
175
     1
 42
1.0
 92
        8
 66
     7
 43
1.0
 76
     1
 77
     6
 78
     2
 67
     7
 79
     3
170
     0
171
     0
290
     0
174
     0
 93
       13
 44
0.0
173
     0
291
     0
 45
0.0
1001
ACAD
1000
AcDbSavedByObjectVersion
1070
     0
  0
DICTIONARYVAR
  5
7AB
102
{ACAD_REACTORS
330
125
102
}
330
125
100
DictionaryVariables
280
     0
  1
1:1
  0
DICTIONARYVAR
  5
7A8
102
{ACAD_REACTORS
330
125
102
}
330
125
100
DictionaryVariables
280
     0
  1
STANDARD
  0
DICTIONARYVAR
  5
7A7
102
{ACAD_REACTORS
330
125
102
}
330
125
100
DictionaryVariables
280
     0
  1
STANDARD
  0
DICTIONARYVAR
  5
7A9
102
{ACAD_REACTORS
330
125
102
}
330
125
100
DictionaryVariables
280
     0
  1
Imperial24
  0
DICTIONARYVAR
  5
7AA
102
{ACAD_REACTORS
330
125
102
}
330
125
100
DictionaryVariables
280
     0
  1
Imperial24
  0
DICTIONARYVAR
  5
126
102
{ACAD_REACTORS
330
125
102
}
330
125
100
DictionaryVariables
280
     0
  1
1
  0
DICTIONARYVAR
  5
127
102
{ACAD_REACTORS
330
125
102
}
330
125
100
DictionaryVariables
280
     0
  1

  0
DICTIONARY
  5
7C6
330
21
100
AcDbDictionary
280
     1
281
     1
  3
ADSK_XREC_LAYOUTTHUMBNAIL
360
7C7
  0
DICTIONARY
  5
6EC
330
6EB
100
AcDbDictionary
280
     1
281
     1
  3
ACAD_XREC_ROUNDTRIP
360
847
  3
BUMPTILE
360
6EE
  3
DIFFUSETILE
360
6ED
  3
OPACITYTILE
360
6F1
  3
REFLECTIONTILE
360
6F0
  3
REFRACTIONTILE
360
6F2
  3
SPECULARTILE
360
6EF
  0
DICTIONARY
  5
6E4
330
6E3
100
AcDbDictionary
280
     1
281
     1
  3
ACAD_XREC_ROUNDTRIP
360
846
  3
BUMPTILE
360
6E6
  3
DIFFUSETILE
360
6E5
  3
OPACITYTILE
360
6E9
  3
REFLECTIONTILE
360
6E8
  3
REFRACTIONTILE
360
6EA
  3
SPECULARTILE
360
6E7
  0
DICTIONARY
  5
6F4
330
6F3
100
AcDbDictionary
280
     1
281
     1
  3
ACAD_XREC_ROUNDTRIP
360
848
  3
BUMPTILE
360
6F6
  3
DIFFUSETILE
360
6F5
  3
OPACITYTILE
360
6F9
  3
REFLECTIONTILE
360
6F8
  3
REFRACTIONTILE
360
6FA
  3
SPECULARTILE
360
6F7
  0
DICTIONARY
  5
87A
330
729
100
AcDbDictionary
280
     1
281
     1
  3
ACAD_XREC_ROUNDTRIP
360
87B
  0
DICTIONARY
  5
76B
330
715
100
AcDbDictionary
280
     1
281
     1
  3
ACAD_ROUNDTRIP_2008_TABLESTYLE_CELLSTYLEMAP
360
844
  3
ACAD_XREC_ROUNDTRIP
360
879
  0
DICTIONARY
  5
853
330
701
100
AcDbDictionary
280
     1
281
     1
  3
ACAD_XREC_ROUNDTRIP
360
854
  0
DICTIONARY
  5
851
330
700
100
AcDbDictionary
280
     1
281
     1
  3
ACAD_XREC_ROUNDTRIP
360
852
  0
DICTIONARY
  5
85F
330
707
100
AcDbDictionary
280
     1
281
     1
  3
ACAD_XREC_ROUNDTRIP
360
860
  0
DICTIONARY
  5
867
330
70B
100
AcDbDictionary
280
     1
281
     1
  3
ACAD_XREC_ROUNDTRIP
360
868
  0
DICTIONARY
  5
859
330
704
100
AcDbDictionary
280
     1
281
     1
  3
ACAD_XREC_ROUNDTRIP
360
85A
  0
DICTIONARY
  5
85D
330
706
100
AcDbDictionary
280
     1
281
     1
  3
ACAD_XREC_ROUNDTRIP
360
85E
  0
DICTIONARY
  5
877
330
713
100
AcDbDictionary
280
     1
281
     1
  3
ACAD_XREC_ROUNDTRIP
360
878
  0
DICTIONARY
  5
865
330
70A
100
AcDbDictionary
280
     1
281
     1
  3
ACAD_XREC_ROUNDTRIP
360
866
  0
DICTIONARY
  5
849
330
6FC
100
AcDbDictionary
280
     1
281
     1
  3
ACAD_XREC_ROUNDTRIP
360
84A
  0
DICTIONARY
  5
84B
330
6FD
100
AcDbDictionary
280
     1
281
     1
  3
ACAD_XREC_ROUNDTRIP
360
84C
  0
DICTIONARY
  5
84D
330
6FE
100
AcDbDictionary
280
     1
281
     1
  3
ACAD_XREC_ROUNDTRIP
360
84E
  0
DICTIONARY
  5
84F
330
6FF
100
AcDbDictionary
280
     1
281
     1
  3
ACAD_XREC_ROUNDTRIP
360
850
  0
DICTIONARY
  5
857
330
703
100
AcDbDictionary
280
     1
281
     1
  3
ACAD_XREC_ROUNDTRIP
360
858
  0
DICTIONARY
  5
873
330
711
100
AcDbDictionary
280
     1
281
     1
  3
ACAD_XREC_ROUNDTRIP
360
874
  0
DICTIONARY
  5
863
330
709
100
AcDbDictionary
280
     1
281
     1
  3
ACAD_XREC_ROUNDTRIP
360
864
  0
DICTIONARY
  5
875
330
712
100
AcDbDictionary
280
     1
281
     1
  3
ACAD_XREC_ROUNDTRIP
360
876
  0
DICTIONARY
  5
85B
330
705
100
AcDbDictionary
280
     1
281
     1
  3
ACAD_XREC_ROUNDTRIP
360
85C
  0
DICTIONARY
  5
871
330
710
100
AcDbDictionary
280
     1
281
     1
  3
ACAD_XREC_ROUNDTRIP
360
872
  0
DICTIONARY
  5
86F
330
70F
100
AcDbDictionary
280
     1
281
     1
  3
ACAD_XREC_ROUNDTRIP
360
870
  0
DICTIONARY
  5
869
330
70C
100
AcDbDictionary
280
     1
281
     1
  3
ACAD_XREC_ROUNDTRIP
360
86A
  0
DICTIONARY
  5
86B
330
70D
100
AcDbDictionary
280
     1
281
     1
  3
ACAD_XREC_ROUNDTRIP
360
86C
  0
DICTIONARY
  5
861
330
708
100
AcDbDictionary
280
     1
281
     1
  3
ACAD_XREC_ROUNDTRIP
360
862
  0
DICTIONARY
  5
855
330
702
100
AcDbDictionary
280
     1
281
     1
  3
ACAD_XREC_ROUNDTRIP
360
856
  0
DICTIONARY
  5
86D
330
70E
100
AcDbDictionary
280
     1
281
     1
  3
ACAD_XREC_ROUNDTRIP
360
86E
  0
XRECORD
  5
7C7
102
{ACAD_REACTORS
330
7C6
102
}
330
7C6
100
AcDbXrecord
280
     1
310
280000000001000096000000010008000000000000960000010000000100000000010000000000000000000000000000C8C8C8FF000000FF000000FF000000FF000000FF000000FF000000FF000000FF000000FF330000FF660000FF990000FFCC0000FFFF0000FF003300FF333300FF663300FF993300FFCC3300FFFF3300
310
FF006600FF336600FF666600FF996600FFCC6600FFFF6600FF009900FF339900FF669900FF999900FFCC9900FFFF9900FF00CC00FF33CC00FF66CC00FF99CC00FFCCCC00FFFFCC00FF00FF00FF33FF00FF66FF00FF99FF00FFCCFF00FFFFFF00FF000033FF330033FF660033FF990033FFCC0033FFFF0033FF003333FF3333
310
33FF663333FF993333FFCC3333FFFF3333FF006633FF336633FF666633FF996633FFCC6633FFFF6633FF009933FF339933FF669933FF999933FFCC9933FFFF9933FF00CC33FF33CC33FF66CC33FF99CC33FFCCCC33FFFFCC33FF00FF33FF33FF33FF66FF33FF99FF33FFCCFF33FFFFFF33FF000066FF330066FF660066FF99
310
0066FFCC0066FFFF0066FF003366FF333366FF663366FF993366FFCC3366FFFF3366FF006666FF336666FF666666FF996666FFCC6666FFFF6666FF009966FF339966FF669966FF999966FFCC9966FFFF9966FF00CC66FF33CC66FF66CC66FF99CC66FFCCCC66FFFFCC66FF00FF66FF33FF66FF66FF66FF99FF66FFCCFF66FF
310
FFFF66FF000099FF330099FF660099FF990099FFCC0099FFFF0099FF003399FF333399FF663399FF993399FFCC3399FFFF3399FF006699FF336699FF666699FF996699FFCC6699FFFF6699FF009999FF339999FF669999FF999999FFCC9999FFFF9999FF00CC99FF33CC99FF66CC99FF99CC99FFCCCC99FFFFCC99FF00FF99
310
FF33FF99FF66FF99FF99FF99FFCCFF99FFFFFF99FF0000CCFF3300CCFF6600CCFF9900CCFFCC00CCFFFF00CCFF0033CCFF3333CCFF6633CCFF9933CCFFCC33CCFFFF33CCFF0066CCFF3366CCFF6666CCFF9966CCFFCC66CCFFFF66CCFF0099CCFF3399CCFF6699CCFF9999CCFFCC99CCFFFF99CCFF00CCCCFF33CCCCFF66CC
310
CCFF99CCCCFFCCCCCCFFFFCCCCFF00FFCCFF33FFCCFF66FFCCFF99FFCCFFCCFFCCFFFFFFCCFF0000FFFF3300FFFF6600FFFF9900FFFFCC00FFFFFF00FFFF0033FFFF3333FFFF6633FFFF9933FFFFCC33FFFFFF33FFFF0066FFFF3366FFFF6666FFFF9966FFFFCC66FFFFFF66FFFF0099FFFF3399FFFF6699FFFF9999FFFFCC
310
99FFFFFF99FFFF00CCFFFF33CCFFFF66CCFFFF99CCFFFFCCCCFFFFFFCCFFFF00FFFFFF33FFFFFF66FFFFFF99FFFFFFCCFFFFFFFFFFFFFF000000FF0D0D0DFF1A1A1AFF282828FF353535FF434343FF505050FF5D5D5DFF6B6B6BFF787878FF868686FF939393FFA1A1A1FFAEAEAEFFBBBBBBFFC9C9C9FFD6D6D6FFE4E4E4FF
310
F1F1F1FFFFFFFFFF000000FF000000FF000000FF000000FF000000FF000000FF000000FF000000FF000000FF000000FF00000000000000000000000000000000000000000000000000000000000000000000000000000000000000000000000000000000000000000000000000000000000000000000000000000000000000
310
00000000000000000000000000000000000000000000000000000000000000000000000000000000000000000000000000000000000000000000000000000000000000000000000000000000000000000000000000000000000000000000000000000000000000000000000000000000000000000000000000000000000000
310
000000000000000000000000000000000000000000000000000000000000000000000000000000000000000000000000000000000000000000000000000000000000000000000000DCDCDCDCDCDCDCDCDCDCDCDCDCDCDCDCDCDCDCDCDCDCDCDCDCDCDCDCDCDCDCDCDCDCDCDCDCDCDCDCDCDCDCDCDCDCDCDCDCDCDCDCDCDCDC
310
DCDCDCDCDCDCDCDCDCDCDCDCDCDCDCDCDCDCDCDCDCDCDCDCDCDCDCDCDCDCDCDCDCDCDCDCDCDCDCDCDCDCDCDCDCDCDCDCDCDCDCDCDCDCDCDCDCDCDCDCF5DCDCDCDCDCDCDCDCDCDCDCDCDCDCDCDCDCDCDCDCDCDCDCDCDCDCDCDCDCDCDCDCDCDCDCDCDCDCDCDCDCDCDCDCDCDCDCDCDCDCDCDCDCDCDCDCDCDCDCDCDCDCDCDCDCDC
310
DCDCDCDCDCDCDCDCDCDCDCDCDCDCDCDCDCDCDCDCDCDCDCDCDCDCDCDCDCDC0000000000000000000000000000000000000000000000000000000000000000000000000000000000000000DC00000000000000000000000000000000000000000000000000000000000000000000000000000000000000000000000000000000
310
0000000000000000000000000000000000000000000000000000000000000000000000000000000000000000000000000000000000000000000000000000F500000000000000000000000000000000000000000000000000000000000000000000000000000000000000000000000000000000000000000000000000000000
310
00000000000000000000000000000000000000000000000000000000000000DC0000000000000000000000000000000000000000000000000000000000000000000000000000000000000000DC0000000000000000002828282828282828282828282828282828282828282828282828282828282828282828282828282828
310
28282828282828282828282828282828282828282828282828282828282828282828282828282828282828282828282828282828282828282828282828282828F52828282828282828282828282828282828282828282828282828282828282828282828282828282828282828282828282828282828282828282828282828
310
28282828282828282828282828282828282828282828282828282828282828F5F5DC0000000000000000000000000000000000000000000000000000000000000000000000000000000000000000DC000000000000000000280000000000000000000000000000000000000000000000000000000000000000000000000000
310
00000000000000000000000000000000000000000000000000000000000000000000000000000000000000000000000000000000000000000000000000000000000000000028F5F500BE000000000000000000BE00000000BE0000000028000000000000000000000000000000000000000028DCDCDCDCDCDCDCDCDCDCDCDC
310
DCDCDCDCDCDCDCDCDCDCDCDCDCDCDCDCDCDCDCDCDCDCDCDCDCDCDCDCDCDCDCDC28F5F5DC0000000000000000000000000000000000000000000000000000000000000000000000000000000000000000DC00000000000000000028000000000000000000000000000000000000000000000000000000000000000000000000
310
000000000000000000000000000000000000000000000000000000000000000000000000000000000000000000000000000000000000000000000000000000000000000000000028F5F500BE00F5F5F5F5F5F50000BEF5F5F500BEF5F5F5F52800282828282828280028000028282828282800002800000000000000000000
310
0000000000000000000000000000000000000000000000000000000000000000000028F5F5DC0000000000000000000000000000000000000000000000000000000000000000000000000000000000000000DC0000000000000000002800000000000000000000000000000000000000000000000000000000000000000000
310
0000000000000000000000000000000000000000000000000000000000000000000000000000000000000000000000000000000000000000000000000000000000000000000000000028F5F500BE00F5F5F5F5F5F50000BEF5F5F500BEF5F5F5F5280028280028280028282800002800282800282800280000000000000000
310
00000000000000000000000000000000000000000000000000000000000000000000000028F5F5DC0000000000000000000000000000000000000000000000000000000000000000000000000000000000000000DC000000000000000000280000000000000000000000000000000000000000000000000000000000000000
310
00000000000000000000000000000000000000000000000000000000000000000000000000000000000000000000000000000000000000000000000000000000000000000000000000000028F5F500BE000000000000000000BE00000000BE0000000028002828002800000028282828280028000000280028000000000000
310
000000000000000000000000000000000000000000000000000000000000000000000000000028F5F5DC0000000000000000000000000000000000000000000000000000000000000000000000000000000000000000DC00000000000000000028000000000000000000000000000000000000000000000000000000000000
310
000000000000000000000000000000000000000000000000000000000000000000000000000000000000000000000000000000000000000000000000000000000000000000000000000000000028282828BE282828282828282828BE28282828BE2828282828002828002828002828280000282828280028280028F5F5F5F5
310
F5F5F5F5F5F5F500000000000000000000000000000000000000000000000000000000000000000028F5F5DC0000000000000000000000000000000000000000000000000000000000000000000000000000000000000000DC0000000000000000002800000000000000000000000000000000000000000000000000000000
310
000000000000000000000000000000000000000000000000000000000000000000000000000000000000000000000000000000000000000000000000000000000000000000000000000000000000002800F500BEF5F5F5F5F5F5F5F500F5F5F5F5F5BEF5F5F5F528002828002828282800282828280028282828000028F5F5
310
F5F5F5F5F5F5F5F5F500000000000000000000000000000000000000000000000000000000000000000028F5F5DC0000000000000000000000000000000000000000000000000000000000000000000000000000000000000000DC000000000000000000280000000000000000000000000000000000000000000000000000
310
000000000000000000000000000000000000000000000000000000000000000000000000000000000000000000000000000000000000000000000000000000000000000000000000000000000000000000DCDCF5DCDCF5F5F5F5F5F5F5F5DCF5F5F5F5F5DCF5F5F5F5DC28282828BE2828282828BE28282828282828282828
310
282828282828282828282828282828282828282828282828282828282828282828282828282828282828282828F5F5DC0000000000000000000000000000000000000000000000000000000000000000000000000000000000000000DC00000000000000000028000000000000000000000000000000000000000000000000
310
00000000000000000000000000000000000000000000000000000000000000000000000000000000000000000000000000000000000000000000000000000000000000000000000000000000000000000000002800F500BEF5F5F5F5F5F5F5F500F5F5F5F5F5BEF5F5F5F528F5F5F5F5F5F5F5F5F5F5BE000000F5F5F5F500
310
0028F5F5F5F5F5F5F5F5F5F5F500000000000000000000000000002800000000000000000000000000000000000028F5F5DC0000000000000000000000000000000000000000000000000000000000000000000000000000000000000000DC0000000000000000002800000000000000000000000000000000000000000000
310
000000000000000000000000000000000000000000000000000000000000000000000000000000000000000000000000000000000000000000000000000000000000000000000000000000000000000000000000002800F500BEF5F5F5F5F5F5F5F500F5F5F5F5F5BEF5F5F5F528F5F5F500BEF5F5F5F5F5BE000000F5F5F5
310
F5000028F5F5F5F5F5F5F5F5F5F5F500000000000000000000000000002800000000000000000000000000000000000028F5F5DC0000000000000000000000000000000000000000000000000000000000000000000000000000000000000000DC000000000000000000280000000000000000000000000000000000000000
310
000000000000000000000000000000000000000000000000000000000000000000000000000000000000000000000000000000000000000000000000000000000000000000000000000000000000000000000000000000DCDCDCDCDCDCDCDCDCDCDCDCDCDCDCDCDCDCDCDCDCDCDCDCDCDCDCDCDCDCDCDCDCDCDCDCDCDCDCDC
310
DCDCDCDCDCDCF5F5F5F5DCF5F5F5F5F5F5F5F5F5F5F5F5F5F5F5DCDCDCDC0028F5F5F5F5F5F500F5F5F5F5F500000000000028F5F5DC0000000000000000000000000000000000000000000000000000000000000000000000000000000000000000DC00000000000000000028000000000000000000000000000000000000
310
00000000000000000000000000000000000000000000000000000000000000000000000000000000000000000000000000000000000000000000000000000000000000000000000000000000000000000000000000000000002800F500F5F5F5F5F5F5F5F5F5F5F5F5F5F5F5BEF5F5F5F5F5F5F5F500BE0000000000BE0000
310
0000000000000028F5F5F5F5F5F5F5F5F5F5F5F5F5F5F5F5F5F5F5F5000000000028F5F5F5F5F5F5F5F5F5F5F5F500000000000028F5F5DC0000000000000000000000000000000000000000000000000000000000000000000000000000000000000000DC0000000000000000002800000000000000000000000000000000
310
00000000000000000000000000000000000000000000000000000000000000000000000000000000000000000000000000000000000000000000000000000000000000000000000000000000000000000000000000000000000000DCDCF5DCF5F5F5F5F5F5F5F5F5F5F5F5F5F5F5DCF5F5F5F5DCF5F5F5DCDCDCDCDCDCDCDC
310
DCDCDCDCDCDCDCDCDCDCF5F5F5F5DCF5F5F5F5DCDCF5F5F5F5F5F5F5F5F5DCDCDCDC00BEBEBEBEF5BEF5BEF5BEBEF5BEBEBEBEBEBEBE28F5F5DC0000000000000000000000000000000000000000000000000000000000000000000000000000000000000000DC000000000000000000280000000000000000000000000000
310
00000000000000000000000000000000000000000000000000000000000000000000000000000000000000000000000000000000000000000000000000000000000000000000000000000000000000000000000000000000000000000028000000BE000000000000000000BE00000000BE0000000028F5F5F500BEF5F5F5F5
310
F5BE000000F5F5F500000028F5F5F5F5F5F5F5F5F5F5F5F5F5F5F5F5F5F5F5000000000000280000BEBEBEBEBEBEBEBEBEBEBEBEBEBE000028F5F5DC0000000000000000000000000000000000000000000000000000000000000000000000000000000000000000DC00000000000000000028000000000000000000000000
310
000000000000000000000000000000000000000000000000000000000000000000000000000000000000000000000000000000000000000000000000000000000000000000000000000000000000000000000000000000000000000000000028000000BE000000000000000000BE00000000BE0000000028F5F50000BEF5F5
310
F5F500BE000000F5F5F500000028F5F5F5F5F5F5F5F5F5F5F5F5F5F5F5F5F5F5F5000000000000280000BEBEBEBEBEBEBE00BEBE00BEBEBE000028F5F5DC0000000000000000000000000000000000000000000000000000000000000000000000000000000000000000DC0000000000000000002800000000000000000000
310
00000000000000000000000000000000000000000000000000000000000000000000000000000000000000000000000000000000000000000000000000000000000000000000000000000000000000000000000000000000000000000000000000DCDCDCDCDCDCDCDCDCDCDCDCDCDCDCDCDCDCDCDCDCDCDCDCDCDCDCDCDCDC
310
DCDCF5F5DCDCDCDCDCDCDCDCDCDCDCDCDCF5F5F5F5F5DCF5F5F5F5F5F5F5F5F5F5F5F5F5F5F5F5DC00280000BEBEBEBEBEBEBEBEBEBEBEBEBEBE000028F5F5DC0000000000000000000000000000000000000000000000000000000000000000000000000000000000000000DC000000000000000000280000000000000000
310
00000000000000000000000000000000000000000000000000000000000000000000000000000000000000000000000000000000000000000000000000000000000000000000000000000000000000000000000000000000000000000000000000000028000000BE000000000000000000BE00000000BE0000000028F5F5F5
310
F5BE00F5F5F500BE0000F5F5F5F500000028F5F5F5F5F5F500F5F5F5F5F5F5F5F5F5F5F5F5F5F5F5F5000028F5F5F5F5F500F5F5F500000000000000000028F5F5DC0000000000000000000000000000000000000000000000000000000000000000000000000000000000000000DC00000000000000000028000000000000
310
0000000000000000000000000000000000000000000000000000000000000000000000000000000000000000000000000000000000000000000000000000000000000000000000000000000000000000000000000000000000000000000000000000000000DCDCDCDCDCDCDCDCDCDCDCDCDCDCDCDCDCDCDCDCDCDCDCDCDCF5
310
F5F5F5BE28F5282828BE2828F5F52828282828282828F5F5F5F52828F5F5F5F5F52828F5F5282828282828282828F5F5F5F5F528F5F5F528282828282828282828F5F5DC0000000000000000000000000000000000000000000000000000000000000000000000000000000000000000DC0000000000000000002800000000
310
0000000000000000000000000000000000000000000000000000000000000000000000000000000000000000000000000000000000000000000000000000000000000000000000000000000000000000000000000000000000000000000000000000000000000028000000BE000000000000000000BE00000000BE00000000
310
2800000000000000000000BE00000000000000000028DCDCDCDCDCDCDCDCDCDCDCDCDCDCDCDCDCDCDCDCDCDCDCDC0028DCDCDCDCDCDCDCDCDCDCDCDCDCDCDCDCDCDC28F5F5DC0000000000000000000000000000000000000000000000000000000000000000000000000000000000000000DC000000000000000000280000
310
00000000000000000000000000000000000000000000000000000000000000000000000000000000000000000000000000000000000000000000000000000000000000000000000000000000000000000000000000000000000000000000000000000000000000000028000000BE000000000000000000BE00000000BE0000
310
000028000000BEBEBEBE000000BEF5F5F5F5F5F5F5F5F52800BEBEBEBEBEBEBEBEBEBEBEBEBEBEBE00BEBEBEBEBEBE00002800BEBEBEBEBEBEBEBEBEBEBEBEBE00BE000028F5F5DC0000000000000000000000000000000000000000000000000000000000000000000000000000000000000000DC00000000000000000028
310
0000000000000000000000000000000000000000000000000000000000000000000000000000000000000000000000000000000000000000000000000000000000000000000000000000000000000000000000000000000000000000000000000000000000000000000000DCDCDCDCDCDCDCDCDCDCDCDCDCDCDCDCDCDCDCDC
310
DCDCDCDCDC000000BEBE00BE000000BEF5F5F5F5F5F5F5F5F528BEBEBEBEBEBEBEBEBEBEBEBEBEBEBEBE00BEBEBEBEBEBE0000280000BEBEBEBEBEBEBE00BEBE00BEBEBE000028F5F5DC0000000000000000000000000000000000000000000000000000000000000000000000000000000000000000DC0000000000000000
310
0028000000000000000000000000000000000000000000000000000000000000000000000000000000000000000000000000000000000000000000000000000000000000000000000000000000000000000000000000000000000000000000000000000000000000000000000028000000BE000000000000000000BE000000
310
00BE0000000028000000BEBEBEBE000000BE00000000000000000028BEBE00BE0000BE00BE00BE00BE00BEBE00BEBEBEBEBEBE0000280000BEBEBEBEBEBEBEBEBEBEBEBEBEBE000028F5F5DC0000000000000000000000000000000000000000000000000000000000000000000000000000000000000000DC000000000000
310
000000280000000000000000000000000000000000000000000000000000000000000000000000000000000000000000000000000000000000000000000000000000000000000000000000000000000000000000000000000000000000000000000000000000000000000000000000DCDCDCDCDCDCDCDCDCDCDCDCDCDCDCDC
310
DCDCDCDCDCDCDCDCDC00000000000000000000BE00000000000000000028000000000000000000000000000000000000000000000000002800000000000000000000000000000000000028F5F5DC0000000000000000000000000000000000000000000000000000000000000000000000000000000000000000DC00000000
310
000000000028000000000000000000000000000000000000000000000000000000000000000000000000000000000000000000000000000000000000000000000000000000000000000000000000000000000000000000000000000000000000000000000000000000000000000000000028000000BE000000000000000000
310
BE00000000BE000000002800F5F5F5F5F5F5F50000BE00F5F5F5F5F5F5F50028F5F5F5F5F5F5F5F5F50000000000000000000000000000000028F5F5F5F5F5F5F5F5F5F5F5F500000000000028F5F5DC0000000000000000000000000000000000000000000000000000000000000000000000000000000000000000DC0000
310
0000000000000028000000000000000000000000000000000000000000000000000000000000000000000000000000000000000000000000000000000000000000000000000000000000000000000000000000000000000000000000000000000000000000000000000000000000000000000028000000BE00000000000000
310
0000BE00000000BE000000002800F5F5F5F5F5F5F50000BE00F5F5F5F5F5F5F50028F5F5F5F5F5F5F5F5F50000000000000000000000000000000028F5F5F5F5F5F5F5F5F5F5F5F500000000000028F5F5DC0000000000000000000000000000000000000000000000000000000000000000000000000000000000000000DC
310
00000000000000000028000000000000000000000000000000000000000000000000000000000000000000000000000000000000000000000000000000000000000000000000000000000000000000000000000000000000000000000000000000000000000000000000000000000000000000000028282828BE2828282828
310
28282828BE28282828BE282828282828282828282828282828BE28282828282828282828282828282828282828282828282828282828282828282828282828282828282828282828282828282828282828F5F5DC00000000000000000000000000000000000000000000000000000000000000000000000000000000000000
310
00DC000000000000000000280000000000000000000000000000000000000000000000000000000000000000000000000000000000000000000000000000000000000000000000000000000000000000000000000000000000000000000000000000000000000000000000000000000000000000000000F5F5F5F5F5F5F5F5
310
F500F5F5F5F5F5F5F500F5F5F5F5000000000000000000000000000000000000000000000000000000000000000000000000000000000000000000000000000000000000000000000000000000000000000028F5F5DC0000000000000000000000000000000000000000000000000000000000000000000000000000000000
310
000000DC000000000000000000280000000000000000000000000000000000000000000000000000000000000000000000000000000000000000000000000000000000000000000000000000000000000000000000000000000000000000000000000000000000000000000000000000000000000000000000F5F5F5F5F5F5
310
F5F5F500F5F5F5F5F5F5F500F5F5F5F5000000000000000000000000000000000000000000000000000000000000000000000000000000000000000000000000000000000000000000000000000000000000000028F5F5DC000000000000000000000000000000000000000000000000000000000000000000000000000000
310
0000000000DC00000000000000000028000000000000000000000000000000000000000000000000000000000000000000000000000000000000000000000000000000000000000000000000000000000000000000000000000000000000000000000000000000000000000000000000000000000000000000000000000000
310
000000000000000000000000000000000000000000000000000000000000000000000000000000000000000000000000000000000000000000000000000000000000000000000000000000000000000000000000000028F5F5DC00000000000000000000000000000000000000000000000000000000000000000000000000
310
00000000000000DC0000000000000000002800000000000000000000000000000000000000000000000000000000000000000000000000000000000000000000000000000000000000000000000000000000000000000000000000000000000000000000000000000000000000000000000000000000000000000000000000
310
0000000000000000000000000000000000000000000000000000000000000000000000000000000000000000000000000000000000000000000000000000000000000000000000000000000000000000000000000000000028F5F5DC0000000000000000000000000000000000000000000000000000000000000000000000
310
000000000000000000DC000000000000000000280000000000000000000000000000000000000000000000000000000000000000000000000000000000000000000000000000000000000000000000000000000000000000000000000000000000000000000000000000000000000000000000000000000000000000000000
310
00000000000000000000000000000000000000000000000000000000000000000000000000000000000000000000000000000000000000000000000000000000000000000000000000000000000000000000000000000000000028F5F5DC000000000000000000000000000000000000000000000000000000000000000000
310
0000000000000000000000DC00000000000000000028000000000000000000000000000000000000000000000000000000000000000000000000000000000000000000000000000000000000000000000000000000000000000000000000000000000000000000000000000000000000000000000000000000000000000000
310
000000000000000000000000000000000000000000000000000000000000000000000000000000000000000000000000000000000000000000000000000000000000000000000000000000000000000000000000000000000000000028F5F5DC00000000000000000000000000000000000000000000000000000000000000
310
00000000000000000000000000DC0000000000000000002800000000000000000000000000000000000000000000000000000000000000000000000000000000000000000000000000000000000000000000000000000000000000000000000000000000000000000000000000000000000000000000000000000000000000
310
0000000000000000000000000000000000000000000000000000000000000000000000000000000000000000000000000000000000000000000000000000000000000000000000000000000000000000000000000000000000000000000028F5F5DC0000000000000000000000000000000000000000000000000000000000
310
000000000000000000000000000000DC000000000000000000280000000000000000000000000000000000000000000000000000000000000000000000000000000000000000000000000000000000000000000000000000000000000000000000000000000000000000000000000000000000F5F5F5F5F5F5F5F5F5F5F5F5
310
F5F5F5F5F5F5F5F5F5F5F5F5F5F5F5F5F5F5F5F5F5F5F5F5F5F5F5F5F5F5F5F5F5F5F5F5F5F5F5F5F5F5F5F5F5F5F5F5F5F5F5F5F5F5F5F5F5F5F5F500000000BEBEBEBE00BE00BEBEBEBEBEBE00BEBEBEBEBEBEBEBEBEBEBEBE00000000000028F5F5DC000000000000000000000000000000000000000000000000000000
310
0000000000000000000000000000000000DC000000000000000000280000000000000000000000000000000000000000000000000000000000000000000000000000000000000000000000000000000000000000000000000000000000000000000000000000000000000000000000000000000000F5F5F500000000000000
310
000000000000000000000000000000000000000000000000BEBEBEBE00000000000000000000000000000000000000000000000000000000000000F5F5F500000000BEBEBEBEBEBEBEBEBEBEBEBE0000BEBEBEBEBE00BEBEBEBEBEBE00000000000028F5F5DC00000000000000000000000000000000000000000000000000
310
00000000000000000000000000000000000000DC000000000000000000280000000000000000000000000000000000000000000000000000000000000000000000000000000000000000000000000000000000000000000000000000000000000000000000000000000000000000000000000000000000F500000000000000
310
0000000000000000000000000000000000000000000000000000BEBEBEBE000000000000000000000000000000000000000000000000000000000000000000F500000000BEBEBEBE0000BE00BEBEBE000000BEBEBEBEBEBEBEBEBEBEBEBE00000000000028F5F5DC0000000000000000000000000000000000000000000000
310
000000000000000000000000000000000000000000DC000000000000000000280000000000000000000000000000000000000000000000000000000000000000000000000000000000000000000000000000000000000000000000000000000000000000000000000000000000000000000000000000000000F50000000000
310
00000000000000000000000000000000000000000000000000000000BEBEBEBE000000000000000000000000000000000000000000000000000000000000000000F5000000DCDCDCDCDCDCDCDCDCDCDCDCDCDCDCDCDCDCDCDCDCDCDCDCDCDCDCDCDC0000000028F5F5DC000000000000000000000000000000000000000000
310
0000000000000000000000000000000000000000000000DC00000000000000000028000000000000000000000000000000000000000000000000000000000000000000000000000000000000000000000000000000000000000000000000000000000000F500000000000000000000000000000000000000000000F5000000
310
00000000000000000000000000000000000000000000000000000000000000000000000000F50000000000000000000000000000000000000000000000000000000000F50000DC00BEBEBEBEBEBEBEBEBE00BEBEBEBEBEBEBE00000000000000000000000000000028F5F5DC00000000000000000000000000000000000000
310
00000000000000000000000000000000000000000000000000DC00000000000000000028000000000000000000000000000000000000000000000000000000000000000000000000000000000000000000000000000000000000000000000000000000000000F5F5F5F5F5F5F5F5F5F5F5F5F5F5F5F5F5F5F5F5F5F5F5F5F5
310
F5F5F5F5F5BEBEBEBEBEF5F5F5F5F5F5F5F5F5F5F5F5F5F5F5F5F5F5F5F5F5F5F5F5F5F5F5F5F5F50000000000000000000000000000000000000000000000000000000000F500DC0000BEBEBEBEBEBEBEBEBE00BEBEBEBEBEBEBE00000000000000000000000000000028F5F5DC0000000000000000000000000000000000
310
000000000000000000000000000000000000000000000000000000DC0000000000000000002800000000000000000000000000000000000000000000000000000000000000BEBEBE00BE00BEBEBEBEBEBEBEBE00BEBEBEBEBEBEBEBEBEBEBEBE0000000000000000F500000000000000000000000000000000000000000000
310
F500000000000000BEBEBEBE0000000000000000000000000000000000000000000000000000000000F50000000000000000000000000000000000000000000000000000000000F500DC0000000000000000000000000000000000000000000000000000000000000000000028F5F5DC000000000000000000000000000000
310
0000000000000000000000000000000000000000000000000000000000DC0000000000000000002800000000000000000000000000000000000000000000000000000000000000BEBEBEBEBEBEBEBEBEBEBEBEBEBE00BEBEBEBEBEBEBEBEBEBEBEBE0000000000000000F50000000000000000000000000000000000000000
310
0000F5000000000000BEBEBEBEBE0000000000000000000000000000000000000000000000000000000000F50000000000000000000000000000000000000000000000000000000000F5DC000000000000000000000000000000000000000000000000000000000000000000000028F5F5DC00000000000000000000000000
310
00000000000000000000000000000000000000000000000000000000000000DC0000000000000000002800000000000000000000000000000000000000000000000000000000000000BEBEBEBEBE0000BEBEBEBEBEBE00BEBEBEBEBEBEBE00BEBEBEBEBE0000000000000000F5000000000000000000000000000000000000
310
00000000F500000000000000000000000000000000000000000000000000000000000000000000000000000000F50000000000000000000000000000000000000000000000000000000000DC00000000000000000000000000000000000000000000000000000000000000000000000028F5F5DC0000000000000000000000
310
000000000000000000000000000000000000000000000000000000000000000000DC0000000000000000002800000000000000000000000000000000000000000000000000000000000000DCDCDCDCDCDCDCDCDCDCDCDCDCDCDCDCDCBEDCDCDCDCDCDCDCDCDCDCDCDC0000000000F500000000000000000000000000000000
310
000000000000F500000000000000000000000000000000000000000000000000000000000000000000000000000000F500000000000000000000000000000000000000000000000000000000DCF500000000000000000000000000000000000000000000000000000000000000000000000028F5F5DC000000000000000000
310
0000000000000000000000000000000000000000000000000000000000000000000000DC000000000000000000280000000000000000000000000000000000000000000000000000000000000000BEBEBEBEBEBEBEBEBEBEBEBEBEBEBEBEBE00BEBEBEBEBEBEBE00000000DC00000000282828282828282828282828282828
310
2828282828282828F52828282828282828282828282828282828282828282828282828282828282828282828282828282828F5F5F5F5F5F5F5F5F5F5F5F5F5F5F5F5F5F5F5F5F5F5F5F5F5F5F5DCF5F5F5F5F5F5F5F5F5F5F5F5F5F5F5F5F5F5F5F5F5000000000000000000000000000000000028F5F5DC00000000000000
310
00000000000000000000000000000000000000000000000000000000000000000000000000DC000000000000000000280000000000000000000000000000000000000000000000000000000000000000BEBEBEBEBEBEBEBEBEBEBEBEBEBEBEBEBE00BEBEBEBEBEBEBE0000000000DCDC000028F5F500F5F50000F5F50000F5
310
F500F5F5F500F5F50000F5F50000F5F500F5F5F500F5F50000F5F50000F5F500F5F5F500F5F50000F5F50000F5F500F5F5F500280000000000000000000000000000000000000000000000000000DC0000F50000000000000000000000000000000000F5F5000000000000000000000000000000000028F5F5DC0000000000
310
000000000000000000000000000000000000000000000000000000000000000000000000000000DC0000000000000000002800000000000000000000000000000000000000000000000000000000000000BEBEBEBE00000000BEBEBE0000000000000000BEBEBEBEBEBEBE00000000000000DC002800F5F50000F5F50000F5
310
F500F5F5F500F5F50000F5F5F500F5F500F5F5F500F5F5F500F5F50000F5F50000F5F500F5F5F500F5F50000F5F50000F5F500F5F5280000000000000000000000000000000000000000000000000000DC0000F50000000000000000000000000000000000F500000000000000000000000000000000000028F5F5DC000000
310
0000000000000000000000000000000000000000000000000000000000000000000000000000000000DC000000000000000000280000000000000000000000000000000000000000000000000000000000000000000000000000000000000000000000000000000000000000000000000000000000DC28F5F500F5F50000F5
310
F50000F5F500F5F5F500F5F50000F5F50000F5F500F5F5F500F5F50000F5F50000F5F500F5F5F500F5F50000F5F50000F5F500F5F5F500F528000000000000000000000000000000000000000000000000DC000000F50000000000000000000000000000000000F500000000000000000000000000000000000028F5F5DC00
310
00000000000000000000000000000000000000000000000000000000000000000000000000000000000000DC00000000000000000028000000000000000000000000000000000000000000000000000000000000000000000000000000000000000000000000000000000000000000000000000000000000DCDCF5F50000F5
310
F50000F5F500F5F5F500F5F50000F5F5F500F5F500F5F5F500F5F5F500F5F50000F5F50000F5F500F5F5F500F5F50000F5F50000F5F500F5F5F52800000000000000000000000000000028F5F5F5F5F5F5F5DCF5F5F5F5F5F5F5F5F5F5000000000000000000000000F500000000000000000000000000000000000028F5F5
310
DC0000000000000000000000000000000000000000000000000000000000000000000000000000000000000000DC00000000000000000028000000000000000000000000000000000000000000000000000000000000000000000000000000000000000000000000000000000000000000000000000000000028F5F5DC00F5
310
F50000F5F50000F5F500F5F5F500F5F50000F5F50000F5F500F5F5F500F5F50000F5F50000F5F500F5F5F500F5F5F500F5F50028282828282828F5F5F5F5F5F5F5F5F5F5F5F5F5F5F5F5F5F5F5F5F5F5F5F5F5F5F5F5F5F5F5F5000000F5F5000000000000000000000000F500000000000000000000000000000000000028
310
F5F5DC0000000000000000000000000000000000000000000000000000000000000000000000000000000000000000DC00000000000000000028000000000000000000000000000000000000000000000000000000000000000000000000000000000000000000000000000000000000000000000000000000000028F500F5
310
F50000F5F50000F5F500F5F5F500F5F50000F5F5F500F5F500F5F5F500F5F5F5002828282828282828F5F5F5F5F5F5F5F5F5F5F5F5F5F5F5F5F5F5F5F5F5F5F5F5F5F5F5F5F5282828282828282800000000000000000000DC0028F500000000F5000000000000000000000000F50000000000000000000000000000000000
310
0028F5F5DC0000000000000000000000000000000000000000000000000000000000000000000000000000000000000000DC00000000000000000028000000000000000000000000000000000000000000000000000000000000000000000000000000000000000000000000000000000000000000000000000000000028F5
310
F5F500F5F50000F5F50000F5F500F528282828282828F528F5F5F5F5F5F5F5F5F5F5F5F5F5F5F5F5F5F5F5F5F5F5F5F5F5F5F5F5F528282828282800000000000000000000000000000000000000000000000000000000000000DC0028F500000000F5000000000000000000000000F5000000000000000000000000000000
310
00000028F5F5DC0000000000000000000000000000000000000000000000000000000000000000000000000000000000000000DC000000000000000000280000000000000000000000000000000000000000000000000000000000000000000000000000000000000000000000000000000000000000000000000000000000
310
28F500F5F50028F5F5F5F5F5F5F5F5F5F5F5F5F5F5F5F5F5F5F5F5F5F5F5F5F5F5F5F5282828282800000000000000000000000000000000000000000000000000000000000000000000000000000000000000000000000000000000DC0028F500000000F5000000000000000000000000F500000000000000000000000000
310
000000000028F5F5DC0000000000000000000000000000000000000000000000000000000000000000000000000000000000000000DC00000000000000000028000000000000000000000000000000000000000000000000000000000000000000000000000000000000000000000000000000000000000000000000000000
310
000028F500F500F528F5F5F5F5F5F5F5F5F52828280000000000F500000000000000000000000000000000000000000000000000000000000000000000000000000000000000000000000000000000000000000000000000000000000000DC0028F500000000F5000000000000000000000000F50000000000000000000000
310
0000000000000028F5F5DC0000000000000000000000000000000000000000000000000000000000000000000000000000000000000000DC0000000000000000002800000000000000000000000000000000000000000000000000000000000000000000000000000000000000000000000000000000000000000000000000
310
0000000028F5F5F500F528F528280000000000000000000000000000F500000000000000000000000000000000000000000000000000000000000000000000000000000000000000000000000000000000000000000000000000000000000000DC0028F500000000F5000000000000000000000000F5000000000000000000
310
00000000000000000028F5F5DC0000000000000000000000000000000000000000000000000000000000000000000000000000000000000000DC000000000000000000280000000000000000000000000000000000000000000000000000000000000000000000000000000000000000000000000000000000000000000000
310
00000000000028F500F5F500282828002800000000000000000000000000F500000000000000000000000000000000000000000000000000000000000000000000000000000000000000000000000000000000000000000000000000000000000000DC0028F500000000F5000000000000000000000000F500000000000000
310
000000000000000000000028F5F5DC0000000000000000000000000000000000000000000000000000000000000000000000000000000000000000DC00000000000000000028000000000000000000000000000000000000000000000000000000000000000000000000000000000000000000000000000000000000000000
310
000000000000000028F5F5F500F5282828000028000000000000000000000000F500000000000000000000000000000000000000000000000000000000000000000000000000000000000000000000000000000000000000000000000000000000000000DC0028F500000000F5000000000000000000000000F50000000000
310
0000000000000000000000000028F5F5DC0000000000000000000000000000000000000000000000000000000000000000000000000000000000000000DC0000000000000000002800000000000000000000000000000000000000000000000000000000000000000000000000000000000000000000000000000000000000
310
0000000000000000000028F500F5F500282828000000280000000000000000000000F50000000000000000000000000000000000000000000000000000000000000000000000000000000000000000000000000000000000000000000000000000000000000000DC002800000000F5000000000000000000000000F5000000
310
00000000000000000000000000000028F5F5DC0000000000000000000000000000000000000000000000000000000000000000000000000000000000000000DC000000000000000000280000000000000000000000000000000000000000000000000000000000000000000000000000000000000000000000000000000000
310
00000000000000000000000028F5F5F500F5282828000000002800000000000000000000F50000000000000000000000000000000000000000000000000000000000000000000000000000000000000000000000000000000000000000000000000000000000000000DC002800000000F5000000000000000000000000F500
310
000000000000000000000000000000000028F5F5DC0000000000000000000000000000000000000000000000000000000000000000000000000000000000000000DC00000000000000000028000000000000000000000000BEBE00BE00BEBEBEBEBEBEBEBE00BEBEBEBEBEBEBEBEBEBEBEBEBEF5F500000000000000000000
310
0000000000000000000000000028F5F500F5F500282828000000000028000000000000000000F50000000000000000000000000000000000000000000000000000000000000000000000000000000000000000000000000000000000000000000000000000000000000000DC002800000000F5000000000000000000000000
310
F500000000000000000000000000000000000028F5F5DC0000000000000000000000000000000000000000000000000000000000000000000000000000000000000000DC00000000000000000028000000000000000000000000BEBEBEBEBEBEBEBEBEBEBEBEBE00BEBEBEBEBEBEBEBEBEBEBE00F5F5F50000000000000000
310
0000000000000000000000000000002800F5F5F500F5282828000000000000280000000000000000F50000000000000000000000000000000000000000000000000000000000000000000000000000000000000000000000000000000000000000000000000000000000000000DC002800000000F500000000000000000000
310
0000F500000000000000000000000000000000000028F5F5DC0000000000000000000000000000000000000000000000000000000000000000000000000000000000000000DC00000000000000000028000000000000000000000000BEBEBEBE0000BEBEBEBEBEBE00BEBEBEBEBEBEBE00BEBEBEBEBEF5F5F5000000000000
310
000000000000000000000000000000000028F5F500F5F500282828000000000000002800000000000000F500000000000000000000000000000000000000F5000000000000000000000000000000000000000000000000000000000000000000000000000000000000000000000000DC002800000000F50000000000000000
310
00000000F500000000000000000000000000000000000028F5F5DC0000000000000000000000000000000000000000000000000000000000000000000000000000000000000000DC000000000000000000280000000000000000000000DCBEBEBEBEBEBEBEBEBEBEBEBEBEBEBEBEDCBEBEBEDCBEBEBEBEBEBEBEBEBEBEBEBE
310
BEBEBEDCDC00000000000000000000000000002800F5F5F500F5282828000000000000000028000000000000F50000000000000000000000000000000000BEBEBE000000000000000000000000000000000000000000000000000000000000000000000000000000000000000000000000DC00280000BEBEBE000000000000
310
000000000000F500000000000000000000000000000000000028F5F5DC0000000000000000000000000000000000000000000000000000000000000000000000000000000000000000DC00000000000000000028000000000000000000000000BEBEBEBEBEBEBEBEBEBEBEBEBEBEBEBEBEBEBEBE00BEBEBE00BEBEBEBEBEBE
310
BEBEBEBEBE0000DCDCDCDC0000000000000000000028F5F500F5F500282828000000000000000000280000000000F50000000000000000000000000000000000BEBEBEF50000000000000000000000000000000000000000000000000000000000000000000000000000000000000000000000DC00280000BEBEBE00000000
310
0000000000000000F500000000000000000000000000000000000028F5F5DC0000000000000000000000000000000000000000000000000000000000000000000000000000000000000000DC00000000000000000028000000000000000000000000BEBEBEBEBEBEBEBEBEBEBEBEBEBEBEBEBEBEBEBE00BEBEBEBEBEBEBEBE
310
BEBEBEBEBEBEBE000000000000DCDCDC000000000000002800F5F5F500F5282828000000000000000000002800000000F50000000000000000000000000000000000BEBE00F50000000000000000000000000000000000000000000000000000000000000000000000000000000000000000000000DC0028DC00BEBEBE00F5
310
F5F5F5F5F5F500000000F500000000000000000000000000000000000028F5F5DC0000000000000000000000000000000000000000000000000000000000000000000000000000000000000000DC00000000000000000028000000000000000000000000000000000000000000000000000000000000000000000000000000
310
000000000000000000000000000000000000DCDCDC0000000028F5F500F5F500282828000000000000000000000028000000F50000000000000000000000000000000000000000F5000000000000000000000000000000000000000000000000000000000000DC00DCDCDCDC00DCDCDCDCF5DCDCDCDC00DCDC280000BEBEBE
310
F50000000000F5F500000000F500000000000000000000000000000000000028F5F5DC0000000000000000000000000000000000000000000000000000000000000000000000000000000000000000DC0000000000000000002800000000000000000000000000000000000000000000000000000000000000000000000000
310
0000000000000000000000000000000000000000000000DCDCDCDC2800F5F5F500F5282828000000000000000000000000280000F50000000000000000000000000000000000000000F500000000000000000000DC00DCDCDCDC00DCDCDCDC00DCDCDCDC00DCDCDC0000000000000000000000000000000000DC00280000BE
310
BEBEF50000000000F5F500000000F500000000000000000000000000000000000028F5F5DC0000000000000000000000000000000000000000000000000000000000000000000000000000000000000000DC000000000000000000280000000000000000000000000000000000000000000000000000000000000000000000
310
0000000000000000000000000000000000000000000000000000000000DCDCDC00F52828282828000000000000000000000000002800F500000000000000000000000000DCDCDCDC00DCDCDCDC00DCDCDCDC00DCDCDC0000000000000000BEBEBEBEBEBEBEBE000000000000000000000000000000000000000000DC002800
310
00BEBEBEF50000000000F50000000000F500000000000000000000000000000000000028F5F5DC0000000000000000000000000000000000000000000000000000000000000000000000000000000000000000DC00000000000000000028000000000000000000000000000000000000000000000000000000000000000000
310
0000000000000000000000000000000000000000000000000000000000000028F5F5DCDC28DC282828000000000000000000000000000028F5DCDCF5DCDCDCDCF5DCDCDCDCF5F5F5F5F5F5F5F5F5F5000000000000000000000000000000000000BEBEBEBEBEBEBE000000000000000000000000000000000000000000DC00
310
280000000000F50000000000F5000000BEBEBE00000000000000000000000000000000000028F5F5DC0000000000000000000000000000000000000000000000000000000000000000000000000000000000000000DC0000000000000000002800000000000000000000000000000000000000000000000000000000000000
310
000000000000000000000000000000000000000000000000000000000000000028F500F5F5F5280028F528000000000000000000000000000000DC2800000000000000000000000000000000000000F500000000000000000000000000000000000000BEBEBE00000000000000000000000000000000000000000000000000
310
DC00280000000000F50000000000F5000000BEBEBE00000000000000000000000000000000000028F5F5DC0000000000000000000000000000000000000000000000000000000000000000000000000000000000000000DC000000000000000000280000000000000000000000000000000000000000000000000000000000
310
0000000000000000000000000000000000000000000000000000000000000000000028F5F5F500F52800282828000000000000000000000000000000DC0028000000000000000000000000000000000000F5000000000000000000000000000000000000000000000000000000000000000000000000000000000000000000
310
0000DC00280000000000F50000000000F5000000BEBEBE00000000000000000000000000000000000028F5F5DC0000000000000000000000000000000000000000000000000000000000000000000000000000000000000000DC00000000000000000028000000000000000000000000000000000000000000000000000000
310
00000000000000000000000000000000000000000000000000000000000000000000000028F500F5F5F52800282828000000000000000000000000000000DC0000280000000000000000000000000000000000F500000000000000000000000000000000000000000000000000000000000000000000000000000000000000
310
00000000DC00280000000000F50000000000F5000000BEBEBE00000000000000000000000000000000000028F5F5DC0000000000000000000000000000000000000000000000000000000000000000000000000000000000000000DCDCDCDCDCDCDCDCDCDCDC00000000000000000000000000000000000000000000000000
310
000000000000000000000000000000000000000000000000000000000000000000000000000028F5F5F500F52828282828000000000000000000000000000000DC0000002800000000000000000000000000000000F50000000000000000000000000000000000000000000000000000000000000000000000000000000000
310
000000000000DC00280000000000F50000000000F50000000000F500000000000000000000000000000000000028F5F5DC0000000000000000000000000000000000000000000000000000000000000000000000000000000000000000DC000000000000000000280000000000000000000000000000000000000000000000
310
0000000000000000000000000000000000000000000000000000000000000000000000000000000028F500F5F5F500F5282828000000000000000000000000000000DC000000002800000000000000000000000000000000000000000000000000000000000000000000000000000000000000000000000000000000000000
310
000000000000000000DC002800000000F50000000000F50000000000F500000000000000000000000000000000000028F5F5DC0000000000000000000000000000000000000000000000000000000000000000000000000000000000000000DC00000000000000000028000000000000000000000000000000000000000000
310
00000000000000000000000000000000000000000000000000000000000000000000000000000000000028F5F5F500F5F500282828000000000000000000000000000000DC00000000002800000000000000000000000000000000000000000000000000000000000000000000000000000000000000000000000000000000
310
0000000000000000000000DC002800000000F50000000000F50000000000F500000000000000000000000000000000000028F5F5DC0000000000000000000000000000000000000000000000000000000000000000000000000000000000000000DC0000000000000000002800000000000000000000000000000000000000
310
000000000000000000000000000000000000000000000000000000000000000000000000000000000000000028F500F5F5F500F5282828000000000000000000000000000000DC0000000000002800000000000000000000000000000000000000000000000000000000000000000000000000000000000000000000000000
310
00000000000000000000000000DC002800000000F50000000000F50000000000F500000000000000000000000000000000000028F5F5DC0000000000000000000000000000000000000000000000000000000000000000000000000000000000000000DC000000000000000000280000000000000000000000000000000000
310
0000000000000000000000000000000000000000000000000000000000000000000000000000000000000000000028F5F5F500F5F500282828000000000000000000000000000000DC000000000000002800000000000000000000000000000000000000000000000000000000000000000000000000000000000000000000
310
000000000000000000000000000000DC002800000000F50000000000F50000000000F500000000000000000000000000000000000028F5F5DC0000000000000000000000000000000000000000000000000000000000000000000000000000000000000000DC00000000000000000028000000000000000000000000000000
310
00000000000000000000000000000000000000000000000000000000000000000000000000000000000000000000000028F500F5F5F500F5282828000000000000000000000000000000DC00000000000000002800000000000000000000000000000000000000000000000000000000000000000000000000000000000000
310
0000000000000000000000000000000000DC002800000000F50000000000F50000000000F500000000000000000000000000000000000028F5F5DC0000000000000000000000000000000000000000000000000000000000000000000000000000000000000000DC0000000000000000002800000000000000000000000000
310
000000000000000000000000000000000000000000000000000000000000000000000000000000000000000000000000000028F5F5F500F5F500282828000000000000000000000000000000DC0000000000000000002800000000000000000000000000000000000000000000000000000000000000000000000000000000
310
00000000000000000000000000000000000000DC002800000000F5000000BEBEBE0000000000F500000000000000000000000000000000000028F5F5DC0000000000000000000000000000000000000000000000000000000000000000000000000000000000000000DC000000000000000000280000000000000000000000
310
00000000000000000000000000000000000000000000000000000000000000000000000000000000000000000000000000000028F5F500F5F5F500F5282828000000000000000000000000000000DC000000000000000000002800000000000000000000000000000000000000000000000000000000000000000000000000
310
000000000000000000000000000000000000000000DC002800000000F5F50000BE00BE0000000000F500000000000000000000000000000000000028F5F5DC0000000000000000000000000000000000000000000000000000000000000000000000000000000000000000DC00000000000000000028000000000000000000
310
00000000000000000000000000000000000000000000000000000000000000000000000000000000000000000000000000000000002800F5F5F500F5F500282828000000000000000000000000000000DC00000000000000000000002800000000000000000000000000000000000000000000000000000000000000000000
310
0000000000000000000000000000000000000000000000DCF5F500000000F5F50000BEBEBE0000000000F500000000000000000000000000000000000028F5F5DC0000000000000000000000000000000000000000000000000000000000000000000000000000000000000000DC0000000000000000002800000000000000
310
000000000000000000000000000000000000000000000000000000000000000000000000000000000000000000000000000000000000002800F500F500F500F5282828000000000000000000000000000000DC0000000000000000000000002800000000000000000000000000000000000000000000000000000000000000
310
0000000000000000F5F5F5F5F5F5F5F5F5F5F5F5F5F5F5F5F5F5F5F5F5F5F5F5F5F50000BEBEBE0000000000F500000000000000000000000000000000000028F5F5DC0000000000000000000000000000000000000000000000000000000000000000000000000000000000000000DC000000000000000000280000000000
310
00000000000000000000000000000000000000000000000000000000000000000000000000000000000000000000000000000000000000000028F5F500F5F5F500F5282828000000000000000000000000000000DC000000000000000000000000002800000000000000000000000000000028282828F5F5F5F5F5F5F5F5F5
310
F5F5F5F5F5F5F5F5F5F5F5F5F5F5F5F5F5F5F5F50000000000000000000000000000000000000000F50000000000F500000000000000000000000000000000000028F5F5DC0000000000000000000000000000000000000000000000000000000000000000000000000000000000000000DC00000000000000000028000000
310
00000000000000000000000000000000000000000000000000000000000000000000000000000000000000000000000000000000000000000000002800F5F5F500F5F500282828000000000000000000000000000000DC000000000000000000000000000028F5F5F5F5F5F5F5F5F5F5F5F5F5F5F5F5F5F5F5F5F5F5F5F5F5
310
F5F5F5000000000000000000000000000000000000000000000000000000000000000000000000000000F50000000000F500000000000000000000000000000000000028F5F5DC0000000000000000000000000000000000000000000000000000000000000000000000000000000000000000DC0000000000000000002800
310
0000000000000000000000000000000000000000000000000000000000000000000000000000000000000000000000000000000000000000000000000028F5F500F5F5F500F5282828000000000000000000000000000000DC00000000000000000000000000000028F5F5F5F5F5F5F5282800000000000028282828282828
310
2828282828000000000000000000000000000000000000000000000000000000000000000000000000000000F50000000000F500000000000000000000000000000000000028F5F5DC0000000000000000000000000000000000000000000000000000000000000000000000000000000000000000DC000000000000000000
310
2800000000000000000000000000000000000000000000000000000000000000000000000000000000000000000000000000000000000000000000000000002800F5F5F500F5F500282828DCDCDCDCDCDCDCDCDCDCDCDCDCDCDCDCDCDCDCDCDCDCDCDCDCDCDCDCDCDCDC28F50028282828282828282828282828F5F50000F5
310
F500F5F5F50028000000000000000000000000000000000000000000000000000000000000000000000000000000F50000000000F500000000000000000000000000000000000028F5F5DC0000000000000000000000000000000000000000000000000000000000000000000000000000000000000000DC00000000000000
310
000028000000000000000000000000000000000000000000000000000000000000000000000000000000000000000000000000000000000000000000000000000028F5F500F5F5F50028282800000000000000000000000000000000DC00000000000000000000000000000000282828F500F5F5F500F5F50000F5F50000F5
310
F500F5F5F500F5F528000000000000000000000000000000000000000000000000000000000000000000000000000000F50000000000F500000000000000000000000000000000000028F5F5DC0000000000000000000000000000000000000000000000000000000000000000000000000000000000000000DC0000000000
310
000000002800000000000000000000000000000000000000000000000000000000000000000000000000000000000000000000000000000000000000000000000000002800F5F5F500F5F528280000000000000000000000000000000000DC0000000000000000000000000000000028282800F5F500F5F5F500F5F50000F5
310
F50000F5F500F5F5F50028F50000000000000000000000000000000000000000000000000000000000000000000000000000F50000000000F500000000000000000000000000000000000028F5F5DC0000000000000000000000000000000000000000000000000000000000000000000000000000000000000000DC000000
310
00000000000028000000000000000000000000000000000000000000000000000000000000000000000000000000000000000000000000000000000000000000000000000028F5F500F5F5F52828280000000000000000000000000000000000DC00000000000000000000000000000000002828F500F5F5F500F5F50000F5
310
F50000F5F500F5F5F500F5F500280000000000000000000000000000000000000000000000000000000000000000000000000000F50000000000F500000000000000000000000000000000000028F5F5DC0000000000000000000000000000000000000000000000000000000000000000000000000000000000000000DC00
310
0000000000000000280000000000000000000000000000000000000000000000000000000000000000000000000000000000000000000000000000000000000000000000000028F500F5F5F500F52828000000000000000000000000000000000000DC0000000000000000000000000000000000282800F5F500F5F5F500F5
310
F50000F5F50000F5F500F5F5F500F5280000000000000000000000000000000000000000000000000000000000000000000000000000F50000000000F500000000000000000000000000000000000028F5F5DC0000000000000000000000000000000000000000000000000000000000000000000000000000000000000000
310
DC00000000000000000028000000000000000000000000000000000000000000000000000000000000000000000000000000000000000000000000000000000000000000000000002800F5F500F5F5F52828000000000000000000000000000000000000DC00000000000000000000000000000000002828F500F5F5F500F5
310
F50000F5F50000F5F500F5F5F500F5F500280000000000000000000000000000000000000000000000000000000000000000000000000000F50000000000F500000000000000000000000000000000000028F5F5DC000000000000000000000000000000000000000000000000000000000000000000000000000000000000
310
0000DC000000000000000000280000000000000000000000000000000000000000000000000000000000000000000000000000000000000000000000000000000000000000000000000028F500F5F5F500F52828000000000000000000000000000000000000DC0000000000000000000000000000000000282828F5F500F5
310
F5F500F5F50000F5F50000F5F500F5F5F500F5280000000000000000000000000000000000000000000000000000000000000000000000000000F50000000000F500000000000000000000000000000000000028F500DC00000000000000000000000000000000000000000000000000000000000000000000000000000000
310
00000000DC00000000000000000028000000000000000000000000000000000000000000000000000000000000000000000000000000000000000000000000000000000000000000000000002800F5F500F5F5282828000000000000000000000000000000000000DC000000000000000000000000000000000028282828F5
310
F5F500F5F50000F5F50000F5F500F5F5F500F5F500280000000000000000000000000000000000000000000000000000000000000000000000000000F50000000000F500000000000000000000000000000000000028F5F5DC0000000000000000000000000000000000000000000000000000000000000000000000000000
310
000000000000DC000000000000000000280000000000000000000000000000000000000000000000000000000000000000000000000000000000000000000000000000000000000000000000000028F500F5F5F528282828000000000000000000000000000000000000DC0000000000000000000000000000000000282828
310
28F500F5F5F500F5F50000F5F50000F5F5282828282828280000000000000000000000000000000000000000000000000000000000000000000000000000F5F500000000F5F5000000000000000000000000000000000028F5F5DC000000000000000000000000000000000000000000000000000000000000000000000000
310
0000000000000000DC000000000000000000280000000000000000000000000000000000000000000000000000000000000000000000000000000000000000000000282828282828282828282828282828282828282828280028280000000000000000000000000000000000DC000000000000000000000000000000000028
310
28002828282828282828282828282828282828282828280000000000000000000000000000000000000000000000000000000000000000000000000000000000F5F500000000F5F5000000000000000000000000000000000028F5F5DC00000000000000000000000000000000000000000000000000000000000000000000
310
00000000000000000000DC000000000000000000280000000000000000000000000000000000000000000000000000000000000000000000000000000000000000000000F5F5F5F5F5F5F5F5F528DCDCF5F5F5F5F5F5F52828282828280000000000000000000000000000000000DC00000000000000000000000000000000
310
00282828282828F5F5F5F5F5F5F5F5F5F5F5F5F5F5F5F5F5F5F5F5F5F5F5F5F5F5F5F5F5F5F5F5F5F5F5F5F5F5F5F5F5F5F5F5F5F5F5F5F5F5F5F5F5F5F5F5F5F5F5F5F5F5F5F5F5F5F5000000000000000000000000000000000028F5F5DC0000000000000000000000000000000000000000000000000000000000000000
310
000000000000000000000000DC00000000000000000028000000000000000000000000000000000000000000000000000000000000000000000000000000000000000000000028F5F5F5F5F5F5F5F528DC28F5F5F5F5F5F5F52828282828282828282828282828282828282828282828DC2828282828282828282828282828
310
282828282828282828F5F5F5F5F5F5F5F5F5F5F5F5F5F5F5F5F5F5DC000000000000000000000000000000000000000000000000000000000000000000000000000000000000000000000000000000000000000000000000000000000028F5F5DC000000000000000000000000000000000000000000000000000000000000
310
0000000000000000000000000000DC000000000000000000280000000000000000000000000000000000000000000000000000000000000000000000000000000000000000000000F50028F5F500F500F528DCDCF5F500F500F5F50000000000000000000000000000000000000000000000DC000000000000000000000000
310
000000000000000000002828F5F500F500F5F500F500F500F500F528F500DC0000000000000000000000000000000000000000000000000000000000000000000000000000000000000000000000000000000000000000000000000000000028F5F5DC00000000000000000000000000000000000000000000000000000000
310
00000000000000000000000000000000DC000000000000000000280000000000000000000000000000000000000000000000000000000000000000000000000000000000000000000000F500F5F528F52828282828282828F528F528F52828282828282828282828282828282828282828282828DC28282828282828282828
310
282828282828282828282828282828282828F5DCF5F528F528F528F52828F50000DC00000000000000000000000000000000000000000000000000000000000000000000000000000000000000000000000000000000000000000000000000000028F5F5DC0000000000000000000000000000000000000000000000000000
310
000000000000000000000000000000000000DC000000000000000000280000000000000000000000000000000000000000000000000000000000000000000000000000000000000000000000F5DC0000000000002828DC28280000282800DC2828000000000000000000000000000000000000000000DC0000000000000000
310
00000000000000000000000000002828DC2828F500F5F5280000000000000000F5000000DC000000000000000000000000000000000000000000000000000000000000000000000000000000000000000000000000000000000000000000000000000028F5F5DC000000000000000000000000000000000000000000000000
310
0000000000000000000000000000000000000000DC000000000000000000280000000000000000000000000000000000000000000000000000000000000000000000000000000000000000000000DC0000000000000028282828280000002800DC280000000000000000000000000000000000000000000000000000000000
310
000000000000000000000000000000002828282828F5F5DCDCF50000000000000000F500000000DC0000BEBEBEBEBEBEBEBEBEBEBEBEBE00BEBEBEBEBEBEBEBEBEBEBEBE0000000000000000000000000000000000000000000000000000000000000000002800F5DC00000000000000000000000000000000000000000000
310
00000000000000000000000000000000000000000000DC0000000000000000002800000000000000000000000000000000000000000000000000000000000000000000000000000000000000000000DCF50000000000000000DC28DC0000000028282828000000000000000000000000000000000000000000000000000000
310
000000000000000000000000000000000000002828280028F5F5F5280000000000000000F50000000000DC00BEBEBEBEBE00BEBEBEBEBEBEBE00BEBEBEBEBEBEBEBEBEBEBEBE00000000000000000000000000000000000000000000000000000000000000000028F5F5DC0000000000000000000000000000000000000000
310
000000000000000000000000000000000000000000000000DC0000000000000000002800000000000000000000000000BEBEBEBE0000BEBEBEBEBEBEBE00BEBEBEBEBEBEBEBEBEBEBEBEBE0000000000DC00F5000000000000000000DC00000000000000DC0000000000000000000000000000000000000000000000000000
310
00000000000000000000000000000000000000000000DC00000000DC00000000000000000000F5000000000000DCDCDCDCDCDCBEDCDCDCDCDCDCDCDCDCDCDCDCDCDCDCDCBEBEDCDCDCDC0000000000000000000000000000000000000000000000000000000000000028F5F5DC000000000000000000000000000000000000
310
0000000000000000000000000000000000000000000000000000DC0000000000000000002800000000000000000000000000BEBEBEBEBEBEBEBEBEBEBEBEBE0000BEBEBEBEBEBE00BEBEBEBEBE00000000DC0000F5000000000000000000DC00000000000000DC000000000000000000000000000000000000000000000000
310
000000000000000000000000000000000000000000000000DC00000000DC00000000000000000000F500000000000000BEBEBEBEBEBEBEBEBEBEBEBEBEBEBEBEBEBEBEBEBEBEBEBE000000000000000000000000000000000000000000000000000000000000000000000028F5F5DC00000000000000000000000000000000
310
00000000000000000000000000000000000000000000000000000000DC0000000000000000002800000000000000000000000000BEBEBEBEBE00BE00BE00BEBE0000BEBEBEBEBEBEBEBEBEBEBEBEBE000000DC000000F500000000000000000000000000000000000000000000000000000000000000000000000000000000
310
000000000000000000000000000000000000000000000000000000000000000000000000000000000000F500000000000000BEBEBEBEBEBEBEBEBEBEBEBEBEBEBEBEBEBEBEBEBEBEBEBE000000000000000000000000000000000000000000000000000000000000000000000028F5F5DC0000000000000000000000000000
310
000000000000000000000000000000000000000000000000000000000000DC0000000000000000002800000000000000000000000000DCDCDCDCDCDCDCDCDCDCDCDCDCDCDCDCDCDCDCDCDCDCDCDCDCDCDCDCDCDC00000000F500F5000000000000000000000000000000000000000000000000000000000000000000000000
310
000000000000000000000000000000000000000000000000000000000000000000000000000000000000F500F500000000000000BEBE0000000000000000BE00000000BEBEBE00BE0000000000000000000000000000000000000000000000000000000000000000000000000000002800F5DC000000000000000000000000
310
0000000000000000000000000000000000000000000000000000000000000000DC0000000000000000002800000000000000000000000000BEBEBEBEBEBEBEBEBEBEBEBEBEBEBEBEBEBEBEBE0000000000000000000000000000F5F5F5F5F5F5F5F5F5F5F5F5F5F5F5F5F5F5F5F5F5F5F5F5F5F5F5F5F5F5F5F5F5F5F5F5F5
310
F5F5BEF5BEBEF5BEF5F5F5F5F5F5F5F5F5F5F5F5F5F5F5F5F5F5F5F5F5F5F5F5F5F5F5F5F5F5F5F5F5F5F5F5F5F5F5000000000000000000000000000000000000000000000000000000000000000000000000000000000000000000000000000000000000000000000000000000000000280000DC00000000000000000000
310
00000000000000000000000000000000000000000000000000000000000000000000DC0000000000000000002800000000000000000000000000BEBEBEBEBEBEBEBEBEBEBEBEBEBEBEBEBEBEBEBE00000000000000000000000000000000000000000000000000000000000000000000000000000000000000000000000000
310
00000000BEBEBEBEBEBE000000000000000000000000000000000000000000000000000000000000000000000000000000000000000000000000000000000000000000000000000000000000000000000000000000000000000000000000000000000000000000000000000000000000000000280000DC0000000000000000
310
000000000000000000000000000000000000000000000000000000000000000000000000DC000000000000000000280000000000000000000000000000000000000000000000000000000000000000000000000000000000000000000000000000000000000000000000000000000000000000000000000000000000000000
310
000000000000BEBEBEBEBEBE000000000000000000000000000000000000000000000000000000000000000000000000000000000000000000000000000000000000000000000000000000000000000000000000000000000000000000000000000000000000000000000000000000000000000000280000DC000000000000
310
0000000000000000000000000000000000000000000000000000000000000000000000000000DC00000000000000000028000000000000000000000000000000000000000000000000000000000000000000000000000000000000000000000000000000000000000000000000000000000000000000000000000000000000
310
0000000000000000000000000000000000000000000000000000000000000000000000000000000000000000000000000000000000000000000000000000000000000000000000000000000000000000000000000000000000000000000000000000000000000000000000000000000000000000000000280000DC00000000
310
00000000000000000000000000000000000000000000000000000000000000000000000000000000DC0000000000000000002800000000000000000000000000000000000000000000000000000000000000000000000000000000000000000000000000000000000000000000000000000000000000000000000000000000
310
00000000000000000000000000000000000000000000000000000000000000000000000000000000000000000000000000000000000000000000000000000000000000000000000000000000000000000000000000000000000000000000000000000000000000000000000000000000000000000000000000280000DC0000
310
000000000000000000000000000000000000000000000000000000000000000000000000000000000000DC000000000000000000280000000000000000000000000000000000000000000000000000000000000000000000000000000000000000000000000000000000000000000000000000000000000000000000000000
310
000000000000000000000000000000000000000000000000000000000000000000000000000000000000000000000000000000000000000000000000000000000000000000000000000000000000000000000000000000000000000000000000000000000000000000000000000000000000000000000000000000280000DC
310
0000000000000000000000000000000000000000000000000000000000000000000000000000000000000000DC00000000000000000028000000000000000000000000000000000000000000000000000000000000000000000000000000000000000000000000000000000000000000000000000000000000000000000000
310
00000000000000000000000000000000000000000000000000000000000000000000000000000000000000000000000000000000000000000000000000000000000000000000000000000000000000000000000000000000000000000000000000000000000000000000000000000000000000000000000000000000002800
310
00DC0000000000000000000000000000000000000000000000000000000000000000000000000000000000000000DC0000000000000000002800000000000000000000000000000000000000000000000000000000000000000000000000000000000000000000000000000000000000000000000000000000000000000000
310
00000000000000000000000000000000000000000000000000000000000000000000000000000000000000000000000000000000000000000000000000000000000000000000000000000000000000000000000000000000000000000000000000000000000000000000000000000000000000000000000000000000000000
310
280000DC0000000000000000000000000000000000000000000000000000000000000000000000000000000000000000DC000000000000000000280000000000000000000000000000000000000000000000000000000000000000000000000000000000000000000000000000000000000000000000000000000000000000
310
00000000000000000000000000000000000000000000000000000000000000000000000000000000000000000000000000000000000000000000000000000000000000000000000000000000000000000000000000000000000000000000000000000000000000000000000000000000000000000000000000000000000000
310
0000280000DC0000000000000000000000000000000000000000000000000000000000000000000000000000000000000000DC00000000000000000028000000000000000000000000000000000000000000000000000000000000000000000000000000000000000000000000000000000000000000000000000000000000
310
00000000000000000000000000000000000000000000000000000000000000000000000000000000000000000000000000000000000000000000000000000000000000000000000000000000000000000000000000000000000000000000000000000000000000000000000000000000000000000000000000000000000000
310
00000000280000DC0000000000000000000000000000000000000000000000000000000000000000000000000000000000000000DC0000000000000000002800000000000000000000000000000000000000000000000000000000000000000000000000000000000000000000000000000000000000000000000000000000
310
00000000000000000000000000000000000000000000000000000000000000000000000000000000000000000000000000000000000000000000000000000000000000000000000000000000000000000000000000000000000000000000000000000000000000000000000000000000000000000000000000000000000000
310
000000000000280000DC0000000000000000000000000000000000000000000000000000000000000000000000000000000000000000DC000000000000000000280000000000000000000000000000000000000000000000000000000000000000000000000000000000000000000000000000000000000000000000000000
310
00000000000000000000000000000000000000000000000000000000000000000000000000000000000000000000000000000000000000000000000000000000000000000000000000000000000000000000000000000000000000000000000000000000000000000000000000000000000000000000000000000000000000
310
0000000000000000280000DC0000000000000000000000000000000000000000000000000000000000000000000000000000000000000000DC00000000000000000028000000000000000000000000000000000000000000000000000000000000000000000000000000000000000000000000000000000000000000000000
310
00000000000000000000000000000000000000000000000000000000000000000000000000000000000000000000000000000000000000000000000000000000000000000000000000000000000000000000000000000000000000000000000000000000000000000000000000000000000000000000000000000000000000
310
00000000000000000000280000DC0000000000000000000000000000000000000000000000000000000000000000000000000000000000000000DC0000000000000000002800000000000000000000000000000000000000000000000000000000000000000000000000000000000000000000000000000000000000000000
310
00000000000000000000000000000000000000000000000000000000000000000000000000000000000000000000000000000000000000000000000000000000000000000000000000000000000000000000000000000000000000000000000000000000000000000000000000000000000000000000000000000000000000
310
000000000000000000000000280000DC0000000000000000000000000000000000000000000000000000000000000000000000000000000000000000DC000000000000000000280000000000000000000000000000000000000000000000000000000000000000000000000000000000000000000000000000000000000000
310
00000000000000000000000000000000000000000000000000000000000000000000000000000000000000000000000000000000000000000000000000000000000000000000000000000000000000000000000000000000000000000000000000000000000000000000000000000000000000000000000000000000000000
310
0000000000000000000000000000280000DC0000000000000000000000000000000000000000000000000000000000000000000000000000000000000000DC00000000000000000028000000000000000000000000000000000000000000000000000000000000000000000000000000000000000000000000000000000000
310
00000000000000000000000000000000000000000000000000000000000000000000000000000000000000000000000000000000000000000000000000000000000000000000000000000000000000000000000000000000000000000000000000000000000000000000000000000000000000000000000000000000000000
310
00000000000000000000000000000000280000DC0000000000000000000000000000000000000000000000000000000000000000000000000000000000000000DC0000000000000000002800000000000000000000000000000000000000000000000000000000000000000000000000000000000000000000000000000000
310
00000000000000000000000000000000000000000000000000000000000000000000000000000000000000000000000000000000000000000000000000000000000000000000000000000000000000000000000000000000000000000000000000000000000000000000000000000000000000000000000000000000000000
310
000000000000000000000000000000000000280000DC0000000000000000000000000000000000000000000000000000000000000000000000000000000000000000DC000000000000000000280000000000000000000000000000000000000000000000000000000000000000000000000000000000000000000000000000
310
00000000000000000000000000000000000000000000000000000000000000000000000000000000000000000000000000000000000000000000000000000000000000000000000000000000000000000000000000000000000000000000000000000000000000000000000000000000000000000000000000000000000000
310
0000000000000000000000000000000000000000280000DC0000000000000000000000000000000000000000000000000000000000000000000000000000000000000000DC00000000000000000028000000000000000000000000000000000000000000000000000000000000000000000000000000000000000000000000
310
0000000000000000000000000000000000000000000000000000000000000000000000000000000000DC00000000000000000000000000000000000000000000000000000000000000000000000000000000000000000000000000000000000000000000000000000000000000000000000000000000000000000000000000
310
00000000000000000000000000000000000000000000280000DC0000000000000000000000000000000000000000000000000000000000000000000000000000000000000000DC0000000000000000002800000000000000000000000000000000000000000000000000000000000000000000000000000000000000000000
310
000000000000000000000000000000000000000000000000F528F5F5282828282828282828282828282828DC2828282828282828282828282828F5F5F5F5F500000000000000000000000000000000000000000000000000000000000000000000000000000000000000000000000000000000000000000000000000000000
310
000000000000000000000000000000000000000000000000280000DC0000000000000000000000000000000000000000000000000000000000000000000000000000000000000000DC000000000000000000280000000000000000000000000000000000000000000000000000000000000000000000000000000000000000
310
0000000000000000000000000000000000000000000000000000F5F5F5F5282828282828282828282828282828282828282828282828282828282828F5F5F5F5F50000000000000000000000000000000000000000000000000000000000000000000000000000000000000000000000000000000000000000000000000000
310
0000000000000000000000000000000000000000000000000000280000DC0000000000000000000000000000000000000000000000000000000000000000000000000000000000000000DC00000000000000000028000000000000000000000000000000000000000000000000000000000000000000000000000000000000
310
00000000000000000000000000000000000000000000000000000000F5F5F500000000000000000000000000000000DC00000000000000000000000000000000F5F5F5000000000000000000000000000000000000000000000000000000000000000000000000000000000000000000000000000000000000000000000000
310
00000000000000000000000000000000000000000000000000000000280000DC0000000000000000000000000000000000000000000000000000000000000000000000000000000000000000DC0000000000000000002800000000000000000000000000000000000000000000000000000000000000000000000000000000
310
000000000000000000000000000000000000000000000000000000000000F5F5F500000000000000000000000000000000DC00000000000000000000000000000000F5F5F500000000000000000000000000000000000000000000000000000000000000000000000000000000000000000000000000000000000000000000
310
000000000000000000000000000000000000000000000000000000000000280000DC0000000000000000000000000000000000000000000000000000000000000000000000000000000000000000DC000000000000000000280000000000000000000000000000000000000000000000000000000000000000000000000000
310
0000000000000000000000000000000000000000000000000000000000000000F5F5F500000000000000000000000000000000DC00000000000000000000000000000000F5F5000000000000000000000000000000000000000000000000000000000000000000000000000000000000000000000000000000000000000000
310
0000000000000000000000000000000000000000000000000000000000000000280000DC0000000000000000000000000000000000000000000000000000000000000000000000000000000000000000DC00000000000000000028000000000000000000000000000000000000000000000000000000000000000000000000
310
0000000000000000000000000000000000000000000000000000000000000000000000F5F500000000000000000000000000000000DC00000000000000000000000000000000F5F500000000000000000000000000000000000000000000000000000000000000000000000000000000000000000000000000000000000000
310
00000000000000000000000000000000000000000000000000000000000000000000280000DC0000000000000000000000000000000000000000000000000000000000000000000000000000000000000000DC0000000000000000002800000000000000000000000000000000000000000000000000000000000000000000
310
000000000000000000000000000000000000000000000000000000000000000000000000F5F5F5282828282828282828282828282828282828282828282828282828282828282828F5F5F500000000000000000000000000000000000000000000000000000000000000000000000000000000000000000000000000000000
310
000000000000000000000000000000000000000000000000000000000000000000000000280000DC0000000000000000000000000000000000000000000000000000000000000000000000000000000000000000DC000000000000000000280000000000000000000000000000000000000000000000000000000000000000
310
0000000000000000000000000000000000000000000000000000000000000000000000000000F5F5F500000000000000000000000000000000DC00000000000000000000000000000000F5F5F50000000000000000000000000000000000000000000000000000000000000000000000000000000000000000000000000000
310
0000000000000000000000000000000000000000000000000000000000000000000000000000280000DC0000000000000000000000000000000000000000000000000000000000000000000000000000000000000000DC00000000000000000028000000000000000000000000000000000000000000000000000000000000
310
00000000000000000000000000000000000000000000000000000000000000000000000000000000F5F52828282828282828282828282828282828DC28282828282828282828282828282828F5F5DCDC0000000000000000000000000000000000000000000000000000000000000000000000000000000000000000000000
310
00000000000000000000000000000000000000000000000000000000000000000000000000000000280000DC0000000000000000000000000000000000000000000000000000000000000000000000000000000000000000DC0000000000000000002800000000000000000000000000000000000000000000000000000000
310
00000000000000000000000000000000000000000000000000000000000000000000000000000000000000000000000000000000000000000000000000DC0000000000000000000000000000000000000000DCDC0000BEBEBEBEBEBEBEBEBEBEBEBEBE00BEBEBEBEBEBEBEBEBEBEBEBEBE0000000000000000000000000000
310
000000000000000000000000000000000000000000000000000000000000000000000000000000000000280000DC0000000000000000000000000000000000000000000000000000000000000000000000000000000000000000DC000000000000000000280000000000000000000000000000000000000000000000000000
310
0000000000000000000000000000000000000000000000000000000000000000000000000000000000000000000000000000000000000000000000000000000000000000000000000000000000000000000000000000DCDCBEBEBEBEBE0000BEBEBEBEBEBE00BEBEBEBEBEBEBEBEBEBEBEBEBE000000000000000000000000
310
0000000000000000000000000000000000000000000000000000000000000000000000000000000000000000280000DC0000000000000000000000000000000000000000000000000000000000000000000000000000000000000000DC00000000000000000028000000000000000000000000000000000000000000000000
310
000000000000000000000000000000000000000000000000000000000000000000000000000000000000000000000000000000000000000000000000000000000000000000000000000000000000000000000000000000000000DCDCDCDCDCDCDCDCDCDCDCDCDCDCDCDCDCDCDCDCDCDCDCDCDCDCDC00000000000000000000
310
00000000000000000000000000000000000000000000000000000000000000000000000000000000000000000000280000DC0000000000000000000000000000000000000000000000000000000000000000000000000000000000000000DC0000000000000000002800000000000000000000000000000000000000000000
310
0000000000000000000000000000000000000000000000000000000000000000000000000000000000000000000000000000000000000000000000000000000000000000000000000000000000000000000000000000000000000000BEBEBEBEBEBEBEBEBEBEBEBEBEBEBEBEBEBEBEBEBEBE00000000000000000000000000
310
000000000000000000000000000000000000000000000000000000000000000000000000000000000000000000000000280000DC0000000000000000000000000000000000000000000000000000000000000000000000000000000000000000DC000000000000000000280000000000000000000000000000000000000000
310
00000000000000000000000000000000000000000000000000000000000000000000000000000000000000000000000000000000000000000000000000000000000000000000000000000000000000000000000000000000000000000000BEBEBEBEBEBEBEBEBEBEBEBEBEBE00BEBEBEBEBEBEBE0000000000000000000000
310
0000000000000000000000000000000000000000000000000000000000000000000000000000000000000000000000000000280000DC0000000000000000000000000000000000000000000000000000000000000000000000000000000000000000DC00000000000000000028000000000000000000000000000000000000
310
000000000000000000000000000000000000000000000000000000000000000000000000000000000000000000000000000000000000000000000000000000000000000000000000000000000000000000000000000000000000000000000000BEBEBEBE00BE00BE0000000000BE00BEBEBEBEBEBEBE000000000000000000
310
00000000000000000000000000000000000000000000000000000000000000000000000000000000000000000000000000000000280000DC0000000000000000000000000000000000000000000000000000000000000000000000000000000000000000DC0000000000000000002800000000000000000000000000000000
310
00000000000000000000000000000000000000000000000000000000000000000000000000000000000000000000000000000000000000000000000000000000000000000000000000000000000000000000000000000000000000000000000000000000000000000000000000000000000000000000000000000000000000
310
000000000000000000000000000000000000000000000000000000000000000000000000000000000000000000000000000000000000280000DC0000000000000000000000000000000000000000000000000000000000000000000000000000000000000000DC000000000000000000280000000000000000000000000000
310
00000000000000000000000000000000000000000000000000000000000000000000000000000000000000000000000000000000000000000000000000000000000000000000000000000000000000000000000000000000000000000000000000000000000000000000000000000000000000000000000000000000000000
310
0000000000000000000000000000000000000000000000000000000000000000000000000000000000000000000000000000000000000000280000DC0000000000000000000000000000000000000000000000000000000000000000000000000000000000000000DC00000000000000000028000000000000000000000000
310
00000000000000000000000000000000000000000000000000000000000000000000000000000000000000000000000000000000000000000000000000000000000000000000000000000000000000000000000000000000000000000000000000000000000000000000000000000000000000000000000000000000000000
310
00000000000000000000000000000000000000000000000000000000000000000000000000000000000000000000000000000000000000000000280000DC0000000000000000000000000000000000000000000000000000000000000000000000000000000000000000DC0000000000000000002800000000000000000000
310
00000000000000000000000000000000000000000000000000000000000000000000000000000000000000000000000000000000000000000000000000000000000000000000000000000000000000000000000000000000000000000000000000000000000000000000000000000000000000000000000000000000000000
310
000000000000000000000000000000000000000000000000000000000000000000000000000000000000000000000000000000000000000000000000280000DC0000000000000000000000000000000000000000000000000000000000000000000000000000000000000000DC000000000000000000282828282828282828
310
28282828282828282828282828282828282828282828282828282828282828282828282828282828282828282828282828282828282828282828282828282828282828282828282828282828282828282828282828282828282828282828282828282828282828282828282828282828282828282828282828282828282828
310
2828282828282828282828282828282828282828282828282828282828282828282828282828282828282828282828282828282828282828282828282828280000DC0000000000000000000000000000000000000000000000000000000000000000000000000000000000000000DC00000000000000000000000000000000
310
00000000000000000000000000000000000000000000000000000000000000000000000000000000000000000000000000000000000000000000000000000000000000000000000000000000000000000000000000000000000000000000000000000000000000000000000000000000000000000000000000000000000000
310
00000000000000000000000000000000000000000000000000000000000000000000000000000000000000000000000000000000000000000000000000000000000000DC0000000000000000000000000000000000000000000000000000000000000000000000000000000000000000DCDCDCDCDCDCDCDCDCDCDCDCDCDCDC
310
DCDCDCDCDCDCDCDCDCDCDCDCDCDCDCDCDCDCDCDCDCDCDCDCDCDCDCDCDCDCDCDCDCDCDCDCDCDCDCDCDCDCDCDCDCDCDCDCDCDCDCDCDCDCDCDCDCDCDCDCDCDCDCDCDCDCDCDCDCDCDCDCDCDCDCDCDCDCDCDCDCDCDCDCDCDCDCDCDCDCDCDCDCDCDCDCDCDCDCDCDCDCDCDCDCDCDCDCDCDCDCDCDCDCDCDCDCDCDCDCDCDCDCDCDCDCDC
310
DCDCDCDCDCDCDCDCDCDCDCDCDCDCDCDCDCDCDCDCDCDCDCDCDCDCDCDCDCDCDCDCDCDCDCDCDCDCDCDCDCDCDCDCDCDCDCDCDCDCDCDCDCDCDCDCDCDCDCDCDCDCDCDCDCDCDCDCDCDC000000000000000000000000000000000000000000000000000000000000000000000000000000000000000000000000000000000000000000
310
00000000000000000000000000000000000000000000000000000000000000000000000000000000000000000000000000000000000000000000000000000000000000000000000000000000000000000000000000000000000000000000000000000000000000000000000000000000000000000000000000000000000000
310
00000000000000000000000000000000000000000000000000000000000000000000000000000000000000000000000000000000000000000000000000000000000000000000000000000000000000000000000000000000000000000000
  0
XRECORD
  5
847
102
{ACAD_REACTORS
330
6EC
102
}
330
6EC
100
AcDbXrecord
280
     1
102
MATERIAL
148
0.0
149
0.0
149
0.0
 93
        0
 94
      127
282
     0
 72
     0
 77
     0
171
     0
175
     0
179
     0
273
     0
  0
XRECORD
  5
6EE
102
{ACAD_REACTORS
330
6EC
102
}
330
6EC
100
AcDbXrecord
280
     1
270
     1
271
     1
  0
XRECORD
  5
6ED
102
{ACAD_REACTORS
330
6EC
102
}
330
6EC
100
AcDbXrecord
280
     1
270
     1
271
     1
  0
XRECORD
  5
6F1
102
{ACAD_REACTORS
330
6EC
102
}
330
6EC
100
AcDbXrecord
280
     1
270
     1
271
     1
  0
XRECORD
  5
6F0
102
{ACAD_REACTORS
330
6EC
102
}
330
6EC
100
AcDbXrecord
280
     1
270
     1
271
     1
  0
XRECORD
  5
6F2
102
{ACAD_REACTORS
330
6EC
102
}
330
6EC
100
AcDbXrecord
280
     1
270
     1
271
     1
  0
XRECORD
  5
6EF
102
{ACAD_REACTORS
330
6EC
102
}
330
6EC
100
AcDbXrecord
280
     1
270
     1
271
     1
  0
XRECORD
  5
846
102
{ACAD_REACTORS
330
6E4
102
}
330
6E4
100
AcDbXrecord
280
     1
102
MATERIAL
148
0.0
149
0.0
149
0.0
 93
        0
 94
      127
282
     0
 72
     0
 77
     0
171
     0
175
     0
179
     0
273
     0
  0
XRECORD
  5
6E6
102
{ACAD_REACTORS
330
6E4
102
}
330
6E4
100
AcDbXrecord
280
     1
270
     1
271
     1
  0
XRECORD
  5
6E5
102
{ACAD_REACTORS
330
6E4
102
}
330
6E4
100
AcDbXrecord
280
     1
270
     1
271
     1
  0
XRECORD
  5
6E9
102
{ACAD_REACTORS
330
6E4
102
}
330
6E4
100
AcDbXrecord
280
     1
270
     1
271
     1
  0
XRECORD
  5
6E8
102
{ACAD_REACTORS
330
6E4
102
}
330
6E4
100
AcDbXrecord
280
     1
270
     1
271
     1
  0
XRECORD
  5
6EA
102
{ACAD_REACTORS
330
6E4
102
}
330
6E4
100
AcDbXrecord
280
     1
270
     1
271
     1
  0
XRECORD
  5
6E7
102
{ACAD_REACTORS
330
6E4
102
}
330
6E4
100
AcDbXrecord
280
     1
270
     1
271
     1
  0
XRECORD
  5
848
102
{ACAD_REACTORS
330
6F4
102
}
330
6F4
100
AcDbXrecord
280
     1
102
MATERIAL
148
0.0
149
0.0
149
0.0
 93
        0
 94
      127
282
     0
 72
     0
 77
     0
171
     0
175
     0
179
     0
273
     0
  0
XRECORD
  5
6F6
102
{ACAD_REACTORS
330
6F4
102
}
330
6F4
100
AcDbXrecord
280
     1
270
     1
271
     1
  0
XRECORD
  5
6F5
102
{ACAD_REACTORS
330
6F4
102
}
330
6F4
100
AcDbXrecord
280
     1
270
     1
271
     1
  0
XRECORD
  5
6F9
102
{ACAD_REACTORS
330
6F4
102
}
330
6F4
100
AcDbXrecord
280
     1
270
     1
271
     1
  0
XRECORD
  5
6F8
102
{ACAD_REACTORS
330
6F4
102
}
330
6F4
100
AcDbXrecord
280
     1
270
     1
271
     1
  0
XRECORD
  5
6FA
102
{ACAD_REACTORS
330
6F4
102
}
330
6F4
100
AcDbXrecord
280
     1
270
     1
271
     1
  0
XRECORD
  5
6F7
102
{ACAD_REACTORS
330
6F4
102
}
330
6F4
100
AcDbXrecord
280
     1
270
     1
271
     1
  0
XRECORD
  5
87B
102
{ACAD_REACTORS
330
87A
102
}
330
87A
100
AcDbXrecord
280
     1
102
ACAD_ROUNDTRIP_2012_MLEADER_STYLE
298
     1
  0
CELLSTYLEMAP
  5
844
102
{ACAD_REACTORS
330
76B
102
}
330
76B
100
AcDbCellStyleMap
 90
        3
300
CELLSTYLE
  1
TABLEFORMAT_BEGIN
 90
        5
170
     1
 91
        0
 92
    32768
 62
   257
 93
        1
300
CONTENTFORMAT
  1
CONTENTFORMAT_BEGIN
 90
        0
 91
        0
 92
      512
 93
        0
300

 40
0.0
140
1.0
 94
        5
 62
     0
340
11
144
0.25
309
CONTENTFORMAT_END
171
     0
 94
        0
309
TABLEFORMAT_END
  1
CELLSTYLE_BEGIN
 90
        1
 91
        1
300
_TITLE
309
CELLSTYLE_END
300
CELLSTYLE
  1
TABLEFORMAT_BEGIN
 90
        5
170
     1
 91
        0
 92
        0
 62
   257
 93
        1
300
CONTENTFORMAT
  1
CONTENTFORMAT_BEGIN
 90
        0
 91
        0
 92
      512
 93
        0
300

 40
0.0
140
1.0
 94
        5
 62
     0
340
11
144
0.18
309
CONTENTFORMAT_END
171
     0
 94
        0
309
TABLEFORMAT_END
  1
CELLSTYLE_BEGIN
 90
        2
 91
        1
300
_HEADER
309
CELLSTYLE_END
300
CELLSTYLE
  1
TABLEFORMAT_BEGIN
 90
        5
170
     1
 91
        0
 92
        0
 62
   257
 93
        1
300
CONTENTFORMAT
  1
CONTENTFORMAT_BEGIN
 90
        0
 91
        0
 92
      512
 93
        0
300

 40
0.0
140
1.0
 94
        2
 62
     0
340
11
144
0.18
309
CONTENTFORMAT_END
171
     0
 94
        0
309
TABLEFORMAT_END
  1
CELLSTYLE_BEGIN
 90
        3
 91
        2
300
_DATA
309
CELLSTYLE_END
  0
XRECORD
  5
879
102
{ACAD_REACTORS
330
76B
102
}
330
76B
100
AcDbXrecord
280
     1
102
ACAD_ROUNDTRIP_PRE2007_TABLESTYLE
 90
      512
 91
        0
  1

 92
      512
 93
        0
  2

 94
      512
 95
        0
  3

  0
XRECORD
  5
854
102
{ACAD_REACTORS
330
853
102
}
330
853
100
AcDbXrecord
280
     1
102
RTVSPost2010Prop28
280
     1
102
RTVSPost2010PropOp28
 70
     1
102
RTVSPost2010Prop29
280
     1
102
RTVSPost2010PropOp29
 70
     1
102
RTVSPost2010Prop30
280
     0
102
RTVSPost2010PropOp30
 70
     1
102
RTVSPost2010Prop31
280
     0
102
RTVSPost2010PropOp31
 70
     1
102
RTVSPost2010Prop32
280
     0
102
RTVSPost2010PropOp32
 70
     1
102
RTVSPost2010Prop33
280
     0
102
RTVSPost2010PropOp33
 70
     1
102
RTVSPost2010Prop34
280
     0
102
RTVSPost2010PropOp34
 70
     1
102
RTVSPost2010Prop35
280
     0
102
RTVSPost2010PropOp35
 70
     1
102
RTVSPost2010Prop36
280
     0
102
RTVSPost2010PropOp36
 70
     1
102
RTVSPost2010Prop37
 90
       50
102
RTVSPost2010PropOp37
 70
     1
102
RTVSPost2010Prop38
140
0.0
102
RTVSPost2010PropOp38
 70
     1
102
RTVSPost2010Prop39
140
1.0
102
RTVSPost2010PropOp39
 70
     1
102
RTVSPost2010Prop40
 90
        0
102
RTVSPost2010PropOp40
 70
     1
102
RTVSPost2010Prop41ColorIndex
 90
       18
102
RTVSPost2010Prop41ColorRGB
 90
        0
102
RTVSPost2010PropOp41
 70
     1
102
RTVSPost2010Prop42
 90
       50
102
RTVSPost2010PropOp42
 70
     1
102
RTVSPost2010Prop43
 90
        3
102
RTVSPost2010PropOp43
 70
     1
102
RTVSPost2010Prop44ColorIndex
 90
        5
102
RTVSPost2010Prop44ColorRGB
 90
      255
102
RTVSPost2010PropOp44
 70
     1
102
RTVSPost2010Prop45
280
     0
102
RTVSPost2010PropOp45
 70
     1
102
RTVSPost2010Prop46
 90
       50
102
RTVSPost2010PropOp46
 70
     1
102
RTVSPost2010Prop47
 90
       50
102
RTVSPost2010PropOp47
 70
     1
102
RTVSPost2010Prop48
 90
       50
102
RTVSPost2010PropOp48
 70
     1
102
RTVSPost2010Prop49
280
     0
102
RTVSPost2010PropOp49
 70
     1
102
RTVSPost2010Prop50
 90
       50
102
RTVSPost2010PropOp50
 70
     1
102
RTVSPost2010Prop51ColorIndex
 90
      256
102
RTVSPost2010Prop51ColorRGB
 90
-16777216
102
RTVSPost2010PropOp51
 70
     0
102
RTVSPost2010Prop52
140
1.0
102
RTVSPost2010PropOp52
 70
     0
102
RTVSPost2010Prop53
 90
        2
102
RTVSPost2010PropOp53
 70
     1
102
RTVSPost2010Prop54
  1
strokes_ogs.tif
102
RTVSPost2010PropOp54
 70
     1
102
RTVSPost2010Prop55
280
     0
102
RTVSPost2010PropOp55
 70
     1
102
RTVSPost2010Prop56
140
1.0
102
RTVSPost2010PropOp56
 70
     1
102
RTVSPost2010Prop57
140
1.0
102
RTVSPost2010PropOp57
 70
     1
102
RTVSPropertyOp0
 70
     1
102
RTVSPropertyOp1
 70
     1
102
RTVSPropertyOp2
 70
     1
102
RTVSPropertyOp3
 70
     1
102
RTVSPropertyOp4
 70
     1
102
RTVSPropertyOp5
 70
     1
102
RTVSPropertyOp6
 70
     1
102
RTVSPropertyOp7
 70
     1
102
RTVSPropertyOp8
 70
     1
102
RTVSPropertyOp9
 70
     1
102
RTVSPropertyOp10
 70
     1
102
RTVSPropertyOp11
 70
     1
102
RTVSPropertyOp12
 70
     1
102
RTVSPropertyOp13
 70
     1
102
RTVSPropertyOp14
 70
     1
102
RTVSPropertyOp15
 70
     1
102
RTVSPropertyOp16
 70
     1
102
RTVSPropertyOp17
 70
     1
102
RTVSPropertyOp18
 70
     1
102
RTVSPropertyOp19
 70
     1
102
RTVSPropertyOp20
 70
     1
102
RTVSPropertyOp21
 70
     1
102
RTVSPropertyOp22
 70
     1
102
RTVSPropertyOp23
 70
     1
102
RTVSPropertyOp24
 70
     1
102
RTVSPropertyOp25
 70
     1
102
RTVSPropertyOp26
 70
     1
102
RTVSPropertyOp27
 70
     1
102
RTVSPropertyOp28
 70
     1
102
RTVSPropertyOp29
 70
     1
102
RTVSPropertyOp30
 70
     1
102
RTVSPropertyOp31
 70
     1
102
RTVSPropertyOp32
 70
     1
102
RTVSPropertyOp33
 70
     1
102
RTVSPropertyOp34
 70
     1
102
RTVSPropertyOp35
 70
     1
102
RTVSPropertyOp36
 70
     1
102
RTVSPropertyOp37
 70
     1
102
RTVSPropertyOp38
 70
     1
102
RTVSPropertyOp39
 70
     1
102
RTVSPropertyOp40
 70
     1
102
RTVSPropertyOp41
 70
     1
102
RTVSPropertyOp42
 70
     1
102
RTVSPropertyOp43
 70
     1
102
RTVSPropertyOp44
 70
     1
102
RTVSPropertyOp45
 70
     1
102
RTVSPropertyOp46
 70
     1
102
RTVSPropertyOp47
 70
     1
102
RTVSPropertyOp48
 70
     1
102
RTVSPropertyOp49
 70
     1
102
RTVSPropertyOp50
 70
     1
102
RTVSPropertyOp51
 70
     0
102
RTVSPropertyOp52
 70
     0
102
RTVSPropertyOp53
 70
     1
102
RTVSPropertyOp54
 70
     1
102
RTVSPropertyOp55
 70
     1
102
RTVSPropertyOp56
 70
     1
102
RTVSPropertyOp57
 70
     1
102
RTVSPropertyOp58
 70
     1
102
RTVSPropertyOp59
 70
     1
102
RTVSPropertyOp60
 70
     1
102
RTVSPropertyOp61
 70
     1
102
RTVSPropertyOp62
 70
     1
  0
XRECORD
  5
852
102
{ACAD_REACTORS
330
851
102
}
330
851
100
AcDbXrecord
280
     1
102
RTVSPost2010Prop28
280
     0
102
RTVSPost2010PropOp28
 70
     1
102
RTVSPost2010Prop29
280
     1
102
RTVSPost2010PropOp29
 70
     1
102
RTVSPost2010Prop30
280
     1
102
RTVSPost2010PropOp30
 70
     1
102
RTVSPost2010Prop31
280
     0
102
RTVSPost2010PropOp31
 70
     1
102
RTVSPost2010Prop32
280
     0
102
RTVSPost2010PropOp32
 70
     1
102
RTVSPost2010Prop33
280
     0
102
RTVSPost2010PropOp33
 70
     1
102
RTVSPost2010Prop34
280
     0
102
RTVSPost2010PropOp34
 70
     1
102
RTVSPost2010Prop35
280
     0
102
RTVSPost2010PropOp35
 70
     1
102
RTVSPost2010Prop36
280
     0
102
RTVSPost2010PropOp36
 70
     1
102
RTVSPost2010Prop37
 90
       50
102
RTVSPost2010PropOp37
 70
     1
102
RTVSPost2010Prop38
140
0.0
102
RTVSPost2010PropOp38
 70
     1
102
RTVSPost2010Prop39
140
1.0
102
RTVSPost2010PropOp39
 70
     1
102
RTVSPost2010Prop40
 90
        0
102
RTVSPost2010PropOp40
 70
     1
102
RTVSPost2010Prop41ColorIndex
 90
       18
102
RTVSPost2010Prop41ColorRGB
 90
        0
102
RTVSPost2010PropOp41
 70
     1
102
RTVSPost2010Prop42
 90
       50
102
RTVSPost2010PropOp42
 70
     1
102
RTVSPost2010Prop43
 90
        3
102
RTVSPost2010PropOp43
 70
     1
102
RTVSPost2010Prop44ColorIndex
 90
        5
102
RTVSPost2010Prop44ColorRGB
 90
      255
102
RTVSPost2010PropOp44
 70
     1
102
RTVSPost2010Prop45
280
     0
102
RTVSPost2010PropOp45
 70
     1
102
RTVSPost2010Prop46
 90
       50
102
RTVSPost2010PropOp46
 70
     1
102
RTVSPost2010Prop47
 90
       50
102
RTVSPost2010PropOp47
 70
     1
102
RTVSPost2010Prop48
 90
       50
102
RTVSPost2010PropOp48
 70
     1
102
RTVSPost2010Prop49
280
     0
102
RTVSPost2010PropOp49
 70
     1
102
RTVSPost2010Prop50
 90
       50
102
RTVSPost2010PropOp50
 70
     1
102
RTVSPost2010Prop51ColorIndex
 90
      256
102
RTVSPost2010Prop51ColorRGB
 90
-16777216
102
RTVSPost2010PropOp51
 70
     0
102
RTVSPost2010Prop52
140
1.0
102
RTVSPost2010PropOp52
 70
     0
102
RTVSPost2010Prop53
 90
        2
102
RTVSPost2010PropOp53
 70
     1
102
RTVSPost2010Prop54
  1
strokes_ogs.tif
102
RTVSPost2010PropOp54
 70
     1
102
RTVSPost2010Prop55
280
     0
102
RTVSPost2010PropOp55
 70
     1
102
RTVSPost2010Prop56
140
1.0
102
RTVSPost2010PropOp56
 70
     1
102
RTVSPost2010Prop57
140
1.0
102
RTVSPost2010PropOp57
 70
     1
102
RTVSPropertyOp0
 70
     1
102
RTVSPropertyOp1
 70
     1
102
RTVSPropertyOp2
 70
     1
102
RTVSPropertyOp3
 70
     1
102
RTVSPropertyOp4
 70
     1
102
RTVSPropertyOp5
 70
     1
102
RTVSPropertyOp6
 70
     1
102
RTVSPropertyOp7
 70
     1
102
RTVSPropertyOp8
 70
     1
102
RTVSPropertyOp9
 70
     1
102
RTVSPropertyOp10
 70
     1
102
RTVSPropertyOp11
 70
     1
102
RTVSPropertyOp12
 70
     1
102
RTVSPropertyOp13
 70
     1
102
RTVSPropertyOp14
 70
     1
102
RTVSPropertyOp15
 70
     1
102
RTVSPropertyOp16
 70
     1
102
RTVSPropertyOp17
 70
     1
102
RTVSPropertyOp18
 70
     1
102
RTVSPropertyOp19
 70
     1
102
RTVSPropertyOp20
 70
     1
102
RTVSPropertyOp21
 70
     1
102
RTVSPropertyOp22
 70
     1
102
RTVSPropertyOp23
 70
     1
102
RTVSPropertyOp24
 70
     1
102
RTVSPropertyOp25
 70
     1
102
RTVSPropertyOp26
 70
     1
102
RTVSPropertyOp27
 70
     1
102
RTVSPropertyOp28
 70
     1
102
RTVSPropertyOp29
 70
     1
102
RTVSPropertyOp30
 70
     1
102
RTVSPropertyOp31
 70
     1
102
RTVSPropertyOp32
 70
     1
102
RTVSPropertyOp33
 70
     1
102
RTVSPropertyOp34
 70
     1
102
RTVSPropertyOp35
 70
     1
102
RTVSPropertyOp36
 70
     1
102
RTVSPropertyOp37
 70
     1
102
RTVSPropertyOp38
 70
     1
102
RTVSPropertyOp39
 70
     1
102
RTVSPropertyOp40
 70
     1
102
RTVSPropertyOp41
 70
     1
102
RTVSPropertyOp42
 70
     1
102
RTVSPropertyOp43
 70
     1
102
RTVSPropertyOp44
 70
     1
102
RTVSPropertyOp45
 70
     1
102
RTVSPropertyOp46
 70
     1
102
RTVSPropertyOp47
 70
     1
102
RTVSPropertyOp48
 70
     1
102
RTVSPropertyOp49
 70
     1
102
RTVSPropertyOp50
 70
     1
102
RTVSPropertyOp51
 70
     0
102
RTVSPropertyOp52
 70
     0
102
RTVSPropertyOp53
 70
     1
102
RTVSPropertyOp54
 70
     1
102
RTVSPropertyOp55
 70
     1
102
RTVSPropertyOp56
 70
     1
102
RTVSPropertyOp57
 70
     1
102
RTVSPropertyOp58
 70
     1
102
RTVSPropertyOp59
 70
     1
102
RTVSPropertyOp60
 70
     1
102
RTVSPropertyOp61
 70
     1
102
RTVSPropertyOp62
 70
     1
  0
XRECORD
  5
860
102
{ACAD_REACTORS
330
85F
102
}
330
85F
100
AcDbXrecord
280
     1
102
RTVSPost2010Prop28
280
     0
102
RTVSPost2010PropOp28
 70
     1
102
RTVSPost2010Prop29
280
     1
102
RTVSPost2010PropOp29
 70
     1
102
RTVSPost2010Prop30
280
     1
102
RTVSPost2010PropOp30
 70
     1
102
RTVSPost2010Prop31
280
     0
102
RTVSPost2010PropOp31
 70
     1
102
RTVSPost2010Prop32
280
     0
102
RTVSPost2010PropOp32
 70
     1
102
RTVSPost2010Prop33
280
     0
102
RTVSPost2010PropOp33
 70
     1
102
RTVSPost2010Prop34
280
     0
102
RTVSPost2010PropOp34
 70
     1
102
RTVSPost2010Prop35
280
     0
102
RTVSPost2010PropOp35
 70
     1
102
RTVSPost2010Prop36
280
     0
102
RTVSPost2010PropOp36
 70
     1
102
RTVSPost2010Prop37
 90
       50
102
RTVSPost2010PropOp37
 70
     1
102
RTVSPost2010Prop38
140
0.0
102
RTVSPost2010PropOp38
 70
     1
102
RTVSPost2010Prop39
140
1.0
102
RTVSPost2010PropOp39
 70
     1
102
RTVSPost2010Prop40
 90
        0
102
RTVSPost2010PropOp40
 70
     1
102
RTVSPost2010Prop41ColorIndex
 90
       18
102
RTVSPost2010Prop41ColorRGB
 90
        0
102
RTVSPost2010PropOp41
 70
     1
102
RTVSPost2010Prop42
 90
       50
102
RTVSPost2010PropOp42
 70
     1
102
RTVSPost2010Prop43
 90
        3
102
RTVSPost2010PropOp43
 70
     1
102
RTVSPost2010Prop44ColorIndex
 90
        5
102
RTVSPost2010Prop44ColorRGB
 90
      255
102
RTVSPost2010PropOp44
 70
     1
102
RTVSPost2010Prop45
280
     0
102
RTVSPost2010PropOp45
 70
     1
102
RTVSPost2010Prop46
 90
       50
102
RTVSPost2010PropOp46
 70
     1
102
RTVSPost2010Prop47
 90
       50
102
RTVSPost2010PropOp47
 70
     1
102
RTVSPost2010Prop48
 90
       50
102
RTVSPost2010PropOp48
 70
     1
102
RTVSPost2010Prop49
280
     0
102
RTVSPost2010PropOp49
 70
     1
102
RTVSPost2010Prop50
 90
       50
102
RTVSPost2010PropOp50
 70
     1
102
RTVSPost2010Prop51ColorIndex
 90
      256
102
RTVSPost2010Prop51ColorRGB
 90
-16777216
102
RTVSPost2010PropOp51
 70
     0
102
RTVSPost2010Prop52
140
1.0
102
RTVSPost2010PropOp52
 70
     0
102
RTVSPost2010Prop53
 90
        2
102
RTVSPost2010PropOp53
 70
     1
102
RTVSPost2010Prop54
  1
strokes_ogs.tif
102
RTVSPost2010PropOp54
 70
     1
102
RTVSPost2010Prop55
280
     0
102
RTVSPost2010PropOp55
 70
     1
102
RTVSPost2010Prop56
140
1.0
102
RTVSPost2010PropOp56
 70
     1
102
RTVSPost2010Prop57
140
1.0
102
RTVSPost2010PropOp57
 70
     1
102
RTVSPropertyOp0
 70
     1
102
RTVSPropertyOp1
 70
     1
102
RTVSPropertyOp2
 70
     1
102
RTVSPropertyOp3
 70
     1
102
RTVSPropertyOp4
 70
     1
102
RTVSPropertyOp5
 70
     1
102
RTVSPropertyOp6
 70
     1
102
RTVSPropertyOp7
 70
     1
102
RTVSPropertyOp8
 70
     1
102
RTVSPropertyOp9
 70
     1
102
RTVSPropertyOp10
 70
     1
102
RTVSPropertyOp11
 70
     1
102
RTVSPropertyOp12
 70
     1
102
RTVSPropertyOp13
 70
     1
102
RTVSPropertyOp14
 70
     1
102
RTVSPropertyOp15
 70
     1
102
RTVSPropertyOp16
 70
     1
102
RTVSPropertyOp17
 70
     1
102
RTVSPropertyOp18
 70
     1
102
RTVSPropertyOp19
 70
     1
102
RTVSPropertyOp20
 70
     1
102
RTVSPropertyOp21
 70
     1
102
RTVSPropertyOp22
 70
     1
102
RTVSPropertyOp23
 70
     1
102
RTVSPropertyOp24
 70
     1
102
RTVSPropertyOp25
 70
     1
102
RTVSPropertyOp26
 70
     1
102
RTVSPropertyOp27
 70
     1
102
RTVSPropertyOp28
 70
     1
102
RTVSPropertyOp29
 70
     1
102
RTVSPropertyOp30
 70
     1
102
RTVSPropertyOp31
 70
     1
102
RTVSPropertyOp32
 70
     1
102
RTVSPropertyOp33
 70
     1
102
RTVSPropertyOp34
 70
     1
102
RTVSPropertyOp35
 70
     1
102
RTVSPropertyOp36
 70
     1
102
RTVSPropertyOp37
 70
     1
102
RTVSPropertyOp38
 70
     1
102
RTVSPropertyOp39
 70
     1
102
RTVSPropertyOp40
 70
     1
102
RTVSPropertyOp41
 70
     1
102
RTVSPropertyOp42
 70
     1
102
RTVSPropertyOp43
 70
     1
102
RTVSPropertyOp44
 70
     1
102
RTVSPropertyOp45
 70
     1
102
RTVSPropertyOp46
 70
     1
102
RTVSPropertyOp47
 70
     1
102
RTVSPropertyOp48
 70
     1
102
RTVSPropertyOp49
 70
     1
102
RTVSPropertyOp50
 70
     1
102
RTVSPropertyOp51
 70
     0
102
RTVSPropertyOp52
 70
     0
102
RTVSPropertyOp53
 70
     1
102
RTVSPropertyOp54
 70
     1
102
RTVSPropertyOp55
 70
     1
102
RTVSPropertyOp56
 70
     1
102
RTVSPropertyOp57
 70
     1
102
RTVSPropertyOp58
 70
     1
102
RTVSPropertyOp59
 70
     1
102
RTVSPropertyOp60
 70
     1
102
RTVSPropertyOp61
 70
     1
102
RTVSPropertyOp62
 70
     1
  0
XRECORD
  5
868
102
{ACAD_REACTORS
330
867
102
}
330
867
100
AcDbXrecord
280
     1
102
RTVSPost2010Prop28
280
     0
102
RTVSPost2010PropOp28
 70
     1
102
RTVSPost2010Prop29
280
     1
102
RTVSPost2010PropOp29
 70
     1
102
RTVSPost2010Prop30
280
     1
102
RTVSPost2010PropOp30
 70
     1
102
RTVSPost2010Prop31
280
     0
102
RTVSPost2010PropOp31
 70
     1
102
RTVSPost2010Prop32
280
     0
102
RTVSPost2010PropOp32
 70
     1
102
RTVSPost2010Prop33
280
     0
102
RTVSPost2010PropOp33
 70
     1
102
RTVSPost2010Prop34
280
     0
102
RTVSPost2010PropOp34
 70
     1
102
RTVSPost2010Prop35
280
     0
102
RTVSPost2010PropOp35
 70
     1
102
RTVSPost2010Prop36
280
     0
102
RTVSPost2010PropOp36
 70
     1
102
RTVSPost2010Prop37
 90
       50
102
RTVSPost2010PropOp37
 70
     1
102
RTVSPost2010Prop38
140
0.0
102
RTVSPost2010PropOp38
 70
     1
102
RTVSPost2010Prop39
140
1.0
102
RTVSPost2010PropOp39
 70
     1
102
RTVSPost2010Prop40
 90
        0
102
RTVSPost2010PropOp40
 70
     1
102
RTVSPost2010Prop41ColorIndex
 90
       18
102
RTVSPost2010Prop41ColorRGB
 90
        0
102
RTVSPost2010PropOp41
 70
     1
102
RTVSPost2010Prop42
 90
       50
102
RTVSPost2010PropOp42
 70
     1
102
RTVSPost2010Prop43
 90
        3
102
RTVSPost2010PropOp43
 70
     1
102
RTVSPost2010Prop44ColorIndex
 90
        5
102
RTVSPost2010Prop44ColorRGB
 90
      255
102
RTVSPost2010PropOp44
 70
     1
102
RTVSPost2010Prop45
280
     0
102
RTVSPost2010PropOp45
 70
     1
102
RTVSPost2010Prop46
 90
       50
102
RTVSPost2010PropOp46
 70
     1
102
RTVSPost2010Prop47
 90
       50
102
RTVSPost2010PropOp47
 70
     1
102
RTVSPost2010Prop48
 90
       50
102
RTVSPost2010PropOp48
 70
     1
102
RTVSPost2010Prop49
280
     0
102
RTVSPost2010PropOp49
 70
     1
102
RTVSPost2010Prop50
 90
       50
102
RTVSPost2010PropOp50
 70
     1
102
RTVSPost2010Prop51ColorIndex
 90
      256
102
RTVSPost2010Prop51ColorRGB
 90
-16777216
102
RTVSPost2010PropOp51
 70
     0
102
RTVSPost2010Prop52
140
1.0
102
RTVSPost2010PropOp52
 70
     0
102
RTVSPost2010Prop53
 90
        2
102
RTVSPost2010PropOp53
 70
     1
102
RTVSPost2010Prop54
  1
strokes_ogs.tif
102
RTVSPost2010PropOp54
 70
     1
102
RTVSPost2010Prop55
280
     0
102
RTVSPost2010PropOp55
 70
     1
102
RTVSPost2010Prop56
140
1.0
102
RTVSPost2010PropOp56
 70
     1
102
RTVSPost2010Prop57
140
1.0
102
RTVSPost2010PropOp57
 70
     1
102
RTVSPropertyOp0
 70
     1
102
RTVSPropertyOp1
 70
     1
102
RTVSPropertyOp2
 70
     1
102
RTVSPropertyOp3
 70
     1
102
RTVSPropertyOp4
 70
     1
102
RTVSPropertyOp5
 70
     1
102
RTVSPropertyOp6
 70
     1
102
RTVSPropertyOp7
 70
     1
102
RTVSPropertyOp8
 70
     1
102
RTVSPropertyOp9
 70
     1
102
RTVSPropertyOp10
 70
     1
102
RTVSPropertyOp11
 70
     1
102
RTVSPropertyOp12
 70
     1
102
RTVSPropertyOp13
 70
     1
102
RTVSPropertyOp14
 70
     1
102
RTVSPropertyOp15
 70
     1
102
RTVSPropertyOp16
 70
     1
102
RTVSPropertyOp17
 70
     1
102
RTVSPropertyOp18
 70
     1
102
RTVSPropertyOp19
 70
     1
102
RTVSPropertyOp20
 70
     1
102
RTVSPropertyOp21
 70
     1
102
RTVSPropertyOp22
 70
     1
102
RTVSPropertyOp23
 70
     1
102
RTVSPropertyOp24
 70
     1
102
RTVSPropertyOp25
 70
     1
102
RTVSPropertyOp26
 70
     1
102
RTVSPropertyOp27
 70
     1
102
RTVSPropertyOp28
 70
     1
102
RTVSPropertyOp29
 70
     1
102
RTVSPropertyOp30
 70
     1
102
RTVSPropertyOp31
 70
     1
102
RTVSPropertyOp32
 70
     1
102
RTVSPropertyOp33
 70
     1
102
RTVSPropertyOp34
 70
     1
102
RTVSPropertyOp35
 70
     1
102
RTVSPropertyOp36
 70
     1
102
RTVSPropertyOp37
 70
     1
102
RTVSPropertyOp38
 70
     1
102
RTVSPropertyOp39
 70
     1
102
RTVSPropertyOp40
 70
     1
102
RTVSPropertyOp41
 70
     1
102
RTVSPropertyOp42
 70
     1
102
RTVSPropertyOp43
 70
     1
102
RTVSPropertyOp44
 70
     1
102
RTVSPropertyOp45
 70
     1
102
RTVSPropertyOp46
 70
     1
102
RTVSPropertyOp47
 70
     1
102
RTVSPropertyOp48
 70
     1
102
RTVSPropertyOp49
 70
     1
102
RTVSPropertyOp50
 70
     1
102
RTVSPropertyOp51
 70
     0
102
RTVSPropertyOp52
 70
     0
102
RTVSPropertyOp53
 70
     1
102
RTVSPropertyOp54
 70
     1
102
RTVSPropertyOp55
 70
     1
102
RTVSPropertyOp56
 70
     1
102
RTVSPropertyOp57
 70
     1
102
RTVSPropertyOp58
 70
     1
102
RTVSPropertyOp59
 70
     1
102
RTVSPropertyOp60
 70
     1
102
RTVSPropertyOp61
 70
     1
102
RTVSPropertyOp62
 70
     1
  0
XRECORD
  5
85A
102
{ACAD_REACTORS
330
859
102
}
330
859
100
AcDbXrecord
280
     1
102
RTVSPost2010Prop28
280
     0
102
RTVSPost2010PropOp28
 70
     1
102
RTVSPost2010Prop29
280
     1
102
RTVSPost2010PropOp29
 70
     1
102
RTVSPost2010Prop30
280
     1
102
RTVSPost2010PropOp30
 70
     1
102
RTVSPost2010Prop31
280
     0
102
RTVSPost2010PropOp31
 70
     1
102
RTVSPost2010Prop32
280
     0
102
RTVSPost2010PropOp32
 70
     1
102
RTVSPost2010Prop33
280
     0
102
RTVSPost2010PropOp33
 70
     1
102
RTVSPost2010Prop34
280
     0
102
RTVSPost2010PropOp34
 70
     1
102
RTVSPost2010Prop35
280
     0
102
RTVSPost2010PropOp35
 70
     1
102
RTVSPost2010Prop36
280
     0
102
RTVSPost2010PropOp36
 70
     1
102
RTVSPost2010Prop37
 90
       50
102
RTVSPost2010PropOp37
 70
     1
102
RTVSPost2010Prop38
140
0.0
102
RTVSPost2010PropOp38
 70
     1
102
RTVSPost2010Prop39
140
1.0
102
RTVSPost2010PropOp39
 70
     1
102
RTVSPost2010Prop40
 90
        0
102
RTVSPost2010PropOp40
 70
     1
102
RTVSPost2010Prop41ColorIndex
 90
       18
102
RTVSPost2010Prop41ColorRGB
 90
        0
102
RTVSPost2010PropOp41
 70
     1
102
RTVSPost2010Prop42
 90
       50
102
RTVSPost2010PropOp42
 70
     1
102
RTVSPost2010Prop43
 90
        3
102
RTVSPost2010PropOp43
 70
     1
102
RTVSPost2010Prop44ColorIndex
 90
        5
102
RTVSPost2010Prop44ColorRGB
 90
      255
102
RTVSPost2010PropOp44
 70
     1
102
RTVSPost2010Prop45
280
     0
102
RTVSPost2010PropOp45
 70
     1
102
RTVSPost2010Prop46
 90
       50
102
RTVSPost2010PropOp46
 70
     1
102
RTVSPost2010Prop47
 90
       50
102
RTVSPost2010PropOp47
 70
     1
102
RTVSPost2010Prop48
 90
       50
102
RTVSPost2010PropOp48
 70
     1
102
RTVSPost2010Prop49
280
     0
102
RTVSPost2010PropOp49
 70
     1
102
RTVSPost2010Prop50
 90
       50
102
RTVSPost2010PropOp50
 70
     1
102
RTVSPost2010Prop51ColorIndex
 90
      256
102
RTVSPost2010Prop51ColorRGB
 90
-16777216
102
RTVSPost2010PropOp51
 70
     0
102
RTVSPost2010Prop52
140
1.0
102
RTVSPost2010PropOp52
 70
     0
102
RTVSPost2010Prop53
 90
        2
102
RTVSPost2010PropOp53
 70
     1
102
RTVSPost2010Prop54
  1
strokes_ogs.tif
102
RTVSPost2010PropOp54
 70
     1
102
RTVSPost2010Prop55
280
     0
102
RTVSPost2010PropOp55
 70
     1
102
RTVSPost2010Prop56
140
1.0
102
RTVSPost2010PropOp56
 70
     1
102
RTVSPost2010Prop57
140
1.0
102
RTVSPost2010PropOp57
 70
     1
102
RTVSPropertyOp0
 70
     1
102
RTVSPropertyOp1
 70
     1
102
RTVSPropertyOp2
 70
     1
102
RTVSPropertyOp3
 70
     1
102
RTVSPropertyOp4
 70
     1
102
RTVSPropertyOp5
 70
     1
102
RTVSPropertyOp6
 70
     1
102
RTVSPropertyOp7
 70
     1
102
RTVSPropertyOp8
 70
     1
102
RTVSPropertyOp9
 70
     1
102
RTVSPropertyOp10
 70
     1
102
RTVSPropertyOp11
 70
     1
102
RTVSPropertyOp12
 70
     1
102
RTVSPropertyOp13
 70
     1
102
RTVSPropertyOp14
 70
     1
102
RTVSPropertyOp15
 70
     1
102
RTVSPropertyOp16
 70
     1
102
RTVSPropertyOp17
 70
     1
102
RTVSPropertyOp18
 70
     1
102
RTVSPropertyOp19
 70
     1
102
RTVSPropertyOp20
 70
     1
102
RTVSPropertyOp21
 70
     1
102
RTVSPropertyOp22
 70
     1
102
RTVSPropertyOp23
 70
     1
102
RTVSPropertyOp24
 70
     1
102
RTVSPropertyOp25
 70
     1
102
RTVSPropertyOp26
 70
     1
102
RTVSPropertyOp27
 70
     1
102
RTVSPropertyOp28
 70
     1
102
RTVSPropertyOp29
 70
     1
102
RTVSPropertyOp30
 70
     1
102
RTVSPropertyOp31
 70
     1
102
RTVSPropertyOp32
 70
     1
102
RTVSPropertyOp33
 70
     1
102
RTVSPropertyOp34
 70
     1
102
RTVSPropertyOp35
 70
     1
102
RTVSPropertyOp36
 70
     1
102
RTVSPropertyOp37
 70
     1
102
RTVSPropertyOp38
 70
     1
102
RTVSPropertyOp39
 70
     1
102
RTVSPropertyOp40
 70
     1
102
RTVSPropertyOp41
 70
     1
102
RTVSPropertyOp42
 70
     1
102
RTVSPropertyOp43
 70
     1
102
RTVSPropertyOp44
 70
     1
102
RTVSPropertyOp45
 70
     1
102
RTVSPropertyOp46
 70
     1
102
RTVSPropertyOp47
 70
     1
102
RTVSPropertyOp48
 70
     1
102
RTVSPropertyOp49
 70
     1
102
RTVSPropertyOp50
 70
     1
102
RTVSPropertyOp51
 70
     0
102
RTVSPropertyOp52
 70
     0
102
RTVSPropertyOp53
 70
     1
102
RTVSPropertyOp54
 70
     1
102
RTVSPropertyOp55
 70
     1
102
RTVSPropertyOp56
 70
     1
102
RTVSPropertyOp57
 70
     1
102
RTVSPropertyOp58
 70
     1
102
RTVSPropertyOp59
 70
     1
102
RTVSPropertyOp60
 70
     1
102
RTVSPropertyOp61
 70
     1
102
RTVSPropertyOp62
 70
     1
  0
XRECORD
  5
85E
102
{ACAD_REACTORS
330
85D
102
}
330
85D
100
AcDbXrecord
280
     1
102
RTVSPost2010Prop28
280
     0
102
RTVSPost2010PropOp28
 70
     1
102
RTVSPost2010Prop29
280
     1
102
RTVSPost2010PropOp29
 70
     1
102
RTVSPost2010Prop30
280
     1
102
RTVSPost2010PropOp30
 70
     1
102
RTVSPost2010Prop31
280
     0
102
RTVSPost2010PropOp31
 70
     1
102
RTVSPost2010Prop32
280
     0
102
RTVSPost2010PropOp32
 70
     1
102
RTVSPost2010Prop33
280
     0
102
RTVSPost2010PropOp33
 70
     1
102
RTVSPost2010Prop34
280
     0
102
RTVSPost2010PropOp34
 70
     1
102
RTVSPost2010Prop35
280
     0
102
RTVSPost2010PropOp35
 70
     1
102
RTVSPost2010Prop36
280
     0
102
RTVSPost2010PropOp36
 70
     1
102
RTVSPost2010Prop37
 90
       50
102
RTVSPost2010PropOp37
 70
     1
102
RTVSPost2010Prop38
140
0.0
102
RTVSPost2010PropOp38
 70
     1
102
RTVSPost2010Prop39
140
1.0
102
RTVSPost2010PropOp39
 70
     1
102
RTVSPost2010Prop40
 90
        0
102
RTVSPost2010PropOp40
 70
     1
102
RTVSPost2010Prop41ColorIndex
 90
       18
102
RTVSPost2010Prop41ColorRGB
 90
        0
102
RTVSPost2010PropOp41
 70
     1
102
RTVSPost2010Prop42
 90
       50
102
RTVSPost2010PropOp42
 70
     1
102
RTVSPost2010Prop43
 90
        3
102
RTVSPost2010PropOp43
 70
     1
102
RTVSPost2010Prop44ColorIndex
 90
        5
102
RTVSPost2010Prop44ColorRGB
 90
      255
102
RTVSPost2010PropOp44
 70
     1
102
RTVSPost2010Prop45
280
     0
102
RTVSPost2010PropOp45
 70
     1
102
RTVSPost2010Prop46
 90
       50
102
RTVSPost2010PropOp46
 70
     1
102
RTVSPost2010Prop47
 90
       50
102
RTVSPost2010PropOp47
 70
     1
102
RTVSPost2010Prop48
 90
       50
102
RTVSPost2010PropOp48
 70
     1
102
RTVSPost2010Prop49
280
     0
102
RTVSPost2010PropOp49
 70
     1
102
RTVSPost2010Prop50
 90
       50
102
RTVSPost2010PropOp50
 70
     1
102
RTVSPost2010Prop51ColorIndex
 90
      256
102
RTVSPost2010Prop51ColorRGB
 90
-16777216
102
RTVSPost2010PropOp51
 70
     0
102
RTVSPost2010Prop52
140
1.0
102
RTVSPost2010PropOp52
 70
     0
102
RTVSPost2010Prop53
 90
        2
102
RTVSPost2010PropOp53
 70
     1
102
RTVSPost2010Prop54
  1
strokes_ogs.tif
102
RTVSPost2010PropOp54
 70
     1
102
RTVSPost2010Prop55
280
     0
102
RTVSPost2010PropOp55
 70
     1
102
RTVSPost2010Prop56
140
1.0
102
RTVSPost2010PropOp56
 70
     1
102
RTVSPost2010Prop57
140
1.0
102
RTVSPost2010PropOp57
 70
     1
102
RTVSPropertyOp0
 70
     1
102
RTVSPropertyOp1
 70
     1
102
RTVSPropertyOp2
 70
     1
102
RTVSPropertyOp3
 70
     1
102
RTVSPropertyOp4
 70
     1
102
RTVSPropertyOp5
 70
     1
102
RTVSPropertyOp6
 70
     1
102
RTVSPropertyOp7
 70
     1
102
RTVSPropertyOp8
 70
     1
102
RTVSPropertyOp9
 70
     1
102
RTVSPropertyOp10
 70
     1
102
RTVSPropertyOp11
 70
     1
102
RTVSPropertyOp12
 70
     1
102
RTVSPropertyOp13
 70
     1
102
RTVSPropertyOp14
 70
     1
102
RTVSPropertyOp15
 70
     1
102
RTVSPropertyOp16
 70
     1
102
RTVSPropertyOp17
 70
     1
102
RTVSPropertyOp18
 70
     1
102
RTVSPropertyOp19
 70
     1
102
RTVSPropertyOp20
 70
     1
102
RTVSPropertyOp21
 70
     1
102
RTVSPropertyOp22
 70
     1
102
RTVSPropertyOp23
 70
     1
102
RTVSPropertyOp24
 70
     1
102
RTVSPropertyOp25
 70
     1
102
RTVSPropertyOp26
 70
     1
102
RTVSPropertyOp27
 70
     1
102
RTVSPropertyOp28
 70
     1
102
RTVSPropertyOp29
 70
     1
102
RTVSPropertyOp30
 70
     1
102
RTVSPropertyOp31
 70
     1
102
RTVSPropertyOp32
 70
     1
102
RTVSPropertyOp33
 70
     1
102
RTVSPropertyOp34
 70
     1
102
RTVSPropertyOp35
 70
     1
102
RTVSPropertyOp36
 70
     1
102
RTVSPropertyOp37
 70
     1
102
RTVSPropertyOp38
 70
     1
102
RTVSPropertyOp39
 70
     1
102
RTVSPropertyOp40
 70
     1
102
RTVSPropertyOp41
 70
     1
102
RTVSPropertyOp42
 70
     1
102
RTVSPropertyOp43
 70
     1
102
RTVSPropertyOp44
 70
     1
102
RTVSPropertyOp45
 70
     1
102
RTVSPropertyOp46
 70
     1
102
RTVSPropertyOp47
 70
     1
102
RTVSPropertyOp48
 70
     1
102
RTVSPropertyOp49
 70
     1
102
RTVSPropertyOp50
 70
     1
102
RTVSPropertyOp51
 70
     0
102
RTVSPropertyOp52
 70
     0
102
RTVSPropertyOp53
 70
     1
102
RTVSPropertyOp54
 70
     1
102
RTVSPropertyOp55
 70
     1
102
RTVSPropertyOp56
 70
     1
102
RTVSPropertyOp57
 70
     1
102
RTVSPropertyOp58
 70
     1
102
RTVSPropertyOp59
 70
     1
102
RTVSPropertyOp60
 70
     1
102
RTVSPropertyOp61
 70
     1
102
RTVSPropertyOp62
 70
     1
  0
XRECORD
  5
878
102
{ACAD_REACTORS
330
877
102
}
330
877
100
AcDbXrecord
280
     1
102
RTVSPost2010Prop28
280
     0
102
RTVSPost2010PropOp28
 70
     0
102
RTVSPost2010Prop29
280
     1
102
RTVSPost2010PropOp29
 70
     0
102
RTVSPost2010Prop30
280
     1
102
RTVSPost2010PropOp30
 70
     0
102
RTVSPost2010Prop31
280
     0
102
RTVSPost2010PropOp31
 70
     0
102
RTVSPost2010Prop32
280
     0
102
RTVSPost2010PropOp32
 70
     0
102
RTVSPost2010Prop33
280
     0
102
RTVSPost2010PropOp33
 70
     0
102
RTVSPost2010Prop34
280
     0
102
RTVSPost2010PropOp34
 70
     0
102
RTVSPost2010Prop35
280
     0
102
RTVSPost2010PropOp35
 70
     0
102
RTVSPost2010Prop36
280
     0
102
RTVSPost2010PropOp36
 70
     0
102
RTVSPost2010Prop37
 90
       50
102
RTVSPost2010PropOp37
 70
     0
102
RTVSPost2010Prop38
140
0.0
102
RTVSPost2010PropOp38
 70
     0
102
RTVSPost2010Prop39
140
1.0
102
RTVSPost2010PropOp39
 70
     0
102
RTVSPost2010Prop40
 90
        0
102
RTVSPost2010PropOp40
 70
     0
102
RTVSPost2010Prop41ColorIndex
 90
       18
102
RTVSPost2010Prop41ColorRGB
 90
        0
102
RTVSPost2010PropOp41
 70
     0
102
RTVSPost2010Prop42
 90
       50
102
RTVSPost2010PropOp42
 70
     0
102
RTVSPost2010Prop43
 90
        3
102
RTVSPost2010PropOp43
 70
     0
102
RTVSPost2010Prop44ColorIndex
 90
        5
102
RTVSPost2010Prop44ColorRGB
 90
      255
102
RTVSPost2010PropOp44
 70
     0
102
RTVSPost2010Prop45
280
     0
102
RTVSPost2010PropOp45
 70
     0
102
RTVSPost2010Prop46
 90
       50
102
RTVSPost2010PropOp46
 70
     0
102
RTVSPost2010Prop47
 90
       50
102
RTVSPost2010PropOp47
 70
     0
102
RTVSPost2010Prop48
 90
       50
102
RTVSPost2010PropOp48
 70
     0
102
RTVSPost2010Prop49
280
     0
102
RTVSPost2010PropOp49
 70
     0
102
RTVSPost2010Prop50
 90
       50
102
RTVSPost2010PropOp50
 70
     0
102
RTVSPost2010Prop51ColorIndex
 90
      256
102
RTVSPost2010Prop51ColorRGB
 90
-16777216
102
RTVSPost2010PropOp51
 70
     0
102
RTVSPost2010Prop52
140
1.0
102
RTVSPost2010PropOp52
 70
     0
102
RTVSPost2010Prop53
 90
        2
102
RTVSPost2010PropOp53
 70
     0
102
RTVSPost2010Prop54
  1
strokes_ogs.tif
102
RTVSPost2010PropOp54
 70
     0
102
RTVSPost2010Prop55
280
     0
102
RTVSPost2010PropOp55
 70
     0
102
RTVSPost2010Prop56
140
1.0
102
RTVSPost2010PropOp56
 70
     0
102
RTVSPost2010Prop57
140
1.0
102
RTVSPost2010PropOp57
 70
     0
102
RTVSPropertyOp0
 70
     0
102
RTVSPropertyOp1
 70
     0
102
RTVSPropertyOp2
 70
     0
102
RTVSPropertyOp3
 70
     0
102
RTVSPropertyOp4
 70
     0
102
RTVSPropertyOp5
 70
     0
102
RTVSPropertyOp6
 70
     0
102
RTVSPropertyOp7
 70
     0
102
RTVSPropertyOp8
 70
     0
102
RTVSPropertyOp9
 70
     0
102
RTVSPropertyOp10
 70
     0
102
RTVSPropertyOp11
 70
     0
102
RTVSPropertyOp12
 70
     0
102
RTVSPropertyOp13
 70
     0
102
RTVSPropertyOp14
 70
     2
102
RTVSPropertyOp15
 70
     0
102
RTVSPropertyOp16
 70
     0
102
RTVSPropertyOp17
 70
     0
102
RTVSPropertyOp18
 70
     0
102
RTVSPropertyOp19
 70
     0
102
RTVSPropertyOp20
 70
     0
102
RTVSPropertyOp21
 70
     0
102
RTVSPropertyOp22
 70
     0
102
RTVSPropertyOp23
 70
     0
102
RTVSPropertyOp24
 70
     0
102
RTVSPropertyOp25
 70
     0
102
RTVSPropertyOp26
 70
     0
102
RTVSPropertyOp27
 70
     0
102
RTVSPropertyOp28
 70
     0
102
RTVSPropertyOp29
 70
     0
102
RTVSPropertyOp30
 70
     0
102
RTVSPropertyOp31
 70
     0
102
RTVSPropertyOp32
 70
     0
102
RTVSPropertyOp33
 70
     0
102
RTVSPropertyOp34
 70
     0
102
RTVSPropertyOp35
 70
     0
102
RTVSPropertyOp36
 70
     0
102
RTVSPropertyOp37
 70
     0
102
RTVSPropertyOp38
 70
     0
102
RTVSPropertyOp39
 70
     0
102
RTVSPropertyOp40
 70
     0
102
RTVSPropertyOp41
 70
     0
102
RTVSPropertyOp42
 70
     0
102
RTVSPropertyOp43
 70
     0
102
RTVSPropertyOp44
 70
     0
102
RTVSPropertyOp45
 70
     0
102
RTVSPropertyOp46
 70
     0
102
RTVSPropertyOp47
 70
     0
102
RTVSPropertyOp48
 70
     0
102
RTVSPropertyOp49
 70
     0
102
RTVSPropertyOp50
 70
     0
102
RTVSPropertyOp51
 70
     0
102
RTVSPropertyOp52
 70
     0
102
RTVSPropertyOp53
 70
     0
102
RTVSPropertyOp54
 70
     0
102
RTVSPropertyOp55
 70
     0
102
RTVSPropertyOp56
 70
     0
102
RTVSPropertyOp57
 70
     0
102
RTVSPropertyOp58
 70
     0
102
RTVSPropertyOp59
 70
     0
102
RTVSPropertyOp60
 70
     0
102
RTVSPropertyOp61
 70
     0
102
RTVSPropertyOp62
 70
     0
  0
XRECORD
  5
866
102
{ACAD_REACTORS
330
865
102
}
330
865
100
AcDbXrecord
280
     1
102
RTVSPost2010Prop28
280
     0
102
RTVSPost2010PropOp28
 70
     1
102
RTVSPost2010Prop29
280
     1
102
RTVSPost2010PropOp29
 70
     1
102
RTVSPost2010Prop30
280
     1
102
RTVSPost2010PropOp30
 70
     1
102
RTVSPost2010Prop31
280
     0
102
RTVSPost2010PropOp31
 70
     1
102
RTVSPost2010Prop32
280
     0
102
RTVSPost2010PropOp32
 70
     1
102
RTVSPost2010Prop33
280
     0
102
RTVSPost2010PropOp33
 70
     1
102
RTVSPost2010Prop34
280
     0
102
RTVSPost2010PropOp34
 70
     1
102
RTVSPost2010Prop35
280
     0
102
RTVSPost2010PropOp35
 70
     1
102
RTVSPost2010Prop36
280
     0
102
RTVSPost2010PropOp36
 70
     1
102
RTVSPost2010Prop37
 90
       50
102
RTVSPost2010PropOp37
 70
     1
102
RTVSPost2010Prop38
140
0.0
102
RTVSPost2010PropOp38
 70
     1
102
RTVSPost2010Prop39
140
1.0
102
RTVSPost2010PropOp39
 70
     1
102
RTVSPost2010Prop40
 90
        0
102
RTVSPost2010PropOp40
 70
     1
102
RTVSPost2010Prop41ColorIndex
 90
       18
102
RTVSPost2010Prop41ColorRGB
 90
        0
102
RTVSPost2010PropOp41
 70
     1
102
RTVSPost2010Prop42
 90
       50
102
RTVSPost2010PropOp42
 70
     1
102
RTVSPost2010Prop43
 90
        3
102
RTVSPost2010PropOp43
 70
     1
102
RTVSPost2010Prop44ColorIndex
 90
        5
102
RTVSPost2010Prop44ColorRGB
 90
      255
102
RTVSPost2010PropOp44
 70
     1
102
RTVSPost2010Prop45
280
     0
102
RTVSPost2010PropOp45
 70
     1
102
RTVSPost2010Prop46
 90
       50
102
RTVSPost2010PropOp46
 70
     1
102
RTVSPost2010Prop47
 90
       50
102
RTVSPost2010PropOp47
 70
     1
102
RTVSPost2010Prop48
 90
       50
102
RTVSPost2010PropOp48
 70
     1
102
RTVSPost2010Prop49
280
     0
102
RTVSPost2010PropOp49
 70
     1
102
RTVSPost2010Prop50
 90
       50
102
RTVSPost2010PropOp50
 70
     1
102
RTVSPost2010Prop51ColorIndex
 90
      256
102
RTVSPost2010Prop51ColorRGB
 90
-16777216
102
RTVSPost2010PropOp51
 70
     0
102
RTVSPost2010Prop52
140
1.0
102
RTVSPost2010PropOp52
 70
     0
102
RTVSPost2010Prop53
 90
        2
102
RTVSPost2010PropOp53
 70
     1
102
RTVSPost2010Prop54
  1
strokes_ogs.tif
102
RTVSPost2010PropOp54
 70
     1
102
RTVSPost2010Prop55
280
     0
102
RTVSPost2010PropOp55
 70
     1
102
RTVSPost2010Prop56
140
1.0
102
RTVSPost2010PropOp56
 70
     1
102
RTVSPost2010Prop57
140
1.0
102
RTVSPost2010PropOp57
 70
     1
102
RTVSPropertyOp0
 70
     1
102
RTVSPropertyOp1
 70
     1
102
RTVSPropertyOp2
 70
     1
102
RTVSPropertyOp3
 70
     1
102
RTVSPropertyOp4
 70
     1
102
RTVSPropertyOp5
 70
     1
102
RTVSPropertyOp6
 70
     1
102
RTVSPropertyOp7
 70
     1
102
RTVSPropertyOp8
 70
     1
102
RTVSPropertyOp9
 70
     1
102
RTVSPropertyOp10
 70
     1
102
RTVSPropertyOp11
 70
     1
102
RTVSPropertyOp12
 70
     1
102
RTVSPropertyOp13
 70
     1
102
RTVSPropertyOp14
 70
     1
102
RTVSPropertyOp15
 70
     1
102
RTVSPropertyOp16
 70
     1
102
RTVSPropertyOp17
 70
     1
102
RTVSPropertyOp18
 70
     1
102
RTVSPropertyOp19
 70
     1
102
RTVSPropertyOp20
 70
     1
102
RTVSPropertyOp21
 70
     1
102
RTVSPropertyOp22
 70
     1
102
RTVSPropertyOp23
 70
     1
102
RTVSPropertyOp24
 70
     1
102
RTVSPropertyOp25
 70
     1
102
RTVSPropertyOp26
 70
     1
102
RTVSPropertyOp27
 70
     1
102
RTVSPropertyOp28
 70
     1
102
RTVSPropertyOp29
 70
     1
102
RTVSPropertyOp30
 70
     1
102
RTVSPropertyOp31
 70
     1
102
RTVSPropertyOp32
 70
     1
102
RTVSPropertyOp33
 70
     1
102
RTVSPropertyOp34
 70
     1
102
RTVSPropertyOp35
 70
     1
102
RTVSPropertyOp36
 70
     1
102
RTVSPropertyOp37
 70
     1
102
RTVSPropertyOp38
 70
     1
102
RTVSPropertyOp39
 70
     1
102
RTVSPropertyOp40
 70
     1
102
RTVSPropertyOp41
 70
     1
102
RTVSPropertyOp42
 70
     1
102
RTVSPropertyOp43
 70
     1
102
RTVSPropertyOp44
 70
     1
102
RTVSPropertyOp45
 70
     1
102
RTVSPropertyOp46
 70
     1
102
RTVSPropertyOp47
 70
     1
102
RTVSPropertyOp48
 70
     1
102
RTVSPropertyOp49
 70
     1
102
RTVSPropertyOp50
 70
     1
102
RTVSPropertyOp51
 70
     0
102
RTVSPropertyOp52
 70
     0
102
RTVSPropertyOp53
 70
     1
102
RTVSPropertyOp54
 70
     1
102
RTVSPropertyOp55
 70
     1
102
RTVSPropertyOp56
 70
     1
102
RTVSPropertyOp57
 70
     1
102
RTVSPropertyOp58
 70
     1
102
RTVSPropertyOp59
 70
     1
102
RTVSPropertyOp60
 70
     1
102
RTVSPropertyOp61
 70
     1
102
RTVSPropertyOp62
 70
     1
  0
XRECORD
  5
84A
102
{ACAD_REACTORS
330
849
102
}
330
849
100
AcDbXrecord
280
     1
102
RTVSPost2010Prop28
280
     0
102
RTVSPost2010PropOp28
 70
     1
102
RTVSPost2010Prop29
280
     1
102
RTVSPost2010PropOp29
 70
     1
102
RTVSPost2010Prop30
280
     1
102
RTVSPost2010PropOp30
 70
     1
102
RTVSPost2010Prop31
280
     0
102
RTVSPost2010PropOp31
 70
     1
102
RTVSPost2010Prop32
280
     0
102
RTVSPost2010PropOp32
 70
     1
102
RTVSPost2010Prop33
280
     0
102
RTVSPost2010PropOp33
 70
     1
102
RTVSPost2010Prop34
280
     0
102
RTVSPost2010PropOp34
 70
     1
102
RTVSPost2010Prop35
280
     0
102
RTVSPost2010PropOp35
 70
     1
102
RTVSPost2010Prop36
280
     0
102
RTVSPost2010PropOp36
 70
     1
102
RTVSPost2010Prop37
 90
       50
102
RTVSPost2010PropOp37
 70
     1
102
RTVSPost2010Prop38
140
0.0
102
RTVSPost2010PropOp38
 70
     1
102
RTVSPost2010Prop39
140
1.0
102
RTVSPost2010PropOp39
 70
     1
102
RTVSPost2010Prop40
 90
        0
102
RTVSPost2010PropOp40
 70
     1
102
RTVSPost2010Prop41ColorIndex
 90
       18
102
RTVSPost2010Prop41ColorRGB
 90
        0
102
RTVSPost2010PropOp41
 70
     1
102
RTVSPost2010Prop42
 90
       50
102
RTVSPost2010PropOp42
 70
     1
102
RTVSPost2010Prop43
 90
        3
102
RTVSPost2010PropOp43
 70
     1
102
RTVSPost2010Prop44ColorIndex
 90
        5
102
RTVSPost2010Prop44ColorRGB
 90
      255
102
RTVSPost2010PropOp44
 70
     1
102
RTVSPost2010Prop45
280
     0
102
RTVSPost2010PropOp45
 70
     1
102
RTVSPost2010Prop46
 90
       50
102
RTVSPost2010PropOp46
 70
     1
102
RTVSPost2010Prop47
 90
       50
102
RTVSPost2010PropOp47
 70
     1
102
RTVSPost2010Prop48
 90
       50
102
RTVSPost2010PropOp48
 70
     1
102
RTVSPost2010Prop49
280
     0
102
RTVSPost2010PropOp49
 70
     1
102
RTVSPost2010Prop50
 90
       50
102
RTVSPost2010PropOp50
 70
     1
102
RTVSPost2010Prop51ColorIndex
 90
      256
102
RTVSPost2010Prop51ColorRGB
 90
-16777216
102
RTVSPost2010PropOp51
 70
     0
102
RTVSPost2010Prop52
140
1.0
102
RTVSPost2010PropOp52
 70
     0
102
RTVSPost2010Prop53
 90
        2
102
RTVSPost2010PropOp53
 70
     1
102
RTVSPost2010Prop54
  1
strokes_ogs.tif
102
RTVSPost2010PropOp54
 70
     1
102
RTVSPost2010Prop55
280
     0
102
RTVSPost2010PropOp55
 70
     1
102
RTVSPost2010Prop56
140
1.0
102
RTVSPost2010PropOp56
 70
     1
102
RTVSPost2010Prop57
140
1.0
102
RTVSPost2010PropOp57
 70
     1
102
RTVSPropertyOp0
 70
     1
102
RTVSPropertyOp1
 70
     1
102
RTVSPropertyOp2
 70
     1
102
RTVSPropertyOp3
 70
     1
102
RTVSPropertyOp4
 70
     1
102
RTVSPropertyOp5
 70
     1
102
RTVSPropertyOp6
 70
     1
102
RTVSPropertyOp7
 70
     1
102
RTVSPropertyOp8
 70
     1
102
RTVSPropertyOp9
 70
     1
102
RTVSPropertyOp10
 70
     1
102
RTVSPropertyOp11
 70
     1
102
RTVSPropertyOp12
 70
     1
102
RTVSPropertyOp13
 70
     1
102
RTVSPropertyOp14
 70
     1
102
RTVSPropertyOp15
 70
     1
102
RTVSPropertyOp16
 70
     1
102
RTVSPropertyOp17
 70
     1
102
RTVSPropertyOp18
 70
     1
102
RTVSPropertyOp19
 70
     1
102
RTVSPropertyOp20
 70
     1
102
RTVSPropertyOp21
 70
     1
102
RTVSPropertyOp22
 70
     1
102
RTVSPropertyOp23
 70
     1
102
RTVSPropertyOp24
 70
     1
102
RTVSPropertyOp25
 70
     1
102
RTVSPropertyOp26
 70
     1
102
RTVSPropertyOp27
 70
     1
102
RTVSPropertyOp28
 70
     1
102
RTVSPropertyOp29
 70
     1
102
RTVSPropertyOp30
 70
     1
102
RTVSPropertyOp31
 70
     1
102
RTVSPropertyOp32
 70
     1
102
RTVSPropertyOp33
 70
     1
102
RTVSPropertyOp34
 70
     1
102
RTVSPropertyOp35
 70
     1
102
RTVSPropertyOp36
 70
     1
102
RTVSPropertyOp37
 70
     1
102
RTVSPropertyOp38
 70
     1
102
RTVSPropertyOp39
 70
     1
102
RTVSPropertyOp40
 70
     1
102
RTVSPropertyOp41
 70
     1
102
RTVSPropertyOp42
 70
     1
102
RTVSPropertyOp43
 70
     1
102
RTVSPropertyOp44
 70
     1
102
RTVSPropertyOp45
 70
     1
102
RTVSPropertyOp46
 70
     1
102
RTVSPropertyOp47
 70
     1
102
RTVSPropertyOp48
 70
     1
102
RTVSPropertyOp49
 70
     1
102
RTVSPropertyOp50
 70
     1
102
RTVSPropertyOp51
 70
     0
102
RTVSPropertyOp52
 70
     0
102
RTVSPropertyOp53
 70
     1
102
RTVSPropertyOp54
 70
     1
102
RTVSPropertyOp55
 70
     1
102
RTVSPropertyOp56
 70
     1
102
RTVSPropertyOp57
 70
     1
102
RTVSPropertyOp58
 70
     1
102
RTVSPropertyOp59
 70
     1
102
RTVSPropertyOp60
 70
     1
102
RTVSPropertyOp61
 70
     1
102
RTVSPropertyOp62
 70
     1
  0
XRECORD
  5
84C
102
{ACAD_REACTORS
330
84B
102
}
330
84B
100
AcDbXrecord
280
     1
102
RTVSPost2010Prop28
280
     0
102
RTVSPost2010PropOp28
 70
     1
102
RTVSPost2010Prop29
280
     1
102
RTVSPost2010PropOp29
 70
     1
102
RTVSPost2010Prop30
280
     1
102
RTVSPost2010PropOp30
 70
     1
102
RTVSPost2010Prop31
280
     0
102
RTVSPost2010PropOp31
 70
     1
102
RTVSPost2010Prop32
280
     0
102
RTVSPost2010PropOp32
 70
     1
102
RTVSPost2010Prop33
280
     0
102
RTVSPost2010PropOp33
 70
     1
102
RTVSPost2010Prop34
280
     0
102
RTVSPost2010PropOp34
 70
     1
102
RTVSPost2010Prop35
280
     0
102
RTVSPost2010PropOp35
 70
     1
102
RTVSPost2010Prop36
280
     0
102
RTVSPost2010PropOp36
 70
     1
102
RTVSPost2010Prop37
 90
       50
102
RTVSPost2010PropOp37
 70
     1
102
RTVSPost2010Prop38
140
0.0
102
RTVSPost2010PropOp38
 70
     1
102
RTVSPost2010Prop39
140
1.0
102
RTVSPost2010PropOp39
 70
     1
102
RTVSPost2010Prop40
 90
        0
102
RTVSPost2010PropOp40
 70
     1
102
RTVSPost2010Prop41ColorIndex
 90
       18
102
RTVSPost2010Prop41ColorRGB
 90
        0
102
RTVSPost2010PropOp41
 70
     1
102
RTVSPost2010Prop42
 90
       50
102
RTVSPost2010PropOp42
 70
     1
102
RTVSPost2010Prop43
 90
        3
102
RTVSPost2010PropOp43
 70
     1
102
RTVSPost2010Prop44ColorIndex
 90
        5
102
RTVSPost2010Prop44ColorRGB
 90
      255
102
RTVSPost2010PropOp44
 70
     1
102
RTVSPost2010Prop45
280
     0
102
RTVSPost2010PropOp45
 70
     1
102
RTVSPost2010Prop46
 90
       50
102
RTVSPost2010PropOp46
 70
     1
102
RTVSPost2010Prop47
 90
       50
102
RTVSPost2010PropOp47
 70
     1
102
RTVSPost2010Prop48
 90
       50
102
RTVSPost2010PropOp48
 70
     1
102
RTVSPost2010Prop49
280
     0
102
RTVSPost2010PropOp49
 70
     1
102
RTVSPost2010Prop50
 90
       50
102
RTVSPost2010PropOp50
 70
     1
102
RTVSPost2010Prop51ColorIndex
 90
      256
102
RTVSPost2010Prop51ColorRGB
 90
-16777216
102
RTVSPost2010PropOp51
 70
     0
102
RTVSPost2010Prop52
140
1.0
102
RTVSPost2010PropOp52
 70
     0
102
RTVSPost2010Prop53
 90
        2
102
RTVSPost2010PropOp53
 70
     1
102
RTVSPost2010Prop54
  1
strokes_ogs.tif
102
RTVSPost2010PropOp54
 70
     1
102
RTVSPost2010Prop55
280
     0
102
RTVSPost2010PropOp55
 70
     1
102
RTVSPost2010Prop56
140
1.0
102
RTVSPost2010PropOp56
 70
     1
102
RTVSPost2010Prop57
140
1.0
102
RTVSPost2010PropOp57
 70
     1
102
RTVSPropertyOp0
 70
     1
102
RTVSPropertyOp1
 70
     1
102
RTVSPropertyOp2
 70
     1
102
RTVSPropertyOp3
 70
     1
102
RTVSPropertyOp4
 70
     1
102
RTVSPropertyOp5
 70
     1
102
RTVSPropertyOp6
 70
     1
102
RTVSPropertyOp7
 70
     1
102
RTVSPropertyOp8
 70
     1
102
RTVSPropertyOp9
 70
     1
102
RTVSPropertyOp10
 70
     1
102
RTVSPropertyOp11
 70
     1
102
RTVSPropertyOp12
 70
     1
102
RTVSPropertyOp13
 70
     1
102
RTVSPropertyOp14
 70
     1
102
RTVSPropertyOp15
 70
     1
102
RTVSPropertyOp16
 70
     1
102
RTVSPropertyOp17
 70
     1
102
RTVSPropertyOp18
 70
     1
102
RTVSPropertyOp19
 70
     1
102
RTVSPropertyOp20
 70
     1
102
RTVSPropertyOp21
 70
     1
102
RTVSPropertyOp22
 70
     1
102
RTVSPropertyOp23
 70
     1
102
RTVSPropertyOp24
 70
     1
102
RTVSPropertyOp25
 70
     1
102
RTVSPropertyOp26
 70
     1
102
RTVSPropertyOp27
 70
     1
102
RTVSPropertyOp28
 70
     1
102
RTVSPropertyOp29
 70
     1
102
RTVSPropertyOp30
 70
     1
102
RTVSPropertyOp31
 70
     1
102
RTVSPropertyOp32
 70
     1
102
RTVSPropertyOp33
 70
     1
102
RTVSPropertyOp34
 70
     1
102
RTVSPropertyOp35
 70
     1
102
RTVSPropertyOp36
 70
     1
102
RTVSPropertyOp37
 70
     1
102
RTVSPropertyOp38
 70
     1
102
RTVSPropertyOp39
 70
     1
102
RTVSPropertyOp40
 70
     1
102
RTVSPropertyOp41
 70
     1
102
RTVSPropertyOp42
 70
     1
102
RTVSPropertyOp43
 70
     1
102
RTVSPropertyOp44
 70
     1
102
RTVSPropertyOp45
 70
     1
102
RTVSPropertyOp46
 70
     1
102
RTVSPropertyOp47
 70
     1
102
RTVSPropertyOp48
 70
     1
102
RTVSPropertyOp49
 70
     1
102
RTVSPropertyOp50
 70
     1
102
RTVSPropertyOp51
 70
     0
102
RTVSPropertyOp52
 70
     0
102
RTVSPropertyOp53
 70
     1
102
RTVSPropertyOp54
 70
     1
102
RTVSPropertyOp55
 70
     1
102
RTVSPropertyOp56
 70
     1
102
RTVSPropertyOp57
 70
     1
102
RTVSPropertyOp58
 70
     1
102
RTVSPropertyOp59
 70
     1
102
RTVSPropertyOp60
 70
     1
102
RTVSPropertyOp61
 70
     1
102
RTVSPropertyOp62
 70
     1
  0
XRECORD
  5
84E
102
{ACAD_REACTORS
330
84D
102
}
330
84D
100
AcDbXrecord
280
     1
102
RTVSPost2010Prop28
280
     0
102
RTVSPost2010PropOp28
 70
     1
102
RTVSPost2010Prop29
280
     1
102
RTVSPost2010PropOp29
 70
     1
102
RTVSPost2010Prop30
280
     1
102
RTVSPost2010PropOp30
 70
     1
102
RTVSPost2010Prop31
280
     0
102
RTVSPost2010PropOp31
 70
     1
102
RTVSPost2010Prop32
280
     0
102
RTVSPost2010PropOp32
 70
     1
102
RTVSPost2010Prop33
280
     0
102
RTVSPost2010PropOp33
 70
     1
102
RTVSPost2010Prop34
280
     0
102
RTVSPost2010PropOp34
 70
     1
102
RTVSPost2010Prop35
280
     0
102
RTVSPost2010PropOp35
 70
     1
102
RTVSPost2010Prop36
280
     0
102
RTVSPost2010PropOp36
 70
     1
102
RTVSPost2010Prop37
 90
       50
102
RTVSPost2010PropOp37
 70
     1
102
RTVSPost2010Prop38
140
0.0
102
RTVSPost2010PropOp38
 70
     1
102
RTVSPost2010Prop39
140
1.0
102
RTVSPost2010PropOp39
 70
     1
102
RTVSPost2010Prop40
 90
        0
102
RTVSPost2010PropOp40
 70
     1
102
RTVSPost2010Prop41ColorIndex
 90
       18
102
RTVSPost2010Prop41ColorRGB
 90
        0
102
RTVSPost2010PropOp41
 70
     1
102
RTVSPost2010Prop42
 90
       50
102
RTVSPost2010PropOp42
 70
     1
102
RTVSPost2010Prop43
 90
        3
102
RTVSPost2010PropOp43
 70
     1
102
RTVSPost2010Prop44ColorIndex
 90
        5
102
RTVSPost2010Prop44ColorRGB
 90
      255
102
RTVSPost2010PropOp44
 70
     1
102
RTVSPost2010Prop45
280
     0
102
RTVSPost2010PropOp45
 70
     1
102
RTVSPost2010Prop46
 90
       50
102
RTVSPost2010PropOp46
 70
     1
102
RTVSPost2010Prop47
 90
       50
102
RTVSPost2010PropOp47
 70
     1
102
RTVSPost2010Prop48
 90
       50
102
RTVSPost2010PropOp48
 70
     1
102
RTVSPost2010Prop49
280
     0
102
RTVSPost2010PropOp49
 70
     1
102
RTVSPost2010Prop50
 90
       50
102
RTVSPost2010PropOp50
 70
     1
102
RTVSPost2010Prop51ColorIndex
 90
      256
102
RTVSPost2010Prop51ColorRGB
 90
-16777216
102
RTVSPost2010PropOp51
 70
     0
102
RTVSPost2010Prop52
140
1.0
102
RTVSPost2010PropOp52
 70
     0
102
RTVSPost2010Prop53
 90
        2
102
RTVSPost2010PropOp53
 70
     1
102
RTVSPost2010Prop54
  1
strokes_ogs.tif
102
RTVSPost2010PropOp54
 70
     1
102
RTVSPost2010Prop55
280
     0
102
RTVSPost2010PropOp55
 70
     1
102
RTVSPost2010Prop56
140
1.0
102
RTVSPost2010PropOp56
 70
     1
102
RTVSPost2010Prop57
140
1.0
102
RTVSPost2010PropOp57
 70
     1
102
RTVSPropertyOp0
 70
     1
102
RTVSPropertyOp1
 70
     1
102
RTVSPropertyOp2
 70
     1
102
RTVSPropertyOp3
 70
     1
102
RTVSPropertyOp4
 70
     1
102
RTVSPropertyOp5
 70
     1
102
RTVSPropertyOp6
 70
     1
102
RTVSPropertyOp7
 70
     1
102
RTVSPropertyOp8
 70
     1
102
RTVSPropertyOp9
 70
     1
102
RTVSPropertyOp10
 70
     1
102
RTVSPropertyOp11
 70
     1
102
RTVSPropertyOp12
 70
     1
102
RTVSPropertyOp13
 70
     1
102
RTVSPropertyOp14
 70
     1
102
RTVSPropertyOp15
 70
     1
102
RTVSPropertyOp16
 70
     1
102
RTVSPropertyOp17
 70
     1
102
RTVSPropertyOp18
 70
     1
102
RTVSPropertyOp19
 70
     1
102
RTVSPropertyOp20
 70
     1
102
RTVSPropertyOp21
 70
     1
102
RTVSPropertyOp22
 70
     1
102
RTVSPropertyOp23
 70
     1
102
RTVSPropertyOp24
 70
     1
102
RTVSPropertyOp25
 70
     1
102
RTVSPropertyOp26
 70
     1
102
RTVSPropertyOp27
 70
     1
102
RTVSPropertyOp28
 70
     1
102
RTVSPropertyOp29
 70
     1
102
RTVSPropertyOp30
 70
     1
102
RTVSPropertyOp31
 70
     1
102
RTVSPropertyOp32
 70
     1
102
RTVSPropertyOp33
 70
     1
102
RTVSPropertyOp34
 70
     1
102
RTVSPropertyOp35
 70
     1
102
RTVSPropertyOp36
 70
     1
102
RTVSPropertyOp37
 70
     1
102
RTVSPropertyOp38
 70
     1
102
RTVSPropertyOp39
 70
     1
102
RTVSPropertyOp40
 70
     1
102
RTVSPropertyOp41
 70
     1
102
RTVSPropertyOp42
 70
     1
102
RTVSPropertyOp43
 70
     1
102
RTVSPropertyOp44
 70
     1
102
RTVSPropertyOp45
 70
     1
102
RTVSPropertyOp46
 70
     1
102
RTVSPropertyOp47
 70
     1
102
RTVSPropertyOp48
 70
     1
102
RTVSPropertyOp49
 70
     1
102
RTVSPropertyOp50
 70
     1
102
RTVSPropertyOp51
 70
     0
102
RTVSPropertyOp52
 70
     0
102
RTVSPropertyOp53
 70
     1
102
RTVSPropertyOp54
 70
     1
102
RTVSPropertyOp55
 70
     1
102
RTVSPropertyOp56
 70
     1
102
RTVSPropertyOp57
 70
     1
102
RTVSPropertyOp58
 70
     1
102
RTVSPropertyOp59
 70
     1
102
RTVSPropertyOp60
 70
     1
102
RTVSPropertyOp61
 70
     1
102
RTVSPropertyOp62
 70
     1
  0
XRECORD
  5
850
102
{ACAD_REACTORS
330
84F
102
}
330
84F
100
AcDbXrecord
280
     1
102
RTVSPost2010Prop28
280
     0
102
RTVSPost2010PropOp28
 70
     1
102
RTVSPost2010Prop29
280
     1
102
RTVSPost2010PropOp29
 70
     1
102
RTVSPost2010Prop30
280
     1
102
RTVSPost2010PropOp30
 70
     1
102
RTVSPost2010Prop31
280
     0
102
RTVSPost2010PropOp31
 70
     1
102
RTVSPost2010Prop32
280
     0
102
RTVSPost2010PropOp32
 70
     1
102
RTVSPost2010Prop33
280
     0
102
RTVSPost2010PropOp33
 70
     1
102
RTVSPost2010Prop34
280
     0
102
RTVSPost2010PropOp34
 70
     1
102
RTVSPost2010Prop35
280
     0
102
RTVSPost2010PropOp35
 70
     1
102
RTVSPost2010Prop36
280
     0
102
RTVSPost2010PropOp36
 70
     1
102
RTVSPost2010Prop37
 90
       50
102
RTVSPost2010PropOp37
 70
     1
102
RTVSPost2010Prop38
140
0.0
102
RTVSPost2010PropOp38
 70
     1
102
RTVSPost2010Prop39
140
1.0
102
RTVSPost2010PropOp39
 70
     1
102
RTVSPost2010Prop40
 90
        0
102
RTVSPost2010PropOp40
 70
     1
102
RTVSPost2010Prop41ColorIndex
 90
       18
102
RTVSPost2010Prop41ColorRGB
 90
        0
102
RTVSPost2010PropOp41
 70
     1
102
RTVSPost2010Prop42
 90
       50
102
RTVSPost2010PropOp42
 70
     1
102
RTVSPost2010Prop43
 90
        3
102
RTVSPost2010PropOp43
 70
     1
102
RTVSPost2010Prop44ColorIndex
 90
        5
102
RTVSPost2010Prop44ColorRGB
 90
      255
102
RTVSPost2010PropOp44
 70
     1
102
RTVSPost2010Prop45
280
     0
102
RTVSPost2010PropOp45
 70
     1
102
RTVSPost2010Prop46
 90
       50
102
RTVSPost2010PropOp46
 70
     1
102
RTVSPost2010Prop47
 90
       50
102
RTVSPost2010PropOp47
 70
     1
102
RTVSPost2010Prop48
 90
       50
102
RTVSPost2010PropOp48
 70
     1
102
RTVSPost2010Prop49
280
     0
102
RTVSPost2010PropOp49
 70
     1
102
RTVSPost2010Prop50
 90
       50
102
RTVSPost2010PropOp50
 70
     1
102
RTVSPost2010Prop51ColorIndex
 90
      256
102
RTVSPost2010Prop51ColorRGB
 90
-16777216
102
RTVSPost2010PropOp51
 70
     0
102
RTVSPost2010Prop52
140
1.0
102
RTVSPost2010PropOp52
 70
     0
102
RTVSPost2010Prop53
 90
        2
102
RTVSPost2010PropOp53
 70
     1
102
RTVSPost2010Prop54
  1
strokes_ogs.tif
102
RTVSPost2010PropOp54
 70
     1
102
RTVSPost2010Prop55
280
     0
102
RTVSPost2010PropOp55
 70
     1
102
RTVSPost2010Prop56
140
1.0
102
RTVSPost2010PropOp56
 70
     1
102
RTVSPost2010Prop57
140
1.0
102
RTVSPost2010PropOp57
 70
     1
102
RTVSPropertyOp0
 70
     1
102
RTVSPropertyOp1
 70
     1
102
RTVSPropertyOp2
 70
     1
102
RTVSPropertyOp3
 70
     1
102
RTVSPropertyOp4
 70
     1
102
RTVSPropertyOp5
 70
     1
102
RTVSPropertyOp6
 70
     1
102
RTVSPropertyOp7
 70
     1
102
RTVSPropertyOp8
 70
     1
102
RTVSPropertyOp9
 70
     1
102
RTVSPropertyOp10
 70
     1
102
RTVSPropertyOp11
 70
     1
102
RTVSPropertyOp12
 70
     1
102
RTVSPropertyOp13
 70
     1
102
RTVSPropertyOp14
 70
     1
102
RTVSPropertyOp15
 70
     1
102
RTVSPropertyOp16
 70
     1
102
RTVSPropertyOp17
 70
     1
102
RTVSPropertyOp18
 70
     1
102
RTVSPropertyOp19
 70
     1
102
RTVSPropertyOp20
 70
     1
102
RTVSPropertyOp21
 70
     1
102
RTVSPropertyOp22
 70
     1
102
RTVSPropertyOp23
 70
     1
102
RTVSPropertyOp24
 70
     1
102
RTVSPropertyOp25
 70
     1
102
RTVSPropertyOp26
 70
     1
102
RTVSPropertyOp27
 70
     1
102
RTVSPropertyOp28
 70
     1
102
RTVSPropertyOp29
 70
     1
102
RTVSPropertyOp30
 70
     1
102
RTVSPropertyOp31
 70
     1
102
RTVSPropertyOp32
 70
     1
102
RTVSPropertyOp33
 70
     1
102
RTVSPropertyOp34
 70
     1
102
RTVSPropertyOp35
 70
     1
102
RTVSPropertyOp36
 70
     1
102
RTVSPropertyOp37
 70
     1
102
RTVSPropertyOp38
 70
     1
102
RTVSPropertyOp39
 70
     1
102
RTVSPropertyOp40
 70
     1
102
RTVSPropertyOp41
 70
     1
102
RTVSPropertyOp42
 70
     1
102
RTVSPropertyOp43
 70
     1
102
RTVSPropertyOp44
 70
     1
102
RTVSPropertyOp45
 70
     1
102
RTVSPropertyOp46
 70
     1
102
RTVSPropertyOp47
 70
     1
102
RTVSPropertyOp48
 70
     1
102
RTVSPropertyOp49
 70
     1
102
RTVSPropertyOp50
 70
     1
102
RTVSPropertyOp51
 70
     0
102
RTVSPropertyOp52
 70
     0
102
RTVSPropertyOp53
 70
     1
102
RTVSPropertyOp54
 70
     1
102
RTVSPropertyOp55
 70
     1
102
RTVSPropertyOp56
 70
     1
102
RTVSPropertyOp57
 70
     1
102
RTVSPropertyOp58
 70
     1
102
RTVSPropertyOp59
 70
     1
102
RTVSPropertyOp60
 70
     1
102
RTVSPropertyOp61
 70
     1
102
RTVSPropertyOp62
 70
     1
  0
XRECORD
  5
858
102
{ACAD_REACTORS
330
857
102
}
330
857
100
AcDbXrecord
280
     1
102
RTVSPost2010Prop28
280
     0
102
RTVSPost2010PropOp28
 70
     1
102
RTVSPost2010Prop29
280
     1
102
RTVSPost2010PropOp29
 70
     1
102
RTVSPost2010Prop30
280
     1
102
RTVSPost2010PropOp30
 70
     1
102
RTVSPost2010Prop31
280
     0
102
RTVSPost2010PropOp31
 70
     1
102
RTVSPost2010Prop32
280
     0
102
RTVSPost2010PropOp32
 70
     1
102
RTVSPost2010Prop33
280
     0
102
RTVSPost2010PropOp33
 70
     1
102
RTVSPost2010Prop34
280
     0
102
RTVSPost2010PropOp34
 70
     1
102
RTVSPost2010Prop35
280
     0
102
RTVSPost2010PropOp35
 70
     1
102
RTVSPost2010Prop36
280
     0
102
RTVSPost2010PropOp36
 70
     1
102
RTVSPost2010Prop37
 90
       50
102
RTVSPost2010PropOp37
 70
     1
102
RTVSPost2010Prop38
140
0.0
102
RTVSPost2010PropOp38
 70
     1
102
RTVSPost2010Prop39
140
1.0
102
RTVSPost2010PropOp39
 70
     1
102
RTVSPost2010Prop40
 90
        0
102
RTVSPost2010PropOp40
 70
     1
102
RTVSPost2010Prop41ColorIndex
 90
       18
102
RTVSPost2010Prop41ColorRGB
 90
        0
102
RTVSPost2010PropOp41
 70
     1
102
RTVSPost2010Prop42
 90
       50
102
RTVSPost2010PropOp42
 70
     1
102
RTVSPost2010Prop43
 90
        3
102
RTVSPost2010PropOp43
 70
     1
102
RTVSPost2010Prop44ColorIndex
 90
        5
102
RTVSPost2010Prop44ColorRGB
 90
      255
102
RTVSPost2010PropOp44
 70
     1
102
RTVSPost2010Prop45
280
     0
102
RTVSPost2010PropOp45
 70
     1
102
RTVSPost2010Prop46
 90
       50
102
RTVSPost2010PropOp46
 70
     1
102
RTVSPost2010Prop47
 90
       50
102
RTVSPost2010PropOp47
 70
     1
102
RTVSPost2010Prop48
 90
       50
102
RTVSPost2010PropOp48
 70
     1
102
RTVSPost2010Prop49
280
     0
102
RTVSPost2010PropOp49
 70
     1
102
RTVSPost2010Prop50
 90
       50
102
RTVSPost2010PropOp50
 70
     1
102
RTVSPost2010Prop51ColorIndex
 90
      256
102
RTVSPost2010Prop51ColorRGB
 90
-16777216
102
RTVSPost2010PropOp51
 70
     0
102
RTVSPost2010Prop52
140
1.0
102
RTVSPost2010PropOp52
 70
     0
102
RTVSPost2010Prop53
 90
        2
102
RTVSPost2010PropOp53
 70
     1
102
RTVSPost2010Prop54
  1
strokes_ogs.tif
102
RTVSPost2010PropOp54
 70
     1
102
RTVSPost2010Prop55
280
     0
102
RTVSPost2010PropOp55
 70
     1
102
RTVSPost2010Prop56
140
1.0
102
RTVSPost2010PropOp56
 70
     1
102
RTVSPost2010Prop57
140
1.0
102
RTVSPost2010PropOp57
 70
     1
102
RTVSPropertyOp0
 70
     1
102
RTVSPropertyOp1
 70
     1
102
RTVSPropertyOp2
 70
     1
102
RTVSPropertyOp3
 70
     1
102
RTVSPropertyOp4
 70
     1
102
RTVSPropertyOp5
 70
     1
102
RTVSPropertyOp6
 70
     1
102
RTVSPropertyOp7
 70
     1
102
RTVSPropertyOp8
 70
     1
102
RTVSPropertyOp9
 70
     1
102
RTVSPropertyOp10
 70
     1
102
RTVSPropertyOp11
 70
     1
102
RTVSPropertyOp12
 70
     1
102
RTVSPropertyOp13
 70
     1
102
RTVSPropertyOp14
 70
     1
102
RTVSPropertyOp15
 70
     1
102
RTVSPropertyOp16
 70
     1
102
RTVSPropertyOp17
 70
     1
102
RTVSPropertyOp18
 70
     1
102
RTVSPropertyOp19
 70
     1
102
RTVSPropertyOp20
 70
     1
102
RTVSPropertyOp21
 70
     1
102
RTVSPropertyOp22
 70
     1
102
RTVSPropertyOp23
 70
     1
102
RTVSPropertyOp24
 70
     1
102
RTVSPropertyOp25
 70
     1
102
RTVSPropertyOp26
 70
     1
102
RTVSPropertyOp27
 70
     1
102
RTVSPropertyOp28
 70
     1
102
RTVSPropertyOp29
 70
     1
102
RTVSPropertyOp30
 70
     1
102
RTVSPropertyOp31
 70
     1
102
RTVSPropertyOp32
 70
     1
102
RTVSPropertyOp33
 70
     1
102
RTVSPropertyOp34
 70
     1
102
RTVSPropertyOp35
 70
     1
102
RTVSPropertyOp36
 70
     1
102
RTVSPropertyOp37
 70
     1
102
RTVSPropertyOp38
 70
     1
102
RTVSPropertyOp39
 70
     1
102
RTVSPropertyOp40
 70
     1
102
RTVSPropertyOp41
 70
     1
102
RTVSPropertyOp42
 70
     1
102
RTVSPropertyOp43
 70
     1
102
RTVSPropertyOp44
 70
     1
102
RTVSPropertyOp45
 70
     1
102
RTVSPropertyOp46
 70
     1
102
RTVSPropertyOp47
 70
     1
102
RTVSPropertyOp48
 70
     1
102
RTVSPropertyOp49
 70
     1
102
RTVSPropertyOp50
 70
     1
102
RTVSPropertyOp51
 70
     0
102
RTVSPropertyOp52
 70
     0
102
RTVSPropertyOp53
 70
     1
102
RTVSPropertyOp54
 70
     1
102
RTVSPropertyOp55
 70
     1
102
RTVSPropertyOp56
 70
     1
102
RTVSPropertyOp57
 70
     1
102
RTVSPropertyOp58
 70
     1
102
RTVSPropertyOp59
 70
     1
102
RTVSPropertyOp60
 70
     1
102
RTVSPropertyOp61
 70
     1
102
RTVSPropertyOp62
 70
     1
  0
XRECORD
  5
874
102
{ACAD_REACTORS
330
873
102
}
330
873
100
AcDbXrecord
280
     1
102
RTVSPost2010Prop28
280
     0
102
RTVSPost2010PropOp28
 70
     0
102
RTVSPost2010Prop29
280
     1
102
RTVSPost2010PropOp29
 70
     0
102
RTVSPost2010Prop30
280
     1
102
RTVSPost2010PropOp30
 70
     0
102
RTVSPost2010Prop31
280
     0
102
RTVSPost2010PropOp31
 70
     0
102
RTVSPost2010Prop32
280
     0
102
RTVSPost2010PropOp32
 70
     0
102
RTVSPost2010Prop33
280
     0
102
RTVSPost2010PropOp33
 70
     0
102
RTVSPost2010Prop34
280
     0
102
RTVSPost2010PropOp34
 70
     0
102
RTVSPost2010Prop35
280
     0
102
RTVSPost2010PropOp35
 70
     0
102
RTVSPost2010Prop36
280
     0
102
RTVSPost2010PropOp36
 70
     0
102
RTVSPost2010Prop37
 90
       50
102
RTVSPost2010PropOp37
 70
     0
102
RTVSPost2010Prop38
140
0.0
102
RTVSPost2010PropOp38
 70
     0
102
RTVSPost2010Prop39
140
1.0
102
RTVSPost2010PropOp39
 70
     0
102
RTVSPost2010Prop40
 90
        0
102
RTVSPost2010PropOp40
 70
     0
102
RTVSPost2010Prop41ColorIndex
 90
       18
102
RTVSPost2010Prop41ColorRGB
 90
        0
102
RTVSPost2010PropOp41
 70
     0
102
RTVSPost2010Prop42
 90
       50
102
RTVSPost2010PropOp42
 70
     0
102
RTVSPost2010Prop43
 90
        3
102
RTVSPost2010PropOp43
 70
     0
102
RTVSPost2010Prop44ColorIndex
 90
        5
102
RTVSPost2010Prop44ColorRGB
 90
      255
102
RTVSPost2010PropOp44
 70
     0
102
RTVSPost2010Prop45
280
     0
102
RTVSPost2010PropOp45
 70
     0
102
RTVSPost2010Prop46
 90
       50
102
RTVSPost2010PropOp46
 70
     0
102
RTVSPost2010Prop47
 90
       50
102
RTVSPost2010PropOp47
 70
     0
102
RTVSPost2010Prop48
 90
       50
102
RTVSPost2010PropOp48
 70
     0
102
RTVSPost2010Prop49
280
     0
102
RTVSPost2010PropOp49
 70
     0
102
RTVSPost2010Prop50
 90
       50
102
RTVSPost2010PropOp50
 70
     0
102
RTVSPost2010Prop51ColorIndex
 90
      256
102
RTVSPost2010Prop51ColorRGB
 90
-16777216
102
RTVSPost2010PropOp51
 70
     0
102
RTVSPost2010Prop52
140
1.0
102
RTVSPost2010PropOp52
 70
     0
102
RTVSPost2010Prop53
 90
        2
102
RTVSPost2010PropOp53
 70
     0
102
RTVSPost2010Prop54
  1
strokes_ogs.tif
102
RTVSPost2010PropOp54
 70
     0
102
RTVSPost2010Prop55
280
     0
102
RTVSPost2010PropOp55
 70
     0
102
RTVSPost2010Prop56
140
1.0
102
RTVSPost2010PropOp56
 70
     0
102
RTVSPost2010Prop57
140
1.0
102
RTVSPost2010PropOp57
 70
     0
102
RTVSPropertyOp0
 70
     0
102
RTVSPropertyOp1
 70
     0
102
RTVSPropertyOp2
 70
     0
102
RTVSPropertyOp3
 70
     0
102
RTVSPropertyOp4
 70
     0
102
RTVSPropertyOp5
 70
     0
102
RTVSPropertyOp6
 70
     0
102
RTVSPropertyOp7
 70
     0
102
RTVSPropertyOp8
 70
     0
102
RTVSPropertyOp9
 70
     0
102
RTVSPropertyOp10
 70
     0
102
RTVSPropertyOp11
 70
     0
102
RTVSPropertyOp12
 70
     0
102
RTVSPropertyOp13
 70
     0
102
RTVSPropertyOp14
 70
     2
102
RTVSPropertyOp15
 70
     0
102
RTVSPropertyOp16
 70
     0
102
RTVSPropertyOp17
 70
     0
102
RTVSPropertyOp18
 70
     0
102
RTVSPropertyOp19
 70
     0
102
RTVSPropertyOp20
 70
     0
102
RTVSPropertyOp21
 70
     0
102
RTVSPropertyOp22
 70
     0
102
RTVSPropertyOp23
 70
     0
102
RTVSPropertyOp24
 70
     0
102
RTVSPropertyOp25
 70
     0
102
RTVSPropertyOp26
 70
     0
102
RTVSPropertyOp27
 70
     0
102
RTVSPropertyOp28
 70
     0
102
RTVSPropertyOp29
 70
     0
102
RTVSPropertyOp30
 70
     0
102
RTVSPropertyOp31
 70
     0
102
RTVSPropertyOp32
 70
     0
102
RTVSPropertyOp33
 70
     0
102
RTVSPropertyOp34
 70
     0
102
RTVSPropertyOp35
 70
     0
102
RTVSPropertyOp36
 70
     0
102
RTVSPropertyOp37
 70
     0
102
RTVSPropertyOp38
 70
     0
102
RTVSPropertyOp39
 70
     0
102
RTVSPropertyOp40
 70
     0
102
RTVSPropertyOp41
 70
     0
102
RTVSPropertyOp42
 70
     0
102
RTVSPropertyOp43
 70
     0
102
RTVSPropertyOp44
 70
     0
102
RTVSPropertyOp45
 70
     0
102
RTVSPropertyOp46
 70
     0
102
RTVSPropertyOp47
 70
     0
102
RTVSPropertyOp48
 70
     0
102
RTVSPropertyOp49
 70
     0
102
RTVSPropertyOp50
 70
     0
102
RTVSPropertyOp51
 70
     0
102
RTVSPropertyOp52
 70
     0
102
RTVSPropertyOp53
 70
     0
102
RTVSPropertyOp54
 70
     0
102
RTVSPropertyOp55
 70
     0
102
RTVSPropertyOp56
 70
     0
102
RTVSPropertyOp57
 70
     0
102
RTVSPropertyOp58
 70
     0
102
RTVSPropertyOp59
 70
     0
102
RTVSPropertyOp60
 70
     0
102
RTVSPropertyOp61
 70
     0
102
RTVSPropertyOp62
 70
     0
  0
XRECORD
  5
864
102
{ACAD_REACTORS
330
863
102
}
330
863
100
AcDbXrecord
280
     1
102
RTVSPost2010Prop28
280
     0
102
RTVSPost2010PropOp28
 70
     1
102
RTVSPost2010Prop29
280
     1
102
RTVSPost2010PropOp29
 70
     1
102
RTVSPost2010Prop30
280
     1
102
RTVSPost2010PropOp30
 70
     1
102
RTVSPost2010Prop31
280
     0
102
RTVSPost2010PropOp31
 70
     1
102
RTVSPost2010Prop32
280
     0
102
RTVSPost2010PropOp32
 70
     1
102
RTVSPost2010Prop33
280
     0
102
RTVSPost2010PropOp33
 70
     1
102
RTVSPost2010Prop34
280
     0
102
RTVSPost2010PropOp34
 70
     1
102
RTVSPost2010Prop35
280
     0
102
RTVSPost2010PropOp35
 70
     1
102
RTVSPost2010Prop36
280
     0
102
RTVSPost2010PropOp36
 70
     1
102
RTVSPost2010Prop37
 90
       50
102
RTVSPost2010PropOp37
 70
     1
102
RTVSPost2010Prop38
140
0.0
102
RTVSPost2010PropOp38
 70
     1
102
RTVSPost2010Prop39
140
1.0
102
RTVSPost2010PropOp39
 70
     1
102
RTVSPost2010Prop40
 90
        0
102
RTVSPost2010PropOp40
 70
     1
102
RTVSPost2010Prop41ColorIndex
 90
       18
102
RTVSPost2010Prop41ColorRGB
 90
        0
102
RTVSPost2010PropOp41
 70
     1
102
RTVSPost2010Prop42
 90
       50
102
RTVSPost2010PropOp42
 70
     1
102
RTVSPost2010Prop43
 90
        3
102
RTVSPost2010PropOp43
 70
     1
102
RTVSPost2010Prop44ColorIndex
 90
        5
102
RTVSPost2010Prop44ColorRGB
 90
      255
102
RTVSPost2010PropOp44
 70
     1
102
RTVSPost2010Prop45
280
     0
102
RTVSPost2010PropOp45
 70
     1
102
RTVSPost2010Prop46
 90
       50
102
RTVSPost2010PropOp46
 70
     1
102
RTVSPost2010Prop47
 90
       50
102
RTVSPost2010PropOp47
 70
     1
102
RTVSPost2010Prop48
 90
       50
102
RTVSPost2010PropOp48
 70
     1
102
RTVSPost2010Prop49
280
     0
102
RTVSPost2010PropOp49
 70
     1
102
RTVSPost2010Prop50
 90
       50
102
RTVSPost2010PropOp50
 70
     1
102
RTVSPost2010Prop51ColorIndex
 90
      256
102
RTVSPost2010Prop51ColorRGB
 90
-16777216
102
RTVSPost2010PropOp51
 70
     0
102
RTVSPost2010Prop52
140
1.0
102
RTVSPost2010PropOp52
 70
     0
102
RTVSPost2010Prop53
 90
        2
102
RTVSPost2010PropOp53
 70
     1
102
RTVSPost2010Prop54
  1
strokes_ogs.tif
102
RTVSPost2010PropOp54
 70
     1
102
RTVSPost2010Prop55
280
     0
102
RTVSPost2010PropOp55
 70
     1
102
RTVSPost2010Prop56
140
1.0
102
RTVSPost2010PropOp56
 70
     1
102
RTVSPost2010Prop57
140
1.0
102
RTVSPost2010PropOp57
 70
     1
102
RTVSPropertyOp0
 70
     1
102
RTVSPropertyOp1
 70
     1
102
RTVSPropertyOp2
 70
     1
102
RTVSPropertyOp3
 70
     1
102
RTVSPropertyOp4
 70
     1
102
RTVSPropertyOp5
 70
     1
102
RTVSPropertyOp6
 70
     1
102
RTVSPropertyOp7
 70
     1
102
RTVSPropertyOp8
 70
     1
102
RTVSPropertyOp9
 70
     1
102
RTVSPropertyOp10
 70
     1
102
RTVSPropertyOp11
 70
     1
102
RTVSPropertyOp12
 70
     1
102
RTVSPropertyOp13
 70
     1
102
RTVSPropertyOp14
 70
     1
102
RTVSPropertyOp15
 70
     1
102
RTVSPropertyOp16
 70
     1
102
RTVSPropertyOp17
 70
     1
102
RTVSPropertyOp18
 70
     1
102
RTVSPropertyOp19
 70
     1
102
RTVSPropertyOp20
 70
     1
102
RTVSPropertyOp21
 70
     1
102
RTVSPropertyOp22
 70
     1
102
RTVSPropertyOp23
 70
     1
102
RTVSPropertyOp24
 70
     1
102
RTVSPropertyOp25
 70
     1
102
RTVSPropertyOp26
 70
     1
102
RTVSPropertyOp27
 70
     1
102
RTVSPropertyOp28
 70
     1
102
RTVSPropertyOp29
 70
     1
102
RTVSPropertyOp30
 70
     1
102
RTVSPropertyOp31
 70
     1
102
RTVSPropertyOp32
 70
     1
102
RTVSPropertyOp33
 70
     1
102
RTVSPropertyOp34
 70
     1
102
RTVSPropertyOp35
 70
     1
102
RTVSPropertyOp36
 70
     1
102
RTVSPropertyOp37
 70
     1
102
RTVSPropertyOp38
 70
     1
102
RTVSPropertyOp39
 70
     1
102
RTVSPropertyOp40
 70
     1
102
RTVSPropertyOp41
 70
     1
102
RTVSPropertyOp42
 70
     1
102
RTVSPropertyOp43
 70
     1
102
RTVSPropertyOp44
 70
     1
102
RTVSPropertyOp45
 70
     1
102
RTVSPropertyOp46
 70
     1
102
RTVSPropertyOp47
 70
     1
102
RTVSPropertyOp48
 70
     1
102
RTVSPropertyOp49
 70
     1
102
RTVSPropertyOp50
 70
     1
102
RTVSPropertyOp51
 70
     0
102
RTVSPropertyOp52
 70
     0
102
RTVSPropertyOp53
 70
     1
102
RTVSPropertyOp54
 70
     1
102
RTVSPropertyOp55
 70
     1
102
RTVSPropertyOp56
 70
     1
102
RTVSPropertyOp57
 70
     1
102
RTVSPropertyOp58
 70
     1
102
RTVSPropertyOp59
 70
     1
102
RTVSPropertyOp60
 70
     1
102
RTVSPropertyOp61
 70
     1
102
RTVSPropertyOp62
 70
     1
  0
XRECORD
  5
876
102
{ACAD_REACTORS
330
875
102
}
330
875
100
AcDbXrecord
280
     1
102
RTVSPost2010Prop28
280
     0
102
RTVSPost2010PropOp28
 70
     0
102
RTVSPost2010Prop29
280
     1
102
RTVSPost2010PropOp29
 70
     0
102
RTVSPost2010Prop30
280
     1
102
RTVSPost2010PropOp30
 70
     0
102
RTVSPost2010Prop31
280
     0
102
RTVSPost2010PropOp31
 70
     0
102
RTVSPost2010Prop32
280
     0
102
RTVSPost2010PropOp32
 70
     0
102
RTVSPost2010Prop33
280
     0
102
RTVSPost2010PropOp33
 70
     0
102
RTVSPost2010Prop34
280
     0
102
RTVSPost2010PropOp34
 70
     0
102
RTVSPost2010Prop35
280
     0
102
RTVSPost2010PropOp35
 70
     0
102
RTVSPost2010Prop36
280
     0
102
RTVSPost2010PropOp36
 70
     0
102
RTVSPost2010Prop37
 90
       50
102
RTVSPost2010PropOp37
 70
     0
102
RTVSPost2010Prop38
140
0.0
102
RTVSPost2010PropOp38
 70
     0
102
RTVSPost2010Prop39
140
1.0
102
RTVSPost2010PropOp39
 70
     0
102
RTVSPost2010Prop40
 90
        0
102
RTVSPost2010PropOp40
 70
     0
102
RTVSPost2010Prop41ColorIndex
 90
       18
102
RTVSPost2010Prop41ColorRGB
 90
        0
102
RTVSPost2010PropOp41
 70
     0
102
RTVSPost2010Prop42
 90
       50
102
RTVSPost2010PropOp42
 70
     0
102
RTVSPost2010Prop43
 90
        3
102
RTVSPost2010PropOp43
 70
     0
102
RTVSPost2010Prop44ColorIndex
 90
        5
102
RTVSPost2010Prop44ColorRGB
 90
      255
102
RTVSPost2010PropOp44
 70
     0
102
RTVSPost2010Prop45
280
     0
102
RTVSPost2010PropOp45
 70
     0
102
RTVSPost2010Prop46
 90
       50
102
RTVSPost2010PropOp46
 70
     0
102
RTVSPost2010Prop47
 90
       50
102
RTVSPost2010PropOp47
 70
     0
102
RTVSPost2010Prop48
 90
       50
102
RTVSPost2010PropOp48
 70
     0
102
RTVSPost2010Prop49
280
     0
102
RTVSPost2010PropOp49
 70
     0
102
RTVSPost2010Prop50
 90
       50
102
RTVSPost2010PropOp50
 70
     0
102
RTVSPost2010Prop51ColorIndex
 90
      256
102
RTVSPost2010Prop51ColorRGB
 90
-16777216
102
RTVSPost2010PropOp51
 70
     0
102
RTVSPost2010Prop52
140
1.0
102
RTVSPost2010PropOp52
 70
     0
102
RTVSPost2010Prop53
 90
        2
102
RTVSPost2010PropOp53
 70
     0
102
RTVSPost2010Prop54
  1
strokes_ogs.tif
102
RTVSPost2010PropOp54
 70
     0
102
RTVSPost2010Prop55
280
     0
102
RTVSPost2010PropOp55
 70
     0
102
RTVSPost2010Prop56
140
1.0
102
RTVSPost2010PropOp56
 70
     0
102
RTVSPost2010Prop57
140
1.0
102
RTVSPost2010PropOp57
 70
     0
102
RTVSPropertyOp0
 70
     0
102
RTVSPropertyOp1
 70
     0
102
RTVSPropertyOp2
 70
     0
102
RTVSPropertyOp3
 70
     0
102
RTVSPropertyOp4
 70
     0
102
RTVSPropertyOp5
 70
     0
102
RTVSPropertyOp6
 70
     0
102
RTVSPropertyOp7
 70
     0
102
RTVSPropertyOp8
 70
     0
102
RTVSPropertyOp9
 70
     0
102
RTVSPropertyOp10
 70
     0
102
RTVSPropertyOp11
 70
     0
102
RTVSPropertyOp12
 70
     0
102
RTVSPropertyOp13
 70
     0
102
RTVSPropertyOp14
 70
     2
102
RTVSPropertyOp15
 70
     0
102
RTVSPropertyOp16
 70
     0
102
RTVSPropertyOp17
 70
     0
102
RTVSPropertyOp18
 70
     0
102
RTVSPropertyOp19
 70
     0
102
RTVSPropertyOp20
 70
     0
102
RTVSPropertyOp21
 70
     0
102
RTVSPropertyOp22
 70
     0
102
RTVSPropertyOp23
 70
     0
102
RTVSPropertyOp24
 70
     0
102
RTVSPropertyOp25
 70
     0
102
RTVSPropertyOp26
 70
     0
102
RTVSPropertyOp27
 70
     0
102
RTVSPropertyOp28
 70
     0
102
RTVSPropertyOp29
 70
     0
102
RTVSPropertyOp30
 70
     0
102
RTVSPropertyOp31
 70
     0
102
RTVSPropertyOp32
 70
     0
102
RTVSPropertyOp33
 70
     0
102
RTVSPropertyOp34
 70
     0
102
RTVSPropertyOp35
 70
     0
102
RTVSPropertyOp36
 70
     0
102
RTVSPropertyOp37
 70
     0
102
RTVSPropertyOp38
 70
     0
102
RTVSPropertyOp39
 70
     0
102
RTVSPropertyOp40
 70
     0
102
RTVSPropertyOp41
 70
     0
102
RTVSPropertyOp42
 70
     0
102
RTVSPropertyOp43
 70
     0
102
RTVSPropertyOp44
 70
     0
102
RTVSPropertyOp45
 70
     0
102
RTVSPropertyOp46
 70
     0
102
RTVSPropertyOp47
 70
     0
102
RTVSPropertyOp48
 70
     0
102
RTVSPropertyOp49
 70
     0
102
RTVSPropertyOp50
 70
     0
102
RTVSPropertyOp51
 70
     0
102
RTVSPropertyOp52
 70
     0
102
RTVSPropertyOp53
 70
     0
102
RTVSPropertyOp54
 70
     0
102
RTVSPropertyOp55
 70
     0
102
RTVSPropertyOp56
 70
     0
102
RTVSPropertyOp57
 70
     0
102
RTVSPropertyOp58
 70
     0
102
RTVSPropertyOp59
 70
     0
102
RTVSPropertyOp60
 70
     0
102
RTVSPropertyOp61
 70
     0
102
RTVSPropertyOp62
 70
     0
  0
XRECORD
  5
85C
102
{ACAD_REACTORS
330
85B
102
}
330
85B
100
AcDbXrecord
280
     1
102
RTVSPost2010Prop28
280
     0
102
RTVSPost2010PropOp28
 70
     1
102
RTVSPost2010Prop29
280
     1
102
RTVSPost2010PropOp29
 70
     1
102
RTVSPost2010Prop30
280
     1
102
RTVSPost2010PropOp30
 70
     1
102
RTVSPost2010Prop31
280
     0
102
RTVSPost2010PropOp31
 70
     1
102
RTVSPost2010Prop32
280
     0
102
RTVSPost2010PropOp32
 70
     1
102
RTVSPost2010Prop33
280
     0
102
RTVSPost2010PropOp33
 70
     1
102
RTVSPost2010Prop34
280
     0
102
RTVSPost2010PropOp34
 70
     1
102
RTVSPost2010Prop35
280
     0
102
RTVSPost2010PropOp35
 70
     1
102
RTVSPost2010Prop36
280
     0
102
RTVSPost2010PropOp36
 70
     1
102
RTVSPost2010Prop37
 90
       50
102
RTVSPost2010PropOp37
 70
     1
102
RTVSPost2010Prop38
140
0.0
102
RTVSPost2010PropOp38
 70
     1
102
RTVSPost2010Prop39
140
1.0
102
RTVSPost2010PropOp39
 70
     1
102
RTVSPost2010Prop40
 90
        0
102
RTVSPost2010PropOp40
 70
     1
102
RTVSPost2010Prop41ColorIndex
 90
       18
102
RTVSPost2010Prop41ColorRGB
 90
        0
102
RTVSPost2010PropOp41
 70
     1
102
RTVSPost2010Prop42
 90
       50
102
RTVSPost2010PropOp42
 70
     1
102
RTVSPost2010Prop43
 90
        3
102
RTVSPost2010PropOp43
 70
     1
102
RTVSPost2010Prop44ColorIndex
 90
        5
102
RTVSPost2010Prop44ColorRGB
 90
      255
102
RTVSPost2010PropOp44
 70
     1
102
RTVSPost2010Prop45
280
     0
102
RTVSPost2010PropOp45
 70
     1
102
RTVSPost2010Prop46
 90
       50
102
RTVSPost2010PropOp46
 70
     1
102
RTVSPost2010Prop47
 90
       50
102
RTVSPost2010PropOp47
 70
     1
102
RTVSPost2010Prop48
 90
       50
102
RTVSPost2010PropOp48
 70
     1
102
RTVSPost2010Prop49
280
     0
102
RTVSPost2010PropOp49
 70
     1
102
RTVSPost2010Prop50
 90
       50
102
RTVSPost2010PropOp50
 70
     1
102
RTVSPost2010Prop51ColorIndex
 90
      256
102
RTVSPost2010Prop51ColorRGB
 90
-16777216
102
RTVSPost2010PropOp51
 70
     0
102
RTVSPost2010Prop52
140
1.0
102
RTVSPost2010PropOp52
 70
     0
102
RTVSPost2010Prop53
 90
        2
102
RTVSPost2010PropOp53
 70
     1
102
RTVSPost2010Prop54
  1
strokes_ogs.tif
102
RTVSPost2010PropOp54
 70
     1
102
RTVSPost2010Prop55
280
     0
102
RTVSPost2010PropOp55
 70
     1
102
RTVSPost2010Prop56
140
1.0
102
RTVSPost2010PropOp56
 70
     1
102
RTVSPost2010Prop57
140
1.0
102
RTVSPost2010PropOp57
 70
     1
102
RTVSPropertyOp0
 70
     1
102
RTVSPropertyOp1
 70
     1
102
RTVSPropertyOp2
 70
     1
102
RTVSPropertyOp3
 70
     1
102
RTVSPropertyOp4
 70
     1
102
RTVSPropertyOp5
 70
     1
102
RTVSPropertyOp6
 70
     1
102
RTVSPropertyOp7
 70
     1
102
RTVSPropertyOp8
 70
     1
102
RTVSPropertyOp9
 70
     1
102
RTVSPropertyOp10
 70
     1
102
RTVSPropertyOp11
 70
     1
102
RTVSPropertyOp12
 70
     1
102
RTVSPropertyOp13
 70
     1
102
RTVSPropertyOp14
 70
     1
102
RTVSPropertyOp15
 70
     1
102
RTVSPropertyOp16
 70
     1
102
RTVSPropertyOp17
 70
     1
102
RTVSPropertyOp18
 70
     1
102
RTVSPropertyOp19
 70
     1
102
RTVSPropertyOp20
 70
     1
102
RTVSPropertyOp21
 70
     1
102
RTVSPropertyOp22
 70
     1
102
RTVSPropertyOp23
 70
     1
102
RTVSPropertyOp24
 70
     1
102
RTVSPropertyOp25
 70
     1
102
RTVSPropertyOp26
 70
     1
102
RTVSPropertyOp27
 70
     1
102
RTVSPropertyOp28
 70
     1
102
RTVSPropertyOp29
 70
     1
102
RTVSPropertyOp30
 70
     1
102
RTVSPropertyOp31
 70
     1
102
RTVSPropertyOp32
 70
     1
102
RTVSPropertyOp33
 70
     1
102
RTVSPropertyOp34
 70
     1
102
RTVSPropertyOp35
 70
     1
102
RTVSPropertyOp36
 70
     1
102
RTVSPropertyOp37
 70
     1
102
RTVSPropertyOp38
 70
     1
102
RTVSPropertyOp39
 70
     1
102
RTVSPropertyOp40
 70
     1
102
RTVSPropertyOp41
 70
     1
102
RTVSPropertyOp42
 70
     1
102
RTVSPropertyOp43
 70
     1
102
RTVSPropertyOp44
 70
     1
102
RTVSPropertyOp45
 70
     1
102
RTVSPropertyOp46
 70
     1
102
RTVSPropertyOp47
 70
     1
102
RTVSPropertyOp48
 70
     1
102
RTVSPropertyOp49
 70
     1
102
RTVSPropertyOp50
 70
     1
102
RTVSPropertyOp51
 70
     0
102
RTVSPropertyOp52
 70
     0
102
RTVSPropertyOp53
 70
     1
102
RTVSPropertyOp54
 70
     1
102
RTVSPropertyOp55
 70
     1
102
RTVSPropertyOp56
 70
     1
102
RTVSPropertyOp57
 70
     1
102
RTVSPropertyOp58
 70
     1
102
RTVSPropertyOp59
 70
     1
102
RTVSPropertyOp60
 70
     1
102
RTVSPropertyOp61
 70
     1
102
RTVSPropertyOp62
 70
     1
  0
XRECORD
  5
872
102
{ACAD_REACTORS
330
871
102
}
330
871
100
AcDbXrecord
280
     1
102
RTVSPost2010Prop28
280
     0
102
RTVSPost2010PropOp28
 70
     1
102
RTVSPost2010Prop29
280
     1
102
RTVSPost2010PropOp29
 70
     1
102
RTVSPost2010Prop30
280
     1
102
RTVSPost2010PropOp30
 70
     1
102
RTVSPost2010Prop31
280
     0
102
RTVSPost2010PropOp31
 70
     1
102
RTVSPost2010Prop32
280
     0
102
RTVSPost2010PropOp32
 70
     1
102
RTVSPost2010Prop33
280
     0
102
RTVSPost2010PropOp33
 70
     1
102
RTVSPost2010Prop34
280
     0
102
RTVSPost2010PropOp34
 70
     1
102
RTVSPost2010Prop35
280
     0
102
RTVSPost2010PropOp35
 70
     1
102
RTVSPost2010Prop36
280
     0
102
RTVSPost2010PropOp36
 70
     1
102
RTVSPost2010Prop37
 90
       50
102
RTVSPost2010PropOp37
 70
     1
102
RTVSPost2010Prop38
140
0.0
102
RTVSPost2010PropOp38
 70
     1
102
RTVSPost2010Prop39
140
1.0
102
RTVSPost2010PropOp39
 70
     1
102
RTVSPost2010Prop40
 90
        0
102
RTVSPost2010PropOp40
 70
     1
102
RTVSPost2010Prop41ColorIndex
 90
       18
102
RTVSPost2010Prop41ColorRGB
 90
        0
102
RTVSPost2010PropOp41
 70
     1
102
RTVSPost2010Prop42
 90
       50
102
RTVSPost2010PropOp42
 70
     1
102
RTVSPost2010Prop43
 90
        3
102
RTVSPost2010PropOp43
 70
     1
102
RTVSPost2010Prop44ColorIndex
 90
        5
102
RTVSPost2010Prop44ColorRGB
 90
      255
102
RTVSPost2010PropOp44
 70
     1
102
RTVSPost2010Prop45
280
     0
102
RTVSPost2010PropOp45
 70
     1
102
RTVSPost2010Prop46
 90
       50
102
RTVSPost2010PropOp46
 70
     1
102
RTVSPost2010Prop47
 90
       50
102
RTVSPost2010PropOp47
 70
     1
102
RTVSPost2010Prop48
 90
       50
102
RTVSPost2010PropOp48
 70
     1
102
RTVSPost2010Prop49
280
     0
102
RTVSPost2010PropOp49
 70
     1
102
RTVSPost2010Prop50
 90
       50
102
RTVSPost2010PropOp50
 70
     1
102
RTVSPost2010Prop51ColorIndex
 90
      256
102
RTVSPost2010Prop51ColorRGB
 90
-16777216
102
RTVSPost2010PropOp51
 70
     0
102
RTVSPost2010Prop52
140
1.0
102
RTVSPost2010PropOp52
 70
     0
102
RTVSPost2010Prop53
 90
        2
102
RTVSPost2010PropOp53
 70
     1
102
RTVSPost2010Prop54
  1
strokes_ogs.tif
102
RTVSPost2010PropOp54
 70
     1
102
RTVSPost2010Prop55
280
     0
102
RTVSPost2010PropOp55
 70
     1
102
RTVSPost2010Prop56
140
1.0
102
RTVSPost2010PropOp56
 70
     1
102
RTVSPost2010Prop57
140
1.0
102
RTVSPost2010PropOp57
 70
     1
102
RTVSPropertyOp0
 70
     1
102
RTVSPropertyOp1
 70
     1
102
RTVSPropertyOp2
 70
     1
102
RTVSPropertyOp3
 70
     1
102
RTVSPropertyOp4
 70
     1
102
RTVSPropertyOp5
 70
     1
102
RTVSPropertyOp6
 70
     1
102
RTVSPropertyOp7
 70
     1
102
RTVSPropertyOp8
 70
     1
102
RTVSPropertyOp9
 70
     1
102
RTVSPropertyOp10
 70
     1
102
RTVSPropertyOp11
 70
     1
102
RTVSPropertyOp12
 70
     1
102
RTVSPropertyOp13
 70
     1
102
RTVSPropertyOp14
 70
     1
102
RTVSPropertyOp15
 70
     1
102
RTVSPropertyOp16
 70
     1
102
RTVSPropertyOp17
 70
     1
102
RTVSPropertyOp18
 70
     1
102
RTVSPropertyOp19
 70
     1
102
RTVSPropertyOp20
 70
     1
102
RTVSPropertyOp21
 70
     1
102
RTVSPropertyOp22
 70
     1
102
RTVSPropertyOp23
 70
     1
102
RTVSPropertyOp24
 70
     1
102
RTVSPropertyOp25
 70
     1
102
RTVSPropertyOp26
 70
     1
102
RTVSPropertyOp27
 70
     1
102
RTVSPropertyOp28
 70
     1
102
RTVSPropertyOp29
 70
     1
102
RTVSPropertyOp30
 70
     1
102
RTVSPropertyOp31
 70
     1
102
RTVSPropertyOp32
 70
     1
102
RTVSPropertyOp33
 70
     1
102
RTVSPropertyOp34
 70
     1
102
RTVSPropertyOp35
 70
     1
102
RTVSPropertyOp36
 70
     1
102
RTVSPropertyOp37
 70
     1
102
RTVSPropertyOp38
 70
     1
102
RTVSPropertyOp39
 70
     1
102
RTVSPropertyOp40
 70
     1
102
RTVSPropertyOp41
 70
     1
102
RTVSPropertyOp42
 70
     1
102
RTVSPropertyOp43
 70
     1
102
RTVSPropertyOp44
 70
     1
102
RTVSPropertyOp45
 70
     1
102
RTVSPropertyOp46
 70
     1
102
RTVSPropertyOp47
 70
     1
102
RTVSPropertyOp48
 70
     1
102
RTVSPropertyOp49
 70
     1
102
RTVSPropertyOp50
 70
     1
102
RTVSPropertyOp51
 70
     0
102
RTVSPropertyOp52
 70
     0
102
RTVSPropertyOp53
 70
     1
102
RTVSPropertyOp54
 70
     1
102
RTVSPropertyOp55
 70
     1
102
RTVSPropertyOp56
 70
     1
102
RTVSPropertyOp57
 70
     1
102
RTVSPropertyOp58
 70
     1
102
RTVSPropertyOp59
 70
     1
102
RTVSPropertyOp60
 70
     1
102
RTVSPropertyOp61
 70
     1
102
RTVSPropertyOp62
 70
     1
  0
XRECORD
  5
870
102
{ACAD_REACTORS
330
86F
102
}
330
86F
100
AcDbXrecord
280
     1
102
RTVSPost2010Prop28
280
     0
102
RTVSPost2010PropOp28
 70
     1
102
RTVSPost2010Prop29
280
     1
102
RTVSPost2010PropOp29
 70
     1
102
RTVSPost2010Prop30
280
     1
102
RTVSPost2010PropOp30
 70
     1
102
RTVSPost2010Prop31
280
     0
102
RTVSPost2010PropOp31
 70
     1
102
RTVSPost2010Prop32
280
     0
102
RTVSPost2010PropOp32
 70
     1
102
RTVSPost2010Prop33
280
     0
102
RTVSPost2010PropOp33
 70
     1
102
RTVSPost2010Prop34
280
     0
102
RTVSPost2010PropOp34
 70
     1
102
RTVSPost2010Prop35
280
     0
102
RTVSPost2010PropOp35
 70
     1
102
RTVSPost2010Prop36
280
     0
102
RTVSPost2010PropOp36
 70
     1
102
RTVSPost2010Prop37
 90
       50
102
RTVSPost2010PropOp37
 70
     1
102
RTVSPost2010Prop38
140
0.0
102
RTVSPost2010PropOp38
 70
     1
102
RTVSPost2010Prop39
140
1.0
102
RTVSPost2010PropOp39
 70
     1
102
RTVSPost2010Prop40
 90
        0
102
RTVSPost2010PropOp40
 70
     1
102
RTVSPost2010Prop41ColorIndex
 90
       18
102
RTVSPost2010Prop41ColorRGB
 90
        0
102
RTVSPost2010PropOp41
 70
     1
102
RTVSPost2010Prop42
 90
       50
102
RTVSPost2010PropOp42
 70
     1
102
RTVSPost2010Prop43
 90
        3
102
RTVSPost2010PropOp43
 70
     1
102
RTVSPost2010Prop44ColorIndex
 90
        5
102
RTVSPost2010Prop44ColorRGB
 90
      255
102
RTVSPost2010PropOp44
 70
     1
102
RTVSPost2010Prop45
280
     0
102
RTVSPost2010PropOp45
 70
     1
102
RTVSPost2010Prop46
 90
       50
102
RTVSPost2010PropOp46
 70
     1
102
RTVSPost2010Prop47
 90
       50
102
RTVSPost2010PropOp47
 70
     1
102
RTVSPost2010Prop48
 90
       50
102
RTVSPost2010PropOp48
 70
     1
102
RTVSPost2010Prop49
280
     0
102
RTVSPost2010PropOp49
 70
     1
102
RTVSPost2010Prop50
 90
       50
102
RTVSPost2010PropOp50
 70
     1
102
RTVSPost2010Prop51ColorIndex
 90
      256
102
RTVSPost2010Prop51ColorRGB
 90
-16777216
102
RTVSPost2010PropOp51
 70
     0
102
RTVSPost2010Prop52
140
1.0
102
RTVSPost2010PropOp52
 70
     0
102
RTVSPost2010Prop53
 90
        2
102
RTVSPost2010PropOp53
 70
     1
102
RTVSPost2010Prop54
  1
strokes_ogs.tif
102
RTVSPost2010PropOp54
 70
     1
102
RTVSPost2010Prop55
280
     0
102
RTVSPost2010PropOp55
 70
     1
102
RTVSPost2010Prop56
140
1.0
102
RTVSPost2010PropOp56
 70
     1
102
RTVSPost2010Prop57
140
1.0
102
RTVSPost2010PropOp57
 70
     1
102
RTVSPropertyOp0
 70
     1
102
RTVSPropertyOp1
 70
     1
102
RTVSPropertyOp2
 70
     1
102
RTVSPropertyOp3
 70
     1
102
RTVSPropertyOp4
 70
     1
102
RTVSPropertyOp5
 70
     1
102
RTVSPropertyOp6
 70
     1
102
RTVSPropertyOp7
 70
     1
102
RTVSPropertyOp8
 70
     1
102
RTVSPropertyOp9
 70
     1
102
RTVSPropertyOp10
 70
     1
102
RTVSPropertyOp11
 70
     1
102
RTVSPropertyOp12
 70
     1
102
RTVSPropertyOp13
 70
     1
102
RTVSPropertyOp14
 70
     1
102
RTVSPropertyOp15
 70
     1
102
RTVSPropertyOp16
 70
     1
102
RTVSPropertyOp17
 70
     1
102
RTVSPropertyOp18
 70
     1
102
RTVSPropertyOp19
 70
     1
102
RTVSPropertyOp20
 70
     1
102
RTVSPropertyOp21
 70
     1
102
RTVSPropertyOp22
 70
     1
102
RTVSPropertyOp23
 70
     1
102
RTVSPropertyOp24
 70
     1
102
RTVSPropertyOp25
 70
     1
102
RTVSPropertyOp26
 70
     1
102
RTVSPropertyOp27
 70
     1
102
RTVSPropertyOp28
 70
     1
102
RTVSPropertyOp29
 70
     1
102
RTVSPropertyOp30
 70
     1
102
RTVSPropertyOp31
 70
     1
102
RTVSPropertyOp32
 70
     1
102
RTVSPropertyOp33
 70
     1
102
RTVSPropertyOp34
 70
     1
102
RTVSPropertyOp35
 70
     1
102
RTVSPropertyOp36
 70
     1
102
RTVSPropertyOp37
 70
     1
102
RTVSPropertyOp38
 70
     1
102
RTVSPropertyOp39
 70
     1
102
RTVSPropertyOp40
 70
     1
102
RTVSPropertyOp41
 70
     1
102
RTVSPropertyOp42
 70
     1
102
RTVSPropertyOp43
 70
     1
102
RTVSPropertyOp44
 70
     1
102
RTVSPropertyOp45
 70
     1
102
RTVSPropertyOp46
 70
     1
102
RTVSPropertyOp47
 70
     1
102
RTVSPropertyOp48
 70
     1
102
RTVSPropertyOp49
 70
     1
102
RTVSPropertyOp50
 70
     1
102
RTVSPropertyOp51
 70
     0
102
RTVSPropertyOp52
 70
     0
102
RTVSPropertyOp53
 70
     1
102
RTVSPropertyOp54
 70
     1
102
RTVSPropertyOp55
 70
     1
102
RTVSPropertyOp56
 70
     1
102
RTVSPropertyOp57
 70
     1
102
RTVSPropertyOp58
 70
     1
102
RTVSPropertyOp59
 70
     1
102
RTVSPropertyOp60
 70
     1
102
RTVSPropertyOp61
 70
     1
102
RTVSPropertyOp62
 70
     1
  0
XRECORD
  5
86A
102
{ACAD_REACTORS
330
869
102
}
330
869
100
AcDbXrecord
280
     1
102
RTVSPost2010Prop28
280
     0
102
RTVSPost2010PropOp28
 70
     1
102
RTVSPost2010Prop29
280
     1
102
RTVSPost2010PropOp29
 70
     1
102
RTVSPost2010Prop30
280
     1
102
RTVSPost2010PropOp30
 70
     1
102
RTVSPost2010Prop31
280
     0
102
RTVSPost2010PropOp31
 70
     1
102
RTVSPost2010Prop32
280
     0
102
RTVSPost2010PropOp32
 70
     1
102
RTVSPost2010Prop33
280
     0
102
RTVSPost2010PropOp33
 70
     1
102
RTVSPost2010Prop34
280
     0
102
RTVSPost2010PropOp34
 70
     1
102
RTVSPost2010Prop35
280
     0
102
RTVSPost2010PropOp35
 70
     1
102
RTVSPost2010Prop36
280
     0
102
RTVSPost2010PropOp36
 70
     1
102
RTVSPost2010Prop37
 90
       50
102
RTVSPost2010PropOp37
 70
     1
102
RTVSPost2010Prop38
140
0.0
102
RTVSPost2010PropOp38
 70
     1
102
RTVSPost2010Prop39
140
1.0
102
RTVSPost2010PropOp39
 70
     1
102
RTVSPost2010Prop40
 90
        0
102
RTVSPost2010PropOp40
 70
     1
102
RTVSPost2010Prop41ColorIndex
 90
       18
102
RTVSPost2010Prop41ColorRGB
 90
        0
102
RTVSPost2010PropOp41
 70
     1
102
RTVSPost2010Prop42
 90
       50
102
RTVSPost2010PropOp42
 70
     1
102
RTVSPost2010Prop43
 90
        3
102
RTVSPost2010PropOp43
 70
     1
102
RTVSPost2010Prop44ColorIndex
 90
        5
102
RTVSPost2010Prop44ColorRGB
 90
      255
102
RTVSPost2010PropOp44
 70
     1
102
RTVSPost2010Prop45
280
     0
102
RTVSPost2010PropOp45
 70
     1
102
RTVSPost2010Prop46
 90
       50
102
RTVSPost2010PropOp46
 70
     1
102
RTVSPost2010Prop47
 90
       50
102
RTVSPost2010PropOp47
 70
     1
102
RTVSPost2010Prop48
 90
       50
102
RTVSPost2010PropOp48
 70
     1
102
RTVSPost2010Prop49
280
     0
102
RTVSPost2010PropOp49
 70
     1
102
RTVSPost2010Prop50
 90
       50
102
RTVSPost2010PropOp50
 70
     1
102
RTVSPost2010Prop51ColorIndex
 90
      256
102
RTVSPost2010Prop51ColorRGB
 90
-16777216
102
RTVSPost2010PropOp51
 70
     0
102
RTVSPost2010Prop52
140
1.0
102
RTVSPost2010PropOp52
 70
     0
102
RTVSPost2010Prop53
 90
        2
102
RTVSPost2010PropOp53
 70
     1
102
RTVSPost2010Prop54
  1
strokes_ogs.tif
102
RTVSPost2010PropOp54
 70
     1
102
RTVSPost2010Prop55
280
     0
102
RTVSPost2010PropOp55
 70
     1
102
RTVSPost2010Prop56
140
1.0
102
RTVSPost2010PropOp56
 70
     1
102
RTVSPost2010Prop57
140
1.0
102
RTVSPost2010PropOp57
 70
     1
102
RTVSPropertyOp0
 70
     1
102
RTVSPropertyOp1
 70
     1
102
RTVSPropertyOp2
 70
     1
102
RTVSPropertyOp3
 70
     1
102
RTVSPropertyOp4
 70
     1
102
RTVSPropertyOp5
 70
     1
102
RTVSPropertyOp6
 70
     1
102
RTVSPropertyOp7
 70
     1
102
RTVSPropertyOp8
 70
     1
102
RTVSPropertyOp9
 70
     1
102
RTVSPropertyOp10
 70
     1
102
RTVSPropertyOp11
 70
     1
102
RTVSPropertyOp12
 70
     1
102
RTVSPropertyOp13
 70
     1
102
RTVSPropertyOp14
 70
     1
102
RTVSPropertyOp15
 70
     1
102
RTVSPropertyOp16
 70
     1
102
RTVSPropertyOp17
 70
     1
102
RTVSPropertyOp18
 70
     1
102
RTVSPropertyOp19
 70
     1
102
RTVSPropertyOp20
 70
     1
102
RTVSPropertyOp21
 70
     1
102
RTVSPropertyOp22
 70
     1
102
RTVSPropertyOp23
 70
     1
102
RTVSPropertyOp24
 70
     1
102
RTVSPropertyOp25
 70
     1
102
RTVSPropertyOp26
 70
     1
102
RTVSPropertyOp27
 70
     1
102
RTVSPropertyOp28
 70
     1
102
RTVSPropertyOp29
 70
     1
102
RTVSPropertyOp30
 70
     1
102
RTVSPropertyOp31
 70
     1
102
RTVSPropertyOp32
 70
     1
102
RTVSPropertyOp33
 70
     1
102
RTVSPropertyOp34
 70
     1
102
RTVSPropertyOp35
 70
     1
102
RTVSPropertyOp36
 70
     1
102
RTVSPropertyOp37
 70
     1
102
RTVSPropertyOp38
 70
     1
102
RTVSPropertyOp39
 70
     1
102
RTVSPropertyOp40
 70
     1
102
RTVSPropertyOp41
 70
     1
102
RTVSPropertyOp42
 70
     1
102
RTVSPropertyOp43
 70
     1
102
RTVSPropertyOp44
 70
     1
102
RTVSPropertyOp45
 70
     1
102
RTVSPropertyOp46
 70
     1
102
RTVSPropertyOp47
 70
     1
102
RTVSPropertyOp48
 70
     1
102
RTVSPropertyOp49
 70
     1
102
RTVSPropertyOp50
 70
     1
102
RTVSPropertyOp51
 70
     0
102
RTVSPropertyOp52
 70
     0
102
RTVSPropertyOp53
 70
     1
102
RTVSPropertyOp54
 70
     1
102
RTVSPropertyOp55
 70
     1
102
RTVSPropertyOp56
 70
     1
102
RTVSPropertyOp57
 70
     1
102
RTVSPropertyOp58
 70
     1
102
RTVSPropertyOp59
 70
     1
102
RTVSPropertyOp60
 70
     1
102
RTVSPropertyOp61
 70
     1
102
RTVSPropertyOp62
 70
     1
  0
XRECORD
  5
86C
102
{ACAD_REACTORS
330
86B
102
}
330
86B
100
AcDbXrecord
280
     1
102
RTVSPost2010Prop28
280
     0
102
RTVSPost2010PropOp28
 70
     1
102
RTVSPost2010Prop29
280
     1
102
RTVSPost2010PropOp29
 70
     1
102
RTVSPost2010Prop30
280
     1
102
RTVSPost2010PropOp30
 70
     1
102
RTVSPost2010Prop31
280
     0
102
RTVSPost2010PropOp31
 70
     1
102
RTVSPost2010Prop32
280
     0
102
RTVSPost2010PropOp32
 70
     1
102
RTVSPost2010Prop33
280
     0
102
RTVSPost2010PropOp33
 70
     1
102
RTVSPost2010Prop34
280
     0
102
RTVSPost2010PropOp34
 70
     1
102
RTVSPost2010Prop35
280
     0
102
RTVSPost2010PropOp35
 70
     1
102
RTVSPost2010Prop36
280
     0
102
RTVSPost2010PropOp36
 70
     1
102
RTVSPost2010Prop37
 90
       50
102
RTVSPost2010PropOp37
 70
     1
102
RTVSPost2010Prop38
140
0.0
102
RTVSPost2010PropOp38
 70
     1
102
RTVSPost2010Prop39
140
1.0
102
RTVSPost2010PropOp39
 70
     1
102
RTVSPost2010Prop40
 90
        0
102
RTVSPost2010PropOp40
 70
     1
102
RTVSPost2010Prop41ColorIndex
 90
       18
102
RTVSPost2010Prop41ColorRGB
 90
        0
102
RTVSPost2010PropOp41
 70
     1
102
RTVSPost2010Prop42
 90
       50
102
RTVSPost2010PropOp42
 70
     1
102
RTVSPost2010Prop43
 90
        3
102
RTVSPost2010PropOp43
 70
     1
102
RTVSPost2010Prop44ColorIndex
 90
        5
102
RTVSPost2010Prop44ColorRGB
 90
      255
102
RTVSPost2010PropOp44
 70
     1
102
RTVSPost2010Prop45
280
     0
102
RTVSPost2010PropOp45
 70
     1
102
RTVSPost2010Prop46
 90
       50
102
RTVSPost2010PropOp46
 70
     1
102
RTVSPost2010Prop47
 90
       50
102
RTVSPost2010PropOp47
 70
     1
102
RTVSPost2010Prop48
 90
       50
102
RTVSPost2010PropOp48
 70
     1
102
RTVSPost2010Prop49
280
     0
102
RTVSPost2010PropOp49
 70
     1
102
RTVSPost2010Prop50
 90
       50
102
RTVSPost2010PropOp50
 70
     1
102
RTVSPost2010Prop51ColorIndex
 90
      256
102
RTVSPost2010Prop51ColorRGB
 90
-16777216
102
RTVSPost2010PropOp51
 70
     0
102
RTVSPost2010Prop52
140
1.0
102
RTVSPost2010PropOp52
 70
     0
102
RTVSPost2010Prop53
 90
        2
102
RTVSPost2010PropOp53
 70
     1
102
RTVSPost2010Prop54
  1
strokes_ogs.tif
102
RTVSPost2010PropOp54
 70
     1
102
RTVSPost2010Prop55
280
     0
102
RTVSPost2010PropOp55
 70
     1
102
RTVSPost2010Prop56
140
1.0
102
RTVSPost2010PropOp56
 70
     1
102
RTVSPost2010Prop57
140
1.0
102
RTVSPost2010PropOp57
 70
     1
102
RTVSPropertyOp0
 70
     1
102
RTVSPropertyOp1
 70
     1
102
RTVSPropertyOp2
 70
     1
102
RTVSPropertyOp3
 70
     1
102
RTVSPropertyOp4
 70
     1
102
RTVSPropertyOp5
 70
     1
102
RTVSPropertyOp6
 70
     1
102
RTVSPropertyOp7
 70
     1
102
RTVSPropertyOp8
 70
     1
102
RTVSPropertyOp9
 70
     1
102
RTVSPropertyOp10
 70
     1
102
RTVSPropertyOp11
 70
     1
102
RTVSPropertyOp12
 70
     1
102
RTVSPropertyOp13
 70
     1
102
RTVSPropertyOp14
 70
     1
102
RTVSPropertyOp15
 70
     1
102
RTVSPropertyOp16
 70
     1
102
RTVSPropertyOp17
 70
     1
102
RTVSPropertyOp18
 70
     1
102
RTVSPropertyOp19
 70
     1
102
RTVSPropertyOp20
 70
     1
102
RTVSPropertyOp21
 70
     1
102
RTVSPropertyOp22
 70
     1
102
RTVSPropertyOp23
 70
     1
102
RTVSPropertyOp24
 70
     1
102
RTVSPropertyOp25
 70
     1
102
RTVSPropertyOp26
 70
     1
102
RTVSPropertyOp27
 70
     1
102
RTVSPropertyOp28
 70
     1
102
RTVSPropertyOp29
 70
     1
102
RTVSPropertyOp30
 70
     1
102
RTVSPropertyOp31
 70
     1
102
RTVSPropertyOp32
 70
     1
102
RTVSPropertyOp33
 70
     1
102
RTVSPropertyOp34
 70
     1
102
RTVSPropertyOp35
 70
     1
102
RTVSPropertyOp36
 70
     1
102
RTVSPropertyOp37
 70
     1
102
RTVSPropertyOp38
 70
     1
102
RTVSPropertyOp39
 70
     1
102
RTVSPropertyOp40
 70
     1
102
RTVSPropertyOp41
 70
     1
102
RTVSPropertyOp42
 70
     1
102
RTVSPropertyOp43
 70
     1
102
RTVSPropertyOp44
 70
     1
102
RTVSPropertyOp45
 70
     1
102
RTVSPropertyOp46
 70
     1
102
RTVSPropertyOp47
 70
     1
102
RTVSPropertyOp48
 70
     1
102
RTVSPropertyOp49
 70
     1
102
RTVSPropertyOp50
 70
     1
102
RTVSPropertyOp51
 70
     0
102
RTVSPropertyOp52
 70
     0
102
RTVSPropertyOp53
 70
     1
102
RTVSPropertyOp54
 70
     1
102
RTVSPropertyOp55
 70
     1
102
RTVSPropertyOp56
 70
     1
102
RTVSPropertyOp57
 70
     1
102
RTVSPropertyOp58
 70
     1
102
RTVSPropertyOp59
 70
     1
102
RTVSPropertyOp60
 70
     1
102
RTVSPropertyOp61
 70
     1
102
RTVSPropertyOp62
 70
     1
  0
XRECORD
  5
862
102
{ACAD_REACTORS
330
861
102
}
330
861
100
AcDbXrecord
280
     1
102
RTVSPost2010Prop28
280
     0
102
RTVSPost2010PropOp28
 70
     1
102
RTVSPost2010Prop29
280
     1
102
RTVSPost2010PropOp29
 70
     1
102
RTVSPost2010Prop30
280
     1
102
RTVSPost2010PropOp30
 70
     1
102
RTVSPost2010Prop31
280
     0
102
RTVSPost2010PropOp31
 70
     1
102
RTVSPost2010Prop32
280
     0
102
RTVSPost2010PropOp32
 70
     1
102
RTVSPost2010Prop33
280
     0
102
RTVSPost2010PropOp33
 70
     1
102
RTVSPost2010Prop34
280
     0
102
RTVSPost2010PropOp34
 70
     1
102
RTVSPost2010Prop35
280
     0
102
RTVSPost2010PropOp35
 70
     1
102
RTVSPost2010Prop36
280
     0
102
RTVSPost2010PropOp36
 70
     1
102
RTVSPost2010Prop37
 90
       50
102
RTVSPost2010PropOp37
 70
     1
102
RTVSPost2010Prop38
140
0.0
102
RTVSPost2010PropOp38
 70
     1
102
RTVSPost2010Prop39
140
1.0
102
RTVSPost2010PropOp39
 70
     1
102
RTVSPost2010Prop40
 90
        0
102
RTVSPost2010PropOp40
 70
     1
102
RTVSPost2010Prop41ColorIndex
 90
       18
102
RTVSPost2010Prop41ColorRGB
 90
        0
102
RTVSPost2010PropOp41
 70
     1
102
RTVSPost2010Prop42
 90
       50
102
RTVSPost2010PropOp42
 70
     1
102
RTVSPost2010Prop43
 90
        3
102
RTVSPost2010PropOp43
 70
     1
102
RTVSPost2010Prop44ColorIndex
 90
        5
102
RTVSPost2010Prop44ColorRGB
 90
      255
102
RTVSPost2010PropOp44
 70
     1
102
RTVSPost2010Prop45
280
     0
102
RTVSPost2010PropOp45
 70
     1
102
RTVSPost2010Prop46
 90
       50
102
RTVSPost2010PropOp46
 70
     1
102
RTVSPost2010Prop47
 90
       50
102
RTVSPost2010PropOp47
 70
     1
102
RTVSPost2010Prop48
 90
       50
102
RTVSPost2010PropOp48
 70
     1
102
RTVSPost2010Prop49
280
     0
102
RTVSPost2010PropOp49
 70
     1
102
RTVSPost2010Prop50
 90
       50
102
RTVSPost2010PropOp50
 70
     1
102
RTVSPost2010Prop51ColorIndex
 90
      256
102
RTVSPost2010Prop51ColorRGB
 90
-16777216
102
RTVSPost2010PropOp51
 70
     0
102
RTVSPost2010Prop52
140
1.0
102
RTVSPost2010PropOp52
 70
     0
102
RTVSPost2010Prop53
 90
        2
102
RTVSPost2010PropOp53
 70
     1
102
RTVSPost2010Prop54
  1
strokes_ogs.tif
102
RTVSPost2010PropOp54
 70
     1
102
RTVSPost2010Prop55
280
     0
102
RTVSPost2010PropOp55
 70
     1
102
RTVSPost2010Prop56
140
1.0
102
RTVSPost2010PropOp56
 70
     1
102
RTVSPost2010Prop57
140
1.0
102
RTVSPost2010PropOp57
 70
     1
102
RTVSPropertyOp0
 70
     1
102
RTVSPropertyOp1
 70
     1
102
RTVSPropertyOp2
 70
     1
102
RTVSPropertyOp3
 70
     1
102
RTVSPropertyOp4
 70
     1
102
RTVSPropertyOp5
 70
     1
102
RTVSPropertyOp6
 70
     1
102
RTVSPropertyOp7
 70
     1
102
RTVSPropertyOp8
 70
     1
102
RTVSPropertyOp9
 70
     1
102
RTVSPropertyOp10
 70
     1
102
RTVSPropertyOp11
 70
     1
102
RTVSPropertyOp12
 70
     1
102
RTVSPropertyOp13
 70
     1
102
RTVSPropertyOp14
 70
     1
102
RTVSPropertyOp15
 70
     1
102
RTVSPropertyOp16
 70
     1
102
RTVSPropertyOp17
 70
     1
102
RTVSPropertyOp18
 70
     1
102
RTVSPropertyOp19
 70
     1
102
RTVSPropertyOp20
 70
     1
102
RTVSPropertyOp21
 70
     1
102
RTVSPropertyOp22
 70
     1
102
RTVSPropertyOp23
 70
     1
102
RTVSPropertyOp24
 70
     1
102
RTVSPropertyOp25
 70
     1
102
RTVSPropertyOp26
 70
     1
102
RTVSPropertyOp27
 70
     1
102
RTVSPropertyOp28
 70
     1
102
RTVSPropertyOp29
 70
     1
102
RTVSPropertyOp30
 70
     1
102
RTVSPropertyOp31
 70
     1
102
RTVSPropertyOp32
 70
     1
102
RTVSPropertyOp33
 70
     1
102
RTVSPropertyOp34
 70
     1
102
RTVSPropertyOp35
 70
     1
102
RTVSPropertyOp36
 70
     1
102
RTVSPropertyOp37
 70
     1
102
RTVSPropertyOp38
 70
     1
102
RTVSPropertyOp39
 70
     1
102
RTVSPropertyOp40
 70
     1
102
RTVSPropertyOp41
 70
     1
102
RTVSPropertyOp42
 70
     1
102
RTVSPropertyOp43
 70
     1
102
RTVSPropertyOp44
 70
     1
102
RTVSPropertyOp45
 70
     1
102
RTVSPropertyOp46
 70
     1
102
RTVSPropertyOp47
 70
     1
102
RTVSPropertyOp48
 70
     1
102
RTVSPropertyOp49
 70
     1
102
RTVSPropertyOp50
 70
     1
102
RTVSPropertyOp51
 70
     0
102
RTVSPropertyOp52
 70
     0
102
RTVSPropertyOp53
 70
     1
102
RTVSPropertyOp54
 70
     1
102
RTVSPropertyOp55
 70
     1
102
RTVSPropertyOp56
 70
     1
102
RTVSPropertyOp57
 70
     1
102
RTVSPropertyOp58
 70
     1
102
RTVSPropertyOp59
 70
     1
102
RTVSPropertyOp60
 70
     1
102
RTVSPropertyOp61
 70
     1
102
RTVSPropertyOp62
 70
     1
  0
XRECORD
  5
856
102
{ACAD_REACTORS
330
855
102
}
330
855
100
AcDbXrecord
280
     1
102
RTVSPost2010Prop28
280
     0
102
RTVSPost2010PropOp28
 70
     1
102
RTVSPost2010Prop29
280
     1
102
RTVSPost2010PropOp29
 70
     1
102
RTVSPost2010Prop30
280
     1
102
RTVSPost2010PropOp30
 70
     1
102
RTVSPost2010Prop31
280
     0
102
RTVSPost2010PropOp31
 70
     1
102
RTVSPost2010Prop32
280
     0
102
RTVSPost2010PropOp32
 70
     1
102
RTVSPost2010Prop33
280
     0
102
RTVSPost2010PropOp33
 70
     1
102
RTVSPost2010Prop34
280
     0
102
RTVSPost2010PropOp34
 70
     1
102
RTVSPost2010Prop35
280
     0
102
RTVSPost2010PropOp35
 70
     1
102
RTVSPost2010Prop36
280
     0
102
RTVSPost2010PropOp36
 70
     1
102
RTVSPost2010Prop37
 90
       50
102
RTVSPost2010PropOp37
 70
     1
102
RTVSPost2010Prop38
140
0.0
102
RTVSPost2010PropOp38
 70
     1
102
RTVSPost2010Prop39
140
1.0
102
RTVSPost2010PropOp39
 70
     1
102
RTVSPost2010Prop40
 90
        0
102
RTVSPost2010PropOp40
 70
     1
102
RTVSPost2010Prop41ColorIndex
 90
       18
102
RTVSPost2010Prop41ColorRGB
 90
        0
102
RTVSPost2010PropOp41
 70
     1
102
RTVSPost2010Prop42
 90
       50
102
RTVSPost2010PropOp42
 70
     1
102
RTVSPost2010Prop43
 90
        3
102
RTVSPost2010PropOp43
 70
     1
102
RTVSPost2010Prop44ColorIndex
 90
        5
102
RTVSPost2010Prop44ColorRGB
 90
      255
102
RTVSPost2010PropOp44
 70
     1
102
RTVSPost2010Prop45
280
     0
102
RTVSPost2010PropOp45
 70
     1
102
RTVSPost2010Prop46
 90
       50
102
RTVSPost2010PropOp46
 70
     1
102
RTVSPost2010Prop47
 90
       50
102
RTVSPost2010PropOp47
 70
     1
102
RTVSPost2010Prop48
 90
       50
102
RTVSPost2010PropOp48
 70
     1
102
RTVSPost2010Prop49
280
     0
102
RTVSPost2010PropOp49
 70
     1
102
RTVSPost2010Prop50
 90
       50
102
RTVSPost2010PropOp50
 70
     1
102
RTVSPost2010Prop51ColorIndex
 90
      256
102
RTVSPost2010Prop51ColorRGB
 90
-16777216
102
RTVSPost2010PropOp51
 70
     0
102
RTVSPost2010Prop52
140
1.0
102
RTVSPost2010PropOp52
 70
     0
102
RTVSPost2010Prop53
 90
        2
102
RTVSPost2010PropOp53
 70
     1
102
RTVSPost2010Prop54
  1
strokes_ogs.tif
102
RTVSPost2010PropOp54
 70
     1
102
RTVSPost2010Prop55
280
     0
102
RTVSPost2010PropOp55
 70
     1
102
RTVSPost2010Prop56
140
1.0
102
RTVSPost2010PropOp56
 70
     1
102
RTVSPost2010Prop57
140
1.0
102
RTVSPost2010PropOp57
 70
     1
102
RTVSPropertyOp0
 70
     1
102
RTVSPropertyOp1
 70
     1
102
RTVSPropertyOp2
 70
     1
102
RTVSPropertyOp3
 70
     1
102
RTVSPropertyOp4
 70
     1
102
RTVSPropertyOp5
 70
     1
102
RTVSPropertyOp6
 70
     1
102
RTVSPropertyOp7
 70
     1
102
RTVSPropertyOp8
 70
     1
102
RTVSPropertyOp9
 70
     1
102
RTVSPropertyOp10
 70
     1
102
RTVSPropertyOp11
 70
     1
102
RTVSPropertyOp12
 70
     1
102
RTVSPropertyOp13
 70
     1
102
RTVSPropertyOp14
 70
     1
102
RTVSPropertyOp15
 70
     1
102
RTVSPropertyOp16
 70
     1
102
RTVSPropertyOp17
 70
     1
102
RTVSPropertyOp18
 70
     1
102
RTVSPropertyOp19
 70
     1
102
RTVSPropertyOp20
 70
     1
102
RTVSPropertyOp21
 70
     1
102
RTVSPropertyOp22
 70
     1
102
RTVSPropertyOp23
 70
     1
102
RTVSPropertyOp24
 70
     1
102
RTVSPropertyOp25
 70
     1
102
RTVSPropertyOp26
 70
     1
102
RTVSPropertyOp27
 70
     1
102
RTVSPropertyOp28
 70
     1
102
RTVSPropertyOp29
 70
     1
102
RTVSPropertyOp30
 70
     1
102
RTVSPropertyOp31
 70
     1
102
RTVSPropertyOp32
 70
     1
102
RTVSPropertyOp33
 70
     1
102
RTVSPropertyOp34
 70
     1
102
RTVSPropertyOp35
 70
     1
102
RTVSPropertyOp36
 70
     1
102
RTVSPropertyOp37
 70
     1
102
RTVSPropertyOp38
 70
     1
102
RTVSPropertyOp39
 70
     1
102
RTVSPropertyOp40
 70
     1
102
RTVSPropertyOp41
 70
     1
102
RTVSPropertyOp42
 70
     1
102
RTVSPropertyOp43
 70
     1
102
RTVSPropertyOp44
 70
     1
102
RTVSPropertyOp45
 70
     1
102
RTVSPropertyOp46
 70
     1
102
RTVSPropertyOp47
 70
     1
102
RTVSPropertyOp48
 70
     1
102
RTVSPropertyOp49
 70
     1
102
RTVSPropertyOp50
 70
     1
102
RTVSPropertyOp51
 70
     0
102
RTVSPropertyOp52
 70
     0
102
RTVSPropertyOp53
 70
     1
102
RTVSPropertyOp54
 70
     1
102
RTVSPropertyOp55
 70
     1
102
RTVSPropertyOp56
 70
     1
102
RTVSPropertyOp57
 70
     1
102
RTVSPropertyOp58
 70
     1
102
RTVSPropertyOp59
 70
     1
102
RTVSPropertyOp60
 70
     1
102
RTVSPropertyOp61
 70
     1
102
RTVSPropertyOp62
 70
     1
  0
XRECORD
  5
86E
102
{ACAD_REACTORS
330
86D
102
}
330
86D
100
AcDbXrecord
280
     1
102
RTVSPost2010Prop28
280
     0
102
RTVSPost2010PropOp28
 70
     1
102
RTVSPost2010Prop29
280
     1
102
RTVSPost2010PropOp29
 70
     1
102
RTVSPost2010Prop30
280
     1
102
RTVSPost2010PropOp30
 70
     1
102
RTVSPost2010Prop31
280
     0
102
RTVSPost2010PropOp31
 70
     1
102
RTVSPost2010Prop32
280
     0
102
RTVSPost2010PropOp32
 70
     1
102
RTVSPost2010Prop33
280
     0
102
RTVSPost2010PropOp33
 70
     1
102
RTVSPost2010Prop34
280
     0
102
RTVSPost2010PropOp34
 70
     1
102
RTVSPost2010Prop35
280
     0
102
RTVSPost2010PropOp35
 70
     1
102
RTVSPost2010Prop36
280
     0
102
RTVSPost2010PropOp36
 70
     1
102
RTVSPost2010Prop37
 90
       50
102
RTVSPost2010PropOp37
 70
     1
102
RTVSPost2010Prop38
140
0.0
102
RTVSPost2010PropOp38
 70
     1
102
RTVSPost2010Prop39
140
1.0
102
RTVSPost2010PropOp39
 70
     1
102
RTVSPost2010Prop40
 90
        0
102
RTVSPost2010PropOp40
 70
     1
102
RTVSPost2010Prop41ColorIndex
 90
       18
102
RTVSPost2010Prop41ColorRGB
 90
        0
102
RTVSPost2010PropOp41
 70
     1
102
RTVSPost2010Prop42
 90
       50
102
RTVSPost2010PropOp42
 70
     1
102
RTVSPost2010Prop43
 90
        3
102
RTVSPost2010PropOp43
 70
     1
102
RTVSPost2010Prop44ColorIndex
 90
        5
102
RTVSPost2010Prop44ColorRGB
 90
      255
102
RTVSPost2010PropOp44
 70
     1
102
RTVSPost2010Prop45
280
     0
102
RTVSPost2010PropOp45
 70
     1
102
RTVSPost2010Prop46
 90
       50
102
RTVSPost2010PropOp46
 70
     1
102
RTVSPost2010Prop47
 90
       50
102
RTVSPost2010PropOp47
 70
     1
102
RTVSPost2010Prop48
 90
       50
102
RTVSPost2010PropOp48
 70
     1
102
RTVSPost2010Prop49
280
     0
102
RTVSPost2010PropOp49
 70
     1
102
RTVSPost2010Prop50
 90
       50
102
RTVSPost2010PropOp50
 70
     1
102
RTVSPost2010Prop51ColorIndex
 90
      256
102
RTVSPost2010Prop51ColorRGB
 90
-16777216
102
RTVSPost2010PropOp51
 70
     0
102
RTVSPost2010Prop52
140
1.0
102
RTVSPost2010PropOp52
 70
     0
102
RTVSPost2010Prop53
 90
        2
102
RTVSPost2010PropOp53
 70
     1
102
RTVSPost2010Prop54
  1
strokes_ogs.tif
102
RTVSPost2010PropOp54
 70
     1
102
RTVSPost2010Prop55
280
     0
102
RTVSPost2010PropOp55
 70
     1
102
RTVSPost2010Prop56
140
1.0
102
RTVSPost2010PropOp56
 70
     1
102
RTVSPost2010Prop57
140
1.0
102
RTVSPost2010PropOp57
 70
     1
102
RTVSPropertyOp0
 70
     1
102
RTVSPropertyOp1
 70
     1
102
RTVSPropertyOp2
 70
     1
102
RTVSPropertyOp3
 70
     1
102
RTVSPropertyOp4
 70
     1
102
RTVSPropertyOp5
 70
     1
102
RTVSPropertyOp6
 70
     1
102
RTVSPropertyOp7
 70
     1
102
RTVSPropertyOp8
 70
     1
102
RTVSPropertyOp9
 70
     1
102
RTVSPropertyOp10
 70
     1
102
RTVSPropertyOp11
 70
     1
102
RTVSPropertyOp12
 70
     1
102
RTVSPropertyOp13
 70
     1
102
RTVSPropertyOp14
 70
     1
102
RTVSPropertyOp15
 70
     1
102
RTVSPropertyOp16
 70
     1
102
RTVSPropertyOp17
 70
     1
102
RTVSPropertyOp18
 70
     1
102
RTVSPropertyOp19
 70
     1
102
RTVSPropertyOp20
 70
     1
102
RTVSPropertyOp21
 70
     1
102
RTVSPropertyOp22
 70
     1
102
RTVSPropertyOp23
 70
     1
102
RTVSPropertyOp24
 70
     1
102
RTVSPropertyOp25
 70
     1
102
RTVSPropertyOp26
 70
     1
102
RTVSPropertyOp27
 70
     1
102
RTVSPropertyOp28
 70
     1
102
RTVSPropertyOp29
 70
     1
102
RTVSPropertyOp30
 70
     1
102
RTVSPropertyOp31
 70
     1
102
RTVSPropertyOp32
 70
     1
102
RTVSPropertyOp33
 70
     1
102
RTVSPropertyOp34
 70
     1
102
RTVSPropertyOp35
 70
     1
102
RTVSPropertyOp36
 70
     1
102
RTVSPropertyOp37
 70
     1
102
RTVSPropertyOp38
 70
     1
102
RTVSPropertyOp39
 70
     1
102
RTVSPropertyOp40
 70
     1
102
RTVSPropertyOp41
 70
     1
102
RTVSPropertyOp42
 70
     1
102
RTVSPropertyOp43
 70
     1
102
RTVSPropertyOp44
 70
     1
102
RTVSPropertyOp45
 70
     1
102
RTVSPropertyOp46
 70
     1
102
RTVSPropertyOp47
 70
     1
102
RTVSPropertyOp48
 70
     1
102
RTVSPropertyOp49
 70
     1
102
RTVSPropertyOp50
 70
     1
102
RTVSPropertyOp51
 70
     0
102
RTVSPropertyOp52
 70
     0
102
RTVSPropertyOp53
 70
     1
102
RTVSPropertyOp54
 70
     1
102
RTVSPropertyOp55
 70
     1
102
RTVSPropertyOp56
 70
     1
102
RTVSPropertyOp57
 70
     1
102
RTVSPropertyOp58
 70
     1
102
RTVSPropertyOp59
 70
     1
102
RTVSPropertyOp60
 70
     1
102
RTVSPropertyOp61
 70
     1
102
RTVSPropertyOp62
 70
     1
  0
ENDSEC
  0
EOF
