  0
SECTION
  2
HEADER
  9
$ACADVER
  1
AC1018
  9
$ACADMAINTVER
 70
     2
  9
$DWGCODEPAGE
  3
ANSI_1252
  9
$INSBASE
 10
0.0
 20
0.0
 30
0.0
  9
$EXTMIN
 10
0.0
 20
0.0
 30
0.0
  9
$EXTMAX
 10
840.0
 20
594.0
 30
0.0
  9
$LIMMIN
 10
0.0
 20
0.0
  9
$LIMMAX
 10
840.0
 20
594.0
  9
$ORTHOMODE
 70
     1
  9
$REGENMODE
 70
     1
  9
$FILLMODE
 70
     1
  9
$QTEXTMODE
 70
     0
  9
$MIRRTEXT
 70
     1
  9
$LTSCALE
 40
20.0
  9
$ATTMODE
 70
     1
  9
$TEXTSIZE
 40
3.5
  9
$TRACEWID
 40
1.0
  9
$TEXTSTYLE
  7
STANDARD
  9
$CLAYER
  8
BEM
  9
$CELTYPE
  6
ByLayer
  9
$CECOLOR
 62
   256
  9
$CELTSCALE
 40
1.0
  9
$DISPSILH
 70
     0
  9
$DIMSCALE
 40
2.0
  9
$DIMASZ
 40
3.5
  9
$DIMEXO
 40
1.0
  9
$DIMDLI
 40
7.0
  9
$DIMRND
 40
0.0
  9
$DIMDLE
 40
0.0
  9
$DIMEXE
 40
1.0
  9
$DIMTP
 40
0.0
  9
$DIMTM
 40
0.0
  9
$DIMTXT
 40
3.5
  9
$DIMCEN
 40
1.5
  9
$DIMTSZ
 40
0.0
  9
$DIMTOL
 70
     0
  9
$DIMLIM
 70
     0
  9
$DIMTIH
 70
     0
  9
$DIMTOH
 70
     0
  9
$DIMSE1
 70
     0
  9
$DIMSE2
 70
     0
  9
$DIMTAD
 70
     1
  9
$DIMZIN
 70
     8
  9
$DIMBLK
  1

  9
$DIMASO
 70
     1
  9
$DIMSHO
 70
     0
  9
$DIMPOST
  1

  9
$DIMAPOST
  1

  9
$DIMALT
 70
     0
  9
$DIMALTD
 70
     2
  9
$DIMALTF
 40
25.4
  9
$DIMLFAC
 40
1.0
  9
$DIMTOFL
 70
     1
  9
$DIMTVP
 40
0.0
  9
$DIMTIX
 70
     0
  9
$DIMSOXD
 70
     0
  9
$DIMSAH
 70
     0
  9
$DIMBLK1
  1

  9
$DIMBLK2
  1

  9
$DIMSTYLE
  2
Standard
  9
$DIMCLRD
 70
     0
  9
$DIMCLRE
 70
     0
  9
$DIMCLRT
 70
     1
  9
$DIMTFAC
 40
0.5
  9
$DIMGAP
 40
1.5
  9
$DIMJUST
 70
     0
  9
$DIMSD1
 70
     0
  9
$DIMSD2
 70
     0
  9
$DIMTOLJ
 70
     1
  9
$DIMTZIN
 70
     8
  9
$DIMALTZ
 70
     8
  9
$DIMALTTZ
 70
     8
  9
$DIMUPT
 70
     0
  9
$DIMDEC
 70
     2
  9
$DIMTDEC
 70
     2
  9
$DIMALTU
 70
     2
  9
$DIMALTTD
 70
     2
  9
$DIMTXSTY
  7
STANDARD
  9
$DIMAUNIT
 70
     0
  9
$DIMADEC
 70
     2
  9
$DIMALTRND
 40
0.0
  9
$DIMAZIN
 70
     2
  9
$DIMDSEP
 70
    46
  9
$DIMATFIT
 70
     3
  9
$DIMFRAC
 70
     0
  9
$DIMLDRBLK
  1

  9
$DIMLUNIT
 70
     2
  9
$DIMLWD
 70
    -2
  9
$DIMLWE
 70
    -2
  9
$DIMTMOVE
 70
     0
  9
$LUNITS
 70
     2
  9
$LUPREC
 70
     2
  9
$SKETCHINC
 40
1.0
  9
$FILLETRAD
 40
0.0
  9
$AUNITS
 70
     0
  9
$AUPREC
 70
     0
  9
$MENU
  1
ACAD
  9
$ELEVATION
 40
0.0
  9
$PELEVATION
 40
0.0
  9
$THICKNESS
 40
0.0
  9
$LIMCHECK
 70
     0
  9
$CHAMFERA
 40
0.0
  9
$CHAMFERB
 40
0.0
  9
$CHAMFERC
 40
0.0
  9
$CHAMFERD
 40
0.0
  9
$SKPOLY
 70
     0
  9
$TDCREATE
 40
2455397.825393172
  9
$TDUCREATE
 40
2455397.783726505
  9
$TDUPDATE
 40
2455545.469074051
  9
$TDUUPDATE
 40
2455545.427407384
  9
$TDINDWG
 40
0.0846378125
  9
$TDUSRTIMER
 40
0.0846378125
  9
$USRTIMER
 70
     1
  9
$ANGBASE
 50
0.0
  9
$ANGDIR
 70
     0
  9
$PDMODE
 70
     0
  9
$PDSIZE
 40
0.0
  9
$PLINEWID
 40
0.0
  9
$SPLFRAME
 70
     0
  9
$SPLINETYPE
 70
     6
  9
$SPLINESEGS
 70
     8
  9
$HANDSEED
  5
172E
  9
$SURFTAB1
 70
     6
  9
$SURFTAB2
 70
     6
  9
$SURFTYPE
 70
     6
  9
$SURFU
 70
     6
  9
$SURFV
 70
     6
  9
$UCSBASE
  2

  9
$UCSNAME
  2

  9
$UCSORG
 10
0.0
 20
0.0
 30
0.0
  9
$UCSXDIR
 10
1.0
 20
0.0
 30
0.0
  9
$UCSYDIR
 10
0.0
 20
1.0
 30
0.0
  9
$UCSORTHOREF
  2

  9
$UCSORTHOVIEW
 70
     0
  9
$UCSORGTOP
 10
0.0
 20
0.0
 30
0.0
  9
$UCSORGBOTTOM
 10
0.0
 20
0.0
 30
0.0
  9
$UCSORGLEFT
 10
0.0
 20
0.0
 30
0.0
  9
$UCSORGRIGHT
 10
0.0
 20
0.0
 30
0.0
  9
$UCSORGFRONT
 10
0.0
 20
0.0
 30
0.0
  9
$UCSORGBACK
 10
0.0
 20
0.0
 30
0.0
  9
$PUCSBASE
  2

  9
$PUCSNAME
  2

  9
$PUCSORG
 10
0.0
 20
0.0
 30
0.0
  9
$PUCSXDIR
 10
1.0
 20
0.0
 30
0.0
  9
$PUCSYDIR
 10
0.0
 20
1.0
 30
0.0
  9
$PUCSORTHOREF
  2

  9
$PUCSORTHOVIEW
 70
     0
  9
$PUCSORGTOP
 10
0.0
 20
0.0
 30
0.0
  9
$PUCSORGBOTTOM
 10
0.0
 20
0.0
 30
0.0
  9
$PUCSORGLEFT
 10
0.0
 20
0.0
 30
0.0
  9
$PUCSORGRIGHT
 10
0.0
 20
0.0
 30
0.0
  9
$PUCSORGFRONT
 10
0.0
 20
0.0
 30
0.0
  9
$PUCSORGBACK
 10
0.0
 20
0.0
 30
0.0
  9
$USERI1
 70
     0
  9
$USERI2
 70
     0
  9
$USERI3
 70
     0
  9
$USERI4
 70
     0
  9
$USERI5
 70
     0
  9
$USERR1
 40
0.0
  9
$USERR2
 40
0.0
  9
$USERR3
 40
0.0
  9
$USERR4
 40
0.0
  9
$USERR5
 40
0.0
  9
$WORLDVIEW
 70
     1
  9
$SHADEDGE
 70
     3
  9
$SHADEDIF
 70
    70
  9
$TILEMODE
 70
     1
  9
$MAXACTVP
 70
    16
  9
$PINSBASE
 10
0.0
 20
0.0
 30
0.0
  9
$PLIMCHECK
 70
     0
  9
$PEXTMIN
 10
1.000000000000000E+20
 20
1.000000000000000E+20
 30
1.000000000000000E+20
  9
$PEXTMAX
 10
-1.000000000000000E+20
 20
-1.000000000000000E+20
 30
-1.000000000000000E+20
  9
$PLIMMIN
 10
0.0
 20
0.0
  9
$PLIMMAX
 10
12.0
 20
9.0
  9
$UNITMODE
 70
     0
  9
$VISRETAIN
 70
     0
  9
$PLINEGEN
 70
     0
  9
$PSLTSCALE
 70
     0
  9
$TREEDEPTH
 70
  3020
  9
$CMLSTYLE
  2
Standard
  9
$CMLJUST
 70
     0
  9
$CMLSCALE
 40
1.0
  9
$PROXYGRAPHICS
 70
     1
  9
$MEASUREMENT
 70
     0
  9
$CELWEIGHT
370
    -1
  9
$ENDCAPS
280
     0
  9
$JOINSTYLE
280
     0
  9
$LWDISPLAY
290
     0
  9
$INSUNITS
 70
     0
  9
$HYPERLINKBASE
  1

  9
$STYLESHEET
  1
monochrome 1.ctb
  9
$XEDIT
290
     1
  9
$CEPSNTYPE
380
     0
  9
$PSTYLEMODE
290
     1
  9
$FINGERPRINTGUID
  2
{D68B0D0D-A558-11D7-B632-000102183313}
  9
$VERSIONGUID
  2
{A8E8DBF9-C1E2-43D3-A562-1D208E252AA1}
  9
$EXTNAMES
290
     1
  9
$PSVPSCALE
 40
0.0
  9
$OLESTARTUP
290
     0
  9
$SORTENTS
280
   127
  9
$INDEXCTL
280
     0
  9
$HIDETEXT
280
     0
  9
$XCLIPFRAME
290
     0
  9
$HALOGAP
280
     0
  9
$OBSCOLOR
 70
   257
  9
$OBSLTYPE
280
     0
  9
$INTERSECTIONDISPLAY
280
     0
  9
$INTERSECTIONCOLOR
 70
   257
  9
$DIMASSOC
280
     1
  9
$PROJECTNAME
  1

  0
ENDSEC
  0
SECTION
  2
CLASSES
  0
CLASS
  1
ACDBDICTIONARYWDFLT
  2
AcDbDictionaryWithDefault
  3
ObjectDBX Classes
 90
        0
 91
        1
280
     0
281
     0
  0
CLASS
  1
DICTIONARYVAR
  2
AcDbDictionaryVar
  3
ObjectDBX Classes
 90
        0
 91
        2
280
     0
281
     0
  0
ENDSEC
  0
SECTION
  2
TABLES
  0
TABLE
  2
VPORT
  5
8
330
0
100
AcDbSymbolTable
 70
     2
  0
VPORT
  5
172D
330
8
100
AcDbSymbolTableRecord
100
AcDbViewportTableRecord
  2
*Active
 70
     0
 10
0.0
 20
0.0
 11
1.0
 21
1.0
 12
419.9999999999999
 22
297.0
 13
0.0
 23
0.0
 14
1.0
 24
1.0
 15
10.0
 25
10.0
 16
0.0
 26
0.0
 36
1.0
 17
0.0
 27
0.0
 37
0.0
 40
628.3468163032175
 41
1.336927223719676
 42
50.0
 43
0.0
 44
0.0
 50
0.0
 51
0.0
 71
     0
 72
  1500
 73
     1
 74
     0
 75
     0
 76
     0
 77
     0
 78
     0
281
     0
 65
     1
110
0.0
120
0.0
130
0.0
111
1.0
121
0.0
131
0.0
112
0.0
122
1.0
132
0.0
 79
     0
146
0.0
  0
ENDTAB
  0
TABLE
  2
LTYPE
  5
5
330
0
100
AcDbSymbolTable
 70
     3
  0
LTYPE
  5
13
330
5
100
AcDbSymbolTableRecord
100
AcDbLinetypeTableRecord
  2
ByBlock
 70
     0
  3

 72
    65
 73
     0
 40
0.0
  0
LTYPE
  5
14
330
5
100
AcDbSymbolTableRecord
100
AcDbLinetypeTableRecord
  2
ByLayer
 70
     0
  3

 72
    65
 73
     0
 40
0.0
  0
LTYPE
  5
15
330
5
100
AcDbSymbolTableRecord
100
AcDbLinetypeTableRecord
  2
Continuous
 70
     0
  3
Solid line
 72
    65
 73
     0
 40
0.0
  0
LTYPE
  5
25
330
5
100
AcDbSymbolTableRecord
100
AcDbLinetypeTableRecord
  2
STRICHPUNKT
 70
     0
  3
__ . __ . __ . __ . __ . __ . __ . __ . __ . __
 72
    65
 73
     4
 40
1.0
 49
0.5
 74
     0
 49
-0.25
 74
     0
 49
0.0
 74
     0
 49
-0.25
 74
     0
  0
LTYPE
  5
34
330
5
100
AcDbSymbolTableRecord
100
AcDbLinetypeTableRecord
  2
AUSGEZOGEN
 70
     0
  3
Ausgezogene Linie
 72
    65
 73
     0
 40
0.0
  0
ENDTAB
  0
TABLE
  2
LAYER
  5
2
330
0
100
AcDbSymbolTable
 70
     9
  0
LAYER
  5
10
330
2
100
AcDbSymbolTableRecord
100
AcDbLayerTableRecord
  2
0
 70
     0
 62
     7
  6
Continuous
370
    -3
390
F
  0
LAYER
  5
2B
330
2
100
AcDbSymbolTableRecord
100
AcDbLayerTableRecord
  2
VOLL
 70
     0
 62
     1
  6
Continuous
370
    -3
390
F
  0
LAYER
  5
2C
330
2
100
AcDbSymbolTableRecord
100
AcDbLayerTableRecord
  2
HILF
 70
     0
 62
     2
  6
Continuous
370
    -3
390
F
  0
LAYER
  5
2D
330
2
100
AcDbSymbolTableRecord
100
AcDbLayerTableRecord
  2
MITTEL
 70
     0
 62
     2
  6
STRICHPUNKT
370
    -3
390
F
  0
LAYER
  5
2F
330
2
100
AcDbSymbolTableRecord
100
AcDbLayerTableRecord
  2
BEM
 70
     0
 62
     7
  6
Continuous
370
    -3
390
F
  0
LAYER
  5
30
330
2
100
AcDbSymbolTableRecord
100
AcDbLayerTableRecord
  2
STEMPEL
 70
     0
 62
     3
  6
Continuous
370
    -3
390
F
  0
LAYER
  5
33
330
2
100
AcDbSymbolTableRecord
100
AcDbLayerTableRecord
  2
TEXT
 70
     0
 62
     7
  6
Continuous
370
    -3
390
F
  0
LAYER
  5
1E9
330
2
100
AcDbSymbolTableRecord
100
AcDbLayerTableRecord
  2
DEFPOINTS
 70
     0
 62
     7
  6
AUSGEZOGEN
290
     0
370
    -3
390
F
  0
LAYER
  5
1EA
330
2
100
AcDbSymbolTableRecord
100
AcDbLayerTableRecord
  2
SCHRAFF
 70
     0
 62
     7
  6
AUSGEZOGEN
370
    -3
390
F
  0
ENDTAB
  0
TABLE
  2
STYLE
  5
3
330
0
100
AcDbSymbolTable
 70
     2
  0
STYLE
  5
11
330
3
100
AcDbSymbolTableRecord
100
AcDbTextStyleTableRecord
  2
STANDARD
 70
     0
 40
0.0
 41
0.8
 50
0.0
 71
     0
 42
3.5
  3
simplex.shx
  4

  0
STYLE
  5
24
330
3
100
AcDbSymbolTableRecord
100
AcDbTextStyleTableRecord
  2
GREEKS
 70
     0
 40
0.0
 41
0.8
 50
0.0
 71
     0
 42
2.5
  3
SIMPLEX.shx
  4

  0
ENDTAB
  0
TABLE
  2
VIEW
  5
6
330
0
100
AcDbSymbolTable
 70
     0
  0
ENDTAB
  0
TABLE
  2
UCS
  5
7
330
0
100
AcDbSymbolTable
 70
     0
  0
ENDTAB
  0
TABLE
  2
APPID
  5
9
330
0
100
AcDbSymbolTable
 70
     1
  0
APPID
  5
12
330
9
100
AcDbSymbolTableRecord
100
AcDbRegAppTableRecord
  2
ACAD
 70
     0
  0
ENDTAB
  0
TABLE
  2
DIMSTYLE
  5
A
330
0
100
AcDbSymbolTable
 70
     1
100
AcDbDimStyleTable
 71
     1
340
A2
  0
DIMSTYLE
105
A2
102
{ACAD_REACTORS
330
1137
330
1145
330
137C
330
141E
330
1622
330
1637
330
1639
102
}
330
A
100
AcDbSymbolTableRecord
100
AcDbDimStyleTableRecord
  2
Standard
 70
     0
340
11
  0
ENDTAB
  0
TABLE
  2
BLOCK_RECORD
  5
1
330
0
100
AcDbSymbolTable
 70
     9
  0
BLOCK_RECORD
  5
1E
102
{ACAD_XDICTIONARY
360
DB
102
}
330
1
100
AcDbSymbolTableRecord
100
AcDbBlockTableRecord
  2
*Model_Space
340
21
  0
BLOCK_RECORD
  5
1A
102
{ACAD_XDICTIONARY
360
DD
102
}
330
1
100
AcDbSymbolTableRecord
100
AcDbBlockTableRecord
  2
*Paper_Space
340
1D
  0
BLOCK_RECORD
  5
22
330
1
100
AcDbSymbolTableRecord
100
AcDbBlockTableRecord
  2
LOGO
340
0
102
{BLKREFS
331
56
102
}
  0
BLOCK_RECORD
  5
23
330
1
100
AcDbSymbolTableRecord
100
AcDbBlockTableRecord
  2
LORO
340
0
102
{BLKREFS
331
9B
102
}
  0
BLOCK_RECORD
  5
1231
330
1
100
AcDbSymbolTableRecord
100
AcDbBlockTableRecord
  2
*D2
340
0
  0
BLOCK_RECORD
  5
124E
330
1
100
AcDbSymbolTableRecord
100
AcDbBlockTableRecord
  2
*D3
340
0
  0
BLOCK_RECORD
  5
137D
330
1
100
AcDbSymbolTableRecord
100
AcDbBlockTableRecord
  2
*D4
340
0
  0
BLOCK_RECORD
  5
146D
330
1
100
AcDbSymbolTableRecord
100
AcDbBlockTableRecord
  2
*D5
340
0
  0
BLOCK_RECORD
  5
1643
330
1
100
AcDbSymbolTableRecord
100
AcDbBlockTableRecord
  2
*D6
340
0
  0
BLOCK_RECORD
  5
164F
330
1
100
AcDbSymbolTableRecord
100
AcDbBlockTableRecord
  2
*D7
340
0
  0
BLOCK_RECORD
  5
165B
330
1
100
AcDbSymbolTableRecord
100
AcDbBlockTableRecord
  2
*D8
340
0
  0
ENDTAB
  0
ENDSEC
  0
SECTION
  2
BLOCKS
  0
BLOCK
  5
37
330
1E
100
AcDbEntity
  8
0
100
AcDbBlockBegin
  2
*Model_Space
 70
     0
 10
0.0
 20
0.0
 30
0.0
  3
*Model_Space
  1

  0
ENDBLK
  5
38
330
1E
100
AcDbEntity
  8
0
100
AcDbBlockEnd
  0
BLOCK
  5
35
330
1A
100
AcDbEntity
 67
     1
  8
0
100
AcDbBlockBegin
  2
*Paper_Space
 70
     0
 10
0.0
 20
0.0
 30
0.0
  3
*Paper_Space
  1

  0
ENDBLK
  5
36
330
1A
100
AcDbEntity
 67
     1
  8
0
100
AcDbBlockEnd
  0
BLOCK
  5
39
330
22
100
AcDbEntity
  8
0
100
AcDbBlockBegin
  2
LOGO
 70
     0
 10
0.0
 20
0.0
 30
0.0
  3
LOGO
  1

  0
ARC
  5
3A
330
22
100
AcDbEntity
  8
0
100
AcDbCircle
 10
11.59973089678112
 20
-9.271599258481501
 30
0.0
 40
4.5
100
AcDbArc
 50
270.0
 51
231.0575587310159
  0
LINE
  5
3B
330
22
100
AcDbEntity
  8
0
100
AcDbLine
 10
3.599730896781125
 20
-4.771599258481529
 30
0.0
 11
3.599730896781153
 21
-11.77159925848133
 31
0.0
  0
LINE
  5
3C
330
22
100
AcDbEntity
  8
0
100
AcDbLine
 10
2.599730896781125
 20
-4.771599258481529
 30
0.0
 11
2.599730896781153
 21
-11.77159925848133
 31
0.0
  0
CIRCLE
  5
3D
330
22
100
AcDbEntity
  8
0
100
AcDbCircle
 10
11.59973089678112
 20
-9.271599258481501
 30
0.0
 40
3.5
  0
ARC
  5
3E
330
22
100
AcDbEntity
  8
0
100
AcDbCircle
 10
31.59973089678115
 20
-9.271599258481472
 30
0.0
 40
4.5
100
AcDbArc
 50
270.0
 51
231.0575587310182
  0
LINE
  5
3F
330
22
100
AcDbEntity
  8
0
100
AcDbLine
 10
17.59973089678112
 20
-4.771599258481472
 30
0.0
 11
17.59973089678115
 21
-13.77159925848147
 31
0.0
  0
ARC
  5
40
330
22
100
AcDbEntity
  8
0
100
AcDbCircle
 10
22.59973089678116
 20
-7.271599258481472
 30
0.0
 40
2.5
100
AcDbArc
 50
293.1161887722295
 51
90.0
  0
CIRCLE
  5
41
330
22
100
AcDbEntity
  8
0
100
AcDbCircle
 10
31.59973089678115
 20
-9.271599258481472
 30
0.0
 40
3.5
  0
ARC
  5
42
330
22
100
AcDbEntity
  8
0
100
AcDbCircle
 10
4.599730896781153
 20
-11.77159925848133
 30
0.0
 40
1.0
100
AcDbArc
 50
180.0
 51
270.0
  0
ARC
  5
43
330
22
100
AcDbEntity
  8
0
100
AcDbCircle
 10
4.599730896781153
 20
-11.77159925848133
 30
0.0
 40
2.0
100
AcDbArc
 50
179.9999999999992
 51
270.0
  0
LINE
  5
44
330
22
100
AcDbEntity
  8
0
100
AcDbLine
 10
11.59973089678115
 20
-13.77159925848144
 30
0.0
 11
4.599730896781153
 21
-13.77159925848147
 31
0.0
  0
LINE
  5
45
330
22
100
AcDbEntity
  8
0
100
AcDbLine
 10
8.771303772034769
 20
-12.77159925848136
 30
0.0
 11
4.599730896781153
 21
-12.77159925848133
 31
0.0
  0
LINE
  5
46
330
22
100
AcDbEntity
  8
0
100
AcDbLine
 10
31.59973089678115
 20
-13.77159925848147
 30
0.0
 11
23.6715276665056
 21
-13.77159925848144
 31
0.0
  0
LINE
  5
47
330
22
100
AcDbEntity
  8
0
100
AcDbLine
 10
23.56565672307022
 20
-9.51278021337896
 30
0.0
 11
24.4388546544846
 21
-12.77159925848144
 31
0.0
  0
LINE
  5
48
330
22
100
AcDbEntity
  8
0
100
AcDbLine
 10
22.59973089678116
 20
-9.771599258481472
 30
0.0
 11
18.59973089678112
 21
-9.771599258481472
 31
0.0
  0
LINE
  5
49
330
22
100
AcDbEntity
  8
0
100
AcDbLine
 10
18.59973089678115
 20
-13.77159925848144
 30
0.0
 11
17.59973089678115
 21
-13.77159925848144
 31
0.0
  0
LINE
  5
4A
330
22
100
AcDbEntity
  8
0
100
AcDbLine
 10
18.59973089678115
 20
-9.771599258481472
 30
0.0
 11
18.59973089678115
 21
-13.77159925848144
 31
0.0
  0
LINE
  5
4B
330
22
100
AcDbEntity
  8
0
100
AcDbLine
 10
22.59973089678116
 20
-9.771599258481472
 30
0.0
 11
23.67152766650562
 21
-13.77159925848147
 31
0.0
  0
ARC
  5
4C
330
22
100
AcDbEntity
  8
0
100
AcDbCircle
 10
22.59973089678116
 20
-7.271599258481472
 30
0.0
 40
2.5
100
AcDbArc
 50
270.0
 51
270.0000000000007
  0
LINE
  5
4D
330
22
100
AcDbEntity
  8
0
100
AcDbLine
 10
28.77130377203494
 20
-12.77159925848147
 30
0.0
 11
24.43885465448463
 21
-12.77159925848144
 31
0.0
  0
LINE
  5
4E
330
22
100
AcDbEntity
  8
0
100
AcDbLine
 10
3.599730896781125
 20
-4.771599258481472
 30
0.0
 11
2.599730896781125
 21
-4.771599258481472
 31
0.0
  0
LINE
  5
4F
330
22
100
AcDbEntity
  8
0
100
AcDbLine
 10
22.59973089678116
 20
-8.771599258481472
 30
0.0
 11
18.59973089678115
 21
-8.771599258481472
 31
0.0
  0
LINE
  5
50
330
22
100
AcDbEntity
  8
0
100
AcDbLine
 10
22.59973089678116
 20
-5.771599258481472
 30
0.0
 11
18.59973089678115
 21
-5.771599258481472
 31
0.0
  0
LINE
  5
51
330
22
100
AcDbEntity
  8
0
100
AcDbLine
 10
22.59973089678116
 20
-4.771599258481472
 30
0.0
 11
17.59973089678115
 21
-4.771599258481472
 31
0.0
  0
LINE
  5
52
330
22
100
AcDbEntity
  8
0
100
AcDbLine
 10
18.59973089678115
 20
-5.771599258481472
 30
0.0
 11
18.59973089678115
 21
-8.771599258481472
 31
0.0
  0
ARC
  5
53
330
22
100
AcDbEntity
  8
0
100
AcDbCircle
 10
22.59973089678116
 20
-7.271599258481472
 30
0.0
 40
1.5
100
AcDbArc
 50
270.0
 51
90.0
  0
ENDBLK
  5
54
330
22
100
AcDbEntity
  8
0
100
AcDbBlockEnd
  0
BLOCK
  5
55
330
23
100
AcDbEntity
  8
0
100
AcDbBlockBegin
  2
LORO
 70
     0
 10
0.0
 20
0.0
 30
0.0
  3
LORO
  1

  0
INSERT
  5
56
330
23
100
AcDbEntity
  8
STEMPEL
100
AcDbBlockReference
  2
LOGO
 10
-1.748032802467321
 20
3.771489518552062
 30
0.0
  0
ENDBLK
  5
57
330
23
100
AcDbEntity
  8
0
100
AcDbBlockEnd
  0
BLOCK
  5
1240
330
1231
100
AcDbEntity
  8
0
100
AcDbBlockBegin
  2
*D2
 70
     1
 10
0.0
 20
0.0
 30
0.0
  3
*D2
  1

  0
LINE
  5
127E
330
1231
100
AcDbEntity
  8
BEM
 62
     0
370
    -2
100
AcDbLine
 10
381.887679725341
 20
268.2219490151902
 30
0.0
 11
427.5118475234927
 21
268.2219490151916
 31
0.0
  0
ARC
  5
127F
330
1231
100
AcDbEntity
  8
BEM
 62
     0
370
    -2
100
AcDbCircle
 10
379.8876797253402
 20
268.2219490151902
 30
0.0
 40
45.62416779815263
100
AcDbArc
 50
339.3487895191614
 51
356.9999999999998
  0
LINE
  5
1280
330
1231
100
AcDbEntity
  8
BEM
 62
     0
370
    -2
100
AcDbLine
 10
422.5802524240036
 20
252.1313019292797
 30
0.0
 11
418.2070433662953
 21
240.5280677879906
 31
0.0
  0
ARC
  5
1281
330
1231
100
AcDbEntity
  8
BEM
 62
     0
370
    -2
100
AcDbCircle
 10
379.8876797253402
 20
268.2219490151902
 30
0.0
 40
45.62416779815263
100
AcDbArc
 50
339.4012182833634
 51
348.2006091416816
  0
ARC
  5
1282
330
1231
100
AcDbEntity
  8
BEM
 62
     0
370
    -2
100
AcDbCircle
 10
379.8876797253402
 20
268.2219490151902
 30
0.0
 40
45.62416779815263
100
AcDbArc
 50
8.79939085831972
 51
17.59878171663792
  0
ARC
  5
1283
330
1231
100
AcDbEntity
  8
BEM
 62
     0
370
    -2
100
AcDbCircle
 10
379.8876797253402
 20
268.2219490151902
 30
0.0
 40
45.62416779815263
100
AcDbArc
 50
356.9999999999998
 51
0.0000000000015987
  0
SOLID
  5
1284
330
1231
100
AcDbEntity
  8
BEM
 62
     0
100
AcDbTrace
 10
423.3908384233872
 20
259.0427170158396
 30
0.0
 11
425.7047393997581
 21
258.7422062573058
 31
0.0
 12
425.449321187174
 22
265.8341645656852
 32
0.0
 13
425.449321187174
 23
265.8341645656852
 33
0.0
  0
SOLID
  5
1285
330
1231
100
AcDbEntity
  8
BEM
 62
     0
100
AcDbTrace
 10
426.1380801139976
 20
275.2908204847898
 30
0.0
 11
423.811622740587
 21
275.1118217860563
 31
0.0
 12
425.5118475234928
 22
268.2219490151915
 32
0.0
 13
425.5118475234928
 23
268.2219490151915
 33
0.0
  0
MTEXT
  5
1286
330
1231
100
AcDbEntity
  8
BEM
 62
     1
100
AcDbMText
 10
414.3113074178609
 20
248.6220928324341
 30
0.0
 40
7.0
 41
0.0
 71
     5
 72
     1
  1
\A1;3°
 11
0.3526781498152117
 21
0.935744688813631
 31
0.0
 73
     1
 44
1.0
  0
POINT
  5
1287
330
1231
100
AcDbEntity
  8
DEFPOINTS
 62
     0
100
AcDbPoint
 10
425.5048987417517
 20
267.4256974954149
 30
0.0
  0
POINT
  5
1288
330
1231
100
AcDbEntity
  8
DEFPOINTS
 62
     0
100
AcDbPoint
 10
379.8823516576149
 20
268.2222282473876
 30
0.0
  0
POINT
  5
1289
330
1231
100
AcDbEntity
  8
DEFPOINTS
 62
     0
100
AcDbPoint
 10
379.887679725341
 20
268.2219490151902
 30
0.0
  0
POINT
  5
128A
330
1231
100
AcDbEntity
  8
DEFPOINTS
 62
     0
100
AcDbPoint
 10
377.8876797253411
 20
268.2219490151902
 30
0.0
  0
POINT
  5
128B
330
1231
100
AcDbEntity
  8
DEFPOINTS
 62
     0
100
AcDbPoint
 10
632.8782402618784
 20
254.9632755578975
 30
0.0
  0
ENDBLK
  5
1241
330
1231
100
AcDbEntity
  8
0
100
AcDbBlockEnd
  0
BLOCK
  5
1258
330
124E
100
AcDbEntity
  8
0
100
AcDbBlockBegin
  2
*D3
 70
     1
 10
0.0
 20
0.0
 30
0.0
  3
*D3
  1

  0
LINE
  5
159F
330
124E
100
AcDbEntity
  8
BEM
 62
     0
370
    -2
100
AcDbLine
 10
229.8823516576148
 20
363.1202834266262
 30
0.0
 11
229.8823516576148
 21
401.5809787673813
 31
0.0
  0
LINE
  5
15A0
330
124E
100
AcDbEntity
  8
BEM
 62
     0
370
    -2
100
AcDbLine
 10
529.8823516576147
 20
362.1202834266262
 30
0.0
 11
529.8823516576147
 21
401.5809787673813
 31
0.0
  0
LINE
  5
15A1
330
124E
100
AcDbEntity
  8
BEM
 62
     0
370
    -2
100
AcDbLine
 10
236.8823516576148
 20
399.5809787673814
 30
0.0
 11
522.8823516576148
 21
399.5809787673814
 31
0.0
  0
SOLID
  5
15A2
330
124E
100
AcDbEntity
  8
BEM
 62
     0
100
AcDbTrace
 10
236.8823516576148
 20
400.747645434048
 30
0.0
 11
236.8823516576148
 21
398.4143121007146
 31
0.0
 12
229.8823516576148
 22
399.5809787673814
 32
0.0
 13
229.8823516576148
 23
399.5809787673814
 33
0.0
  0
SOLID
  5
15A3
330
124E
100
AcDbEntity
  8
BEM
 62
     0
100
AcDbTrace
 10
522.8823516576148
 20
400.747645434048
 30
0.0
 11
522.8823516576148
 21
398.4143121007146
 31
0.0
 12
529.8823516576147
 22
399.5809787673814
 32
0.0
 13
529.8823516576147
 23
399.5809787673814
 33
0.0
  0
MTEXT
  5
15A4
330
124E
100
AcDbEntity
  8
BEM
 62
     1
100
AcDbMText
 10
379.8823516576148
 20
406.0809787673813
 30
0.0
 40
7.0
 41
0.0
 71
     5
 72
     1
  1
\A1;%%c300
 73
     1
 44
1.0
  0
POINT
  5
15A5
330
124E
100
AcDbEntity
  8
DEFPOINTS
 62
     0
100
AcDbPoint
 10
229.8823516576148
 20
361.1202834266262
 30
0.0
  0
POINT
  5
15A6
330
124E
100
AcDbEntity
  8
DEFPOINTS
 62
     0
100
AcDbPoint
 10
529.8823516576147
 20
360.1202834266262
 30
0.0
  0
POINT
  5
15A7
330
124E
100
AcDbEntity
  8
DEFPOINTS
 62
     0
100
AcDbPoint
 10
529.8823516576147
 20
399.5809787673814
 30
0.0
  0
ENDBLK
  5
1259
330
124E
100
AcDbEntity
  8
0
100
AcDbBlockEnd
  0
BLOCK
  5
1387
330
137D
100
AcDbEntity
  8
0
100
AcDbBlockBegin
  2
*D4
 70
     1
 10
0.0
 20
0.0
 30
0.0
  3
*D4
  1

  0
LINE
  5
13A4
330
137D
100
AcDbEntity
  8
BEM
 62
     0
370
    -2
100
AcDbLine
 10
531.8823516576148
 20
358.120283426626
 30
0.0
 11
713.2890394943492
 21
358.120283426626
 31
0.0
  0
LINE
  5
13A5
330
137D
100
AcDbEntity
  8
BEM
 62
     0
370
    -2
100
AcDbLine
 10
688.4596787927742
 20
253.2860111517198
 30
0.0
 11
713.2890394943491
 21
253.2860111517198
 31
0.0
  0
LINE
  5
13A6
330
137D
100
AcDbEntity
  8
BEM
 62
     0
370
    -2
100
AcDbLine
 10
711.2890394943492
 20
351.120283426626
 30
0.0
 11
711.2890394943492
 21
260.2860111517197
 31
0.0
  0
SOLID
  5
13A7
330
137D
100
AcDbEntity
  8
BEM
 62
     0
100
AcDbTrace
 10
710.1223728276826
 20
351.120283426626
 30
0.0
 11
712.4557061610159
 21
351.120283426626
 31
0.0
 12
711.2890394943492
 22
358.120283426626
 32
0.0
 13
711.2890394943492
 23
358.120283426626
 33
0.0
  0
SOLID
  5
13A8
330
137D
100
AcDbEntity
  8
BEM
 62
     0
100
AcDbTrace
 10
710.1223728276826
 20
260.2860111517197
 30
0.0
 11
712.4557061610159
 21
260.2860111517197
 31
0.0
 12
711.2890394943491
 22
253.2860111517198
 32
0.0
 13
711.2890394943491
 23
253.2860111517198
 33
0.0
  0
MTEXT
  5
13A9
330
137D
100
AcDbEntity
  8
BEM
 62
     1
100
AcDbMText
 10
704.7890394943491
 20
305.703147289173
 30
0.0
 40
7.0
 41
0.0
 71
     5
 72
     1
  1
\A1;105
 11
0.0000000000000001
 21
1.0
 31
0.0
 73
     1
 44
1.0
  0
POINT
  5
13AA
330
137D
100
AcDbEntity
  8
DEFPOINTS
 62
     0
100
AcDbPoint
 10
529.8823516576147
 20
358.120283426626
 30
0.0
  0
POINT
  5
13AB
330
137D
100
AcDbEntity
  8
DEFPOINTS
 62
     0
100
AcDbPoint
 10
686.4596787927743
 20
253.2860111517198
 30
0.0
  0
POINT
  5
13AC
330
137D
100
AcDbEntity
  8
DEFPOINTS
 62
     0
100
AcDbPoint
 10
711.2890394943491
 20
253.2860111517198
 30
0.0
  0
ENDBLK
  5
1388
330
137D
100
AcDbEntity
  8
0
100
AcDbBlockEnd
  0
BLOCK
  5
1477
330
146D
100
AcDbEntity
  8
0
100
AcDbBlockBegin
  2
*D5
 70
     1
 10
0.0
 20
0.0
 30
0.0
  3
*D5
  1

  0
LINE
  5
1485
330
146D
100
AcDbEntity
  8
BEM
 62
     0
370
    -2
100
AcDbLine
 10
661.5492410262287
 20
304.3304072547094
 30
0.0
 11
687.6230841241287
 21
302.963935040574
 31
0.0
  0
LINE
  5
1486
330
146D
100
AcDbEntity
  8
BEM
 62
     0
370
    -2
100
AcDbLine
 10
656.2319078719458
 20
202.8696465236448
 30
0.0
 11
682.3057509698458
 21
201.5031743095094
 31
0.0
  0
LINE
  5
1487
330
146D
100
AcDbEntity
  8
BEM
 62
     0
370
    -2
100
AcDbLine
 10
685.2594733609191
 20
296.0782002097779
 30
0.0
 11
680.6748435940372
 21
208.5982529652773
 31
0.0
  0
SOLID
  5
1488
330
146D
100
AcDbEntity
  8
BEM
 62
     0
100
AcDbTrace
 10
684.0944055703721
 20
296.1392588253947
 30
0.0
 11
686.424541151466
 21
296.0171415941612
 31
0.0
 12
685.6258250546196
 22
303.0686069530599
 32
0.0
 13
685.6258250546196
 23
303.0686069530599
 33
0.0
  0
SOLID
  5
1489
330
146D
100
AcDbEntity
  8
BEM
 62
     0
100
AcDbTrace
 10
679.5097758034903
 20
208.659311580894
 30
0.0
 11
681.8399113845843
 21
208.5371943496605
 31
0.0
 12
680.3084919003366
 22
201.6078462219953
 32
0.0
 13
680.3084919003366
 23
201.6078462219953
 33
0.0
  0
MTEXT
  5
148A
330
146D
100
AcDbEntity
  8
BEM
 62
     1
100
AcDbMText
 10
676.4724382969141
 20
252.6091800340685
 30
0.0
 40
7.0
 41
0.0
 71
     5
 72
     1
  1
\A1;%%c101.6
 11
0.0523359562429433
 21
0.9986295347545739
 31
0.0
 73
     1
 44
1.0
  0
POINT
  5
148B
330
146D
100
AcDbEntity
  8
DEFPOINTS
 62
     0
100
AcDbPoint
 10
659.5519819567195
 20
304.4350791671953
 30
0.0
  0
POINT
  5
148C
330
146D
100
AcDbEntity
  8
DEFPOINTS
 62
     0
100
AcDbPoint
 10
654.2346488024366
 20
202.9743184361306
 30
0.0
  0
POINT
  5
148D
330
146D
100
AcDbEntity
  8
DEFPOINTS
 62
     0
100
AcDbPoint
 10
680.3084919003366
 20
201.6078462219953
 30
0.0
  0
ENDBLK
  5
1478
330
146D
100
AcDbEntity
  8
0
100
AcDbBlockEnd
  0
BLOCK
  5
164D
330
1643
100
AcDbEntity
  8
0
100
AcDbBlockBegin
  2
*D6
 70
     1
 10
0.0
 20
0.0
 30
0.0
  3
*D6
  1

  0
LINE
  5
1667
330
1643
100
AcDbEntity
  8
BEM
 62
     0
370
    -2
100
AcDbLine
 10
527.0539245328773
 20
358.1202834266268
 30
0.0
 11
734.8294921924486
 21
358.1202834266268
 31
0.0
  0
LINE
  5
1668
330
1643
100
AcDbEntity
  8
BEM
 62
     0
370
    -2
100
AcDbLine
 10
553.2547491276316
 20
182.6182249076289
 30
0.0
 11
734.8294921924484
 21
182.6182249076288
 31
0.0
  0
LINE
  5
1669
330
1643
100
AcDbEntity
  8
BEM
 62
     0
370
    -2
100
AcDbLine
 10
732.8294921924485
 20
351.1202834266268
 30
0.0
 11
732.8294921924484
 21
189.6182249076288
 31
0.0
  0
SOLID
  5
166A
330
1643
100
AcDbEntity
  8
BEM
 62
     0
100
AcDbTrace
 10
731.6628255257819
 20
351.1202834266268
 30
0.0
 11
733.9961588591152
 21
351.1202834266268
 31
0.0
 12
732.8294921924485
 22
358.1202834266268
 32
0.0
 13
732.8294921924485
 23
358.1202834266268
 33
0.0
  0
SOLID
  5
166B
330
1643
100
AcDbEntity
  8
BEM
 62
     0
100
AcDbTrace
 10
731.6628255257818
 20
189.6182249076288
 30
0.0
 11
733.9961588591151
 21
189.6182249076288
 31
0.0
 12
732.8294921924484
 22
182.6182249076288
 32
0.0
 13
732.8294921924484
 23
182.6182249076288
 33
0.0
  0
MTEXT
  5
166C
330
1643
100
AcDbEntity
  8
BEM
 62
     1
100
AcDbMText
 10
726.3294921924484
 20
270.369254167128
 30
0.0
 40
7.0
 41
0.0
 71
     5
 72
     1
  1
\A1;175
 11
0.0000000000000001
 21
1.0
 31
0.0
 73
     1
 44
1.0
  0
POINT
  5
166D
330
1643
100
AcDbEntity
  8
DEFPOINTS
 62
     0
100
AcDbPoint
 10
525.0539245328773
 20
358.1202834266268
 30
0.0
  0
POINT
  5
166E
330
1643
100
AcDbEntity
  8
DEFPOINTS
 62
     0
100
AcDbPoint
 10
551.2547491276316
 20
182.6182249076289
 30
0.0
  0
POINT
  5
166F
330
1643
100
AcDbEntity
  8
DEFPOINTS
 62
     0
100
AcDbPoint
 10
732.8294921924484
 20
182.6182249076288
 30
0.0
  0
ENDBLK
  5
164E
330
1643
100
AcDbEntity
  8
0
100
AcDbBlockEnd
  0
BLOCK
  5
1659
330
164F
100
AcDbEntity
  8
0
100
AcDbBlockBegin
  2
*D7
 70
     1
 10
0.0
 20
0.0
 30
0.0
  3
*D7
  1

  0
LINE
  5
1670
330
164F
100
AcDbEntity
  8
BEM
 62
     0
370
    -2
100
AcDbLine
 10
379.8823516576236
 20
163.8633068179439
 30
0.0
 11
379.8823516576236
 21
147.1602418142842
 31
0.0
  0
LINE
  5
1671
330
164F
100
AcDbEntity
  8
BEM
 62
     0
370
    -2
100
AcDbLine
 10
664.8823516576233
 20
251.2860111517193
 30
0.0
 11
664.8823516576233
 21
147.1602418142842
 31
0.0
  0
LINE
  5
1672
330
164F
100
AcDbEntity
  8
BEM
 62
     0
370
    -2
100
AcDbLine
 10
386.8823516576236
 20
149.1602418142842
 30
0.0
 11
657.8823516576233
 21
149.1602418142842
 31
0.0
  0
SOLID
  5
1673
330
164F
100
AcDbEntity
  8
BEM
 62
     0
100
AcDbTrace
 10
386.8823516576236
 20
150.3269084809509
 30
0.0
 11
386.8823516576236
 21
147.9935751476175
 31
0.0
 12
379.8823516576236
 22
149.1602418142842
 32
0.0
 13
379.8823516576236
 23
149.1602418142842
 33
0.0
  0
SOLID
  5
1674
330
164F
100
AcDbEntity
  8
BEM
 62
     0
100
AcDbTrace
 10
657.8823516576233
 20
150.3269084809509
 30
0.0
 11
657.8823516576233
 21
147.9935751476175
 31
0.0
 12
664.8823516576233
 22
149.1602418142842
 32
0.0
 13
664.8823516576233
 23
149.1602418142842
 33
0.0
  0
MTEXT
  5
1675
330
164F
100
AcDbEntity
  8
BEM
 62
     1
100
AcDbMText
 10
522.3823516576234
 20
154.6602418142842
 30
0.0
 40
7.0
 41
0.0
 71
     5
 72
     1
  1
\A1;285
 73
     1
 44
1.0
  0
POINT
  5
1676
330
164F
100
AcDbEntity
  8
DEFPOINTS
 62
     0
100
AcDbPoint
 10
379.8823516576236
 20
165.8633068179439
 30
0.0
  0
POINT
  5
1677
330
164F
100
AcDbEntity
  8
DEFPOINTS
 62
     0
100
AcDbPoint
 10
664.8823516576233
 20
253.2860111517193
 30
0.0
  0
POINT
  5
1678
330
164F
100
AcDbEntity
  8
DEFPOINTS
 62
     0
100
AcDbPoint
 10
664.8823516576233
 20
149.1602418142842
 30
0.0
  0
ENDBLK
  5
165A
330
164F
100
AcDbEntity
  8
0
100
AcDbBlockEnd
  0
BLOCK
  5
1665
330
165B
100
AcDbEntity
  8
0
100
AcDbBlockBegin
  2
*D8
 70
     1
 10
0.0
 20
0.0
 30
0.0
  3
*D8
  1

  0
LINE
  5
1679
330
165B
100
AcDbEntity
  8
BEM
 62
     0
370
    -2
100
AcDbLine
 10
306.1552008030079
 20
180.6182249076289
 30
0.0
 11
306.1552008030079
 21
163.8633068179439
 31
0.0
  0
LINE
  5
167A
330
165B
100
AcDbEntity
  8
BEM
 62
     0
370
    -2
100
AcDbLine
 10
551.2547491276316
 20
180.6182249076289
 30
0.0
 11
551.2547491276316
 21
163.8633068179439
 31
0.0
  0
LINE
  5
167B
330
165B
100
AcDbEntity
  8
BEM
 62
     0
370
    -2
100
AcDbLine
 10
313.1552008030078
 20
165.8633068179439
 30
0.0
 11
544.2547491276315
 21
165.8633068179439
 31
0.0
  0
SOLID
  5
167C
330
165B
100
AcDbEntity
  8
BEM
 62
     0
100
AcDbTrace
 10
313.1552008030078
 20
167.0299734846106
 30
0.0
 11
313.1552008030078
 21
164.6966401512773
 31
0.0
 12
306.1552008030079
 22
165.8633068179439
 32
0.0
 13
306.1552008030079
 23
165.8633068179439
 33
0.0
  0
SOLID
  5
167D
330
165B
100
AcDbEntity
  8
BEM
 62
     0
100
AcDbTrace
 10
544.2547491276315
 20
167.0299734846106
 30
0.0
 11
544.2547491276315
 21
164.6966401512773
 31
0.0
 12
551.2547491276316
 22
165.8633068179439
 32
0.0
 13
551.2547491276316
 23
165.8633068179439
 33
0.0
  0
MTEXT
  5
167E
330
165B
100
AcDbEntity
  8
BEM
 62
     1
100
AcDbMText
 10
428.7049749653196
 20
172.3633068179439
 30
0.0
 40
7.0
 41
0.0
 71
     5
 72
     1
  1
\A1;245
 73
     1
 44
1.0
  0
POINT
  5
167F
330
165B
100
AcDbEntity
  8
DEFPOINTS
 62
     0
100
AcDbPoint
 10
306.1552008030079
 20
182.6182249076289
 30
0.0
  0
POINT
  5
1680
330
165B
100
AcDbEntity
  8
DEFPOINTS
 62
     0
100
AcDbPoint
 10
551.2547491276316
 20
182.6182249076289
 30
0.0
  0
POINT
  5
1681
330
165B
100
AcDbEntity
  8
DEFPOINTS
 62
     0
100
AcDbPoint
 10
551.2547491276316
 20
165.8633068179439
 30
0.0
  0
ENDBLK
  5
1666
330
165B
100
AcDbEntity
  8
0
100
AcDbBlockEnd
  0
ENDSEC
  0
SECTION
  2
ENTITIES
  0
LINE
  5
58
330
1E
100
AcDbEntity
  8
STEMPEL
100
AcDbLine
 10
830.0000000000002
 20
110.0
 30
0.0
 11
470.0000000000001
 21
110.0
 31
0.0
  0
LINE
  5
59
330
1E
100
AcDbEntity
  8
STEMPEL
100
AcDbLine
 10
470.0000000000001
 20
110.0
 30
0.0
 11
470.0000000000001
 21
10.0
 31
0.0
  0
LINE
  5
5A
330
1E
100
AcDbEntity
  8
STEMPEL
100
AcDbLine
 10
566.0000000000002
 20
109.9999999999999
 30
0.0
 11
566.0000000000001
 21
9.999999999999886
 31
0.0
  0
LINE
  5
5B
330
1E
100
AcDbEntity
  8
STEMPEL
100
AcDbLine
 10
650.0
 20
110.0
 30
0.0
 11
650.0
 21
10.0
 31
0.0
  0
LINE
  5
5C
330
1E
100
AcDbEntity
  8
STEMPEL
100
AcDbLine
 10
752.0000000000002
 20
109.9999999999997
 30
0.0
 11
752.0000000000002
 21
40.0
 31
0.0
  0
LINE
  5
5D
330
1E
100
AcDbEntity
  8
STEMPEL
100
AcDbLine
 10
566.0
 20
30.0
 30
0.0
 11
470.0000000000001
 21
30.0
 31
0.0
  0
LINE
  5
5E
330
1E
100
AcDbEntity
  8
STEMPEL
100
AcDbLine
 10
830.0000000000002
 20
40.0
 30
0.0
 11
566.0000000000001
 21
40.0
 31
0.0
  0
LINE
  5
5F
330
1E
100
AcDbEntity
  8
STEMPEL
100
AcDbLine
 10
830.0000000000002
 20
80.0
 30
0.0
 11
566.0000000000002
 21
80.0
 31
0.0
  0
LINE
  5
60
330
1E
100
AcDbEntity
  8
VOLL
100
AcDbLine
 10
484.0000000000002
 20
110.0
 30
0.0
 11
484.0000000000001
 21
9.999999999999985
 31
0.0
  0
LINE
  5
61
330
1E
100
AcDbEntity
  8
VOLL
100
AcDbLine
 10
524.0000000000001
 20
109.9999999999999
 30
0.0
 11
524.0000000000001
 21
9.999999999999943
 31
0.0
  0
LINE
  5
62
330
1E
100
AcDbEntity
  8
VOLL
100
AcDbLine
 10
544.0000000000002
 20
109.9999999999999
 30
0.0
 11
544.0000000000001
 21
9.999999999999914
 31
0.0
  0
LINE
  5
63
330
1E
100
AcDbEntity
  8
VOLL
100
AcDbLine
 10
584.0000000000002
 20
80.0
 30
0.0
 11
584.0000000000002
 21
40.0
 31
0.0
  0
LINE
  5
64
330
1E
100
AcDbEntity
  8
VOLL
100
AcDbLine
 10
610.0000000000002
 20
109.9999999999998
 30
0.0
 11
610.0000000000001
 21
40.0
 31
0.0
  0
LINE
  5
65
330
1E
100
AcDbEntity
  8
HILF
100
AcDbLine
 10
470.0000000000001
 20
100.0
 30
0.0
 11
566.0000000000002
 21
100.0
 31
0.0
  0
LINE
  5
66
330
1E
100
AcDbEntity
  8
HILF
100
AcDbLine
 10
470.0000000000001
 20
90.0
 30
0.0
 11
566.0000000000002
 21
90.0
 31
0.0
  0
LINE
  5
67
330
1E
100
AcDbEntity
  8
HILF
100
AcDbLine
 10
470.0000000000001
 20
80.0
 30
0.0
 11
566.0000000000002
 21
80.0
 31
0.0
  0
LINE
  5
68
330
1E
100
AcDbEntity
  8
HILF
100
AcDbLine
 10
470.0000000000001
 20
70.0
 30
0.0
 11
566.0000000000002
 21
70.0
 31
0.0
  0
LINE
  5
69
330
1E
100
AcDbEntity
  8
HILF
100
AcDbLine
 10
470.0000000000001
 20
60.0
 30
0.0
 11
566.0000000000002
 21
60.0
 31
0.0
  0
LINE
  5
6A
330
1E
100
AcDbEntity
  8
HILF
100
AcDbLine
 10
470.0000000000001
 20
50.0
 30
0.0
 11
566.0000000000002
 21
50.0
 31
0.0
  0
LINE
  5
6B
330
1E
100
AcDbEntity
  8
HILF
100
AcDbLine
 10
470.0000000000001
 20
40.0
 30
0.0
 11
566.0000000000002
 21
40.0
 31
0.0
  0
LINE
  5
6C
330
1E
100
AcDbEntity
  8
HILF
100
AcDbLine
 10
566.0000000000002
 20
70.0
 30
0.0
 11
650.0
 21
70.0
 31
0.0
  0
LINE
  5
6D
330
1E
100
AcDbEntity
  8
HILF
100
AcDbLine
 10
566.0000000000002
 20
60.0
 30
0.0
 11
650.0
 21
60.0
 31
0.0
  0
LINE
  5
6E
330
1E
100
AcDbEntity
  8
HILF
100
AcDbLine
 10
566.0000000000002
 20
50.0
 30
0.0
 11
650.0
 21
50.0
 31
0.0
  0
LINE
  5
6F
330
1E
100
AcDbEntity
  8
HILF
100
AcDbLine
 10
654.7736801096948
 20
84.03758247564136
 30
0.0
 11
746.6297842514811
 21
84.03758247564136
 31
0.0
  0
LINE
  5
70
330
1E
100
AcDbEntity
  8
HILF
100
AcDbLine
 10
654.7736801096948
 20
70.0
 30
0.0
 11
746.6297842514811
 21
70.0
 31
0.0
  0
LINE
  5
71
330
1E
100
AcDbEntity
  8
HILF
100
AcDbLine
 10
654.7736801096948
 20
60.0
 30
0.0
 11
746.6297842514811
 21
60.0
 31
0.0
  0
LINE
  5
72
330
1E
100
AcDbEntity
  8
HILF
100
AcDbLine
 10
654.7736801096948
 20
50.0
 30
0.0
 11
746.6297842514811
 21
50.0
 31
0.0
  0
LINE
  5
73
330
1E
100
AcDbEntity
  8
VOLL
100
AcDbLine
 10
752.0000000000002
 20
60.0
 30
0.0
 11
830.0000000000002
 21
60.0
 31
0.0
  0
LINE
  5
74
330
1E
100
AcDbEntity
  8
HILF
100
AcDbLine
 10
756.7238616296995
 20
83.77983636955823
 30
0.0
 11
824.858883932673
 21
83.77983636955823
 31
0.0
  0
LINE
  5
75
330
1E
100
AcDbEntity
  8
HILF
100
AcDbLine
 10
654.7736801096948
 20
14.89398258028305
 30
0.0
 11
824.858883932673
 21
14.89398258028305
 31
0.0
  0
TEXT
  5
76
330
1E
100
AcDbEntity
  8
TEXT
100
AcDbText
 10
492.3998239263297
 20
18.67381894984129
 30
0.0
 40
4.0
  1
Änderung
 41
0.8
  7
GREEKS
 72
     1
 11
503.1426810691868
 21
18.67381894984129
 31
0.0
100
AcDbText
  0
TEXT
  5
78
330
1E
100
AcDbEntity
  8
TEXT
100
AcDbText
 10
573.5163572150378
 20
102.4620895087088
 30
0.0
 40
5.0
  1
Maßstab
 41
0.8
  7
GREEKS
100
AcDbText
  0
TEXT
  5
79
330
1E
100
AcDbEntity
  8
TEXT
100
AcDbText
 10
654.8779403809011
 20
102.5489328011779
 30
0.0
 40
5.0
  1
Benennung
 41
0.8
  7
GREEKS
100
AcDbText
  0
TEXT
  5
7A
330
1E
100
AcDbEntity
  8
TEXT
100
AcDbText
 10
756.1787549576343
 20
102.3132034537135
 30
0.0
 40
5.0
  1
Zeichnungs Nr.
 41
0.8
  7
GREEKS
100
AcDbText
  0
TEXT
  5
7B
330
1E
100
AcDbEntity
  8
TEXT
100
AcDbText
 10
654.742238391136
 20
30.84560570193055
 30
0.0
 40
5.0
  1
Bauvorhaben
 41
0.8
  7
GREEKS
100
AcDbText
  0
TEXT
  5
7C
330
1E
100
AcDbEntity
  8
TEXT
100
AcDbText
 10
756.7238616296995
 20
73.18118237099965
 30
0.0
 40
5.0
  1
Ersatz für:
 41
0.8
  7
GREEKS
100
AcDbText
  0
TEXT
  5
7D
330
1E
100
AcDbEntity
  8
TEXT
100
AcDbText
 10
478.2664110704577
 20
13.65465846027187
 30
0.0
 40
4.0
  1
Index
 50
90.0
 41
0.8
  7
GREEKS
100
AcDbText
  0
TEXT
  5
7E
330
1E
100
AcDbEntity
  8
TEXT
100
AcDbText
 10
529.8990113186979
 20
18.67156269339808
 30
0.0
 40
4.0
  1
Tag
 41
0.8
  7
GREEKS
 72
     1
 11
533.6323446520313
 21
18.67156269339808
 31
0.0
100
AcDbText
  0
TEXT
  5
7F
330
1E
100
AcDbEntity
  8
TEXT
100
AcDbText
 10
548.9795678138293
 20
18.59324216966404
 30
0.0
 40
4.0
  1
Name
 41
0.8
  7
GREEKS
 72
     1
 11
555.3033773376388
 21
18.59324216966404
 31
0.0
100
AcDbText
  0
TEXT
  5
80
330
1E
100
AcDbEntity
  8
TEXT
100
AcDbText
 10
592.3311673153651
 20
73.31880501229919
 30
0.0
 40
4.0
  1
Tag
 41
0.8
  7
GREEKS
100
AcDbText
  0
TEXT
  5
81
330
1E
100
AcDbEntity
  8
TEXT
100
AcDbText
 10
622.4626584226296
 20
73.3096109191522
 30
0.0
 40
4.0
  1
Name
 41
0.8
  7
GREEKS
100
AcDbText
  0
TEXT
  5
82
330
1E
100
AcDbEntity
  8
TEXT
100
AcDbText
 10
567.5836127167616
 20
63.62990369617961
 30
0.0
 40
4.0
  1
Gez.
 41
0.8
  7
GREEKS
100
AcDbText
  0
TEXT
  5
83
330
1E
100
AcDbEntity
  8
TEXT
100
AcDbText
 10
567.5515086571673
 20
53.68926291428373
 30
0.0
 40
4.0
  1
Gepr.
 41
0.8
  7
GREEKS
100
AcDbText
  0
TEXT
  5
84
330
1E
100
AcDbEntity
  8
TEXT
100
AcDbText
 10
567.6006777387304
 20
43.52946389649804
 30
0.0
 40
4.0
  1
Norm.
 41
0.8
  7
GREEKS
100
AcDbText
  0
TEXT
  5
85
330
1E
100
AcDbEntity
  8
TEXT
100
AcDbText
 10
757.2400861497007
 20
52.07416177878596
 30
0.0
 40
5.0
  1
ersetzt durch:
 41
0.8
  7
GREEKS
100
AcDbText
  0
TEXT
  5
86
330
1E
100
AcDbEntity
  8
TEXT
100
AcDbText
 10
568.8693027807324
 20
72.96682596523723
 30
0.0
 40
4.0
  1
2010
 41
0.8
  7
GREEKS
100
AcDbText
  0
LINE
  5
87
330
1E
100
AcDbEntity
  8
HILF
100
AcDbLine
 10
0.0
 20
0.0
 30
0.0
 11
840.0
 21
0.0
 31
0.0
  0
LINE
  5
88
330
1E
100
AcDbEntity
  8
HILF
100
AcDbLine
 10
840.0
 20
0.0
 30
0.0
 11
840.0
 21
594.0
 31
0.0
  0
LINE
  5
89
330
1E
100
AcDbEntity
  8
HILF
100
AcDbLine
 10
840.0
 20
594.0
 30
0.0
 11
0.0
 21
594.0
 31
0.0
  0
LINE
  5
8B
330
1E
100
AcDbEntity
  8
STEMPEL
100
AcDbLine
 10
830.0
 20
584.0
 30
0.0
 11
40.0
 21
584.0
 31
0.0
  0
LINE
  5
8D
330
1E
100
AcDbEntity
  8
STEMPEL
100
AcDbLine
 10
40.0
 20
10.0
 30
0.0
 11
830.0
 21
10.0
 31
0.0
  0
LINE
  5
8E
330
1E
100
AcDbEntity
  8
STEMPEL
100
AcDbLine
 10
830.0
 20
10.0
 30
0.0
 11
830.0
 21
584.0
 31
0.0
  0
TEXT
  5
8F
330
1E
100
AcDbEntity
  8
TEXT
 62
     1
100
AcDbText
 10
655.0390572473189
 20
87.37343075652544
 30
0.0
 40
7.0
  1
Unterteileinheit DN100
 41
0.7
  7
GREEKS
100
AcDbText
  0
TEXT
  5
90
330
1E
100
AcDbEntity
  8
TEXT
 62
     1
100
AcDbText
 10
767.1961422184136
 20
87.37343075652544
 30
0.0
 40
7.0
  1
21995100W
 41
0.8
  7
GREEKS
 72
     1
 11
790.1294755517469
 21
87.37343075652544
 31
0.0
100
AcDbText
  0
TEXT
  5
91
330
1E
100
AcDbEntity
  8
TEXT
100
AcDbText
 10
618.509022641583
 20
102.83989611379
 30
0.0
 40
5.0
  1
Zul.Abw.
 41
0.8
  7
GREEKS
100
AcDbText
  0
TEXT
  5
93
330
1E
100
AcDbEntity
  8
TEXT
100
AcDbText
 10
590.7660475607107
 20
63.1508587612022
 30
0.0
 40
4.0
  1
14.12.
 41
0.8
  7
GREEKS
 72
     1
 11
597.1660475607107
 21
63.1508587612022
 31
0.0
100
AcDbText
  0
TEXT
  5
94
330
1E
100
AcDbEntity
  8
TEXT
100
AcDbText
 10
624.023175322661
 20
62.94297655165468
 30
0.0
 40
4.0
  1
Koeh
 41
0.8
  7
GREEKS
 72
     1
 11
629.2803181798038
 21
62.94297655165468
 31
0.0
100
AcDbText
  0
TEXT
  5
95
330
1E
100
AcDbEntity
  8
TEXT
100
AcDbText
 10
654.3410940884992
 20
72.10021383107525
 30
0.0
 40
5.0
  1
mit Wärmedämmung, seitlich
 41
0.8
  7
GREEKS
100
AcDbText
  0
TEXT
  5
96
330
1E
100
AcDbEntity
  8
TEXT
100
AcDbText
 10
654.3410940884992
 20
62.34559085209035
 30
0.0
 40
5.0
  1

 41
0.8
  7
GREEKS
100
AcDbText
  0
TEXT
  5
97
330
1E
100
AcDbEntity
  8
TEXT
100
AcDbText
 10
654.3410940884992
 20
52.59097337846058
 30
0.0
 40
5.0
  1
EDV-Art.Nr. 21995.100X
 41
0.8
  7
GREEKS
100
AcDbText
  0
TEXT
  5
98
330
1E
100
AcDbEntity
  8
TEXT
100
AcDbText
 10
654.1676050109348
 20
43.31127624791508
 30
0.0
 40
4.0
  1
21995100W.DWG
 41
0.8
  7
GREEKS
100
AcDbText
  0
TEXT
  5
99
330
1E
100
AcDbEntity
  8
TEXT
 62
     1
100
AcDbText
 10
582.7034912034222
 20
87.47077088414977
 30
0.0
 40
7.0
  1
1:2
 41
0.8
  7
GREEKS
100
AcDbText
  0
TEXT
  5
9A
330
1E
100
AcDbEntity
  8
TEXT
100
AcDbText
 10
470.0441139350127
 20
114.1143585051043
 30
0.0
 40
5.0
  1
Erstellt mit AUTOCAD 2004
 41
0.8
  7
GREEKS
100
AcDbText
  0
INSERT
  5
9B
330
1E
100
AcDbEntity
  8
HILF
100
AcDbBlockReference
  2
LORO
 10
573.0624985962354
 20
36.9805930029896
 30
0.0
 41
2.0
 42
2.0
 43
2.0
  0
LINE
  5
9C
330
1E
100
AcDbEntity
  8
BEM
100
AcDbLine
 10
456.0
 20
0.0
 30
0.0
 11
456.0
 21
10.0
 31
0.0
  0
LINE
  5
13E
330
1E
100
AcDbEntity
  8
HILF
100
AcDbLine
 10
0.0
 20
0.0
 30
0.0
 11
0.0
 21
594.0
 31
0.0
  0
LINE
  5
13F
330
1E
100
AcDbEntity
  8
STEMPEL
100
AcDbLine
 10
40.0
 20
10.0
 30
0.0
 11
40.0
 21
584.0
 31
0.0
  0
LINE
  5
14A
330
1E
100
AcDbEntity
  8
HILF
100
AcDbLine
 10
0.0
 20
297.0
 30
0.0
 11
40.0
 21
297.0
 31
0.0
  0
TEXT
  5
15B
330
1E
100
AcDbEntity
  8
TEXT
100
AcDbText
 10
837.3022923857165
 20
10.16790107998861
 30
0.0
 40
4.0
  1
Diese Zeichnung ist urheberrechtlich geschützt und bleibt unser Eigentum. Sie darf weder ganz noch teilweise verfielfältigt und nicht an Dritte weitergegeben werden.
 50
90.0
 41
0.8
  7
GREEKS
100
AcDbText
  0
TEXT
  5
67E
330
1E
100
AcDbEntity
  8
TEXT
100
AcDbText
 10
612.2898419893276
 20
89.04887667696556
 30
0.0
 40
4.0
  1
DIN EN1124-3
 41
0.8
  7
GREEKS
 72
     1
 11
629.2803181798038
 21
89.04887667696556
 31
0.0
100
AcDbText
  0
DIMENSION
  5
1137
330
1E
100
AcDbEntity
  8
BEM
100
AcDbDimension
  2
*D2
 10
632.8782402618785
 20
254.9632755578975
 30
0.0
 11
414.3113074178609
 21
248.622092832434
 31
0.0
 70
    34
 71
     5
 42
0.0523598775598613
  3
Standard
100
AcDb2LineAngularDimension
 13
379.8876797253411
 23
268.2219490151902
 33
0.0
 14
377.8876797253411
 24
268.2219490151902
 34
0.0
 15
379.8823516576149
 25
268.2222282473877
 35
0.0
 16
425.5048987417517
 26
267.4256974954149
 36
0.0
1001
ACAD
1000
DSTYLE
1002
{
1070
    40
1040
2.0
1070
    41
1040
3.5
1070
    42
1040
1.0
1070
    43
1040
7.0
1070
    44
1040
1.0
1070
    47
1040
2.0
1070
    48
1040
2.0
1070
    73
1070
     0
1070
    74
1070
     0
1070
    77
1070
     1
1070
    78
1070
     8
1070
    79
1070
     2
1070
   140
1040
3.5
1070
   141
1040
1.5
1070
   146
1040
0.5142857142857144
1070
   147
1040
1.5
1070
   172
1070
     1
1070
   178
1070
     1
1070
   179
1070
     1
1070
   271
1070
     1
1070
   272
1070
     1
1070
   279
1070
     0
1002
}
  0
LINE
  5
1139
330
1E
100
AcDbEntity
  8
STEMPEL
100
AcDbLine
 10
325.0582981548598
 20
362.1202834266269
 30
0.0
 11
434.7064051603702
 21
362.1202834266268
 31
0.0
  0
LINE
  5
113E
330
1E
100
AcDbEntity
  8
MITTEL
100
AcDbLine
 10
379.8823516576149
 20
268.2222282473877
 30
0.0
 11
669.8754993313879
 21
253.024331370505
 31
0.0
  0
LINE
  5
1143
330
1E
100
AcDbEntity
  8
STEMPEL
100
AcDbLine
 10
325.0582981548598
 20
362.1202834266268
 30
0.0
 11
434.7064051603702
 21
362.1202834266268
 31
0.0
  0
DIMENSION
  5
1145
330
1E
100
AcDbEntity
  8
BEM
100
AcDbDimension
  2
*D3
 10
529.8823516576147
 20
399.5809787673814
 30
0.0
 11
379.8823516576148
 21
406.0809787673813
 31
0.0
 70
    32
  1
%%c<>
 71
     5
 42
300.0
  3
Standard
100
AcDbAlignedDimension
 13
229.8823516576148
 23
361.1202834266262
 33
0.0
 14
529.8823516576147
 24
360.1202834266262
 34
0.0
100
AcDbRotatedDimension
1001
ACAD
1000
DSTYLE
1002
{
1070
    40
1040
2.0
1070
    41
1040
3.5
1070
    42
1040
1.0
1070
    43
1040
7.0
1070
    44
1040
1.0
1070
    47
1040
2.0
1070
    48
1040
2.0
1070
    73
1070
     0
1070
    74
1070
     0
1070
    77
1070
     1
1070
    78
1070
     8
1070
    79
1070
     2
1070
   140
1040
3.5
1070
   141
1040
1.5
1070
   146
1040
0.5142857142857144
1070
   147
1040
1.5
1070
   172
1070
     1
1070
   178
1070
     1
1070
   179
1070
     1
1070
   271
1070
     1
1070
   272
1070
     1
1070
   279
1070
     0
1002
}
  0
LINE
  5
114B
330
1E
100
AcDbEntity
  8
STEMPEL
100
AcDbLine
 10
521.8823516576149
 20
364.1202834266262
 30
0.0
 11
272.8823516576148
 21
364.1202834266262
 31
0.0
  0
LINE
  5
114C
330
1E
100
AcDbEntity
  8
STEMPEL
100
AcDbLine
 10
237.8823516576149
 20
370.1202834266262
 30
0.0
 11
489.2244944330416
 21
370.1202834266262
 31
0.0
  0
LINE
  5
1151
330
1E
100
AcDbEntity
  8
MITTEL
100
AcDbLine
 10
379.8823516576149
 20
375.1202834266261
 30
0.0
 11
379.8823516576151
 21
268.2222282473872
 31
0.0
  0
LINE
  5
1159
330
1E
100
AcDbEntity
  8
TEXT
 62
     2
100
AcDbLine
 10
97.62517329883053
 20
414.8074372475964
 30
0.0
 11
206.4215577397157
 21
414.8074372475962
 31
0.0
  0
TEXT
  5
115A
330
1E
100
AcDbEntity
  8
TEXT
 62
     1
100
AcDbText
 10
100.0301992268174
 20
418.1060048441415
 30
0.0
 40
7.0
  1
Losflansch DN100
 41
0.8
  7
GREEKS
100
AcDbText
  0
TEXT
  5
115B
330
1E
100
AcDbEntity
  8
TEXT
 62
     1
100
AcDbText
 10
100.0301992268174
 20
404.9613070050774
 30
0.0
 40
7.0
  1
EDV-Art.Nr. 21905.100X
 41
0.8
  7
GREEKS
100
AcDbText
  0
LINE
  5
1160
330
1E
100
AcDbEntity
  8
STEMPEL
100
AcDbLine
 10
234.7107787823611
 20
358.1202834266271
 30
0.0
 11
322.9916684274361
 21
358.1202834266268
 31
0.0
  0
LINE
  5
1161
330
1E
100
AcDbEntity
  8
TEXT
 62
     2
100
AcDbLine
 10
238.7581185993372
 20
369.0700810995927
 30
0.0
 11
206.4215577397157
 21
414.8074372475962
 31
0.0
  0
LINE
  5
1162
330
1E
100
AcDbEntity
  8
STEMPEL
100
AcDbLine
 10
262.8823516576148
 20
364.1202834266262
 30
0.0
 11
237.8823516576149
 21
364.1202834266262
 31
0.0
  0
ARC
  5
1166
330
1E
100
AcDbEntity
  8
STEMPEL
100
AcDbCircle
 10
237.8823516576149
 20
367.1202834266262
 30
0.0
 40
3.0
100
AcDbArc
 50
90.0
 51
270.0
  0
LINE
  5
116D
330
1E
100
AcDbEntity
  8
STEMPEL
100
AcDbLine
 10
260.8823516576149
 20
364.1202834266262
 30
0.0
 11
260.8823516576149
 21
370.1202834266262
 31
0.0
  0
LINE
  5
116F
330
1E
100
AcDbEntity
  8
STEMPEL
100
AcDbLine
 10
274.8823516576149
 20
364.1202834266262
 30
0.0
 11
274.8823516576149
 21
370.1202834266262
 31
0.0
  0
LINE
  5
1170
330
1E
100
AcDbEntity
  8
MITTEL
100
AcDbLine
 10
267.8823516576148
 20
388.1202834266271
 30
0.0
 11
267.8823516576148
 21
358.1202834266266
 31
0.0
  0
LINE
  5
1171
330
1E
100
AcDbEntity
  8
HILF
100
AcDbLine
 10
263.8823516576148
 20
370.1202834266262
 30
0.0
 11
263.8823516576148
 21
358.1202834266266
 31
0.0
  0
LINE
  5
1172
330
1E
100
AcDbEntity
  8
STEMPEL
100
AcDbLine
 10
262.8823516576148
 20
370.1202834266262
 30
0.0
 11
262.8823516576148
 21
358.1202834266266
 31
0.0
  0
LINE
  5
1173
330
1E
100
AcDbEntity
  8
STEMPEL
100
AcDbLine
 10
260.8823516576148
 20
370.1202834266262
 30
0.0
 11
260.8823516576148
 21
364.1202834266262
 31
0.0
  0
LINE
  5
1174
330
1E
100
AcDbEntity
  8
STEMPEL
100
AcDbLine
 10
272.8823516576148
 20
370.1202834266262
 30
0.0
 11
272.8823516576148
 21
358.1202834266266
 31
0.0
  0
LINE
  5
1175
330
1E
100
AcDbEntity
  8
HILF
100
AcDbLine
 10
271.8823516576148
 20
370.1202834266262
 30
0.0
 11
271.8823516576148
 21
358.1202834266266
 31
0.0
  0
LINE
  5
1176
330
1E
100
AcDbEntity
  8
STEMPEL
100
AcDbLine
 10
274.8823516576148
 20
370.1202834266262
 30
0.0
 11
274.8823516576148
 21
364.1202834266262
 31
0.0
  0
LINE
  5
1179
330
1E
100
AcDbEntity
  8
STEMPEL
100
AcDbLine
 10
272.8823516576148
 20
382.1202834266267
 30
0.0
 11
271.8823516576148
 21
383.1202834266266
 31
0.0
  0
LINE
  5
117E
330
1E
100
AcDbEntity
  8
STEMPEL
100
AcDbLine
 10
262.8823516576148
 20
382.1202834266271
 30
0.0
 11
272.8823516576148
 21
382.1202834266271
 31
0.0
  0
LINE
  5
1183
330
1E
100
AcDbEntity
  8
STEMPEL
100
AcDbLine
 10
271.8823516576148
 20
383.1202834266266
 30
0.0
 11
263.8823516576148
 21
383.1202834266266
 31
0.0
  0
LINE
  5
1184
330
1E
100
AcDbEntity
  8
HILF
100
AcDbLine
 10
263.8823516576148
 20
383.1202834266266
 30
0.0
 11
263.8823516576148
 21
379.7202834266261
 31
0.0
  0
LINE
  5
1185
330
1E
100
AcDbEntity
  8
STEMPEL
100
AcDbLine
 10
262.8823516576148
 20
382.1202834266267
 30
0.0
 11
262.8823516576148
 21
379.7202834266261
 31
0.0
  0
LINE
  5
1186
330
1E
100
AcDbEntity
  8
STEMPEL
100
AcDbLine
 10
263.8823516576148
 20
383.1202834266266
 30
0.0
 11
262.8823516576148
 21
382.1202834266267
 31
0.0
  0
LINE
  5
1188
330
1E
100
AcDbEntity
  8
HILF
100
AcDbLine
 10
271.8823516576148
 20
383.1202834266266
 30
0.0
 11
271.8823516576148
 21
379.7202834266261
 31
0.0
  0
LINE
  5
118D
330
1E
100
AcDbEntity
  8
STEMPEL
100
AcDbLine
 10
272.8823516576148
 20
382.1202834266267
 30
0.0
 11
272.8823516576148
 21
379.7202834266261
 31
0.0
  0
ARC
  5
1199
330
1E
100
AcDbEntity
  8
STEMPEL
100
AcDbCircle
 10
297.8823516576148
 20
367.1202834266262
 30
0.0
 40
3.0
100
AcDbArc
 50
270.0
 51
90.0
  0
LINE
  5
11A2
330
1E
100
AcDbEntity
  8
STEMPEL
100
AcDbLine
 10
427.3823516576148
 20
511.4613418041738
 30
0.0
 11
332.3823516576148
 21
511.4613418041738
 31
0.0
  0
LINE
  5
11A3
330
1E
100
AcDbEntity
  8
STEMPEL
100
AcDbLine
 10
432.3823516576148
 20
530.7613418041738
 30
0.0
 11
327.3823516576148
 21
530.7613418041738
 31
0.0
  0
LINE
  5
11A4
102
{ACAD_REACTORS
330
12F9
102
}
330
1E
100
AcDbEntity
  8
STEMPEL
100
AcDbLine
 10
429.3823516576148
 20
509.9613418041737
 30
0.0
 11
330.3823516576148
 21
509.9613418041737
 31
0.0
  0
LINE
  5
11A5
330
1E
100
AcDbEntity
  8
STEMPEL
100
AcDbLine
 10
435.1946271326562
 20
536.9613418041738
 30
0.0
 11
324.5700761825735
 21
536.9613418041738
 31
0.0
  0
ARC
  5
11A6
102
{ACAD_REACTORS
330
12F9
102
}
330
1E
100
AcDbEntity
  8
STEMPEL
100
AcDbCircle
 10
324.2398332522212
 20
529.1613418041737
 30
0.0
 40
0.8
100
AcDbArc
 50
340.0000000000034
 51
90.0
  0
LINE
  5
11A7
102
{ACAD_REACTORS
330
12F9
102
}
330
1E
100
AcDbEntity
  8
STEMPEL
100
AcDbLine
 10
327.3823516576148
 20
530.7613418041738
 30
0.0
 11
327.3823516576148
 21
516.4613418041738
 31
0.0
  0
LINE
  5
11A8
102
{ACAD_REACTORS
330
12F9
102
}
330
1E
100
AcDbEntity
  8
STEMPEL
100
AcDbLine
 10
320.1323516576148
 20
519.4613418041738
 30
0.0
 11
322.3780209912773
 21
521.7070111378361
 31
0.0
  0
LINE
  5
11A9
102
{ACAD_REACTORS
330
12F9
102
}
330
1E
100
AcDbEntity
  8
STEMPEL
100
AcDbLine
 10
326.3823516576148
 20
511.9613418041738
 30
0.0
 11
319.8823516576148
 21
511.9613418041738
 31
0.0
  0
LINE
  5
11AA
102
{ACAD_REACTORS
330
12F9
102
}
330
1E
100
AcDbEntity
  8
STEMPEL
100
AcDbLine
 10
319.8823516576148
 20
511.9613418041738
 30
0.0
 11
322.1323516576148
 21
515.8584561212037
 31
0.0
  0
LINE
  5
11AB
102
{ACAD_REACTORS
330
12F9
102
}
330
1E
100
AcDbEntity
  8
STEMPEL
100
AcDbLine
 10
320.1323516576148
 20
518.4613418041737
 30
0.0
 11
322.1323516576148
 21
516.4613418041738
 31
0.0
  0
LINE
  5
11AC
102
{ACAD_REACTORS
330
12F9
102
}
330
1E
100
AcDbEntity
  8
STEMPEL
100
AcDbLine
 10
320.1323516576148
 20
519.4613418041738
 30
0.0
 11
320.1323516576148
 21
518.4613418041737
 31
0.0
  0
ARC
  5
11AD
102
{ACAD_REACTORS
330
12F9
102
}
330
1E
100
AcDbEntity
  8
STEMPEL
100
AcDbCircle
 10
332.3823516576148
 20
516.4613418041738
 30
0.0
 40
5.0
100
AcDbArc
 50
180.0
 51
270.0
  0
ARC
  5
11AE
102
{ACAD_REACTORS
330
12F9
102
}
330
1E
100
AcDbEntity
  8
STEMPEL
100
AcDbCircle
 10
330.3823516576148
 20
514.9613418041737
 30
0.0
 40
5.0
100
AcDbArc
 50
191.5369590328181
 51
270.0
  0
LINE
  5
11AF
102
{ACAD_REACTORS
330
12F9
102
}
330
1E
100
AcDbEntity
  8
STEMPEL
100
AcDbLine
 10
322.1323516576148
 20
516.4613418041738
 30
0.0
 11
322.1323516576148
 21
515.8584561212037
 31
0.0
  0
LINE
  5
11B0
102
{ACAD_REACTORS
330
12F9
102
}
330
1E
100
AcDbEntity
  8
STEMPEL
100
AcDbLine
 10
321.8823516576148
 20
511.9613418041738
 30
0.0
 11
323.2827667340343
 21
513.9613418041737
 31
0.0
  0
LINE
  5
11B1
102
{ACAD_REACTORS
330
12F9
102
}
330
1E
100
AcDbEntity
  8
STEMPEL
100
AcDbLine
 10
325.4833721720489
 20
513.9613418041737
 30
0.0
 11
323.2827667340343
 21
513.9613418041737
 31
0.0
  0
LINE
  5
11B2
102
{ACAD_REACTORS
330
12F9
102
}
330
1E
100
AcDbEntity
  8
STEMPEL
100
AcDbLine
 10
332.3823516576148
 20
511.4613418041738
 30
0.0
 11
332.3823516576148
 21
509.9613418041737
 31
0.0
  0
LINE
  5
11B3
102
{ACAD_REACTORS
330
12F9
102
}
330
1E
100
AcDbEntity
  8
STEMPEL
100
AcDbLine
 10
324.9915873488499
 20
528.8877256895132
 30
0.0
 11
322.3780209912773
 21
521.7070111378361
 31
0.0
  0
LINE
  5
11B4
102
{ACAD_REACTORS
330
12F9
102
}
330
1E
100
AcDbEntity
  8
STEMPEL
100
AcDbLine
 10
320.7347798069891
 20
532.1309062516284
 30
0.0
 11
323.2959867385888
 21
536.2529831931415
 31
0.0
  0
LINE
  5
11B5
102
{ACAD_REACTORS
330
12F9
102
}
330
1E
100
AcDbEntity
  8
STEMPEL
100
AcDbLine
 10
324.2398332522212
 20
529.9613418041737
 30
0.0
 11
320.1323516576148
 21
529.9613418041737
 31
0.0
  0
POINT
  5
11B6
330
1E
100
AcDbEntity
  8
DEFPOINTS
  6
ByBlock
 62
     0
100
AcDbPoint
 10
320.1323516576148
 20
529.9613418041737
 30
0.0
  0
LINE
  5
11B7
330
1E
100
AcDbEntity
  8
STEMPEL
100
AcDbLine
 10
320.1323516576148
 20
530.0198625477143
 30
0.0
 11
320.1323516576148
 21
529.9613418041737
 31
0.0
  0
ARC
  5
11B8
102
{ACAD_REACTORS
330
12F9
102
}
330
1E
100
AcDbEntity
  8
STEMPEL
100
AcDbCircle
 10
324.1323516576148
 20
530.0198625477143
 30
0.0
 40
4.0
100
AcDbArc
 50
148.1457059206452
 51
180.0
  0
ARC
  5
11B9
102
{ACAD_REACTORS
330
12F9
102
}
330
1E
100
AcDbEntity
  8
STEMPEL
100
AcDbCircle
 10
324.5700761825735
 20
535.4613418041737
 30
0.0
 40
1.5
100
AcDbArc
 50
15.00000000000116
 51
148.1457059206452
  0
POINT
  5
11BA
330
1E
100
AcDbEntity
  8
DEFPOINTS
  6
ByBlock
 62
     0
100
AcDbPoint
 10
327.3823516576148
 20
530.7613418041738
 30
0.0
  0
LINE
  5
11BB
102
{ACAD_REACTORS
330
12F9
102
}
330
1E
100
AcDbEntity
  8
STEMPEL
100
AcDbLine
 10
327.3823516576148
 20
530.7613418041738
 30
0.0
 11
326.0189649220071
 21
535.8495703718275
 31
0.0
  0
LINE
  5
11BC
330
1E
100
AcDbEntity
  8
MITTEL
100
AcDbLine
 10
379.8823516576149
 20
541.9613418041738
 30
0.0
 11
379.8823516576149
 21
504.9613418041738
 31
0.0
  0
TEXT
  5
11C2
330
1E
100
AcDbEntity
  8
TEXT
 62
     1
100
AcDbText
 10
570.5136956748884
 20
261.8172832610123
 30
0.0
 40
7.0
  1
DN100
 50
356.0000000000035
 41
0.8
  7
GREEKS
100
AcDbText
  0
LINE
  5
11C8
330
1E
100
AcDbEntity
  8
TEXT
 62
     2
100
AcDbLine
 10
555.4771062122938
 20
384.3583298250647
 30
0.0
 11
529.5534576379639
 21
359.1202834266262
 31
0.0
  0
LINE
  5
11E6
330
1E
100
AcDbEntity
  8
STEMPEL
100
AcDbLine
 10
433.3823516576152
 20
362.1202834266269
 30
0.0
 11
434.7274307594583
 21
359.2357519840919
 31
0.0
  0
ARC
  5
11E9
330
1E
100
AcDbEntity
  8
STEMPEL
100
AcDbCircle
 10
461.8823516576148
 20
367.1202834266267
 30
0.0
 40
2.999999999999886
100
AcDbArc
 50
90.0
 51
270.0
  0
LINE
  5
11F7
330
1E
100
AcDbEntity
  8
STEMPEL
100
AcDbLine
 10
514.5402088821883
 20
370.1202834266262
 30
0.0
 11
521.8823516576149
 21
370.1202834266262
 31
0.0
  0
LINE
  5
11F8
330
1E
100
AcDbEntity
  8
MITTEL
100
AcDbLine
 10
501.8823516576149
 20
359.1202834266262
 30
0.0
 11
501.8823516576148
 21
389.1202834266263
 31
0.0
  0
LINE
  5
11F9
330
1E
100
AcDbEntity
  8
STEMPEL
100
AcDbLine
 10
503.8823516576148
 20
364.1202834266262
 30
0.0
 11
503.8823516576148
 21
384.1202834266262
 31
0.0
  0
LINE
  5
11FA
330
1E
100
AcDbEntity
  8
STEMPEL
100
AcDbLine
 10
499.8823516576148
 20
364.1202834266262
 30
0.0
 11
499.8823516576148
 21
384.1202834266262
 31
0.0
  0
LINE
  5
11FB
330
1E
100
AcDbEntity
  8
HILF
100
AcDbLine
 10
498.8823516576148
 20
364.1202834266262
 30
0.0
 11
498.8823516576148
 21
384.1202834266262
 31
0.0
  0
LINE
  5
11FC
330
1E
100
AcDbEntity
  8
HILF
100
AcDbLine
 10
504.8823516576148
 20
364.1202834266262
 30
0.0
 11
504.8823516576148
 21
384.1202834266262
 31
0.0
  0
LINE
  5
11FF
330
1E
100
AcDbEntity
  8
STEMPEL
100
AcDbLine
 10
494.3823516576149
 20
384.1202834266262
 30
0.0
 11
509.3823516576149
 21
384.1202834266262
 31
0.0
  0
LINE
  5
1200
330
1E
100
AcDbEntity
  8
STEMPEL
100
AcDbLine
 10
494.2237329088234
 20
375.0330213944401
 30
0.0
 11
494.3823516576149
 21
384.1202834266262
 31
0.0
  0
ARC
  5
1203
330
1E
100
AcDbEntity
  8
STEMPEL
100
AcDbCircle
 10
489.2244944330416
 20
375.1202834266262
 30
0.0
 40
5.0
100
AcDbArc
 50
270.0
 51
358.9999999999982
  0
LINE
  5
1209
330
1E
100
AcDbEntity
  8
STEMPEL
100
AcDbLine
 10
509.5409704064064
 20
375.0330213944396
 30
0.0
 11
509.3823516576149
 21
384.1202834266262
 31
0.0
  0
ARC
  5
120A
330
1E
100
AcDbEntity
  8
STEMPEL
100
AcDbCircle
 10
514.5402088821883
 20
375.1202834266262
 30
0.0
 40
5.0
100
AcDbArc
 50
181.0000000000017
 51
270.0
  0
ARC
  5
120B
330
1E
100
AcDbEntity
  8
STEMPEL
100
AcDbCircle
 10
521.8823516576149
 20
367.1202834266262
 30
0.0
 40
3.0
100
AcDbArc
 50
270.0
 51
90.0
  0
TEXT
  5
1212
330
1E
100
AcDbEntity
  8
TEXT
 62
     1
100
AcDbText
 10
557.8821321402807
 20
387.6568974216098
 30
0.0
 40
7.0
  1
Kompressionsdichtung
 41
0.8
  7
GREEKS
100
AcDbText
  0
TEXT
  5
1213
330
1E
100
AcDbEntity
  8
TEXT
 62
     1
100
AcDbText
 10
557.8821321402807
 20
374.5121995825457
 30
0.0
 40
7.0
  1
EDV-Art.Nr. 21810.125X
 41
0.8
  7
GREEKS
100
AcDbText
  0
LINE
  5
1214
330
1E
100
AcDbEntity
  8
TEXT
 62
     2
100
AcDbLine
 10
555.4771062122938
 20
384.3583298250647
 30
0.0
 11
664.5977089496232
 21
384.3583298250644
 31
0.0
  0
LINE
  5
1217
330
1E
100
AcDbEntity
  8
TEXT
 62
     2
100
AcDbLine
 10
476.7726488839559
 20
556.0119729675238
 30
0.0
 11
583.6368459398288
 21
556.0119729675236
 31
0.0
  0
TEXT
  5
1218
330
1E
100
AcDbEntity
  8
TEXT
 62
     1
100
AcDbText
 10
479.1776748119429
 20
559.310540564069
 30
0.0
 40
7.0
  1
Dichtelement DN100
 41
0.8
  7
GREEKS
100
AcDbText
  0
TEXT
  5
1219
330
1E
100
AcDbEntity
  8
TEXT
 62
     1
100
AcDbText
 10
479.1776748119429
 20
546.1658427250049
 30
0.0
 40
7.0
  1
EDV-Art.Nr. 00911.100X
 41
0.8
  7
GREEKS
100
AcDbText
  0
LINE
  5
121A
102
{ACAD_REACTORS
330
12F9
102
}
330
1E
100
AcDbEntity
  8
STEMPEL
100
AcDbLine
 10
432.3823516576148
 20
530.7613418041738
 30
0.0
 11
432.3823516576148
 21
516.4613418041738
 31
0.0
  0
ARC
  5
121B
102
{ACAD_REACTORS
330
12F9
102
}
330
1E
100
AcDbEntity
  8
STEMPEL
100
AcDbCircle
 10
435.5248700630085
 20
529.1613418041737
 30
0.0
 40
0.8
100
AcDbArc
 50
90.0
 51
199.9999999999966
  0
LINE
  5
121C
330
1E
100
AcDbEntity
  8
TEXT
 62
     2
100
AcDbLine
 10
436.6846228387194
 20
531.3361615759318
 30
0.0
 11
476.7726488839559
 21
556.0119729675238
 31
0.0
  0
LINE
  5
121D
102
{ACAD_REACTORS
330
12F9
102
}
330
1E
100
AcDbEntity
  8
STEMPEL
100
AcDbLine
 10
434.2813311431809
 20
513.9613418041737
 30
0.0
 11
436.4819365811953
 21
513.9613418041737
 31
0.0
  0
LINE
  5
121E
102
{ACAD_REACTORS
330
12F9
102
}
330
1E
100
AcDbEntity
  8
STEMPEL
100
AcDbLine
 10
433.3823516576148
 20
511.9613418041738
 30
0.0
 11
439.8823516576148
 21
511.9613418041738
 31
0.0
  0
LINE
  5
121F
102
{ACAD_REACTORS
330
12F9
102
}
330
1E
100
AcDbEntity
  8
STEMPEL
100
AcDbLine
 10
434.7731159663798
 20
528.8877256895132
 30
0.0
 11
437.3866823239524
 21
521.7070111378361
 31
0.0
  0
ARC
  5
1220
102
{ACAD_REACTORS
330
12F9
102
}
330
1E
100
AcDbEntity
  8
STEMPEL
100
AcDbCircle
 10
427.3823516576148
 20
516.4613418041738
 30
0.0
 40
5.0
100
AcDbArc
 50
270.0
 51
0.0
  0
LINE
  5
1221
102
{ACAD_REACTORS
330
12F9
102
}
330
1E
100
AcDbEntity
  8
STEMPEL
100
AcDbLine
 10
427.3823516576148
 20
511.4613418041738
 30
0.0
 11
427.3823516576148
 21
509.9613418041737
 31
0.0
  0
ARC
  5
1222
102
{ACAD_REACTORS
330
12F9
102
}
330
1E
100
AcDbEntity
  8
STEMPEL
100
AcDbCircle
 10
429.3823516576148
 20
514.9613418041737
 30
0.0
 40
5.0
100
AcDbArc
 50
270.0
 51
348.4630409671819
  0
LINE
  5
1223
102
{ACAD_REACTORS
330
12F9
102
}
330
1E
100
AcDbEntity
  8
STEMPEL
100
AcDbLine
 10
439.6323516576148
 20
518.4613418041737
 30
0.0
 11
437.6323516576148
 21
516.4613418041738
 31
0.0
  0
LINE
  5
1224
102
{ACAD_REACTORS
330
12F9
102
}
330
1E
100
AcDbEntity
  8
STEMPEL
100
AcDbLine
 10
437.6323516576148
 20
516.4613418041738
 30
0.0
 11
437.6323516576148
 21
515.8584561212037
 31
0.0
  0
LINE
  5
1225
102
{ACAD_REACTORS
330
12F9
102
}
330
1E
100
AcDbEntity
  8
STEMPEL
100
AcDbLine
 10
437.8823516576148
 20
511.9613418041738
 30
0.0
 11
436.4819365811953
 21
513.9613418041737
 31
0.0
  0
LINE
  5
1226
102
{ACAD_REACTORS
330
12F9
102
}
330
1E
100
AcDbEntity
  8
STEMPEL
100
AcDbLine
 10
439.8823516576148
 20
511.9613418041738
 30
0.0
 11
437.6323516576148
 21
515.8584561212037
 31
0.0
  0
LINE
  5
1227
102
{ACAD_REACTORS
330
12F9
102
}
330
1E
100
AcDbEntity
  8
STEMPEL
100
AcDbLine
 10
439.6323516576148
 20
519.4613418041738
 30
0.0
 11
439.6323516576148
 21
518.4613418041737
 31
0.0
  0
LINE
  5
1228
102
{ACAD_REACTORS
330
12F9
102
}
330
1E
100
AcDbEntity
  8
STEMPEL
100
AcDbLine
 10
439.6323516576148
 20
519.4613418041738
 30
0.0
 11
437.3866823239524
 21
521.7070111378361
 31
0.0
  0
LINE
  5
1229
102
{ACAD_REACTORS
330
12F9
102
}
330
1E
100
AcDbEntity
  8
STEMPEL
100
AcDbLine
 10
435.5248700630085
 20
529.9613418041737
 30
0.0
 11
439.6323516576148
 21
529.9613418041737
 31
0.0
  0
ARC
  5
122A
102
{ACAD_REACTORS
330
12F9
102
}
330
1E
100
AcDbEntity
  8
STEMPEL
100
AcDbCircle
 10
435.1946271326562
 20
535.4613418041737
 30
0.0
 40
1.5
100
AcDbArc
 50
31.85429407935477
 51
164.9999999999988
  0
POINT
  5
122B
330
1E
100
AcDbEntity
  8
DEFPOINTS
  6
ByBlock
 62
     0
100
AcDbPoint
 10
432.3823516576148
 20
530.7613418041738
 30
0.0
  0
LINE
  5
122C
102
{ACAD_REACTORS
330
12F9
102
}
330
1E
100
AcDbEntity
  8
STEMPEL
100
AcDbLine
 10
432.3823516576148
 20
530.7613418041738
 30
0.0
 11
433.7457383932227
 21
535.8495703718275
 31
0.0
  0
POINT
  5
122D
330
1E
100
AcDbEntity
  8
DEFPOINTS
  6
ByBlock
 62
     0
100
AcDbPoint
 10
439.6323516576148
 20
529.9613418041737
 30
0.0
  0
LINE
  5
122E
330
1E
100
AcDbEntity
  8
STEMPEL
100
AcDbLine
 10
439.6323516576148
 20
530.0198625477143
 30
0.0
 11
439.6323516576148
 21
529.9613418041737
 31
0.0
  0
ARC
  5
122F
102
{ACAD_REACTORS
330
12F9
102
}
330
1E
100
AcDbEntity
  8
STEMPEL
100
AcDbCircle
 10
435.6323516576148
 20
530.0198625477143
 30
0.0
 40
4.0
100
AcDbArc
 50
0.0
 51
31.85429407935477
  0
LINE
  5
1230
102
{ACAD_REACTORS
330
12F9
102
}
330
1E
100
AcDbEntity
  8
STEMPEL
100
AcDbLine
 10
439.0299235082406
 20
532.1309062516284
 30
0.0
 11
436.4687165766409
 21
536.2529831931415
 31
0.0
  0
HATCH
  5
12F9
330
1E
100
AcDbEntity
  8
SCHRAFF
100
AcDbHatch
 10
0.0
 20
0.0
 30
0.0
210
0.0
220
0.0
230
1.0
  2
NET
 70
     0
 71
     1
 91
        2
 92
        7
 72
     1
 73
     1
 93
       20
 10
432.3823516576148
 20
530.7613418041738
 42
0.0
 10
432.3823516576148
 20
516.4613418041738
 42
-0.4142135623730951
 10
427.3823516576148
 20
511.4613418041738
 42
0.0
 10
427.3823516576148
 20
509.9613418041737
 42
0.0
 10
429.3823516576148
 20
509.9613418041737
 42
0.356393958692601
 10
434.2813311431812
 20
513.9613418041737
 42
0.0
 10
436.4819365811952
 20
513.9613418041737
 42
0.0
 10
437.8823516576146
 20
511.9613418041737
 42
0.0
 10
439.8823516576148
 20
511.9613418041737
 42
0.0
 10
437.6323516576148
 20
515.8584561212037
 42
0.0
 10
437.6323516576148
 20
516.4613418041738
 42
0.0
 10
439.6323516576148
 20
518.4613418041737
 42
0.0
 10
439.6323516576148
 20
519.4613418041736
 42
0.0
 10
437.3866823239525
 20
521.7070111378363
 42
0.0
 10
434.7731159663798
 20
528.8877256895132
 42
-0.520567050551705
 10
435.5248700630085
 20
529.9613418041737
 42
0.0
 10
439.6319235500272
 20
529.9613418041737
 42
0.1436237563963287
 10
439.0299235082405
 20
532.1309062516286
 42
0.0
 10
436.4687165766409
 20
536.2529831931415
 42
0.6565381519876282
 10
433.7457383932227
 20
535.8495703718275
 42
0.0
 97
       20
330
122A
330
122C
330
121A
330
1220
330
1221
330
11A4
330
1222
330
121D
330
1225
330
121E
330
1226
330
1224
330
1223
330
1227
330
1228
330
121F
330
121B
330
1229
330
122F
330
1230
 92
        7
 72
     1
 73
     1
 93
       20
 10
320.7347798069891
 20
532.1309062516284
 42
0.1436237563963215
 10
320.1327797652024
 20
529.9613418041737
 42
0.0
 10
324.2398332522212
 20
529.9613418041737
 42
-0.5205670505517696
 10
324.9915873488498
 20
528.8877256895131
 42
0.0
 10
322.3780209912774
 20
521.7070111378363
 42
0.0
 10
320.1323516576148
 20
519.4613418041738
 42
0.0
 10
320.1323516576148
 20
518.4613418041737
 42
0.0
 10
322.1323516576148
 20
516.4613418041739
 42
0.0
 10
322.1323516576148
 20
515.8584561212036
 42
0.0
 10
319.8823516576148
 20
511.9613418041738
 42
0.0
 10
321.8823516576148
 20
511.9613418041737
 42
0.0
 10
323.2827667340343
 20
513.9613418041737
 42
0.0
 10
325.4833721720489
 20
513.9613418041737
 42
0.3563939586925788
 10
330.3823516576148
 20
509.9613418041737
 42
0.0
 10
332.3823516576148
 20
509.9613418041737
 42
0.0
 10
332.3823516576148
 20
511.4613418041738
 42
-0.4142135623730951
 10
327.3823516576148
 20
516.4613418041738
 42
0.0
 10
327.3823516576148
 20
530.7613418041738
 42
0.0
 10
326.0189649220071
 20
535.8495703718275
 42
0.6565381519876282
 10
323.2959867385888
 20
536.2529831931415
 42
0.0
 97
       20
330
11B9
330
11B4
330
11B8
330
11B5
330
11A6
330
11B3
330
11A8
330
11AC
330
11AB
330
11AF
330
11AA
330
11A9
330
11B0
330
11B1
330
11AE
330
11A4
330
11B2
330
11AD
330
11A7
330
11BB
 75
     0
 76
     1
 52
45.0
 41
15.0
 77
     0
 78
     2
 53
45.0
 43
0.0
 44
0.0
 45
-1.325825214724776
 46
1.325825214724776
 79
     0
 53
135.0
 43
0.0
 44
0.0
 45
-1.325825214724776
 46
-1.325825214724776
 79
     0
 47
0.2874484699854706
 98
        2
 10
434.1936498448067
 20
533.3078567697034
 10
323.4502928281236
 20
532.4455115853527
  0
HATCH
  5
1325
330
1E
100
AcDbEntity
  8
SCHRAFF
100
AcDbHatch
 10
0.0
 20
0.0
 30
0.0
210
0.0
220
0.0
230
1.0
  2
_USER
 70
     0
 71
     0
 91
        7
 92
        7
 72
     1
 73
     1
 93
        4
 10
260.8823516576148
 20
364.1202834266263
 42
0.0
 10
260.8823516576148
 20
370.1202834266262
 42
0.0
 10
237.8823516576149
 20
370.1202834266262
 42
1.0
 10
237.8823516576149
 20
364.1202834266262
 42
0.0
 97
        0
 92
        7
 72
     1
 73
     1
 93
        4
 10
274.8823516576148
 20
370.1202834266262
 42
0.0
 10
274.8823516576148
 20
364.1202834266262
 42
0.0
 10
297.8823516576148
 20
364.1202834266262
 42
1.0
 10
297.8823516576148
 20
370.1202834266262
 42
0.0
 97
        0
 92
        7
 72
     1
 73
     1
 93
        4
 10
483.3568592988789
 20
364.1202834266262
 42
0.0
 10
483.3568592988788
 20
370.1202834266262
 42
0.0
 10
461.8823516576148
 20
370.1202834266262
 42
1.0
 10
461.8823516576148
 20
364.1202834266262
 42
0.0
 97
        0
 92
        7
 72
     1
 73
     1
 93
        7
 10
498.8823516576148
 20
364.1202834266262
 42
0.0
 10
498.8823516576149
 20
384.1202834266263
 42
0.0
 10
494.3823516576148
 20
384.1202834266261
 42
0.0
 10
494.2237329088234
 20
375.0330213944401
 42
-0.4091108014277168
 10
489.2244944330416
 20
370.1202834266262
 42
0.0
 10
483.356859298879
 20
370.1202834266263
 42
0.0
 10
483.356859298879
 20
364.1202834266263
 42
0.0
 97
        0
 92
        7
 72
     1
 73
     1
 93
        7
 10
521.8823516576149
 20
364.1202834266262
 42
1.0
 10
521.8823516576149
 20
370.1202834266262
 42
0.0
 10
514.5402088821883
 20
370.1202834266262
 42
-0.4091108014277139
 10
509.5409704064064
 20
375.0330213944398
 42
0.0
 10
509.3823516576149
 20
384.1202834266262
 42
0.0
 10
504.8823516576149
 20
384.1202834266263
 42
0.0
 10
504.8823516576147
 20
364.1202834266262
 42
0.0
 97
        0
 92
        7
 72
     0
 73
     1
 93
        4
 10
503.8823516576148
 20
364.1202834266262
 10
504.8823516576148
 20
364.1202834266262
 10
504.8823516576149
 20
384.1202834266263
 10
503.8823516576148
 20
384.1202834266263
 97
        0
 92
        7
 72
     0
 73
     1
 93
        4
 10
499.8823516576147
 20
384.1202834266262
 10
498.8823516576148
 20
384.1202834266263
 10
498.8823516576148
 20
364.1202834266262
 10
499.8823516576148
 20
364.1202834266262
 97
        0
 75
     0
 76
     0
 52
135.0
 41
5.0
 77
     0
 78
     1
 53
135.0
 43
0.0
 44
0.0
 45
-3.535533905932737
 46
-3.535533905932737
 79
     0
 47
0.739208532007782
 98
        7
 10
256.5491068855517
 20
366.2945108905076
 10
285.3979584880985
 20
367.7729274735923
 10
468.1073492663077
 20
366.2945108905076
 10
496.216485476928
 20
366.2945108905076
 10
511.0107689741644
 20
367.033719881751
 10
504.3811687619158
 20
379.188406292639
 10
499.5039111046562
 20
381.7156258006171
  0
DIMENSION
  5
137C
330
1E
100
AcDbEntity
  8
BEM
100
AcDbDimension
  2
*D4
 10
711.2890394943491
 20
253.2860111517198
 30
0.0
 11
704.7890394943491
 21
305.703147289173
 31
0.0
 70
    32
  1
105
 71
     5
 42
104.8342722749062
  3
Standard
100
AcDbAlignedDimension
 13
529.8823516576147
 23
358.120283426626
 33
0.0
 14
686.4596787927743
 24
253.2860111517198
 34
0.0
 50
90.0
100
AcDbRotatedDimension
1001
ACAD
1000
DSTYLE
1002
{
1070
    40
1040
2.0
1070
    41
1040
3.5
1070
    42
1040
1.0
1070
    43
1040
7.0
1070
    44
1040
1.0
1070
    73
1070
     0
1070
    74
1070
     0
1070
    77
1070
     1
1070
    78
1070
     8
1070
    79
1070
     2
1070
   140
1040
3.5
1070
   141
1040
1.5
1070
   146
1040
0.5
1070
   147
1040
1.5
1070
   172
1070
     1
1070
   178
1070
     1
1070
   179
1070
     2
1070
   271
1070
     2
1070
   272
1070
     2
1070
   284
1070
     8
1070
   285
1070
     8
1070
   286
1070
     8
1002
}
  0
DIMENSION
  5
141E
330
1E
100
AcDbEntity
  8
BEM
100
AcDbDimension
  2
*D5
 10
680.3084919003366
 20
201.6078462219953
 30
0.0
 11
682.9635302728188
 21
252.2689963184894
 31
0.0
 70
   161
  1
%%c<>
 71
     5
 42
101.5999999999999
  3
Standard
100
AcDbAlignedDimension
 13
659.5519819567198
 23
304.4350791671953
 33
0.0
 14
654.2346488024368
 24
202.9743184361306
 34
0.0
1001
ACAD
1000
DSTYLE
1002
{
1070
    40
1040
2.0
1070
    41
1040
3.5
1070
    42
1040
1.0
1070
    43
1040
7.0
1070
    44
1040
1.0
1070
    45
1040
0.1
1070
    73
1070
     0
1070
    74
1070
     0
1070
    77
1070
     1
1070
    78
1070
     8
1070
    79
1070
     2
1070
   140
1040
3.5
1070
   141
1040
1.5
1070
   146
1040
0.5142857142857144
1070
   147
1040
1.5
1070
   172
1070
     1
1070
   178
1070
     1
1070
   179
1070
     2
1070
   271
1070
     2
1070
   272
1070
     2
1070
   284
1070
     8
1070
   285
1070
     8
1070
   286
1070
     8
1002
}
  0
HATCH
  5
141F
330
1E
100
AcDbEntity
  8
SCHRAFF
100
AcDbHatch
 10
0.0
 20
0.0
 30
0.0
210
0.0
220
0.0
230
1.0
  2
_USER
 70
     0
 71
     1
 91
        2
 92
        7
 72
     0
 73
     1
 93
        6
 10
430.6823516576158
 20
316.4296282365029
 10
429.4823516576157
 20
315.290870756445
 10
659.4368574807047
 20
303.2394657701269
 10
667.441344766516
 20
302.1145084456143
 10
667.5043878118279
 20
303.3174414104261
 10
659.5519819567214
 20
304.4350791671951
 97
        6
330
1467
330
143B
330
143D
330
144D
330
143C
330
1444
 92
        7
 72
     0
 73
     1
 93
        6
 10
330.2823516576156
 20
221.1535857383293
 10
329.0823516576155
 20
220.0148282582714
 10
654.2346488024366
 20
202.9743184361306
 10
662.2603155034016
 20
203.2545808930127
 10
662.3233585487136
 20
204.4575138578246
 10
654.2451306214045
 20
204.1754159224733
 97
        6
330
1467
330
1443
330
1440
330
144D
330
143E
330
143F
 75
     0
 76
     0
 52
45.0
 41
2.0
 77
     0
 78
     1
 53
45.0
 43
28.18294621694537
 44
-46.21755719641441
 45
-1.414213562373094
 46
1.414213562373095
 79
     0
 47
0.4381502735020374
 98
        2
 10
539.0914610772451
 20
310.0095980663862
 10
485.1697458777585
 20
212.3020874266849
  0
HATCH
  5
1420
330
1E
100
AcDbEntity
  8
SCHRAFF
100
AcDbHatch
 10
0.0
 20
0.0
 30
0.0
210
0.0
220
0.0
230
1.0
  2
_USER
 70
     0
 71
     1
 91
        2
 92
        7
 72
     1
 73
     1
 93
       14
 10
438.0823516576153
 20
349.5155319640553
 42
0.1095178116832417
 10
435.8150001039025
 20
359.7428938981803
 42
0.0
 10
434.7064051603704
 20
362.1202834266266
 42
0.0
 10
433.3823516576153
 20
362.1202834266266
 42
0.0
 10
434.7274307594584
 20
359.2357519840914
 42
-0.1095178116832376
 10
436.8823516576154
 20
349.5155319640556
 42
0.0
 10
436.8823516576154
 20
341.9377076558979
 42
-0.1618173156292122
 10
432.3070828404107
 20
328.170744270978
 42
0.1618173156292099
 10
429.4823516576149
 20
319.6711407898536
 42
0.0
 10
429.482351657615
 20
315.2908707564443
 42
0.0
 10
430.6823516576151
 20
316.4296282365023
 42
0.0
 10
430.6823516576151
 20
319.6711407898532
 42
-0.1618173156292146
 10
433.2683731629916
 20
327.4524679204602
 42
0.1618173156292139
 10
438.0823516576153
 20
341.9377076558979
 42
0.0
 97
       14
330
1435
330
1434
330
1451
330
144F
330
1450
330
1456
330
1452
330
1439
330
143A
330
1467
330
1441
330
1438
330
1437
330
1436
 92
        7
 72
     1
 73
     1
 93
       14
 10
330.282351657615
 20
319.6711407898532
 42
0.1618173156292164
 10
327.4576204748192
 20
328.1707442709779
 42
-0.1618173156292125
 10
322.8823516576146
 20
341.9377076558979
 42
0.0
 10
322.8823516576146
 20
349.5155319640553
 42
-0.1095178116832414
 10
325.0372725557715
 20
359.2357519840914
 42
0.0
 10
326.3823516576146
 20
362.1202834266264
 42
0.0
 10
325.0582981548596
 20
362.1202834266265
 42
0.0
 10
323.9497032113275
 20
359.7428938981803
 42
0.1095178116832369
 10
321.6823516576146
 20
349.5155319640558
 42
0.0
 10
321.6823516576146
 20
341.9377076558979
 42
0.1618173156292134
 10
326.4963301522386
 20
327.4524679204603
 42
-0.1618173156292094
 10
329.082351657615
 20
319.6711407898535
 42
0.0
 10
329.082351657615
 20
220.014828258271
 42
0.0
 10
330.282351657615
 20
221.1535857383288
 42
0.0
 97
       14
330
1425
330
1427
330
1429
330
142A
330
142B
330
1451
330
142E
330
142D
330
142C
330
1428
330
1426
330
1442
330
1467
330
1424
 75
     0
 76
     0
 52
135.0
 41
2.0
 77
     0
 78
     1
 53
135.0
 43
28.18294621694537
 44
-46.21755719641441
 45
-1.414213562373095
 46
-1.414213562373094
 79
     0
 47
0.2820831820746789
 98
        2
 10
437.4163234128691
 20
347.8116509082154
 10
329.8843361947066
 20
308.3200047302832
  0
HATCH
  5
1421
330
1E
100
AcDbEntity
  8
SCHRAFF
100
AcDbHatch
 10
0.0
 20
0.0
 30
0.0
210
0.0
220
0.0
230
1.0
  2
_USER
 70
     0
 71
     1
 91
        2
 92
        7
 72
     0
 73
     1
 93
        4
 10
321.6823516576146
 20
345.1484580196797
 10
320.6323516576152
 20
345.1484580196797
 10
318.5110313140555
 20
343.0271376761198
 10
321.6823516576146
 20
343.0271376761199
 97
        4
330
142F
330
1458
330
1422
330
142C
 92
        7
 72
     1
 73
     1
 93
        5
 10
321.6823516576147
 20
343.0271376761199
 42
0.0
 10
318.5110313140556
 20
343.0271376761198
 42
0.0
 10
316.6229229503428
 20
344.9152460398325
 42
0.4794285808177948
 10
321.6912893092214
 20
341.2800584666227
 42
-0.0067948376602753
 10
321.6823516576146
 20
341.9377076558979
 42
0.0
 97
        5
330
1422
330
1464
330
1465
330
1428
330
142C
 75
     0
 76
     0
 52
0.0
 41
0.1
 77
     0
 78
     1
 53
0.0
 43
28.18294621694537
 44
-46.21755719641441
 45
0.0
 46
0.1
 79
     0
 47
0.0830760575476009
 98
        2
 10
320.4062864187668
 20
343.8949054297809
 10
319.9075597055312
 20
342.3164599877869
  0
LINE
  5
1422
102
{ACAD_REACTORS
330
1421
102
}
330
1E
100
AcDbEntity
  8
STEMPEL
100
AcDbLine
 10
318.5110313140555
 20
343.0271376761198
 30
0.0
 11
321.6823516576146
 21
343.0271376761199
 31
0.0
  0
HATCH
  5
1423
330
1E
100
AcDbEntity
  8
SCHRAFF
100
AcDbHatch
 10
0.0
 20
0.0
 30
0.0
210
0.0
220
0.0
230
1.0
  2
_USER
 70
     0
 71
     1
 91
        1
 92
        7
 72
     1
 73
     1
 93
        3
 10
333.0983633614518
 20
219.8043580032987
 42
0.0
 10
329.082351657615
 20
220.0148282582714
 42
0.0
 10
329.082351657615
 20
224.0363513196965
 42
1.268493952745392
 97
        3
330
1443
330
1442
330
1466
 75
     0
 76
     0
 52
0.0
 41
0.1
 77
     0
 78
     1
 53
0.0
 43
28.18294621694537
 44
-46.21755719641441
 45
0.0
 46
0.1
 79
     0
 47
0.0638673198248007
 98
        1
 10
329.6773426616256
 20
219.2570566800937
  0
LINE
  5
1424
102
{ACAD_REACTORS
330
1420
102
}
330
1E
100
AcDbEntity
  8
STEMPEL
100
AcDbLine
 10
330.282351657615
 20
319.6711407898532
 30
0.0
 11
330.282351657615
 21
221.1535857383288
 31
0.0
  0
ARC
  5
1425
102
{ACAD_REACTORS
330
1420
102
}
330
1E
100
AcDbEntity
  8
STEMPEL
100
AcDbCircle
 10
316.082351657615
 20
319.6711407898532
 30
0.0
 40
14.2
100
AcDbArc
 50
0.0
 51
36.76709401117439
  0
ARC
  5
1426
102
{ACAD_REACTORS
330
1420
102
}
330
1E
100
AcDbEntity
  8
STEMPEL
100
AcDbCircle
 10
316.082351657615
 20
319.6711407898532
 30
0.0
 40
13.0
100
AcDbArc
 50
0.0
 51
36.76709401117439
  0
ARC
  5
1427
102
{ACAD_REACTORS
330
1420
102
}
330
1E
100
AcDbEntity
  8
STEMPEL
100
AcDbCircle
 10
345.8823516576146
 20
341.9377076558981
 30
0.0
 40
23.0
100
AcDbArc
 50
180.0
 51
216.7670940111744
  0
ARC
  5
1428
102
{ACAD_REACTORS
330
1421
330
1420
102
}
330
1E
100
AcDbEntity
  8
STEMPEL
100
AcDbCircle
 10
345.8823516576146
 20
341.9377076558981
 30
0.0
 40
24.2
100
AcDbArc
 50
180.0
 51
216.7670940111744
  0
LINE
  5
1429
102
{ACAD_REACTORS
330
1420
102
}
330
1E
100
AcDbEntity
  8
STEMPEL
100
AcDbLine
 10
322.8823516576146
 20
349.5155319640553
 30
0.0
 11
322.8823516576146
 21
341.9377076558979
 31
0.0
  0
ARC
  5
142A
102
{ACAD_REACTORS
330
1420
102
}
330
1E
100
AcDbEntity
  8
STEMPEL
100
AcDbCircle
 10
345.8823516576146
 20
349.5155319640553
 30
0.0
 40
23.0
100
AcDbArc
 50
155.0000000000079
 51
180.0
  0
LINE
  5
142B
102
{ACAD_REACTORS
330
1420
102
}
330
1E
100
AcDbEntity
  8
STEMPEL
100
AcDbLine
 10
326.3823516576146
 20
362.1202834266264
 30
0.0
 11
325.0372725557715
 21
359.2357519840914
 31
0.0
  0
LINE
  5
142C
102
{ACAD_REACTORS
330
1421
330
1420
102
}
330
1E
100
AcDbEntity
  8
STEMPEL
100
AcDbLine
 10
321.6823516576146
 20
349.5155319640553
 30
0.0
 11
321.6823516576146
 21
341.9377076558979
 31
0.0
  0
ARC
  5
142D
102
{ACAD_REACTORS
330
1420
102
}
330
1E
100
AcDbEntity
  8
STEMPEL
100
AcDbCircle
 10
345.8823516576146
 20
349.5155319640553
 30
0.0
 40
24.2
100
AcDbArc
 50
155.0000000000079
 51
180.0
  0
LINE
  5
142E
102
{ACAD_REACTORS
330
1420
102
}
330
1E
100
AcDbEntity
  8
STEMPEL
100
AcDbLine
 10
325.0582981548596
 20
362.1202834266265
 30
0.0
 11
323.9497032113275
 21
359.7428938981803
 31
0.0
  0
LINE
  5
142F
102
{ACAD_REACTORS
330
1421
102
}
330
1E
100
AcDbEntity
  8
STEMPEL
100
AcDbLine
 10
320.6323516576148
 20
345.1484580196797
 30
0.0
 11
321.6823516576146
 21
345.1484580196797
 31
0.0
  0
HATCH
  5
1430
330
1E
100
AcDbEntity
  8
SCHRAFF
100
AcDbHatch
 10
0.0
 20
0.0
 30
0.0
210
0.0
220
0.0
230
1.0
  2
_USER
 70
     0
 71
     1
 91
        1
 92
        7
 72
     1
 73
     1
 93
        3
 10
430.6823516576151
 20
319.429628236503
 42
0.0
 10
430.682351657615
 20
316.4296282365029
 42
0.0
 10
433.6782402618787
 20
316.2726203677741
 42
0.4296339059668455
 97
        3
330
1441
330
1444
330
1453
 75
     0
 76
     0
 52
0.0
 41
0.1
 77
     0
 78
     1
 53
0.0
 43
28.18294621694537
 44
-46.21755719641441
 45
0.0
 46
0.1
 79
     0
 47
0.0861522758053821
 98
        1
 10
431.6496200153274
 20
317.8922380005042
  0
HATCH
  5
1431
330
1E
100
AcDbEntity
  8
SCHRAFF
100
AcDbHatch
 10
0.0
 20
0.0
 30
0.0
210
0.0
220
0.0
230
1.0
  2
_USER
 70
     0
 71
     1
 91
        2
 92
        7
 72
     0
 73
     1
 93
        4
 10
441.2536720011744
 20
343.0271376761198
 10
439.1323516576152
 20
345.1484580196797
 10
438.0823516576153
 20
345.1484580196797
 10
438.0823516576154
 20
343.0271376761198
 97
        4
330
1432
330
1436
330
1433
330
1457
 92
        7
 72
     1
 73
     1
 93
        5
 10
443.1417803648858
 20
344.9152460398311
 42
0.0
 10
441.2536720011744
 20
343.0271376761199
 42
0.0
 10
438.0823516576153
 20
343.0271376761198
 42
0.0
 10
438.0823516576153
 20
341.9377076558979
 42
-0.0067948376602653
 10
438.0734140060085
 20
341.2800584666237
 42
0.479428580817486
 97
        5
330
1469
330
1433
330
1436
330
1437
330
1459
 75
     0
 76
     0
 52
0.0
 41
0.1
 77
     0
 78
     1
 53
0.0
 43
28.18294621694537
 44
-46.21755719641441
 45
0.0
 46
0.1
 79
     0
 47
0.038161733105324
 98
        2
 10
439.0453932364344
 20
343.2916711538969
 10
439.8090440358906
 20
341.9941719300773
  0
LINE
  5
1432
102
{ACAD_REACTORS
330
1431
102
}
330
1E
100
AcDbEntity
  8
STEMPEL
100
AcDbLine
 10
439.1323516576151
 20
345.1484580196797
 30
0.0
 11
438.0823516576153
 21
345.1484580196797
 31
0.0
  0
LINE
  5
1433
102
{ACAD_REACTORS
330
1431
102
}
330
1E
100
AcDbEntity
  8
STEMPEL
100
AcDbLine
 10
441.2536720011744
 20
343.0271376761198
 30
0.0
 11
438.0823516576153
 21
343.0271376761198
 31
0.0
  0
LINE
  5
1434
102
{ACAD_REACTORS
330
1420
102
}
330
1E
100
AcDbEntity
  8
STEMPEL
100
AcDbLine
 10
434.7064051603704
 20
362.1202834266265
 30
0.0
 11
435.8150001039025
 21
359.7428938981803
 31
0.0
  0
ARC
  5
1435
102
{ACAD_REACTORS
330
1420
102
}
330
1E
100
AcDbEntity
  8
STEMPEL
100
AcDbCircle
 10
413.8823516576153
 20
349.5155319640553
 30
0.0
 40
24.2
100
AcDbArc
 50
0.0
 51
24.99999999999207
  0
LINE
  5
1436
102
{ACAD_REACTORS
330
1431
330
1420
102
}
330
1E
100
AcDbEntity
  8
STEMPEL
100
AcDbLine
 10
438.0823516576153
 20
349.5155319640553
 30
0.0
 11
438.0823516576153
 21
341.9377076558979
 31
0.0
  0
ARC
  5
1437
102
{ACAD_REACTORS
330
1431
330
1420
102
}
330
1E
100
AcDbEntity
  8
STEMPEL
100
AcDbCircle
 10
413.8823516576153
 20
341.9377076558981
 30
0.0
 40
24.2
100
AcDbArc
 50
323.2329059888256
 51
0.0
  0
ARC
  5
1438
102
{ACAD_REACTORS
330
1420
102
}
330
1E
100
AcDbEntity
  8
STEMPEL
100
AcDbCircle
 10
443.682351657615
 20
319.6711407898532
 30
0.0
 40
13.0
100
AcDbArc
 50
143.2329059888256
 51
180.0
  0
ARC
  5
1439
102
{ACAD_REACTORS
330
1420
102
}
330
1E
100
AcDbEntity
  8
STEMPEL
100
AcDbCircle
 10
443.682351657615
 20
319.6711407898532
 30
0.0
 40
14.2
100
AcDbArc
 50
143.2329059888256
 51
180.0
  0
LINE
  5
143A
102
{ACAD_REACTORS
330
1420
102
}
330
1E
100
AcDbEntity
  8
STEMPEL
100
AcDbLine
 10
429.4823516576149
 20
319.6711407898532
 30
0.0
 11
429.482351657615
 21
315.2908707564443
 31
0.0
  0
LINE
  5
143B
102
{ACAD_REACTORS
330
141F
102
}
330
1E
100
AcDbEntity
  8
STEMPEL
100
AcDbLine
 10
429.4823516576157
 20
315.290870756445
 30
0.0
 11
659.4368574807051
 21
303.2394657701269
 31
0.0
  0
LINE
  5
143C
102
{ACAD_REACTORS
330
141F
102
}
330
1E
100
AcDbEntity
  8
STEMPEL
100
AcDbLine
 10
659.5519819567205
 20
304.4350791671953
 30
0.0
 11
667.504387811828
 21
303.3174414104261
 31
0.0
  0
LINE
  5
143D
102
{ACAD_REACTORS
330
141F
102
}
330
1E
100
AcDbEntity
  8
STEMPEL
100
AcDbLine
 10
659.4368574807051
 20
303.2394657701269
 30
0.0
 11
667.441344766516
 21
302.1145084456143
 31
0.0
  0
LINE
  5
143E
102
{ACAD_REACTORS
330
141F
102
}
330
1E
100
AcDbEntity
  8
STEMPEL
100
AcDbLine
 10
654.2451306214045
 20
204.1754159224733
 30
0.0
 11
662.3233585487136
 21
204.4575138578246
 31
0.0
  0
LINE
  5
143F
102
{ACAD_REACTORS
330
141F
102
}
330
1E
100
AcDbEntity
  8
STEMPEL
100
AcDbLine
 10
330.2823516576156
 20
221.1535857383293
 30
0.0
 11
654.2451306214045
 21
204.1754159224733
 31
0.0
  0
LINE
  5
1440
102
{ACAD_REACTORS
330
141F
102
}
330
1E
100
AcDbEntity
  8
STEMPEL
100
AcDbLine
 10
654.2346488024368
 20
202.9743184361306
 30
0.0
 11
662.2603155034016
 21
203.2545808930127
 31
0.0
  0
LINE
  5
1441
102
{ACAD_REACTORS
330
1430
330
1420
102
}
330
1E
100
AcDbEntity
  8
STEMPEL
100
AcDbLine
 10
430.6823516576151
 20
319.6711407898532
 30
0.0
 11
430.6823516576151
 21
316.4296282365029
 31
0.0
  0
LINE
  5
1442
102
{ACAD_REACTORS
330
1423
330
1420
102
}
330
1E
100
AcDbEntity
  8
STEMPEL
100
AcDbLine
 10
329.082351657615
 20
319.6711407898532
 30
0.0
 11
329.0823516576151
 21
220.0148282582714
 31
0.0
  0
LINE
  5
1443
102
{ACAD_REACTORS
330
1423
330
141F
102
}
330
1E
100
AcDbEntity
  8
STEMPEL
100
AcDbLine
 10
329.0823516576151
 20
220.0148282582714
 30
0.0
 11
654.2346488024368
 21
202.9743184361306
 31
0.0
  0
LINE
  5
1444
102
{ACAD_REACTORS
330
1430
330
141F
102
}
330
1E
100
AcDbEntity
  8
STEMPEL
100
AcDbLine
 10
430.6823516576151
 20
316.4296282365029
 30
0.0
 11
659.5519819567198
 21
304.4350791671953
 31
0.0
  0
ARC
  5
1445
102
{ACAD_REACTORS
330
146C
102
}
330
1E
100
AcDbEntity
  8
STEMPEL
100
AcDbCircle
 10
525.0539245328688
 20
355.1202834266269
 30
0.0
 40
3.0
100
AcDbArc
 50
45.0
 51
90.0
  0
LINE
  5
1446
102
{ACAD_REACTORS
330
146C
102
}
330
1E
100
AcDbEntity
  8
STEMPEL
100
AcDbLine
 10
529.8823516576151
 20
354.534496989
 30
0.0
 11
527.7610313140555
 21
352.4131766454402
 31
0.0
  0
LINE
  5
1447
102
{ACAD_REACTORS
330
146C
102
}
330
1E
100
AcDbEntity
  8
STEMPEL
100
AcDbLine
 10
527.7610313140555
 20
352.4131766454402
 30
0.0
 11
525.0539245328688
 21
355.1202834266269
 31
0.0
  0
LINE
  5
1448
102
{ACAD_REACTORS
330
146C
102
}
330
1E
100
AcDbEntity
  8
STEMPEL
100
AcDbLine
 10
529.8823516576151
 20
354.534496989
 30
0.0
 11
527.1752448764284
 21
357.2416037701864
 31
0.0
  0
ARC
  5
1449
102
{ACAD_REACTORS
330
146C
102
}
330
1E
100
AcDbEntity
  8
STEMPEL
100
AcDbCircle
 10
454.1752448764281
 20
353.1202834266264
 30
0.0
 40
5.0
100
AcDbArc
 50
90.0
 51
135.0
  0
ARC
  5
144A
102
{ACAD_REACTORS
330
146C
102
}
330
1E
100
AcDbEntity
  8
STEMPEL
100
AcDbCircle
 10
454.1752448764281
 20
353.1202834266264
 30
0.0
 40
2.0
100
AcDbArc
 50
90.0
 51
135.0
  0
LINE
  5
144B
102
{ACAD_REACTORS
330
146C
102
}
330
1E
100
AcDbEntity
  8
STEMPEL
100
AcDbLine
 10
454.1752448764281
 20
355.1202834266262
 30
0.0
 11
525.0539245328698
 21
355.1202834266257
 31
0.0
  0
LINE
  5
144C
330
1E
100
AcDbEntity
  8
STEMPEL
100
AcDbLine
 10
527.7610313140555
 20
352.4131766454402
 30
0.0
 11
450.6397109704959
 21
352.4131766454402
 31
0.0
  0
LINE
  5
144D
102
{ACAD_REACTORS
330
141F
102
}
330
1E
100
AcDbEntity
  8
STEMPEL
100
AcDbLine
 10
667.504387811828
 20
303.3174414104261
 30
0.0
 11
662.2603155034016
 21
203.2545808930127
 31
0.0
  0
LINE
  5
144E
330
1E
100
AcDbEntity
  8
HILF
100
AcDbLine
 10
659.4258958660955
 20
302.0292132375714
 30
0.0
 11
654.3607348930611
 21
205.3801843657546
 31
0.0
  0
LINE
  5
144F
102
{ACAD_REACTORS
330
1420
102
}
330
1E
100
AcDbEntity
  8
STEMPEL
100
AcDbLine
 10
433.3823516576154
 20
362.1202834266264
 30
0.0
 11
434.7274307594584
 21
359.2357519840914
 31
0.0
  0
ARC
  5
1450
102
{ACAD_REACTORS
330
1420
102
}
330
1E
100
AcDbEntity
  8
STEMPEL
100
AcDbCircle
 10
413.8823516576153
 20
349.5155319640553
 30
0.0
 40
23.0
100
AcDbArc
 50
0.0
 51
24.99999999999207
  0
LINE
  5
1451
102
{ACAD_REACTORS
330
1420
102
}
330
1E
100
AcDbEntity
  8
STEMPEL
100
AcDbLine
 10
325.0582981548595
 20
362.1202834266263
 30
0.0
 11
434.7064051603704
 21
362.1202834266265
 31
0.0
  0
ARC
  5
1452
102
{ACAD_REACTORS
330
1420
102
}
330
1E
100
AcDbEntity
  8
STEMPEL
100
AcDbCircle
 10
413.8823516576153
 20
341.9377076558981
 30
0.0
 40
23.0
100
AcDbArc
 50
323.2329059888256
 51
0.0
  0
ARC
  5
1453
102
{ACAD_REACTORS
330
1430
102
}
330
1E
100
AcDbEntity
  8
SCHRAFF
100
AcDbCircle
 10
430.6823516576151
 20
316.4296282365029
 30
0.0
 40
3.0
100
AcDbArc
 50
357.0000000000009
 51
89.95180024250457
  0
LINE
  5
1454
330
1E
100
AcDbEntity
  8
BEM
100
AcDbLine
 10
379.8823516576151
 20
268.2222282473872
 30
0.0
 11
377.8823516576151
 21
268.2222282473872
 31
0.0
  0
LINE
  5
1455
330
1E
100
AcDbEntity
  8
HILF
100
AcDbLine
 10
330.7568977213742
 20
324.5501065984172
 30
0.0
 11
429.0078055938558
 21
324.5501065984172
 31
0.0
  0
LINE
  5
1456
102
{ACAD_REACTORS
330
1420
102
}
330
1E
100
AcDbEntity
  8
STEMPEL
100
AcDbLine
 10
436.8823516576154
 20
349.5155319640553
 30
0.0
 11
436.8823516576154
 21
341.9377076558979
 31
0.0
  0
LINE
  5
1457
102
{ACAD_REACTORS
330
146C
330
1431
102
}
330
1E
100
AcDbEntity
  8
STEMPEL
100
AcDbLine
 10
439.1323516576151
 20
345.1484580196797
 30
0.0
 11
441.2536720011744
 21
343.0271376761198
 31
0.0
  0
LINE
  5
1458
102
{ACAD_REACTORS
330
146C
330
1421
102
}
330
1E
100
AcDbEntity
  8
STEMPEL
100
AcDbLine
 10
320.6323516576151
 20
345.1484580196796
 30
0.0
 11
318.5110313140555
 21
343.0271376761198
 31
0.0
  0
ARC
  5
1459
102
{ACAD_REACTORS
330
1431
102
}
330
1E
100
AcDbEntity
  8
SCHRAFF
100
AcDbCircle
 10
439.1477169192976
 20
345.133092757997
 30
0.0
 40
4.0
100
AcDbArc
 50
254.4204680436023
 51
356.8780309859705
  0
ARC
  5
145A
102
{ACAD_REACTORS
330
146C
102
}
330
1E
100
AcDbEntity
  8
STEMPEL
100
AcDbCircle
 10
305.589458438802
 20
353.1202834266264
 30
0.0
 40
5.0
100
AcDbArc
 50
45.0
 51
90.0
  0
ARC
  5
145B
102
{ACAD_REACTORS
330
146C
102
}
330
1E
100
AcDbEntity
  8
STEMPEL
100
AcDbCircle
 10
305.589458438802
 20
353.1202834266264
 30
0.0
 40
2.0
100
AcDbArc
 50
45.0
 51
90.0
  0
ARC
  5
145C
102
{ACAD_REACTORS
330
146C
102
}
330
1E
100
AcDbEntity
  8
STEMPEL
100
AcDbCircle
 10
234.7107787823613
 20
355.1202834266269
 30
0.0
 40
3.0
100
AcDbArc
 50
90.0
 51
135.0
  0
LINE
  5
145D
102
{ACAD_REACTORS
330
146C
102
}
330
1E
100
AcDbEntity
  8
STEMPEL
100
AcDbLine
 10
232.0036720011746
 20
352.4131766454402
 30
0.0
 11
234.7107787823613
 21
355.1202834266269
 31
0.0
  0
LINE
  5
145E
102
{ACAD_REACTORS
330
146C
102
}
330
1E
100
AcDbEntity
  8
STEMPEL
100
AcDbLine
 10
229.8823516576151
 20
354.534496989
 30
0.0
 11
232.0036720011746
 21
352.4131766454402
 31
0.0
  0
LINE
  5
145F
102
{ACAD_REACTORS
330
146C
102
}
330
1E
100
AcDbEntity
  8
STEMPEL
100
AcDbLine
 10
229.8823516576151
 20
354.534496989
 30
0.0
 11
232.5894584388016
 21
357.2416037701864
 31
0.0
  0
LINE
  5
1460
102
{ACAD_REACTORS
330
146C
102
}
330
1E
100
AcDbEntity
  8
STEMPEL
100
AcDbLine
 10
234.7107787823613
 20
355.1202834266269
 30
0.0
 11
305.589458438802
 21
355.1202834266267
 31
0.0
  0
LINE
  5
1461
330
1E
100
AcDbEntity
  8
STEMPEL
100
AcDbLine
 10
232.0036720011746
 20
352.4131766454402
 30
0.0
 11
309.1249923447346
 21
352.4131766454402
 31
0.0
  0
LINE
  5
1462
102
{ACAD_REACTORS
330
146C
102
}
330
1E
100
AcDbEntity
  8
STEMPEL
100
AcDbLine
 10
234.7107787823613
 20
358.1202834266269
 30
0.0
 11
323.2638138563468
 21
358.1202834266264
 31
0.0
  0
LINE
  5
1463
102
{ACAD_REACTORS
330
146C
102
}
330
1E
100
AcDbEntity
  8
STEMPEL
100
AcDbLine
 10
309.1249923447345
 20
356.6558173325593
 30
0.0
 11
320.632351657615
 21
345.1484580196795
 31
0.0
  0
LINE
  5
1464
102
{ACAD_REACTORS
330
146C
330
1421
102
}
330
1E
100
AcDbEntity
  8
STEMPEL
100
AcDbLine
 10
307.003672001175
 20
354.5344969889995
 30
0.0
 11
318.5110313140555
 21
343.0271376761198
 31
0.0
  0
ARC
  5
1465
102
{ACAD_REACTORS
330
1421
102
}
330
1E
100
AcDbEntity
  8
SCHRAFF
100
AcDbCircle
 10
320.6169863959312
 20
345.1330927579957
 30
0.0
 40
4.0
100
AcDbArc
 50
183.1219690139969
 51
285.5795319564142
  0
ARC
  5
1466
102
{ACAD_REACTORS
330
1423
102
}
330
1E
100
AcDbEntity
  8
SCHRAFF
100
AcDbCircle
 10
330.5823516576152
 20
221.4382751083433
 30
0.0
 40
3.0
100
AcDbArc
 50
120.0000000000005
 51
326.9999999999989
  0
LINE
  5
1467
102
{ACAD_REACTORS
330
1420
330
141F
102
}
330
1E
100
AcDbEntity
  8
STEMPEL
100
AcDbLine
 10
329.0823516576151
 20
220.014828258271
 30
0.0
 11
430.6823516576158
 21
316.4296282365029
 31
0.0
  0
LINE
  5
1468
102
{ACAD_REACTORS
330
146C
102
}
330
1E
100
AcDbEntity
  8
STEMPEL
100
AcDbLine
 10
450.6397109704955
 20
356.6558173325593
 30
0.0
 11
439.1323516576152
 21
345.1484580196797
 31
0.0
  0
LINE
  5
1469
102
{ACAD_REACTORS
330
146C
330
1431
102
}
330
1E
100
AcDbEntity
  8
STEMPEL
100
AcDbLine
 10
452.761031314055
 20
354.5344969889995
 30
0.0
 11
441.2536720011744
 21
343.0271376761198
 31
0.0
  0
LINE
  5
146A
102
{ACAD_REACTORS
330
146C
102
}
330
1E
100
AcDbEntity
  8
STEMPEL
100
AcDbLine
 10
436.5008894588832
 20
358.1202834266262
 30
0.0
 11
525.0539245328688
 21
358.1202834266258
 31
0.0
  0
HATCH
  5
146C
330
1E
100
AcDbEntity
  8
SCHRAFF
100
AcDbHatch
 10
0.0
 20
0.0
 30
0.0
210
0.0
220
0.0
230
1.0
  2
_USER
 70
     0
 71
     1
 91
        2
 92
        7
 72
     1
 73
     1
 93
       11
 10
305.589458438802
 20
355.1202834266267
 42
-0.1989123673796123
 10
307.0036720011747
 20
354.5344969889998
 42
0.0
 10
318.5110313140555
 20
343.0271376761199
 42
0.0
 10
320.632351657615
 20
345.1484580196795
 42
0.0
 10
309.1249923447345
 20
356.6558173325593
 42
0.1989123673796465
 10
305.589458438802
 20
358.1202834266265
 42
0.0
 10
234.7107787823613
 20
358.1202834266269
 42
0.1989123673796633
 10
232.5894584388016
 20
357.2416037701864
 42
0.0
 10
229.882351657615
 20
354.5344969889999
 42
0.0
 10
232.0036720011747
 20
352.4131766454403
 42
0.0
 10
234.7107787823613
 20
355.1202834266269
 42
0.0
 97
       11
330
145A
330
1462
330
145C
330
145F
330
145E
330
145D
330
1460
330
145B
330
1464
330
1458
330
1463
 92
        7
 72
     1
 73
     1
 93
       11
 10
454.1752448764281
 20
358.1202834266262
 42
0.1989123673796602
 10
450.6397109704953
 20
356.6558173325591
 42
0.0
 10
439.1323516576152
 20
345.1484580196797
 42
0.0
 10
441.2536720011743
 20
343.0271376761198
 42
0.0
 10
452.761031314055
 20
354.5344969889995
 42
-0.1989123673796445
 10
454.1752448764281
 20
355.1202834266262
 42
0.0
 10
525.0539245328699
 20
355.1202834266257
 42
0.0
 10
527.7610313140554
 20
352.4131766454402
 42
0.0
 10
529.8823516576151
 20
354.5344969889999
 42
0.0
 10
527.1752448764284
 20
357.2416037701864
 42
0.1989123673796101
 10
525.0539245328688
 20
358.1202834266258
 42
0.0
 97
       11
330
146A
330
1449
330
1468
330
1457
330
1469
330
144A
330
144B
330
1447
330
1446
330
1448
330
1445
 75
     0
 76
     0
 52
45.0
 41
2.0
 77
     0
 78
     1
 53
45.0
 43
28.18294621694537
 44
-46.21755719641441
 45
-1.414213562373094
 46
1.414213562373095
 79
     0
 47
0.4061515595070223
 98
        2
 10
283.8945918213811
 20
356.3774004008592
 10
462.3144170325415
 20
357.1897035172883
  0
ARC
  5
151A
330
1E
100
AcDbEntity
  8
STEMPEL
100
AcDbCircle
 10
334.0323516576152
 20
370.8702834266262
 30
0.0
 40
0.750000000000001
100
AcDbArc
 50
269.9999991462263
 51
70.00000000000047
  0
ARC
  5
151B
330
1E
100
AcDbEntity
  8
STEMPEL
100
AcDbCircle
 10
313.7323516576151
 20
370.8702834266262
 30
0.0
 40
0.7500000000000013
100
AcDbArc
 50
109.9999999999995
 51
269.9999991462263
  0
LINE
  5
151C
330
1E
100
AcDbEntity
  8
STEMPEL
100
AcDbLine
 10
315.2220976197708
 20
372.210639942826
 30
0.0
 11
313.4758365501209
 21
371.5750528922156
 31
0.0
  0
LINE
  5
151D
330
1E
100
AcDbEntity
  8
STEMPEL
100
AcDbLine
 10
334.2888667651094
 20
371.5750528922156
 30
0.0
 11
332.5426056954595
 21
372.210639942826
 31
0.0
  0
LINE
  5
151E
330
1E
100
AcDbEntity
  8
STEMPEL
100
AcDbLine
 10
332.5426056954595
 20
379.8093942941708
 30
0.0
 11
331.3823516576151
 21
380.1202834266261
 31
0.0
  0
LINE
  5
151F
330
1E
100
AcDbEntity
  8
STEMPEL
100
AcDbLine
 10
316.3823516576152
 20
380.1202834266261
 30
0.0
 11
315.2220976197707
 21
379.8093942941708
 31
0.0
  0
LINE
  5
1520
330
1E
100
AcDbEntity
  8
STEMPEL
100
AcDbLine
 10
315.2220976197707
 20
372.210639942826
 30
0.0
 11
315.2220976197707
 21
379.8093942941708
 31
0.0
  0
LINE
  5
1521
330
1E
100
AcDbEntity
  8
STEMPEL
100
AcDbLine
 10
334.0323516576152
 20
370.1202834266262
 30
0.0
 11
313.7323516576151
 21
370.1202834266262
 31
0.0
  0
LINE
  5
1522
330
1E
100
AcDbEntity
  8
STEMPEL
100
AcDbLine
 10
334.2888667651094
 20
371.5750528922156
 30
0.0
 11
313.4758365501209
 21
371.5750528922156
 31
0.0
  0
LINE
  5
1523
330
1E
100
AcDbEntity
  8
STEMPEL
100
AcDbLine
 10
319.5522246386929
 20
372.210639942826
 30
0.0
 11
319.5522246386929
 21
379.8093942941708
 31
0.0
  0
LINE
  5
1524
330
1E
100
AcDbEntity
  8
STEMPEL
100
AcDbLine
 10
328.2124786765373
 20
372.210639942826
 30
0.0
 11
328.2124786765373
 21
379.8093942941708
 31
0.0
  0
LINE
  5
1525
330
1E
100
AcDbEntity
  8
STEMPEL
100
AcDbLine
 10
332.5426056954595
 20
372.210639942826
 30
0.0
 11
332.5426056954595
 21
379.8093942941708
 31
0.0
  0
LINE
  5
1526
330
1E
100
AcDbEntity
  8
STEMPEL
100
AcDbLine
 10
316.3823516576152
 20
380.1202834266261
 30
0.0
 11
331.3823516576151
 21
380.1202834266261
 31
0.0
  0
POINT
  5
1527
330
1E
100
AcDbEntity
  8
0
100
AcDbPoint
 10
323.8823516576151
 20
370.1202834266262
 30
0.0
210
0.0000000000000001
220
1.0
230
0.0
  0
ARC
  5
1528
330
1E
100
AcDbEntity
  8
HILF
100
AcDbCircle
 10
317.3871611292319
 20
366.8717972770965
 30
0.0
 40
5.761140599691502
100
AcDbArc
 50
67.92594526326357
 51
112.0740547367364
  0
ARC
  5
1529
330
1E
100
AcDbEntity
  8
HILF
100
AcDbCircle
 10
330.3775421859985
 20
366.8717972770965
 30
0.0
 40
5.761140599691502
100
AcDbArc
 50
67.92594526326357
 51
112.0740547367364
  0
ARC
  5
152A
330
1E
100
AcDbEntity
  8
HILF
100
AcDbCircle
 10
323.8823516576151
 20
350.2218223789649
 30
0.0
 40
22.41111549782308
100
AcDbArc
 50
78.85962783890775
 51
101.1403721610922
  0
ARC
  5
152B
330
1E
100
AcDbEntity
  8
STEMPEL
100
AcDbCircle
 10
330.3775421859985
 20
372.4259777188417
 30
0.0
 40
7.694305707784447
100
AcDbArc
 50
73.65710669401345
 51
106.3428933059865
  0
ARC
  5
152C
330
1E
100
AcDbEntity
  8
STEMPEL
100
AcDbCircle
 10
317.3871611292319
 20
372.4259777188417
 30
0.0
 40
7.694305707784447
100
AcDbArc
 50
73.65710669401345
 51
106.3428933059865
  0
ARC
  5
152D
330
1E
100
AcDbEntity
  8
STEMPEL
100
AcDbCircle
 10
323.8823516576151
 20
349.8093942941713
 30
0.0
 40
30.31088913245485
100
AcDbArc
 50
81.7867892982638
 51
98.21321070173619
  0
ARC
  5
152E
330
1E
100
AcDbEntity
  8
STEMPEL
100
AcDbCircle
 10
278.032351657615
 20
370.8702834266261
 30
0.0
 40
0.750000000000001
100
AcDbArc
 50
269.9999991462263
 51
70.00000000000047
  0
ARC
  5
152F
330
1E
100
AcDbEntity
  8
STEMPEL
100
AcDbCircle
 10
257.732351657615
 20
370.8702834266261
 30
0.0
 40
0.7500000000000013
100
AcDbArc
 50
109.9999999999995
 51
269.9999991462263
  0
LINE
  5
1530
330
1E
100
AcDbEntity
  8
STEMPEL
100
AcDbLine
 10
259.2220976197706
 20
372.2106399428259
 30
0.0
 11
257.4758365501208
 21
371.5750528922155
 31
0.0
  0
LINE
  5
1531
330
1E
100
AcDbEntity
  8
STEMPEL
100
AcDbLine
 10
278.2888667651093
 20
371.5750528922155
 30
0.0
 11
276.5426056954594
 21
372.2106399428259
 31
0.0
  0
LINE
  5
1532
330
1E
100
AcDbEntity
  8
STEMPEL
100
AcDbLine
 10
276.5426056954594
 20
379.8093942941707
 30
0.0
 11
275.382351657615
 21
380.1202834266261
 31
0.0
  0
LINE
  5
1533
330
1E
100
AcDbEntity
  8
STEMPEL
100
AcDbLine
 10
260.382351657615
 20
380.1202834266261
 30
0.0
 11
259.2220976197706
 21
379.8093942941707
 31
0.0
  0
LINE
  5
1534
330
1E
100
AcDbEntity
  8
STEMPEL
100
AcDbLine
 10
259.2220976197706
 20
372.2106399428259
 30
0.0
 11
259.2220976197706
 21
379.8093942941707
 31
0.0
  0
LINE
  5
1535
330
1E
100
AcDbEntity
  8
STEMPEL
100
AcDbLine
 10
278.032351657615
 20
370.1202834266261
 30
0.0
 11
257.732351657615
 21
370.1202834266261
 31
0.0
  0
LINE
  5
1536
330
1E
100
AcDbEntity
  8
STEMPEL
100
AcDbLine
 10
278.2888667651093
 20
371.5750528922155
 30
0.0
 11
257.4758365501208
 21
371.5750528922155
 31
0.0
  0
LINE
  5
1537
330
1E
100
AcDbEntity
  8
STEMPEL
100
AcDbLine
 10
263.5522246386929
 20
372.2106399428259
 30
0.0
 11
263.5522246386929
 21
379.8093942941707
 31
0.0
  0
LINE
  5
1538
330
1E
100
AcDbEntity
  8
STEMPEL
100
AcDbLine
 10
272.2124786765372
 20
372.2106399428259
 30
0.0
 11
272.2124786765372
 21
379.8093942941707
 31
0.0
  0
LINE
  5
1539
330
1E
100
AcDbEntity
  8
STEMPEL
100
AcDbLine
 10
276.5426056954594
 20
372.2106399428259
 30
0.0
 11
276.5426056954594
 21
379.8093942941707
 31
0.0
  0
LINE
  5
153A
330
1E
100
AcDbEntity
  8
STEMPEL
100
AcDbLine
 10
260.382351657615
 20
380.1202834266261
 30
0.0
 11
275.382351657615
 21
380.1202834266261
 31
0.0
  0
POINT
  5
153B
330
1E
100
AcDbEntity
  8
0
100
AcDbPoint
 10
267.882351657615
 20
370.1202834266261
 30
0.0
210
0.0000000000000001
220
1.0
230
0.0
  0
ARC
  5
153C
330
1E
100
AcDbEntity
  8
HILF
100
AcDbCircle
 10
261.3871611292317
 20
366.8717972770965
 30
0.0
 40
5.761140599691502
100
AcDbArc
 50
67.92594526326357
 51
112.0740547367364
  0
ARC
  5
153D
330
1E
100
AcDbEntity
  8
HILF
100
AcDbCircle
 10
274.3775421859983
 20
366.8717972770965
 30
0.0
 40
5.761140599691502
100
AcDbArc
 50
67.92594526326357
 51
112.0740547367364
  0
ARC
  5
153E
330
1E
100
AcDbEntity
  8
HILF
100
AcDbCircle
 10
267.882351657615
 20
350.2218223789648
 30
0.0
 40
22.41111549782308
100
AcDbArc
 50
78.85962783890775
 51
101.1403721610922
  0
ARC
  5
153F
330
1E
100
AcDbEntity
  8
STEMPEL
100
AcDbCircle
 10
274.3775421859983
 20
372.4259777188416
 30
0.0
 40
7.694305707784447
100
AcDbArc
 50
73.65710669401345
 51
106.3428933059865
  0
ARC
  5
1540
330
1E
100
AcDbEntity
  8
STEMPEL
100
AcDbCircle
 10
261.3871611292317
 20
372.4259777188416
 30
0.0
 40
7.694305707784447
100
AcDbArc
 50
73.65710669401345
 51
106.3428933059865
  0
ARC
  5
1541
330
1E
100
AcDbEntity
  8
STEMPEL
100
AcDbCircle
 10
267.882351657615
 20
349.8093942941712
 30
0.0
 40
30.31088913245485
100
AcDbArc
 50
81.7867892982638
 51
98.21321070173619
  0
LINE
  5
1542
330
1E
100
AcDbEntity
  8
STEMPEL
100
AcDbLine
 10
328.8823516576151
 20
382.1202834266265
 30
0.0
 11
327.8823516576151
 21
383.1202834266266
 31
0.0
  0
LINE
  5
1543
330
1E
100
AcDbEntity
  8
HILF
100
AcDbLine
 10
327.8823516576151
 20
383.1202834266266
 30
0.0
 11
327.8823516576152
 21
380.1202834266261
 31
0.0
  0
LINE
  5
1544
330
1E
100
AcDbEntity
  8
STEMPEL
100
AcDbLine
 10
328.8823516576151
 20
382.1202834266265
 30
0.0
 11
328.8823516576151
 21
380.1202834266261
 31
0.0
  0
LINE
  5
1545
330
1E
100
AcDbEntity
  8
STEMPEL
100
AcDbLine
 10
319.8823516576151
 20
383.1202834266266
 30
0.0
 11
318.8823516576151
 21
382.1202834266267
 31
0.0
  0
LINE
  5
1546
330
1E
100
AcDbEntity
  8
HILF
100
AcDbLine
 10
319.8823516576151
 20
383.1202834266266
 30
0.0
 11
319.8823516576152
 21
380.1202834266261
 31
0.0
  0
LINE
  5
1547
330
1E
100
AcDbEntity
  8
STEMPEL
100
AcDbLine
 10
318.8823516576151
 20
382.1202834266267
 30
0.0
 11
318.8823516576151
 21
380.1202834266261
 31
0.0
  0
LINE
  5
1548
330
1E
100
AcDbEntity
  8
STEMPEL
100
AcDbLine
 10
327.8823516576151
 20
383.1202834266266
 30
0.0
 11
319.8823516576151
 21
383.1202834266266
 31
0.0
  0
LINE
  5
1549
330
1E
100
AcDbEntity
  8
STEMPEL
100
AcDbLine
 10
318.8823516576152
 20
382.1202834266268
 30
0.0
 11
328.882351657615
 21
382.1202834266268
 31
0.0
  0
LINE
  5
154A
330
1E
100
AcDbEntity
  8
MITTEL
100
AcDbLine
 10
323.8823516576151
 20
388.1202834266267
 30
0.0
 11
323.8823516576151
 21
358.1202834266266
 31
0.0
  0
LINE
  5
154F
330
1E
100
AcDbEntity
  8
STEMPEL
100
AcDbLine
 10
356.2995374579772
 20
375.0330213944399
 30
0.0
 11
356.4581562067687
 21
384.1202834266261
 31
0.0
  0
LINE
  5
1550
330
1E
100
AcDbEntity
  8
STEMPEL
100
AcDbLine
 10
371.6167749555601
 20
375.0330213944398
 30
0.0
 11
371.4581562067686
 21
384.1202834266261
 31
0.0
  0
ARC
  5
1551
330
1E
100
AcDbEntity
  8
STEMPEL
100
AcDbCircle
 10
404.6512851862607
 20
370.8702834266262
 30
0.0
 40
0.750000000000001
100
AcDbArc
 50
269.9999991462263
 51
70.00000000000047
  0
ARC
  5
1552
330
1E
100
AcDbEntity
  8
STEMPEL
100
AcDbCircle
 10
384.3512851862609
 20
370.8702834266262
 30
0.0
 40
0.7500000000000013
100
AcDbArc
 50
109.9999999999995
 51
269.9999991462263
  0
LINE
  5
1553
330
1E
100
AcDbEntity
  8
STEMPEL
100
AcDbLine
 10
385.8410311484165
 20
372.210639942826
 30
0.0
 11
384.0947700787666
 21
371.5750528922157
 31
0.0
  0
LINE
  5
1554
330
1E
100
AcDbEntity
  8
STEMPEL
100
AcDbLine
 10
404.9078002937551
 20
371.5750528922157
 30
0.0
 11
403.1615392241052
 21
372.210639942826
 31
0.0
  0
LINE
  5
1555
330
1E
100
AcDbEntity
  8
STEMPEL
100
AcDbLine
 10
404.6512851862607
 20
370.1202834266262
 30
0.0
 11
384.3512851862609
 21
370.1202834266262
 31
0.0
  0
LINE
  5
1556
330
1E
100
AcDbEntity
  8
STEMPEL
100
AcDbLine
 10
404.9078002937551
 20
371.5750528922157
 30
0.0
 11
384.0947700787666
 21
371.5750528922157
 31
0.0
  0
POINT
  5
1557
330
1E
100
AcDbEntity
  8
0
100
AcDbPoint
 10
394.5012851862608
 20
370.1202834266262
 30
0.0
210
0.0000000000000001
220
1.0
230
0.0
  0
ARC
  5
1558
330
1E
100
AcDbEntity
  8
HILF
100
AcDbCircle
 10
388.0060946578775
 20
366.8717972770966
 30
0.0
 40
5.761140599691502
100
AcDbArc
 50
67.92594526325932
 51
112.0740547367407
  0
ARC
  5
1559
330
1E
100
AcDbEntity
  8
HILF
100
AcDbCircle
 10
400.9964757146441
 20
366.8717972770966
 30
0.0
 40
5.761140599691502
100
AcDbArc
 50
67.92594526325932
 51
112.0740547367407
  0
ARC
  5
155A
330
1E
100
AcDbEntity
  8
HILF
100
AcDbCircle
 10
394.5012851862608
 20
350.2218223789649
 30
0.0
 40
22.41111549782308
100
AcDbArc
 50
78.85962783890455
 51
101.1403721610954
  0
ARC
  5
155B
330
1E
100
AcDbEntity
  8
STEMPEL
100
AcDbCircle
 10
376.6160134313421
 20
375.1202834266261
 30
0.0
 40
5.0
100
AcDbArc
 50
181.0000000000017
 51
270.0
  0
ARC
  5
155C
330
1E
100
AcDbEntity
  8
STEMPEL
100
AcDbCircle
 10
351.3002989821953
 20
375.1202834266263
 30
0.0
 40
5.0
100
AcDbArc
 50
270.0
 51
358.9999999999982
  0
LINE
  5
155D
330
1E
100
AcDbEntity
  8
STEMPEL
100
AcDbLine
 10
356.4581562067687
 20
384.1202834266261
 30
0.0
 11
371.4581562067686
 21
384.1202834266261
 31
0.0
  0
LINE
  5
155E
330
1E
100
AcDbEntity
  8
STEMPEL
100
AcDbLine
 10
403.1615392241052
 20
379.8093942941708
 30
0.0
 11
402.0012851862608
 21
380.1202834266262
 31
0.0
  0
LINE
  5
155F
330
1E
100
AcDbEntity
  8
STEMPEL
100
AcDbLine
 10
387.0012851862609
 20
380.1202834266262
 30
0.0
 11
385.8410311484164
 21
379.8093942941708
 31
0.0
  0
LINE
  5
1560
330
1E
100
AcDbEntity
  8
STEMPEL
100
AcDbLine
 10
385.8410311484164
 20
372.210639942826
 30
0.0
 11
385.8410311484164
 21
379.8093942941708
 31
0.0
  0
LINE
  5
1561
330
1E
100
AcDbEntity
  8
STEMPEL
100
AcDbLine
 10
390.1711581673386
 20
372.210639942826
 30
0.0
 11
390.1711581673386
 21
379.8093942941708
 31
0.0
  0
LINE
  5
1562
330
1E
100
AcDbEntity
  8
STEMPEL
100
AcDbLine
 10
398.831412205183
 20
372.210639942826
 30
0.0
 11
398.831412205183
 21
379.8093942941708
 31
0.0
  0
LINE
  5
1563
330
1E
100
AcDbEntity
  8
STEMPEL
100
AcDbLine
 10
403.1615392241052
 20
372.210639942826
 30
0.0
 11
403.1615392241052
 21
379.8093942941708
 31
0.0
  0
LINE
  5
1564
330
1E
100
AcDbEntity
  8
STEMPEL
100
AcDbLine
 10
387.0012851862609
 20
380.1202834266262
 30
0.0
 11
402.0012851862608
 21
380.1202834266262
 31
0.0
  0
ARC
  5
1565
330
1E
100
AcDbEntity
  8
STEMPEL
100
AcDbCircle
 10
400.9964757146441
 20
372.4259777188418
 30
0.0
 40
7.694305707784447
100
AcDbArc
 50
73.65710669401345
 51
106.3428933059825
  0
ARC
  5
1566
330
1E
100
AcDbEntity
  8
STEMPEL
100
AcDbCircle
 10
388.0060946578776
 20
372.4259777188418
 30
0.0
 40
7.694305707784447
100
AcDbArc
 50
73.65710669401345
 51
106.3428933059825
  0
ARC
  5
1567
330
1E
100
AcDbEntity
  8
STEMPEL
100
AcDbCircle
 10
394.5012851862608
 20
349.8093942941713
 30
0.0
 40
30.31088913245485
100
AcDbArc
 50
81.78678929826059
 51
98.2132107017394
  0
LINE
  5
1568
330
1E
100
AcDbEntity
  8
STEMPEL
100
AcDbLine
 10
399.5012851862608
 20
382.1202834266265
 30
0.0
 11
398.5012851862608
 21
383.1202834266266
 31
0.0
  0
LINE
  5
1569
330
1E
100
AcDbEntity
  8
STEMPEL
100
AcDbLine
 10
399.5012851862608
 20
382.1202834266265
 30
0.0
 11
399.5012851862608
 21
380.1202834266263
 31
0.0
  0
LINE
  5
156A
330
1E
100
AcDbEntity
  8
HILF
100
AcDbLine
 10
398.5012851862608
 20
383.1202834266266
 30
0.0
 11
398.5012851862608
 21
380.1202834266263
 31
0.0
  0
LINE
  5
156D
330
1E
100
AcDbEntity
  8
STEMPEL
100
AcDbLine
 10
390.5012851862608
 20
383.1202834266266
 30
0.0
 11
389.5012851862608
 21
382.1202834266267
 31
0.0
  0
LINE
  5
156E
330
1E
100
AcDbEntity
  8
HILF
100
AcDbLine
 10
390.5012851862608
 20
383.1202834266266
 30
0.0
 11
390.5012851862608
 21
380.1202834266262
 31
0.0
  0
LINE
  5
156F
330
1E
100
AcDbEntity
  8
STEMPEL
100
AcDbLine
 10
389.5012851862608
 20
382.1202834266267
 30
0.0
 11
389.5012851862609
 21
380.1202834266263
 31
0.0
  0
LINE
  5
1572
330
1E
100
AcDbEntity
  8
STEMPEL
100
AcDbLine
 10
389.5012851862609
 20
382.1202834266268
 30
0.0
 11
399.5012851862607
 21
382.1202834266268
 31
0.0
  0
LINE
  5
1573
330
1E
100
AcDbEntity
  8
STEMPEL
100
AcDbLine
 10
398.5012851862608
 20
383.1202834266266
 30
0.0
 11
390.5012851862608
 21
383.1202834266266
 31
0.0
  0
LINE
  5
1574
330
1E
100
AcDbEntity
  8
MITTEL
100
AcDbLine
 10
394.5012851862608
 20
388.1202834266267
 30
0.0
 11
394.5012851862608
 21
358.1202834266266
 31
0.0
  0
LINE
  5
1579
330
1E
100
AcDbEntity
  8
MITTEL
100
AcDbLine
 10
483.3568592988791
 20
388.1202834266268
 30
0.0
 11
483.3568592988791
 21
358.1202834266268
 31
0.0
  0
ARC
  5
157A
330
1E
100
AcDbEntity
  8
STEMPEL
100
AcDbCircle
 10
473.2068592988792
 20
370.8702834266263
 30
0.0
 40
0.7500000000000013
100
AcDbArc
 50
109.9999999999995
 51
269.9999991462263
  0
LINE
  5
157B
330
1E
100
AcDbEntity
  8
STEMPEL
100
AcDbLine
 10
474.6966052610348
 20
372.2106399428262
 30
0.0
 11
472.9503441913849
 21
371.5750528922157
 31
0.0
  0
LINE
  5
157C
330
1E
100
AcDbEntity
  8
STEMPEL
100
AcDbLine
 10
493.0070192402879
 20
371.8503436592043
 30
0.0
 11
492.0171133367236
 21
372.2106399428262
 31
0.0
  0
LINE
  5
157D
330
1E
100
AcDbEntity
  8
STEMPEL
100
AcDbLine
 10
492.0171133367236
 20
379.8093942941709
 30
0.0
 11
490.8568592988792
 21
380.1202834266263
 31
0.0
  0
LINE
  5
157E
330
1E
100
AcDbEntity
  8
STEMPEL
100
AcDbLine
 10
475.8568592988791
 20
380.1202834266263
 30
0.0
 11
474.6966052610348
 21
379.8093942941709
 31
0.0
  0
LINE
  5
157F
330
1E
100
AcDbEntity
  8
STEMPEL
100
AcDbLine
 10
474.6966052610348
 20
372.2106399428262
 30
0.0
 11
474.6966052610348
 21
379.8093942941709
 31
0.0
  0
LINE
  5
1580
330
1E
100
AcDbEntity
  8
STEMPEL
100
AcDbLine
 10
492.7503050430835
 20
371.5750528922157
 30
0.0
 11
472.9503441913849
 21
371.5750528922157
 31
0.0
  0
LINE
  5
1581
330
1E
100
AcDbEntity
  8
STEMPEL
100
AcDbLine
 10
479.0267322799569
 20
372.2106399428262
 30
0.0
 11
479.0267322799569
 21
379.8093942941709
 31
0.0
  0
LINE
  5
1582
330
1E
100
AcDbEntity
  8
STEMPEL
100
AcDbLine
 10
487.6869863178013
 20
372.2106399428262
 30
0.0
 11
487.6869863178013
 21
379.8093942941709
 31
0.0
  0
LINE
  5
1583
330
1E
100
AcDbEntity
  8
STEMPEL
100
AcDbLine
 10
492.0171133367236
 20
372.2106399428262
 30
0.0
 11
492.0171133367236
 21
379.8093942941709
 31
0.0
  0
LINE
  5
1584
330
1E
100
AcDbEntity
  8
STEMPEL
100
AcDbLine
 10
475.8568592988791
 20
380.1202834266263
 30
0.0
 11
490.8568592988792
 21
380.1202834266263
 31
0.0
  0
POINT
  5
1585
330
1E
100
AcDbEntity
  8
0
100
AcDbPoint
 10
483.3568592988791
 20
370.1202834266263
 30
0.0
210
0.0000000000000001
220
1.0
230
0.0
  0
ARC
  5
1586
330
1E
100
AcDbEntity
  8
HILF
100
AcDbCircle
 10
476.8616687704958
 20
366.8717972770967
 30
0.0
 40
5.761140599691502
100
AcDbArc
 50
67.92594526325932
 51
112.0740547367407
  0
ARC
  5
1587
330
1E
100
AcDbEntity
  8
HILF
100
AcDbCircle
 10
489.8520498272624
 20
366.8717972770967
 30
0.0
 40
5.761140599691502
100
AcDbArc
 50
67.92594526325932
 51
112.0740547367407
  0
ARC
  5
1588
330
1E
100
AcDbEntity
  8
HILF
100
AcDbCircle
 10
483.3568592988791
 20
350.221822378965
 30
0.0
 40
22.41111549782308
100
AcDbArc
 50
78.85962783890455
 51
101.1403721610954
  0
ARC
  5
1589
330
1E
100
AcDbEntity
  8
STEMPEL
100
AcDbCircle
 10
489.8520498272624
 20
372.4259777188418
 30
0.0
 40
7.694305707784447
100
AcDbArc
 50
73.65710669401345
 51
106.3428933059825
  0
ARC
  5
158A
330
1E
100
AcDbEntity
  8
STEMPEL
100
AcDbCircle
 10
476.8616687704959
 20
372.4259777188418
 30
0.0
 40
7.694305707784447
100
AcDbArc
 50
73.65710669401345
 51
106.3428933059825
  0
ARC
  5
158B
330
1E
100
AcDbEntity
  8
STEMPEL
100
AcDbCircle
 10
483.3568592988791
 20
349.8093942941715
 30
0.0
 40
30.31088913245485
100
AcDbArc
 50
81.78678929826059
 51
98.2132107017394
  0
LINE
  5
158C
330
1E
100
AcDbEntity
  8
STEMPEL
100
AcDbLine
 10
487.3568592988791
 20
383.1202834266268
 30
0.0
 11
488.3568592988791
 21
382.1202834266268
 31
0.0
  0
LINE
  5
158D
330
1E
100
AcDbEntity
  8
HILF
100
AcDbLine
 10
487.3568592988791
 20
383.1202834266268
 30
0.0
 11
487.3568592988791
 21
380.1202834266263
 31
0.0
  0
LINE
  5
158E
330
1E
100
AcDbEntity
  8
STEMPEL
100
AcDbLine
 10
488.3568592988791
 20
382.1202834266268
 30
0.0
 11
488.3568592988792
 21
380.1202834266263
 31
0.0
  0
LINE
  5
158F
330
1E
100
AcDbEntity
  8
STEMPEL
100
AcDbLine
 10
478.3568592988792
 20
382.1202834266268
 30
0.0
 11
479.3568592988791
 21
383.1202834266268
 31
0.0
  0
LINE
  5
1590
330
1E
100
AcDbEntity
  8
STEMPEL
100
AcDbLine
 10
478.3568592988792
 20
382.1202834266268
 30
0.0
 11
478.3568592988793
 21
380.1202834266263
 31
0.0
  0
LINE
  5
1591
330
1E
100
AcDbEntity
  8
HILF
100
AcDbLine
 10
479.3568592988791
 20
383.1202834266268
 30
0.0
 11
479.3568592988792
 21
380.1202834266264
 31
0.0
  0
LINE
  5
1592
330
1E
100
AcDbEntity
  8
STEMPEL
100
AcDbLine
 10
479.3568592988791
 20
383.1202834266268
 30
0.0
 11
487.3568592988791
 21
383.1202834266268
 31
0.0
  0
LINE
  5
1593
330
1E
100
AcDbEntity
  8
STEMPEL
100
AcDbLine
 10
488.3568592988791
 20
382.1202834266269
 30
0.0
 11
478.3568592988792
 21
382.1202834266269
 31
0.0
  0
LINE
  5
1621
330
1E
100
AcDbEntity
  8
STEMPEL
100
AcDbLine
 10
551.2547491276316
 20
182.6182249076289
 30
0.0
 11
552.6007120476568
 21
208.3007273612424
 31
0.0
  0
DIMENSION
  5
1622
330
1E
100
AcDbEntity
  8
BEM
100
AcDbDimension
  2
*D6
 10
732.8294921924484
 20
182.6182249076288
 30
0.0
 11
726.3294921924484
 21
270.369254167128
 31
0.0
 70
    32
  1
175
 71
     5
 42
175.5020585189979
  3
Standard
100
AcDbAlignedDimension
 13
525.0539245328773
 23
358.1202834266268
 33
0.0
 14
551.2547491276316
 24
182.6182249076289
 34
0.0
 50
90.0
100
AcDbRotatedDimension
1001
ACAD
1000
DSTYLE
1002
{
1070
    40
1040
2.0
1070
    41
1040
3.5
1070
    42
1040
1.0
1070
    43
1040
7.0
1070
    44
1040
1.0
1070
    45
1040
0.1
1070
    73
1070
     0
1070
    74
1070
     0
1070
    77
1070
     1
1070
    78
1070
     8
1070
    79
1070
     2
1070
   140
1040
3.5
1070
   141
1040
1.5
1070
   146
1040
0.5142857142857144
1070
   147
1040
1.5
1070
   172
1070
     1
1070
   178
1070
     1
1070
   179
1070
     2
1070
   271
1070
     2
1070
   272
1070
     2
1070
   284
1070
     8
1070
   285
1070
     8
1070
   286
1070
     8
1002
}
  0
LINE
  5
1623
330
1E
100
AcDbEntity
  8
STEMPEL
100
AcDbLine
 10
325.3823516576237
 20
215.0016008424298
 30
0.0
 11
552.3285650751934
 21
203.107853780519
 31
0.0
  0
LINE
  5
1624
330
1E
100
AcDbEntity
  8
STEMPEL
100
AcDbLine
 10
306.1552008030079
 20
182.6182249076289
 30
0.0
 11
551.2547491276316
 21
182.6182249076289
 31
0.0
  0
HATCH
  5
1625
330
1E
100
AcDbEntity
  8
SCHRAFF
100
AcDbHatch
 10
0.0
 20
0.0
 30
0.0
210
0.0
220
0.0
230
1.0
  2
HONEY
 70
     0
 71
     0
 91
        2
 92
        7
 72
     1
 73
     1
 93
       10
 10
558.1901921744028
 20
314.9543616730312
 42
0.0
 10
560.3737027228805
 20
356.618224907629
 42
0.0
 10
537.8823516576235
 20
356.6182249076289
 42
0.0
 10
537.8823516576237
 20
349.6182249076292
 42
0.0
 10
517.8823516576237
 20
349.6182249076289
 42
0.0
 10
517.8823516576237
 20
351.6182249076299
 42
0.0
 10
455.5894584388103
 20
351.6182249076298
 42
0.0
 10
444.279510893446
 20
340.3082773622664
 42
0.0
 10
437.5368259188009
 20
326.8919242240977
 42
0.5411651318791528
 10
440.901506178591
 20
321.101201241098
 42
0.0
 97
        0
 92
        7
 72
     0
 73
     1
 93
       12
 10
306.1552008030079
 20
182.6182249076289
 10
551.2547491276316
 20
182.6182249076289
 10
552.3285650751934
 20
203.107853780519
 10
325.3823516576236
 20
215.0016008424298
 10
325.3823516576235
 20
261.0647287583339
 10
315.3823516576238
 20
261.5888065511644
 10
315.3823516576236
 20
281.616253471123
 10
325.3823516576236
 20
281.0921756782925
 10
325.3823516576237
 20
320.6152642863505
 10
315.4851924218013
 20
340.3082773622668
 10
304.175244876437
 20
351.6182249076301
 10
289.8823516576238
 20
351.6182249076301
 97
        0
 75
     0
 76
     1
 52
0.0
 41
40.0
 77
     0
 78
     3
 53
0.0
 43
28.1829462169539
 44
-46.21755719641448
 45
7.5
 46
4.330127
 79
     2
 49
5.0
 49
-10.0
 53
120.0
 43
28.1829462169539
 44
-46.21755719641448
 45
-7.499999983612898
 46
4.330127028383291
 79
     2
 49
4.999999999999996
 49
-9.999999999999992
 53
60.0
 43
28.1829462169539
 44
-46.21755719641448
 45
0.0000000163871017
 46
8.66025402838329
 79
     2
 49
-10.0
 49
5.0
 47
0.434718286614236
 98
        2
 10
472.6253270044717
 20
333.0685440773831
 10
304.7330526250921
 20
298.2910815886582
  0
LINE
  5
1626
330
1E
100
AcDbEntity
  8
STEMPEL
100
AcDbLine
 10
440.9015061785912
 20
321.101201241098
 30
0.0
 11
558.1901921744028
 21
314.9543616730312
 31
0.0
  0
LINE
  5
1627
330
1E
100
AcDbEntity
  8
STEMPEL
100
AcDbLine
 10
557.9180452019395
 20
309.7614880923072
 30
0.0
 11
560.3737027228803
 21
356.6182249076289
 31
0.0
  0
LINE
  5
1628
330
1E
100
AcDbEntity
  8
STEMPEL
100
AcDbLine
 10
537.8823516576235
 20
356.6182249076289
 30
0.0
 11
537.8823516576237
 21
349.6182249076292
 31
0.0
  0
LINE
  5
1629
330
1E
100
AcDbEntity
  8
STEMPEL
100
AcDbLine
 10
537.8823516576235
 20
356.6182249076289
 30
0.0
 11
560.3737027228803
 21
356.6182249076289
 31
0.0
  0
LINE
  5
162A
330
1E
100
AcDbEntity
  8
STEMPEL
100
AcDbLine
 10
527.7610313140639
 20
352.4131766454402
 30
0.0
 11
450.6397109705044
 21
352.4131766454402
 31
0.0
  0
LINE
  5
162B
330
1E
100
AcDbEntity
  8
STEMPEL
100
AcDbLine
 10
517.8823516576237
 20
349.6182249076289
 30
0.0
 11
517.8823516576237
 21
351.618224907629
 31
0.0
  0
LINE
  5
162C
330
1E
100
AcDbEntity
  8
STEMPEL
100
AcDbLine
 10
517.8823516576237
 20
349.6182249076289
 30
0.0
 11
537.8823516576237
 21
349.6182249076292
 31
0.0
  0
LINE
  5
162D
330
1E
100
AcDbEntity
  8
STEMPEL
100
AcDbLine
 10
449.8447592326937
 20
351.6182249076298
 30
0.0
 11
517.8823516576237
 21
351.6182249076298
 31
0.0
  0
LINE
  5
162E
330
1E
100
AcDbEntity
  8
STEMPEL
100
AcDbLine
 10
444.279510893446
 20
340.3082773622665
 30
0.0
 11
437.5368259188009
 21
326.8919242240977
 31
0.0
  0
LINE
  5
162F
330
1E
100
AcDbEntity
  8
STEMPEL
100
AcDbLine
 10
455.5894584388098
 20
351.6182249076294
 30
0.0
 11
444.279510893446
 21
340.3082773622665
 31
0.0
  0
LINE
  5
1630
330
1E
100
AcDbEntity
  8
STEMPEL
100
AcDbLine
 10
438.0274330805183
 20
340.3082773622671
 30
0.0
 11
444.2795108934464
 21
340.3082773622671
 31
0.0
  0
ARC
  5
1631
330
1E
100
AcDbEntity
  8
STEMPEL
100
AcDbCircle
 10
441.1108500035629
 20
325.0957193801163
 30
0.0
 40
4.0
100
AcDbArc
 50
153.3171730867137
 51
267.0000000000009
  0
LINE
  5
1632
330
1E
100
AcDbEntity
  8
STEMPEL
100
AcDbLine
 10
315.3823516576236
 20
281.616253471123
 30
0.0
 11
315.3823516576238
 21
261.5888065511644
 31
0.0
  0
LINE
  5
1633
330
1E
100
AcDbEntity
  8
STEMPEL
100
AcDbLine
 10
325.3823516576235
 20
261.064728758334
 30
0.0
 11
325.3823516576236
 21
215.0016008424299
 31
0.0
  0
LINE
  5
1634
330
1E
100
AcDbEntity
  8
STEMPEL
100
AcDbLine
 10
325.3823516576236
 20
320.6152642863507
 30
0.0
 11
325.3823516576236
 21
281.0921756782926
 31
0.0
  0
LINE
  5
1635
330
1E
100
AcDbEntity
  8
STEMPEL
100
AcDbLine
 10
315.3823516576236
 20
281.616253471123
 30
0.0
 11
329.0823516576235
 21
280.8982668949452
 31
0.0
  0
LINE
  5
1636
330
1E
100
AcDbEntity
  8
STEMPEL
100
AcDbLine
 10
315.3823516576238
 20
261.5888065511644
 30
0.0
 11
329.0823516576236
 21
260.8708199749867
 31
0.0
  0
DIMENSION
  5
1637
330
1E
100
AcDbEntity
  8
BEM
100
AcDbDimension
  2
*D7
 10
664.8823516576233
 20
149.1602418142842
 30
0.0
 11
522.3823516576234
 21
154.6602418142842
 31
0.0
 70
    32
 71
     5
 42
284.9999999999997
  3
Standard
100
AcDbAlignedDimension
 13
379.8823516576236
 23
165.8633068179439
 33
0.0
 14
664.8823516576233
 24
253.2860111517193
 34
0.0
100
AcDbRotatedDimension
1001
ACAD
1000
DSTYLE
1002
{
1070
    40
1040
2.0
1070
    41
1040
3.5
1070
    42
1040
1.0
1070
    43
1040
7.0
1070
    44
1040
1.0
1070
    47
1040
2.0
1070
    48
1040
2.0
1070
    73
1070
     0
1070
    74
1070
     0
1070
    77
1070
     1
1070
    78
1070
     8
1070
    79
1070
     2
1070
   140
1040
3.5
1070
   141
1040
1.5
1070
   146
1040
0.5142857142857144
1070
   147
1040
1.0
1070
   172
1070
     1
1070
   178
1070
     1
1070
   179
1070
     1
1070
   271
1070
     1
1070
   272
1070
     1
1070
   279
1070
     0
1002
}
  0
LINE
  5
1638
330
1E
100
AcDbEntity
  8
STEMPEL
100
AcDbLine
 10
289.8823516576238
 20
351.6182249076298
 30
0.0
 11
306.1552008030079
 21
182.6182249076289
 31
0.0
  0
DIMENSION
  5
1639
330
1E
100
AcDbEntity
  8
BEM
100
AcDbDimension
  2
*D8
 10
551.2547491276316
 20
165.8633068179439
 30
0.0
 11
428.7049749653196
 21
172.3633068179439
 31
0.0
 70
    32
  1
245
 71
     5
 42
245.0995483246237
  3
Standard
100
AcDbAlignedDimension
 13
306.1552008030079
 23
182.6182249076289
 33
0.0
 14
551.2547491276316
 24
182.6182249076289
 34
0.0
100
AcDbRotatedDimension
1001
ACAD
1000
DSTYLE
1002
{
1070
    40
1040
2.0
1070
    41
1040
3.5
1070
    42
1040
1.0
1070
    43
1040
7.0
1070
    44
1040
1.0
1070
    45
1040
0.1
1070
    73
1070
     0
1070
    74
1070
     0
1070
    77
1070
     1
1070
    78
1070
     8
1070
    79
1070
     2
1070
   140
1040
3.5
1070
   141
1040
1.5
1070
   146
1040
0.5142857142857144
1070
   147
1040
1.5
1070
   172
1070
     1
1070
   178
1070
     1
1070
   179
1070
     2
1070
   271
1070
     2
1070
   272
1070
     2
1070
   284
1070
     8
1070
   285
1070
     8
1070
   286
1070
     8
1002
}
  0
LINE
  5
163A
330
1E
100
AcDbEntity
  8
BEM
100
AcDbLine
 10
379.8823516576236
 20
266.2222282473871
 30
0.0
 11
379.8823516576236
 21
167.8633068179439
 31
0.0
  0
LINE
  5
163B
330
1E
100
AcDbEntity
  8
TEXT
 62
     2
100
AcDbLine
 10
135.9084171362112
 20
171.2795406774225
 30
0.0
 11
244.7048015770964
 21
171.2795406774223
 31
0.0
  0
TEXT
  5
163C
330
1E
100
AcDbEntity
  8
TEXT
 62
     1
100
AcDbText
 10
138.3134430641981
 20
174.5781082739676
 30
0.0
 40
7.0
  1
Wärmedämmung DN100
 41
0.8
  7
GREEKS
100
AcDbText
  0
TEXT
  5
163D
330
1E
100
AcDbEntity
  8
TEXT
 62
     1
100
AcDbText
 10
138.3134430641981
 20
161.4334104349036
 30
0.0
 40
7.0
  1
EDV-Art.Nr. 19843.100X
 41
0.8
  7
GREEKS
100
AcDbText
  0
LINE
  5
163E
330
1E
100
AcDbEntity
  8
TEXT
 62
     2
100
AcDbLine
 10
310.4190204757364
 20
210.1657175581463
 30
0.0
 11
244.7048015770964
 21
171.2795406774223
 31
0.0
  0
TEXT
  5
163F
330
1E
100
AcDbEntity
  8
TEXT
 62
     1
100
AcDbText
 10
695.9383551078147
 20
149.5899840856317
 30
0.0
 40
7.0
  1
EDV-Art.Nr. 21987.100X
 41
0.8
100
AcDbText
  0
TEXT
  5
1640
330
1E
100
AcDbEntity
  8
TEXT
 62
     1
100
AcDbText
 10
695.5823961049779
 20
164.3710241607784
 30
0.0
 40
7.0
  1
Unterteil DN100
 41
0.8
100
AcDbText
  0
LINE
  5
1641
330
1E
100
AcDbEntity
  8
TEXT
 62
     2
100
AcDbLine
 10
693.5236959702258
 20
160.2749022219679
 30
0.0
 11
799.4136075437832
 21
160.2749022219679
 31
0.0
  0
LINE
  5
1642
330
1E
100
AcDbEntity
  8
TEXT
 62
     2
100
AcDbLine
 10
693.5236959702258
 20
160.2749022219679
 30
0.0
 11
642.3472323505836
 21
203.6286962365106
 31
0.0
  0
LINE
  5
168B
330
1E
100
AcDbEntity
  8
STEMPEL
100
AcDbLine
 10
325.3823516576236
 20
320.6152642863506
 30
0.0
 11
329.0480229022356
 21
320.6152642863506
 31
0.0
  0
LINE
  5
168C
330
1E
100
AcDbEntity
  8
STEMPEL
100
AcDbLine
 10
315.4851924218009
 20
340.3082773622674
 30
0.0
 11
325.3823516576236
 21
320.6152642863506
 31
0.0
  0
LINE
  5
168D
330
1E
100
AcDbEntity
  8
STEMPEL
100
AcDbLine
 10
304.1752448764372
 20
351.61822490763
 30
0.0
 11
315.4851924218011
 21
340.3082773622671
 31
0.0
  0
LINE
  5
168E
330
1E
100
AcDbEntity
  8
STEMPEL
100
AcDbLine
 10
315.4851924218009
 20
340.3082773622674
 30
0.0
 11
321.7372702347288
 21
340.3082773622673
 31
0.0
  0
LINE
  5
168F
330
1E
100
AcDbEntity
  8
STEMPEL
100
AcDbLine
 10
289.8823516576238
 20
351.6182249076298
 30
0.0
 11
309.9199440825449
 21
351.6182249076299
 31
0.0
  0
LINE
  5
16C8
330
1E
100
AcDbEntity
  8
STEMPEL
100
AcDbLine
 10
229.8823516576149
 20
358.1202834266268
 30
0.0
 11
323.2638138563469
 21
358.1202834266268
 31
0.0
  0
LINE
  5
16C9
330
1E
100
AcDbEntity
  8
STEMPEL
100
AcDbLine
 10
229.8823516576151
 20
358.1202834266272
 30
0.0
 11
323.263813856347
 21
358.1202834266269
 31
0.0
  0
LINE
  5
16E2
330
1E
100
AcDbEntity
  8
STEMPEL
100
AcDbLine
 10
436.5008894588831
 20
358.1202834266266
 30
0.0
 11
529.8823516576151
 21
358.1202834266262
 31
0.0
  0
LINE
  5
16E3
330
1E
100
AcDbEntity
  8
STEMPEL
100
AcDbLine
 10
436.500889458883
 20
358.1202834266268
 30
0.0
 11
529.882351657615
 21
358.1202834266268
 31
0.0
  0
LINE
  5
170C
330
1E
100
AcDbEntity
  8
STEMPEL
100
AcDbLine
 10
529.882351657615
 20
358.1202834266268
 30
0.0
 11
529.882351657615
 21
361.1202834266268
 31
0.0
  0
LINE
  5
170D
330
1E
100
AcDbEntity
  8
STEMPEL
100
AcDbLine
 10
529.8823516576151
 20
358.1202834266263
 30
0.0
 11
529.8823516576151
 21
361.1202834266268
 31
0.0
  0
HATCH
  5
170E
330
1E
100
AcDbEntity
  8
SCHRAFF
100
AcDbHatch
 10
0.0
 20
0.0
 30
0.0
210
0.0
220
0.0
230
1.0
  2
NET
 70
     0
 71
     0
 91
        4
 92
        7
 72
     0
 73
     1
 93
        4
 10
529.882351657615
 20
361.1202834266268
 10
483.356859298879
 20
361.1202834266268
 10
483.3568592988791
 20
358.1202834266268
 10
529.882351657615
 20
358.1202834266267
 97
        0
 92
        7
 72
     0
 73
     1
 93
        4
 10
483.3568592988791
 20
361.1202834266269
 10
459.8823516576151
 20
361.1202834266269
 10
459.882351657615
 20
358.1202834266268
 10
483.356859298879
 20
358.1202834266268
 97
        0
 92
        7
 72
     0
 73
     1
 93
        4
 10
299.882351657615
 20
361.1202834266268
 10
275.8823516576153
 20
361.1202834266267
 10
275.8823516576153
 20
358.1202834266268
 10
299.882351657615
 20
358.1202834266268
 97
        0
 92
        7
 72
     0
 73
     1
 93
        4
 10
259.882351657615
 20
361.1202834266268
 10
229.8823516576151
 20
361.1202834266268
 10
229.8823516576151
 20
358.1202834266267
 10
259.882351657615
 20
358.1202834266267
 97
        0
 75
     0
 76
     1
 52
45.0
 41
15.0
 77
     0
 78
     2
 53
45.0
 43
131.5128630210435
 44
-121.2210005936606
 45
-1.325825214724776
 46
1.325825214724776
 79
     0
 53
135.0
 43
131.5128630210435
 44
-121.2210005936606
 45
-1.325825214724776
 46
-1.325825214724776
 79
     0
 47
0.3213995559881435
 98
        4
 10
509.9004779278057
 20
359.5240944986085
 10
466.496814628009
 20
360.1668934889435
 10
283.2369062605959
 20
360.4882929841106
 10
251.729062236826
 20
359.2026950034415
  0
LINE
  5
170F
330
1E
100
AcDbEntity
  8
STEMPEL
100
AcDbLine
 10
272.8823516576151
 20
361.1202834266268
 30
0.0
 11
324.5919904967046
 21
361.1202834266268
 31
0.0
  0
LINE
  5
1710
330
1E
100
AcDbEntity
  8
STEMPEL
100
AcDbLine
 10
488.3568592988793
 20
364.1202834266265
 30
0.0
 11
488.3568592988793
 21
361.1202834266268
 31
0.0
  0
LINE
  5
1711
330
1E
100
AcDbEntity
  8
HILF
100
AcDbLine
 10
487.3568592988793
 20
364.1202834266265
 30
0.0
 11
487.3568592988792
 21
361.1202834266268
 31
0.0
  0
LINE
  5
1712
330
1E
100
AcDbEntity
  8
STEMPEL
100
AcDbLine
 10
478.3568592988794
 20
364.1202834266265
 30
0.0
 11
478.3568592988792
 21
361.1202834266268
 31
0.0
  0
LINE
  5
1713
330
1E
100
AcDbEntity
  8
HILF
100
AcDbLine
 10
479.3568592988792
 20
364.1202834266265
 30
0.0
 11
479.3568592988791
 21
361.1202834266268
 31
0.0
  0
LINE
  5
1714
330
1E
100
AcDbEntity
  8
STEMPEL
100
AcDbLine
 10
459.882351657615
 20
358.1202834266268
 30
0.0
 11
459.882351657615
 21
361.1202834266268
 31
0.0
  0
LINE
  5
1715
330
1E
100
AcDbEntity
  8
STEMPEL
100
AcDbLine
 10
328.8823516576152
 20
364.1202834266264
 30
0.0
 11
328.8823516576152
 21
362.1202834266263
 31
0.0
  0
LINE
  5
1716
330
1E
100
AcDbEntity
  8
HILF
100
AcDbLine
 10
327.8823516576153
 20
364.1202834266264
 30
0.0
 11
327.8823516576153
 21
362.1202834266263
 31
0.0
  0
LINE
  5
1717
330
1E
100
AcDbEntity
  8
HILF
100
AcDbLine
 10
319.8823516576152
 20
364.1202834266263
 30
0.0
 11
319.8823516576152
 21
361.1202834266268
 31
0.0
  0
LINE
  5
1718
330
1E
100
AcDbEntity
  8
STEMPEL
100
AcDbLine
 10
318.8823516576152
 20
364.1202834266263
 30
0.0
 11
318.8823516576152
 21
361.1202834266268
 31
0.0
  0
LINE
  5
1719
330
1E
100
AcDbEntity
  8
HILF
100
AcDbLine
 10
398.5012851862609
 20
364.1202834266264
 30
0.0
 11
398.501285186261
 21
362.1202834266264
 31
0.0
  0
LINE
  5
171A
330
1E
100
AcDbEntity
  8
STEMPEL
100
AcDbLine
 10
399.5012851862609
 20
364.1202834266264
 30
0.0
 11
399.501285186261
 21
362.1202834266264
 31
0.0
  0
LINE
  5
171B
330
1E
100
AcDbEntity
  8
HILF
100
AcDbLine
 10
390.5012851862609
 20
364.1202834266264
 30
0.0
 11
390.5012851862609
 21
362.1202834266264
 31
0.0
  0
LINE
  5
171C
330
1E
100
AcDbEntity
  8
STEMPEL
100
AcDbLine
 10
389.5012851862609
 20
364.1202834266264
 30
0.0
 11
389.501285186261
 21
362.1202834266264
 31
0.0
  0
LINE
  5
171D
330
1E
100
AcDbEntity
  8
STEMPEL
100
AcDbLine
 10
275.8823516576153
 20
358.1202834266266
 30
0.0
 11
275.8823516576153
 21
361.1202834266267
 31
0.0
  0
LINE
  5
171E
330
1E
100
AcDbEntity
  8
STEMPEL
100
AcDbLine
 10
299.882351657615
 20
358.1202834266268
 30
0.0
 11
299.882351657615
 21
361.1202834266268
 31
0.0
  0
LINE
  5
171F
330
1E
100
AcDbEntity
  8
STEMPEL
100
AcDbLine
 10
229.8823516576149
 20
361.1202834266268
 30
0.0
 11
262.8823516576151
 21
361.1202834266268
 31
0.0
  0
LINE
  5
1720
330
1E
100
AcDbEntity
  8
STEMPEL
100
AcDbLine
 10
259.882351657615
 20
358.1202834266266
 30
0.0
 11
259.882351657615
 21
361.1202834266267
 31
0.0
  0
LINE
  5
1721
330
1E
100
AcDbEntity
  8
STEMPEL
100
AcDbLine
 10
229.8823516576151
 20
358.1202834266263
 30
0.0
 11
229.8823516576151
 21
361.1202834266263
 31
0.0
  0
LINE
  5
1722
330
1E
100
AcDbEntity
  8
STEMPEL
100
AcDbLine
 10
229.8823516576149
 20
358.1202834266268
 30
0.0
 11
229.8823516576149
 21
360.1202834266268
 31
0.0
  0
LINE
  5
1723
330
1E
100
AcDbEntity
  8
STEMPEL
100
AcDbLine
 10
229.8823516576151
 20
358.1202834266263
 30
0.0
 11
229.8823516576151
 21
360.1202834266267
 31
0.0
  0
LINE
  5
1724
330
1E
100
AcDbEntity
  8
STEMPEL
100
AcDbLine
 10
435.1727128185252
 20
361.1202834266268
 30
0.0
 11
529.882351657615
 21
361.1202834266268
 31
0.0
  0
ENDSEC
  0
SECTION
  2
OBJECTS
  0
DICTIONARY
  5
C
330
0
100
AcDbDictionary
281
     1
  3
ACAD_COLOR
350
11A
  3
ACAD_GROUP
350
D
  3
ACAD_LAYOUT
350
19
  3
ACAD_MATERIAL
350
119
  3
ACAD_MLINESTYLE
350
16
  3
ACAD_PLOTSETTINGS
350
18
  3
ACAD_PLOTSTYLENAME
350
E
  3
AcDbVariableDictionary
350
125
  0
DICTIONARY
  5
DB
330
1E
100
AcDbDictionary
280
     1
281
     1
  3
ACAD_LAYOUTSELFREF
360
10F
  0
DICTIONARY
  5
DD
330
1A
100
AcDbDictionary
280
     1
281
     1
  3
ACAD_LAYOUTSELFREF
360
10E
  0
DICTIONARY
  5
11A
102
{ACAD_REACTORS
330
C
102
}
330
C
100
AcDbDictionary
281
     1
  0
DICTIONARY
  5
D
102
{ACAD_REACTORS
330
C
102
}
330
C
100
AcDbDictionary
281
     1
  0
DICTIONARY
  5
19
102
{ACAD_REACTORS
330
C
102
}
330
C
100
AcDbDictionary
281
     1
  3
Layout1
350
1D
  3
Model
350
21
  0
DICTIONARY
  5
119
102
{ACAD_REACTORS
330
C
102
}
330
C
100
AcDbDictionary
281
     1
  0
DICTIONARY
  5
16
102
{ACAD_REACTORS
330
C
102
}
330
C
100
AcDbDictionary
281
     1
  3
Standard
350
17
  0
DICTIONARY
  5
18
102
{ACAD_REACTORS
330
C
102
}
330
C
100
AcDbDictionary
281
     1
  0
ACDBDICTIONARYWDFLT
  5
E
102
{ACAD_REACTORS
330
C
102
}
330
C
100
AcDbDictionary
281
     1
  3
Normal
350
F
100
AcDbDictionaryWithDefault
340
F
  0
DICTIONARY
  5
125
102
{ACAD_REACTORS
330
C
102
}
330
C
100
AcDbDictionary
281
     1
  3
DIMASSOC
350
126
  3
PROJECTNAME
350
127
  0
XRECORD
  5
10F
102
{ACAD_REACTORS
330
DB
102
}
330
DB
100
AcDbXrecord
280
     1
340
1E
  0
XRECORD
  5
10E
102
{ACAD_REACTORS
330
DD
102
}
330
DD
100
AcDbXrecord
280
     1
340
1A
  0
LAYOUT
  5
1D
102
{ACAD_REACTORS
330
19
102
}
330
19
100
AcDbPlotSettings
  1

  2
\\NT_WORK01\HP LaserJet 5000 PCL 6
  4

  6

 40
0.0
 41
0.0
 42
0.0
 43
0.0
 44
0.0
 45
0.0
 46
0.0
 47
0.0
 48
0.0
 49
0.0
140
0.0
141
0.0
142
1.0
143
1.0
 70
   688
 72
     0
 73
     0
 74
     5
  7

 75
    16
147
1.0
 76
     0
 77
     2
 78
   300
148
0.0
149
0.0
100
AcDbLayout
  1
Layout1
 70
     0
 71
     1
 10
0.0
 20
0.0
 11
12.0
 21
9.0
 12
0.0
 22
0.0
 32
0.0
 14
1.000000000000000E+20
 24
1.000000000000000E+20
 34
1.000000000000000E+20
 15
-1.000000000000000E+20
 25
-1.000000000000000E+20
 35
-1.000000000000000E+20
146
0.0
 13
0.0
 23
0.0
 33
0.0
 16
1.0
 26
0.0
 36
0.0
 17
0.0
 27
1.0
 37
0.0
 76
     0
330
1A
  0
LAYOUT
  5
21
102
{ACAD_REACTORS
330
19
102
}
330
19
100
AcDbPlotSettings
  1

  2
none_device
  4
Letter_(8.50_x_11.00_Inches)
  6

 40
6.349999904632568
 41
6.349999904632568
 42
6.350006103515625
 43
6.350006103515625
 44
215.8999938964844
 45
279.3999938964844
 46
0.0
 47
0.0
 48
0.0
 49
0.0
140
0.0
141
0.0
142
1.0
143
1.0
 70
 11952
 72
     0
 73
     1
 74
     0
  7

 75
     0
147
1.0
 76
     0
 77
     2
 78
   300
148
-3124.2
149
0.0
100
AcDbLayout
  1
Model
 70
     1
 71
     0
 10
0.0
 20
0.0
 11
12.0
 21
9.0
 12
0.0
 22
0.0
 32
0.0
 14
0.0
 24
0.0
 34
0.0
 15
0.0
 25
0.0
 35
0.0
146
0.0
 13
0.0
 23
0.0
 33
0.0
 16
1.0
 26
0.0
 36
0.0
 17
0.0
 27
1.0
 37
0.0
 76
     0
330
1E
  0
MLINESTYLE
  5
17
102
{ACAD_REACTORS
330
16
102
}
330
16
100
AcDbMlineStyle
  2
STANDARD
 70
     0
  3

 62
   256
 51
90.0
 52
90.0
 71
     2
 49
0.5
 62
   256
  6
BYLAYER
 49
-0.5
 62
   256
  6
BYLAYER
  0
ACDBPLACEHOLDER
  5
F
102
{ACAD_REACTORS
330
E
102
}
330
E
  0
DICTIONARYVAR
  5
126
102
{ACAD_REACTORS
330
125
102
}
330
125
100
DictionaryVariables
280
     0
  1
1
  0
DICTIONARYVAR
  5
127
102
{ACAD_REACTORS
330
125
102
}
330
125
100
DictionaryVariables
280
     0
  1

  0
ENDSEC
  0
EOF
