  0
SECTION
  2
HEADER
  9
$ACADVER
  1
AC1018
  9
$ACADMAINTVER
 70
     2
  9
$DWGCODEPAGE
  3
ANSI_1252
  9
$INSBASE
 10
0.0
 20
0.0
 30
0.0
  9
$EXTMIN
 10
-0.0256200963685842
 20
-0.0181170681464664
 30
-0.0000000000000053
  9
$EXTMAX
 10
840.0256425892131
 20
594.0181329738002
 30
0.0000000000000099
  9
$LIMMIN
 10
0.0
 20
0.0
  9
$LIMMAX
 10
840.0
 20
594.0
  9
$ORTHOMODE
 70
     1
  9
$REGENMODE
 70
     1
  9
$FILLMODE
 70
     1
  9
$QTEXTMODE
 70
     0
  9
$MIRRTEXT
 70
     1
  9
$LTSCALE
 40
20.0
  9
$ATTMODE
 70
     1
  9
$TEXTSIZE
 40
3.5
  9
$TRACEWID
 40
1.0
  9
$TEXTSTYLE
  7
STANDARD
  9
$CLAYER
  8
SCHRAFF
  9
$CELTYPE
  6
ByLayer
  9
$CECOLOR
 62
   256
  9
$CELTSCALE
 40
1.0
  9
$DISPSILH
 70
     0
  9
$DIMSCALE
 40
2.0
  9
$DIMASZ
 40
3.5
  9
$DIMEXO
 40
1.0
  9
$DIMDLI
 40
7.0
  9
$DIMRND
 40
0.0
  9
$DIMDLE
 40
0.0
  9
$DIMEXE
 40
1.0
  9
$DIMTP
 40
0.0
  9
$DIMTM
 40
0.0
  9
$DIMTXT
 40
3.5
  9
$DIMCEN
 40
1.5
  9
$DIMTSZ
 40
0.0
  9
$DIMTOL
 70
     0
  9
$DIMLIM
 70
     0
  9
$DIMTIH
 70
     0
  9
$DIMTOH
 70
     0
  9
$DIMSE1
 70
     0
  9
$DIMSE2
 70
     0
  9
$DIMTAD
 70
     1
  9
$DIMZIN
 70
     8
  9
$DIMBLK
  1

  9
$DIMASO
 70
     1
  9
$DIMSHO
 70
     0
  9
$DIMPOST
  1

  9
$DIMAPOST
  1

  9
$DIMALT
 70
     0
  9
$DIMALTD
 70
     2
  9
$DIMALTF
 40
25.4
  9
$DIMLFAC
 40
1.0
  9
$DIMTOFL
 70
     1
  9
$DIMTVP
 40
0.0
  9
$DIMTIX
 70
     0
  9
$DIMSOXD
 70
     0
  9
$DIMSAH
 70
     0
  9
$DIMBLK1
  1

  9
$DIMBLK2
  1

  9
$DIMSTYLE
  2
Standard
  9
$DIMCLRD
 70
     0
  9
$DIMCLRE
 70
     0
  9
$DIMCLRT
 70
     1
  9
$DIMTFAC
 40
0.5142857142857144
  9
$DIMGAP
 40
1.5
  9
$DIMJUST
 70
     0
  9
$DIMSD1
 70
     0
  9
$DIMSD2
 70
     0
  9
$DIMTOLJ
 70
     1
  9
$DIMTZIN
 70
     8
  9
$DIMALTZ
 70
     8
  9
$DIMALTTZ
 70
     8
  9
$DIMUPT
 70
     0
  9
$DIMDEC
 70
     2
  9
$DIMTDEC
 70
     2
  9
$DIMALTU
 70
     2
  9
$DIMALTTD
 70
     2
  9
$DIMTXSTY
  7
STANDARD
  9
$DIMAUNIT
 70
     0
  9
$DIMADEC
 70
     2
  9
$DIMALTRND
 40
0.0
  9
$DIMAZIN
 70
     2
  9
$DIMDSEP
 70
    46
  9
$DIMATFIT
 70
     3
  9
$DIMFRAC
 70
     0
  9
$DIMLDRBLK
  1

  9
$DIMLUNIT
 70
     2
  9
$DIMLWD
 70
    -2
  9
$DIMLWE
 70
    -2
  9
$DIMTMOVE
 70
     0
  9
$LUNITS
 70
     2
  9
$LUPREC
 70
     2
  9
$SKETCHINC
 40
1.0
  9
$FILLETRAD
 40
0.0
  9
$AUNITS
 70
     0
  9
$AUPREC
 70
     0
  9
$MENU
  1
ACAD
  9
$ELEVATION
 40
0.0
  9
$PELEVATION
 40
0.0
  9
$THICKNESS
 40
0.0
  9
$LIMCHECK
 70
     0
  9
$CHAMFERA
 40
0.0
  9
$CHAMFERB
 40
0.0
  9
$CHAMFERC
 40
0.0
  9
$CHAMFERD
 40
0.0
  9
$SKPOLY
 70
     0
  9
$TDCREATE
 40
2455397.867059838
  9
$TDUCREATE
 40
2455397.783726505
  9
$TDUPDATE
 40
2455649.612425278
  9
$TDUUPDATE
 40
2455649.529091945
  9
$TDINDWG
 40
0.0487806366
  9
$TDUSRTIMER
 40
0.0487806366
  9
$USRTIMER
 70
     1
  9
$ANGBASE
 50
0.0
  9
$ANGDIR
 70
     0
  9
$PDMODE
 70
     0
  9
$PDSIZE
 40
0.0
  9
$PLINEWID
 40
0.0
  9
$SPLFRAME
 70
     0
  9
$SPLINETYPE
 70
     6
  9
$SPLINESEGS
 70
     8
  9
$HANDSEED
  5
E48
  9
$SURFTAB1
 70
     6
  9
$SURFTAB2
 70
     6
  9
$SURFTYPE
 70
     6
  9
$SURFU
 70
     6
  9
$SURFV
 70
     6
  9
$UCSBASE
  2

  9
$UCSNAME
  2

  9
$UCSORG
 10
0.0
 20
0.0
 30
0.0
  9
$UCSXDIR
 10
1.0
 20
0.0
 30
0.0
  9
$UCSYDIR
 10
0.0
 20
1.0
 30
0.0
  9
$UCSORTHOREF
  2

  9
$UCSORTHOVIEW
 70
     0
  9
$UCSORGTOP
 10
0.0
 20
0.0
 30
0.0
  9
$UCSORGBOTTOM
 10
0.0
 20
0.0
 30
0.0
  9
$UCSORGLEFT
 10
0.0
 20
0.0
 30
0.0
  9
$UCSORGRIGHT
 10
0.0
 20
0.0
 30
0.0
  9
$UCSORGFRONT
 10
0.0
 20
0.0
 30
0.0
  9
$UCSORGBACK
 10
0.0
 20
0.0
 30
0.0
  9
$PUCSBASE
  2

  9
$PUCSNAME
  2

  9
$PUCSORG
 10
0.0
 20
0.0
 30
0.0
  9
$PUCSXDIR
 10
1.0
 20
0.0
 30
0.0
  9
$PUCSYDIR
 10
0.0
 20
1.0
 30
0.0
  9
$PUCSORTHOREF
  2

  9
$PUCSORTHOVIEW
 70
     0
  9
$PUCSORGTOP
 10
0.0
 20
0.0
 30
0.0
  9
$PUCSORGBOTTOM
 10
0.0
 20
0.0
 30
0.0
  9
$PUCSORGLEFT
 10
0.0
 20
0.0
 30
0.0
  9
$PUCSORGRIGHT
 10
0.0
 20
0.0
 30
0.0
  9
$PUCSORGFRONT
 10
0.0
 20
0.0
 30
0.0
  9
$PUCSORGBACK
 10
0.0
 20
0.0
 30
0.0
  9
$USERI1
 70
     0
  9
$USERI2
 70
     0
  9
$USERI3
 70
     0
  9
$USERI4
 70
     0
  9
$USERI5
 70
     0
  9
$USERR1
 40
0.0
  9
$USERR2
 40
0.0
  9
$USERR3
 40
0.0
  9
$USERR4
 40
0.0
  9
$USERR5
 40
0.0
  9
$WORLDVIEW
 70
     1
  9
$SHADEDGE
 70
     3
  9
$SHADEDIF
 70
    70
  9
$TILEMODE
 70
     1
  9
$MAXACTVP
 70
    16
  9
$PINSBASE
 10
0.0
 20
0.0
 30
0.0
  9
$PLIMCHECK
 70
     0
  9
$PEXTMIN
 10
1.000000000000000E+20
 20
1.000000000000000E+20
 30
1.000000000000000E+20
  9
$PEXTMAX
 10
-1.000000000000000E+20
 20
-1.000000000000000E+20
 30
-1.000000000000000E+20
  9
$PLIMMIN
 10
0.0
 20
0.0
  9
$PLIMMAX
 10
12.0
 20
9.0
  9
$UNITMODE
 70
     0
  9
$VISRETAIN
 70
     0
  9
$PLINEGEN
 70
     0
  9
$PSLTSCALE
 70
     0
  9
$TREEDEPTH
 70
  3020
  9
$CMLSTYLE
  2
Standard
  9
$CMLJUST
 70
     0
  9
$CMLSCALE
 40
1.0
  9
$PROXYGRAPHICS
 70
     1
  9
$MEASUREMENT
 70
     0
  9
$CELWEIGHT
370
    -1
  9
$ENDCAPS
280
     0
  9
$JOINSTYLE
280
     0
  9
$LWDISPLAY
290
     0
  9
$INSUNITS
 70
     0
  9
$HYPERLINKBASE
  1

  9
$STYLESHEET
  1
monochrome 1.ctb
  9
$XEDIT
290
     1
  9
$CEPSNTYPE
380
     0
  9
$PSTYLEMODE
290
     1
  9
$FINGERPRINTGUID
  2
{D68B0D0D-A558-11D7-B632-000102183313}
  9
$VERSIONGUID
  2
{34DCCBCA-CE5D-40AD-9B1C-1CD259DF0E40}
  9
$EXTNAMES
290
     1
  9
$PSVPSCALE
 40
0.0
  9
$OLESTARTUP
290
     0
  9
$SORTENTS
280
   127
  9
$INDEXCTL
280
     0
  9
$HIDETEXT
280
     0
  9
$XCLIPFRAME
290
     0
  9
$HALOGAP
280
     0
  9
$OBSCOLOR
 70
   257
  9
$OBSLTYPE
280
     0
  9
$INTERSECTIONDISPLAY
280
     0
  9
$INTERSECTIONCOLOR
 70
   257
  9
$DIMASSOC
280
     1
  9
$PROJECTNAME
  1

  0
ENDSEC
  0
SECTION
  2
CLASSES
  0
CLASS
  1
ACDBDICTIONARYWDFLT
  2
AcDbDictionaryWithDefault
  3
ObjectDBX Classes
 90
        0
 91
        1
280
     0
281
     0
  0
CLASS
  1
DICTIONARYVAR
  2
AcDbDictionaryVar
  3
ObjectDBX Classes
 90
        0
 91
        2
280
     0
281
     0
  0
ENDSEC
  0
SECTION
  2
TABLES
  0
TABLE
  2
VPORT
  5
8
330
0
100
AcDbSymbolTable
 70
     3
  0
VPORT
  5
E47
330
8
100
AcDbSymbolTableRecord
100
AcDbViewportTableRecord
  2
*Active
 70
     0
 10
0.0
 20
0.0
 11
1.0
 21
1.0
 12
419.9999999999999
 22
297.0
 13
0.0
 23
0.0
 14
1.0
 24
1.0
 15
10.0
 25
10.0
 16
0.0
 26
0.0
 36
1.0
 17
0.0
 27
0.0
 37
0.0
 40
629.5757575757574
 41
1.334231805929919
 42
50.0
 43
0.0
 44
0.0
 50
0.0
 51
0.0
 71
     0
 72
  1500
 73
     1
 74
     0
 75
     0
 76
     0
 77
     0
 78
     0
281
     0
 65
     1
110
0.0
120
0.0
130
0.0
111
1.0
121
0.0
131
0.0
112
0.0
122
1.0
132
0.0
 79
     0
146
0.0
  0
ENDTAB
  0
TABLE
  2
LTYPE
  5
5
330
0
100
AcDbSymbolTable
 70
     3
  0
LTYPE
  5
13
330
5
100
AcDbSymbolTableRecord
100
AcDbLinetypeTableRecord
  2
ByBlock
 70
     0
  3

 72
    65
 73
     0
 40
0.0
  0
LTYPE
  5
14
330
5
100
AcDbSymbolTableRecord
100
AcDbLinetypeTableRecord
  2
ByLayer
 70
     0
  3

 72
    65
 73
     0
 40
0.0
  0
LTYPE
  5
15
330
5
100
AcDbSymbolTableRecord
100
AcDbLinetypeTableRecord
  2
Continuous
 70
     0
  3
Solid line
 72
    65
 73
     0
 40
0.0
  0
LTYPE
  5
25
330
5
100
AcDbSymbolTableRecord
100
AcDbLinetypeTableRecord
  2
STRICHPUNKT
 70
     0
  3
__ . __ . __ . __ . __ . __ . __ . __ . __ . __
 72
    65
 73
     4
 40
1.0
 49
0.5
 74
     0
 49
-0.25
 74
     0
 49
0.0
 74
     0
 49
-0.25
 74
     0
  0
LTYPE
  5
34
330
5
100
AcDbSymbolTableRecord
100
AcDbLinetypeTableRecord
  2
AUSGEZOGEN
 70
     0
  3
Ausgezogene Linie
 72
    65
 73
     0
 40
0.0
  0
ENDTAB
  0
TABLE
  2
LAYER
  5
2
330
0
100
AcDbSymbolTable
 70
     9
  0
LAYER
  5
10
330
2
100
AcDbSymbolTableRecord
100
AcDbLayerTableRecord
  2
0
 70
     0
 62
     7
  6
Continuous
370
    -3
390
F
  0
LAYER
  5
2B
330
2
100
AcDbSymbolTableRecord
100
AcDbLayerTableRecord
  2
VOLL
 70
     0
 62
     1
  6
Continuous
370
    -3
390
F
  0
LAYER
  5
2C
330
2
100
AcDbSymbolTableRecord
100
AcDbLayerTableRecord
  2
HILF
 70
     0
 62
     2
  6
Continuous
370
    -3
390
F
  0
LAYER
  5
2D
330
2
100
AcDbSymbolTableRecord
100
AcDbLayerTableRecord
  2
MITTEL
 70
     0
 62
     2
  6
STRICHPUNKT
370
    -3
390
F
  0
LAYER
  5
2F
330
2
100
AcDbSymbolTableRecord
100
AcDbLayerTableRecord
  2
BEM
 70
     0
 62
     7
  6
Continuous
370
    -3
390
F
  0
LAYER
  5
30
330
2
100
AcDbSymbolTableRecord
100
AcDbLayerTableRecord
  2
STEMPEL
 70
     0
 62
     3
  6
Continuous
370
    -3
390
F
  0
LAYER
  5
33
330
2
100
AcDbSymbolTableRecord
100
AcDbLayerTableRecord
  2
TEXT
 70
     0
 62
     7
  6
Continuous
370
    -3
390
F
  0
LAYER
  5
230
330
2
100
AcDbSymbolTableRecord
100
AcDbLayerTableRecord
  2
DEFPOINTS
 70
     0
 62
     7
  6
AUSGEZOGEN
290
     0
370
    -3
390
F
  0
LAYER
  5
231
330
2
100
AcDbSymbolTableRecord
100
AcDbLayerTableRecord
  2
SCHRAFF
 70
     0
 62
     7
  6
AUSGEZOGEN
370
    -3
390
F
  0
ENDTAB
  0
TABLE
  2
STYLE
  5
3
330
0
100
AcDbSymbolTable
 70
     2
  0
STYLE
  5
11
330
3
100
AcDbSymbolTableRecord
100
AcDbTextStyleTableRecord
  2
STANDARD
 70
     0
 40
0.0
 41
0.8
 50
0.0
 71
     0
 42
3.5
  3
simplex.shx
  4

  0
STYLE
  5
24
330
3
100
AcDbSymbolTableRecord
100
AcDbTextStyleTableRecord
  2
GREEKS
 70
     0
 40
0.0
 41
0.8
 50
0.0
 71
     0
 42
2.5
  3
SIMPLEX.shx
  4

  0
ENDTAB
  0
TABLE
  2
VIEW
  5
6
330
0
100
AcDbSymbolTable
 70
     0
  0
ENDTAB
  0
TABLE
  2
UCS
  5
7
330
0
100
AcDbSymbolTable
 70
     0
  0
ENDTAB
  0
TABLE
  2
APPID
  5
9
330
0
100
AcDbSymbolTable
 70
     1
  0
APPID
  5
12
330
9
100
AcDbSymbolTableRecord
100
AcDbRegAppTableRecord
  2
ACAD
 70
     0
  0
ENDTAB
  0
TABLE
  2
DIMSTYLE
  5
A
330
0
100
AcDbSymbolTable
 70
     1
100
AcDbDimStyleTable
 71
     1
340
A2
  0
DIMSTYLE
105
A2
102
{ACAD_REACTORS
330
B70
330
B72
330
B74
330
AA6
330
AAF
330
AB2
330
AB4
102
}
330
A
100
AcDbSymbolTableRecord
100
AcDbDimStyleTableRecord
  2
Standard
 70
     0
340
11
  0
ENDTAB
  0
TABLE
  2
BLOCK_RECORD
  5
1
330
0
100
AcDbSymbolTable
 70
     9
  0
BLOCK_RECORD
  5
1E
102
{ACAD_XDICTIONARY
360
DB
102
}
330
1
100
AcDbSymbolTableRecord
100
AcDbBlockTableRecord
  2
*Model_Space
340
21
  0
BLOCK_RECORD
  5
1A
102
{ACAD_XDICTIONARY
360
DD
102
}
330
1
100
AcDbSymbolTableRecord
100
AcDbBlockTableRecord
  2
*Paper_Space
340
1D
  0
BLOCK_RECORD
  5
22
330
1
100
AcDbSymbolTableRecord
100
AcDbBlockTableRecord
  2
LOGO
340
0
102
{BLKREFS
331
56
102
}
  0
BLOCK_RECORD
  5
23
330
1
100
AcDbSymbolTableRecord
100
AcDbBlockTableRecord
  2
LORO
340
0
102
{BLKREFS
331
9B
102
}
  0
BLOCK_RECORD
  5
BC1
330
1
100
AcDbSymbolTableRecord
100
AcDbBlockTableRecord
  2
*D2
340
0
  0
BLOCK_RECORD
  5
BCD
330
1
100
AcDbSymbolTableRecord
100
AcDbBlockTableRecord
  2
*D3
340
0
  0
BLOCK_RECORD
  5
BD9
330
1
100
AcDbSymbolTableRecord
100
AcDbBlockTableRecord
  2
*D4
340
0
  0
BLOCK_RECORD
  5
BE5
330
1
100
AcDbSymbolTableRecord
100
AcDbBlockTableRecord
  2
*D5
340
0
  0
BLOCK_RECORD
  5
BF1
330
1
100
AcDbSymbolTableRecord
100
AcDbBlockTableRecord
  2
*D6
340
0
  0
BLOCK_RECORD
  5
BFD
330
1
100
AcDbSymbolTableRecord
100
AcDbBlockTableRecord
  2
*D7
340
0
  0
BLOCK_RECORD
  5
C0E
330
1
100
AcDbSymbolTableRecord
100
AcDbBlockTableRecord
  2
*D8
340
0
  0
ENDTAB
  0
ENDSEC
  0
SECTION
  2
BLOCKS
  0
BLOCK
  5
37
330
1E
100
AcDbEntity
  8
0
100
AcDbBlockBegin
  2
*Model_Space
 70
     0
 10
0.0
 20
0.0
 30
0.0
  3
*Model_Space
  1

  0
ENDBLK
  5
38
330
1E
100
AcDbEntity
  8
0
100
AcDbBlockEnd
  0
BLOCK
  5
35
330
1A
100
AcDbEntity
 67
     1
  8
0
100
AcDbBlockBegin
  2
*Paper_Space
 70
     0
 10
0.0
 20
0.0
 30
0.0
  3
*Paper_Space
  1

  0
ENDBLK
  5
36
330
1A
100
AcDbEntity
 67
     1
  8
0
100
AcDbBlockEnd
  0
BLOCK
  5
39
330
22
100
AcDbEntity
  8
0
100
AcDbBlockBegin
  2
LOGO
 70
     0
 10
0.0
 20
0.0
 30
0.0
  3
LOGO
  1

  0
ARC
  5
3A
330
22
100
AcDbEntity
  8
0
100
AcDbCircle
 10
11.59973089678112
 20
-9.271599258481501
 30
0.0
 40
4.5
100
AcDbArc
 50
270.0
 51
231.0575587310159
  0
LINE
  5
3B
330
22
100
AcDbEntity
  8
0
100
AcDbLine
 10
3.599730896781125
 20
-4.771599258481529
 30
0.0
 11
3.599730896781153
 21
-11.77159925848133
 31
0.0
  0
LINE
  5
3C
330
22
100
AcDbEntity
  8
0
100
AcDbLine
 10
2.599730896781125
 20
-4.771599258481529
 30
0.0
 11
2.599730896781153
 21
-11.77159925848133
 31
0.0
  0
CIRCLE
  5
3D
330
22
100
AcDbEntity
  8
0
100
AcDbCircle
 10
11.59973089678112
 20
-9.271599258481501
 30
0.0
 40
3.5
  0
ARC
  5
3E
330
22
100
AcDbEntity
  8
0
100
AcDbCircle
 10
31.59973089678115
 20
-9.271599258481472
 30
0.0
 40
4.5
100
AcDbArc
 50
270.0
 51
231.0575587310182
  0
LINE
  5
3F
330
22
100
AcDbEntity
  8
0
100
AcDbLine
 10
17.59973089678112
 20
-4.771599258481472
 30
0.0
 11
17.59973089678115
 21
-13.77159925848147
 31
0.0
  0
ARC
  5
40
330
22
100
AcDbEntity
  8
0
100
AcDbCircle
 10
22.59973089678116
 20
-7.271599258481472
 30
0.0
 40
2.5
100
AcDbArc
 50
293.1161887722295
 51
90.0
  0
CIRCLE
  5
41
330
22
100
AcDbEntity
  8
0
100
AcDbCircle
 10
31.59973089678115
 20
-9.271599258481472
 30
0.0
 40
3.5
  0
ARC
  5
42
330
22
100
AcDbEntity
  8
0
100
AcDbCircle
 10
4.599730896781153
 20
-11.77159925848133
 30
0.0
 40
1.0
100
AcDbArc
 50
180.0
 51
270.0
  0
ARC
  5
43
330
22
100
AcDbEntity
  8
0
100
AcDbCircle
 10
4.599730896781153
 20
-11.77159925848133
 30
0.0
 40
2.0
100
AcDbArc
 50
179.9999999999992
 51
270.0
  0
LINE
  5
44
330
22
100
AcDbEntity
  8
0
100
AcDbLine
 10
11.59973089678115
 20
-13.77159925848144
 30
0.0
 11
4.599730896781153
 21
-13.77159925848147
 31
0.0
  0
LINE
  5
45
330
22
100
AcDbEntity
  8
0
100
AcDbLine
 10
8.771303772034769
 20
-12.77159925848136
 30
0.0
 11
4.599730896781153
 21
-12.77159925848133
 31
0.0
  0
LINE
  5
46
330
22
100
AcDbEntity
  8
0
100
AcDbLine
 10
31.59973089678115
 20
-13.77159925848147
 30
0.0
 11
23.6715276665056
 21
-13.77159925848144
 31
0.0
  0
LINE
  5
47
330
22
100
AcDbEntity
  8
0
100
AcDbLine
 10
23.56565672307022
 20
-9.51278021337896
 30
0.0
 11
24.4388546544846
 21
-12.77159925848144
 31
0.0
  0
LINE
  5
48
330
22
100
AcDbEntity
  8
0
100
AcDbLine
 10
22.59973089678116
 20
-9.771599258481472
 30
0.0
 11
18.59973089678112
 21
-9.771599258481472
 31
0.0
  0
LINE
  5
49
330
22
100
AcDbEntity
  8
0
100
AcDbLine
 10
18.59973089678115
 20
-13.77159925848144
 30
0.0
 11
17.59973089678115
 21
-13.77159925848144
 31
0.0
  0
LINE
  5
4A
330
22
100
AcDbEntity
  8
0
100
AcDbLine
 10
18.59973089678115
 20
-9.771599258481472
 30
0.0
 11
18.59973089678115
 21
-13.77159925848144
 31
0.0
  0
LINE
  5
4B
330
22
100
AcDbEntity
  8
0
100
AcDbLine
 10
22.59973089678116
 20
-9.771599258481472
 30
0.0
 11
23.67152766650562
 21
-13.77159925848147
 31
0.0
  0
ARC
  5
4C
330
22
100
AcDbEntity
  8
0
100
AcDbCircle
 10
22.59973089678116
 20
-7.271599258481472
 30
0.0
 40
2.5
100
AcDbArc
 50
270.0
 51
270.0000000000007
  0
LINE
  5
4D
330
22
100
AcDbEntity
  8
0
100
AcDbLine
 10
28.77130377203494
 20
-12.77159925848147
 30
0.0
 11
24.43885465448463
 21
-12.77159925848144
 31
0.0
  0
LINE
  5
4E
330
22
100
AcDbEntity
  8
0
100
AcDbLine
 10
3.599730896781125
 20
-4.771599258481472
 30
0.0
 11
2.599730896781125
 21
-4.771599258481472
 31
0.0
  0
LINE
  5
4F
330
22
100
AcDbEntity
  8
0
100
AcDbLine
 10
22.59973089678116
 20
-8.771599258481472
 30
0.0
 11
18.59973089678115
 21
-8.771599258481472
 31
0.0
  0
LINE
  5
50
330
22
100
AcDbEntity
  8
0
100
AcDbLine
 10
22.59973089678116
 20
-5.771599258481472
 30
0.0
 11
18.59973089678115
 21
-5.771599258481472
 31
0.0
  0
LINE
  5
51
330
22
100
AcDbEntity
  8
0
100
AcDbLine
 10
22.59973089678116
 20
-4.771599258481472
 30
0.0
 11
17.59973089678115
 21
-4.771599258481472
 31
0.0
  0
LINE
  5
52
330
22
100
AcDbEntity
  8
0
100
AcDbLine
 10
18.59973089678115
 20
-5.771599258481472
 30
0.0
 11
18.59973089678115
 21
-8.771599258481472
 31
0.0
  0
ARC
  5
53
330
22
100
AcDbEntity
  8
0
100
AcDbCircle
 10
22.59973089678116
 20
-7.271599258481472
 30
0.0
 40
1.5
100
AcDbArc
 50
270.0
 51
90.0
  0
ENDBLK
  5
54
330
22
100
AcDbEntity
  8
0
100
AcDbBlockEnd
  0
BLOCK
  5
55
330
23
100
AcDbEntity
  8
0
100
AcDbBlockBegin
  2
LORO
 70
     0
 10
0.0
 20
0.0
 30
0.0
  3
LORO
  1

  0
INSERT
  5
56
330
23
100
AcDbEntity
  8
STEMPEL
100
AcDbBlockReference
  2
LOGO
 10
-1.748032802467321
 20
3.771489518552062
 30
0.0
  0
ENDBLK
  5
57
330
23
100
AcDbEntity
  8
0
100
AcDbBlockEnd
  0
BLOCK
  5
BCB
330
BC1
100
AcDbEntity
  8
0
100
AcDbBlockBegin
  2
*D2
 70
     1
 10
0.0
 20
0.0
 30
0.0
  3
*D2
  1

  0
LINE
  5
D3C
330
BC1
100
AcDbEntity
  8
BEM
 62
     0
370
    -2
100
AcDbLine
 10
562.8327173881444
 20
353.1167685300101
 30
0.0
 11
715.0136914662931
 21
353.11676853001
 31
0.0
  0
LINE
  5
D3D
330
BC1
100
AcDbEntity
  8
BEM
 62
     0
370
    -2
100
AcDbLine
 10
555.6528516263675
 20
216.1167685300103
 30
0.0
 11
715.013691466293
 21
216.1167685300102
 31
0.0
  0
LINE
  5
D3E
330
BC1
100
AcDbEntity
  8
BEM
 62
     0
370
    -2
100
AcDbLine
 10
713.0136914662931
 20
346.11676853001
 30
0.0
 11
713.013691466293
 21
223.1167685300103
 31
0.0
  0
SOLID
  5
D3F
330
BC1
100
AcDbEntity
  8
BEM
 62
     0
100
AcDbTrace
 10
711.8470247996265
 20
346.11676853001
 30
0.0
 11
714.1803581329598
 21
346.11676853001
 31
0.0
 12
713.0136914662931
 22
353.11676853001
 32
0.0
 13
713.0136914662931
 23
353.11676853001
 33
0.0
  0
SOLID
  5
D40
330
BC1
100
AcDbEntity
  8
BEM
 62
     0
100
AcDbTrace
 10
711.8470247996263
 20
223.1167685300103
 30
0.0
 11
714.1803581329597
 21
223.1167685300103
 31
0.0
 12
713.013691466293
 22
216.1167685300102
 32
0.0
 13
713.013691466293
 23
216.1167685300102
 33
0.0
  0
MTEXT
  5
D41
330
BC1
100
AcDbEntity
  8
BEM
 62
     1
100
AcDbMText
 10
706.513691466293
 20
282.7824962551038
 30
0.0
 40
7.0
 41
0.0
 71
     5
 72
     1
  1
\A1;137
 11
0.0000000000000001
 21
1.0
 31
0.0
 73
     1
 44
1.0
  0
POINT
  5
D42
330
BC1
100
AcDbEntity
  8
DEFPOINTS
 62
     0
100
AcDbPoint
 10
560.8327173881445
 20
353.1167685300101
 30
0.0
  0
POINT
  5
D43
330
BC1
100
AcDbEntity
  8
DEFPOINTS
 62
     0
100
AcDbPoint
 10
553.6528516263675
 20
216.1167685300103
 30
0.0
  0
POINT
  5
D44
330
BC1
100
AcDbEntity
  8
DEFPOINTS
 62
     0
100
AcDbPoint
 10
713.013691466293
 20
216.1167685300102
 30
0.0
  0
ENDBLK
  5
BCC
330
BC1
100
AcDbEntity
  8
0
100
AcDbBlockEnd
  0
BLOCK
  5
BD7
330
BCD
100
AcDbEntity
  8
0
100
AcDbBlockBegin
  2
*D3
 70
     1
 10
0.0
 20
0.0
 30
0.0
  3
*D3
  1

  0
LINE
  5
CFB
330
BCD
100
AcDbEntity
  8
BEM
 62
     0
370
    -2
100
AcDbLine
 10
648.6981737727894
 20
307.9941540548607
 30
0.0
 11
677.1885566955919
 21
306.501036354953
 31
0.0
  0
LINE
  5
CFC
330
BCD
100
AcDbEntity
  8
BEM
 62
     0
370
    -2
100
AcDbLine
 10
644.8776489670541
 20
235.0941980177767
 30
0.0
 11
673.3680318898564
 21
233.6010803178689
 31
0.0
  0
LINE
  5
CFD
330
BCD
100
AcDbEntity
  8
BEM
 62
     0
370
    -2
100
AcDbLine
 10
674.8249459323821
 20
299.6153015241568
 30
0.0
 11
671.737124514048
 21
240.6961589736368
 31
0.0
  0
SOLID
  5
CFE
330
BCD
100
AcDbEntity
  8
BEM
 62
     0
100
AcDbTrace
 10
673.6598781418352
 20
299.6763601397736
 30
0.0
 11
675.9900137229291
 21
299.55424290854
 31
0.0
 12
675.1912976260828
 22
306.6057082674388
 32
0.0
 13
675.1912976260828
 23
306.6057082674388
 33
0.0
  0
SOLID
  5
CFF
330
BCD
100
AcDbEntity
  8
BEM
 62
     0
100
AcDbTrace
 10
670.5720567235011
 20
240.7572175892536
 30
0.0
 11
672.902192304595
 21
240.63510035802
 31
0.0
 12
671.3707728203473
 22
233.7057522303548
 32
0.0
 13
671.3707728203473
 23
233.7057522303548
 33
0.0
  0
MTEXT
  5
D00
330
BCD
100
AcDbEntity
  8
BEM
 62
     1
100
AcDbMText
 10
666.7899432473103
 20
270.4959139644761
 30
0.0
 40
7.0
 41
0.0
 71
     5
 72
     1
  1
\A1;%%c73
 11
0.0523359562429513
 21
0.9986295347545734
 31
0.0
 73
     1
 44
1.0
  0
POINT
  5
D01
330
BCD
100
AcDbEntity
  8
DEFPOINTS
 62
     0
100
AcDbPoint
 10
646.7009147032803
 20
308.0988259673467
 30
0.0
  0
POINT
  5
D02
330
BCD
100
AcDbEntity
  8
DEFPOINTS
 62
     0
100
AcDbPoint
 10
642.8803898975449
 20
235.1988699302626
 30
0.0
  0
POINT
  5
D03
330
BCD
100
AcDbEntity
  8
DEFPOINTS
 62
     0
100
AcDbPoint
 10
671.3707728203473
 20
233.7057522303548
 30
0.0
  0
ENDBLK
  5
BD8
330
BCD
100
AcDbEntity
  8
0
100
AcDbBlockEnd
  0
BLOCK
  5
BE3
330
BD9
100
AcDbEntity
  8
0
100
AcDbBlockBegin
  2
*D4
 70
     1
 10
0.0
 20
0.0
 30
0.0
  3
*D4
  1

  0
LINE
  5
CF2
330
BD9
100
AcDbEntity
  8
BEM
 62
     0
370
    -2
100
AcDbLine
 10
491.2810590436942
 20
353.1167685300097
 30
0.0
 11
697.0550019340389
 21
353.1167685300097
 31
0.0
  0
LINE
  5
CF3
330
BD9
100
AcDbEntity
  8
BEM
 62
     0
370
    -2
100
AcDbLine
 10
675.3400865273722
 20
271.282496255104
 30
0.0
 11
697.0550019340389
 21
271.282496255104
 31
0.0
  0
LINE
  5
CF4
330
BD9
100
AcDbEntity
  8
BEM
 62
     0
370
    -2
100
AcDbLine
 10
695.0550019340389
 20
346.1167685300097
 30
0.0
 11
695.0550019340389
 21
278.282496255104
 31
0.0
  0
SOLID
  5
CF5
330
BD9
100
AcDbEntity
  8
BEM
 62
     0
100
AcDbTrace
 10
693.8883352673723
 20
346.1167685300097
 30
0.0
 11
696.2216686007056
 21
346.1167685300097
 31
0.0
 12
695.0550019340389
 22
353.1167685300097
 32
0.0
 13
695.0550019340389
 23
353.1167685300097
 33
0.0
  0
SOLID
  5
CF6
330
BD9
100
AcDbEntity
  8
BEM
 62
     0
100
AcDbTrace
 10
693.8883352673723
 20
278.282496255104
 30
0.0
 11
696.2216686007056
 21
278.282496255104
 31
0.0
 12
695.0550019340389
 22
271.282496255104
 32
0.0
 13
695.0550019340389
 23
271.282496255104
 33
0.0
  0
MTEXT
  5
CF7
330
BD9
100
AcDbEntity
  8
BEM
 62
     1
100
AcDbMText
 10
688.5550019340388
 20
312.1996323925569
 30
0.0
 40
7.0
 41
0.0
 71
     5
 72
     1
  1
\A1;82
 11
0.0000000000000001
 21
1.0
 31
0.0
 73
     1
 44
1.0
  0
POINT
  5
CF8
330
BD9
100
AcDbEntity
  8
DEFPOINTS
 62
     0
100
AcDbPoint
 10
489.2810590436941
 20
353.1167685300097
 30
0.0
  0
POINT
  5
CF9
330
BD9
100
AcDbEntity
  8
DEFPOINTS
 62
     0
100
AcDbPoint
 10
673.3400865273722
 20
271.282496255104
 30
0.0
  0
POINT
  5
CFA
330
BD9
100
AcDbEntity
  8
DEFPOINTS
 62
     0
100
AcDbPoint
 10
695.0550019340389
 20
271.282496255104
 30
0.0
  0
ENDBLK
  5
BE4
330
BD9
100
AcDbEntity
  8
0
100
AcDbBlockEnd
  0
BLOCK
  5
BEF
330
BE5
100
AcDbEntity
  8
0
100
AcDbBlockBegin
  2
*D5
 70
     1
 10
0.0
 20
0.0
 30
0.0
  3
*D5
  1

  0
LINE
  5
C35
330
BE5
100
AcDbEntity
  8
SCHRAFF
 62
     0
370
    -2
100
AcDbLine
 10
304.6555356196074
 20
214.1167685300103
 30
0.0
 11
304.6555356196074
 21
191.9736199490575
 31
0.0
  0
LINE
  5
C36
330
BE5
100
AcDbEntity
  8
SCHRAFF
 62
     0
370
    -2
100
AcDbLine
 10
553.6528516263675
 20
214.1167685300103
 30
0.0
 11
553.6528516263675
 21
191.9736199490575
 31
0.0
  0
LINE
  5
C37
330
BE5
100
AcDbEntity
  8
SCHRAFF
 62
     0
370
    -2
100
AcDbLine
 10
311.6555356196073
 20
193.9736199490575
 30
0.0
 11
546.6528516263675
 21
193.9736199490575
 31
0.0
  0
SOLID
  5
C38
330
BE5
100
AcDbEntity
  8
SCHRAFF
 62
     0
100
AcDbTrace
 10
311.6555356196073
 20
195.1402866157241
 30
0.0
 11
311.6555356196073
 21
192.8069532823908
 31
0.0
 12
304.6555356196074
 22
193.9736199490575
 32
0.0
 13
304.6555356196074
 23
193.9736199490575
 33
0.0
  0
SOLID
  5
C39
330
BE5
100
AcDbEntity
  8
SCHRAFF
 62
     0
100
AcDbTrace
 10
546.6528516263675
 20
195.1402866157241
 30
0.0
 11
546.6528516263675
 21
192.8069532823908
 31
0.0
 12
553.6528516263675
 22
193.9736199490575
 32
0.0
 13
553.6528516263675
 23
193.9736199490575
 33
0.0
  0
MTEXT
  5
C3A
330
BE5
100
AcDbEntity
  8
SCHRAFF
 62
     1
100
AcDbMText
 10
429.1541936229874
 20
200.4736199490575
 30
0.0
 40
7.0
 41
0.0
 71
     5
 72
     1
  1
\A1;249
 73
     1
 44
1.0
  0
POINT
  5
C3B
330
BE5
100
AcDbEntity
  8
DEFPOINTS
 62
     0
100
AcDbPoint
 10
304.6555356196074
 20
216.1167685300103
 30
0.0
  0
POINT
  5
C3C
330
BE5
100
AcDbEntity
  8
DEFPOINTS
 62
     0
100
AcDbPoint
 10
553.6528516263675
 20
216.1167685300103
 30
0.0
  0
POINT
  5
C3D
330
BE5
100
AcDbEntity
  8
DEFPOINTS
 62
     0
100
AcDbPoint
 10
553.6528516263675
 20
193.9736199490575
 30
0.0
  0
ENDBLK
  5
BF0
330
BE5
100
AcDbEntity
  8
0
100
AcDbBlockEnd
  0
BLOCK
  5
BFB
330
BF1
100
AcDbEntity
  8
0
100
AcDbBlockBegin
  2
*D6
 70
     1
 10
0.0
 20
0.0
 30
0.0
  3
*D6
  1

  0
LINE
  5
D0D
330
BF1
100
AcDbEntity
  8
BEM
 62
     0
370
    -2
100
AcDbLine
 10
366.7810590436942
 20
191.9736199490575
 30
0.0
 11
366.7810590436942
 21
173.5510946659972
 31
0.0
  0
LINE
  5
D0E
330
BF1
100
AcDbEntity
  8
BEM
 62
     0
370
    -2
100
AcDbLine
 10
651.7810590436944
 20
269.282496255104
 30
0.0
 11
651.7810590436944
 21
173.5510946659972
 31
0.0
  0
LINE
  5
D0F
330
BF1
100
AcDbEntity
  8
BEM
 62
     0
370
    -2
100
AcDbLine
 10
373.7810590436942
 20
175.5510946659972
 30
0.0
 11
644.7810590436944
 21
175.5510946659972
 31
0.0
  0
SOLID
  5
D10
330
BF1
100
AcDbEntity
  8
BEM
 62
     0
100
AcDbTrace
 10
373.7810590436942
 20
176.7177613326638
 30
0.0
 11
373.7810590436942
 21
174.3844279993305
 31
0.0
 12
366.7810590436942
 22
175.5510946659972
 32
0.0
 13
366.7810590436942
 23
175.5510946659972
 33
0.0
  0
SOLID
  5
D11
330
BF1
100
AcDbEntity
  8
BEM
 62
     0
100
AcDbTrace
 10
644.7810590436944
 20
176.7177613326638
 30
0.0
 11
644.7810590436944
 21
174.3844279993305
 31
0.0
 12
651.7810590436944
 22
175.5510946659972
 32
0.0
 13
651.7810590436944
 23
175.5510946659972
 33
0.0
  0
MTEXT
  5
D12
330
BF1
100
AcDbEntity
  8
BEM
 62
     1
100
AcDbMText
 10
509.2810590436942
 20
182.0510946659972
 30
0.0
 40
7.0
 41
0.0
 71
     5
 72
     1
  1
\A1;285
 73
     1
 44
1.0
  0
POINT
  5
D13
330
BF1
100
AcDbEntity
  8
DEFPOINTS
 62
     0
100
AcDbPoint
 10
366.7810590436942
 20
193.9736199490575
 30
0.0
  0
POINT
  5
D14
330
BF1
100
AcDbEntity
  8
DEFPOINTS
 62
     0
100
AcDbPoint
 10
651.7810590436944
 20
271.282496255104
 30
0.0
  0
POINT
  5
D15
330
BF1
100
AcDbEntity
  8
DEFPOINTS
 62
     0
100
AcDbPoint
 10
651.7810590436944
 20
175.5510946659972
 30
0.0
  0
ENDBLK
  5
BFC
330
BF1
100
AcDbEntity
  8
0
100
AcDbBlockEnd
  0
BLOCK
  5
C0C
330
BFD
100
AcDbEntity
  8
0
100
AcDbBlockBegin
  2
*D7
 70
     1
 10
0.0
 20
0.0
 30
0.0
  3
*D7
  1

  0
LINE
  5
C47
330
BFD
100
AcDbEntity
  8
BEM
 62
     0
370
    -2
100
AcDbLine
 10
368.7810590436944
 20
286.2187133507709
 30
0.0
 11
435.6021959558252
 21
286.2187133507703
 31
0.0
  0
ARC
  5
C48
330
BFD
100
AcDbEntity
  8
BEM
 62
     0
370
    -2
100
AcDbCircle
 10
366.7810590436943
 20
286.2187133507709
 30
0.0
 40
66.821136912131
100
AcDbArc
 50
344.9736357326496
 51
357.0
  0
LINE
  5
C49
330
BFD
100
AcDbEntity
  8
BEM
 62
     0
370
    -2
100
AcDbLine
 10
431.3173561104554
 20
268.8944327267304
 30
0.0
 11
428.1024889342116
 21
256.9184305123389
 31
0.0
  0
ARC
  5
C4A
330
BFD
100
AcDbEntity
  8
BEM
 62
     0
370
    -2
100
AcDbCircle
 10
366.7810590436943
 20
286.2187133507709
 30
0.0
 40
66.821136912131
100
AcDbArc
 50
344.9902051111601
 51
350.9951025555801
  0
ARC
  5
C4B
330
BFD
100
AcDbEntity
  8
BEM
 62
     0
370
    -2
100
AcDbCircle
 10
366.7810590436943
 20
286.2187133507709
 30
0.0
 40
66.821136912131
100
AcDbArc
 50
6.004897444419503
 51
12.00979488883948
  0
ARC
  5
C4C
330
BFD
100
AcDbEntity
  8
BEM
 62
     0
370
    -2
100
AcDbCircle
 10
366.7810590436943
 20
286.2187133507709
 30
0.0
 40
66.821136912131
100
AcDbArc
 50
357.0
 51
359.9999999999996
  0
SOLID
  5
C4D
330
BFD
100
AcDbEntity
  8
BEM
 62
     0
100
AcDbTrace
 10
431.6183528072291
 20
275.8819427254346
 30
0.0
 11
433.9388934704503
 21
275.6379438017054
 31
0.0
 12
433.5106199100273
 22
282.7215652532339
 32
0.0
 13
433.5106199100273
 23
282.7215652532339
 33
0.0
  0
SOLID
  5
C4E
330
BFD
100
AcDbEntity
  8
BEM
 62
     0
100
AcDbTrace
 10
434.400610684547
 20
293.2702128389694
 30
0.0
 11
432.0704803246596
 21
293.1479960218954
 31
0.0
 12
433.6021959558252
 22
286.2187133507704
 32
0.0
 13
433.6021959558252
 23
286.2187133507704
 33
0.0
  0
MTEXT
  5
C4F
330
BFD
100
AcDbEntity
  8
BEM
 62
     1
100
AcDbMText
 10
423.4321794260798
 20
264.5916442522431
 30
0.0
 40
7.0
 41
0.0
 71
     5
 72
     1
  1
\A1;3°
 11
0.2592634819551407
 21
0.9658066301928645
 31
0.0
 73
     1
 44
1.0
  0
POINT
  5
C50
330
BFD
100
AcDbEntity
  8
DEFPOINTS
 62
     0
100
AcDbPoint
 10
433.592018773018
 20
285.0525237107787
 30
0.0
  0
POINT
  5
C51
330
BFD
100
AcDbEntity
  8
DEFPOINTS
 62
     0
100
AcDbPoint
 10
366.7810590436942
 20
286.2187133507709
 30
0.0
  0
POINT
  5
C52
330
BFD
100
AcDbEntity
  8
DEFPOINTS
 62
     0
100
AcDbPoint
 10
366.7810590436944
 20
286.2187133507709
 30
0.0
  0
POINT
  5
C53
330
BFD
100
AcDbEntity
  8
DEFPOINTS
 62
     0
100
AcDbPoint
 10
364.7810590436944
 20
286.2187133507709
 30
0.0
  0
POINT
  5
C54
330
BFD
100
AcDbEntity
  8
DEFPOINTS
 62
     0
100
AcDbPoint
 10
622.3439985696602
 20
272.8252272231688
 30
0.0
  0
ENDBLK
  5
C0D
330
BFD
100
AcDbEntity
  8
0
100
AcDbBlockEnd
  0
BLOCK
  5
C18
330
C0E
100
AcDbEntity
  8
0
100
AcDbBlockBegin
  2
*D8
 70
     1
 10
0.0
 20
0.0
 30
0.0
  3
*D8
  1

  0
LINE
  5
CA0
330
C0E
100
AcDbEntity
  8
BEM
 62
     0
370
    -2
100
AcDbLine
 10
244.2810590436942
 20
351.1774287017897
 30
0.0
 11
244.2810590436942
 21
393.3437944493007
 31
0.0
  0
LINE
  5
CA1
330
C0E
100
AcDbEntity
  8
BEM
 62
     0
370
    -2
100
AcDbLine
 10
489.2810590436946
 20
351.1774287017897
 30
0.0
 11
489.2810590436946
 21
393.3437944493007
 31
0.0
  0
LINE
  5
CA2
330
C0E
100
AcDbEntity
  8
BEM
 62
     0
370
    -2
100
AcDbLine
 10
251.2810590436942
 20
391.3437944493007
 30
0.0
 11
482.2810590436946
 21
391.3437944493007
 31
0.0
  0
SOLID
  5
CA3
330
C0E
100
AcDbEntity
  8
BEM
 62
     0
100
AcDbTrace
 10
251.2810590436942
 20
392.5104611159674
 30
0.0
 11
251.2810590436942
 21
390.1771277826341
 31
0.0
 12
244.2810590436942
 22
391.3437944493007
 32
0.0
 13
244.2810590436942
 23
391.3437944493007
 33
0.0
  0
SOLID
  5
CA4
330
C0E
100
AcDbEntity
  8
BEM
 62
     0
100
AcDbTrace
 10
482.2810590436946
 20
392.5104611159674
 30
0.0
 11
482.2810590436946
 21
390.1771277826341
 31
0.0
 12
489.2810590436946
 22
391.3437944493007
 32
0.0
 13
489.2810590436946
 23
391.3437944493007
 33
0.0
  0
MTEXT
  5
CA5
330
C0E
100
AcDbEntity
  8
BEM
 62
     1
100
AcDbMText
 10
366.7810590436944
 20
397.8437944493007
 30
0.0
 40
7.0
 41
0.0
 71
     5
 72
     1
  1
\A1;%%c245
 73
     1
 44
1.0
  0
POINT
  5
CA6
330
C0E
100
AcDbEntity
  8
DEFPOINTS
 62
     0
100
AcDbPoint
 10
244.2810590436942
 20
349.1774287017897
 30
0.0
  0
POINT
  5
CA7
330
C0E
100
AcDbEntity
  8
DEFPOINTS
 62
     0
100
AcDbPoint
 10
489.2810590436946
 20
349.1774287017897
 30
0.0
  0
POINT
  5
CA8
330
C0E
100
AcDbEntity
  8
DEFPOINTS
 62
     0
100
AcDbPoint
 10
489.2810590436946
 20
391.3437944493007
 30
0.0
  0
ENDBLK
  5
C19
330
C0E
100
AcDbEntity
  8
0
100
AcDbBlockEnd
  0
ENDSEC
  0
SECTION
  2
ENTITIES
  0
LINE
  5
58
330
1E
100
AcDbEntity
  8
STEMPEL
100
AcDbLine
 10
830.0000000000002
 20
110.0
 30
0.0
 11
470.0000000000001
 21
110.0
 31
0.0
  0
LINE
  5
59
330
1E
100
AcDbEntity
  8
STEMPEL
100
AcDbLine
 10
470.0000000000001
 20
110.0
 30
0.0
 11
470.0000000000001
 21
10.0
 31
0.0
  0
LINE
  5
5A
330
1E
100
AcDbEntity
  8
STEMPEL
100
AcDbLine
 10
566.0000000000002
 20
109.9999999999999
 30
0.0
 11
566.0000000000001
 21
9.999999999999886
 31
0.0
  0
LINE
  5
5B
330
1E
100
AcDbEntity
  8
STEMPEL
100
AcDbLine
 10
650.0
 20
110.0
 30
0.0
 11
650.0
 21
10.0
 31
0.0
  0
LINE
  5
5C
330
1E
100
AcDbEntity
  8
STEMPEL
100
AcDbLine
 10
752.0000000000002
 20
109.9999999999997
 30
0.0
 11
752.0000000000002
 21
40.0
 31
0.0
  0
LINE
  5
5D
330
1E
100
AcDbEntity
  8
STEMPEL
100
AcDbLine
 10
566.0
 20
30.0
 30
0.0
 11
470.0000000000001
 21
30.0
 31
0.0
  0
LINE
  5
5E
330
1E
100
AcDbEntity
  8
STEMPEL
100
AcDbLine
 10
830.0000000000002
 20
40.0
 30
0.0
 11
566.0000000000001
 21
40.0
 31
0.0
  0
LINE
  5
5F
330
1E
100
AcDbEntity
  8
STEMPEL
100
AcDbLine
 10
830.0000000000002
 20
80.0
 30
0.0
 11
566.0000000000002
 21
80.0
 31
0.0
  0
LINE
  5
60
330
1E
100
AcDbEntity
  8
VOLL
100
AcDbLine
 10
484.0000000000002
 20
110.0
 30
0.0
 11
484.0000000000001
 21
9.999999999999985
 31
0.0
  0
LINE
  5
61
330
1E
100
AcDbEntity
  8
VOLL
100
AcDbLine
 10
524.0000000000001
 20
109.9999999999999
 30
0.0
 11
524.0000000000001
 21
9.999999999999943
 31
0.0
  0
LINE
  5
62
330
1E
100
AcDbEntity
  8
VOLL
100
AcDbLine
 10
544.0000000000002
 20
109.9999999999999
 30
0.0
 11
544.0000000000001
 21
9.999999999999914
 31
0.0
  0
LINE
  5
63
330
1E
100
AcDbEntity
  8
VOLL
100
AcDbLine
 10
584.0000000000002
 20
80.0
 30
0.0
 11
584.0000000000002
 21
40.0
 31
0.0
  0
LINE
  5
64
330
1E
100
AcDbEntity
  8
VOLL
100
AcDbLine
 10
610.0000000000002
 20
109.9999999999998
 30
0.0
 11
610.0000000000001
 21
40.0
 31
0.0
  0
LINE
  5
65
330
1E
100
AcDbEntity
  8
HILF
100
AcDbLine
 10
470.0000000000001
 20
100.0
 30
0.0
 11
566.0000000000002
 21
100.0
 31
0.0
  0
LINE
  5
66
330
1E
100
AcDbEntity
  8
HILF
100
AcDbLine
 10
470.0000000000001
 20
90.0
 30
0.0
 11
566.0000000000002
 21
90.0
 31
0.0
  0
LINE
  5
67
330
1E
100
AcDbEntity
  8
HILF
100
AcDbLine
 10
470.0000000000001
 20
80.0
 30
0.0
 11
566.0000000000002
 21
80.0
 31
0.0
  0
LINE
  5
68
330
1E
100
AcDbEntity
  8
HILF
100
AcDbLine
 10
470.0000000000001
 20
70.0
 30
0.0
 11
566.0000000000002
 21
70.0
 31
0.0
  0
LINE
  5
69
330
1E
100
AcDbEntity
  8
HILF
100
AcDbLine
 10
470.0000000000001
 20
60.0
 30
0.0
 11
566.0000000000002
 21
60.0
 31
0.0
  0
LINE
  5
6A
330
1E
100
AcDbEntity
  8
HILF
100
AcDbLine
 10
470.0000000000001
 20
50.0
 30
0.0
 11
566.0000000000002
 21
50.0
 31
0.0
  0
LINE
  5
6B
330
1E
100
AcDbEntity
  8
HILF
100
AcDbLine
 10
470.0000000000001
 20
40.0
 30
0.0
 11
566.0000000000002
 21
40.0
 31
0.0
  0
LINE
  5
6C
330
1E
100
AcDbEntity
  8
HILF
100
AcDbLine
 10
566.0000000000002
 20
70.0
 30
0.0
 11
650.0
 21
70.0
 31
0.0
  0
LINE
  5
6D
330
1E
100
AcDbEntity
  8
HILF
100
AcDbLine
 10
566.0000000000002
 20
60.0
 30
0.0
 11
650.0
 21
60.0
 31
0.0
  0
LINE
  5
6E
330
1E
100
AcDbEntity
  8
HILF
100
AcDbLine
 10
566.0000000000002
 20
50.0
 30
0.0
 11
650.0
 21
50.0
 31
0.0
  0
LINE
  5
6F
330
1E
100
AcDbEntity
  8
HILF
100
AcDbLine
 10
654.7736801096948
 20
84.03758247564136
 30
0.0
 11
746.6297842514811
 21
84.03758247564136
 31
0.0
  0
LINE
  5
70
330
1E
100
AcDbEntity
  8
HILF
100
AcDbLine
 10
654.7736801096948
 20
70.0
 30
0.0
 11
746.6297842514811
 21
70.0
 31
0.0
  0
LINE
  5
71
330
1E
100
AcDbEntity
  8
HILF
100
AcDbLine
 10
654.7736801096948
 20
60.0
 30
0.0
 11
746.6297842514811
 21
60.0
 31
0.0
  0
LINE
  5
72
330
1E
100
AcDbEntity
  8
HILF
100
AcDbLine
 10
654.7736801096948
 20
50.0
 30
0.0
 11
746.6297842514811
 21
50.0
 31
0.0
  0
LINE
  5
73
330
1E
100
AcDbEntity
  8
VOLL
100
AcDbLine
 10
752.0000000000002
 20
60.0
 30
0.0
 11
830.0000000000002
 21
60.0
 31
0.0
  0
LINE
  5
74
330
1E
100
AcDbEntity
  8
HILF
100
AcDbLine
 10
756.7238616296995
 20
83.77983636955823
 30
0.0
 11
824.858883932673
 21
83.77983636955823
 31
0.0
  0
LINE
  5
75
330
1E
100
AcDbEntity
  8
HILF
100
AcDbLine
 10
654.7736801096948
 20
14.89398258028305
 30
0.0
 11
824.858883932673
 21
14.89398258028305
 31
0.0
  0
TEXT
  5
76
330
1E
100
AcDbEntity
  8
TEXT
100
AcDbText
 10
492.3998239263297
 20
18.67381894984129
 30
0.0
 40
4.0
  1
Änderung
 41
0.8
  7
GREEKS
 72
     1
 11
503.1426810691868
 21
18.67381894984129
 31
0.0
100
AcDbText
  0
TEXT
  5
78
330
1E
100
AcDbEntity
  8
TEXT
100
AcDbText
 10
573.5163572150378
 20
102.4620895087088
 30
0.0
 40
5.0
  1
Maßstab
 41
0.8
  7
GREEKS
100
AcDbText
  0
TEXT
  5
79
330
1E
100
AcDbEntity
  8
TEXT
100
AcDbText
 10
654.8779403809011
 20
102.5489328011779
 30
0.0
 40
5.0
  1
Benennung
 41
0.8
  7
GREEKS
100
AcDbText
  0
TEXT
  5
7A
330
1E
100
AcDbEntity
  8
TEXT
100
AcDbText
 10
756.1787549576343
 20
102.3132034537135
 30
0.0
 40
5.0
  1
Zeichnungs Nr.
 41
0.8
  7
GREEKS
100
AcDbText
  0
TEXT
  5
7B
330
1E
100
AcDbEntity
  8
TEXT
100
AcDbText
 10
654.742238391136
 20
30.84560570193055
 30
0.0
 40
5.0
  1
Bauvorhaben
 41
0.8
  7
GREEKS
100
AcDbText
  0
TEXT
  5
7C
330
1E
100
AcDbEntity
  8
TEXT
100
AcDbText
 10
756.7238616296995
 20
73.18118237099965
 30
0.0
 40
5.0
  1
Ersatz für:
 41
0.8
  7
GREEKS
100
AcDbText
  0
TEXT
  5
7D
330
1E
100
AcDbEntity
  8
TEXT
100
AcDbText
 10
478.2664110704577
 20
13.65465846027187
 30
0.0
 40
4.0
  1
Index
 50
90.0
 41
0.8
  7
GREEKS
100
AcDbText
  0
TEXT
  5
7E
330
1E
100
AcDbEntity
  8
TEXT
100
AcDbText
 10
529.8990113186979
 20
18.67156269339808
 30
0.0
 40
4.0
  1
Tag
 41
0.8
  7
GREEKS
 72
     1
 11
533.6323446520313
 21
18.67156269339808
 31
0.0
100
AcDbText
  0
TEXT
  5
7F
330
1E
100
AcDbEntity
  8
TEXT
100
AcDbText
 10
548.9795678138293
 20
18.59324216966404
 30
0.0
 40
4.0
  1
Name
 41
0.8
  7
GREEKS
 72
     1
 11
555.3033773376388
 21
18.59324216966404
 31
0.0
100
AcDbText
  0
TEXT
  5
80
330
1E
100
AcDbEntity
  8
TEXT
100
AcDbText
 10
592.3311673153651
 20
73.31880501229919
 30
0.0
 40
4.0
  1
Tag
 41
0.8
  7
GREEKS
100
AcDbText
  0
TEXT
  5
81
330
1E
100
AcDbEntity
  8
TEXT
100
AcDbText
 10
622.4626584226296
 20
73.3096109191522
 30
0.0
 40
4.0
  1
Name
 41
0.8
  7
GREEKS
100
AcDbText
  0
TEXT
  5
82
330
1E
100
AcDbEntity
  8
TEXT
100
AcDbText
 10
567.5836127167616
 20
63.62990369617961
 30
0.0
 40
4.0
  1
Gez.
 41
0.8
  7
GREEKS
100
AcDbText
  0
TEXT
  5
83
330
1E
100
AcDbEntity
  8
TEXT
100
AcDbText
 10
567.5515086571673
 20
53.68926291428373
 30
0.0
 40
4.0
  1
Gepr.
 41
0.8
  7
GREEKS
100
AcDbText
  0
TEXT
  5
84
330
1E
100
AcDbEntity
  8
TEXT
100
AcDbText
 10
567.6006777387304
 20
43.52946389649804
 30
0.0
 40
4.0
  1
Norm.
 41
0.8
  7
GREEKS
100
AcDbText
  0
TEXT
  5
85
330
1E
100
AcDbEntity
  8
TEXT
100
AcDbText
 10
757.2400861497007
 20
52.07416177878596
 30
0.0
 40
5.0
  1
ersetzt durch:
 41
0.8
  7
GREEKS
100
AcDbText
  0
TEXT
  5
86
330
1E
100
AcDbEntity
  8
TEXT
100
AcDbText
 10
568.8693027807324
 20
72.96682596523723
 30
0.0
 40
4.0
  1
2011
 41
0.8
  7
GREEKS
100
AcDbText
  0
LINE
  5
87
330
1E
100
AcDbEntity
  8
HILF
100
AcDbLine
 10
0.0
 20
0.0
 30
0.0
 11
840.0
 21
0.0
 31
0.0
  0
LINE
  5
88
330
1E
100
AcDbEntity
  8
HILF
100
AcDbLine
 10
840.0
 20
0.0
 30
0.0
 11
840.0
 21
594.0
 31
0.0
  0
LINE
  5
89
330
1E
100
AcDbEntity
  8
HILF
100
AcDbLine
 10
840.0
 20
594.0
 30
0.0
 11
0.0
 21
594.0
 31
0.0
  0
LINE
  5
8B
330
1E
100
AcDbEntity
  8
STEMPEL
100
AcDbLine
 10
830.0
 20
584.0
 30
0.0
 11
40.0
 21
584.0
 31
0.0
  0
LINE
  5
8D
330
1E
100
AcDbEntity
  8
STEMPEL
100
AcDbLine
 10
40.0
 20
10.0
 30
0.0
 11
830.0
 21
10.0
 31
0.0
  0
LINE
  5
8E
330
1E
100
AcDbEntity
  8
STEMPEL
100
AcDbLine
 10
830.0
 20
10.0
 30
0.0
 11
830.0
 21
584.0
 31
0.0
  0
TEXT
  5
91
330
1E
100
AcDbEntity
  8
TEXT
100
AcDbText
 10
618.509022641583
 20
102.83989611379
 30
0.0
 40
5.0
  1
Zul.Abw.
 41
0.8
  7
GREEKS
100
AcDbText
  0
TEXT
  5
9A
330
1E
100
AcDbEntity
  8
TEXT
100
AcDbText
 10
470.0441139350127
 20
114.1143585051043
 30
0.0
 40
5.0
  1
Erstellt mit AUTOCAD 2004
 41
0.8
  7
GREEKS
100
AcDbText
  0
INSERT
  5
9B
330
1E
100
AcDbEntity
  8
HILF
100
AcDbBlockReference
  2
LORO
 10
573.0624985962354
 20
36.9805930029896
 30
0.0
 41
2.0
 42
2.0
 43
2.0
  0
LINE
  5
9C
330
1E
100
AcDbEntity
  8
BEM
100
AcDbLine
 10
456.0
 20
0.0
 30
0.0
 11
456.0
 21
10.0
 31
0.0
  0
LINE
  5
13E
330
1E
100
AcDbEntity
  8
HILF
100
AcDbLine
 10
0.0
 20
0.0
 30
0.0
 11
0.0
 21
594.0
 31
0.0
  0
LINE
  5
13F
330
1E
100
AcDbEntity
  8
STEMPEL
100
AcDbLine
 10
40.0
 20
10.0
 30
0.0
 11
40.0
 21
584.0
 31
0.0
  0
LINE
  5
14A
330
1E
100
AcDbEntity
  8
HILF
100
AcDbLine
 10
0.0
 20
297.0
 30
0.0
 11
40.0
 21
297.0
 31
0.0
  0
TEXT
  5
15B
330
1E
100
AcDbEntity
  8
BEM
100
AcDbText
 10
837.3022923857165
 20
10.16790107998861
 30
0.0
 40
4.0
  1
Diese Zeichnung ist urheberrechtlich geschützt und bleibt unser Eigentum. Sie darf weder ganz noch teilweise verfielfältigt und nicht an Dritte weitergegeben werden.
 50
90.0
 41
0.8
  7
GREEKS
100
AcDbText
  0
TEXT
  5
52B
330
1E
100
AcDbEntity
  8
TEXT
 62
     1
100
AcDbText
 10
582.0000000000001
 20
88.19826583703191
 30
0.0
 40
7.0
  1
1:2
 41
0.8
 72
     1
 11
588.0000000000001
 21
88.19826583703191
 31
0.0
100
AcDbText
  0
TEXT
  5
52C
330
1E
100
AcDbEntity
  8
TEXT
100
AcDbText
 10
613.0095238095239
 20
87.9745185882199
 30
0.0
 40
4.0
  1
DIN EN1124-3
 41
0.8
 72
     1
 11
630.0000000000001
 21
87.9745185882199
 31
0.0
100
AcDbText
  0
TEXT
  5
52D
330
1E
100
AcDbEntity
  8
TEXT
 62
     1
100
AcDbText
 10
654.979117340995
 20
88.11526361764498
 30
0.0
 40
7.0
  1
Unterteileinheit DN70
 41
0.75
100
AcDbText
  0
TEXT
  5
52E
330
1E
100
AcDbEntity
  8
TEXT
 62
     1
100
AcDbText
 10
766.9044394842363
 20
87.85751751156183
 30
0.0
 40
7.0
  1
21995070W
 41
0.8
 72
     1
 11
790.3711061509031
 21
87.85751751156183
 31
0.0
100
AcDbText
  0
TEXT
  5
52F
330
1E
100
AcDbEntity
  8
TEXT
100
AcDbText
 10
654.862987254257
 20
72.0
 30
0.0
 40
5.0
  1
seitlich mit Wärmedämmung
 41
0.8
100
AcDbText
  0
TEXT
  5
530
330
1E
100
AcDbEntity
  8
TEXT
100
AcDbText
 10
654.862987254257
 20
62.0
 30
0.0
 40
5.0
  1
Edelstahl
 41
0.8
100
AcDbText
  0
TEXT
  5
531
330
1E
100
AcDbEntity
  8
TEXT
100
AcDbText
 10
655.162303158329
 20
52.0
 30
0.0
 40
5.0
  1
EDV-Art.Nr. 21995.070X
 41
0.8
100
AcDbText
  0
TEXT
  5
532
330
1E
100
AcDbEntity
  8
TEXT
100
AcDbText
 10
654.9713400534566
 20
42.0
 30
0.0
 40
4.0
  1
21995070W.DWG
 41
0.8
100
AcDbText
  0
TEXT
  5
533
330
1E
100
AcDbEntity
  8
TEXT
100
AcDbText
 10
624.7428571428572
 20
63.0
 30
0.0
 40
4.0
  1
Koeh
 41
0.8
 72
     4
 11
630.0000000000001
 21
65.0
 31
0.0
100
AcDbText
  0
TEXT
  5
534
330
1E
100
AcDbEntity
  8
TEXT
100
AcDbText
 10
589.9904761904763
 20
63.00000000000001
 30
0.0
 40
4.0
  1
28.03.
 41
0.8
 72
     4
 11
597.0000000000001
 21
65.00000000000001
 31
0.0
100
AcDbText
  0
ARC
  5
AA1
102
{ACAD_REACTORS
330
CF0
102
}
330
1E
100
AcDbEntity
  8
STEMPEL
100
AcDbCircle
 10
425.3011432908287
 20
345.1167685300104
 30
0.0
 40
8.0
100
AcDbArc
 50
90.0
 51
137.4999999999926
  0
LINE
  5
AA2
102
{ACAD_REACTORS
330
CF0
102
}
330
1E
100
AcDbEntity
  8
STEMPEL
100
AcDbLine
 10
420.8774792699681
 20
349.1703097757047
 30
0.0
 11
410.7487748432501
 21
338.1167685300105
 31
0.0
  0
HATCH
  5
AA3
330
1E
100
AcDbEntity
  8
SCHRAFF
100
AcDbHatch
 10
0.0
 20
0.0
 30
0.0
210
0.0
220
0.0
230
1.0
  2
HONEY
 70
     0
 71
     0
 91
        2
 92
        7
 72
     1
 73
     1
 93
        9
 10
496.7810590436942
 20
347.1167685300106
 42
0.0
 10
476.7810590436941
 20
347.1167685300105
 42
0.0
 10
476.7810590436942
 20
349.1167685300101
 42
0.0
 10
424.8521268555594
 20
349.1167685300101
 42
0.0
 10
409.9377094427836
 20
334.202351117235
 42
0.6494075931975111
 10
412.5567927425576
 20
327.3794058534704
 42
0.0
 10
559.0814383887866
 20
319.7003745649171
 42
0.0
 10
560.8327173881446
 20
353.1167685300101
 42
0.0
 10
496.7810590436942
 20
353.1167685300101
 42
0.0
 97
        0
 92
        7
 72
     1
 73
     1
 93
       12
 10
553.6528516263675
 20
216.1167685300103
 42
0.0
 10
554.7375540206221
 20
236.8141231802873
 42
0.0
 10
327.281059043694
 20
248.7346129655324
 42
0.0
 10
327.281059043694
 20
280.2778418644674
 42
0.0
 10
317.2810590436933
 20
280.8019196572976
 42
0.0
 10
317.2810590436942
 20
300.8293665772559
 42
0.0
 10
327.2810590436941
 20
300.3052887844254
 42
0.0
 10
327.2810590436942
 20
322.2614294706844
 42
0.1989123673796738
 10
321.4231946674241
 20
336.4035650944162
 42
0.0
 10
308.7099912318287
 20
349.1167685300101
 42
0.0
 10
291.7810590436941
 20
349.1167685300101
 42
0.0
 10
304.6555356196074
 20
216.1167685300103
 42
0.0
 97
        0
 75
     0
 76
     1
 52
0.0
 41
40.0
 77
     0
 78
     3
 53
0.0
 43
-79.28250629917318
 44
-162.8382105324575
 45
7.5
 46
4.330127
 79
     2
 49
5.0
 49
-10.0
 53
120.0
 43
-79.28250629917318
 44
-162.8382105324575
 45
-7.499999983612898
 46
4.330127028383291
 79
     2
 49
4.999999999999996
 49
-9.999999999999992
 53
60.0
 43
-79.28250629917318
 44
-162.8382105324575
 45
0.0000000163871017
 46
8.66025402838329
 79
     2
 49
-10.0
 49
5.0
 47
0.5475598881485297
 98
        2
 10
500.8939490957614
 20
336.2509270076706
 10
345.8324138564045
 20
227.8340683713572
  0
LINE
  5
AA4
330
1E
100
AcDbEntity
  8
STEMPEL
100
AcDbLine
 10
412.5567927425582
 20
327.3794058534703
 30
0.0
 11
559.0814383887865
 21
319.7003745649171
 31
0.0
  0
LINE
  5
AA5
330
1E
100
AcDbEntity
  8
STEMPEL
100
AcDbLine
 10
327.281059043694
 20
248.7346129655324
 30
0.0
 11
554.737554020622
 21
236.8141231802873
 31
0.0
  0
DIMENSION
  5
AA6
330
1E
100
AcDbEntity
  8
SCHRAFF
100
AcDbDimension
  2
*D5
 10
553.6528516263675
 20
193.9736199490575
 30
0.0
 11
429.1541936229874
 21
200.4736199490575
 31
0.0
 70
    32
 71
     5
 42
248.9973160067602
  3
Standard
100
AcDbAlignedDimension
 13
304.6555356196074
 23
216.1167685300103
 33
0.0
 14
553.6528516263675
 24
216.1167685300103
 34
0.0
100
AcDbRotatedDimension
1001
ACAD
1000
DSTYLE
1002
{
1070
    40
1040
2.0
1070
    41
1040
3.5
1070
    42
1040
1.0
1070
    43
1040
7.0
1070
    44
1040
1.0
1070
    47
1040
2.0
1070
    48
1040
2.0
1070
    73
1070
     0
1070
    74
1070
     0
1070
    77
1070
     1
1070
    78
1070
     8
1070
    79
1070
     2
1070
   140
1040
3.5
1070
   141
1040
1.5
1070
   146
1040
0.5142857142857144
1070
   147
1040
1.5
1070
   172
1070
     1
1070
   178
1070
     1
1070
   179
1070
     1
1070
   271
1070
     0
1070
   272
1070
     0
1070
   279
1070
     0
1002
}
  0
LINE
  5
AA7
330
1E
100
AcDbEntity
  8
STEMPEL
100
AcDbLine
 10
304.6555356196074
 20
216.1167685300103
 30
0.0
 11
553.6528516263675
 21
216.1167685300103
 31
0.0
  0
LINE
  5
AA8
330
1E
100
AcDbEntity
  8
STEMPEL
100
AcDbLine
 10
424.8521268555594
 20
349.1167685300101
 30
0.0
 11
409.9377094427836
 21
334.202351117235
 31
0.0
  0
LINE
  5
AAA
102
{ACAD_REACTORS
330
CF0
330
E3D
102
}
330
1E
100
AcDbEntity
  8
STEMPEL
100
AcDbLine
 10
407.9044146649544
 20
353.1167685300104
 30
0.0
 11
489.2810590436941
 21
353.1167685300104
 31
0.0
  0
LINE
  5
AAB
102
{ACAD_REACTORS
330
E3D
102
}
330
1E
100
AcDbEntity
  8
STEMPEL
100
AcDbLine
 10
406.8773213674464
 20
356.1167685300103
 30
0.0
 11
489.2810590436941
 21
356.1167685300103
 31
0.0
  0
LINE
  5
AAC
102
{ACAD_REACTORS
330
D2E
102
}
330
1E
100
AcDbEntity
  8
STEMPEL
100
AcDbLine
 10
403.2810590436944
 20
320.8559200358638
 30
0.0
 11
646.7009147032804
 21
308.0988259673467
 31
0.0
  0
LINE
  5
AAD
102
{ACAD_REACTORS
330
D2E
102
}
330
1E
100
AcDbEntity
  8
STEMPEL
100
AcDbLine
 10
401.7810590436944
 20
319.4324731857916
 30
0.0
 11
646.5926318518008
 21
306.6024423121302
 31
0.0
  0
DIMENSION
  5
AAF
330
1E
100
AcDbEntity
  8
BEM
100
AcDbDimension
  2
*D6
 10
651.7810590436944
 20
175.5510946659972
 30
0.0
 11
509.2810590436942
 21
182.0510946659972
 31
0.0
 70
    32
 71
     5
 42
285.0000000000002
  3
Standard
100
AcDbAlignedDimension
 13
366.7810590436942
 23
193.9736199490575
 33
0.0
 14
651.7810590436944
 24
271.282496255104
 34
0.0
100
AcDbRotatedDimension
1001
ACAD
1000
DSTYLE
1002
{
1070
    40
1040
2.0
1070
    41
1040
3.5
1070
    42
1040
1.0
1070
    43
1040
7.0
1070
    44
1040
1.0
1070
    47
1040
2.0
1070
    48
1040
2.0
1070
    73
1070
     0
1070
    74
1070
     0
1070
    77
1070
     1
1070
    78
1070
     8
1070
    79
1070
     2
1070
   140
1040
3.5
1070
   141
1040
1.5
1070
   146
1040
0.5142857142857144
1070
   147
1040
1.5
1070
   172
1070
     1
1070
   178
1070
     1
1070
   179
1070
     1
1070
   271
1070
     1
1070
   272
1070
     1
1070
   279
1070
     0
1002
}
  0
LINE
  5
AB0
102
{ACAD_REACTORS
330
D2E
102
}
330
1E
100
AcDbEntity
  8
STEMPEL
100
AcDbLine
 10
330.2810590436942
 20
251.5815066656776
 30
0.0
 11
642.8803898975449
 21
235.1988699302626
 31
0.0
  0
LINE
  5
AB1
102
{ACAD_REACTORS
330
D2E
102
}
330
1E
100
AcDbEntity
  8
STEMPEL
100
AcDbLine
 10
331.7810590436942
 20
253.0049535157502
 30
0.0
 11
642.9054638848561
 21
236.6996143772667
 31
0.0
  0
DIMENSION
  5
AB2
330
1E
100
AcDbEntity
  8
BEM
100
AcDbDimension
  2
*D7
 10
622.3439985696601
 20
272.8252272231687
 30
0.0
 11
423.4321794260798
 21
264.5916442522431
 31
0.0
 70
    34
 71
     5
 42
0.0523598775598222
  3
Standard
100
AcDb2LineAngularDimension
 13
366.7810590436944
 23
286.2187133507709
 33
0.0
 14
364.7810590436944
 24
286.2187133507709
 34
0.0
 15
366.7810590436942
 25
286.2187133507709
 35
0.0
 16
433.592018773018
 26
285.0525237107787
 36
0.0
1001
ACAD
1000
DSTYLE
1002
{
1070
    40
1040
2.0
1070
    41
1040
3.5
1070
    42
1040
1.0
1070
    43
1040
7.0
1070
    44
1040
1.0
1070
    47
1040
2.0
1070
    48
1040
2.0
1070
    73
1070
     0
1070
    74
1070
     0
1070
    77
1070
     1
1070
    78
1070
     8
1070
    79
1070
     2
1070
   140
1040
3.5
1070
   141
1040
1.5
1070
   146
1040
0.5142857142857144
1070
   147
1040
1.5
1070
   172
1070
     1
1070
   178
1070
     1
1070
   179
1070
     1
1070
   271
1070
     1
1070
   272
1070
     1
1070
   279
1070
     0
1002
}
  0
LINE
  5
AB3
330
1E
100
AcDbEntity
  8
MITTEL
100
AcDbLine
 10
366.7810590436942
 20
286.2187133507709
 30
0.0
 11
656.7742067174674
 21
271.0208164738892
 31
0.0
  0
DIMENSION
  5
AB4
330
1E
100
AcDbEntity
  8
BEM
100
AcDbDimension
  2
*D8
 10
489.2810590436946
 20
391.3437944493007
 30
0.0
 11
366.7810590436944
 21
397.8437944493007
 31
0.0
 70
    32
  1
%%c<>
 71
     5
 42
245.0000000000005
  3
Standard
100
AcDbAlignedDimension
 13
244.2810590436942
 23
349.1774287017897
 33
0.0
 14
489.2810590436946
 24
349.1774287017897
 34
0.0
100
AcDbRotatedDimension
1001
ACAD
1000
DSTYLE
1002
{
1070
    40
1040
2.0
1070
    41
1040
3.5
1070
    42
1040
1.0
1070
    43
1040
7.0
1070
    44
1040
1.0
1070
    47
1040
2.0
1070
    48
1040
2.0
1070
    73
1070
     0
1070
    74
1070
     0
1070
    77
1070
     1
1070
    78
1070
     8
1070
    79
1070
     2
1070
   140
1040
3.5
1070
   141
1040
1.5
1070
   146
1040
0.5142857142857144
1070
   147
1040
1.5
1070
   172
1070
     1
1070
   178
1070
     1
1070
   179
1070
     1
1070
   271
1070
     1
1070
   272
1070
     1
1070
   279
1070
     0
1002
}
  0
LINE
  5
AB5
330
1E
100
AcDbEntity
  8
TEXT
 62
     2
100
AcDbLine
 10
405.6715377541315
 20
510.3866760719388
 30
0.0
 11
443.8395050237671
 21
543.3082002156097
 31
0.0
  0
LINE
  5
AB8
102
{ACAD_REACTORS
330
CD0
102
}
330
1E
100
AcDbEntity
  8
STEMPEL
100
AcDbLine
 10
281.7810590436947
 20
359.1167685300103
 30
0.0
 11
492.0421233773973
 21
359.1167685300103
 31
0.0
  0
LINE
  5
ABA
102
{ACAD_REACTORS
330
CD0
102
}
330
1E
100
AcDbEntity
  8
STEMPEL
100
AcDbLine
 10
254.7810590436948
 20
365.1167685300107
 30
0.0
 11
475.6232018191207
 21
365.1167685300111
 31
0.0
  0
HATCH
  5
ABB
330
1E
100
AcDbEntity
  8
SCHRAFF
100
AcDbHatch
 10
0.0
 20
0.0
 30
0.0
210
0.0
220
0.0
230
1.0
  2
_USER
 70
     0
 71
     0
 91
        2
 92
        7
 72
     1
 73
     1
 93
       14
 10
331.7810590436941
 20
325.2455826035034
 42
0.1316524975874043
 10
330.2403511872152
 20
330.9955826035038
 42
0.0
 10
327.6208050058496
 20
335.5327696824019
 42
-0.1316524975873951
 10
326.2810590436941
 20
340.5327696824019
 42
0.0
 10
326.2810590436941
 20
346.5678461228917
 42
-0.1174534402570155
 10
328.7937366674634
 20
357.1167685300104
 42
0.0
 10
327.1260100291479
 20
357.1167685300104
 42
0.1098063296705094
 10
324.7810590436941
 20
346.5678461228915
 42
0.0
 10
324.7810590436941
 20
340.5327696824019
 42
0.1316524975873904
 10
326.321766900173
 20
334.7827696824022
 42
0.0
 10
328.9413130815387
 20
330.2455826035033
 42
-0.1316524975873914
 10
330.2810590436941
 20
325.2455826035035
 42
0.0
 10
330.281059043694
 20
251.5815066656774
 42
0.0
 10
331.781059043694
 20
253.0049535157498
 42
0.0
 97
        0
 92
        7
 72
     1
 73
     1
 93
       14
 10
406.4361080582406
 20
357.1167685300104
 42
0.0
 10
404.768381419925
 20
357.1167685300104
 42
-0.1174534402570096
 10
407.2810590436942
 20
346.5678461228923
 42
0.0
 10
407.2810590436945
 20
340.5327696824019
 42
-0.1316524975873954
 10
405.9413130815388
 20
335.5327696824019
 42
0.0
 10
403.321766900173
 20
330.9955826035036
 42
0.1316524975873947
 10
401.7810590436942
 20
325.2455826035036
 42
0.0
 10
401.7810590436942
 20
319.4324731857914
 42
0.0
 10
403.281059043694
 20
320.8559200358633
 42
0.0
 10
403.281059043694
 20
325.2455826035034
 42
-0.1316524975873911
 10
404.6208050058496
 20
330.2455826035031
 42
0.0
 10
407.2403511872154
 20
334.7827696824022
 42
0.1316524975873896
 10
408.7810590436943
 20
340.5327696824019
 42
0.0
 10
408.7810590436943
 20
346.5678461228917
 42
0.1098063296705072
 97
        0
 75
     0
 76
     0
 52
135.0
 41
2.0
 77
     0
 78
     1
 53
135.0
 43
19.56996706571925
 44
-14.69576293093814
 45
-1.414213562373095
 46
-1.414213562373094
 79
     0
 47
0.2171429602251947
 98
        2
 10
330.8420390959338
 20
322.4753298576863
 10
407.7683956384404
 20
347.2296266670696
  0
LINE
  5
ABC
330
1E
100
AcDbEntity
  8
STEMPEL
100
AcDbLine
 10
331.7810590436941
 20
325.2455826035034
 30
0.0
 11
331.781059043694
 21
253.00495351575
 31
0.0
  0
LINE
  5
ABD
330
1E
100
AcDbEntity
  8
STEMPEL
100
AcDbLine
 10
330.2810590436941
 20
325.2455826035034
 30
0.0
 11
330.281059043694
 21
251.5815066656774
 31
0.0
  0
LINE
  5
ABE
330
1E
100
AcDbEntity
  8
STEMPEL
100
AcDbLine
 10
317.2810590436942
 20
300.8293665772559
 30
0.0
 11
317.2810590436933
 21
280.8019196572976
 31
0.0
  0
LINE
  5
ABF
330
1E
100
AcDbEntity
  8
STEMPEL
100
AcDbLine
 10
291.7810590436941
 20
349.1167685300101
 30
0.0
 11
304.6555356196074
 21
216.1167685300103
 31
0.0
  0
HATCH
  5
AC0
330
1E
100
AcDbEntity
  8
BEM
100
AcDbHatch
 10
0.0
 20
0.0
 30
0.0
210
0.0
220
0.0
230
1.0
  2
_USER
 70
     0
 71
     0
 91
        2
 92
        7
 72
     1
 73
     1
 93
        3
 10
403.2810590436942
 20
323.8559200358638
 42
0.0
 10
403.2810590436942
 20
320.8559200358638
 42
0.0
 10
406.276947647958
 20
320.6989121671351
 42
0.4296339059668427
 97
        0
 92
        7
 72
     1
 73
     1
 93
        3
 10
334.1893308784691
 20
251.3766828179826
 42
0.0
 10
330.2810590436942
 20
251.5815066656775
 42
0.0
 10
330.2810590436942
 20
255.4951420016639
 42
1.39845799594815
 97
        0
 75
     0
 76
     0
 52
0.0
 41
0.1
 77
     0
 78
     1
 53
0.0
 43
0.0
 44
0.0
 45
0.0
 46
0.1
 79
     0
 47
0.2198132944329655
 98
        2
 10
404.4822321458995
 20
322.3002643048209
 10
331.2361774867712
 20
250.641127181189
  0
LINE
  5
AC1
102
{ACAD_REACTORS
330
D2E
102
}
330
1E
100
AcDbEntity
  8
STEMPEL
100
AcDbLine
 10
403.2810590436943
 20
320.8559200358638
 30
0.0
 11
330.2810590436942
 21
251.5815066656776
 31
0.0
  0
LINE
  5
AC2
330
1E
100
AcDbEntity
  8
MITTEL
100
AcDbLine
 10
366.7810590436941
 20
370.1167685300108
 30
0.0
 11
366.7810590436943
 21
286.2187133507709
 31
0.0
  0
TEXT
  5
AC3
330
1E
100
AcDbEntity
  8
TEXT
 62
     1
100
AcDbText
 10
153.5438703849415
 20
247.6997657089497
 30
0.0
 40
7.0
  1
Wärmedämmung DN70
 41
0.8
  7
GREEKS
100
AcDbText
  0
TEXT
  5
AC4
330
1E
100
AcDbEntity
  8
TEXT
 62
     1
100
AcDbText
 10
153.5438703849415
 20
234.5550678698856
 30
0.0
 40
7.0
  1
EDV-Art.Nr. 19843.070X
 41
0.8
  7
GREEKS
100
AcDbText
  0
LINE
  5
AC5
330
1E
100
AcDbEntity
  8
TEXT
 62
     2
100
AcDbLine
 10
151.1388444569545
 20
245.3136349635048
 30
0.0
 11
271.8086151144826
 21
245.3136349635046
 31
0.0
  0
LINE
  5
AC6
330
1E
100
AcDbEntity
  8
TEXT
 62
     2
100
AcDbLine
 10
271.8086151144826
 20
245.3136349635046
 30
0.0
 11
304.6804139948595
 21
278.8347434675425
 31
0.0
  0
LINE
  5
AC7
102
{ACAD_REACTORS
330
D2E
102
}
330
1E
100
AcDbEntity
  8
BEM
100
AcDbLine
 10
366.7810590436943
 20
286.2187133507709
 30
0.0
 11
366.7810590436943
 21
197.8425921679195
 31
0.0
  0
LINE
  5
AC8
330
1E
100
AcDbEntity
  8
STEMPEL
100
AcDbLine
 10
327.281059043694
 20
280.277841864467
 30
0.0
 11
327.281059043694
 21
248.6326681447721
 31
0.0
  0
ARC
  5
AC9
330
1E
100
AcDbEntity
  8
SCHRAFF
100
AcDbCircle
 10
331.531571985916
 20
252.7681991380645
 30
0.0
 40
3.0
100
AcDbArc
 50
114.635095313267
 51
332.3649046867313
  0
LINE
  5
ACA
330
1E
100
AcDbEntity
  8
STEMPEL
100
AcDbLine
 10
317.2810590436933
 20
280.8019196572976
 30
0.0
 11
330.281059043694
 21
280.1206185266183
 31
0.0
  0
LINE
  5
ACB
330
1E
100
AcDbEntity
  8
TEXT
 62
     2
100
AcDbLine
 10
99.40135906582817
 20
414.0514761939678
 30
0.0
 11
206.8138197575992
 21
414.0514761939675
 31
0.0
  0
TEXT
  5
ACC
330
1E
100
AcDbEntity
  8
TEXT
 62
     1
100
AcDbText
 10
101.806384993815
 20
417.3500437905129
 30
0.0
 40
7.0
  1
Losflansch DN70
 41
0.8
  7
GREEKS
100
AcDbText
  0
TEXT
  5
ACD
330
1E
100
AcDbEntity
  8
TEXT
 62
     1
100
AcDbText
 10
101.806384993815
 20
404.2053459514488
 30
0.0
 40
7.0
  1
EDV-Art.Nr. 21905.070X
 41
0.8
  7
GREEKS
100
AcDbText
  0
LINE
  5
ACF
102
{ACAD_REACTORS
330
E3D
102
}
330
1E
100
AcDbEntity
  8
STEMPEL
100
AcDbLine
 10
244.2810590436941
 20
353.1167685300104
 30
0.0
 11
325.6577034224338
 21
353.1167685300104
 31
0.0
  0
LINE
  5
AD0
102
{ACAD_REACTORS
330
CF0
102
}
330
1E
100
AcDbEntity
  8
STEMPEL
100
AcDbLine
 10
250.4985734649662
 20
351.1167685300105
 30
0.0
 11
308.2609747965596
 21
351.11676853001
 31
0.0
  0
LINE
  5
AD1
330
1E
100
AcDbEntity
  8
STEMPEL
100
AcDbLine
 10
291.9120837912238
 20
347.7632151394164
 30
0.0
 11
245.6952726060671
 21
347.7632151394164
 31
0.0
  0
LINE
  5
AD2
102
{ACAD_REACTORS
330
CF0
330
E3D
102
}
330
1E
100
AcDbEntity
  8
STEMPEL
100
AcDbLine
 10
250.4985734649662
 20
353.1167685300104
 30
0.0
 11
325.6577034224338
 21
353.1167685300104
 31
0.0
  0
LINE
  5
AD3
330
1E
100
AcDbEntity
  8
TEXT
 62
     2
100
AcDbLine
 10
254.7810590436941
 20
363.8772329090835
 30
0.0
 11
206.8138197575992
 21
414.0514761939675
 31
0.0
  0
LINE
  5
AD5
102
{ACAD_REACTORS
330
CD0
102
}
330
1E
100
AcDbEntity
  8
STEMPEL
100
AcDbLine
 10
254.7810590436948
 20
359.1167685300103
 30
0.0
 11
271.7810590436946
 21
359.1167685300103
 31
0.0
  0
LINE
  5
AD7
102
{ACAD_REACTORS
330
E3D
102
}
330
1E
100
AcDbEntity
  8
STEMPEL
100
AcDbLine
 10
244.2810590436941
 20
353.1167685300104
 30
0.0
 11
244.2810590436941
 21
356.1167685300104
 31
0.0
  0
LINE
  5
AD8
102
{ACAD_REACTORS
330
CF0
102
}
330
1E
100
AcDbEntity
  8
STEMPEL
100
AcDbLine
 10
245.6952726060671
 20
347.7632151394166
 30
0.0
 11
248.0236997308133
 21
350.0916422641628
 31
0.0
  0
ARC
  5
AD9
102
{ACAD_REACTORS
330
CF0
102
}
330
1E
100
AcDbEntity
  8
STEMPEL
100
AcDbCircle
 10
250.4985734649662
 20
347.61676853001
 30
0.0
 40
5.499999999999851
100
AcDbArc
 50
90.0
 51
134.9999999999997
  0
LINE
  5
ADA
102
{ACAD_REACTORS
330
CF0
102
}
330
1E
100
AcDbEntity
  8
STEMPEL
100
AcDbLine
 10
244.2810590436942
 20
349.1774287017897
 30
0.0
 11
245.6952726060671
 21
347.7632151394164
 31
0.0
  0
LINE
  5
ADB
102
{ACAD_REACTORS
330
CF0
102
}
330
1E
100
AcDbEntity
  8
STEMPEL
100
AcDbLine
 10
244.2810590436942
 20
349.1774287017897
 30
0.0
 11
246.60948616844
 21
351.5058558265359
 31
0.0
  0
ARC
  5
ADC
102
{ACAD_REACTORS
330
CF0
102
}
330
1E
100
AcDbEntity
  8
STEMPEL
100
AcDbCircle
 10
250.4985734649662
 20
347.61676853001
 30
0.0
 40
3.499999999999851
100
AcDbArc
 50
90.0
 51
134.9999999999997
  0
ARC
  5
ADE
102
{ACAD_REACTORS
330
CD0
102
}
330
1E
100
AcDbEntity
  8
STEMPEL
100
AcDbCircle
 10
254.7810590436948
 20
362.1167685300102
 30
0.0
 40
3.000000000000682
100
AcDbArc
 50
90.00000000001303
 51
269.999999999987
  0
LWPOLYLINE
  5
AE1
330
1E
100
AcDbEntity
  8
STEMPEL
100
AcDbPolyline
 90
       10
 70
   128
 43
0.0
 10
257.1773167203659
 20
365.1167685300109
 10
257.4611568427416
 20
365.1914040586043
 10
257.7363726266291
 20
365.4130428816154
 10
257.9946017797007
 20
365.7749506155616
 10
258.2279981398104
 20
366.2661308770814
 10
258.429470076661
 20
366.8716594024774
 10
258.5928959674005
 20
367.5731375139179
 10
258.7133101990367
 20
368.3492511539517
 10
258.7870540460737
 20
369.1764185023588
 10
258.8118868390353
 20
370.0295064978248
  0
LINE
  5
AE2
330
1E
100
AcDbEntity
  8
STEMPEL
100
AcDbLine
 10
271.7810590436946
 20
365.1167685300109
 30
0.0
 11
271.7810590436946
 21
353.1167685300104
 31
0.0
  0
LINE
  5
AE3
102
{ACAD_REACTORS
330
E3D
102
}
330
1E
100
AcDbEntity
  8
STEMPEL
100
AcDbLine
 10
270.2810590436941
 20
353.1167685300102
 30
0.0
 11
270.2810590436941
 21
356.1167685300104
 31
0.0
  0
LINE
  5
AE5
102
{ACAD_REACTORS
330
CD0
102
}
330
1E
100
AcDbEntity
  8
STEMPEL
100
AcDbLine
 10
269.781059043694
 20
365.1167685300114
 30
0.0
 11
269.7810590436938
 21
359.1167685300093
 31
0.0
  0
LINE
  5
AE6
330
1E
100
AcDbEntity
  8
HILF
100
AcDbLine
 10
272.7810590436947
 20
365.1167685300109
 30
0.0
 11
272.7810590436947
 21
353.1167685300104
 31
0.0
  0
LINE
  5
AE7
330
1E
100
AcDbEntity
  8
HILF
100
AcDbLine
 10
280.7810590436947
 20
365.1167685300109
 30
0.0
 11
280.7810590436947
 21
353.1167685300103
 31
0.0
  0
LINE
  5
AE8
330
1E
100
AcDbEntity
  8
STEMPEL
100
AcDbLine
 10
281.7810590436947
 20
365.1167685300109
 30
0.0
 11
281.7810590436947
 21
353.1167685300103
 31
0.0
  0
LINE
  5
AE9
102
{ACAD_REACTORS
330
CF0
102
}
330
1E
100
AcDbEntity
  8
MITTEL
100
AcDbLine
 10
276.7810590436941
 20
351.1167685300102
 30
0.0
 11
276.7810590436941
 21
364.1167685300104
 31
0.0
  0
LINE
  5
AEA
102
{ACAD_REACTORS
330
E3D
102
}
330
1E
100
AcDbEntity
  8
STEMPEL
100
AcDbLine
 10
283.2810590436941
 20
353.1167685300102
 30
0.0
 11
283.2810590436941
 21
356.1167685300104
 31
0.0
  0
LINE
  5
AED
102
{ACAD_REACTORS
330
CD0
102
}
330
1E
100
AcDbEntity
  8
STEMPEL
100
AcDbLine
 10
283.7810590436937
 20
365.1167685300114
 30
0.0
 11
283.7810590436937
 21
359.1167685300096
 31
0.0
  0
LINE
  5
AF2
330
1E
100
AcDbEntity
  8
STEMPEL
100
AcDbLine
 10
258.9705055878265
 20
379.1167685300122
 30
0.0
 11
281.2012495197333
 21
379.1167685300105
 31
0.0
  0
LINE
  5
AF7
330
1E
100
AcDbEntity
  8
MITTEL
100
AcDbLine
 10
269.9919515281639
 20
384.1167685300114
 30
0.0
 11
269.9919515281639
 21
370.2998579692588
 31
0.0
  0
LINE
  5
AF8
330
1E
100
AcDbEntity
  8
STEMPEL
100
AcDbLine
 10
258.9705055878265
 20
379.1167685300122
 30
0.0
 11
258.8118868390353
 21
370.0295064978261
 31
0.0
  0
LINE
  5
AF9
330
1E
100
AcDbEntity
  8
STEMPEL
100
AcDbLine
 10
271.8146708442802
 20
379.1167685300114
 30
0.0
 11
271.8146708442802
 21
377.1503803305962
 31
0.0
  0
LINE
  5
AFF
330
1E
100
AcDbEntity
  8
MITTEL
100
AcDbLine
 10
276.7810590436942
 20
383.1167685300105
 30
0.0
 11
276.781059043694
 21
369.6167685300104
 31
0.0
  0
LINE
  5
B00
330
1E
100
AcDbEntity
  8
STEMPEL
100
AcDbLine
 10
281.2012495197333
 20
379.1167685300105
 30
0.0
 11
281.2264794263612
 21
377.6713481473436
 31
0.0
  0
HATCH
  5
B0C
330
1E
100
AcDbEntity
  8
SCHRAFF
100
AcDbHatch
 10
0.0
 20
0.0
 30
0.0
210
0.0
220
0.0
230
1.0
  2
_USER
 70
     0
 71
     0
 91
        2
 92
        7
 72
     1
 73
     1
 93
        5
 10
325.4393599224401
 20
336.6977259845806
 42
-0.0620596133380967
 10
324.8297711119659
 20
339.4754122666454
 42
0.0
 10
324.2960427038523
 20
339.4754122666454
 42
0.0
 10
322.8133432441381
 20
338.1167685300105
 42
0.0
 10
321.3026776149762
 20
339.7653707733879
 42
0.5672726747274536
 97
        0
 92
        7
 72
     1
 73
     1
 93
        5
 10
409.2660753835358
 20
339.4754122666454
 42
0.0
 10
408.7323469754228
 20
339.4754122666454
 42
-0.0618515723663064
 10
408.1259336209034
 20
336.7067148729919
 42
0.5677098725483778
 10
412.2662793464758
 20
339.7728340947914
 42
0.0
 10
410.7487748432501
 20
338.1167685300104
 42
0.0
 97
        0
 75
     0
 76
     0
 52
0.0
 41
0.1
 77
     0
 78
     1
 53
0.0
 43
0.0
 44
0.0
 45
0.0
 46
0.1
 79
     0
 47
0.2171429602251947
 98
        2
 10
324.1055503454474
 20
337.45819386321
 10
409.5068430633479
 20
337.8924793305084
  0
LINE
  5
B0D
330
1E
100
AcDbEntity
  8
STEMPEL
100
AcDbLine
 10
406.4361080582406
 20
357.1167685300104
 30
0.0
 11
327.1260100291479
 21
357.1167685300104
 31
0.0
  0
LINE
  5
B0E
330
1E
100
AcDbEntity
  8
TEXT
 62
     2
100
AcDbLine
 10
332.9357391986903
 20
328.2220016221824
 30
0.0
 11
400.6263788886982
 21
328.2220016221824
 31
0.0
  0
LINE
  5
B0F
102
{ACAD_REACTORS
330
CF0
102
}
330
1E
100
AcDbEntity
  8
STEMPEL
100
AcDbLine
 10
312.6846388174201
 20
349.1703097757047
 30
0.0
 11
322.8133432441381
 21
338.1167685300105
 31
0.0
  0
LINE
  5
B10
102
{ACAD_REACTORS
330
CF0
102
}
330
1E
100
AcDbEntity
  8
STEMPEL
100
AcDbLine
 10
314.1591934910402
 20
350.5214901909359
 30
0.0
 11
324.2878979177584
 21
339.4679489452418
 31
0.0
  0
LINE
  5
B11
330
1E
100
AcDbEntity
  8
STEMPEL
100
AcDbLine
 10
326.2810590436941
 20
346.5678461228917
 30
0.0
 11
326.2810590436941
 21
340.5327696824019
 31
0.0
  0
LINE
  5
B12
330
1E
100
AcDbEntity
  8
STEMPEL
100
AcDbLine
 10
324.7810590436941
 20
346.5678461228917
 30
0.0
 11
324.7810590436941
 21
340.5327696824019
 31
0.0
  0
LINE
  5
B13
330
1E
100
AcDbEntity
  8
STEMPEL
100
AcDbLine
 10
308.7099912318287
 20
349.1167685300101
 30
0.0
 11
321.4231946674241
 21
336.4035650944162
 31
0.0
  0
ARC
  5
B14
330
1E
100
AcDbEntity
  8
SCHRAFF
100
AcDbCircle
 10
324.2878979177584
 20
339.4679489452418
 30
0.0
 40
3.0
100
AcDbArc
 50
174.3103148957774
 51
292.5705454002754
  0
LINE
  5
B15
330
1E
100
AcDbEntity
  8
STEMPEL
100
AcDbLine
 10
317.2810590436942
 20
300.8293665772559
 30
0.0
 11
330.2810590436941
 21
300.1480654465764
 31
0.0
  0
ARC
  5
B16
330
1E
100
AcDbEntity
  8
STEMPEL
100
AcDbCircle
 10
307.2810590436942
 20
322.2614294706844
 30
0.0
 40
20.0
100
AcDbArc
 50
0.0
 51
45.00000000000087
  0
LINE
  5
B17
330
1E
100
AcDbEntity
  8
STEMPEL
100
AcDbLine
 10
327.2810590436942
 20
322.2614294706844
 30
0.0
 11
327.2810590436941
 21
300.3052887844254
 31
0.0
  0
LINE
  5
B18
330
1E
100
AcDbEntity
  8
STEMPEL
100
AcDbLine
 10
328.9413130815387
 20
330.2455826035033
 30
0.0
 11
326.321766900173
 21
334.7827696824022
 31
0.0
  0
LINE
  5
B19
330
1E
100
AcDbEntity
  8
STEMPEL
100
AcDbLine
 10
330.2403511872153
 20
330.9955826035036
 30
0.0
 11
327.6208050058496
 21
335.5327696824019
 31
0.0
  0
ARC
  5
B1A
330
1E
100
AcDbEntity
  8
STEMPEL
100
AcDbCircle
 10
320.2810590436943
 20
325.2455826035034
 30
0.0
 40
10.0
100
AcDbArc
 50
0.0
 51
29.99999999999993
  0
ARC
  5
B1B
330
1E
100
AcDbEntity
  8
STEMPEL
100
AcDbCircle
 10
320.2810590436943
 20
325.2455826035034
 30
0.0
 40
11.5
100
AcDbArc
 50
0.0
 51
29.99999999999993
  0
LINE
  5
B1C
102
{ACAD_REACTORS
330
CF0
102
}
330
1E
100
AcDbEntity
  8
STEMPEL
100
AcDbLine
 10
322.8133432441381
 20
338.1167685300105
 30
0.0
 11
324.2878979177584
 21
339.4679489452418
 31
0.0
  0
LINE
  5
B1D
330
1E
100
AcDbEntity
  8
STEMPEL
100
AcDbLine
 10
324.2810590436945
 20
339.4754122666454
 30
0.0
 11
324.781059043694
 21
339.4754122666454
 31
0.0
  0
ARC
  5
B1E
330
1E
100
AcDbEntity
  8
STEMPEL
100
AcDbCircle
 10
336.2810590436941
 20
340.5327696824019
 30
0.0
 40
10.0
100
AcDbArc
 50
180.0
 51
210.0
  0
ARC
  5
B1F
330
1E
100
AcDbEntity
  8
STEMPEL
100
AcDbCircle
 10
336.2810590436941
 20
340.5327696824019
 30
0.0
 40
11.5
100
AcDbArc
 50
180.0
 51
210.0
  0
LINE
  5
B20
330
1E
100
AcDbEntity
  8
STEMPEL
100
AcDbLine
 10
291.7810590436941
 20
349.1167685300101
 30
0.0
 11
312.7337003299458
 21
349.1167685300101
 31
0.0
  0
LINE
  5
B21
102
{ACAD_REACTORS
330
E3D
102
}
330
1E
100
AcDbEntity
  8
STEMPEL
100
AcDbLine
 10
304.2810590436941
 20
353.1167685300104
 30
0.0
 11
304.2810590436941
 21
356.1167685300103
 31
0.0
  0
ARC
  5
B22
102
{ACAD_REACTORS
330
CD0
102
}
330
1E
100
AcDbEntity
  8
STEMPEL
100
AcDbCircle
 10
301.281059043694
 20
362.1167685300106
 30
0.0
 40
3.000000000000397
100
AcDbArc
 50
270.0000000000065
 51
89.99999999999349
  0
ARC
  5
B24
102
{ACAD_REACTORS
330
CF0
102
}
330
1E
100
AcDbEntity
  8
STEMPEL
100
AcDbCircle
 10
308.2609747965595
 20
345.1167685300104
 30
0.0
 40
8.0
100
AcDbArc
 50
42.50000000000734
 51
90.0
  0
ARC
  5
B25
102
{ACAD_REACTORS
330
CF0
102
}
330
1E
100
AcDbEntity
  8
STEMPEL
100
AcDbCircle
 10
308.2609747965595
 20
345.1167685300104
 30
0.0
 40
6.0
100
AcDbArc
 50
42.50000000000734
 51
90.0
  0
ARC
  5
B26
330
1E
100
AcDbEntity
  8
STEMPEL
100
AcDbCircle
 10
349.6810590436941
 20
346.5678461228917
 30
0.0
 40
24.9
100
AcDbArc
 50
154.9346622848109
 51
180.0
  0
ARC
  5
B27
330
1E
100
AcDbEntity
  8
STEMPEL
100
AcDbCircle
 10
349.6810590436941
 20
346.5678461228917
 30
0.0
 40
23.4
100
AcDbArc
 50
153.204422068767
 51
180.0
  0
LINE
  5
B28
102
{ACAD_REACTORS
330
CF0
102
}
330
1E
100
AcDbEntity
  8
STEMPEL
100
AcDbLine
 10
419.4029245963481
 20
350.5214901909359
 30
0.0
 11
409.2742201696299
 21
339.4679489452418
 31
0.0
  0
LINE
  5
B29
330
1E
100
AcDbEntity
  8
STEMPEL
100
AcDbLine
 10
408.7810590436943
 20
346.5678461228917
 30
0.0
 11
408.7810590436943
 21
340.5327696824019
 31
0.0
  0
LINE
  5
B2A
330
1E
100
AcDbEntity
  8
STEMPEL
100
AcDbLine
 10
407.2810590436942
 20
346.5678461228917
 30
0.0
 11
407.2810590436945
 21
340.5327696824019
 31
0.0
  0
LINE
  5
B2B
330
1E
100
AcDbEntity
  8
STEMPEL
100
AcDbLine
 10
401.7810590436942
 20
325.2455826035036
 30
0.0
 11
401.7810590436942
 21
319.4324731857914
 31
0.0
  0
ARC
  5
B2C
330
1E
100
AcDbEntity
  8
STEMPEL
100
AcDbCircle
 10
413.281059043694
 20
325.2455826035034
 30
0.0
 40
10.0
100
AcDbArc
 50
150.0
 51
180.0
  0
LINE
  5
B2D
330
1E
100
AcDbEntity
  8
STEMPEL
100
AcDbLine
 10
403.321766900173
 20
330.9955826035036
 30
0.0
 11
405.9413130815388
 21
335.5327696824019
 31
0.0
  0
ARC
  5
B2E
330
1E
100
AcDbEntity
  8
SCHRAFF
100
AcDbCircle
 10
403.2810590436943
 20
320.8559200358638
 30
0.0
 40
3.0
100
AcDbArc
 50
357.000000000001
 51
90.00000000000161
  0
LINE
  5
B2F
330
1E
100
AcDbEntity
  8
STEMPEL
100
AcDbLine
 10
403.281059043694
 20
325.2455826035034
 30
0.0
 11
403.281059043694
 21
320.8559200358636
 31
0.0
  0
ARC
  5
B30
330
1E
100
AcDbEntity
  8
STEMPEL
100
AcDbCircle
 10
413.281059043694
 20
325.2455826035034
 30
0.0
 40
11.5
100
AcDbArc
 50
150.0
 51
180.0
  0
LINE
  5
B31
330
1E
100
AcDbEntity
  8
STEMPEL
100
AcDbLine
 10
404.6208050058496
 20
330.2455826035033
 30
0.0
 11
407.2403511872154
 21
334.7827696824022
 31
0.0
  0
ARC
  5
B32
330
1E
100
AcDbEntity
  8
STEMPEL
100
AcDbCircle
 10
412.7661365675301
 20
331.3739239924883
 30
0.0
 40
4.0
100
AcDbArc
 50
134.9999999999994
 51
266.9999999999995
  0
ARC
  5
B33
330
1E
100
AcDbEntity
  8
SCHRAFF
100
AcDbCircle
 10
409.2810590436938
 20
339.4754122666454
 30
0.0
 40
3.0
100
AcDbArc
 50
247.3536642463058
 51
5.689685104215999
  0
LINE
  5
B34
330
1E
100
AcDbEntity
  8
STEMPEL
100
AcDbLine
 10
408.7323469754227
 20
339.4754122666454
 30
0.0
 11
409.2810590436938
 21
339.4754122666454
 31
0.0
  0
LINE
  5
B35
102
{ACAD_REACTORS
330
CF0
102
}
330
1E
100
AcDbEntity
  8
STEMPEL
100
AcDbLine
 10
410.7487748432501
 20
338.1167685300105
 30
0.0
 11
409.2742201696299
 21
339.4679489452418
 31
0.0
  0
ARC
  5
B36
330
1E
100
AcDbEntity
  8
STEMPEL
100
AcDbCircle
 10
397.2810590436945
 20
340.5327696824019
 30
0.0
 40
10.0
100
AcDbArc
 50
330.0000000000001
 51
0.0
  0
ARC
  5
B37
330
1E
100
AcDbEntity
  8
STEMPEL
100
AcDbCircle
 10
397.2810590436945
 20
340.5327696824019
 30
0.0
 40
11.5
100
AcDbArc
 50
330.0000000000001
 51
0.0
  0
ARC
  5
B38
330
1E
100
AcDbEntity
  8
STEMPEL
100
AcDbCircle
 10
383.8810590436942
 20
346.5678461228917
 30
0.0
 40
23.4
100
AcDbArc
 50
0.0
 51
26.79557793123296
  0
ARC
  5
B39
330
1E
100
AcDbEntity
  8
STEMPEL
100
AcDbCircle
 10
383.8810590436942
 20
346.5678461228917
 30
0.0
 40
24.9
100
AcDbArc
 50
0.0
 51
25.06533771518908
  0
LINE
  5
B3A
330
1E
100
AcDbEntity
  8
STEMPEL
100
AcDbLine
 10
327.8839975282661
 20
514.3619751562266
 30
0.0
 11
405.6781205591222
 21
514.3619751562266
 31
0.0
  0
LINE
  5
B3B
330
1E
100
AcDbEntity
  8
STEMPEL
100
AcDbLine
 10
329.7810590436942
 20
508.3619751562266
 30
0.0
 11
403.7810590436942
 21
508.3619751562267
 31
0.0
  0
LINE
  5
B3C
102
{ACAD_REACTORS
330
C9F
102
}
330
1E
100
AcDbEntity
  8
STEMPEL
100
AcDbLine
 10
332.2810590436942
 20
491.8619751562266
 30
0.0
 11
401.2810590436941
 21
491.8619751562267
 31
0.0
  0
LINE
  5
B3D
330
1E
100
AcDbEntity
  8
STEMPEL
100
AcDbLine
 10
334.7810590436941
 20
493.3619751562266
 30
0.0
 11
398.7810590436941
 21
493.3619751562266
 31
0.0
  0
LINE
  5
B3F
102
{ACAD_REACTORS
330
C9F
102
}
330
1E
100
AcDbEntity
  8
STEMPEL
100
AcDbLine
 10
328.0368313507161
 20
508.6909650845638
 30
0.0
 11
326.2810590436941
 21
503.8670203173174
 31
0.0
  0
LINE
  5
B40
102
{ACAD_REACTORS
330
C9F
102
}
330
1E
100
AcDbEntity
  8
STEMPEL
100
AcDbLine
 10
329.7810590436942
 20
508.3619751562266
 30
0.0
 11
329.7810590436942
 21
498.3619751562266
 31
0.0
  0
ARC
  5
B41
102
{ACAD_REACTORS
330
C9F
102
}
330
1E
100
AcDbEntity
  8
STEMPEL
100
AcDbCircle
 10
334.7810590436941
 20
498.3619751562266
 30
0.0
 40
5.0
100
AcDbArc
 50
180.0
 51
270.0
  0
ARC
  5
B42
102
{ACAD_REACTORS
330
C9F
102
}
330
1E
100
AcDbEntity
  8
STEMPEL
100
AcDbCircle
 10
332.2810590436942
 20
495.8619751562266
 30
0.0
 40
4.0
100
AcDbArc
 50
202.0243128370422
 51
270.0
  0
LINE
  5
B44
102
{ACAD_REACTORS
330
C9F
102
}
330
1E
100
AcDbEntity
  8
STEMPEL
100
AcDbLine
 10
334.7810590436941
 20
493.3619751562266
 30
0.0
 11
334.7810590436941
 21
491.8619751562267
 31
0.0
  0
ARC
  5
B45
102
{ACAD_REACTORS
330
C9F
102
}
330
1E
100
AcDbEntity
  8
STEMPEL
100
AcDbCircle
 10
332.2810590436942
 20
495.8619751562266
 30
0.0
 40
4.0
100
AcDbArc
 50
184.6824168622685
 51
202.0243128370422
  0
LINE
  5
B46
102
{ACAD_REACTORS
330
C9F
102
}
330
1E
100
AcDbEntity
  8
STEMPEL
100
AcDbLine
 10
326.2810590436941
 20
498.9619751562266
 30
0.0
 11
326.2810590436941
 21
498.3619751562266
 31
0.0
  0
LINE
  5
B47
102
{ACAD_REACTORS
330
C9F
102
}
330
1E
100
AcDbEntity
  8
STEMPEL
100
AcDbLine
 10
324.8810590436942
 20
501.3619751562266
 30
0.0
 11
324.8810590436942
 21
500.3619751562267
 31
0.0
  0
LINE
  5
B48
102
{ACAD_REACTORS
330
C9F
102
}
330
1E
100
AcDbEntity
  8
STEMPEL
100
AcDbLine
 10
324.8810590436942
 20
500.3619751562267
 30
0.0
 11
326.2810590436941
 21
498.9619751562266
 31
0.0
  0
LINE
  5
B49
102
{ACAD_REACTORS
330
C9F
102
}
330
1E
100
AcDbEntity
  8
STEMPEL
100
AcDbLine
 10
324.8810590436942
 20
501.3619751562266
 30
0.0
 11
326.2810590436941
 21
502.7619751562266
 31
0.0
  0
LINE
  5
B4A
102
{ACAD_REACTORS
330
C9F
102
}
330
1E
100
AcDbEntity
  8
STEMPEL
100
AcDbLine
 10
325.7810590436942
 20
494.3619751562266
 30
0.0
 11
326.6053932395251
 21
495.8894151088254
 31
0.0
  0
LINE
  5
B4B
102
{ACAD_REACTORS
330
C9F
102
}
330
1E
100
AcDbEntity
  8
STEMPEL
100
AcDbLine
 10
323.9810590436942
 20
494.3619751562266
 30
0.0
 11
325.7810590436942
 21
494.3619751562266
 31
0.0
  0
LINE
  5
B4C
102
{ACAD_REACTORS
330
C9F
102
}
330
1E
100
AcDbEntity
  8
STEMPEL
100
AcDbLine
 10
323.9810590436942
 20
494.3619751562266
 30
0.0
 11
326.2810590436941
 21
498.3619751562266
 31
0.0
  0
ARC
  5
B4D
102
{ACAD_REACTORS
330
C9F
102
}
330
1E
100
AcDbEntity
  8
STEMPEL
100
AcDbCircle
 10
327.3974128648643
 20
495.4619751562266
 30
0.0
 40
0.9
100
AcDbArc
 50
4.682416862268558
 51
151.6449939715936
  0
LINE
  5
B4E
330
1E
100
AcDbEntity
  8
STEMPEL
100
AcDbLine
 10
325.7810590436942
 20
494.3619751562266
 30
0.0
 11
328.5729598001464
 21
494.3619751562266
 31
0.0
  0
LINE
  5
B4F
102
{ACAD_REACTORS
330
C9F
102
}
330
1E
100
AcDbEntity
  8
STEMPEL
100
AcDbLine
 10
326.2810590436941
 20
503.8670203173174
 30
0.0
 11
326.2810590436941
 21
502.7619751562266
 31
0.0
  0
LINE
  5
B50
102
{ACAD_REACTORS
330
C9F
102
}
330
1E
100
AcDbEntity
  8
STEMPEL
100
AcDbLine
 10
329.7810590436942
 20
508.3619751562266
 30
0.0
 11
328.8688052812783
 21
513.5356233338935
 31
0.0
  0
LINE
  5
B51
102
{ACAD_REACTORS
330
C9F
102
}
330
1E
100
AcDbEntity
  8
STEMPEL
100
AcDbLine
 10
324.4810590436942
 20
509.3619751562266
 30
0.0
 11
327.5669850403231
 21
509.3619751562266
 31
0.0
  0
LINE
  5
B52
102
{ACAD_REACTORS
330
C9F
102
}
330
1E
100
AcDbEntity
  8
STEMPEL
100
AcDbLine
 10
324.4810590436942
 20
509.3619751562266
 30
0.0
 11
327.0128858109169
 21
513.853060053059
 31
0.0
  0
ARC
  5
B53
102
{ACAD_REACTORS
330
C9F
102
}
330
1E
100
AcDbEntity
  8
STEMPEL
100
AcDbCircle
 10
327.5669850403231
 20
508.8619751562267
 30
0.0
 40
0.5
100
AcDbArc
 50
340.0000000000034
 51
90.0
  0
ARC
  5
B54
102
{ACAD_REACTORS
330
C9F
102
}
330
1E
100
AcDbEntity
  8
STEMPEL
100
AcDbCircle
 10
327.8839975282661
 20
513.3619751562267
 30
0.0
 40
1.0
100
AcDbArc
 50
9.999999999998536
 51
150.5880863344673
  0
LINE
  5
B59
330
1E
100
AcDbEntity
  8
MITTEL
100
AcDbLine
 10
366.7810590436941
 20
519.3619751562266
 30
0.0
 11
366.7810590436941
 21
486.8619751562266
 31
0.0
  0
LINE
  5
B5A
102
{ACAD_REACTORS
330
C9F
102
}
330
1E
100
AcDbEntity
  8
STEMPEL
100
AcDbLine
 10
405.5252867366722
 20
508.6909650845638
 30
0.0
 11
407.2810590436941
 21
503.8670203173174
 31
0.0
  0
LINE
  5
B5B
102
{ACAD_REACTORS
330
C9F
102
}
330
1E
100
AcDbEntity
  8
STEMPEL
100
AcDbLine
 10
403.7810590436941
 20
508.3619751562266
 30
0.0
 11
403.7810590436941
 21
498.3619751562266
 31
0.0
  0
ARC
  5
B5C
102
{ACAD_REACTORS
330
C9F
102
}
330
1E
100
AcDbEntity
  8
STEMPEL
100
AcDbCircle
 10
398.7810590436941
 20
498.3619751562266
 30
0.0
 40
5.0
100
AcDbArc
 50
270.0
 51
0.0
  0
ARC
  5
B5D
102
{ACAD_REACTORS
330
C9F
102
}
330
1E
100
AcDbEntity
  8
STEMPEL
100
AcDbCircle
 10
401.2810590436941
 20
495.8619751562266
 30
0.0
 40
4.0
100
AcDbArc
 50
270.0
 51
337.9756871629578
  0
LINE
  5
B5F
102
{ACAD_REACTORS
330
C9F
102
}
330
1E
100
AcDbEntity
  8
STEMPEL
100
AcDbLine
 10
398.7810590436941
 20
493.3619751562266
 30
0.0
 11
398.7810590436941
 21
491.8619751562267
 31
0.0
  0
LINE
  5
B60
102
{ACAD_REACTORS
330
C9F
102
}
330
1E
100
AcDbEntity
  8
STEMPEL
100
AcDbLine
 10
408.6810590436942
 20
501.3619751562266
 30
0.0
 11
407.2810590436941
 21
502.7619751562266
 31
0.0
  0
LINE
  5
B61
102
{ACAD_REACTORS
330
C9F
102
}
330
1E
100
AcDbEntity
  8
STEMPEL
100
AcDbLine
 10
407.2810590436942
 20
498.9619751562266
 30
0.0
 11
407.2810590436942
 21
498.3619751562266
 31
0.0
  0
LINE
  5
B62
102
{ACAD_REACTORS
330
C9F
102
}
330
1E
100
AcDbEntity
  8
STEMPEL
100
AcDbLine
 10
408.6810590436942
 20
501.3619751562266
 30
0.0
 11
408.6810590436942
 21
500.3619751562267
 31
0.0
  0
LINE
  5
B63
102
{ACAD_REACTORS
330
C9F
102
}
330
1E
100
AcDbEntity
  8
STEMPEL
100
AcDbLine
 10
408.6810590436942
 20
500.3619751562267
 30
0.0
 11
407.2810590436942
 21
498.9619751562266
 31
0.0
  0
LINE
  5
B64
102
{ACAD_REACTORS
330
C9F
102
}
330
1E
100
AcDbEntity
  8
STEMPEL
100
AcDbLine
 10
407.7810590436941
 20
494.3619751562266
 30
0.0
 11
406.9567248478632
 21
495.8894151088254
 31
0.0
  0
LINE
  5
B65
102
{ACAD_REACTORS
330
C9F
102
}
330
1E
100
AcDbEntity
  8
STEMPEL
100
AcDbLine
 10
409.5810590436942
 20
494.3619751562266
 30
0.0
 11
407.7810590436941
 21
494.3619751562266
 31
0.0
  0
ARC
  5
B66
102
{ACAD_REACTORS
330
C9F
102
}
330
1E
100
AcDbEntity
  8
STEMPEL
100
AcDbCircle
 10
401.2810590436941
 20
495.8619751562266
 30
0.0
 40
4.0
100
AcDbArc
 50
337.9756871629578
 51
355.3175831377314
  0
ARC
  5
B67
102
{ACAD_REACTORS
330
C9F
102
}
330
1E
100
AcDbEntity
  8
STEMPEL
100
AcDbCircle
 10
406.164705222524
 20
495.4619751562266
 30
0.0
 40
0.9
100
AcDbArc
 50
28.35500602840633
 51
175.3175831377314
  0
LINE
  5
B68
330
1E
100
AcDbEntity
  8
STEMPEL
100
AcDbLine
 10
407.7810590436941
 20
494.3619751562266
 30
0.0
 11
404.989158287242
 21
494.3619751562266
 31
0.0
  0
LINE
  5
B69
102
{ACAD_REACTORS
330
C9F
102
}
330
1E
100
AcDbEntity
  8
STEMPEL
100
AcDbLine
 10
409.5810590436942
 20
494.3619751562266
 30
0.0
 11
407.2810590436942
 21
498.3619751562266
 31
0.0
  0
LINE
  5
B6A
102
{ACAD_REACTORS
330
C9F
102
}
330
1E
100
AcDbEntity
  8
STEMPEL
100
AcDbLine
 10
407.2810590436941
 20
503.8670203173174
 30
0.0
 11
407.2810590436941
 21
502.7619751562266
 31
0.0
  0
LINE
  5
B6B
102
{ACAD_REACTORS
330
C9F
102
}
330
1E
100
AcDbEntity
  8
STEMPEL
100
AcDbLine
 10
409.0810590436942
 20
509.3619751562266
 30
0.0
 11
405.9951330470652
 21
509.3619751562266
 31
0.0
  0
LINE
  5
B6C
102
{ACAD_REACTORS
330
C9F
102
}
330
1E
100
AcDbEntity
  8
STEMPEL
100
AcDbLine
 10
409.0810590436942
 20
509.3619751562266
 30
0.0
 11
406.5492322764715
 21
513.853060053059
 31
0.0
  0
ARC
  5
B6D
102
{ACAD_REACTORS
330
C9F
102
}
330
1E
100
AcDbEntity
  8
STEMPEL
100
AcDbCircle
 10
405.6781205591222
 20
513.3619751562267
 30
0.0
 40
1.0
100
AcDbArc
 50
29.41191366553264
 51
170.0000000000014
  0
ARC
  5
B6E
102
{ACAD_REACTORS
330
C9F
102
}
330
1E
100
AcDbEntity
  8
STEMPEL
100
AcDbCircle
 10
405.9951330470652
 20
508.8619751562267
 30
0.0
 40
0.5
100
AcDbArc
 50
90.0
 51
199.9999999999966
  0
LINE
  5
B6F
102
{ACAD_REACTORS
330
C9F
102
}
330
1E
100
AcDbEntity
  8
STEMPEL
100
AcDbLine
 10
403.7810590436941
 20
508.3619751562266
 30
0.0
 11
404.6933128061099
 21
513.5356233338935
 31
0.0
  0
DIMENSION
  5
B70
330
1E
100
AcDbEntity
  8
BEM
100
AcDbDimension
  2
*D2
 10
713.013691466293
 20
216.1167685300102
 30
0.0
 11
713.013691466293
 21
282.7824962551038
 31
0.0
 70
   160
 71
     5
 42
136.9999999999997
  3
Standard
100
AcDbAlignedDimension
 13
560.8327173881445
 23
353.1167685300101
 33
0.0
 14
553.6528516263675
 24
216.1167685300103
 34
0.0
 50
90.0
100
AcDbRotatedDimension
1001
ACAD
1000
DSTYLE
1002
{
1070
    40
1040
2.0
1070
    41
1040
3.5
1070
    42
1040
1.0
1070
    43
1040
7.0
1070
    44
1040
1.0
1070
    47
1040
2.0
1070
    48
1040
2.0
1070
    73
1070
     0
1070
    74
1070
     0
1070
    77
1070
     1
1070
    78
1070
     8
1070
    79
1070
     2
1070
   140
1040
3.5
1070
   141
1040
1.5
1070
   146
1040
0.5142857142857144
1070
   147
1040
1.5
1070
   172
1070
     1
1070
   178
1070
     1
1070
   179
1070
     1
1070
   271
1070
     0
1070
   272
1070
     0
1070
   279
1070
     0
1002
}
  0
LINE
  5
B71
330
1E
100
AcDbEntity
  8
HILF
100
AcDbLine
 10
646.543906834551
 20
305.102937363083
 30
0.0
 11
643.0373977662736
 21
238.1947585345263
 31
0.0
  0
DIMENSION
  5
B72
330
1E
100
AcDbEntity
  8
BEM
100
AcDbDimension
  2
*D3
 10
671.3707728203473
 20
233.7057522303548
 30
0.0
 11
666.7899432473103
 21
270.4959139644761
 31
0.0
 70
    33
  1
%%c<>
 71
     5
 42
73.00000000000017
  3
Standard
100
AcDbAlignedDimension
 13
646.7009147032804
 23
308.0988259673467
 33
0.0
 14
642.8803898975449
 24
235.1988699302626
 34
0.0
1001
ACAD
1000
DSTYLE
1002
{
1070
    40
1040
2.0
1070
    41
1040
3.5
1070
    42
1040
1.0
1070
    43
1040
7.0
1070
    44
1040
1.0
1070
    47
1040
2.0
1070
    48
1040
2.0
1070
    73
1070
     0
1070
    74
1070
     0
1070
    77
1070
     1
1070
    78
1070
     8
1070
    79
1070
     2
1070
   140
1040
3.5
1070
   141
1040
1.5
1070
   146
1040
0.5142857142857144
1070
   147
1040
1.5
1070
   172
1070
     1
1070
   178
1070
     1
1070
   179
1070
     1
1070
   271
1070
     1
1070
   272
1070
     1
1070
   279
1070
     0
1002
}
  0
LINE
  5
B73
102
{ACAD_REACTORS
330
D2E
102
}
330
1E
100
AcDbEntity
  8
STEMPEL
100
AcDbLine
 10
653.6767496497841
 20
307.4544278275406
 30
0.0
 11
649.8969646189482
 21
235.3318330039392
 31
0.0
  0
DIMENSION
  5
B74
330
1E
100
AcDbEntity
  8
BEM
100
AcDbDimension
  2
*D4
 10
695.0550019340389
 20
271.282496255104
 30
0.0
 11
688.5550019340388
 21
312.1996323925569
 31
0.0
 70
    32
 71
     5
 42
81.83427227490568
  3
Standard
100
AcDbAlignedDimension
 13
489.2810590436941
 23
353.1167685300097
 33
0.0
 14
673.3400865273722
 24
271.282496255104
 34
0.0
 50
90.0
100
AcDbRotatedDimension
1001
ACAD
1000
DSTYLE
1002
{
1070
    72
1070
     0
1070
    71
1070
     0
1070
   271
1070
     0
1070
    40
1040
2.0
1070
    41
1040
3.5
1070
    42
1040
1.0
1070
    43
1040
7.0
1070
    44
1040
1.0
1070
    47
1040
0.0
1070
    48
1040
8.0
1070
    73
1070
     0
1070
    74
1070
     0
1070
    77
1070
     1
1070
    78
1070
     8
1070
    79
1070
     2
1070
   140
1040
3.5
1070
   141
1040
1.5
1070
   146
1040
0.5142857142857144
1070
   147
1040
1.5
1070
   172
1070
     1
1070
   178
1070
     1
1070
   179
1070
     2
1070
   279
1070
     0
1002
}
  0
TEXT
  5
B75
330
1E
100
AcDbEntity
  8
TEXT
 62
     1
100
AcDbText
 10
530.880763221153
 20
281.6250058776526
 30
0.0
 40
7.0
  1
DN70
 50
357.000000000001
 41
0.8
  7
GREEKS
100
AcDbText
  0
LINE
  5
B76
330
1E
100
AcDbEntity
  8
STEMPEL
100
AcDbLine
 10
553.6528516263675
 20
216.1167685300103
 30
0.0
 11
554.8945618893509
 21
239.8100117845517
 31
0.0
  0
LINE
  5
B77
102
{ACAD_REACTORS
330
D2E
102
}
330
1E
100
AcDbEntity
  8
STEMPEL
100
AcDbLine
 10
642.9054638848561
 20
236.6996143772667
 30
0.0
 11
649.9756685636607
 21
236.8335937308607
 31
0.0
  0
LINE
  5
B78
102
{ACAD_REACTORS
330
D2E
102
}
330
1E
100
AcDbEntity
  8
STEMPEL
100
AcDbLine
 10
642.8803898975449
 20
235.1988699302626
 30
0.0
 11
649.8969646189484
 21
235.3318330039393
 31
0.0
  0
LINE
  5
B7A
330
1E
100
AcDbEntity
  8
STEMPEL
100
AcDbLine
 10
496.7810590436942
 20
353.1167685300101
 30
0.0
 11
560.8327173881445
 21
353.1167685300101
 31
0.0
  0
TEXT
  5
B7B
330
1E
100
AcDbEntity
  8
TEXT
 62
     1
100
AcDbText
 10
527.545479011183
 20
370.2532425779066
 30
0.0
 40
7.0
  1
EDV-Art.Nr. 21920.070X
 41
0.8
  7
GREEKS
100
AcDbText
  0
LINE
  5
B7C
330
1E
100
AcDbEntity
  8
TEXT
 62
     2
100
AcDbLine
 10
525.1404530831961
 20
380.0993728204255
 30
0.0
 11
634.2610558205254
 21
380.0993728204253
 31
0.0
  0
TEXT
  5
B7D
330
1E
100
AcDbEntity
  8
TEXT
 62
     1
100
AcDbText
 10
527.545479011183
 20
383.3979404169706
 30
0.0
 40
7.0
  1
Kompressionsdichtung
 41
0.8
  7
GREEKS
100
AcDbText
  0
LINE
  5
B81
330
1E
100
AcDbEntity
  8
STEMPEL
100
AcDbLine
 10
476.7810590436941
 20
347.1167685300105
 30
0.0
 11
496.7810590436942
 21
347.1167685300105
 31
0.0
  0
LINE
  5
B82
102
{ACAD_REACTORS
330
CD0
102
}
330
1E
100
AcDbEntity
  8
STEMPEL
100
AcDbLine
 10
480.3416155763317
 20
379.1167685300124
 30
0.0
 11
496.7810590436939
 21
379.1167685300109
 31
0.0
  0
ARC
  5
B83
102
{ACAD_REACTORS
330
CF0
102
}
330
1E
100
AcDbEntity
  8
STEMPEL
100
AcDbCircle
 10
483.0635446224222
 20
347.61676853001
 30
0.0
 40
3.499999999999851
100
AcDbArc
 50
45.00000000000029
 51
90.0
  0
LINE
  5
B84
102
{ACAD_REACTORS
330
CF0
102
}
330
1E
100
AcDbEntity
  8
STEMPEL
100
AcDbLine
 10
487.8668454813213
 20
347.7632151394166
 30
0.0
 11
485.5384183565755
 21
350.0916422641628
 31
0.0
  0
ARC
  5
B85
102
{ACAD_REACTORS
330
CF0
102
}
330
1E
100
AcDbEntity
  8
STEMPEL
100
AcDbCircle
 10
483.0635446224222
 20
347.61676853001
 30
0.0
 40
5.499999999999851
100
AcDbArc
 50
45.00000000000029
 51
90.0
  0
LINE
  5
B86
330
1E
100
AcDbEntity
  8
STEMPEL
100
AcDbLine
 10
476.7810590436941
 20
347.7632151394165
 30
0.0
 11
487.8668454813213
 21
347.7632151394164
 31
0.0
  0
LINE
  5
B87
330
1E
100
AcDbEntity
  8
STEMPEL
100
AcDbLine
 10
420.8284177574425
 20
349.11676853001
 30
0.0
 11
476.7810590436941
 21
349.1167685300101
 31
0.0
  0
LINE
  5
B88
102
{ACAD_REACTORS
330
CF0
102
}
330
1E
100
AcDbEntity
  8
STEMPEL
100
AcDbLine
 10
483.0635446224222
 20
351.1167685300105
 30
0.0
 11
425.3011432908286
 21
351.1167685300102
 31
0.0
  0
LINE
  5
B8B
102
{ACAD_REACTORS
330
CD0
330
E3D
102
}
330
1E
100
AcDbEntity
  8
MITTEL
100
AcDbLine
 10
438.1810590436939
 20
383.1167685300103
 30
0.0
 11
438.1810590436939
 21
351.1167685300103
 31
0.0
  0
LINE
  5
B8C
102
{ACAD_REACTORS
330
E3D
102
}
330
1E
100
AcDbEntity
  8
STEMPEL
100
AcDbLine
 10
429.2810590436942
 20
353.1167685300104
 30
0.0
 11
429.2810590436942
 21
356.1167685300103
 31
0.0
  0
ARC
  5
B8D
102
{ACAD_REACTORS
330
CF0
102
}
330
1E
100
AcDbEntity
  8
STEMPEL
100
AcDbCircle
 10
425.3011432908287
 20
345.1167685300104
 30
0.0
 40
6.0
100
AcDbArc
 50
90.0
 51
137.4999999999926
  0
ARC
  5
B8E
102
{ACAD_REACTORS
330
CD0
102
}
330
1E
100
AcDbEntity
  8
STEMPEL
100
AcDbCircle
 10
432.2810590436943
 20
362.1167685300106
 30
0.0
 40
3.0
100
AcDbArc
 50
90.0
 51
270.0
  0
ARC
  5
BA8
102
{ACAD_REACTORS
330
CD0
102
}
330
1E
100
AcDbEntity
  8
STEMPEL
100
AcDbCircle
 10
475.6232018191207
 20
370.1167685300112
 30
0.0
 40
5.0
100
AcDbArc
 50
270.0
 51
358.9999999999982
  0
ARC
  5
BA9
330
1E
100
AcDbEntity
  8
STEMPEL
100
AcDbCircle
 10
475.1837583517584
 20
370.1167685300123
 30
0.0
 40
5.0
100
AcDbArc
 50
270.0
 51
358.9999999999982
  0
LINE
  5
BAA
330
1E
100
AcDbEntity
  8
STEMPEL
100
AcDbLine
 10
476.7810590436941
 20
347.1167685300105
 30
0.0
 11
476.7810590436941
 21
349.1167685300101
 31
0.0
  0
LINE
  5
BAB
102
{ACAD_REACTORS
330
CD0
102
}
330
1E
100
AcDbEntity
  8
STEMPEL
100
AcDbLine
 10
480.781059043694
 20
379.1167685300109
 30
0.0
 11
480.6224402949027
 21
370.0295064978249
 31
0.0
  0
LINE
  5
BAC
330
1E
100
AcDbEntity
  8
STEMPEL
100
AcDbLine
 10
480.3416155763317
 20
379.116768530012
 30
0.0
 11
480.1829968275405
 21
370.0295064978259
 31
0.0
  0
LINE
  5
BAD
330
1E
100
AcDbEntity
  8
TEXT
 62
     2
100
AcDbLine
 10
525.1404530831961
 20
380.0993728204255
 30
0.0
 11
488.7225504873548
 21
354.3998363415434
 31
0.0
  0
LINE
  5
BAF
102
{ACAD_REACTORS
330
CD0
102
}
330
1E
100
AcDbEntity
  8
STEMPEL
100
AcDbLine
 10
496.7810590436939
 20
379.1167685300109
 30
0.0
 11
497.0413618531791
 21
364.2040305621975
 31
0.0
  0
LINE
  5
BB0
102
{ACAD_REACTORS
330
CD0
102
}
330
1E
100
AcDbEntity
  8
HILF
100
AcDbLine
 10
491.7810590436937
 20
379.1167685300114
 30
0.0
 11
491.7810590436947
 21
359.1167685300111
 31
0.0
  0
LINE
  5
BB1
102
{ACAD_REACTORS
330
CD0
102
}
330
1E
100
AcDbEntity
  8
HILF
100
AcDbLine
 10
485.7810590436939
 20
379.1167685300116
 30
0.0
 11
485.7810590436939
 21
359.1167685300111
 31
0.0
  0
LINE
  5
BB2
330
1E
100
AcDbEntity
  8
MITTEL
100
AcDbLine
 10
488.7810590436941
 20
384.1167685300116
 30
0.0
 11
488.7810590436941
 21
359.1167685300112
 31
0.0
  0
LINE
  5
BB3
102
{ACAD_REACTORS
330
CD0
102
}
330
1E
100
AcDbEntity
  8
STEMPEL
100
AcDbLine
 10
486.431059043694
 20
379.1167685300116
 30
0.0
 11
486.431059043694
 21
359.116768530011
 31
0.0
  0
LINE
  5
BB4
102
{ACAD_REACTORS
330
CD0
102
}
330
1E
100
AcDbEntity
  8
STEMPEL
100
AcDbLine
 10
491.1310590436941
 20
379.1167685300114
 30
0.0
 11
491.1310590436941
 21
359.1167685300111
 31
0.0
  0
LINE
  5
BB5
102
{ACAD_REACTORS
330
E3D
102
}
330
1E
100
AcDbEntity
  8
STEMPEL
100
AcDbLine
 10
489.2810590436941
 20
353.1167685300104
 30
0.0
 11
489.2810590436941
 21
356.1167685300103
 31
0.0
  0
LINE
  5
BB6
102
{ACAD_REACTORS
330
CF0
102
}
330
1E
100
AcDbEntity
  8
STEMPEL
100
AcDbLine
 10
489.2810590436946
 20
349.1774287017897
 30
0.0
 11
487.8668454813217
 21
347.7632151394164
 31
0.0
  0
LINE
  5
BB7
102
{ACAD_REACTORS
330
CF0
102
}
330
1E
100
AcDbEntity
  8
STEMPEL
100
AcDbLine
 10
489.2810590436946
 20
349.1774287017897
 30
0.0
 11
486.9526319189484
 21
351.5058558265359
 31
0.0
  0
LINE
  5
BB8
330
1E
100
AcDbEntity
  8
STEMPEL
100
AcDbLine
 10
496.7810590436942
 20
347.1167685300105
 30
0.0
 11
496.7810590436942
 21
353.1167685300105
 31
0.0
  0
ARC
  5
BB9
102
{ACAD_REACTORS
330
CD0
102
}
330
1E
100
AcDbEntity
  8
STEMPEL
100
AcDbCircle
 10
492.0421233773973
 20
364.1167685300112
 30
0.0
 40
5.0
100
AcDbArc
 50
270.0
 51
1.000000000001775
  0
LINE
  5
BBB
102
{ACAD_REACTORS
330
D2E
102
}
330
1E
100
AcDbEntity
  8
STEMPEL
100
AcDbLine
 10
646.5926318518008
 20
306.6024423121302
 30
0.0
 11
653.5387734360231
 21
305.9607871195934
 31
0.0
  0
LINE
  5
BBC
102
{ACAD_REACTORS
330
D2E
102
}
330
1E
100
AcDbEntity
  8
STEMPEL
100
AcDbLine
 10
646.7009147032804
 20
308.0988259673467
 30
0.0
 11
653.6767496497841
 21
307.4544278275406
 31
0.0
  0
LINE
  5
BBD
330
1E
100
AcDbEntity
  8
STEMPEL
100
AcDbLine
 10
558.715086695086
 20
312.7099678216357
 30
0.0
 11
560.8327173881445
 21
353.1167685300101
 31
0.0
  0
LINE
  5
BBE
330
1E
100
AcDbEntity
  8
TEXT
 62
     2
100
AcDbLine
 10
443.8395050237671
 20
543.3082002156097
 30
0.0
 11
550.70370207964
 21
543.3082002156095
 31
0.0
  0
TEXT
  5
BBF
330
1E
100
AcDbEntity
  8
TEXT
 62
     1
100
AcDbText
 10
446.2445309517541
 20
533.4620699730908
 30
0.0
 40
7.0
  1
EDV-Art.Nr. 00911.070X
 41
0.8
  7
GREEKS
100
AcDbText
  0
TEXT
  5
BC0
330
1E
100
AcDbEntity
  8
TEXT
 62
     1
100
AcDbText
 10
446.2445309517541
 20
546.6067678121548
 30
0.0
 40
7.0
  1
Dichtelement DN70
 41
0.8
  7
GREEKS
100
AcDbText
  0
HATCH
  5
C9F
330
1E
100
AcDbEntity
  8
SCHRAFF
100
AcDbHatch
 10
0.0
 20
0.0
 30
0.0
210
0.0
220
0.0
230
1.0
  2
NET
 70
     0
 71
     1
 91
        2
 92
        7
 72
     1
 73
     1
 93
       21
 10
405.5252867366722
 20
508.6909650845638
 42
-0.5205670505518154
 10
405.9951330470652
 20
509.3619751562266
 42
0.0
 10
409.0810590436941
 20
509.3619751562266
 42
0.0
 10
406.5492322764715
 20
513.853060053059
 42
0.7040385315424937
 10
404.6933128061099
 20
513.5356233338935
 42
0.0
 10
403.7810590436941
 20
508.3619751562268
 42
0.0
 10
403.7810590436941
 20
498.3619751562266
 42
-0.4142135623730951
 10
398.7810590436941
 20
493.3619751562266
 42
0.0
 10
398.7810590436941
 20
491.8619751562267
 42
0.0
 10
401.2810590436941
 20
491.8619751562267
 42
0.305614684580699
 10
404.989158287242
 20
494.3619751562266
 42
0.0758130451093986
 10
405.267708985596
 20
495.5354445439818
 42
-0.7464811088943645
 10
406.9567248478632
 20
495.8894151088254
 42
0.0
 10
407.781059043694
 20
494.3619751562266
 42
0.0
 10
409.5810590436942
 20
494.3619751562266
 42
0.0
 10
407.2810590436942
 20
498.3619751562267
 42
0.0
 10
407.2810590436941
 20
498.9619751562265
 42
0.0
 10
408.6810590436942
 20
500.3619751562267
 42
0.0
 10
408.6810590436941
 20
501.3619751562266
 42
0.0
 10
407.281059043694
 20
502.7619751562265
 42
0.0
 10
407.2810590436942
 20
503.8670203173175
 42
0.0
 97
       21
330
B6E
330
B6B
330
B6C
330
B6D
330
B6F
330
B5B
330
B5C
330
B5F
330
B3C
330
B5D
330
B66
330
B67
330
B64
330
B65
330
B69
330
B61
330
B63
330
B62
330
B60
330
B6A
330
B5A
 92
        7
 72
     1
 73
     1
 93
       21
 10
329.7810590436942
 20
508.3619751562267
 42
0.0
 10
328.8688052812783
 20
513.5356233338935
 42
0.7040385315423691
 10
327.0128858109169
 20
513.853060053059
 42
0.0
 10
324.4810590436943
 20
509.3619751562266
 42
0.0
 10
327.5669850403231
 20
509.3619751562266
 42
-0.5205670505518152
 10
328.0368313507161
 20
508.6909650845638
 42
0.0
 10
326.2810590436941
 20
503.8670203173174
 42
0.0
 10
326.2810590436941
 20
502.7619751562266
 42
0.0
 10
324.8810590436942
 20
501.3619751562266
 42
0.0
 10
324.8810590436942
 20
500.3619751562266
 42
0.0
 10
326.2810590436942
 20
498.9619751562267
 42
0.0
 10
326.2810590436942
 20
498.3619751562267
 42
0.0
 10
323.9810590436942
 20
494.3619751562265
 42
0.0
 10
325.7810590436942
 20
494.3619751562267
 42
0.0
 10
326.6053932395251
 20
495.8894151088254
 42
-0.7464811088944488
 10
328.2944091017922
 20
495.5354445439818
 42
0.075813045109398
 10
328.5729598001463
 20
494.3619751562266
 42
0.3056146845807015
 10
332.2810590436942
 20
491.8619751562266
 42
0.0
 10
334.7810590436941
 20
491.8619751562265
 42
0.0
 10
334.7810590436941
 20
493.3619751562266
 42
-0.4142135623730951
 10
329.7810590436942
 20
498.3619751562266
 42
0.0
 97
       21
330
B50
330
B54
330
B52
330
B51
330
B53
330
B3F
330
B4F
330
B49
330
B47
330
B48
330
B46
330
B4C
330
B4B
330
B4A
330
B4D
330
B45
330
B42
330
B3C
330
B44
330
B41
330
B40
 75
     0
 76
     1
 52
45.0
 41
15.0
 77
     0
 78
     2
 53
45.0
 43
0.0
 44
0.0
 45
-1.325825214724776
 46
1.325825214724776
 79
     0
 53
135.0
 43
0.0
 44
0.0
 45
-1.325825214724776
 46
-1.325825214724776
 79
     0
 47
0.1736524157520494
 98
        2
 10
404.8027153100425
 20
505.6295479763357
 10
328.3433889206553
 20
505.4558954315509
  0
HATCH
  5
CD0
330
1E
100
AcDbEntity
  8
SCHRAFF
100
AcDbHatch
 10
0.0
 20
0.0
 30
0.0
210
0.0
220
0.0
230
1.0
  2
_USER
 70
     0
 71
     1
 91
        7
 92
        7
 72
     1
 73
     1
 93
        4
 10
269.781059043694
 20
365.1167685300107
 42
0.0
 10
254.7810590436948
 20
365.1167685300107
 42
1.0
 10
254.7810590436944
 20
359.1167685300103
 42
0.0
 10
269.7810590436938
 20
359.1167685300103
 42
0.0
 97
        4
330
ABA
330
ADE
330
AD5
330
AE5
 92
        7
 72
     1
 73
     1
 93
        4
 10
301.281059043694
 20
365.1167685300108
 42
0.0
 10
283.7810590436937
 20
365.1167685300107
 42
0.0
 10
283.7810590436937
 20
359.1167685300103
 42
0.0
 10
301.281059043694
 20
359.1167685300103
 42
1.0
 97
        4
330
ABA
330
AED
330
AB8
330
B22
 92
        7
 72
     1
 73
     1
 93
        4
 10
438.1810590436939
 20
365.116768530011
 42
0.0
 10
432.2810590436943
 20
365.116768530011
 42
1.0
 10
432.2810590436943
 20
359.1167685300103
 42
0.0
 10
438.1810590436939
 20
359.1167685300102
 42
0.0
 97
        4
330
ABA
330
B8E
330
AB8
330
B8B
 92
        7
 72
     1
 73
     1
 93
        7
 10
485.7810590436939
 20
379.1167685300119
 42
0.0
 10
480.781059043694
 20
379.1167685300123
 42
0.0
 10
480.6224402949027
 20
370.0295064978249
 42
-0.4091108014277237
 10
475.6232018191207
 20
365.1167685300111
 42
0.0
 10
438.1810590436939
 20
365.1167685300111
 42
0.0
 10
438.181059043694
 20
359.1167685300103
 42
0.0
 10
485.7810590436939
 20
359.1167685300102
 42
0.0
 97
        7
330
B82
330
BAB
330
BA8
330
ABA
330
B8B
330
AB8
330
BB1
 92
        7
 72
     1
 73
     1
 93
        5
 10
496.7810590436939
 20
379.1167685300109
 42
0.0
 10
491.7810590436936
 20
379.1167685300113
 42
0.0
 10
491.7810590436948
 20
359.1167685300103
 42
0.0
 10
492.0421233773973
 20
359.1167685300103
 42
0.4193348017584233
 10
497.0413618531791
 20
364.2040305621975
 42
0.0
 97
        5
330
B82
330
BB0
330
AB8
330
BB9
330
BAF
 92
        7
 72
     0
 73
     1
 93
        4
 10
491.7810590436937
 20
379.1167685300114
 10
491.131059043694
 20
379.1167685300115
 10
491.1310590436941
 20
359.1167685300103
 10
491.7810590436948
 20
359.1167685300103
 97
        4
330
B82
330
BB4
330
AB8
330
BB0
 92
        7
 72
     0
 73
     1
 93
        4
 10
486.4310590436941
 20
379.1167685300119
 10
485.7810590436939
 20
379.116768530012
 10
485.7810590436939
 20
359.1167685300103
 10
486.4310590436941
 20
359.1167685300104
 97
        4
330
B82
330
BB1
330
AB8
330
BB3
 75
     0
 76
     0
 52
135.0
 41
5.0
 77
     0
 78
     1
 53
135.0
 43
0.0
 44
0.0
 45
-3.535533905932737
 46
-3.535533905932737
 79
     0
 47
0.0900661330222498
 98
        7
 10
266.2401775438862
 20
362.0259161216252
 10
286.9081857604574
 20
361.6570965450953
 10
432.322378505929
 20
362.7635538751863
 10
444.1326693017945
 20
362.3947342986564
 10
493.2191854351859
 20
366.4517468414867
 10
491.377754405963
 20
366.3938817863682
 10
485.8799626831805
 20
368.0150717824925
  0
HATCH
  5
CF0
330
1E
100
AcDbEntity
  8
SCHRAFF
100
AcDbHatch
 10
0.0
 20
0.0
 30
0.0
210
0.0
220
0.0
230
1.0
  2
_USER
 70
     0
 71
     1
 91
        3
 92
        7
 72
     1
 73
     1
 93
       12
 10
483.0635446224222
 20
351.1167685300105
 42
-0.1989123673797157
 10
485.5384183565755
 20
350.0916422641628
 42
0.0
 10
487.8668454813217
 20
347.7632151394163
 42
0.0
 10
489.2810590436946
 20
349.1774287017897
 42
0.0
 10
486.9526319189484
 20
351.5058558265359
 42
0.198912367379664
 10
483.0635446224226
 20
353.1167685300104
 42
0.0
 10
425.3011432908287
 20
353.1167685300104
 42
0.2102773852970732
 10
419.4029245963481
 20
350.5214901909359
 42
0.0
 10
409.2742201696299
 20
339.4679489452418
 42
0.0
 10
410.7487748432501
 20
338.1167685300104
 42
0.0
 10
420.8774792699681
 20
349.1703097757047
 42
-0.210277385297069
 10
425.3011432908286
 20
351.1167685300102
 42
0.0
 97
       12
330
AAA
330
AA1
330
B28
330
B35
330
AA2
330
B8D
330
B88
330
B83
330
B84
330
BB6
330
BB7
330
B85
 92
        7
 72
     1
 73
     1
 93
        8
 10
276.7810590436941
 20
353.1167685300104
 42
0.0
 10
276.7810590436941
 20
351.1167685300102
 42
0.0
 10
308.2609747965596
 20
351.11676853001
 42
-0.2102773852970905
 10
312.6846388174205
 20
349.1703097757042
 42
0.0
 10
322.8133432441382
 20
338.1167685300105
 42
0.0
 10
324.2878979177584
 20
339.4679489452417
 42
0.0
 10
314.1591934910402
 20
350.5214901909359
 42
0.2102773852970758
 10
308.2609747965595
 20
353.1167685300104
 42
0.0
 97
        8
330
AD2
330
AE9
330
AD0
330
B25
330
B0F
330
B1C
330
B10
330
B24
 92
        7
 72
     1
 73
     1
 93
        8
 10
250.4985734649662
 20
353.1167685300104
 42
0.1989123673796827
 10
246.60948616844
 20
351.5058558265359
 42
0.0
 10
244.2810590436942
 20
349.1774287017897
 42
0.0
 10
245.695272606067
 20
347.7632151394165
 42
0.0
 10
248.0236997308133
 20
350.0916422641628
 42
-0.1989123673796735
 10
250.498573464966
 20
351.1167685300105
 42
0.0
 10
276.7810590436941
 20
351.1167685300103
 42
0.0
 10
276.7810590436941
 20
353.1167685300104
 42
0.0
 97
        8
330
AD2
330
AD9
330
ADB
330
ADA
330
AD8
330
ADC
330
AD0
330
AE9
 75
     0
 76
     0
 52
45.0
 41
2.0
 77
     0
 78
     1
 53
45.0
 43
0.0
 44
0.0
 45
-1.414213562373094
 46
1.414213562373095
 79
     0
 47
0.3451510555091603
 98
        3
 10
436.1131285458514
 20
351.7764134142581
 10
288.2874360154392
 20
352.1215632764866
 10
274.1265623299105
 20
352.1215632764866
  0
HATCH
  5
D2E
330
1E
100
AcDbEntity
  8
SCHRAFF
100
AcDbHatch
 10
0.0
 20
0.0
 30
0.0
210
0.0
220
0.0
230
1.0
  2
_USER
 70
     0
 71
     1
 91
        3
 92
        7
 72
     0
 73
     1
 93
        6
 10
403.2810590436943
 20
320.8559200358638
 10
401.7810590436944
 20
319.4324731857916
 10
646.5926318518024
 20
306.6024423121301
 10
653.598183640015
 20
305.9552990561242
 10
653.6767496497841
 20
307.4544278275406
 10
646.7009147032792
 20
308.0988259673465
 97
        6
330
AC1
330
AAD
330
BBB
330
B73
330
BBC
330
AAC
 92
        7
 72
     0
 73
     1
 93
        6
 10
366.7810590436943
 20
251.1706812408437
 10
366.7810590436943
 20
249.6686227218467
 10
642.8803898975446
 20
235.1988699302627
 10
649.8969646189482
 20
235.3318330039393
 10
649.9756685636604
 20
236.8335937308607
 10
642.9054638848567
 20
236.6996143772666
 97
        6
330
AC7
330
AB0
330
B78
330
B73
330
B77
330
AB1
 92
        7
 72
     0
 73
     1
 93
        4
 10
366.7810590436943
 20
251.1706812408437
 10
331.7810590436944
 20
253.0049535157502
 10
330.2810590436941
 20
251.5815066656776
 10
366.7810590436943
 20
249.6686227218466
 97
        4
330
AB1
330
AC1
330
AB0
330
AC7
 75
     0
 76
     0
 52
45.0
 41
2.0
 77
     0
 78
     1
 53
45.0
 43
0.0
 44
0.0
 45
-1.414213562373094
 46
1.414213562373095
 79
     0
 47
0.5086632711672725
 98
        3
 10
562.6884482063656
 20
311.6428950603652
 10
575.4137285126107
 20
239.4127109049386
 10
358.065951701034
 20
250.603302027893
  0
LINE
  5
D38
330
1E
100
AcDbEntity
  8
TEXT
 62
     2
100
AcDbLine
 10
669.922347486962
 20
185.912404634125
 30
0.0
 11
778.8473717207648
 21
185.9124046341247
 31
0.0
  0
TEXT
  5
D39
330
1E
100
AcDbEntity
  8
TEXT
 62
     1
100
AcDbText
 10
672.3273734149491
 20
175.1538375405058
 30
0.0
 40
7.0
  1
EDV-Art.Nr. 21987.070X
 41
0.8
  7
GREEKS
100
AcDbText
  0
TEXT
  5
D3A
330
1E
100
AcDbEntity
  8
TEXT
 62
     1
100
AcDbText
 10
672.3273734149491
 20
188.2985353795699
 30
0.0
 40
7.0
  1
Unterteil DN70
 41
0.8
  7
GREEKS
100
AcDbText
  0
LINE
  5
D3B
330
1E
100
AcDbEntity
  8
TEXT
 62
     2
100
AcDbLine
 10
669.922347486962
 20
185.912404634125
 30
0.0
 11
635.9143438777671
 21
236.7150157149668
 31
0.0
  0
ARC
  5
DBA
330
1E
100
AcDbEntity
  8
STEMPEL
100
AcDbCircle
 10
448.3310590436942
 20
365.866768530011
 30
0.0
 40
0.750000000000001
100
AcDbArc
 50
269.9999991462263
 51
70.00000000000047
  0
ARC
  5
DBB
330
1E
100
AcDbEntity
  8
STEMPEL
100
AcDbCircle
 10
428.0310590436942
 20
365.866768530011
 30
0.0
 40
0.7500000000000013
100
AcDbArc
 50
109.9999999999995
 51
269.9999991462263
  0
LINE
  5
DBC
330
1E
100
AcDbEntity
  8
STEMPEL
100
AcDbLine
 10
429.5208050058498
 20
367.2071250462109
 30
0.0
 11
427.7745439361999
 21
366.5715379956005
 31
0.0
  0
LINE
  5
DBD
330
1E
100
AcDbEntity
  8
STEMPEL
100
AcDbLine
 10
448.5875741511884
 20
366.5715379956005
 30
0.0
 11
446.8413130815386
 21
367.2071250462109
 31
0.0
  0
LINE
  5
DBE
330
1E
100
AcDbEntity
  8
STEMPEL
100
AcDbLine
 10
446.8413130815386
 20
374.8058793975557
 30
0.0
 11
445.6810590436942
 21
375.1167685300111
 31
0.0
  0
LINE
  5
DBF
330
1E
100
AcDbEntity
  8
STEMPEL
100
AcDbLine
 10
430.6810590436942
 20
375.1167685300111
 30
0.0
 11
429.5208050058498
 21
374.8058793975557
 31
0.0
  0
LINE
  5
DC0
330
1E
100
AcDbEntity
  8
STEMPEL
100
AcDbLine
 10
429.5208050058498
 20
367.2071250462109
 30
0.0
 11
429.5208050058498
 21
374.8058793975557
 31
0.0
  0
LINE
  5
DC1
330
1E
100
AcDbEntity
  8
STEMPEL
100
AcDbLine
 10
448.3310590436942
 20
365.116768530011
 30
0.0
 11
428.0310590436942
 21
365.116768530011
 31
0.0
  0
LINE
  5
DC2
330
1E
100
AcDbEntity
  8
STEMPEL
100
AcDbLine
 10
448.5875741511884
 20
366.5715379956005
 30
0.0
 11
427.7745439361999
 21
366.5715379956005
 31
0.0
  0
LINE
  5
DC3
330
1E
100
AcDbEntity
  8
STEMPEL
100
AcDbLine
 10
433.850932024772
 20
367.2071250462109
 30
0.0
 11
433.850932024772
 21
374.8058793975557
 31
0.0
  0
LINE
  5
DC4
330
1E
100
AcDbEntity
  8
STEMPEL
100
AcDbLine
 10
442.5111860626164
 20
367.2071250462109
 30
0.0
 11
442.5111860626164
 21
374.8058793975557
 31
0.0
  0
LINE
  5
DC5
330
1E
100
AcDbEntity
  8
STEMPEL
100
AcDbLine
 10
446.8413130815386
 20
367.2071250462109
 30
0.0
 11
446.8413130815386
 21
374.8058793975557
 31
0.0
  0
LINE
  5
DC6
330
1E
100
AcDbEntity
  8
STEMPEL
100
AcDbLine
 10
430.6810590436942
 20
375.1167685300111
 30
0.0
 11
445.6810590436942
 21
375.1167685300111
 31
0.0
  0
POINT
  5
DC7
330
1E
100
AcDbEntity
  8
0
100
AcDbPoint
 10
438.1810590436942
 20
365.116768530011
 30
0.0
210
0.0000000000000001
220
1.0
230
0.0
  0
ARC
  5
DC8
330
1E
100
AcDbEntity
  8
HILF
100
AcDbCircle
 10
431.6858685153109
 20
361.8682823804814
 30
0.0
 40
5.761140599691502
100
AcDbArc
 50
67.92594526325932
 51
112.0740547367407
  0
ARC
  5
DC9
330
1E
100
AcDbEntity
  8
HILF
100
AcDbCircle
 10
444.6762495720775
 20
361.8682823804814
 30
0.0
 40
5.761140599691502
100
AcDbArc
 50
67.92594526325932
 51
112.0740547367407
  0
ARC
  5
DCA
330
1E
100
AcDbEntity
  8
HILF
100
AcDbCircle
 10
438.1810590436942
 20
345.2183074823498
 30
0.0
 40
22.41111549782308
100
AcDbArc
 50
78.85962783890455
 51
101.1403721610954
  0
ARC
  5
DCB
330
1E
100
AcDbEntity
  8
STEMPEL
100
AcDbCircle
 10
444.6762495720775
 20
367.4224628222266
 30
0.0
 40
7.694305707784447
100
AcDbArc
 50
73.65710669401345
 51
106.3428933059825
  0
ARC
  5
DCC
330
1E
100
AcDbEntity
  8
STEMPEL
100
AcDbCircle
 10
431.685868515311
 20
367.4224628222266
 30
0.0
 40
7.694305707784447
100
AcDbArc
 50
73.65710669401345
 51
106.3428933059825
  0
ARC
  5
DCD
330
1E
100
AcDbEntity
  8
STEMPEL
100
AcDbCircle
 10
438.1810590436942
 20
344.8058793975562
 30
0.0
 40
30.31088913245485
100
AcDbArc
 50
81.78678929826059
 51
98.2132107017394
  0
LINE
  5
DCE
330
1E
100
AcDbEntity
  8
STEMPEL
100
AcDbLine
 10
443.1810590436941
 20
377.1167685300104
 30
0.0
 11
442.1810590436941
 21
378.1167685300104
 31
0.0
  0
LINE
  5
DCF
330
1E
100
AcDbEntity
  8
STEMPEL
100
AcDbLine
 10
443.1810590436941
 20
377.1167685300104
 30
0.0
 11
443.1810590436941
 21
375.1167685300111
 31
0.0
  0
LINE
  5
DD0
330
1E
100
AcDbEntity
  8
HILF
100
AcDbLine
 10
442.1810590436941
 20
378.1167685300104
 30
0.0
 11
442.1810590436941
 21
375.1167685300111
 31
0.0
  0
LINE
  5
DD1
330
1E
100
AcDbEntity
  8
STEMPEL
100
AcDbLine
 10
434.1810590436941
 20
378.1167685300104
 30
0.0
 11
433.1810590436941
 21
377.1167685300104
 31
0.0
  0
LINE
  5
DD2
330
1E
100
AcDbEntity
  8
HILF
100
AcDbLine
 10
434.1810590436941
 20
378.1167685300104
 30
0.0
 11
434.1810590436941
 21
375.1167685300111
 31
0.0
  0
LINE
  5
DD3
330
1E
100
AcDbEntity
  8
STEMPEL
100
AcDbLine
 10
433.1810590436941
 20
377.1167685300104
 30
0.0
 11
433.1810590436941
 21
375.1167685300111
 31
0.0
  0
LINE
  5
DD4
330
1E
100
AcDbEntity
  8
STEMPEL
100
AcDbLine
 10
442.1810590436941
 20
378.1167685300104
 30
0.0
 11
434.1810590436941
 21
378.1167685300104
 31
0.0
  0
LINE
  5
DD5
330
1E
100
AcDbEntity
  8
STEMPEL
100
AcDbLine
 10
433.1810590436941
 20
377.1167685300104
 30
0.0
 11
443.1810590436939
 21
377.1167685300104
 31
0.0
  0
ARC
  5
DD6
330
1E
100
AcDbEntity
  8
STEMPEL
100
AcDbCircle
 10
321.781059043694
 20
344.805879397556
 30
0.0
 40
30.31088913245485
100
AcDbArc
 50
81.78678929826059
 51
98.2132107017394
  0
ARC
  5
DD7
330
1E
100
AcDbEntity
  8
STEMPEL
100
AcDbCircle
 10
315.2858685153108
 20
367.4224628222264
 30
0.0
 40
7.694305707784447
100
AcDbArc
 50
73.65710669401345
 51
106.3428933059825
  0
ARC
  5
DD8
330
1E
100
AcDbEntity
  8
STEMPEL
100
AcDbCircle
 10
328.2762495720773
 20
367.4224628222264
 30
0.0
 40
7.694305707784447
100
AcDbArc
 50
73.65710669401345
 51
106.3428933059825
  0
ARC
  5
DD9
330
1E
100
AcDbEntity
  8
HILF
100
AcDbCircle
 10
321.781059043694
 20
345.2183074823495
 30
0.0
 40
22.41111549782308
100
AcDbArc
 50
78.85962783890455
 51
101.1403721610954
  0
ARC
  5
DDA
330
1E
100
AcDbEntity
  8
HILF
100
AcDbCircle
 10
328.2762495720774
 20
361.8682823804812
 30
0.0
 40
5.761140599691502
100
AcDbArc
 50
67.92594526325932
 51
112.0740547367407
  0
ARC
  5
DDB
330
1E
100
AcDbEntity
  8
HILF
100
AcDbCircle
 10
315.2858685153107
 20
361.8682823804812
 30
0.0
 40
5.761140599691502
100
AcDbArc
 50
67.92594526325932
 51
112.0740547367407
  0
POINT
  5
DDC
330
1E
100
AcDbEntity
  8
0
100
AcDbPoint
 10
321.781059043694
 20
365.1167685300108
 30
0.0
210
0.0000000000000001
220
1.0
230
0.0
  0
LINE
  5
DDD
330
1E
100
AcDbEntity
  8
STEMPEL
100
AcDbLine
 10
314.281059043694
 20
375.1167685300108
 30
0.0
 11
329.281059043694
 21
375.1167685300108
 31
0.0
  0
LINE
  5
DDE
330
1E
100
AcDbEntity
  8
STEMPEL
100
AcDbLine
 10
330.4413130815384
 20
367.2071250462106
 30
0.0
 11
330.4413130815384
 21
374.8058793975554
 31
0.0
  0
LINE
  5
DDF
330
1E
100
AcDbEntity
  8
STEMPEL
100
AcDbLine
 10
326.1111860626162
 20
367.2071250462106
 30
0.0
 11
326.1111860626162
 21
374.8058793975554
 31
0.0
  0
LINE
  5
DE0
330
1E
100
AcDbEntity
  8
STEMPEL
100
AcDbLine
 10
317.4509320247718
 20
367.2071250462106
 30
0.0
 11
317.4509320247718
 21
374.8058793975554
 31
0.0
  0
LINE
  5
DE1
330
1E
100
AcDbEntity
  8
STEMPEL
100
AcDbLine
 10
332.1875741511883
 20
366.5715379956002
 30
0.0
 11
311.3745439361998
 21
366.5715379956002
 31
0.0
  0
LINE
  5
DE2
330
1E
100
AcDbEntity
  8
STEMPEL
100
AcDbLine
 10
331.931059043694
 20
365.1167685300108
 30
0.0
 11
311.6310590436941
 21
365.1167685300108
 31
0.0
  0
LINE
  5
DE3
330
1E
100
AcDbEntity
  8
STEMPEL
100
AcDbLine
 10
313.1208050058497
 20
367.2071250462106
 30
0.0
 11
313.1208050058497
 21
374.8058793975554
 31
0.0
  0
LINE
  5
DE4
330
1E
100
AcDbEntity
  8
STEMPEL
100
AcDbLine
 10
314.281059043694
 20
375.1167685300108
 30
0.0
 11
313.1208050058497
 21
374.8058793975554
 31
0.0
  0
LINE
  5
DE5
330
1E
100
AcDbEntity
  8
STEMPEL
100
AcDbLine
 10
330.4413130815384
 20
374.8058793975554
 30
0.0
 11
329.281059043694
 21
375.1167685300108
 31
0.0
  0
LINE
  5
DE6
330
1E
100
AcDbEntity
  8
STEMPEL
100
AcDbLine
 10
332.1875741511883
 20
366.5715379956002
 30
0.0
 11
330.4413130815384
 21
367.2071250462106
 31
0.0
  0
LINE
  5
DE7
330
1E
100
AcDbEntity
  8
STEMPEL
100
AcDbLine
 10
313.1208050058497
 20
367.2071250462106
 30
0.0
 11
311.3745439361998
 21
366.5715379956002
 31
0.0
  0
ARC
  5
DE8
330
1E
100
AcDbEntity
  8
STEMPEL
100
AcDbCircle
 10
311.6310590436941
 20
365.8667685300108
 30
0.0
 40
0.7500000000000013
100
AcDbArc
 50
109.9999999999995
 51
269.9999991462263
  0
ARC
  5
DE9
330
1E
100
AcDbEntity
  8
STEMPEL
100
AcDbCircle
 10
331.931059043694
 20
365.8667685300108
 30
0.0
 40
0.750000000000001
100
AcDbArc
 50
269.9999991462263
 51
70.00000000000047
  0
LINE
  5
DEA
330
1E
100
AcDbEntity
  8
STEMPEL
100
AcDbLine
 10
326.7810590436943
 20
377.6167685300109
 30
0.0
 11
325.7810590436942
 21
378.6167685300108
 31
0.0
  0
LINE
  5
DEB
330
1E
100
AcDbEntity
  8
STEMPEL
100
AcDbLine
 10
326.7810590436939
 20
377.6167685300109
 30
0.0
 11
325.7810590436939
 21
378.6167685300108
 31
0.0
  0
LINE
  5
DEC
330
1E
100
AcDbEntity
  8
STEMPEL
100
AcDbLine
 10
317.7810590436942
 20
378.6167685300108
 30
0.0
 11
316.7810590436943
 21
377.6167685300109
 31
0.0
  0
LINE
  5
DED
330
1E
100
AcDbEntity
  8
STEMPEL
100
AcDbLine
 10
317.7810590436939
 20
378.6167685300108
 30
0.0
 11
316.7810590436939
 21
377.6167685300109
 31
0.0
  0
LINE
  5
DEE
330
1E
100
AcDbEntity
  8
STEMPEL
100
AcDbLine
 10
325.7810590436942
 20
378.6167685300108
 30
0.0
 11
317.7810590436942
 21
378.6167685300108
 31
0.0
  0
LINE
  5
DEF
330
1E
100
AcDbEntity
  8
STEMPEL
100
AcDbLine
 10
316.7810590436943
 20
377.6167685300109
 30
0.0
 11
326.781059043694
 21
377.6167685300109
 31
0.0
  0
LINE
  5
DF0
330
1E
100
AcDbEntity
  8
STEMPEL
100
AcDbLine
 10
316.7810590436939
 20
377.6167685300109
 30
0.0
 11
326.7810590436937
 21
377.6167685300109
 31
0.0
  0
LINE
  5
DF1
330
1E
100
AcDbEntity
  8
STEMPEL
100
AcDbLine
 10
325.7810590436939
 20
378.6167685300108
 30
0.0
 11
317.7810590436939
 21
378.6167685300108
 31
0.0
  0
LINE
  5
DF2
330
1E
100
AcDbEntity
  8
HILF
100
AcDbLine
 10
325.7810590436938
 20
359.1167685300103
 30
0.0
 11
325.7810590436938
 21
356.1167685300103
 31
0.0
  0
LINE
  5
DF4
330
1E
100
AcDbEntity
  8
STEMPEL
100
AcDbLine
 10
316.7810590436939
 20
359.1167685300103
 30
0.0
 11
316.7810590436939
 21
356.1167685300103
 31
0.0
  0
LINE
  5
DF5
330
1E
100
AcDbEntity
  8
HILF
100
AcDbLine
 10
317.7810590436939
 20
359.1167685300103
 30
0.0
 11
317.7810590436939
 21
356.1167685300103
 31
0.0
  0
LINE
  5
DF6
330
1E
100
AcDbEntity
  8
STEMPEL
100
AcDbLine
 10
316.7810590436939
 20
377.6167685300109
 30
0.0
 11
316.7810590436939
 21
375.1167685300107
 31
0.0
  0
LINE
  5
DF7
330
1E
100
AcDbEntity
  8
HILF
100
AcDbLine
 10
317.7810590436939
 20
378.6167685300108
 30
0.0
 11
317.781059043694
 21
375.1167685300107
 31
0.0
  0
LINE
  5
DF8
330
1E
100
AcDbEntity
  8
STEMPEL
100
AcDbLine
 10
326.7810590436939
 20
377.6167685300107
 30
0.0
 11
326.7810590436939
 21
375.1167685300107
 31
0.0
  0
LINE
  5
DF9
330
1E
100
AcDbEntity
  8
HILF
100
AcDbLine
 10
325.7810590436939
 20
378.6167685300108
 30
0.0
 11
325.781059043694
 21
375.1167685300107
 31
0.0
  0
LINE
  5
DFA
330
1E
100
AcDbEntity
  8
MITTEL
100
AcDbLine
 10
321.781059043694
 20
383.6167685300107
 30
0.0
 11
321.781059043694
 21
348.6167685300104
 31
0.0
  0
ARC
  5
DFB
330
1E
100
AcDbEntity
  8
STEMPEL
100
AcDbCircle
 10
276.7810590436942
 20
344.8058793975559
 30
0.0
 40
30.31088913245485
100
AcDbArc
 50
81.78678929826059
 51
98.2132107017394
  0
ARC
  5
DFC
330
1E
100
AcDbEntity
  8
STEMPEL
100
AcDbCircle
 10
270.2858685153109
 20
367.4224628222263
 30
0.0
 40
7.694305707784447
100
AcDbArc
 50
73.65710669401345
 51
106.3428933059825
  0
ARC
  5
DFD
330
1E
100
AcDbEntity
  8
STEMPEL
100
AcDbCircle
 10
283.2762495720775
 20
367.4224628222263
 30
0.0
 40
7.694305707784447
100
AcDbArc
 50
73.65710669401345
 51
106.3428933059825
  0
LINE
  5
DFE
330
1E
100
AcDbEntity
  8
STEMPEL
100
AcDbLine
 10
269.2810590436942
 20
375.1167685300107
 30
0.0
 11
284.2810590436942
 21
375.1167685300107
 31
0.0
  0
LINE
  5
DFF
330
1E
100
AcDbEntity
  8
STEMPEL
100
AcDbLine
 10
269.2810590436942
 20
375.1167685300107
 30
0.0
 11
268.1208050058498
 21
374.8058793975554
 31
0.0
  0
LINE
  5
E00
330
1E
100
AcDbEntity
  8
STEMPEL
100
AcDbLine
 10
285.4413130815386
 20
374.8058793975554
 30
0.0
 11
284.2810590436942
 21
375.1167685300107
 31
0.0
  0
LINE
  5
E01
330
1E
100
AcDbEntity
  8
STEMPEL
100
AcDbLine
 10
281.7810590436943
 20
377.6167685300109
 30
0.0
 11
280.7810590436942
 21
378.6167685300108
 31
0.0
  0
LINE
  5
E02
330
1E
100
AcDbEntity
  8
STEMPEL
100
AcDbLine
 10
281.7810590436944
 20
377.6167685300109
 30
0.0
 11
280.7810590436944
 21
378.6167685300108
 31
0.0
  0
LINE
  5
E03
330
1E
100
AcDbEntity
  8
STEMPEL
100
AcDbLine
 10
281.7810590436944
 20
377.6167685300107
 30
0.0
 11
281.7810590436943
 21
375.1167685300107
 31
0.0
  0
LINE
  5
E04
330
1E
100
AcDbEntity
  8
HILF
100
AcDbLine
 10
280.7810590436944
 20
378.6167685300108
 30
0.0
 11
280.7810590436944
 21
375.1167685300107
 31
0.0
  0
LINE
  5
E05
330
1E
100
AcDbEntity
  8
STEMPEL
100
AcDbLine
 10
272.7810590436942
 20
378.6167685300108
 30
0.0
 11
271.7810590436942
 21
377.6167685300109
 31
0.0
  0
LINE
  5
E06
330
1E
100
AcDbEntity
  8
STEMPEL
100
AcDbLine
 10
272.7810590436944
 20
378.6167685300108
 30
0.0
 11
271.7810590436944
 21
377.6167685300109
 31
0.0
  0
LINE
  5
E07
330
1E
100
AcDbEntity
  8
STEMPEL
100
AcDbLine
 10
271.7810590436944
 20
377.6167685300109
 30
0.0
 11
271.7810590436944
 21
375.1167685300107
 31
0.0
  0
LINE
  5
E08
330
1E
100
AcDbEntity
  8
HILF
100
AcDbLine
 10
272.7810590436944
 20
378.6167685300108
 30
0.0
 11
272.7810590436944
 21
375.1167685300107
 31
0.0
  0
LINE
  5
E09
330
1E
100
AcDbEntity
  8
STEMPEL
100
AcDbLine
 10
271.7810590436942
 20
377.6167685300109
 30
0.0
 11
281.781059043694
 21
377.6167685300109
 31
0.0
  0
LINE
  5
E0A
330
1E
100
AcDbEntity
  8
STEMPEL
100
AcDbLine
 10
280.7810590436942
 20
378.6167685300108
 30
0.0
 11
272.7810590436942
 21
378.6167685300108
 31
0.0
  0
LINE
  5
E0B
330
1E
100
AcDbEntity
  8
STEMPEL
100
AcDbLine
 10
271.7810590436944
 20
377.6167685300109
 30
0.0
 11
281.7810590436941
 21
377.6167685300109
 31
0.0
  0
LINE
  5
E0C
330
1E
100
AcDbEntity
  8
STEMPEL
100
AcDbLine
 10
280.7810590436944
 20
378.6167685300108
 30
0.0
 11
272.7810590436944
 21
378.6167685300108
 31
0.0
  0
ARC
  5
E0D
330
1E
100
AcDbEntity
  8
HILF
100
AcDbCircle
 10
276.7810590436942
 20
345.2183074823495
 30
0.0
 40
22.41111549782308
100
AcDbArc
 50
78.85962783890455
 51
101.1403721610954
  0
ARC
  5
E0E
330
1E
100
AcDbEntity
  8
HILF
100
AcDbCircle
 10
283.2762495720775
 20
361.8682823804811
 30
0.0
 40
5.761140599691502
100
AcDbArc
 50
67.92594526325932
 51
112.0740547367407
  0
ARC
  5
E0F
330
1E
100
AcDbEntity
  8
HILF
100
AcDbCircle
 10
270.2858685153109
 20
361.8682823804811
 30
0.0
 40
5.761140599691502
100
AcDbArc
 50
67.92594526325932
 51
112.0740547367407
  0
POINT
  5
E10
330
1E
100
AcDbEntity
  8
0
100
AcDbPoint
 10
276.7810590436942
 20
365.1167685300107
 30
0.0
210
0.0000000000000001
220
1.0
230
0.0
  0
LINE
  5
E11
330
1E
100
AcDbEntity
  8
STEMPEL
100
AcDbLine
 10
285.4413130815386
 20
367.2071250462106
 30
0.0
 11
285.4413130815386
 21
374.8058793975554
 31
0.0
  0
LINE
  5
E12
330
1E
100
AcDbEntity
  8
STEMPEL
100
AcDbLine
 10
281.1111860626164
 20
367.2071250462106
 30
0.0
 11
281.1111860626164
 21
374.8058793975554
 31
0.0
  0
LINE
  5
E13
330
1E
100
AcDbEntity
  8
STEMPEL
100
AcDbLine
 10
272.450932024772
 20
367.2071250462106
 30
0.0
 11
272.450932024772
 21
374.8058793975554
 31
0.0
  0
LINE
  5
E14
330
1E
100
AcDbEntity
  8
STEMPEL
100
AcDbLine
 10
287.1875741511885
 20
366.5715379956002
 30
0.0
 11
266.3745439361999
 21
366.5715379956002
 31
0.0
  0
LINE
  5
E15
330
1E
100
AcDbEntity
  8
STEMPEL
100
AcDbLine
 10
286.9310590436942
 20
365.1167685300107
 30
0.0
 11
266.6310590436942
 21
365.1167685300107
 31
0.0
  0
LINE
  5
E16
330
1E
100
AcDbEntity
  8
STEMPEL
100
AcDbLine
 10
268.1208050058498
 20
367.2071250462106
 30
0.0
 11
268.1208050058498
 21
374.8058793975554
 31
0.0
  0
LINE
  5
E17
330
1E
100
AcDbEntity
  8
STEMPEL
100
AcDbLine
 10
287.1875741511885
 20
366.5715379956002
 30
0.0
 11
285.4413130815386
 21
367.2071250462106
 31
0.0
  0
LINE
  5
E18
330
1E
100
AcDbEntity
  8
STEMPEL
100
AcDbLine
 10
268.1208050058498
 20
367.2071250462106
 30
0.0
 11
266.3745439361999
 21
366.5715379956002
 31
0.0
  0
ARC
  5
E19
330
1E
100
AcDbEntity
  8
STEMPEL
100
AcDbCircle
 10
266.6310590436942
 20
365.8667685300108
 30
0.0
 40
0.7500000000000013
100
AcDbArc
 50
109.9999999999995
 51
269.9999991462263
  0
ARC
  5
E1A
330
1E
100
AcDbEntity
  8
STEMPEL
100
AcDbCircle
 10
286.9310590436942
 20
365.8667685300108
 30
0.0
 40
0.750000000000001
100
AcDbArc
 50
269.9999991462263
 51
70.00000000000047
  0
LINE
  5
E1B
330
1E
100
AcDbEntity
  8
STEMPEL
100
AcDbLine
 10
443.1810590436941
 20
359.1167685300103
 30
0.0
 11
443.1810590436941
 21
356.1167685300103
 31
0.0
  0
LINE
  5
E1C
330
1E
100
AcDbEntity
  8
HILF
100
AcDbLine
 10
442.1810590436941
 20
359.1167685300103
 30
0.0
 11
442.1810590436941
 21
356.1167685300103
 31
0.0
  0
LINE
  5
E1D
330
1E
100
AcDbEntity
  8
HILF
100
AcDbLine
 10
434.1810590436942
 20
359.1167685300103
 30
0.0
 11
434.1810590436941
 21
356.1167685300103
 31
0.0
  0
LINE
  5
E1E
330
1E
100
AcDbEntity
  8
STEMPEL
100
AcDbLine
 10
433.1810590436941
 20
359.1167685300103
 30
0.0
 11
433.1810590436941
 21
356.1167685300103
 31
0.0
  0
LINE
  5
E27
330
1E
100
AcDbEntity
  8
STEMPEL
100
AcDbLine
 10
326.7810590436941
 20
359.1167685300103
 30
0.0
 11
326.7810590436941
 21
356.3453713721559
 31
0.0
  0
LINE
  5
E28
102
{ACAD_REACTORS
330
E3D
102
}
330
1E
100
AcDbEntity
  8
STEMPEL
100
AcDbLine
 10
244.2810590436941
 20
356.1167685300104
 30
0.0
 11
271.7810590436946
 21
356.1167685300104
 31
0.0
  0
LINE
  5
E29
102
{ACAD_REACTORS
330
E3D
102
}
330
1E
100
AcDbEntity
  8
STEMPEL
100
AcDbLine
 10
281.7810590436946
 20
356.1167685300104
 30
0.0
 11
326.6847967199419
 21
356.1167685300103
 31
0.0
  0
HATCH
  5
E3D
330
1E
100
AcDbEntity
  8
SCHRAFF
100
AcDbHatch
 10
0.0
 20
0.0
 30
0.0
210
0.0
220
0.0
230
1.0
  2
NET
 70
     0
 71
     1
 91
        4
 92
        7
 72
     0
 73
     1
 93
        4
 10
489.2810590436941
 20
356.1167685300103
 10
438.1810590436939
 20
356.1167685300103
 10
438.1810590436939
 20
353.1167685300104
 10
489.2810590436941
 20
353.1167685300104
 97
        4
330
AAB
330
B8B
330
AAA
330
BB5
 92
        7
 72
     0
 73
     1
 93
        4
 10
438.1810590436939
 20
356.1167685300103
 10
429.2810590436941
 20
356.1167685300103
 10
429.2810590436942
 20
353.1167685300104
 10
438.181059043694
 20
353.1167685300104
 97
        4
330
AAB
330
B8C
330
AAA
330
B8B
 92
        7
 72
     0
 73
     1
 93
        4
 10
304.2810590436941
 20
356.1167685300104
 10
283.281059043694
 20
356.1167685300104
 10
283.2810590436941
 20
353.1167685300104
 10
304.2810590436941
 20
353.1167685300104
 97
        4
330
E29
330
AEA
330
AD2
330
B21
 92
        7
 72
     0
 73
     1
 93
        4
 10
270.2810590436941
 20
356.1167685300104
 10
244.2810590436941
 20
356.1167685300104
 10
244.2810590436941
 20
353.1167685300103
 10
270.2810590436941
 20
353.1167685300103
 97
        4
330
E28
330
AD7
330
ACF
330
AE3
 75
     0
 76
     1
 52
45.0
 41
15.0
 77
     0
 78
     2
 53
45.0
 43
0.0
 44
0.0
 45
-1.325825214724776
 46
1.325825214724776
 79
     0
 53
135.0
 43
0.0
 44
0.0
 45
-1.325825214724776
 46
-1.325825214724776
 79
     0
 47
0.2718458476318108
 98
        4
 10
458.0596802840532
 20
355.1205509897752
 10
435.4888661399481
 20
354.576858557748
 10
301.4236614334631
 20
354.576858557748
 10
267.4314689771027
 20
355.1205509897752
  0
ENDSEC
  0
SECTION
  2
OBJECTS
  0
DICTIONARY
  5
C
330
0
100
AcDbDictionary
281
     1
  3
ACAD_COLOR
350
11A
  3
ACAD_GROUP
350
D
  3
ACAD_LAYOUT
350
19
  3
ACAD_MATERIAL
350
119
  3
ACAD_MLINESTYLE
350
16
  3
ACAD_PLOTSETTINGS
350
18
  3
ACAD_PLOTSTYLENAME
350
E
  3
AcDbVariableDictionary
350
125
  0
DICTIONARY
  5
DB
330
1E
100
AcDbDictionary
280
     1
281
     1
  3
ACAD_LAYOUTSELFREF
360
10F
  0
DICTIONARY
  5
DD
330
1A
100
AcDbDictionary
280
     1
281
     1
  3
ACAD_LAYOUTSELFREF
360
10E
  0
DICTIONARY
  5
11A
102
{ACAD_REACTORS
330
C
102
}
330
C
100
AcDbDictionary
281
     1
  0
DICTIONARY
  5
D
102
{ACAD_REACTORS
330
C
102
}
330
C
100
AcDbDictionary
281
     1
  0
DICTIONARY
  5
19
102
{ACAD_REACTORS
330
C
102
}
330
C
100
AcDbDictionary
281
     1
  3
Layout1
350
1D
  3
Model
350
21
  0
DICTIONARY
  5
119
102
{ACAD_REACTORS
330
C
102
}
330
C
100
AcDbDictionary
281
     1
  0
DICTIONARY
  5
16
102
{ACAD_REACTORS
330
C
102
}
330
C
100
AcDbDictionary
281
     1
  3
Standard
350
17
  0
DICTIONARY
  5
18
102
{ACAD_REACTORS
330
C
102
}
330
C
100
AcDbDictionary
281
     1
  0
ACDBDICTIONARYWDFLT
  5
E
102
{ACAD_REACTORS
330
C
102
}
330
C
100
AcDbDictionary
281
     1
  3
Normal
350
F
100
AcDbDictionaryWithDefault
340
F
  0
DICTIONARY
  5
125
102
{ACAD_REACTORS
330
C
102
}
330
C
100
AcDbDictionary
281
     1
  3
DIMASSOC
350
126
  3
PROJECTNAME
350
127
  0
XRECORD
  5
10F
102
{ACAD_REACTORS
330
DB
102
}
330
DB
100
AcDbXrecord
280
     1
340
1E
  0
XRECORD
  5
10E
102
{ACAD_REACTORS
330
DD
102
}
330
DD
100
AcDbXrecord
280
     1
340
1A
  0
LAYOUT
  5
1D
102
{ACAD_REACTORS
330
19
102
}
330
19
100
AcDbPlotSettings
  1

  2
\\NT_WORK01\HP LaserJet 5000 PCL 6
  4

  6

 40
0.0
 41
0.0
 42
0.0
 43
0.0
 44
0.0
 45
0.0
 46
0.0
 47
0.0
 48
0.0
 49
0.0
140
0.0
141
0.0
142
1.0
143
1.0
 70
   688
 72
     0
 73
     0
 74
     5
  7

 75
    16
147
1.0
 76
     0
 77
     2
 78
   300
148
0.0
149
0.0
100
AcDbLayout
  1
Layout1
 70
     0
 71
     1
 10
0.0
 20
0.0
 11
12.0
 21
9.0
 12
0.0
 22
0.0
 32
0.0
 14
1.000000000000000E+20
 24
1.000000000000000E+20
 34
1.000000000000000E+20
 15
-1.000000000000000E+20
 25
-1.000000000000000E+20
 35
-1.000000000000000E+20
146
0.0
 13
0.0
 23
0.0
 33
0.0
 16
1.0
 26
0.0
 36
0.0
 17
0.0
 27
1.0
 37
0.0
 76
     0
330
1A
  0
LAYOUT
  5
21
102
{ACAD_REACTORS
330
19
102
}
330
19
100
AcDbPlotSettings
  1

  2
none_device
  4
Letter_(8.50_x_11.00_Inches)
  6

 40
6.349999904632568
 41
6.349999904632568
 42
6.350006103515625
 43
6.350006103515625
 44
215.8999938964844
 45
279.3999938964844
 46
0.0
 47
0.0
 48
0.0
 49
0.0
140
0.0
141
0.0
142
1.0
143
1.0
 70
 11952
 72
     0
 73
     1
 74
     0
  7

 75
     0
147
1.0
 76
     0
 77
     2
 78
   300
148
-3124.2
149
0.0
100
AcDbLayout
  1
Model
 70
     1
 71
     0
 10
0.0
 20
0.0
 11
12.0
 21
9.0
 12
0.0
 22
0.0
 32
0.0
 14
0.0
 24
0.0
 34
0.0
 15
0.0
 25
0.0
 35
0.0
146
0.0
 13
0.0
 23
0.0
 33
0.0
 16
1.0
 26
0.0
 36
0.0
 17
0.0
 27
1.0
 37
0.0
 76
     0
330
1E
  0
MLINESTYLE
  5
17
102
{ACAD_REACTORS
330
16
102
}
330
16
100
AcDbMlineStyle
  2
STANDARD
 70
     0
  3

 62
   256
 51
90.0
 52
90.0
 71
     2
 49
0.5
 62
   256
  6
BYLAYER
 49
-0.5
 62
   256
  6
BYLAYER
  0
ACDBPLACEHOLDER
  5
F
102
{ACAD_REACTORS
330
E
102
}
330
E
  0
DICTIONARYVAR
  5
126
102
{ACAD_REACTORS
330
125
102
}
330
125
100
DictionaryVariables
280
     0
  1
1
  0
DICTIONARYVAR
  5
127
102
{ACAD_REACTORS
330
125
102
}
330
125
100
DictionaryVariables
280
     0
  1

  0
ENDSEC
  0
EOF
