  0
SECTION
  2
HEADER
  9
$ACADVER
  1
AC1018
  9
$ACADMAINTVER
 70
     2
  9
$DWGCODEPAGE
  3
ANSI_1252
  9
$INSBASE
 10
0.0
 20
0.0
 30
0.0
  9
$EXTMIN
 10
-0.0640771341750224
 20
-0.045311687738149
 30
-0.000000000000013
  9
$EXTMAX
 10
840.000003912033
 20
594.0000027663659
 30
0.0000000000000023
  9
$LIMMIN
 10
0.0
 20
0.0
  9
$LIMMAX
 10
840.0
 20
594.0
  9
$ORTHOMODE
 70
     1
  9
$REGENMODE
 70
     1
  9
$FILLMODE
 70
     1
  9
$QTEXTMODE
 70
     0
  9
$MIRRTEXT
 70
     1
  9
$LTSCALE
 40
20.0
  9
$ATTMODE
 70
     1
  9
$TEXTSIZE
 40
3.5
  9
$TRACEWID
 40
1.0
  9
$TEXTSTYLE
  7
STANDARD
  9
$CLAYER
  8
SCHRAFF
  9
$CELTYPE
  6
ByLayer
  9
$CECOLOR
 62
   256
  9
$CELTSCALE
 40
1.0
  9
$DISPSILH
 70
     0
  9
$DIMSCALE
 40
2.0
  9
$DIMASZ
 40
3.5
  9
$DIMEXO
 40
1.0
  9
$DIMDLI
 40
7.0
  9
$DIMRND
 40
0.0
  9
$DIMDLE
 40
0.0
  9
$DIMEXE
 40
1.0
  9
$DIMTP
 40
0.0
  9
$DIMTM
 40
0.0
  9
$DIMTXT
 40
3.5
  9
$DIMCEN
 40
1.5
  9
$DIMTSZ
 40
0.0
  9
$DIMTOL
 70
     0
  9
$DIMLIM
 70
     0
  9
$DIMTIH
 70
     0
  9
$DIMTOH
 70
     0
  9
$DIMSE1
 70
     0
  9
$DIMSE2
 70
     0
  9
$DIMTAD
 70
     1
  9
$DIMZIN
 70
     8
  9
$DIMBLK
  1

  9
$DIMASO
 70
     1
  9
$DIMSHO
 70
     0
  9
$DIMPOST
  1

  9
$DIMAPOST
  1

  9
$DIMALT
 70
     0
  9
$DIMALTD
 70
     2
  9
$DIMALTF
 40
25.4
  9
$DIMLFAC
 40
1.0
  9
$DIMTOFL
 70
     1
  9
$DIMTVP
 40
0.0
  9
$DIMTIX
 70
     0
  9
$DIMSOXD
 70
     0
  9
$DIMSAH
 70
     0
  9
$DIMBLK1
  1

  9
$DIMBLK2
  1

  9
$DIMSTYLE
  2
Standard
  9
$DIMCLRD
 70
     0
  9
$DIMCLRE
 70
     0
  9
$DIMCLRT
 70
     1
  9
$DIMTFAC
 40
0.5
  9
$DIMGAP
 40
1.5
  9
$DIMJUST
 70
     0
  9
$DIMSD1
 70
     0
  9
$DIMSD2
 70
     0
  9
$DIMTOLJ
 70
     1
  9
$DIMTZIN
 70
     8
  9
$DIMALTZ
 70
     8
  9
$DIMALTTZ
 70
     8
  9
$DIMUPT
 70
     0
  9
$DIMDEC
 70
     2
  9
$DIMTDEC
 70
     2
  9
$DIMALTU
 70
     2
  9
$DIMALTTD
 70
     2
  9
$DIMTXSTY
  7
STANDARD
  9
$DIMAUNIT
 70
     0
  9
$DIMADEC
 70
     2
  9
$DIMALTRND
 40
0.0
  9
$DIMAZIN
 70
     2
  9
$DIMDSEP
 70
    46
  9
$DIMATFIT
 70
     3
  9
$DIMFRAC
 70
     0
  9
$DIMLDRBLK
  1

  9
$DIMLUNIT
 70
     2
  9
$DIMLWD
 70
    -2
  9
$DIMLWE
 70
    -2
  9
$DIMTMOVE
 70
     0
  9
$LUNITS
 70
     2
  9
$LUPREC
 70
     2
  9
$SKETCHINC
 40
1.0
  9
$FILLETRAD
 40
0.0
  9
$AUNITS
 70
     0
  9
$AUPREC
 70
     0
  9
$MENU
  1
ACAD
  9
$ELEVATION
 40
0.0
  9
$PELEVATION
 40
0.0
  9
$THICKNESS
 40
0.0
  9
$LIMCHECK
 70
     0
  9
$CHAMFERA
 40
0.0
  9
$CHAMFERB
 40
0.0
  9
$CHAMFERC
 40
0.0
  9
$CHAMFERD
 40
0.0
  9
$SKPOLY
 70
     0
  9
$TDCREATE
 40
2455397.867059838
  9
$TDUCREATE
 40
2455397.783726505
  9
$TDUPDATE
 40
2455649.610642651
  9
$TDUUPDATE
 40
2455649.527309317
  9
$TDINDWG
 40
0.0655662500
  9
$TDUSRTIMER
 40
0.0655662500
  9
$USRTIMER
 70
     1
  9
$ANGBASE
 50
0.0
  9
$ANGDIR
 70
     0
  9
$PDMODE
 70
     0
  9
$PDSIZE
 40
0.0
  9
$PLINEWID
 40
0.0
  9
$SPLFRAME
 70
     0
  9
$SPLINETYPE
 70
     6
  9
$SPLINESEGS
 70
     8
  9
$HANDSEED
  5
1151
  9
$SURFTAB1
 70
     6
  9
$SURFTAB2
 70
     6
  9
$SURFTYPE
 70
     6
  9
$SURFU
 70
     6
  9
$SURFV
 70
     6
  9
$UCSBASE
  2

  9
$UCSNAME
  2

  9
$UCSORG
 10
0.0
 20
0.0
 30
0.0
  9
$UCSXDIR
 10
1.0
 20
0.0
 30
0.0
  9
$UCSYDIR
 10
0.0
 20
1.0
 30
0.0
  9
$UCSORTHOREF
  2

  9
$UCSORTHOVIEW
 70
     0
  9
$UCSORGTOP
 10
0.0
 20
0.0
 30
0.0
  9
$UCSORGBOTTOM
 10
0.0
 20
0.0
 30
0.0
  9
$UCSORGLEFT
 10
0.0
 20
0.0
 30
0.0
  9
$UCSORGRIGHT
 10
0.0
 20
0.0
 30
0.0
  9
$UCSORGFRONT
 10
0.0
 20
0.0
 30
0.0
  9
$UCSORGBACK
 10
0.0
 20
0.0
 30
0.0
  9
$PUCSBASE
  2

  9
$PUCSNAME
  2

  9
$PUCSORG
 10
0.0
 20
0.0
 30
0.0
  9
$PUCSXDIR
 10
1.0
 20
0.0
 30
0.0
  9
$PUCSYDIR
 10
0.0
 20
1.0
 30
0.0
  9
$PUCSORTHOREF
  2

  9
$PUCSORTHOVIEW
 70
     0
  9
$PUCSORGTOP
 10
0.0
 20
0.0
 30
0.0
  9
$PUCSORGBOTTOM
 10
0.0
 20
0.0
 30
0.0
  9
$PUCSORGLEFT
 10
0.0
 20
0.0
 30
0.0
  9
$PUCSORGRIGHT
 10
0.0
 20
0.0
 30
0.0
  9
$PUCSORGFRONT
 10
0.0
 20
0.0
 30
0.0
  9
$PUCSORGBACK
 10
0.0
 20
0.0
 30
0.0
  9
$USERI1
 70
     0
  9
$USERI2
 70
     0
  9
$USERI3
 70
     0
  9
$USERI4
 70
     0
  9
$USERI5
 70
     0
  9
$USERR1
 40
0.0
  9
$USERR2
 40
0.0
  9
$USERR3
 40
0.0
  9
$USERR4
 40
0.0
  9
$USERR5
 40
0.0
  9
$WORLDVIEW
 70
     1
  9
$SHADEDGE
 70
     3
  9
$SHADEDIF
 70
    70
  9
$TILEMODE
 70
     1
  9
$MAXACTVP
 70
    16
  9
$PINSBASE
 10
0.0
 20
0.0
 30
0.0
  9
$PLIMCHECK
 70
     0
  9
$PEXTMIN
 10
1.000000000000000E+20
 20
1.000000000000000E+20
 30
1.000000000000000E+20
  9
$PEXTMAX
 10
-1.000000000000000E+20
 20
-1.000000000000000E+20
 30
-1.000000000000000E+20
  9
$PLIMMIN
 10
0.0
 20
0.0
  9
$PLIMMAX
 10
12.0
 20
9.0
  9
$UNITMODE
 70
     0
  9
$VISRETAIN
 70
     0
  9
$PLINEGEN
 70
     0
  9
$PSLTSCALE
 70
     0
  9
$TREEDEPTH
 70
  3020
  9
$CMLSTYLE
  2
Standard
  9
$CMLJUST
 70
     0
  9
$CMLSCALE
 40
1.0
  9
$PROXYGRAPHICS
 70
     1
  9
$MEASUREMENT
 70
     0
  9
$CELWEIGHT
370
    -1
  9
$ENDCAPS
280
     0
  9
$JOINSTYLE
280
     0
  9
$LWDISPLAY
290
     0
  9
$INSUNITS
 70
     0
  9
$HYPERLINKBASE
  1

  9
$STYLESHEET
  1
monochrome 1.ctb
  9
$XEDIT
290
     1
  9
$CEPSNTYPE
380
     0
  9
$PSTYLEMODE
290
     1
  9
$FINGERPRINTGUID
  2
{D68B0D0D-A558-11D7-B632-000102183313}
  9
$VERSIONGUID
  2
{F2980F45-CC1E-49AD-AF6C-4F9147A4ACF4}
  9
$EXTNAMES
290
     1
  9
$PSVPSCALE
 40
0.0
  9
$OLESTARTUP
290
     0
  9
$SORTENTS
280
   127
  9
$INDEXCTL
280
     0
  9
$HIDETEXT
280
     0
  9
$XCLIPFRAME
290
     0
  9
$HALOGAP
280
     0
  9
$OBSCOLOR
 70
   257
  9
$OBSLTYPE
280
     0
  9
$INTERSECTIONDISPLAY
280
     0
  9
$INTERSECTIONCOLOR
 70
   257
  9
$DIMASSOC
280
     1
  9
$PROJECTNAME
  1

  0
ENDSEC
  0
SECTION
  2
CLASSES
  0
CLASS
  1
ACDBDICTIONARYWDFLT
  2
AcDbDictionaryWithDefault
  3
ObjectDBX Classes
 90
        0
 91
        1
280
     0
281
     0
  0
CLASS
  1
DICTIONARYVAR
  2
AcDbDictionaryVar
  3
ObjectDBX Classes
 90
        0
 91
        2
280
     0
281
     0
  0
ENDSEC
  0
SECTION
  2
TABLES
  0
TABLE
  2
VPORT
  5
8
330
0
100
AcDbSymbolTable
 70
     3
  0
VPORT
  5
1150
330
8
100
AcDbSymbolTableRecord
100
AcDbViewportTableRecord
  2
*Active
 70
     0
 10
0.0
 20
0.0
 11
1.0
 21
1.0
 12
419.9999999999999
 22
297.0
 13
0.0
 23
0.0
 14
1.0
 24
1.0
 15
10.0
 25
10.0
 16
0.0
 26
0.0
 36
1.0
 17
0.0
 27
0.0
 37
0.0
 40
629.5757575757574
 41
1.334231805929919
 42
50.0
 43
0.0
 44
0.0
 50
0.0
 51
0.0
 71
     0
 72
  1500
 73
     1
 74
     0
 75
     0
 76
     0
 77
     0
 78
     0
281
     0
 65
     1
110
0.0
120
0.0
130
0.0
111
1.0
121
0.0
131
0.0
112
0.0
122
1.0
132
0.0
 79
     0
146
0.0
  0
ENDTAB
  0
TABLE
  2
LTYPE
  5
5
330
0
100
AcDbSymbolTable
 70
     3
  0
LTYPE
  5
13
330
5
100
AcDbSymbolTableRecord
100
AcDbLinetypeTableRecord
  2
ByBlock
 70
     0
  3

 72
    65
 73
     0
 40
0.0
  0
LTYPE
  5
14
330
5
100
AcDbSymbolTableRecord
100
AcDbLinetypeTableRecord
  2
ByLayer
 70
     0
  3

 72
    65
 73
     0
 40
0.0
  0
LTYPE
  5
15
330
5
100
AcDbSymbolTableRecord
100
AcDbLinetypeTableRecord
  2
Continuous
 70
     0
  3
Solid line
 72
    65
 73
     0
 40
0.0
  0
LTYPE
  5
25
330
5
100
AcDbSymbolTableRecord
100
AcDbLinetypeTableRecord
  2
STRICHPUNKT
 70
     0
  3
__ . __ . __ . __ . __ . __ . __ . __ . __ . __
 72
    65
 73
     4
 40
1.0
 49
0.5
 74
     0
 49
-0.25
 74
     0
 49
0.0
 74
     0
 49
-0.25
 74
     0
  0
LTYPE
  5
34
330
5
100
AcDbSymbolTableRecord
100
AcDbLinetypeTableRecord
  2
AUSGEZOGEN
 70
     0
  3
Ausgezogene Linie
 72
    65
 73
     0
 40
0.0
  0
ENDTAB
  0
TABLE
  2
LAYER
  5
2
330
0
100
AcDbSymbolTable
 70
     9
  0
LAYER
  5
10
330
2
100
AcDbSymbolTableRecord
100
AcDbLayerTableRecord
  2
0
 70
     0
 62
     7
  6
Continuous
370
    -3
390
F
  0
LAYER
  5
2B
330
2
100
AcDbSymbolTableRecord
100
AcDbLayerTableRecord
  2
VOLL
 70
     0
 62
     1
  6
Continuous
370
    -3
390
F
  0
LAYER
  5
2C
330
2
100
AcDbSymbolTableRecord
100
AcDbLayerTableRecord
  2
HILF
 70
     0
 62
     2
  6
Continuous
370
    -3
390
F
  0
LAYER
  5
2D
330
2
100
AcDbSymbolTableRecord
100
AcDbLayerTableRecord
  2
MITTEL
 70
     0
 62
     2
  6
STRICHPUNKT
370
    -3
390
F
  0
LAYER
  5
2F
330
2
100
AcDbSymbolTableRecord
100
AcDbLayerTableRecord
  2
BEM
 70
     0
 62
     7
  6
Continuous
370
    -3
390
F
  0
LAYER
  5
30
330
2
100
AcDbSymbolTableRecord
100
AcDbLayerTableRecord
  2
STEMPEL
 70
     0
 62
     3
  6
Continuous
370
    -3
390
F
  0
LAYER
  5
33
330
2
100
AcDbSymbolTableRecord
100
AcDbLayerTableRecord
  2
TEXT
 70
     0
 62
     7
  6
Continuous
370
    -3
390
F
  0
LAYER
  5
1E9
330
2
100
AcDbSymbolTableRecord
100
AcDbLayerTableRecord
  2
DEFPOINTS
 70
     0
 62
     7
  6
AUSGEZOGEN
290
     0
370
    -3
390
F
  0
LAYER
  5
1EA
330
2
100
AcDbSymbolTableRecord
100
AcDbLayerTableRecord
  2
SCHRAFF
 70
     0
 62
     7
  6
AUSGEZOGEN
370
    -3
390
F
  0
ENDTAB
  0
TABLE
  2
STYLE
  5
3
330
0
100
AcDbSymbolTable
 70
     2
  0
STYLE
  5
11
330
3
100
AcDbSymbolTableRecord
100
AcDbTextStyleTableRecord
  2
STANDARD
 70
     0
 40
0.0
 41
0.8
 50
0.0
 71
     0
 42
3.5
  3
simplex.shx
  4

  0
STYLE
  5
24
330
3
100
AcDbSymbolTableRecord
100
AcDbTextStyleTableRecord
  2
GREEKS
 70
     0
 40
0.0
 41
0.8
 50
0.0
 71
     0
 42
2.5
  3
SIMPLEX.shx
  4

  0
ENDTAB
  0
TABLE
  2
VIEW
  5
6
330
0
100
AcDbSymbolTable
 70
     0
  0
ENDTAB
  0
TABLE
  2
UCS
  5
7
330
0
100
AcDbSymbolTable
 70
     0
  0
ENDTAB
  0
TABLE
  2
APPID
  5
9
330
0
100
AcDbSymbolTable
 70
     1
  0
APPID
  5
12
330
9
100
AcDbSymbolTableRecord
100
AcDbRegAppTableRecord
  2
ACAD
 70
     0
  0
ENDTAB
  0
TABLE
  2
DIMSTYLE
  5
A
330
0
100
AcDbSymbolTable
 70
     1
100
AcDbDimStyleTable
 71
     1
340
A2
  0
DIMSTYLE
105
A2
102
{ACAD_REACTORS
330
DF9
330
DFC
330
DFE
330
E0B
330
EB2
330
EB4
102
}
330
A
100
AcDbSymbolTableRecord
100
AcDbDimStyleTableRecord
  2
Standard
 70
     0
340
11
  0
ENDTAB
  0
TABLE
  2
BLOCK_RECORD
  5
1
330
0
100
AcDbSymbolTable
 70
     8
  0
BLOCK_RECORD
  5
1E
102
{ACAD_XDICTIONARY
360
DB
102
}
330
1
100
AcDbSymbolTableRecord
100
AcDbBlockTableRecord
  2
*Model_Space
340
21
  0
BLOCK_RECORD
  5
1A
102
{ACAD_XDICTIONARY
360
DD
102
}
330
1
100
AcDbSymbolTableRecord
100
AcDbBlockTableRecord
  2
*Paper_Space
340
1D
  0
BLOCK_RECORD
  5
22
330
1
100
AcDbSymbolTableRecord
100
AcDbBlockTableRecord
  2
LOGO
340
0
102
{BLKREFS
331
56
102
}
  0
BLOCK_RECORD
  5
23
330
1
100
AcDbSymbolTableRecord
100
AcDbBlockTableRecord
  2
LORO
340
0
102
{BLKREFS
331
9B
102
}
  0
BLOCK_RECORD
  5
EF9
330
1
100
AcDbSymbolTableRecord
100
AcDbBlockTableRecord
  2
*D2
340
0
  0
BLOCK_RECORD
  5
F05
330
1
100
AcDbSymbolTableRecord
100
AcDbBlockTableRecord
  2
*D3
340
0
  0
BLOCK_RECORD
  5
F16
330
1
100
AcDbSymbolTableRecord
100
AcDbBlockTableRecord
  2
*D4
340
0
  0
BLOCK_RECORD
  5
F22
330
1
100
AcDbSymbolTableRecord
100
AcDbBlockTableRecord
  2
*D5
340
0
  0
BLOCK_RECORD
  5
F2E
330
1
100
AcDbSymbolTableRecord
100
AcDbBlockTableRecord
  2
*D6
340
0
  0
BLOCK_RECORD
  5
F3A
330
1
100
AcDbSymbolTableRecord
100
AcDbBlockTableRecord
  2
*D7
340
0
  0
ENDTAB
  0
ENDSEC
  0
SECTION
  2
BLOCKS
  0
BLOCK
  5
37
330
1E
100
AcDbEntity
  8
0
100
AcDbBlockBegin
  2
*Model_Space
 70
     0
 10
0.0
 20
0.0
 30
0.0
  3
*Model_Space
  1

  0
ENDBLK
  5
38
330
1E
100
AcDbEntity
  8
0
100
AcDbBlockEnd
  0
BLOCK
  5
35
330
1A
100
AcDbEntity
 67
     1
  8
0
100
AcDbBlockBegin
  2
*Paper_Space
 70
     0
 10
0.0
 20
0.0
 30
0.0
  3
*Paper_Space
  1

  0
ENDBLK
  5
36
330
1A
100
AcDbEntity
 67
     1
  8
0
100
AcDbBlockEnd
  0
BLOCK
  5
39
330
22
100
AcDbEntity
  8
0
100
AcDbBlockBegin
  2
LOGO
 70
     0
 10
0.0
 20
0.0
 30
0.0
  3
LOGO
  1

  0
ARC
  5
3A
330
22
100
AcDbEntity
  8
0
100
AcDbCircle
 10
11.59973089678112
 20
-9.271599258481501
 30
0.0
 40
4.5
100
AcDbArc
 50
270.0
 51
231.0575587310159
  0
LINE
  5
3B
330
22
100
AcDbEntity
  8
0
100
AcDbLine
 10
3.599730896781125
 20
-4.771599258481529
 30
0.0
 11
3.599730896781153
 21
-11.77159925848133
 31
0.0
  0
LINE
  5
3C
330
22
100
AcDbEntity
  8
0
100
AcDbLine
 10
2.599730896781125
 20
-4.771599258481529
 30
0.0
 11
2.599730896781153
 21
-11.77159925848133
 31
0.0
  0
CIRCLE
  5
3D
330
22
100
AcDbEntity
  8
0
100
AcDbCircle
 10
11.59973089678112
 20
-9.271599258481501
 30
0.0
 40
3.5
  0
ARC
  5
3E
330
22
100
AcDbEntity
  8
0
100
AcDbCircle
 10
31.59973089678115
 20
-9.271599258481472
 30
0.0
 40
4.5
100
AcDbArc
 50
270.0
 51
231.0575587310182
  0
LINE
  5
3F
330
22
100
AcDbEntity
  8
0
100
AcDbLine
 10
17.59973089678112
 20
-4.771599258481472
 30
0.0
 11
17.59973089678115
 21
-13.77159925848147
 31
0.0
  0
ARC
  5
40
330
22
100
AcDbEntity
  8
0
100
AcDbCircle
 10
22.59973089678116
 20
-7.271599258481472
 30
0.0
 40
2.5
100
AcDbArc
 50
293.1161887722295
 51
90.0
  0
CIRCLE
  5
41
330
22
100
AcDbEntity
  8
0
100
AcDbCircle
 10
31.59973089678115
 20
-9.271599258481472
 30
0.0
 40
3.5
  0
ARC
  5
42
330
22
100
AcDbEntity
  8
0
100
AcDbCircle
 10
4.599730896781153
 20
-11.77159925848133
 30
0.0
 40
1.0
100
AcDbArc
 50
180.0
 51
270.0
  0
ARC
  5
43
330
22
100
AcDbEntity
  8
0
100
AcDbCircle
 10
4.599730896781153
 20
-11.77159925848133
 30
0.0
 40
2.0
100
AcDbArc
 50
179.9999999999992
 51
270.0
  0
LINE
  5
44
330
22
100
AcDbEntity
  8
0
100
AcDbLine
 10
11.59973089678115
 20
-13.77159925848144
 30
0.0
 11
4.599730896781153
 21
-13.77159925848147
 31
0.0
  0
LINE
  5
45
330
22
100
AcDbEntity
  8
0
100
AcDbLine
 10
8.771303772034769
 20
-12.77159925848136
 30
0.0
 11
4.599730896781153
 21
-12.77159925848133
 31
0.0
  0
LINE
  5
46
330
22
100
AcDbEntity
  8
0
100
AcDbLine
 10
31.59973089678115
 20
-13.77159925848147
 30
0.0
 11
23.6715276665056
 21
-13.77159925848144
 31
0.0
  0
LINE
  5
47
330
22
100
AcDbEntity
  8
0
100
AcDbLine
 10
23.56565672307022
 20
-9.51278021337896
 30
0.0
 11
24.4388546544846
 21
-12.77159925848144
 31
0.0
  0
LINE
  5
48
330
22
100
AcDbEntity
  8
0
100
AcDbLine
 10
22.59973089678116
 20
-9.771599258481472
 30
0.0
 11
18.59973089678112
 21
-9.771599258481472
 31
0.0
  0
LINE
  5
49
330
22
100
AcDbEntity
  8
0
100
AcDbLine
 10
18.59973089678115
 20
-13.77159925848144
 30
0.0
 11
17.59973089678115
 21
-13.77159925848144
 31
0.0
  0
LINE
  5
4A
330
22
100
AcDbEntity
  8
0
100
AcDbLine
 10
18.59973089678115
 20
-9.771599258481472
 30
0.0
 11
18.59973089678115
 21
-13.77159925848144
 31
0.0
  0
LINE
  5
4B
330
22
100
AcDbEntity
  8
0
100
AcDbLine
 10
22.59973089678116
 20
-9.771599258481472
 30
0.0
 11
23.67152766650562
 21
-13.77159925848147
 31
0.0
  0
ARC
  5
4C
330
22
100
AcDbEntity
  8
0
100
AcDbCircle
 10
22.59973089678116
 20
-7.271599258481472
 30
0.0
 40
2.5
100
AcDbArc
 50
270.0
 51
270.0000000000007
  0
LINE
  5
4D
330
22
100
AcDbEntity
  8
0
100
AcDbLine
 10
28.77130377203494
 20
-12.77159925848147
 30
0.0
 11
24.43885465448463
 21
-12.77159925848144
 31
0.0
  0
LINE
  5
4E
330
22
100
AcDbEntity
  8
0
100
AcDbLine
 10
3.599730896781125
 20
-4.771599258481472
 30
0.0
 11
2.599730896781125
 21
-4.771599258481472
 31
0.0
  0
LINE
  5
4F
330
22
100
AcDbEntity
  8
0
100
AcDbLine
 10
22.59973089678116
 20
-8.771599258481472
 30
0.0
 11
18.59973089678115
 21
-8.771599258481472
 31
0.0
  0
LINE
  5
50
330
22
100
AcDbEntity
  8
0
100
AcDbLine
 10
22.59973089678116
 20
-5.771599258481472
 30
0.0
 11
18.59973089678115
 21
-5.771599258481472
 31
0.0
  0
LINE
  5
51
330
22
100
AcDbEntity
  8
0
100
AcDbLine
 10
22.59973089678116
 20
-4.771599258481472
 30
0.0
 11
17.59973089678115
 21
-4.771599258481472
 31
0.0
  0
LINE
  5
52
330
22
100
AcDbEntity
  8
0
100
AcDbLine
 10
18.59973089678115
 20
-5.771599258481472
 30
0.0
 11
18.59973089678115
 21
-8.771599258481472
 31
0.0
  0
ARC
  5
53
330
22
100
AcDbEntity
  8
0
100
AcDbCircle
 10
22.59973089678116
 20
-7.271599258481472
 30
0.0
 40
1.5
100
AcDbArc
 50
270.0
 51
90.0
  0
ENDBLK
  5
54
330
22
100
AcDbEntity
  8
0
100
AcDbBlockEnd
  0
BLOCK
  5
55
330
23
100
AcDbEntity
  8
0
100
AcDbBlockBegin
  2
LORO
 70
     0
 10
0.0
 20
0.0
 30
0.0
  3
LORO
  1

  0
INSERT
  5
56
330
23
100
AcDbEntity
  8
STEMPEL
100
AcDbBlockReference
  2
LOGO
 10
-1.748032802467321
 20
3.771489518552062
 30
0.0
  0
ENDBLK
  5
57
330
23
100
AcDbEntity
  8
0
100
AcDbBlockEnd
  0
BLOCK
  5
F03
330
EF9
100
AcDbEntity
  8
0
100
AcDbBlockBegin
  2
*D2
 70
     1
 10
0.0
 20
0.0
 30
0.0
  3
*D2
  1

  0
LINE
  5
1013
330
EF9
100
AcDbEntity
  8
BEM
 62
     0
370
    -2
100
AcDbLine
 10
366.7810590436942
 20
284.2187133507709
 30
0.0
 11
366.7810590436942
 21
211.0789154870704
 31
0.0
  0
LINE
  5
1014
330
EF9
100
AcDbEntity
  8
BEM
 62
     0
370
    -2
100
AcDbLine
 10
651.7810590436944
 20
269.282496255104
 30
0.0
 11
651.7810590436944
 21
211.0789154870704
 31
0.0
  0
LINE
  5
1015
330
EF9
100
AcDbEntity
  8
BEM
 62
     0
370
    -2
100
AcDbLine
 10
373.7810590436942
 20
213.0789154870704
 30
0.0
 11
644.7810590436944
 21
213.0789154870704
 31
0.0
  0
SOLID
  5
1016
330
EF9
100
AcDbEntity
  8
BEM
 62
     0
100
AcDbTrace
 10
373.7810590436942
 20
214.2455821537371
 30
0.0
 11
373.7810590436942
 21
211.9122488204038
 31
0.0
 12
366.7810590436942
 22
213.0789154870704
 32
0.0
 13
366.7810590436942
 23
213.0789154870704
 33
0.0
  0
SOLID
  5
1017
330
EF9
100
AcDbEntity
  8
BEM
 62
     0
100
AcDbTrace
 10
644.7810590436944
 20
214.2455821537371
 30
0.0
 11
644.7810590436944
 21
211.9122488204038
 31
0.0
 12
651.7810590436944
 22
213.0789154870704
 32
0.0
 13
651.7810590436944
 23
213.0789154870704
 33
0.0
  0
MTEXT
  5
1018
330
EF9
100
AcDbEntity
  8
BEM
 62
     1
100
AcDbMText
 10
509.2810590436942
 20
219.5789154870705
 30
0.0
 40
7.0
 41
0.0
 71
     5
 72
     1
  1
\A1;285
 73
     1
 44
1.0
  0
POINT
  5
1019
330
EF9
100
AcDbEntity
  8
DEFPOINTS
 62
     0
100
AcDbPoint
 10
366.7810590436942
 20
286.2187133507709
 30
0.0
  0
POINT
  5
101A
330
EF9
100
AcDbEntity
  8
DEFPOINTS
 62
     0
100
AcDbPoint
 10
651.7810590436944
 20
271.282496255104
 30
0.0
  0
POINT
  5
101B
330
EF9
100
AcDbEntity
  8
DEFPOINTS
 62
     0
100
AcDbPoint
 10
651.7810590436944
 20
213.0789154870704
 30
0.0
  0
ENDBLK
  5
F04
330
EF9
100
AcDbEntity
  8
0
100
AcDbBlockEnd
  0
BLOCK
  5
F14
330
F05
100
AcDbEntity
  8
0
100
AcDbBlockBegin
  2
*D3
 70
     1
 10
0.0
 20
0.0
 30
0.0
  3
*D3
  1

  0
LINE
  5
F4F
330
F05
100
AcDbEntity
  8
BEM
 62
     0
370
    -2
100
AcDbLine
 10
368.7810590436944
 20
286.2187133507709
 30
0.0
 11
435.6021959558252
 21
286.2187133507703
 31
0.0
  0
ARC
  5
F50
330
F05
100
AcDbEntity
  8
BEM
 62
     0
370
    -2
100
AcDbCircle
 10
366.7810590436943
 20
286.2187133507709
 30
0.0
 40
66.821136912131
100
AcDbArc
 50
344.9736357326496
 51
357.0
  0
LINE
  5
F51
330
F05
100
AcDbEntity
  8
BEM
 62
     0
370
    -2
100
AcDbLine
 10
431.3173561104554
 20
268.8944327267304
 30
0.0
 11
428.1024889342116
 21
256.9184305123389
 31
0.0
  0
ARC
  5
F52
330
F05
100
AcDbEntity
  8
BEM
 62
     0
370
    -2
100
AcDbCircle
 10
366.7810590436943
 20
286.2187133507709
 30
0.0
 40
66.821136912131
100
AcDbArc
 50
344.9902051111601
 51
350.9951025555801
  0
ARC
  5
F53
330
F05
100
AcDbEntity
  8
BEM
 62
     0
370
    -2
100
AcDbCircle
 10
366.7810590436943
 20
286.2187133507709
 30
0.0
 40
66.821136912131
100
AcDbArc
 50
6.004897444419503
 51
12.00979488883948
  0
ARC
  5
F54
330
F05
100
AcDbEntity
  8
BEM
 62
     0
370
    -2
100
AcDbCircle
 10
366.7810590436943
 20
286.2187133507709
 30
0.0
 40
66.821136912131
100
AcDbArc
 50
357.0
 51
359.9999999999996
  0
SOLID
  5
F55
330
F05
100
AcDbEntity
  8
BEM
 62
     0
100
AcDbTrace
 10
431.6183528072291
 20
275.8819427254346
 30
0.0
 11
433.9388934704503
 21
275.6379438017054
 31
0.0
 12
433.5106199100273
 22
282.7215652532339
 32
0.0
 13
433.5106199100273
 23
282.7215652532339
 33
0.0
  0
SOLID
  5
F56
330
F05
100
AcDbEntity
  8
BEM
 62
     0
100
AcDbTrace
 10
434.400610684547
 20
293.2702128389694
 30
0.0
 11
432.0704803246596
 21
293.1479960218954
 31
0.0
 12
433.6021959558252
 22
286.2187133507704
 32
0.0
 13
433.6021959558252
 23
286.2187133507704
 33
0.0
  0
MTEXT
  5
F57
330
F05
100
AcDbEntity
  8
BEM
 62
     1
100
AcDbMText
 10
423.4321794260798
 20
264.5916442522431
 30
0.0
 40
7.0
 41
0.0
 71
     5
 72
     1
  1
\A1;3°
 11
0.2592634819551407
 21
0.9658066301928645
 31
0.0
 73
     1
 44
1.0
  0
POINT
  5
F58
330
F05
100
AcDbEntity
  8
DEFPOINTS
 62
     0
100
AcDbPoint
 10
433.592018773018
 20
285.0525237107787
 30
0.0
  0
POINT
  5
F59
330
F05
100
AcDbEntity
  8
DEFPOINTS
 62
     0
100
AcDbPoint
 10
366.7810590436942
 20
286.2187133507709
 30
0.0
  0
POINT
  5
F5A
330
F05
100
AcDbEntity
  8
DEFPOINTS
 62
     0
100
AcDbPoint
 10
366.7810590436944
 20
286.2187133507709
 30
0.0
  0
POINT
  5
F5B
330
F05
100
AcDbEntity
  8
DEFPOINTS
 62
     0
100
AcDbPoint
 10
364.7810590436944
 20
286.2187133507709
 30
0.0
  0
POINT
  5
F5C
330
F05
100
AcDbEntity
  8
DEFPOINTS
 62
     0
100
AcDbPoint
 10
622.3439985696602
 20
272.8252272231688
 30
0.0
  0
ENDBLK
  5
F15
330
F05
100
AcDbEntity
  8
0
100
AcDbBlockEnd
  0
BLOCK
  5
F20
330
F16
100
AcDbEntity
  8
0
100
AcDbBlockBegin
  2
*D4
 70
     1
 10
0.0
 20
0.0
 30
0.0
  3
*D4
  1

  0
LINE
  5
1146
330
F16
100
AcDbEntity
  8
BEM
 62
     0
370
    -2
100
AcDbLine
 10
244.2810590436942
 20
351.1774287017897
 30
0.0
 11
244.2810590436942
 21
391.679382150299
 31
0.0
  0
LINE
  5
1147
330
F16
100
AcDbEntity
  8
BEM
 62
     0
370
    -2
100
AcDbLine
 10
489.2810590436946
 20
351.1774287017897
 30
0.0
 11
489.2810590436946
 21
391.679382150299
 31
0.0
  0
LINE
  5
1148
330
F16
100
AcDbEntity
  8
BEM
 62
     0
370
    -2
100
AcDbLine
 10
251.2810590436942
 20
389.679382150299
 30
0.0
 11
482.2810590436946
 21
389.679382150299
 31
0.0
  0
SOLID
  5
1149
330
F16
100
AcDbEntity
  8
BEM
 62
     0
100
AcDbTrace
 10
251.2810590436942
 20
390.8460488169657
 30
0.0
 11
251.2810590436942
 21
388.5127154836323
 31
0.0
 12
244.2810590436942
 22
389.679382150299
 32
0.0
 13
244.2810590436942
 23
389.679382150299
 33
0.0
  0
SOLID
  5
114A
330
F16
100
AcDbEntity
  8
BEM
 62
     0
100
AcDbTrace
 10
482.2810590436946
 20
390.8460488169657
 30
0.0
 11
482.2810590436946
 21
388.5127154836323
 31
0.0
 12
489.2810590436946
 22
389.679382150299
 32
0.0
 13
489.2810590436946
 23
389.679382150299
 33
0.0
  0
MTEXT
  5
114B
330
F16
100
AcDbEntity
  8
BEM
 62
     1
100
AcDbMText
 10
366.7810590436944
 20
396.1793821502991
 30
0.0
 40
7.0
 41
0.0
 71
     5
 72
     1
  1
\A1;%%c245
 73
     1
 44
1.0
  0
POINT
  5
114C
330
F16
100
AcDbEntity
  8
DEFPOINTS
 62
     0
100
AcDbPoint
 10
244.2810590436942
 20
349.1774287017897
 30
0.0
  0
POINT
  5
114D
330
F16
100
AcDbEntity
  8
DEFPOINTS
 62
     0
100
AcDbPoint
 10
489.2810590436946
 20
349.1774287017897
 30
0.0
  0
POINT
  5
114E
330
F16
100
AcDbEntity
  8
DEFPOINTS
 62
     0
100
AcDbPoint
 10
489.2810590436946
 20
389.679382150299
 30
0.0
  0
ENDBLK
  5
F21
330
F16
100
AcDbEntity
  8
0
100
AcDbBlockEnd
  0
BLOCK
  5
F2C
330
F22
100
AcDbEntity
  8
0
100
AcDbBlockBegin
  2
*D5
 70
     1
 10
0.0
 20
0.0
 30
0.0
  3
*D5
  1

  0
LINE
  5
F66
330
F22
100
AcDbEntity
  8
BEM
 62
     0
370
    -2
100
AcDbLine
 10
364.7810590436943
 20
286.2187133507709
 30
0.0
 11
220.5635350459114
 21
286.2187133507709
 31
0.0
  0
LINE
  5
F67
330
F22
100
AcDbEntity
  8
BEM
 62
     0
370
    -2
100
AcDbLine
 10
242.2810590436941
 20
353.1167685300104
 30
0.0
 11
220.5635350459114
 21
353.1167685300104
 31
0.0
  0
LINE
  5
F68
330
F22
100
AcDbEntity
  8
BEM
 62
     0
370
    -2
100
AcDbLine
 10
222.5635350459114
 20
293.2187133507709
 30
0.0
 11
222.5635350459114
 21
346.1167685300103
 31
0.0
  0
SOLID
  5
F69
330
F22
100
AcDbEntity
  8
BEM
 62
     0
100
AcDbTrace
 10
221.3968683792447
 20
293.2187133507709
 30
0.0
 11
223.730201712578
 21
293.2187133507709
 31
0.0
 12
222.5635350459114
 22
286.2187133507709
 32
0.0
 13
222.5635350459114
 23
286.2187133507709
 33
0.0
  0
SOLID
  5
F6A
330
F22
100
AcDbEntity
  8
BEM
 62
     0
100
AcDbTrace
 10
221.3968683792447
 20
346.1167685300103
 30
0.0
 11
223.730201712578
 21
346.1167685300103
 31
0.0
 12
222.5635350459114
 22
353.1167685300104
 32
0.0
 13
222.5635350459114
 23
353.1167685300104
 33
0.0
  0
MTEXT
  5
F6B
330
F22
100
AcDbEntity
  8
BEM
 62
     1
100
AcDbMText
 10
216.0635350459113
 20
319.6677409403907
 30
0.0
 40
7.0
 41
0.0
 71
     5
 72
     1
  1
\A1;67
 11
0.0000000000000001
 21
1.0
 31
0.0
 73
     1
 44
1.0
  0
POINT
  5
F6C
330
F22
100
AcDbEntity
  8
DEFPOINTS
 62
     0
100
AcDbPoint
 10
366.7810590436943
 20
286.2187133507709
 30
0.0
  0
POINT
  5
F6D
330
F22
100
AcDbEntity
  8
DEFPOINTS
 62
     0
100
AcDbPoint
 10
244.2810590436941
 20
353.1167685300104
 30
0.0
  0
POINT
  5
F6E
330
F22
100
AcDbEntity
  8
DEFPOINTS
 62
     0
100
AcDbPoint
 10
222.5635350459114
 20
353.1167685300104
 30
0.0
  0
ENDBLK
  5
F2D
330
F22
100
AcDbEntity
  8
0
100
AcDbBlockEnd
  0
BLOCK
  5
F38
330
F2E
100
AcDbEntity
  8
0
100
AcDbBlockBegin
  2
*D6
 70
     1
 10
0.0
 20
0.0
 30
0.0
  3
*D6
  1

  0
LINE
  5
100A
330
F2E
100
AcDbEntity
  8
BEM
 62
     0
370
    -2
100
AcDbLine
 10
648.6981737727894
 20
307.9941540548607
 30
0.0
 11
677.1885566955919
 21
306.501036354953
 31
0.0
  0
LINE
  5
100B
330
F2E
100
AcDbEntity
  8
BEM
 62
     0
370
    -2
100
AcDbLine
 10
644.8776489670541
 20
235.0941980177767
 30
0.0
 11
673.3680318898564
 21
233.6010803178689
 31
0.0
  0
LINE
  5
100C
330
F2E
100
AcDbEntity
  8
BEM
 62
     0
370
    -2
100
AcDbLine
 10
674.8249459323821
 20
299.6153015241568
 30
0.0
 11
671.737124514048
 21
240.6961589736368
 31
0.0
  0
SOLID
  5
100D
330
F2E
100
AcDbEntity
  8
BEM
 62
     0
100
AcDbTrace
 10
673.6598781418352
 20
299.6763601397736
 30
0.0
 11
675.9900137229291
 21
299.55424290854
 31
0.0
 12
675.1912976260828
 22
306.6057082674388
 32
0.0
 13
675.1912976260828
 23
306.6057082674388
 33
0.0
  0
SOLID
  5
100E
330
F2E
100
AcDbEntity
  8
BEM
 62
     0
100
AcDbTrace
 10
670.5720567235011
 20
240.7572175892536
 30
0.0
 11
672.902192304595
 21
240.63510035802
 31
0.0
 12
671.3707728203473
 22
233.7057522303548
 32
0.0
 13
671.3707728203473
 23
233.7057522303548
 33
0.0
  0
MTEXT
  5
100F
330
F2E
100
AcDbEntity
  8
BEM
 62
     1
100
AcDbMText
 10
666.7899432473103
 20
270.4959139644761
 30
0.0
 40
7.0
 41
0.0
 71
     5
 72
     1
  1
\A1;%%c73
 11
0.0523359562429513
 21
0.9986295347545734
 31
0.0
 73
     1
 44
1.0
  0
POINT
  5
1010
330
F2E
100
AcDbEntity
  8
DEFPOINTS
 62
     0
100
AcDbPoint
 10
646.7009147032803
 20
308.0988259673467
 30
0.0
  0
POINT
  5
1011
330
F2E
100
AcDbEntity
  8
DEFPOINTS
 62
     0
100
AcDbPoint
 10
642.8803898975449
 20
235.1988699302626
 30
0.0
  0
POINT
  5
1012
330
F2E
100
AcDbEntity
  8
DEFPOINTS
 62
     0
100
AcDbPoint
 10
671.3707728203473
 20
233.7057522303548
 30
0.0
  0
ENDBLK
  5
F39
330
F2E
100
AcDbEntity
  8
0
100
AcDbBlockEnd
  0
BLOCK
  5
F44
330
F3A
100
AcDbEntity
  8
0
100
AcDbBlockBegin
  2
*D7
 70
     1
 10
0.0
 20
0.0
 30
0.0
  3
*D7
  1

  0
LINE
  5
1030
330
F3A
100
AcDbEntity
  8
BEM
 62
     0
370
    -2
100
AcDbLine
 10
491.2810590436942
 20
353.1167685300097
 30
0.0
 11
697.0550019340389
 21
353.1167685300097
 31
0.0
  0
LINE
  5
1031
330
F3A
100
AcDbEntity
  8
BEM
 62
     0
370
    -2
100
AcDbLine
 10
675.3400865273722
 20
271.282496255104
 30
0.0
 11
697.0550019340389
 21
271.282496255104
 31
0.0
  0
LINE
  5
1032
330
F3A
100
AcDbEntity
  8
BEM
 62
     0
370
    -2
100
AcDbLine
 10
695.0550019340389
 20
346.1167685300097
 30
0.0
 11
695.0550019340389
 21
278.282496255104
 31
0.0
  0
SOLID
  5
1033
330
F3A
100
AcDbEntity
  8
BEM
 62
     0
100
AcDbTrace
 10
693.8883352673723
 20
346.1167685300097
 30
0.0
 11
696.2216686007056
 21
346.1167685300097
 31
0.0
 12
695.0550019340389
 22
353.1167685300097
 32
0.0
 13
695.0550019340389
 23
353.1167685300097
 33
0.0
  0
SOLID
  5
1034
330
F3A
100
AcDbEntity
  8
BEM
 62
     0
100
AcDbTrace
 10
693.8883352673723
 20
278.282496255104
 30
0.0
 11
696.2216686007056
 21
278.282496255104
 31
0.0
 12
695.0550019340389
 22
271.282496255104
 32
0.0
 13
695.0550019340389
 23
271.282496255104
 33
0.0
  0
MTEXT
  5
1035
330
F3A
100
AcDbEntity
  8
BEM
 62
     1
100
AcDbMText
 10
688.5550019340388
 20
312.1996323925569
 30
0.0
 40
7.0
 41
0.0
 71
     5
 72
     1
  1
\A1;82
 11
0.0000000000000001
 21
1.0
 31
0.0
 73
     1
 44
1.0
  0
POINT
  5
1036
330
F3A
100
AcDbEntity
  8
DEFPOINTS
 62
     0
100
AcDbPoint
 10
489.2810590436941
 20
353.1167685300097
 30
0.0
  0
POINT
  5
1037
330
F3A
100
AcDbEntity
  8
DEFPOINTS
 62
     0
100
AcDbPoint
 10
673.3400865273722
 20
271.282496255104
 30
0.0
  0
POINT
  5
1038
330
F3A
100
AcDbEntity
  8
DEFPOINTS
 62
     0
100
AcDbPoint
 10
695.0550019340389
 20
271.282496255104
 30
0.0
  0
ENDBLK
  5
F45
330
F3A
100
AcDbEntity
  8
0
100
AcDbBlockEnd
  0
ENDSEC
  0
SECTION
  2
ENTITIES
  0
LINE
  5
58
330
1E
100
AcDbEntity
  8
STEMPEL
100
AcDbLine
 10
830.0000000000002
 20
110.0
 30
0.0
 11
470.0000000000001
 21
110.0
 31
0.0
  0
LINE
  5
59
330
1E
100
AcDbEntity
  8
STEMPEL
100
AcDbLine
 10
470.0000000000001
 20
110.0
 30
0.0
 11
470.0000000000001
 21
10.0
 31
0.0
  0
LINE
  5
5A
330
1E
100
AcDbEntity
  8
STEMPEL
100
AcDbLine
 10
566.0000000000002
 20
109.9999999999999
 30
0.0
 11
566.0000000000001
 21
9.999999999999886
 31
0.0
  0
LINE
  5
5B
330
1E
100
AcDbEntity
  8
STEMPEL
100
AcDbLine
 10
650.0
 20
110.0
 30
0.0
 11
650.0
 21
10.0
 31
0.0
  0
LINE
  5
5C
330
1E
100
AcDbEntity
  8
STEMPEL
100
AcDbLine
 10
752.0000000000002
 20
109.9999999999997
 30
0.0
 11
752.0000000000002
 21
40.0
 31
0.0
  0
LINE
  5
5D
330
1E
100
AcDbEntity
  8
STEMPEL
100
AcDbLine
 10
566.0
 20
30.0
 30
0.0
 11
470.0000000000001
 21
30.0
 31
0.0
  0
LINE
  5
5E
330
1E
100
AcDbEntity
  8
STEMPEL
100
AcDbLine
 10
830.0000000000002
 20
40.0
 30
0.0
 11
566.0000000000001
 21
40.0
 31
0.0
  0
LINE
  5
5F
330
1E
100
AcDbEntity
  8
STEMPEL
100
AcDbLine
 10
830.0000000000002
 20
80.0
 30
0.0
 11
566.0000000000002
 21
80.0
 31
0.0
  0
LINE
  5
60
330
1E
100
AcDbEntity
  8
VOLL
100
AcDbLine
 10
484.0000000000002
 20
110.0
 30
0.0
 11
484.0000000000001
 21
9.999999999999985
 31
0.0
  0
LINE
  5
61
330
1E
100
AcDbEntity
  8
VOLL
100
AcDbLine
 10
524.0000000000001
 20
109.9999999999999
 30
0.0
 11
524.0000000000001
 21
9.999999999999943
 31
0.0
  0
LINE
  5
62
330
1E
100
AcDbEntity
  8
VOLL
100
AcDbLine
 10
544.0000000000002
 20
109.9999999999999
 30
0.0
 11
544.0000000000001
 21
9.999999999999914
 31
0.0
  0
LINE
  5
63
330
1E
100
AcDbEntity
  8
VOLL
100
AcDbLine
 10
584.0000000000002
 20
80.0
 30
0.0
 11
584.0000000000002
 21
40.0
 31
0.0
  0
LINE
  5
64
330
1E
100
AcDbEntity
  8
VOLL
100
AcDbLine
 10
610.0000000000002
 20
109.9999999999998
 30
0.0
 11
610.0000000000001
 21
40.0
 31
0.0
  0
LINE
  5
65
330
1E
100
AcDbEntity
  8
HILF
100
AcDbLine
 10
470.0000000000001
 20
100.0
 30
0.0
 11
566.0000000000002
 21
100.0
 31
0.0
  0
LINE
  5
66
330
1E
100
AcDbEntity
  8
HILF
100
AcDbLine
 10
470.0000000000001
 20
90.0
 30
0.0
 11
566.0000000000002
 21
90.0
 31
0.0
  0
LINE
  5
67
330
1E
100
AcDbEntity
  8
HILF
100
AcDbLine
 10
470.0000000000001
 20
80.0
 30
0.0
 11
566.0000000000002
 21
80.0
 31
0.0
  0
LINE
  5
68
330
1E
100
AcDbEntity
  8
HILF
100
AcDbLine
 10
470.0000000000001
 20
70.0
 30
0.0
 11
566.0000000000002
 21
70.0
 31
0.0
  0
LINE
  5
69
330
1E
100
AcDbEntity
  8
HILF
100
AcDbLine
 10
470.0000000000001
 20
60.0
 30
0.0
 11
566.0000000000002
 21
60.0
 31
0.0
  0
LINE
  5
6A
330
1E
100
AcDbEntity
  8
HILF
100
AcDbLine
 10
470.0000000000001
 20
50.0
 30
0.0
 11
566.0000000000002
 21
50.0
 31
0.0
  0
LINE
  5
6B
330
1E
100
AcDbEntity
  8
HILF
100
AcDbLine
 10
470.0000000000001
 20
40.0
 30
0.0
 11
566.0000000000002
 21
40.0
 31
0.0
  0
LINE
  5
6C
330
1E
100
AcDbEntity
  8
HILF
100
AcDbLine
 10
566.0000000000002
 20
70.0
 30
0.0
 11
650.0
 21
70.0
 31
0.0
  0
LINE
  5
6D
330
1E
100
AcDbEntity
  8
HILF
100
AcDbLine
 10
566.0000000000002
 20
60.0
 30
0.0
 11
650.0
 21
60.0
 31
0.0
  0
LINE
  5
6E
330
1E
100
AcDbEntity
  8
HILF
100
AcDbLine
 10
566.0000000000002
 20
50.0
 30
0.0
 11
650.0
 21
50.0
 31
0.0
  0
LINE
  5
6F
330
1E
100
AcDbEntity
  8
HILF
100
AcDbLine
 10
654.7736801096948
 20
84.03758247564136
 30
0.0
 11
746.6297842514811
 21
84.03758247564136
 31
0.0
  0
LINE
  5
70
330
1E
100
AcDbEntity
  8
HILF
100
AcDbLine
 10
654.7736801096948
 20
70.0
 30
0.0
 11
746.6297842514811
 21
70.0
 31
0.0
  0
LINE
  5
71
330
1E
100
AcDbEntity
  8
HILF
100
AcDbLine
 10
654.7736801096948
 20
60.0
 30
0.0
 11
746.6297842514811
 21
60.0
 31
0.0
  0
LINE
  5
72
330
1E
100
AcDbEntity
  8
HILF
100
AcDbLine
 10
654.7736801096948
 20
50.0
 30
0.0
 11
746.6297842514811
 21
50.0
 31
0.0
  0
LINE
  5
73
330
1E
100
AcDbEntity
  8
VOLL
100
AcDbLine
 10
752.0000000000002
 20
60.0
 30
0.0
 11
830.0000000000002
 21
60.0
 31
0.0
  0
LINE
  5
74
330
1E
100
AcDbEntity
  8
HILF
100
AcDbLine
 10
756.7238616296995
 20
83.77983636955823
 30
0.0
 11
824.858883932673
 21
83.77983636955823
 31
0.0
  0
LINE
  5
75
330
1E
100
AcDbEntity
  8
HILF
100
AcDbLine
 10
654.7736801096948
 20
14.89398258028305
 30
0.0
 11
824.858883932673
 21
14.89398258028305
 31
0.0
  0
TEXT
  5
76
330
1E
100
AcDbEntity
  8
TEXT
100
AcDbText
 10
492.3998239263297
 20
18.67381894984129
 30
0.0
 40
4.0
  1
Änderung
 41
0.8
  7
GREEKS
 72
     1
 11
503.1426810691868
 21
18.67381894984129
 31
0.0
100
AcDbText
  0
TEXT
  5
78
330
1E
100
AcDbEntity
  8
TEXT
100
AcDbText
 10
573.5163572150378
 20
102.4620895087088
 30
0.0
 40
5.0
  1
Maßstab
 41
0.8
  7
GREEKS
100
AcDbText
  0
TEXT
  5
79
330
1E
100
AcDbEntity
  8
TEXT
100
AcDbText
 10
654.8779403809011
 20
102.5489328011779
 30
0.0
 40
5.0
  1
Benennung
 41
0.8
  7
GREEKS
100
AcDbText
  0
TEXT
  5
7A
330
1E
100
AcDbEntity
  8
TEXT
100
AcDbText
 10
756.1787549576343
 20
102.3132034537135
 30
0.0
 40
5.0
  1
Zeichnungs Nr.
 41
0.8
  7
GREEKS
100
AcDbText
  0
TEXT
  5
7B
330
1E
100
AcDbEntity
  8
TEXT
100
AcDbText
 10
654.742238391136
 20
30.84560570193055
 30
0.0
 40
5.0
  1
Bauvorhaben
 41
0.8
  7
GREEKS
100
AcDbText
  0
TEXT
  5
7C
330
1E
100
AcDbEntity
  8
TEXT
100
AcDbText
 10
756.7238616296995
 20
73.18118237099965
 30
0.0
 40
5.0
  1
Ersatz für:
 41
0.8
  7
GREEKS
100
AcDbText
  0
TEXT
  5
7D
330
1E
100
AcDbEntity
  8
TEXT
100
AcDbText
 10
478.2664110704577
 20
13.65465846027187
 30
0.0
 40
4.0
  1
Index
 50
90.0
 41
0.8
  7
GREEKS
100
AcDbText
  0
TEXT
  5
7E
330
1E
100
AcDbEntity
  8
TEXT
100
AcDbText
 10
529.8990113186979
 20
18.67156269339808
 30
0.0
 40
4.0
  1
Tag
 41
0.8
  7
GREEKS
 72
     1
 11
533.6323446520313
 21
18.67156269339808
 31
0.0
100
AcDbText
  0
TEXT
  5
7F
330
1E
100
AcDbEntity
  8
TEXT
100
AcDbText
 10
548.9795678138293
 20
18.59324216966404
 30
0.0
 40
4.0
  1
Name
 41
0.8
  7
GREEKS
 72
     1
 11
555.3033773376388
 21
18.59324216966404
 31
0.0
100
AcDbText
  0
TEXT
  5
80
330
1E
100
AcDbEntity
  8
TEXT
100
AcDbText
 10
592.3311673153651
 20
73.31880501229919
 30
0.0
 40
4.0
  1
Tag
 41
0.8
  7
GREEKS
100
AcDbText
  0
TEXT
  5
81
330
1E
100
AcDbEntity
  8
TEXT
100
AcDbText
 10
622.4626584226296
 20
73.3096109191522
 30
0.0
 40
4.0
  1
Name
 41
0.8
  7
GREEKS
100
AcDbText
  0
TEXT
  5
82
330
1E
100
AcDbEntity
  8
TEXT
100
AcDbText
 10
567.5836127167616
 20
63.62990369617961
 30
0.0
 40
4.0
  1
Gez.
 41
0.8
  7
GREEKS
100
AcDbText
  0
TEXT
  5
83
330
1E
100
AcDbEntity
  8
TEXT
100
AcDbText
 10
567.5515086571673
 20
53.68926291428373
 30
0.0
 40
4.0
  1
Gepr.
 41
0.8
  7
GREEKS
100
AcDbText
  0
TEXT
  5
84
330
1E
100
AcDbEntity
  8
TEXT
100
AcDbText
 10
567.6006777387304
 20
43.52946389649804
 30
0.0
 40
4.0
  1
Norm.
 41
0.8
  7
GREEKS
100
AcDbText
  0
TEXT
  5
85
330
1E
100
AcDbEntity
  8
TEXT
100
AcDbText
 10
757.2400861497007
 20
52.07416177878596
 30
0.0
 40
5.0
  1
ersetzt durch:
 41
0.8
  7
GREEKS
100
AcDbText
  0
TEXT
  5
86
330
1E
100
AcDbEntity
  8
TEXT
100
AcDbText
 10
568.8693027807324
 20
72.96682596523723
 30
0.0
 40
4.0
  1
2011
 41
0.8
  7
GREEKS
100
AcDbText
  0
LINE
  5
87
330
1E
100
AcDbEntity
  8
HILF
100
AcDbLine
 10
0.0
 20
0.0
 30
0.0
 11
840.0
 21
0.0
 31
0.0
  0
LINE
  5
88
330
1E
100
AcDbEntity
  8
HILF
100
AcDbLine
 10
840.0
 20
0.0
 30
0.0
 11
840.0
 21
594.0
 31
0.0
  0
LINE
  5
89
330
1E
100
AcDbEntity
  8
HILF
100
AcDbLine
 10
840.0
 20
594.0
 30
0.0
 11
0.0
 21
594.0
 31
0.0
  0
LINE
  5
8B
330
1E
100
AcDbEntity
  8
STEMPEL
100
AcDbLine
 10
830.0
 20
584.0
 30
0.0
 11
40.0
 21
584.0
 31
0.0
  0
LINE
  5
8D
330
1E
100
AcDbEntity
  8
STEMPEL
100
AcDbLine
 10
40.0
 20
10.0
 30
0.0
 11
830.0
 21
10.0
 31
0.0
  0
LINE
  5
8E
330
1E
100
AcDbEntity
  8
STEMPEL
100
AcDbLine
 10
830.0
 20
10.0
 30
0.0
 11
830.0
 21
584.0
 31
0.0
  0
TEXT
  5
8F
330
1E
100
AcDbEntity
  8
TEXT
 62
     1
100
AcDbText
 10
655.0390572473189
 20
87.37343075652544
 30
0.0
 40
7.0
  1
Unterteileinheit DN70
 41
0.7
  7
GREEKS
100
AcDbText
  0
TEXT
  5
90
330
1E
100
AcDbEntity
  8
TEXT
 62
     1
100
AcDbText
 10
766.6628088850802
 20
87.37343075652544
 30
0.0
 40
7.0
  1
21994070W
 41
0.8
  7
GREEKS
 72
     1
 11
790.1294755517469
 21
87.37343075652544
 31
0.0
100
AcDbText
  0
TEXT
  5
91
330
1E
100
AcDbEntity
  8
TEXT
100
AcDbText
 10
618.509022641583
 20
102.83989611379
 30
0.0
 40
5.0
  1
Zul.Abw.
 41
0.8
  7
GREEKS
100
AcDbText
  0
TEXT
  5
93
330
1E
100
AcDbEntity
  8
TEXT
100
AcDbText
 10
590.1565237511869
 20
63.1508587612022
 30
0.0
 40
4.0
  1
28.03.
 41
0.8
  7
GREEKS
 72
     1
 11
597.1660475607107
 21
63.1508587612022
 31
0.0
100
AcDbText
  0
TEXT
  5
94
330
1E
100
AcDbEntity
  8
TEXT
100
AcDbText
 10
624.023175322661
 20
62.94297655165468
 30
0.0
 40
4.0
  1
Koeh
 41
0.8
  7
GREEKS
 72
     1
 11
629.2803181798038
 21
62.94297655165468
 31
0.0
100
AcDbText
  0
TEXT
  5
95
330
1E
100
AcDbEntity
  8
TEXT
100
AcDbText
 10
654.3410940884992
 20
72.10021383107525
 30
0.0
 40
5.0
  1
seitlich
 41
0.8
  7
GREEKS
100
AcDbText
  0
TEXT
  5
97
330
1E
100
AcDbEntity
  8
TEXT
100
AcDbText
 10
654.3410940884992
 20
52.59097337846058
 30
0.0
 40
5.0
  1
EDV-Art.Nr. 21994.070X
 41
0.8
  7
GREEKS
100
AcDbText
  0
TEXT
  5
98
330
1E
100
AcDbEntity
  8
TEXT
100
AcDbText
 10
654.1676050109348
 20
43.31127624791508
 30
0.0
 40
4.0
  1
21994070W.DWG
 41
0.8
  7
GREEKS
100
AcDbText
  0
TEXT
  5
99
330
1E
100
AcDbEntity
  8
TEXT
 62
     1
100
AcDbText
 10
582.7034912034222
 20
87.47077088414977
 30
0.0
 40
7.0
  1
1:2
 41
0.8
  7
GREEKS
100
AcDbText
  0
TEXT
  5
9A
330
1E
100
AcDbEntity
  8
TEXT
100
AcDbText
 10
470.0441139350127
 20
114.1143585051043
 30
0.0
 40
5.0
  1
Erstellt mit AUTOCAD 2004
 41
0.8
  7
GREEKS
100
AcDbText
  0
INSERT
  5
9B
330
1E
100
AcDbEntity
  8
HILF
100
AcDbBlockReference
  2
LORO
 10
573.0624985962354
 20
36.9805930029896
 30
0.0
 41
2.0
 42
2.0
 43
2.0
  0
LINE
  5
9C
330
1E
100
AcDbEntity
  8
BEM
100
AcDbLine
 10
456.0
 20
0.0
 30
0.0
 11
456.0
 21
10.0
 31
0.0
  0
LINE
  5
13E
330
1E
100
AcDbEntity
  8
HILF
100
AcDbLine
 10
0.0
 20
0.0
 30
0.0
 11
0.0
 21
594.0
 31
0.0
  0
LINE
  5
13F
330
1E
100
AcDbEntity
  8
STEMPEL
100
AcDbLine
 10
40.0
 20
10.0
 30
0.0
 11
40.0
 21
584.0
 31
0.0
  0
LINE
  5
14A
330
1E
100
AcDbEntity
  8
HILF
100
AcDbLine
 10
0.0
 20
297.0
 30
0.0
 11
40.0
 21
297.0
 31
0.0
  0
TEXT
  5
15B
330
1E
100
AcDbEntity
  8
TEXT
100
AcDbText
 10
837.3022923857165
 20
10.16790107998861
 30
0.0
 40
4.0
  1
Diese Zeichnung ist urheberrechtlich geschützt und bleibt unser Eigentum. Sie darf weder ganz noch teilweise verfielfältigt und nicht an Dritte weitergegeben werden.
 50
90.0
 41
0.8
  7
GREEKS
100
AcDbText
  0
TEXT
  5
67E
330
1E
100
AcDbEntity
  8
TEXT
100
AcDbText
 10
612.2898419893276
 20
89.04887667696556
 30
0.0
 40
4.0
  1
DIN EN1124-3
 41
0.8
  7
GREEKS
 72
     1
 11
629.2803181798038
 21
89.04887667696556
 31
0.0
100
AcDbText
  0
HATCH
  5
DF0
330
1E
100
AcDbEntity
  8
SCHRAFF
100
AcDbHatch
 10
0.0
 20
0.0
 30
0.0
210
0.0
220
0.0
230
1.0
  2
_USER
 70
     0
 71
     0
 91
        3
 92
        7
 72
     1
 73
     1
 93
        9
 10
308.2609747965595
 20
351.11676853001
 42
-0.2102773852970906
 10
312.6846388174204
 20
349.1703097757043
 42
0.0
 10
322.813343244138
 20
338.1167685300108
 42
0.0
 10
324.2878979177583
 20
339.4679489452421
 42
0.0
 10
314.1591934910402
 20
350.5214901909365
 42
0.210277385297062
 10
308.2609747965597
 20
353.1167685300104
 42
0.0
 10
276.7810590436941
 20
353.1167685300103
 42
0.0
 10
276.7810590436941
 20
352.1167685300103
 42
0.0
 10
276.7810590436941
 20
351.1167685300102
 42
0.0
 97
        0
 92
        7
 72
     1
 73
     1
 93
        8
 10
276.7810590436941
 20
351.1167685300104
 42
0.0
 10
276.781059043694
 20
353.1167685300104
 42
0.0
 10
250.4985734649662
 20
353.1167685300104
 42
0.1989123673796802
 10
246.60948616844
 20
351.5058558265359
 42
0.0
 10
244.2810590436942
 20
349.1774287017897
 42
0.0
 10
245.695272606067
 20
347.7632151394165
 42
0.0
 10
248.0236997308133
 20
350.0916422641628
 42
-0.1989123673796735
 10
250.498573464966
 20
351.1167685300105
 42
0.0
 97
        0
 92
        7
 72
     1
 73
     1
 93
       12
 10
425.3011432908286
 20
353.1167685300104
 42
0.2102773852970853
 10
419.4029245963476
 20
350.521490190936
 42
0.0
 10
409.2742201696298
 20
339.4679489452421
 42
0.0
 10
410.7487748432501
 20
338.1167685300109
 42
0.0
 10
420.8774792699681
 20
349.1703097757047
 42
-0.2102773852970679
 10
425.3011432908285
 20
351.1167685300102
 42
0.0
 10
483.0635446224222
 20
351.1167685300105
 42
-0.1989123673797157
 10
485.5384183565755
 20
350.0916422641628
 42
0.0
 10
487.8668454813217
 20
347.7632151394163
 42
0.0
 10
489.2810590436946
 20
349.1774287017897
 42
0.0
 10
486.9526319189484
 20
351.5058558265359
 42
0.198912367379664
 10
483.0635446224226
 20
353.1167685300104
 42
0.0
 97
        0
 75
     0
 76
     0
 52
45.0
 41
2.0
 77
     0
 78
     1
 53
45.0
 43
-0.0000000000001137
 44
0.0
 45
-1.414213562373094
 46
1.414213562373095
 79
     0
 47
0.382292693078827
 98
        3
 10
307.1881731713919
 20
351.7714580575021
 10
263.1914845833047
 20
351.389165895815
 10
449.8904716330688
 20
352.1537516179999
  0
ARC
  5
DF1
330
1E
100
AcDbEntity
  8
STEMPEL
100
AcDbCircle
 10
425.3011432908286
 20
345.1167685300106
 30
0.0
 40
8.0
100
AcDbArc
 50
90.0
 51
137.4999999999926
  0
LINE
  5
DF2
102
{ACAD_REACTORS
330
E53
102
}
330
1E
100
AcDbEntity
  8
STEMPEL
100
AcDbLine
 10
420.8774792699681
 20
349.1703097757047
 30
0.0
 11
410.74877484325
 21
338.1167685300109
 31
0.0
  0
LINE
  5
DF4
102
{ACAD_REACTORS
330
1139
102
}
330
1E
100
AcDbEntity
  8
STEMPEL
100
AcDbLine
 10
407.9044146649545
 20
353.1167685300104
 30
0.0
 11
489.2810590436941
 21
353.1167685300104
 31
0.0
  0
LINE
  5
DF6
102
{ACAD_REACTORS
330
102F
102
}
330
1E
100
AcDbEntity
  8
STEMPEL
100
AcDbLine
 10
403.2810590436944
 20
320.8559200358638
 30
0.0
 11
646.7009147032804
 21
308.0988259673467
 31
0.0
  0
LINE
  5
DF7
102
{ACAD_REACTORS
330
102F
102
}
330
1E
100
AcDbEntity
  8
STEMPEL
100
AcDbLine
 10
401.7810590436944
 20
319.4324731857916
 30
0.0
 11
646.5926318518008
 21
306.6024423121302
 31
0.0
  0
DIMENSION
  5
DF9
330
1E
100
AcDbEntity
  8
BEM
100
AcDbDimension
  2
*D2
 10
651.7810590436944
 20
213.0789154870704
 30
0.0
 11
509.2810590436942
 21
219.5789154870705
 31
0.0
 70
    32
 71
     5
 42
285.0000000000002
  3
Standard
100
AcDbAlignedDimension
 13
366.7810590436942
 23
286.2187133507709
 33
0.0
 14
651.7810590436944
 24
271.282496255104
 34
0.0
100
AcDbRotatedDimension
1001
ACAD
1000
DSTYLE
1002
{
1070
    40
1040
2.0
1070
    41
1040
3.5
1070
    42
1040
1.0
1070
    43
1040
7.0
1070
    44
1040
1.0
1070
    47
1040
2.0
1070
    48
1040
2.0
1070
    73
1070
     0
1070
    74
1070
     0
1070
    77
1070
     1
1070
    78
1070
     8
1070
    79
1070
     2
1070
   140
1040
3.5
1070
   141
1040
1.5
1070
   146
1040
0.5142857142857144
1070
   147
1040
1.5
1070
   172
1070
     1
1070
   178
1070
     1
1070
   179
1070
     1
1070
   271
1070
     1
1070
   272
1070
     1
1070
   279
1070
     0
1002
}
  0
LINE
  5
DFA
102
{ACAD_REACTORS
330
102F
102
}
330
1E
100
AcDbEntity
  8
STEMPEL
100
AcDbLine
 10
330.2810590436942
 20
251.5815066656776
 30
0.0
 11
642.8803898975449
 21
235.1988699302626
 31
0.0
  0
LINE
  5
DFB
102
{ACAD_REACTORS
330
102F
102
}
330
1E
100
AcDbEntity
  8
STEMPEL
100
AcDbLine
 10
331.7810590436942
 20
253.0049535157502
 30
0.0
 11
642.9054638848561
 21
236.6996143772667
 31
0.0
  0
DIMENSION
  5
DFC
330
1E
100
AcDbEntity
  8
BEM
100
AcDbDimension
  2
*D3
 10
622.3439985696601
 20
272.8252272231687
 30
0.0
 11
423.4321794260798
 21
264.5916442522431
 31
0.0
 70
    34
 71
     5
 42
0.0523598775598222
  3
Standard
100
AcDb2LineAngularDimension
 13
366.7810590436944
 23
286.2187133507709
 33
0.0
 14
364.7810590436944
 24
286.2187133507709
 34
0.0
 15
366.7810590436942
 25
286.2187133507709
 35
0.0
 16
433.592018773018
 26
285.0525237107787
 36
0.0
1001
ACAD
1000
DSTYLE
1002
{
1070
    40
1040
2.0
1070
    41
1040
3.5
1070
    42
1040
1.0
1070
    43
1040
7.0
1070
    44
1040
1.0
1070
    47
1040
2.0
1070
    48
1040
2.0
1070
    73
1070
     0
1070
    74
1070
     0
1070
    77
1070
     1
1070
    78
1070
     8
1070
    79
1070
     2
1070
   140
1040
3.5
1070
   141
1040
1.5
1070
   146
1040
0.5142857142857144
1070
   147
1040
1.5
1070
   172
1070
     1
1070
   178
1070
     1
1070
   179
1070
     1
1070
   271
1070
     1
1070
   272
1070
     1
1070
   279
1070
     0
1002
}
  0
LINE
  5
DFD
330
1E
100
AcDbEntity
  8
MITTEL
100
AcDbLine
 10
366.7810590436942
 20
286.2187133507709
 30
0.0
 11
656.7742067174674
 21
271.0208164738892
 31
0.0
  0
DIMENSION
  5
DFE
330
1E
100
AcDbEntity
  8
BEM
100
AcDbDimension
  2
*D4
 10
489.2810590436946
 20
389.679382150299
 30
0.0
 11
366.7810590436944
 21
396.1793821502991
 31
0.0
 70
    32
  1
%%c<>
 71
     5
 42
245.0000000000005
  3
Standard
100
AcDbAlignedDimension
 13
244.2810590436942
 23
349.1774287017897
 33
0.0
 14
489.2810590436946
 24
349.1774287017897
 34
0.0
100
AcDbRotatedDimension
1001
ACAD
1000
DSTYLE
1002
{
1070
    40
1040
2.0
1070
    41
1040
3.5
1070
    42
1040
1.0
1070
    43
1040
7.0
1070
    44
1040
1.0
1070
    47
1040
2.0
1070
    48
1040
2.0
1070
    73
1070
     0
1070
    74
1070
     0
1070
    77
1070
     1
1070
    78
1070
     8
1070
    79
1070
     2
1070
   140
1040
3.5
1070
   141
1040
1.5
1070
   146
1040
0.5142857142857144
1070
   147
1040
1.5
1070
   172
1070
     1
1070
   178
1070
     1
1070
   179
1070
     1
1070
   271
1070
     1
1070
   272
1070
     1
1070
   279
1070
     0
1002
}
  0
LINE
  5
DFF
330
1E
100
AcDbEntity
  8
TEXT
 62
     2
100
AcDbLine
 10
404.9795229586622
 20
510.3866760719388
 30
0.0
 11
443.1474902282978
 21
526.7834197724234
 31
0.0
  0
LINE
  5
E02
102
{ACAD_REACTORS
330
FFA
102
}
330
1E
100
AcDbEntity
  8
STEMPEL
100
AcDbLine
 10
281.7810590436947
 20
359.1167685300103
 30
0.0
 11
492.0421233773973
 21
359.1167685300103
 31
0.0
  0
LINE
  5
E04
102
{ACAD_REACTORS
330
FFA
102
}
330
1E
100
AcDbEntity
  8
STEMPEL
100
AcDbLine
 10
254.7810590436948
 20
365.1167685300107
 30
0.0
 11
475.6232018191207
 21
365.1167685300111
 31
0.0
  0
LINE
  5
E05
330
1E
100
AcDbEntity
  8
STEMPEL
100
AcDbLine
 10
419.5881145899441
 20
347.7632151394164
 30
0.0
 11
487.8668454813213
 21
347.7632151394164
 31
0.0
  0
LINE
  5
E06
330
1E
100
AcDbEntity
  8
STEMPEL
100
AcDbLine
 10
330.281059043694
 20
325.2455826035036
 30
0.0
 11
330.281059043694
 21
251.5815066656777
 31
0.0
  0
LINE
  5
E07
330
1E
100
AcDbEntity
  8
STEMPEL
100
AcDbLine
 10
331.781059043694
 20
325.2455826035036
 30
0.0
 11
331.781059043694
 21
253.0049535157502
 31
0.0
  0
HATCH
  5
E08
330
1E
100
AcDbEntity
  8
SCHRAFF
100
AcDbHatch
 10
0.0
 20
0.0
 30
0.0
210
0.0
220
0.0
230
1.0
  2
_USER
 70
     0
 71
     0
 91
        2
 92
        7
 72
     1
 73
     1
 93
       14
 10
331.781059043694
 20
325.2455826035036
 42
0.1316524975874043
 10
330.2403511872151
 20
330.9955826035041
 42
0.0
 10
327.6208050058496
 20
335.5327696824022
 42
-0.1316524975873951
 10
326.281059043694
 20
340.5327696824022
 42
0.0
 10
326.281059043694
 20
346.567846122892
 42
-0.1174534402570155
 10
328.7937366674633
 20
357.1167685300106
 42
0.0
 10
327.1260100291478
 20
357.1167685300106
 42
0.1098063296705094
 10
324.781059043694
 20
346.5678461228918
 42
0.0
 10
324.781059043694
 20
340.5327696824022
 42
0.1316524975873904
 10
326.3217669001729
 20
334.7827696824024
 42
0.0
 10
328.9413130815387
 20
330.2455826035036
 42
-0.1316524975873914
 10
330.281059043694
 20
325.2455826035036
 42
0.0
 10
330.2810590436939
 20
251.5815066656777
 42
0.0
 10
331.7810590436939
 20
253.0049535157501
 42
0.0
 97
        0
 92
        7
 72
     1
 73
     1
 93
       14
 10
406.4361080582406
 20
357.1167685300106
 42
0.0
 10
404.7683814199249
 20
357.1167685300106
 42
-0.1174534402570096
 10
407.2810590436942
 20
346.5678461228924
 42
0.0
 10
407.2810590436944
 20
340.5327696824022
 42
-0.1316524975873954
 10
405.9413130815388
 20
335.5327696824022
 42
0.0
 10
403.321766900173
 20
330.9955826035039
 42
0.1316524975873947
 10
401.7810590436941
 20
325.2455826035039
 42
0.0
 10
401.7810590436941
 20
319.4324731857916
 42
0.0
 10
403.2810590436939
 20
320.8559200358636
 42
0.0
 10
403.2810590436939
 20
325.2455826035036
 42
-0.1316524975873911
 10
404.6208050058495
 20
330.2455826035034
 42
0.0
 10
407.2403511872153
 20
334.7827696824024
 42
0.1316524975873896
 10
408.7810590436942
 20
340.5327696824022
 42
0.0
 10
408.7810590436942
 20
346.567846122892
 42
0.1098063296705072
 97
        0
 75
     0
 76
     0
 52
135.0
 41
2.0
 77
     0
 78
     1
 53
135.0
 43
19.5699670657192
 44
-14.69576293093792
 45
-1.414213562373095
 46
-1.414213562373094
 79
     0
 47
0.2171429602251947
 98
        2
 10
330.8420390959337
 20
322.4753298576866
 10
407.7683956384404
 20
347.2296266670698
  0
HATCH
  5
E09
330
1E
100
AcDbEntity
  8
BEM
100
AcDbHatch
 10
0.0
 20
0.0
 30
0.0
210
0.0
220
0.0
230
1.0
  2
_USER
 70
     0
 71
     0
 91
        2
 92
        7
 72
     1
 73
     1
 93
        3
 10
403.2810590436942
 20
323.8559200358638
 42
0.0
 10
403.2810590436942
 20
320.8559200358638
 42
0.0
 10
406.276947647958
 20
320.6989121671351
 42
0.4296339059668427
 97
        0
 92
        7
 72
     1
 73
     1
 93
        3
 10
334.1893308784691
 20
251.3766828179826
 42
0.0
 10
330.2810590436942
 20
251.5815066656775
 42
0.0
 10
330.2810590436942
 20
255.4951420016639
 42
1.39845799594815
 97
        0
 75
     0
 76
     0
 52
0.0
 41
0.1
 77
     0
 78
     1
 53
0.0
 43
0.0
 44
0.0
 45
0.0
 46
0.1
 79
     0
 47
0.2198132944329655
 98
        2
 10
404.4822321458995
 20
322.3002643048209
 10
331.2361774867712
 20
250.641127181189
  0
LINE
  5
E0A
102
{ACAD_REACTORS
330
102F
102
}
330
1E
100
AcDbEntity
  8
STEMPEL
100
AcDbLine
 10
403.2810590436943
 20
320.8559200358638
 30
0.0
 11
330.2810590436942
 21
251.5815066656776
 31
0.0
  0
DIMENSION
  5
E0B
330
1E
100
AcDbEntity
  8
BEM
100
AcDbDimension
  2
*D5
 10
222.5635350459114
 20
353.1167685300104
 30
0.0
 11
216.0635350459113
 21
319.6677409403907
 31
0.0
 70
    32
 71
     5
 42
66.89805517923947
  3
Standard
100
AcDbAlignedDimension
 13
366.7810590436943
 23
286.2187133507709
 33
0.0
 14
244.2810590436941
 24
353.1167685300104
 34
0.0
 50
90.0
100
AcDbRotatedDimension
1001
ACAD
1000
DSTYLE
1002
{
1070
    40
1040
2.0
1070
    41
1040
3.5
1070
    42
1040
1.0
1070
    43
1040
7.0
1070
    44
1040
1.0
1070
    47
1040
2.0
1070
    48
1040
2.0
1070
    73
1070
     0
1070
    74
1070
     0
1070
    77
1070
     1
1070
    78
1070
     8
1070
    79
1070
     2
1070
   140
1040
3.5
1070
   141
1040
1.5
1070
   146
1040
0.5142857142857144
1070
   147
1040
1.5
1070
   172
1070
     1
1070
   178
1070
     1
1070
   179
1070
     1
1070
   271
1070
     0
1070
   272
1070
     0
1070
   279
1070
     0
1002
}
  0
LINE
  5
E0C
330
1E
100
AcDbEntity
  8
MITTEL
100
AcDbLine
 10
366.7810590436941
 20
370.1167685300108
 30
0.0
 11
366.7810590436943
 21
286.2187133507709
 31
0.0
  0
TEXT
  5
E0D
330
1E
100
AcDbEntity
  8
TEXT
 62
     1
100
AcDbText
 10
210.4298127701365
 20
219.6543424875597
 30
0.0
 40
7.0
  1
Unterteil DN70
 41
0.8
  7
GREEKS
100
AcDbText
  0
TEXT
  5
E0E
330
1E
100
AcDbEntity
  8
TEXT
 62
     1
100
AcDbText
 10
210.4298127701365
 20
206.5096446484957
 30
0.0
 40
7.0
  1
EDV-Art.Nr. 21987.070X
 41
0.8
  7
GREEKS
100
AcDbText
  0
LINE
  5
E0F
330
1E
100
AcDbEntity
  8
TEXT
 62
     2
100
AcDbLine
 10
208.0247868421495
 20
217.2682117421148
 30
0.0
 11
318.6210919760633
 21
217.2682117421146
 31
0.0
  0
ARC
  5
E10
330
1E
100
AcDbEntity
  8
SCHRAFF
100
AcDbCircle
 10
331.531571985916
 20
252.7681991380645
 30
0.0
 40
3.0
100
AcDbArc
 50
114.635095313267
 51
332.3649046867313
  0
LINE
  5
E11
330
1E
100
AcDbEntity
  8
TEXT
 62
     2
100
AcDbLine
 10
318.6210919760633
 20
217.2682117421146
 30
0.0
 11
345.3968763968124
 21
251.6595832478117
 31
0.0
  0
LINE
  5
E12
330
1E
100
AcDbEntity
  8
TEXT
 62
     2
100
AcDbLine
 10
99.40135906582817
 20
387.7437352710813
 30
0.0
 11
206.8138197575992
 21
387.7437352710811
 31
0.0
  0
TEXT
  5
E13
330
1E
100
AcDbEntity
  8
TEXT
 62
     1
100
AcDbText
 10
101.806384993815
 20
391.0423028676264
 30
0.0
 40
7.0
  1
Losflansch DN70
 41
0.8
  7
GREEKS
100
AcDbText
  0
TEXT
  5
E14
330
1E
100
AcDbEntity
  8
TEXT
 62
     1
100
AcDbText
 10
101.806384993815
 20
377.8976050285623
 30
0.0
 40
7.0
  1
EDV-Art.Nr. 21905.070X
 41
0.8
  7
GREEKS
100
AcDbText
  0
LINE
  5
E16
102
{ACAD_REACTORS
330
1139
102
}
330
1E
100
AcDbEntity
  8
STEMPEL
100
AcDbLine
 10
244.2810590436941
 20
353.1167685300104
 30
0.0
 11
325.6577034224337
 21
353.1167685300104
 31
0.0
  0
LINE
  5
E17
330
1E
100
AcDbEntity
  8
STEMPEL
100
AcDbLine
 10
250.4985734649662
 20
351.1167685300105
 30
0.0
 11
308.2609747965595
 21
351.11676853001
 31
0.0
  0
LINE
  5
E18
330
1E
100
AcDbEntity
  8
STEMPEL
100
AcDbLine
 10
313.974003497444
 20
347.7632151394164
 30
0.0
 11
245.6952726060671
 21
347.7632151394164
 31
0.0
  0
LINE
  5
E19
102
{ACAD_REACTORS
330
1139
102
}
330
1E
100
AcDbEntity
  8
STEMPEL
100
AcDbLine
 10
250.4985734649662
 20
353.1167685300104
 30
0.0
 11
325.6577034224338
 21
353.1167685300104
 31
0.0
  0
LINE
  5
E1A
330
1E
100
AcDbEntity
  8
TEXT
 62
     2
100
AcDbLine
 10
254.7810590436941
 20
364.0315601584442
 30
0.0
 11
206.8138197575992
 21
387.7437352710811
 31
0.0
  0
LINE
  5
E1C
102
{ACAD_REACTORS
330
FFA
102
}
330
1E
100
AcDbEntity
  8
STEMPEL
100
AcDbLine
 10
254.7810590436948
 20
359.1167685300103
 30
0.0
 11
271.7810590436946
 21
359.1167685300103
 31
0.0
  0
LINE
  5
E1E
102
{ACAD_REACTORS
330
1139
102
}
330
1E
100
AcDbEntity
  8
STEMPEL
100
AcDbLine
 10
244.2810590436941
 20
353.1167685300104
 30
0.0
 11
244.2810590436941
 21
356.1167685300104
 31
0.0
  0
LINE
  5
E1F
330
1E
100
AcDbEntity
  8
STEMPEL
100
AcDbLine
 10
245.6952726060671
 20
347.7632151394166
 30
0.0
 11
248.0236997308133
 21
350.0916422641628
 31
0.0
  0
ARC
  5
E20
330
1E
100
AcDbEntity
  8
STEMPEL
100
AcDbCircle
 10
250.4985734649662
 20
347.61676853001
 30
0.0
 40
5.499999999999851
100
AcDbArc
 50
90.0
 51
134.9999999999997
  0
LINE
  5
E21
330
1E
100
AcDbEntity
  8
STEMPEL
100
AcDbLine
 10
244.2810590436942
 20
349.1774287017897
 30
0.0
 11
245.6952726060671
 21
347.7632151394164
 31
0.0
  0
LINE
  5
E22
330
1E
100
AcDbEntity
  8
STEMPEL
100
AcDbLine
 10
244.2810590436942
 20
349.1774287017897
 30
0.0
 11
246.60948616844
 21
351.5058558265359
 31
0.0
  0
ARC
  5
E23
330
1E
100
AcDbEntity
  8
STEMPEL
100
AcDbCircle
 10
250.4985734649662
 20
347.61676853001
 30
0.0
 40
3.499999999999851
100
AcDbArc
 50
90.0
 51
134.9999999999997
  0
ARC
  5
E25
102
{ACAD_REACTORS
330
FFA
102
}
330
1E
100
AcDbEntity
  8
STEMPEL
100
AcDbCircle
 10
254.7810590436948
 20
362.1167685300102
 30
0.0
 40
3.000000000000682
100
AcDbArc
 50
90.00000000001303
 51
269.999999999987
  0
LWPOLYLINE
  5
E28
330
1E
100
AcDbEntity
  8
STEMPEL
100
AcDbPolyline
 90
       10
 70
   128
 43
0.0
 10
257.1773167203659
 20
365.1167685300109
 10
257.4611568427416
 20
365.1914040586043
 10
257.7363726266291
 20
365.4130428816154
 10
257.9946017797007
 20
365.7749506155616
 10
258.2279981398104
 20
366.2661308770814
 10
258.429470076661
 20
366.8716594024774
 10
258.5928959674005
 20
367.5731375139179
 10
258.7133101990367
 20
368.3492511539517
 10
258.7870540460737
 20
369.1764185023588
 10
258.8118868390353
 20
370.0295064978248
  0
LINE
  5
E29
330
1E
100
AcDbEntity
  8
STEMPEL
100
AcDbLine
 10
271.7810590436946
 20
365.1167685300109
 30
0.0
 11
271.7810590436946
 21
353.1167685300104
 31
0.0
  0
LINE
  5
E2A
102
{ACAD_REACTORS
330
1139
102
}
330
1E
100
AcDbEntity
  8
STEMPEL
100
AcDbLine
 10
270.2810590436941
 20
353.1167685300102
 30
0.0
 11
270.2810590436941
 21
356.1167685300104
 31
0.0
  0
LINE
  5
E2C
102
{ACAD_REACTORS
330
FFA
102
}
330
1E
100
AcDbEntity
  8
STEMPEL
100
AcDbLine
 10
269.781059043694
 20
365.1167685300114
 30
0.0
 11
269.7810590436938
 21
359.1167685300093
 31
0.0
  0
LINE
  5
E2D
330
1E
100
AcDbEntity
  8
HILF
100
AcDbLine
 10
272.7810590436947
 20
365.1167685300109
 30
0.0
 11
272.7810590436947
 21
353.1167685300104
 31
0.0
  0
LINE
  5
E2E
330
1E
100
AcDbEntity
  8
HILF
100
AcDbLine
 10
280.7810590436947
 20
365.1167685300109
 30
0.0
 11
280.7810590436947
 21
353.1167685300103
 31
0.0
  0
LINE
  5
E2F
330
1E
100
AcDbEntity
  8
STEMPEL
100
AcDbLine
 10
281.7810590436947
 20
365.1167685300109
 30
0.0
 11
281.7810590436947
 21
353.1167685300103
 31
0.0
  0
LINE
  5
E31
102
{ACAD_REACTORS
330
1139
102
}
330
1E
100
AcDbEntity
  8
STEMPEL
100
AcDbLine
 10
283.2810590436941
 20
353.1167685300102
 30
0.0
 11
283.2810590436941
 21
356.1167685300104
 31
0.0
  0
LINE
  5
E32
330
1E
100
AcDbEntity
  8
MITTEL
100
AcDbLine
 10
276.7810590436941
 20
351.1167685300102
 30
0.0
 11
276.7810590436941
 21
360.1167685300104
 31
0.0
  0
LINE
  5
E34
102
{ACAD_REACTORS
330
FFA
102
}
330
1E
100
AcDbEntity
  8
STEMPEL
100
AcDbLine
 10
283.7810590436937
 20
365.1167685300114
 30
0.0
 11
283.7810590436937
 21
359.1167685300096
 31
0.0
  0
LINE
  5
E39
330
1E
100
AcDbEntity
  8
STEMPEL
100
AcDbLine
 10
258.9705055878265
 20
379.1167685300122
 30
0.0
 11
281.2012495197333
 21
379.1167685300105
 31
0.0
  0
LINE
  5
E3E
330
1E
100
AcDbEntity
  8
MITTEL
100
AcDbLine
 10
269.9919515281639
 20
384.1167685300113
 30
0.0
 11
269.9919515281639
 21
359.1167685300103
 31
0.0
  0
LINE
  5
E3F
330
1E
100
AcDbEntity
  8
STEMPEL
100
AcDbLine
 10
258.9705055878265
 20
379.1167685300122
 30
0.0
 11
258.8118868390353
 21
370.0295064978261
 31
0.0
  0
LINE
  5
E40
330
1E
100
AcDbEntity
  8
STEMPEL
100
AcDbLine
 10
271.8146708442802
 20
379.1167685300114
 30
0.0
 11
271.8146708442802
 21
377.1503803305962
 31
0.0
  0
LINE
  5
E46
330
1E
100
AcDbEntity
  8
MITTEL
100
AcDbLine
 10
276.7810590436941
 20
383.1167685300104
 30
0.0
 11
276.781059043694
 21
369.6167685300104
 31
0.0
  0
LINE
  5
E47
330
1E
100
AcDbEntity
  8
STEMPEL
100
AcDbLine
 10
281.2012495197333
 20
379.1167685300105
 30
0.0
 11
281.2264794263612
 21
377.6713481473436
 31
0.0
  0
HATCH
  5
E53
330
1E
100
AcDbEntity
  8
SCHRAFF
100
AcDbHatch
 10
0.0
 20
0.0
 30
0.0
210
0.0
220
0.0
230
1.0
  2
_USER
 70
     0
 71
     1
 91
        2
 92
        7
 72
     1
 73
     1
 93
        5
 10
324.8297711119658
 20
339.4754122666457
 42
0.0
 10
324.2960427038521
 20
339.4754122666457
 42
0.0
 10
322.8133432441381
 20
338.1167685300109
 42
0.0
 10
321.3026776149762
 20
339.7653707733882
 42
0.5672726747274157
 10
325.43935992244
 20
336.6977259845809
 42
-0.0620596133380954
 97
        5
330
E5F
330
E60
330
E57
330
E5A
330
E61
 92
        7
 72
     1
 73
     1
 93
        5
 10
408.1259336209032
 20
336.7067148729923
 42
0.5677098725483663
 10
412.2662793464757
 20
339.7728340947917
 42
0.0
 10
410.7487748432501
 20
338.1167685300109
 42
0.0
 10
409.2660753835359
 20
339.4754122666457
 42
0.0
 10
408.7323469754226
 20
339.4754122666457
 42
-0.0618515723663036
 97
        5
330
DF2
330
E75
330
E76
330
E77
330
E74
 75
     0
 76
     0
 52
0.0
 41
0.1
 77
     0
 78
     1
 53
0.0
 43
0.0
 44
0.0
 45
0.0
 46
0.1
 79
     0
 47
0.1360774883277398
 98
        2
 10
324.6093880907273
 20
337.2575201207194
 10
409.4493513594114
 20
337.529675524572
  0
LINE
  5
E54
330
1E
100
AcDbEntity
  8
STEMPEL
100
AcDbLine
 10
406.4361080582406
 20
357.1167685300106
 30
0.0
 11
327.1260100291478
 21
357.1167685300106
 31
0.0
  0
LINE
  5
E55
330
1E
100
AcDbEntity
  8
TEXT
 62
     2
100
AcDbLine
 10
332.9357391986902
 20
328.2220016221827
 30
0.0
 11
400.6263788886982
 21
328.2220016221827
 31
0.0
  0
LINE
  5
E56
330
1E
100
AcDbEntity
  8
STEMPEL
100
AcDbLine
 10
314.1591934910402
 20
350.5214901909365
 30
0.0
 11
324.2878979177583
 21
339.4679489452422
 31
0.0
  0
LINE
  5
E57
102
{ACAD_REACTORS
330
E53
102
}
330
1E
100
AcDbEntity
  8
STEMPEL
100
AcDbLine
 10
312.68463881742
 20
349.1703097757047
 30
0.0
 11
322.8133432441381
 21
338.1167685300109
 31
0.0
  0
LINE
  5
E58
330
1E
100
AcDbEntity
  8
STEMPEL
100
AcDbLine
 10
324.781059043694
 20
346.567846122892
 30
0.0
 11
324.781059043694
 21
340.5327696824022
 31
0.0
  0
LINE
  5
E59
330
1E
100
AcDbEntity
  8
STEMPEL
100
AcDbLine
 10
326.281059043694
 20
346.567846122892
 30
0.0
 11
326.281059043694
 21
340.5327696824022
 31
0.0
  0
ARC
  5
E5A
102
{ACAD_REACTORS
330
E53
102
}
330
1E
100
AcDbEntity
  8
SCHRAFF
100
AcDbCircle
 10
324.2878979177583
 20
339.4679489452422
 30
0.0
 40
3.0
100
AcDbArc
 50
174.3103148957774
 51
292.5705454002754
  0
LINE
  5
E5B
330
1E
100
AcDbEntity
  8
STEMPEL
100
AcDbLine
 10
328.9413130815387
 20
330.2455826035036
 30
0.0
 11
326.3217669001729
 21
334.7827696824024
 31
0.0
  0
LINE
  5
E5C
330
1E
100
AcDbEntity
  8
STEMPEL
100
AcDbLine
 10
330.2403511872153
 20
330.9955826035039
 30
0.0
 11
327.6208050058496
 21
335.5327696824022
 31
0.0
  0
ARC
  5
E5D
330
1E
100
AcDbEntity
  8
STEMPEL
100
AcDbCircle
 10
320.2810590436943
 20
325.2455826035036
 30
0.0
 40
10.0
100
AcDbArc
 50
0.0
 51
29.99999999999993
  0
ARC
  5
E5E
330
1E
100
AcDbEntity
  8
STEMPEL
100
AcDbCircle
 10
320.2810590436943
 20
325.2455826035036
 30
0.0
 40
11.5
100
AcDbArc
 50
0.0
 51
29.99999999999993
  0
LINE
  5
E5F
102
{ACAD_REACTORS
330
E53
102
}
330
1E
100
AcDbEntity
  8
STEMPEL
100
AcDbLine
 10
324.2810590436944
 20
339.4754122666457
 30
0.0
 11
324.781059043694
 21
339.4754122666457
 31
0.0
  0
LINE
  5
E60
102
{ACAD_REACTORS
330
E53
102
}
330
1E
100
AcDbEntity
  8
STEMPEL
100
AcDbLine
 10
322.8133432441381
 20
338.1167685300109
 30
0.0
 11
324.2878979177583
 21
339.4679489452422
 31
0.0
  0
ARC
  5
E61
102
{ACAD_REACTORS
330
E53
102
}
330
1E
100
AcDbEntity
  8
STEMPEL
100
AcDbCircle
 10
336.281059043694
 20
340.5327696824022
 30
0.0
 40
11.5
100
AcDbArc
 50
180.0
 51
210.0
  0
ARC
  5
E62
330
1E
100
AcDbEntity
  8
STEMPEL
100
AcDbCircle
 10
336.281059043694
 20
340.5327696824022
 30
0.0
 40
10.0
100
AcDbArc
 50
180.0
 51
210.0
  0
LINE
  5
E63
102
{ACAD_REACTORS
330
1139
102
}
330
1E
100
AcDbEntity
  8
STEMPEL
100
AcDbLine
 10
304.2810590436941
 20
353.1167685300104
 30
0.0
 11
304.2810590436941
 21
356.1167685300104
 31
0.0
  0
ARC
  5
E64
102
{ACAD_REACTORS
330
FFA
102
}
330
1E
100
AcDbEntity
  8
STEMPEL
100
AcDbCircle
 10
301.281059043694
 20
362.1167685300106
 30
0.0
 40
3.000000000000397
100
AcDbArc
 50
270.0000000000065
 51
89.99999999999349
  0
ARC
  5
E66
330
1E
100
AcDbEntity
  8
STEMPEL
100
AcDbCircle
 10
308.2609747965595
 20
345.1167685300106
 30
0.0
 40
8.0
100
AcDbArc
 50
42.50000000000734
 51
90.0
  0
ARC
  5
E67
330
1E
100
AcDbEntity
  8
STEMPEL
100
AcDbCircle
 10
308.2609747965595
 20
345.1167685300106
 30
0.0
 40
6.0
100
AcDbArc
 50
42.50000000000734
 51
90.0
  0
ARC
  5
E68
330
1E
100
AcDbEntity
  8
STEMPEL
100
AcDbCircle
 10
349.6810590436941
 20
346.567846122892
 30
0.0
 40
23.4
100
AcDbArc
 50
153.204422068767
 51
180.0
  0
ARC
  5
E69
330
1E
100
AcDbEntity
  8
STEMPEL
100
AcDbCircle
 10
349.6810590436941
 20
346.567846122892
 30
0.0
 40
24.9
100
AcDbArc
 50
154.9346622848109
 51
180.0
  0
LINE
  5
E6A
330
1E
100
AcDbEntity
  8
STEMPEL
100
AcDbLine
 10
419.402924596348
 20
350.5214901909365
 30
0.0
 11
409.2742201696299
 21
339.4679489452422
 31
0.0
  0
LINE
  5
E6B
330
1E
100
AcDbEntity
  8
STEMPEL
100
AcDbLine
 10
407.2810590436942
 20
346.567846122892
 30
0.0
 11
407.2810590436944
 21
340.5327696824022
 31
0.0
  0
LINE
  5
E6C
330
1E
100
AcDbEntity
  8
STEMPEL
100
AcDbLine
 10
408.7810590436942
 20
346.567846122892
 30
0.0
 11
408.7810590436942
 21
340.5327696824022
 31
0.0
  0
LINE
  5
E6D
330
1E
100
AcDbEntity
  8
STEMPEL
100
AcDbLine
 10
401.7810590436941
 20
325.2455826035039
 30
0.0
 11
401.7810590436941
 21
319.4324731857916
 31
0.0
  0
LINE
  5
E6E
330
1E
100
AcDbEntity
  8
STEMPEL
100
AcDbLine
 10
403.321766900173
 20
330.9955826035039
 30
0.0
 11
405.9413130815388
 21
335.5327696824022
 31
0.0
  0
ARC
  5
E6F
330
1E
100
AcDbEntity
  8
STEMPEL
100
AcDbCircle
 10
413.2810590436939
 20
325.2455826035036
 30
0.0
 40
10.0
100
AcDbArc
 50
150.0
 51
180.0
  0
ARC
  5
E70
330
1E
100
AcDbEntity
  8
SCHRAFF
100
AcDbCircle
 10
403.2810590436943
 20
320.8559200358638
 30
0.0
 40
3.0
100
AcDbArc
 50
357.000000000001
 51
90.00000000000161
  0
ARC
  5
E71
330
1E
100
AcDbEntity
  8
STEMPEL
100
AcDbCircle
 10
413.2810590436939
 20
325.2455826035036
 30
0.0
 40
11.5
100
AcDbArc
 50
150.0
 51
180.0
  0
LINE
  5
E72
330
1E
100
AcDbEntity
  8
STEMPEL
100
AcDbLine
 10
403.2810590436939
 20
325.2455826035036
 30
0.0
 11
403.2810590436939
 21
320.8559200358639
 31
0.0
  0
LINE
  5
E73
330
1E
100
AcDbEntity
  8
STEMPEL
100
AcDbLine
 10
404.6208050058495
 20
330.2455826035036
 30
0.0
 11
407.2403511872153
 21
334.7827696824024
 31
0.0
  0
ARC
  5
E74
102
{ACAD_REACTORS
330
E53
102
}
330
1E
100
AcDbEntity
  8
SCHRAFF
100
AcDbCircle
 10
409.2810590436937
 20
339.4754122666457
 30
0.0
 40
3.0
100
AcDbArc
 50
247.3536642463058
 51
5.689685104215999
  0
LINE
  5
E75
102
{ACAD_REACTORS
330
E53
102
}
330
1E
100
AcDbEntity
  8
STEMPEL
100
AcDbLine
 10
410.74877484325
 20
338.1167685300109
 30
0.0
 11
409.2742201696299
 21
339.4679489452422
 31
0.0
  0
LINE
  5
E76
102
{ACAD_REACTORS
330
E53
102
}
330
1E
100
AcDbEntity
  8
STEMPEL
100
AcDbLine
 10
408.7323469754226
 20
339.4754122666457
 30
0.0
 11
409.2810590436937
 21
339.4754122666457
 31
0.0
  0
ARC
  5
E77
102
{ACAD_REACTORS
330
E53
102
}
330
1E
100
AcDbEntity
  8
STEMPEL
100
AcDbCircle
 10
397.2810590436944
 20
340.5327696824022
 30
0.0
 40
11.5
100
AcDbArc
 50
330.0000000000001
 51
0.0
  0
ARC
  5
E78
330
1E
100
AcDbEntity
  8
STEMPEL
100
AcDbCircle
 10
397.2810590436944
 20
340.5327696824022
 30
0.0
 40
10.0
100
AcDbArc
 50
330.0000000000001
 51
0.0
  0
ARC
  5
E79
330
1E
100
AcDbEntity
  8
STEMPEL
100
AcDbCircle
 10
383.8810590436941
 20
346.567846122892
 30
0.0
 40
24.9
100
AcDbArc
 50
0.0
 51
25.06533771518908
  0
ARC
  5
E7A
330
1E
100
AcDbEntity
  8
STEMPEL
100
AcDbCircle
 10
383.8810590436941
 20
346.567846122892
 30
0.0
 40
23.4
100
AcDbArc
 50
0.0
 51
26.79557793123296
  0
LINE
  5
E7B
330
1E
100
AcDbEntity
  8
STEMPEL
100
AcDbLine
 10
327.8839975282661
 20
514.3619751562266
 30
0.0
 11
405.6781205591222
 21
514.3619751562266
 31
0.0
  0
LINE
  5
E7C
330
1E
100
AcDbEntity
  8
STEMPEL
100
AcDbLine
 10
329.7810590436942
 20
508.3619751562266
 30
0.0
 11
403.7810590436942
 21
508.3619751562267
 31
0.0
  0
LINE
  5
E7D
102
{ACAD_REACTORS
330
FD4
102
}
330
1E
100
AcDbEntity
  8
STEMPEL
100
AcDbLine
 10
332.2810590436942
 20
491.8619751562266
 30
0.0
 11
401.2810590436941
 21
491.8619751562267
 31
0.0
  0
LINE
  5
E7E
330
1E
100
AcDbEntity
  8
STEMPEL
100
AcDbLine
 10
334.7810590436941
 20
493.3619751562266
 30
0.0
 11
398.7810590436941
 21
493.3619751562266
 31
0.0
  0
LINE
  5
E80
102
{ACAD_REACTORS
330
FD4
102
}
330
1E
100
AcDbEntity
  8
STEMPEL
100
AcDbLine
 10
328.0368313507161
 20
508.6909650845638
 30
0.0
 11
326.2810590436941
 21
503.8670203173174
 31
0.0
  0
LINE
  5
E81
102
{ACAD_REACTORS
330
FD4
102
}
330
1E
100
AcDbEntity
  8
STEMPEL
100
AcDbLine
 10
329.7810590436942
 20
508.3619751562266
 30
0.0
 11
329.7810590436942
 21
498.3619751562266
 31
0.0
  0
ARC
  5
E82
102
{ACAD_REACTORS
330
FD4
102
}
330
1E
100
AcDbEntity
  8
STEMPEL
100
AcDbCircle
 10
334.7810590436941
 20
498.3619751562266
 30
0.0
 40
5.0
100
AcDbArc
 50
180.0
 51
270.0
  0
ARC
  5
E83
102
{ACAD_REACTORS
330
FD4
102
}
330
1E
100
AcDbEntity
  8
STEMPEL
100
AcDbCircle
 10
332.2810590436942
 20
495.8619751562266
 30
0.0
 40
4.0
100
AcDbArc
 50
202.0243128370422
 51
270.0
  0
LINE
  5
E85
102
{ACAD_REACTORS
330
FD4
102
}
330
1E
100
AcDbEntity
  8
STEMPEL
100
AcDbLine
 10
334.7810590436941
 20
493.3619751562266
 30
0.0
 11
334.7810590436941
 21
491.8619751562267
 31
0.0
  0
ARC
  5
E86
102
{ACAD_REACTORS
330
FD4
102
}
330
1E
100
AcDbEntity
  8
STEMPEL
100
AcDbCircle
 10
332.2810590436942
 20
495.8619751562266
 30
0.0
 40
4.0
100
AcDbArc
 50
184.6824168622685
 51
202.0243128370422
  0
LINE
  5
E87
102
{ACAD_REACTORS
330
FD4
102
}
330
1E
100
AcDbEntity
  8
STEMPEL
100
AcDbLine
 10
326.2810590436941
 20
498.9619751562266
 30
0.0
 11
326.2810590436941
 21
498.3619751562266
 31
0.0
  0
LINE
  5
E88
102
{ACAD_REACTORS
330
FD4
102
}
330
1E
100
AcDbEntity
  8
STEMPEL
100
AcDbLine
 10
324.8810590436942
 20
501.3619751562266
 30
0.0
 11
324.8810590436942
 21
500.3619751562267
 31
0.0
  0
LINE
  5
E89
102
{ACAD_REACTORS
330
FD4
102
}
330
1E
100
AcDbEntity
  8
STEMPEL
100
AcDbLine
 10
324.8810590436942
 20
500.3619751562267
 30
0.0
 11
326.2810590436941
 21
498.9619751562266
 31
0.0
  0
LINE
  5
E8A
102
{ACAD_REACTORS
330
FD4
102
}
330
1E
100
AcDbEntity
  8
STEMPEL
100
AcDbLine
 10
324.8810590436942
 20
501.3619751562266
 30
0.0
 11
326.2810590436941
 21
502.7619751562266
 31
0.0
  0
LINE
  5
E8B
102
{ACAD_REACTORS
330
FD4
102
}
330
1E
100
AcDbEntity
  8
STEMPEL
100
AcDbLine
 10
325.7810590436942
 20
494.3619751562266
 30
0.0
 11
326.6053932395251
 21
495.8894151088254
 31
0.0
  0
LINE
  5
E8C
102
{ACAD_REACTORS
330
FD4
102
}
330
1E
100
AcDbEntity
  8
STEMPEL
100
AcDbLine
 10
323.9810590436942
 20
494.3619751562266
 30
0.0
 11
325.7810590436942
 21
494.3619751562266
 31
0.0
  0
LINE
  5
E8D
102
{ACAD_REACTORS
330
FD4
102
}
330
1E
100
AcDbEntity
  8
STEMPEL
100
AcDbLine
 10
323.9810590436942
 20
494.3619751562266
 30
0.0
 11
326.2810590436941
 21
498.3619751562266
 31
0.0
  0
ARC
  5
E8E
102
{ACAD_REACTORS
330
FD4
102
}
330
1E
100
AcDbEntity
  8
STEMPEL
100
AcDbCircle
 10
327.3974128648643
 20
495.4619751562266
 30
0.0
 40
0.9
100
AcDbArc
 50
4.682416862268558
 51
151.6449939715936
  0
LINE
  5
E8F
330
1E
100
AcDbEntity
  8
STEMPEL
100
AcDbLine
 10
325.7810590436942
 20
494.3619751562266
 30
0.0
 11
328.5729598001464
 21
494.3619751562266
 31
0.0
  0
LINE
  5
E90
102
{ACAD_REACTORS
330
FD4
102
}
330
1E
100
AcDbEntity
  8
STEMPEL
100
AcDbLine
 10
326.2810590436941
 20
503.8670203173174
 30
0.0
 11
326.2810590436941
 21
502.7619751562266
 31
0.0
  0
LINE
  5
E91
102
{ACAD_REACTORS
330
FD4
102
}
330
1E
100
AcDbEntity
  8
STEMPEL
100
AcDbLine
 10
329.7810590436942
 20
508.3619751562266
 30
0.0
 11
328.8688052812783
 21
513.5356233338935
 31
0.0
  0
LINE
  5
E92
102
{ACAD_REACTORS
330
FD4
102
}
330
1E
100
AcDbEntity
  8
STEMPEL
100
AcDbLine
 10
324.4810590436942
 20
509.3619751562266
 30
0.0
 11
327.5669850403231
 21
509.3619751562266
 31
0.0
  0
LINE
  5
E93
102
{ACAD_REACTORS
330
FD4
102
}
330
1E
100
AcDbEntity
  8
STEMPEL
100
AcDbLine
 10
324.4810590436942
 20
509.3619751562266
 30
0.0
 11
327.0128858109169
 21
513.853060053059
 31
0.0
  0
ARC
  5
E94
102
{ACAD_REACTORS
330
FD4
102
}
330
1E
100
AcDbEntity
  8
STEMPEL
100
AcDbCircle
 10
327.5669850403231
 20
508.8619751562267
 30
0.0
 40
0.5
100
AcDbArc
 50
340.0000000000034
 51
90.0
  0
ARC
  5
E95
102
{ACAD_REACTORS
330
FD4
102
}
330
1E
100
AcDbEntity
  8
STEMPEL
100
AcDbCircle
 10
327.8839975282661
 20
513.3619751562267
 30
0.0
 40
1.0
100
AcDbArc
 50
9.999999999998536
 51
150.5880863344673
  0
LINE
  5
E9A
330
1E
100
AcDbEntity
  8
MITTEL
100
AcDbLine
 10
366.7810590436941
 20
519.3619751562266
 30
0.0
 11
366.7810590436941
 21
486.8619751562266
 31
0.0
  0
LINE
  5
E9B
102
{ACAD_REACTORS
330
FD4
102
}
330
1E
100
AcDbEntity
  8
STEMPEL
100
AcDbLine
 10
405.5252867366722
 20
508.6909650845638
 30
0.0
 11
407.2810590436941
 21
503.8670203173174
 31
0.0
  0
LINE
  5
E9C
102
{ACAD_REACTORS
330
FD4
102
}
330
1E
100
AcDbEntity
  8
STEMPEL
100
AcDbLine
 10
403.7810590436941
 20
508.3619751562266
 30
0.0
 11
403.7810590436941
 21
498.3619751562266
 31
0.0
  0
ARC
  5
E9D
102
{ACAD_REACTORS
330
FD4
102
}
330
1E
100
AcDbEntity
  8
STEMPEL
100
AcDbCircle
 10
398.7810590436941
 20
498.3619751562266
 30
0.0
 40
5.0
100
AcDbArc
 50
270.0
 51
0.0
  0
ARC
  5
E9E
102
{ACAD_REACTORS
330
FD4
102
}
330
1E
100
AcDbEntity
  8
STEMPEL
100
AcDbCircle
 10
401.2810590436941
 20
495.8619751562266
 30
0.0
 40
4.0
100
AcDbArc
 50
270.0
 51
337.9756871629578
  0
LINE
  5
EA0
102
{ACAD_REACTORS
330
FD4
102
}
330
1E
100
AcDbEntity
  8
STEMPEL
100
AcDbLine
 10
398.7810590436941
 20
493.3619751562266
 30
0.0
 11
398.7810590436941
 21
491.8619751562267
 31
0.0
  0
LINE
  5
EA1
102
{ACAD_REACTORS
330
FD4
102
}
330
1E
100
AcDbEntity
  8
STEMPEL
100
AcDbLine
 10
408.6810590436942
 20
501.3619751562266
 30
0.0
 11
407.2810590436941
 21
502.7619751562266
 31
0.0
  0
LINE
  5
EA2
102
{ACAD_REACTORS
330
FD4
102
}
330
1E
100
AcDbEntity
  8
STEMPEL
100
AcDbLine
 10
407.2810590436942
 20
498.9619751562266
 30
0.0
 11
407.2810590436942
 21
498.3619751562266
 31
0.0
  0
LINE
  5
EA3
102
{ACAD_REACTORS
330
FD4
102
}
330
1E
100
AcDbEntity
  8
STEMPEL
100
AcDbLine
 10
408.6810590436942
 20
501.3619751562266
 30
0.0
 11
408.6810590436942
 21
500.3619751562267
 31
0.0
  0
LINE
  5
EA4
102
{ACAD_REACTORS
330
FD4
102
}
330
1E
100
AcDbEntity
  8
STEMPEL
100
AcDbLine
 10
408.6810590436942
 20
500.3619751562267
 30
0.0
 11
407.2810590436942
 21
498.9619751562266
 31
0.0
  0
LINE
  5
EA5
102
{ACAD_REACTORS
330
FD4
102
}
330
1E
100
AcDbEntity
  8
STEMPEL
100
AcDbLine
 10
407.7810590436941
 20
494.3619751562266
 30
0.0
 11
406.9567248478632
 21
495.8894151088254
 31
0.0
  0
LINE
  5
EA6
102
{ACAD_REACTORS
330
FD4
102
}
330
1E
100
AcDbEntity
  8
STEMPEL
100
AcDbLine
 10
409.5810590436942
 20
494.3619751562266
 30
0.0
 11
407.7810590436941
 21
494.3619751562266
 31
0.0
  0
ARC
  5
EA7
102
{ACAD_REACTORS
330
FD4
102
}
330
1E
100
AcDbEntity
  8
STEMPEL
100
AcDbCircle
 10
401.2810590436941
 20
495.8619751562266
 30
0.0
 40
4.0
100
AcDbArc
 50
337.9756871629578
 51
355.3175831377314
  0
ARC
  5
EA8
102
{ACAD_REACTORS
330
FD4
102
}
330
1E
100
AcDbEntity
  8
STEMPEL
100
AcDbCircle
 10
406.164705222524
 20
495.4619751562266
 30
0.0
 40
0.9
100
AcDbArc
 50
28.35500602840633
 51
175.3175831377314
  0
LINE
  5
EA9
330
1E
100
AcDbEntity
  8
STEMPEL
100
AcDbLine
 10
407.7810590436941
 20
494.3619751562266
 30
0.0
 11
404.989158287242
 21
494.3619751562266
 31
0.0
  0
LINE
  5
EAA
102
{ACAD_REACTORS
330
FD4
102
}
330
1E
100
AcDbEntity
  8
STEMPEL
100
AcDbLine
 10
409.5810590436942
 20
494.3619751562266
 30
0.0
 11
407.2810590436942
 21
498.3619751562266
 31
0.0
  0
LINE
  5
EAB
102
{ACAD_REACTORS
330
FD4
102
}
330
1E
100
AcDbEntity
  8
STEMPEL
100
AcDbLine
 10
407.2810590436941
 20
503.8670203173174
 30
0.0
 11
407.2810590436941
 21
502.7619751562266
 31
0.0
  0
LINE
  5
EAC
102
{ACAD_REACTORS
330
FD4
102
}
330
1E
100
AcDbEntity
  8
STEMPEL
100
AcDbLine
 10
409.0810590436942
 20
509.3619751562266
 30
0.0
 11
405.9951330470652
 21
509.3619751562266
 31
0.0
  0
LINE
  5
EAD
102
{ACAD_REACTORS
330
FD4
102
}
330
1E
100
AcDbEntity
  8
STEMPEL
100
AcDbLine
 10
409.0810590436942
 20
509.3619751562266
 30
0.0
 11
406.5492322764715
 21
513.853060053059
 31
0.0
  0
ARC
  5
EAE
102
{ACAD_REACTORS
330
FD4
102
}
330
1E
100
AcDbEntity
  8
STEMPEL
100
AcDbCircle
 10
405.6781205591222
 20
513.3619751562267
 30
0.0
 40
1.0
100
AcDbArc
 50
29.41191366553264
 51
170.0000000000014
  0
ARC
  5
EAF
102
{ACAD_REACTORS
330
FD4
102
}
330
1E
100
AcDbEntity
  8
STEMPEL
100
AcDbCircle
 10
405.9951330470652
 20
508.8619751562267
 30
0.0
 40
0.5
100
AcDbArc
 50
90.0
 51
199.9999999999966
  0
LINE
  5
EB0
102
{ACAD_REACTORS
330
FD4
102
}
330
1E
100
AcDbEntity
  8
STEMPEL
100
AcDbLine
 10
403.7810590436941
 20
508.3619751562266
 30
0.0
 11
404.6933128061099
 21
513.5356233338935
 31
0.0
  0
LINE
  5
EB1
330
1E
100
AcDbEntity
  8
HILF
100
AcDbLine
 10
646.543906834551
 20
305.102937363083
 30
0.0
 11
643.0373977662736
 21
238.1947585345263
 31
0.0
  0
DIMENSION
  5
EB2
330
1E
100
AcDbEntity
  8
BEM
100
AcDbDimension
  2
*D6
 10
671.3707728203473
 20
233.7057522303548
 30
0.0
 11
666.7899432473103
 21
270.4959139644761
 31
0.0
 70
    33
  1
%%c<>
 71
     5
 42
73.00000000000017
  3
Standard
100
AcDbAlignedDimension
 13
646.7009147032804
 23
308.0988259673467
 33
0.0
 14
642.8803898975449
 24
235.1988699302626
 34
0.0
1001
ACAD
1000
DSTYLE
1002
{
1070
    40
1040
2.0
1070
    41
1040
3.5
1070
    42
1040
1.0
1070
    43
1040
7.0
1070
    44
1040
1.0
1070
    47
1040
2.0
1070
    48
1040
2.0
1070
    73
1070
     0
1070
    74
1070
     0
1070
    77
1070
     1
1070
    78
1070
     8
1070
    79
1070
     2
1070
   140
1040
3.5
1070
   141
1040
1.5
1070
   146
1040
0.5142857142857144
1070
   147
1040
1.5
1070
   172
1070
     1
1070
   178
1070
     1
1070
   179
1070
     1
1070
   271
1070
     1
1070
   272
1070
     1
1070
   279
1070
     0
1002
}
  0
LINE
  5
EB3
102
{ACAD_REACTORS
330
102F
102
}
330
1E
100
AcDbEntity
  8
STEMPEL
100
AcDbLine
 10
653.6767496497841
 20
307.4544278275406
 30
0.0
 11
649.8969646189482
 21
235.3318330039392
 31
0.0
  0
DIMENSION
  5
EB4
330
1E
100
AcDbEntity
  8
BEM
100
AcDbDimension
  2
*D7
 10
695.0550019340389
 20
271.282496255104
 30
0.0
 11
688.5550019340388
 21
312.1996323925569
 31
0.0
 70
    32
 71
     5
 42
81.83427227490568
  3
Standard
100
AcDbAlignedDimension
 13
489.2810590436941
 23
353.1167685300097
 33
0.0
 14
673.3400865273722
 24
271.282496255104
 34
0.0
 50
90.0
100
AcDbRotatedDimension
1001
ACAD
1000
DSTYLE
1002
{
1070
    72
1070
     0
1070
    71
1070
     0
1070
   271
1070
     0
1070
    40
1040
2.0
1070
    41
1040
3.5
1070
    42
1040
1.0
1070
    43
1040
7.0
1070
    44
1040
1.0
1070
    47
1040
0.0
1070
    48
1040
8.0
1070
    73
1070
     0
1070
    74
1070
     0
1070
    77
1070
     1
1070
    78
1070
     8
1070
    79
1070
     2
1070
   140
1040
3.5
1070
   141
1040
1.5
1070
   146
1040
0.5142857142857144
1070
   147
1040
1.5
1070
   172
1070
     1
1070
   178
1070
     1
1070
   179
1070
     2
1070
   279
1070
     0
1002
}
  0
TEXT
  5
EB5
330
1E
100
AcDbEntity
  8
TEXT
 62
     1
100
AcDbText
 10
530.880763221153
 20
281.6250058776526
 30
0.0
 40
7.0
  1
DN70
 50
357.000000000001
 41
0.8
  7
GREEKS
100
AcDbText
  0
LINE
  5
EB6
102
{ACAD_REACTORS
330
102F
102
}
330
1E
100
AcDbEntity
  8
STEMPEL
100
AcDbLine
 10
642.9054638848561
 20
236.6996143772667
 30
0.0
 11
649.9756685636607
 21
236.8335937308607
 31
0.0
  0
LINE
  5
EB7
102
{ACAD_REACTORS
330
102F
102
}
330
1E
100
AcDbEntity
  8
STEMPEL
100
AcDbLine
 10
642.8803898975449
 20
235.1988699302626
 30
0.0
 11
649.8969646189484
 21
235.3318330039393
 31
0.0
  0
TEXT
  5
EB9
330
1E
100
AcDbEntity
  8
TEXT
 62
     1
100
AcDbText
 10
527.545479011183
 20
370.2532425779066
 30
0.0
 40
7.0
  1
EDV-Art.Nr. 21920.070X
 41
0.8
  7
GREEKS
100
AcDbText
  0
LINE
  5
EBA
330
1E
100
AcDbEntity
  8
TEXT
 62
     2
100
AcDbLine
 10
525.1404530831961
 20
380.0993728204255
 30
0.0
 11
634.2610558205254
 21
380.0993728204253
 31
0.0
  0
TEXT
  5
EBB
330
1E
100
AcDbEntity
  8
TEXT
 62
     1
100
AcDbText
 10
527.545479011183
 20
383.3979404169706
 30
0.0
 40
7.0
  1
Kompressionsdichtung
 41
0.8
  7
GREEKS
100
AcDbText
  0
LINE
  5
EBF
102
{ACAD_REACTORS
330
FFA
102
}
330
1E
100
AcDbEntity
  8
STEMPEL
100
AcDbLine
 10
480.3416155763317
 20
379.1167685300124
 30
0.0
 11
496.7810590436939
 21
379.1167685300109
 31
0.0
  0
ARC
  5
EC0
330
1E
100
AcDbEntity
  8
STEMPEL
100
AcDbCircle
 10
483.0635446224222
 20
347.61676853001
 30
0.0
 40
3.499999999999851
100
AcDbArc
 50
45.00000000000029
 51
90.0
  0
LINE
  5
EC1
330
1E
100
AcDbEntity
  8
STEMPEL
100
AcDbLine
 10
487.8668454813213
 20
347.7632151394166
 30
0.0
 11
485.5384183565755
 21
350.0916422641628
 31
0.0
  0
ARC
  5
EC2
330
1E
100
AcDbEntity
  8
STEMPEL
100
AcDbCircle
 10
483.0635446224222
 20
347.61676853001
 30
0.0
 40
5.499999999999851
100
AcDbArc
 50
45.00000000000029
 51
90.0
  0
LINE
  5
EC3
330
1E
100
AcDbEntity
  8
STEMPEL
100
AcDbLine
 10
483.0635446224222
 20
351.1167685300105
 30
0.0
 11
425.3011432908285
 21
351.1167685300102
 31
0.0
  0
LINE
  5
EC6
102
{ACAD_REACTORS
330
FFA
330
1139
102
}
330
1E
100
AcDbEntity
  8
MITTEL
100
AcDbLine
 10
438.181059043694
 20
383.1167685300103
 30
0.0
 11
438.181059043694
 21
353.1167685300103
 31
0.0
  0
LINE
  5
EC7
102
{ACAD_REACTORS
330
1139
102
}
330
1E
100
AcDbEntity
  8
STEMPEL
100
AcDbLine
 10
429.2810590436942
 20
353.1167685300104
 30
0.0
 11
429.2810590436942
 21
356.1167685300103
 31
0.0
  0
ARC
  5
EC8
330
1E
100
AcDbEntity
  8
STEMPEL
100
AcDbCircle
 10
425.3011432908286
 20
345.1167685300106
 30
0.0
 40
6.0
100
AcDbArc
 50
90.0
 51
137.4999999999926
  0
ARC
  5
EC9
102
{ACAD_REACTORS
330
FFA
102
}
330
1E
100
AcDbEntity
  8
STEMPEL
100
AcDbCircle
 10
432.2810590436943
 20
362.1167685300106
 30
0.0
 40
3.0
100
AcDbArc
 50
90.0
 51
270.0
  0
ARC
  5
EE3
102
{ACAD_REACTORS
330
FFA
102
}
330
1E
100
AcDbEntity
  8
STEMPEL
100
AcDbCircle
 10
475.6232018191207
 20
370.1167685300112
 30
0.0
 40
5.0
100
AcDbArc
 50
270.0
 51
358.9999999999982
  0
ARC
  5
EE4
330
1E
100
AcDbEntity
  8
STEMPEL
100
AcDbCircle
 10
475.1837583517584
 20
370.1167685300123
 30
0.0
 40
5.0
100
AcDbArc
 50
270.0
 51
358.9999999999982
  0
LINE
  5
EE5
102
{ACAD_REACTORS
330
FFA
102
}
330
1E
100
AcDbEntity
  8
STEMPEL
100
AcDbLine
 10
480.781059043694
 20
379.1167685300109
 30
0.0
 11
480.6224402949027
 21
370.0295064978249
 31
0.0
  0
LINE
  5
EE6
330
1E
100
AcDbEntity
  8
STEMPEL
100
AcDbLine
 10
480.3416155763317
 20
379.116768530012
 30
0.0
 11
480.1829968275405
 21
370.0295064978259
 31
0.0
  0
LINE
  5
EE7
330
1E
100
AcDbEntity
  8
TEXT
 62
     2
100
AcDbLine
 10
525.1404530831961
 20
380.0993728204255
 30
0.0
 11
488.0003373830344
 21
354.3585455285412
 31
0.0
  0
LINE
  5
EE9
102
{ACAD_REACTORS
330
FFA
102
}
330
1E
100
AcDbEntity
  8
STEMPEL
100
AcDbLine
 10
496.7810590436939
 20
379.1167685300109
 30
0.0
 11
497.0413618531791
 21
364.2040305621975
 31
0.0
  0
LINE
  5
EEA
102
{ACAD_REACTORS
330
FFA
102
}
330
1E
100
AcDbEntity
  8
HILF
100
AcDbLine
 10
491.7810590436937
 20
379.1167685300114
 30
0.0
 11
491.7810590436947
 21
359.1167685300111
 31
0.0
  0
LINE
  5
EEB
102
{ACAD_REACTORS
330
FFA
102
}
330
1E
100
AcDbEntity
  8
HILF
100
AcDbLine
 10
485.7810590436939
 20
379.1167685300116
 30
0.0
 11
485.7810590436939
 21
359.1167685300111
 31
0.0
  0
LINE
  5
EEC
330
1E
100
AcDbEntity
  8
MITTEL
100
AcDbLine
 10
488.7810590436941
 20
384.1167685300116
 30
0.0
 11
488.7810590436941
 21
359.1167685300112
 31
0.0
  0
LINE
  5
EED
102
{ACAD_REACTORS
330
FFA
102
}
330
1E
100
AcDbEntity
  8
STEMPEL
100
AcDbLine
 10
486.431059043694
 20
379.1167685300116
 30
0.0
 11
486.431059043694
 21
359.116768530011
 31
0.0
  0
LINE
  5
EEE
102
{ACAD_REACTORS
330
FFA
102
}
330
1E
100
AcDbEntity
  8
STEMPEL
100
AcDbLine
 10
491.1310590436941
 20
379.1167685300114
 30
0.0
 11
491.1310590436941
 21
359.1167685300111
 31
0.0
  0
LINE
  5
EEF
102
{ACAD_REACTORS
330
1139
102
}
330
1E
100
AcDbEntity
  8
STEMPEL
100
AcDbLine
 10
489.2810590436941
 20
353.1167685300104
 30
0.0
 11
489.2810590436941
 21
356.1167685300103
 31
0.0
  0
LINE
  5
EF0
330
1E
100
AcDbEntity
  8
STEMPEL
100
AcDbLine
 10
489.2810590436946
 20
349.1774287017897
 30
0.0
 11
487.8668454813217
 21
347.7632151394164
 31
0.0
  0
LINE
  5
EF1
330
1E
100
AcDbEntity
  8
STEMPEL
100
AcDbLine
 10
489.2810590436946
 20
349.1774287017897
 30
0.0
 11
486.9526319189484
 21
351.5058558265359
 31
0.0
  0
ARC
  5
EF2
102
{ACAD_REACTORS
330
FFA
102
}
330
1E
100
AcDbEntity
  8
STEMPEL
100
AcDbCircle
 10
492.0421233773973
 20
364.1167685300112
 30
0.0
 40
5.0
100
AcDbArc
 50
270.0
 51
1.000000000001775
  0
LINE
  5
EF4
102
{ACAD_REACTORS
330
102F
102
}
330
1E
100
AcDbEntity
  8
STEMPEL
100
AcDbLine
 10
646.5926318518008
 20
306.6024423121302
 30
0.0
 11
653.5387734360231
 21
305.9607871195934
 31
0.0
  0
LINE
  5
EF5
102
{ACAD_REACTORS
330
102F
102
}
330
1E
100
AcDbEntity
  8
STEMPEL
100
AcDbLine
 10
646.7009147032804
 20
308.0988259673467
 30
0.0
 11
653.6767496497841
 21
307.4544278275406
 31
0.0
  0
LINE
  5
EF6
330
1E
100
AcDbEntity
  8
TEXT
 62
     2
100
AcDbLine
 10
443.1474902282978
 20
526.7834197724234
 30
0.0
 11
550.0116872841707
 21
526.7834197724233
 31
0.0
  0
TEXT
  5
EF7
330
1E
100
AcDbEntity
  8
TEXT
 62
     1
100
AcDbText
 10
445.5525161562848
 20
516.9372895299045
 30
0.0
 40
7.0
  1
EDV-Art.Nr. 00911.070X
 41
0.8
  7
GREEKS
100
AcDbText
  0
TEXT
  5
EF8
330
1E
100
AcDbEntity
  8
TEXT
 62
     1
100
AcDbText
 10
445.5525161562848
 20
530.0819873689686
 30
0.0
 40
7.0
  1
Dichtelement DN70
 41
0.8
  7
GREEKS
100
AcDbText
  0
HATCH
  5
FD4
330
1E
100
AcDbEntity
  8
SCHRAFF
100
AcDbHatch
 10
0.0
 20
0.0
 30
0.0
210
0.0
220
0.0
230
1.0
  2
NET
 70
     0
 71
     1
 91
        2
 92
        7
 72
     1
 73
     1
 93
       21
 10
403.7810590436941
 20
498.3619751562266
 42
-0.4142135623730951
 10
398.7810590436941
 20
493.3619751562266
 42
0.0
 10
398.7810590436941
 20
491.8619751562267
 42
0.0
 10
401.2810590436941
 20
491.8619751562267
 42
0.305614684580699
 10
404.989158287242
 20
494.3619751562266
 42
0.0758130451093986
 10
405.267708985596
 20
495.5354445439818
 42
-0.7464811088943645
 10
406.9567248478632
 20
495.8894151088254
 42
0.0
 10
407.781059043694
 20
494.3619751562266
 42
0.0
 10
409.5810590436942
 20
494.3619751562266
 42
0.0
 10
407.2810590436942
 20
498.3619751562267
 42
0.0
 10
407.2810590436941
 20
498.9619751562265
 42
0.0
 10
408.6810590436942
 20
500.3619751562267
 42
0.0
 10
408.6810590436941
 20
501.3619751562266
 42
0.0
 10
407.281059043694
 20
502.7619751562265
 42
0.0
 10
407.2810590436942
 20
503.8670203173175
 42
0.0
 10
405.5252867366722
 20
508.6909650845638
 42
-0.5205670505518154
 10
405.9951330470652
 20
509.3619751562266
 42
0.0
 10
409.0810590436941
 20
509.3619751562266
 42
0.0
 10
406.5492322764715
 20
513.853060053059
 42
0.7040385315424937
 10
404.6933128061099
 20
513.5356233338935
 42
0.0
 10
403.7810590436941
 20
508.3619751562268
 42
0.0
 97
       21
330
EAF
330
EAC
330
EAD
330
EAE
330
EB0
330
E9C
330
E9D
330
EA0
330
E7D
330
E9E
330
EA7
330
EA8
330
EA5
330
EA6
330
EAA
330
EA2
330
EA4
330
EA3
330
EA1
330
EAB
330
E9B
 92
        7
 72
     1
 73
     1
 93
       21
 10
326.2810590436941
 20
498.9619751562267
 42
0.0
 10
326.2810590436941
 20
498.3619751562267
 42
0.0
 10
323.9810590436942
 20
494.3619751562265
 42
0.0
 10
325.7810590436942
 20
494.3619751562267
 42
0.0
 10
326.6053932395251
 20
495.8894151088254
 42
-0.7464811088944488
 10
328.2944091017922
 20
495.5354445439818
 42
0.075813045109398
 10
328.5729598001463
 20
494.3619751562266
 42
0.3056146845807015
 10
332.2810590436942
 20
491.8619751562266
 42
0.0
 10
334.7810590436941
 20
491.8619751562265
 42
0.0
 10
334.7810590436941
 20
493.3619751562266
 42
-0.4142135623730951
 10
329.7810590436942
 20
498.3619751562266
 42
0.0
 10
329.7810590436942
 20
508.3619751562266
 42
0.0
 10
328.8688052812783
 20
513.5356233338935
 42
0.7040385315423691
 10
327.0128858109169
 20
513.853060053059
 42
0.0
 10
324.4810590436943
 20
509.3619751562266
 42
0.0
 10
327.5669850403231
 20
509.3619751562266
 42
-0.5205670505518152
 10
328.0368313507161
 20
508.6909650845638
 42
0.0
 10
326.2810590436941
 20
503.8670203173174
 42
0.0
 10
326.2810590436941
 20
502.7619751562266
 42
0.0
 10
324.8810590436942
 20
501.3619751562266
 42
0.0
 10
324.8810590436942
 20
500.3619751562266
 42
0.0
 97
       21
330
E91
330
E95
330
E93
330
E92
330
E94
330
E80
330
E90
330
E8A
330
E88
330
E89
330
E87
330
E8D
330
E8C
330
E8B
330
E8E
330
E86
330
E83
330
E7D
330
E85
330
E82
330
E81
 75
     0
 76
     1
 52
45.0
 41
10.0
 77
     0
 78
     2
 53
45.0
 43
0.0
 44
0.0
 45
-0.8838834764831842
 46
0.8838834764831844
 79
     0
 53
135.0
 43
0.0
 44
0.0
 45
-0.8838834764831844
 46
-0.8838834764831842
 79
     0
 47
0.1475277188156853
 98
        2
 10
405.0618335208487
 20
504.9226454491069
 10
327.7044325481979
 20
500.3492859038465
  0
HATCH
  5
FFA
330
1E
100
AcDbEntity
  8
SCHRAFF
100
AcDbHatch
 10
0.0
 20
0.0
 30
0.0
210
0.0
220
0.0
230
1.0
  2
_USER
 70
     0
 71
     1
 91
        7
 92
        7
 72
     1
 73
     1
 93
        4
 10
269.7810590436938
 20
359.1167685300103
 42
0.0
 10
269.781059043694
 20
365.1167685300107
 42
0.0
 10
254.7810590436948
 20
365.1167685300107
 42
1.0
 10
254.7810590436944
 20
359.1167685300103
 42
0.0
 97
        4
330
E04
330
E25
330
E1C
330
E2C
 92
        7
 72
     1
 73
     1
 93
        4
 10
301.281059043694
 20
359.1167685300103
 42
1.0
 10
301.2810590436941
 20
365.1167685300108
 42
0.0
 10
283.7810590436937
 20
365.1167685300108
 42
0.0
 10
283.7810590436938
 20
359.1167685300103
 42
0.0
 97
        4
330
E04
330
E34
330
E02
330
E64
 92
        7
 72
     1
 73
     1
 93
        4
 10
432.2810590436943
 20
359.1167685300103
 42
0.0
 10
438.181059043694
 20
359.1167685300103
 42
0.0
 10
438.181059043694
 20
365.1167685300111
 42
0.0
 10
432.2810590436943
 20
365.1167685300111
 42
1.0
 97
        4
330
E04
330
EC9
330
E02
330
EC6
 92
        7
 72
     1
 73
     1
 93
        7
 10
485.7810590436939
 20
359.1167685300103
 42
0.0
 10
485.7810590436939
 20
379.1167685300119
 42
0.0
 10
480.7810590436939
 20
379.1167685300124
 42
0.0
 10
480.6224402949027
 20
370.0295064978249
 42
-0.4091108014277237
 10
475.6232018191207
 20
365.1167685300111
 42
0.0
 10
438.1810590436939
 20
365.116768530011
 42
0.0
 10
438.181059043694
 20
359.1167685300103
 42
0.0
 97
        7
330
EBF
330
EE5
330
EE3
330
E04
330
EC6
330
E02
330
EEB
 92
        7
 72
     1
 73
     1
 93
        5
 10
496.7810590436939
 20
379.1167685300109
 42
0.0
 10
491.7810590436936
 20
379.1167685300113
 42
0.0
 10
491.7810590436948
 20
359.1167685300103
 42
0.0
 10
492.0421233773973
 20
359.1167685300103
 42
0.4193348017584233
 10
497.0413618531791
 20
364.2040305621975
 42
0.0
 97
        5
330
EBF
330
EEA
330
E02
330
EF2
330
EE9
 92
        7
 72
     0
 73
     1
 93
        4
 10
491.131059043694
 20
359.1167685300103
 10
491.7810590436947
 20
359.1167685300103
 10
491.7810590436937
 20
379.1167685300114
 10
491.131059043694
 20
379.1167685300115
 97
        4
330
EBF
330
EEE
330
E02
330
EEA
 92
        7
 72
     0
 73
     1
 93
        4
 10
485.7810590436939
 20
359.1167685300103
 10
486.4310590436941
 20
359.1167685300104
 10
486.4310590436941
 20
379.1167685300119
 10
485.7810590436939
 20
379.116768530012
 97
        4
330
EBF
330
EEB
330
E02
330
EED
 75
     0
 76
     0
 52
135.0
 41
5.0
 77
     0
 78
     1
 53
135.0
 43
0.0
 44
0.0
 45
-3.535533905932737
 46
-3.535533905932737
 79
     0
 47
0.1211822903146069
 98
        7
 10
260.29274497096
 20
360.8495365211206
 10
293.8044426787392
 20
361.1983780871903
 10
432.0401926806671
 20
362.5937443514697
 10
442.8616784269766
 20
361.89606121933
 10
494.5255451630137
 20
366.7798431443073
 10
491.4198731980045
 20
369.9173951028431
 10
486.0842042537469
 20
370.4021242143203
  0
HATCH
  5
102F
330
1E
100
AcDbEntity
  8
SCHRAFF
100
AcDbHatch
 10
0.0
 20
0.0
 30
0.0
210
0.0
220
0.0
230
1.0
  2
_USER
 70
     0
 71
     1
 91
        2
 92
        7
 72
     0
 73
     1
 93
        6
 10
646.5926318518003
 20
306.6024423121302
 10
653.5981836400146
 20
305.955299056124
 10
653.6767496497841
 20
307.4544278275407
 10
646.700914703279
 20
308.0988259673467
 10
403.2810590436943
 20
320.8559200358638
 10
401.7810590436946
 20
319.4324731857916
 97
        6
330
E0A
330
DF7
330
EF4
330
EB3
330
EF5
330
DF6
 92
        7
 72
     0
 73
     1
 93
        6
 10
331.7810590436944
 20
253.0049535157502
 10
330.2810590436941
 20
251.5815066656776
 10
642.8803898975449
 20
235.1988699302627
 10
649.8969646189481
 20
235.3318330039393
 10
649.9756685636606
 20
236.8335937308607
 10
642.9054638848561
 20
236.6996143772667
 97
        6
330
E0A
330
DFA
330
EB7
330
EB3
330
EB6
330
DFB
 75
     0
 76
     0
 52
45.0
 41
2.0
 77
     0
 78
     1
 53
45.0
 43
0.0
 44
0.0
 45
-1.414213562373094
 46
1.414213562373095
 79
     0
 47
0.4502668846635005
 98
        2
 10
540.1289487699328
 20
312.496558334997
 10
411.2645389996496
 20
248.1083935856879
  0
ARC
  5
10B3
330
1E
100
AcDbEntity
  8
STEMPEL
100
AcDbCircle
 10
448.3310590436942
 20
365.866768530011
 30
0.0
 40
0.750000000000001
100
AcDbArc
 50
269.9999991462263
 51
70.00000000000047
  0
ARC
  5
10B4
330
1E
100
AcDbEntity
  8
STEMPEL
100
AcDbCircle
 10
428.0310590436942
 20
365.866768530011
 30
0.0
 40
0.7500000000000013
100
AcDbArc
 50
109.9999999999995
 51
269.9999991462263
  0
LINE
  5
10B5
330
1E
100
AcDbEntity
  8
STEMPEL
100
AcDbLine
 10
429.5208050058498
 20
367.2071250462109
 30
0.0
 11
427.7745439361999
 21
366.5715379956005
 31
0.0
  0
LINE
  5
10B6
330
1E
100
AcDbEntity
  8
STEMPEL
100
AcDbLine
 10
448.5875741511884
 20
366.5715379956005
 30
0.0
 11
446.8413130815386
 21
367.2071250462109
 31
0.0
  0
LINE
  5
10B7
330
1E
100
AcDbEntity
  8
STEMPEL
100
AcDbLine
 10
446.8413130815386
 20
374.8058793975557
 30
0.0
 11
445.6810590436942
 21
375.1167685300111
 31
0.0
  0
LINE
  5
10B8
330
1E
100
AcDbEntity
  8
STEMPEL
100
AcDbLine
 10
430.6810590436942
 20
375.1167685300111
 30
0.0
 11
429.5208050058498
 21
374.8058793975557
 31
0.0
  0
LINE
  5
10B9
330
1E
100
AcDbEntity
  8
STEMPEL
100
AcDbLine
 10
429.5208050058498
 20
367.2071250462109
 30
0.0
 11
429.5208050058498
 21
374.8058793975557
 31
0.0
  0
LINE
  5
10BA
330
1E
100
AcDbEntity
  8
STEMPEL
100
AcDbLine
 10
448.3310590436942
 20
365.116768530011
 30
0.0
 11
428.0310590436942
 21
365.116768530011
 31
0.0
  0
LINE
  5
10BB
330
1E
100
AcDbEntity
  8
STEMPEL
100
AcDbLine
 10
448.5875741511884
 20
366.5715379956005
 30
0.0
 11
427.7745439361999
 21
366.5715379956005
 31
0.0
  0
LINE
  5
10BC
330
1E
100
AcDbEntity
  8
STEMPEL
100
AcDbLine
 10
433.850932024772
 20
367.2071250462109
 30
0.0
 11
433.850932024772
 21
374.8058793975557
 31
0.0
  0
LINE
  5
10BD
330
1E
100
AcDbEntity
  8
STEMPEL
100
AcDbLine
 10
442.5111860626164
 20
367.2071250462109
 30
0.0
 11
442.5111860626164
 21
374.8058793975557
 31
0.0
  0
LINE
  5
10BE
330
1E
100
AcDbEntity
  8
STEMPEL
100
AcDbLine
 10
446.8413130815386
 20
367.2071250462109
 30
0.0
 11
446.8413130815386
 21
374.8058793975557
 31
0.0
  0
LINE
  5
10BF
330
1E
100
AcDbEntity
  8
STEMPEL
100
AcDbLine
 10
430.6810590436942
 20
375.1167685300111
 30
0.0
 11
445.6810590436942
 21
375.1167685300111
 31
0.0
  0
POINT
  5
10C0
330
1E
100
AcDbEntity
  8
0
100
AcDbPoint
 10
438.1810590436942
 20
365.116768530011
 30
0.0
210
0.0000000000000001
220
1.0
230
0.0
  0
ARC
  5
10C1
330
1E
100
AcDbEntity
  8
HILF
100
AcDbCircle
 10
431.6858685153109
 20
361.8682823804814
 30
0.0
 40
5.761140599691502
100
AcDbArc
 50
67.92594526325932
 51
112.0740547367407
  0
ARC
  5
10C2
330
1E
100
AcDbEntity
  8
HILF
100
AcDbCircle
 10
444.6762495720775
 20
361.8682823804814
 30
0.0
 40
5.761140599691502
100
AcDbArc
 50
67.92594526325932
 51
112.0740547367407
  0
ARC
  5
10C3
330
1E
100
AcDbEntity
  8
HILF
100
AcDbCircle
 10
438.1810590436942
 20
345.2183074823498
 30
0.0
 40
22.41111549782308
100
AcDbArc
 50
78.85962783890455
 51
101.1403721610954
  0
ARC
  5
10C4
330
1E
100
AcDbEntity
  8
STEMPEL
100
AcDbCircle
 10
444.6762495720775
 20
367.4224628222266
 30
0.0
 40
7.694305707784447
100
AcDbArc
 50
73.65710669401345
 51
106.3428933059825
  0
ARC
  5
10C5
330
1E
100
AcDbEntity
  8
STEMPEL
100
AcDbCircle
 10
431.685868515311
 20
367.4224628222266
 30
0.0
 40
7.694305707784447
100
AcDbArc
 50
73.65710669401345
 51
106.3428933059825
  0
ARC
  5
10C6
330
1E
100
AcDbEntity
  8
STEMPEL
100
AcDbCircle
 10
438.1810590436942
 20
344.8058793975562
 30
0.0
 40
30.31088913245485
100
AcDbArc
 50
81.78678929826059
 51
98.2132107017394
  0
LINE
  5
10C7
330
1E
100
AcDbEntity
  8
STEMPEL
100
AcDbLine
 10
443.1810590436941
 20
377.1167685300104
 30
0.0
 11
442.1810590436941
 21
378.1167685300104
 31
0.0
  0
LINE
  5
10C8
330
1E
100
AcDbEntity
  8
STEMPEL
100
AcDbLine
 10
443.1810590436941
 20
377.1167685300104
 30
0.0
 11
443.1810590436941
 21
375.1167685300111
 31
0.0
  0
LINE
  5
10C9
330
1E
100
AcDbEntity
  8
HILF
100
AcDbLine
 10
442.1810590436941
 20
378.1167685300104
 30
0.0
 11
442.1810590436941
 21
375.1167685300111
 31
0.0
  0
LINE
  5
10CA
330
1E
100
AcDbEntity
  8
STEMPEL
100
AcDbLine
 10
434.1810590436941
 20
378.1167685300104
 30
0.0
 11
433.1810590436941
 21
377.1167685300104
 31
0.0
  0
LINE
  5
10CB
330
1E
100
AcDbEntity
  8
HILF
100
AcDbLine
 10
434.1810590436941
 20
378.1167685300104
 30
0.0
 11
434.1810590436941
 21
375.1167685300111
 31
0.0
  0
LINE
  5
10CC
330
1E
100
AcDbEntity
  8
STEMPEL
100
AcDbLine
 10
433.1810590436941
 20
377.1167685300104
 30
0.0
 11
433.1810590436942
 21
375.1167685300111
 31
0.0
  0
LINE
  5
10CD
330
1E
100
AcDbEntity
  8
STEMPEL
100
AcDbLine
 10
442.1810590436941
 20
378.1167685300104
 30
0.0
 11
434.1810590436941
 21
378.1167685300104
 31
0.0
  0
LINE
  5
10CE
330
1E
100
AcDbEntity
  8
STEMPEL
100
AcDbLine
 10
433.1810590436941
 20
377.1167685300104
 30
0.0
 11
443.1810590436939
 21
377.1167685300104
 31
0.0
  0
ARC
  5
10CF
330
1E
100
AcDbEntity
  8
STEMPEL
100
AcDbCircle
 10
321.781059043694
 20
344.805879397556
 30
0.0
 40
30.31088913245485
100
AcDbArc
 50
81.78678929826059
 51
98.2132107017394
  0
ARC
  5
10D0
330
1E
100
AcDbEntity
  8
STEMPEL
100
AcDbCircle
 10
315.2858685153108
 20
367.4224628222264
 30
0.0
 40
7.694305707784447
100
AcDbArc
 50
73.65710669401345
 51
106.3428933059825
  0
ARC
  5
10D1
330
1E
100
AcDbEntity
  8
STEMPEL
100
AcDbCircle
 10
328.2762495720773
 20
367.4224628222264
 30
0.0
 40
7.694305707784447
100
AcDbArc
 50
73.65710669401345
 51
106.3428933059825
  0
ARC
  5
10D2
330
1E
100
AcDbEntity
  8
HILF
100
AcDbCircle
 10
321.781059043694
 20
345.2183074823495
 30
0.0
 40
22.41111549782308
100
AcDbArc
 50
78.85962783890455
 51
101.1403721610954
  0
ARC
  5
10D3
330
1E
100
AcDbEntity
  8
HILF
100
AcDbCircle
 10
328.2762495720774
 20
361.8682823804812
 30
0.0
 40
5.761140599691502
100
AcDbArc
 50
67.92594526325932
 51
112.0740547367407
  0
ARC
  5
10D4
330
1E
100
AcDbEntity
  8
HILF
100
AcDbCircle
 10
315.2858685153107
 20
361.8682823804812
 30
0.0
 40
5.761140599691502
100
AcDbArc
 50
67.92594526325932
 51
112.0740547367407
  0
POINT
  5
10D5
330
1E
100
AcDbEntity
  8
0
100
AcDbPoint
 10
321.781059043694
 20
365.1167685300108
 30
0.0
210
0.0000000000000001
220
1.0
230
0.0
  0
LINE
  5
10D6
330
1E
100
AcDbEntity
  8
STEMPEL
100
AcDbLine
 10
314.281059043694
 20
375.1167685300108
 30
0.0
 11
329.281059043694
 21
375.1167685300108
 31
0.0
  0
LINE
  5
10D7
330
1E
100
AcDbEntity
  8
STEMPEL
100
AcDbLine
 10
330.4413130815384
 20
367.2071250462106
 30
0.0
 11
330.4413130815384
 21
374.8058793975554
 31
0.0
  0
LINE
  5
10D8
330
1E
100
AcDbEntity
  8
STEMPEL
100
AcDbLine
 10
326.1111860626162
 20
367.2071250462106
 30
0.0
 11
326.1111860626162
 21
374.8058793975554
 31
0.0
  0
LINE
  5
10D9
330
1E
100
AcDbEntity
  8
STEMPEL
100
AcDbLine
 10
317.4509320247718
 20
367.2071250462106
 30
0.0
 11
317.4509320247718
 21
374.8058793975554
 31
0.0
  0
LINE
  5
10DA
330
1E
100
AcDbEntity
  8
STEMPEL
100
AcDbLine
 10
332.1875741511883
 20
366.5715379956002
 30
0.0
 11
311.3745439361998
 21
366.5715379956002
 31
0.0
  0
LINE
  5
10DB
330
1E
100
AcDbEntity
  8
STEMPEL
100
AcDbLine
 10
331.931059043694
 20
365.1167685300108
 30
0.0
 11
311.6310590436941
 21
365.1167685300108
 31
0.0
  0
LINE
  5
10DC
330
1E
100
AcDbEntity
  8
STEMPEL
100
AcDbLine
 10
313.1208050058497
 20
367.2071250462106
 30
0.0
 11
313.1208050058497
 21
374.8058793975554
 31
0.0
  0
LINE
  5
10DD
330
1E
100
AcDbEntity
  8
STEMPEL
100
AcDbLine
 10
314.281059043694
 20
375.1167685300108
 30
0.0
 11
313.1208050058497
 21
374.8058793975554
 31
0.0
  0
LINE
  5
10DE
330
1E
100
AcDbEntity
  8
STEMPEL
100
AcDbLine
 10
330.4413130815384
 20
374.8058793975554
 30
0.0
 11
329.281059043694
 21
375.1167685300108
 31
0.0
  0
LINE
  5
10DF
330
1E
100
AcDbEntity
  8
STEMPEL
100
AcDbLine
 10
332.1875741511883
 20
366.5715379956002
 30
0.0
 11
330.4413130815384
 21
367.2071250462106
 31
0.0
  0
LINE
  5
10E0
330
1E
100
AcDbEntity
  8
STEMPEL
100
AcDbLine
 10
313.1208050058497
 20
367.2071250462106
 30
0.0
 11
311.3745439361998
 21
366.5715379956002
 31
0.0
  0
ARC
  5
10E1
330
1E
100
AcDbEntity
  8
STEMPEL
100
AcDbCircle
 10
311.6310590436941
 20
365.8667685300108
 30
0.0
 40
0.7500000000000013
100
AcDbArc
 50
109.9999999999995
 51
269.9999991462263
  0
ARC
  5
10E2
330
1E
100
AcDbEntity
  8
STEMPEL
100
AcDbCircle
 10
331.931059043694
 20
365.8667685300108
 30
0.0
 40
0.750000000000001
100
AcDbArc
 50
269.9999991462263
 51
70.00000000000047
  0
LINE
  5
10E3
330
1E
100
AcDbEntity
  8
STEMPEL
100
AcDbLine
 10
326.7810590436943
 20
377.6167685300109
 30
0.0
 11
325.7810590436942
 21
378.6167685300108
 31
0.0
  0
LINE
  5
10E4
330
1E
100
AcDbEntity
  8
STEMPEL
100
AcDbLine
 10
326.7810590436939
 20
377.6167685300109
 30
0.0
 11
325.7810590436939
 21
378.6167685300108
 31
0.0
  0
LINE
  5
10E5
330
1E
100
AcDbEntity
  8
STEMPEL
100
AcDbLine
 10
317.7810590436942
 20
378.6167685300108
 30
0.0
 11
316.7810590436943
 21
377.6167685300109
 31
0.0
  0
LINE
  5
10E6
330
1E
100
AcDbEntity
  8
STEMPEL
100
AcDbLine
 10
317.7810590436939
 20
378.6167685300108
 30
0.0
 11
316.7810590436939
 21
377.6167685300109
 31
0.0
  0
LINE
  5
10E7
330
1E
100
AcDbEntity
  8
STEMPEL
100
AcDbLine
 10
325.7810590436942
 20
378.6167685300108
 30
0.0
 11
317.7810590436942
 21
378.6167685300108
 31
0.0
  0
LINE
  5
10E8
330
1E
100
AcDbEntity
  8
STEMPEL
100
AcDbLine
 10
316.7810590436943
 20
377.6167685300109
 30
0.0
 11
326.781059043694
 21
377.6167685300109
 31
0.0
  0
LINE
  5
10E9
330
1E
100
AcDbEntity
  8
STEMPEL
100
AcDbLine
 10
316.7810590436939
 20
377.6167685300109
 30
0.0
 11
326.7810590436937
 21
377.6167685300109
 31
0.0
  0
LINE
  5
10EA
330
1E
100
AcDbEntity
  8
STEMPEL
100
AcDbLine
 10
325.7810590436939
 20
378.6167685300108
 30
0.0
 11
317.7810590436939
 21
378.6167685300108
 31
0.0
  0
LINE
  5
10EB
330
1E
100
AcDbEntity
  8
HILF
100
AcDbLine
 10
325.7810590436939
 20
359.1167685300103
 30
0.0
 11
325.7810590436938
 21
356.1167685300104
 31
0.0
  0
LINE
  5
10EC
330
1E
100
AcDbEntity
  8
STEMPEL
100
AcDbLine
 10
326.781059043694
 20
359.1167685300103
 30
0.0
 11
326.7810590436939
 21
356.3453713721557
 31
0.0
  0
LINE
  5
10ED
330
1E
100
AcDbEntity
  8
STEMPEL
100
AcDbLine
 10
316.7810590436939
 20
359.1167685300103
 30
0.0
 11
316.7810590436939
 21
356.1167685300104
 31
0.0
  0
LINE
  5
10EE
330
1E
100
AcDbEntity
  8
HILF
100
AcDbLine
 10
317.7810590436939
 20
359.1167685300103
 30
0.0
 11
317.7810590436939
 21
356.1167685300104
 31
0.0
  0
LINE
  5
10EF
330
1E
100
AcDbEntity
  8
STEMPEL
100
AcDbLine
 10
316.7810590436939
 20
377.6167685300109
 30
0.0
 11
316.7810590436939
 21
375.1167685300107
 31
0.0
  0
LINE
  5
10F0
330
1E
100
AcDbEntity
  8
HILF
100
AcDbLine
 10
317.7810590436939
 20
378.6167685300108
 30
0.0
 11
317.781059043694
 21
375.1167685300107
 31
0.0
  0
LINE
  5
10F1
330
1E
100
AcDbEntity
  8
STEMPEL
100
AcDbLine
 10
326.7810590436939
 20
377.6167685300107
 30
0.0
 11
326.7810590436939
 21
375.1167685300107
 31
0.0
  0
LINE
  5
10F2
330
1E
100
AcDbEntity
  8
HILF
100
AcDbLine
 10
325.7810590436939
 20
378.6167685300108
 30
0.0
 11
325.781059043694
 21
375.1167685300107
 31
0.0
  0
LINE
  5
10F3
330
1E
100
AcDbEntity
  8
MITTEL
100
AcDbLine
 10
321.781059043694
 20
383.6167685300107
 30
0.0
 11
321.781059043694
 21
348.6167685300104
 31
0.0
  0
ARC
  5
10F4
330
1E
100
AcDbEntity
  8
STEMPEL
100
AcDbCircle
 10
276.7810590436942
 20
344.8058793975559
 30
0.0
 40
30.31088913245485
100
AcDbArc
 50
81.78678929826059
 51
98.2132107017394
  0
ARC
  5
10F5
330
1E
100
AcDbEntity
  8
STEMPEL
100
AcDbCircle
 10
270.2858685153109
 20
367.4224628222263
 30
0.0
 40
7.694305707784447
100
AcDbArc
 50
73.65710669401345
 51
106.3428933059825
  0
ARC
  5
10F6
330
1E
100
AcDbEntity
  8
STEMPEL
100
AcDbCircle
 10
283.2762495720775
 20
367.4224628222263
 30
0.0
 40
7.694305707784447
100
AcDbArc
 50
73.65710669401345
 51
106.3428933059825
  0
LINE
  5
10F7
330
1E
100
AcDbEntity
  8
STEMPEL
100
AcDbLine
 10
269.2810590436942
 20
375.1167685300107
 30
0.0
 11
284.2810590436942
 21
375.1167685300107
 31
0.0
  0
LINE
  5
10F8
330
1E
100
AcDbEntity
  8
STEMPEL
100
AcDbLine
 10
269.2810590436942
 20
375.1167685300107
 30
0.0
 11
268.1208050058498
 21
374.8058793975554
 31
0.0
  0
LINE
  5
10F9
330
1E
100
AcDbEntity
  8
STEMPEL
100
AcDbLine
 10
285.4413130815386
 20
374.8058793975554
 30
0.0
 11
284.2810590436942
 21
375.1167685300107
 31
0.0
  0
LINE
  5
10FA
330
1E
100
AcDbEntity
  8
STEMPEL
100
AcDbLine
 10
281.7810590436943
 20
377.6167685300109
 30
0.0
 11
280.7810590436942
 21
378.6167685300108
 31
0.0
  0
LINE
  5
10FB
330
1E
100
AcDbEntity
  8
STEMPEL
100
AcDbLine
 10
281.7810590436944
 20
377.6167685300109
 30
0.0
 11
280.7810590436944
 21
378.6167685300108
 31
0.0
  0
LINE
  5
10FC
330
1E
100
AcDbEntity
  8
STEMPEL
100
AcDbLine
 10
281.7810590436944
 20
377.6167685300107
 30
0.0
 11
281.7810590436943
 21
375.1167685300107
 31
0.0
  0
LINE
  5
10FD
330
1E
100
AcDbEntity
  8
HILF
100
AcDbLine
 10
280.7810590436944
 20
378.6167685300108
 30
0.0
 11
280.7810590436944
 21
375.1167685300107
 31
0.0
  0
LINE
  5
10FE
330
1E
100
AcDbEntity
  8
STEMPEL
100
AcDbLine
 10
272.7810590436942
 20
378.6167685300108
 30
0.0
 11
271.7810590436942
 21
377.6167685300109
 31
0.0
  0
LINE
  5
10FF
330
1E
100
AcDbEntity
  8
STEMPEL
100
AcDbLine
 10
272.7810590436944
 20
378.6167685300108
 30
0.0
 11
271.7810590436944
 21
377.6167685300109
 31
0.0
  0
LINE
  5
1100
330
1E
100
AcDbEntity
  8
STEMPEL
100
AcDbLine
 10
271.7810590436944
 20
377.6167685300109
 30
0.0
 11
271.7810590436944
 21
375.1167685300107
 31
0.0
  0
LINE
  5
1101
330
1E
100
AcDbEntity
  8
HILF
100
AcDbLine
 10
272.7810590436944
 20
378.6167685300108
 30
0.0
 11
272.7810590436944
 21
375.1167685300107
 31
0.0
  0
LINE
  5
1102
330
1E
100
AcDbEntity
  8
STEMPEL
100
AcDbLine
 10
271.7810590436942
 20
377.6167685300109
 30
0.0
 11
281.781059043694
 21
377.6167685300109
 31
0.0
  0
LINE
  5
1103
330
1E
100
AcDbEntity
  8
STEMPEL
100
AcDbLine
 10
280.7810590436942
 20
378.6167685300108
 30
0.0
 11
272.7810590436942
 21
378.6167685300108
 31
0.0
  0
LINE
  5
1104
330
1E
100
AcDbEntity
  8
STEMPEL
100
AcDbLine
 10
271.7810590436944
 20
377.6167685300109
 30
0.0
 11
281.7810590436941
 21
377.6167685300109
 31
0.0
  0
LINE
  5
1105
330
1E
100
AcDbEntity
  8
STEMPEL
100
AcDbLine
 10
280.7810590436944
 20
378.6167685300108
 30
0.0
 11
272.7810590436944
 21
378.6167685300108
 31
0.0
  0
ARC
  5
1106
330
1E
100
AcDbEntity
  8
HILF
100
AcDbCircle
 10
276.7810590436942
 20
345.2183074823495
 30
0.0
 40
22.41111549782308
100
AcDbArc
 50
78.85962783890455
 51
101.1403721610954
  0
ARC
  5
1107
330
1E
100
AcDbEntity
  8
HILF
100
AcDbCircle
 10
283.2762495720775
 20
361.8682823804811
 30
0.0
 40
5.761140599691502
100
AcDbArc
 50
67.92594526325932
 51
112.0740547367407
  0
ARC
  5
1108
330
1E
100
AcDbEntity
  8
HILF
100
AcDbCircle
 10
270.2858685153109
 20
361.8682823804811
 30
0.0
 40
5.761140599691502
100
AcDbArc
 50
67.92594526325932
 51
112.0740547367407
  0
POINT
  5
1109
330
1E
100
AcDbEntity
  8
0
100
AcDbPoint
 10
276.7810590436942
 20
365.1167685300107
 30
0.0
210
0.0000000000000001
220
1.0
230
0.0
  0
LINE
  5
110A
330
1E
100
AcDbEntity
  8
STEMPEL
100
AcDbLine
 10
285.4413130815386
 20
367.2071250462106
 30
0.0
 11
285.4413130815386
 21
374.8058793975554
 31
0.0
  0
LINE
  5
110B
330
1E
100
AcDbEntity
  8
STEMPEL
100
AcDbLine
 10
281.1111860626164
 20
367.2071250462106
 30
0.0
 11
281.1111860626164
 21
374.8058793975554
 31
0.0
  0
LINE
  5
110C
330
1E
100
AcDbEntity
  8
STEMPEL
100
AcDbLine
 10
272.450932024772
 20
367.2071250462106
 30
0.0
 11
272.450932024772
 21
374.8058793975554
 31
0.0
  0
LINE
  5
110D
330
1E
100
AcDbEntity
  8
STEMPEL
100
AcDbLine
 10
287.1875741511885
 20
366.5715379956002
 30
0.0
 11
266.3745439361999
 21
366.5715379956002
 31
0.0
  0
LINE
  5
110E
330
1E
100
AcDbEntity
  8
STEMPEL
100
AcDbLine
 10
286.9310590436942
 20
365.1167685300107
 30
0.0
 11
266.6310590436942
 21
365.1167685300107
 31
0.0
  0
LINE
  5
110F
330
1E
100
AcDbEntity
  8
STEMPEL
100
AcDbLine
 10
268.1208050058498
 20
367.2071250462106
 30
0.0
 11
268.1208050058498
 21
374.8058793975554
 31
0.0
  0
LINE
  5
1110
330
1E
100
AcDbEntity
  8
STEMPEL
100
AcDbLine
 10
287.1875741511885
 20
366.5715379956002
 30
0.0
 11
285.4413130815386
 21
367.2071250462106
 31
0.0
  0
LINE
  5
1111
330
1E
100
AcDbEntity
  8
STEMPEL
100
AcDbLine
 10
268.1208050058498
 20
367.2071250462106
 30
0.0
 11
266.3745439361999
 21
366.5715379956002
 31
0.0
  0
ARC
  5
1112
330
1E
100
AcDbEntity
  8
STEMPEL
100
AcDbCircle
 10
266.6310590436942
 20
365.8667685300108
 30
0.0
 40
0.7500000000000013
100
AcDbArc
 50
109.9999999999995
 51
269.9999991462263
  0
ARC
  5
1113
330
1E
100
AcDbEntity
  8
STEMPEL
100
AcDbCircle
 10
286.9310590436942
 20
365.8667685300108
 30
0.0
 40
0.750000000000001
100
AcDbArc
 50
269.9999991462263
 51
70.00000000000047
  0
LINE
  5
1119
330
1E
100
AcDbEntity
  8
HILF
100
AcDbLine
 10
434.1810590436941
 20
359.1167685300103
 30
0.0
 11
434.1810590436941
 21
356.1167685300104
 31
0.0
  0
LINE
  5
111A
330
1E
100
AcDbEntity
  8
STEMPEL
100
AcDbLine
 10
433.1810590436942
 20
359.1167685300103
 30
0.0
 11
433.1810590436942
 21
356.1167685300103
 31
0.0
  0
LINE
  5
111B
330
1E
100
AcDbEntity
  8
STEMPEL
100
AcDbLine
 10
443.1810590436941
 20
359.1167685300103
 30
0.0
 11
443.1810590436941
 21
356.1167685300103
 31
0.0
  0
LINE
  5
111C
330
1E
100
AcDbEntity
  8
HILF
100
AcDbLine
 10
442.1810590436941
 20
359.1167685300103
 30
0.0
 11
442.1810590436941
 21
356.1167685300104
 31
0.0
  0
LINE
  5
1121
102
{ACAD_REACTORS
330
1139
102
}
330
1E
100
AcDbEntity
  8
STEMPEL
100
AcDbLine
 10
244.2810590436941
 20
356.1167685300104
 30
0.0
 11
271.7810590436946
 21
356.1167685300104
 31
0.0
  0
LINE
  5
1122
102
{ACAD_REACTORS
330
1139
102
}
330
1E
100
AcDbEntity
  8
STEMPEL
100
AcDbLine
 10
281.7810590436947
 20
356.1167685300105
 30
0.0
 11
326.6847967199418
 21
356.1167685300104
 31
0.0
  0
LINE
  5
1123
102
{ACAD_REACTORS
330
1139
102
}
330
1E
100
AcDbEntity
  8
STEMPEL
100
AcDbLine
 10
406.8773213674464
 20
356.1167685300103
 30
0.0
 11
489.2810590436941
 21
356.1167685300103
 31
0.0
  0
HATCH
  5
1139
330
1E
100
AcDbEntity
  8
SCHRAFF
100
AcDbHatch
 10
0.0
 20
0.0
 30
0.0
210
0.0
220
0.0
230
1.0
  2
NET
 70
     0
 71
     1
 91
        4
 92
        7
 72
     0
 73
     1
 93
        4
 10
489.2810590436942
 20
356.1167685300103
 10
438.1810590436939
 20
356.1167685300103
 10
438.181059043694
 20
353.1167685300104
 10
489.2810590436941
 20
353.1167685300104
 97
        4
330
1123
330
EC6
330
DF4
330
EEF
 92
        7
 72
     0
 73
     1
 93
        4
 10
438.181059043694
 20
356.1167685300104
 10
429.2810590436942
 20
356.1167685300103
 10
429.2810590436942
 20
353.1167685300104
 10
438.181059043694
 20
353.1167685300105
 97
        4
330
1123
330
EC7
330
DF4
330
EC6
 92
        7
 72
     0
 73
     1
 93
        4
 10
304.2810590436941
 20
356.1167685300105
 10
283.2810590436941
 20
356.1167685300105
 10
283.2810590436941
 20
353.1167685300104
 10
304.2810590436941
 20
353.1167685300104
 97
        4
330
1122
330
E31
330
E19
330
E63
 92
        7
 72
     0
 73
     1
 93
        4
 10
270.2810590436941
 20
356.1167685300104
 10
244.2810590436941
 20
356.1167685300104
 10
244.2810590436941
 20
353.1167685300104
 10
270.2810590436941
 20
353.1167685300104
 97
        4
330
1121
330
E1E
330
E16
330
E2A
 75
     0
 76
     1
 52
45.0
 41
15.0
 77
     0
 78
     2
 53
45.0
 43
0.0
 44
0.0
 45
-1.325825214724776
 46
1.325825214724776
 79
     0
 53
135.0
 43
0.0
 44
0.0
 45
-1.325825214724776
 46
-1.325825214724776
 79
     0
 47
0.261678040713913
 98
        4
 10
463.3104056209703
 20
355.6858682219665
 10
434.5161146027954
 20
355.4241910655083
 10
297.874105650204
 20
355.162512443638
 10
265.6768519950365
 20
354.9008338217677
  0
ENDSEC
  0
SECTION
  2
OBJECTS
  0
DICTIONARY
  5
C
330
0
100
AcDbDictionary
281
     1
  3
ACAD_COLOR
350
11A
  3
ACAD_GROUP
350
D
  3
ACAD_LAYOUT
350
19
  3
ACAD_MATERIAL
350
119
  3
ACAD_MLINESTYLE
350
16
  3
ACAD_PLOTSETTINGS
350
18
  3
ACAD_PLOTSTYLENAME
350
E
  3
AcDbVariableDictionary
350
125
  0
DICTIONARY
  5
DB
330
1E
100
AcDbDictionary
280
     1
281
     1
  3
ACAD_LAYOUTSELFREF
360
10F
  0
DICTIONARY
  5
DD
330
1A
100
AcDbDictionary
280
     1
281
     1
  3
ACAD_LAYOUTSELFREF
360
10E
  0
DICTIONARY
  5
11A
102
{ACAD_REACTORS
330
C
102
}
330
C
100
AcDbDictionary
281
     1
  0
DICTIONARY
  5
D
102
{ACAD_REACTORS
330
C
102
}
330
C
100
AcDbDictionary
281
     1
  0
DICTIONARY
  5
19
102
{ACAD_REACTORS
330
C
102
}
330
C
100
AcDbDictionary
281
     1
  3
Layout1
350
1D
  3
Model
350
21
  0
DICTIONARY
  5
119
102
{ACAD_REACTORS
330
C
102
}
330
C
100
AcDbDictionary
281
     1
  0
DICTIONARY
  5
16
102
{ACAD_REACTORS
330
C
102
}
330
C
100
AcDbDictionary
281
     1
  3
Standard
350
17
  0
DICTIONARY
  5
18
102
{ACAD_REACTORS
330
C
102
}
330
C
100
AcDbDictionary
281
     1
  0
ACDBDICTIONARYWDFLT
  5
E
102
{ACAD_REACTORS
330
C
102
}
330
C
100
AcDbDictionary
281
     1
  3
Normal
350
F
100
AcDbDictionaryWithDefault
340
F
  0
DICTIONARY
  5
125
102
{ACAD_REACTORS
330
C
102
}
330
C
100
AcDbDictionary
281
     1
  3
DIMASSOC
350
126
  3
PROJECTNAME
350
127
  0
XRECORD
  5
10F
102
{ACAD_REACTORS
330
DB
102
}
330
DB
100
AcDbXrecord
280
     1
340
1E
  0
XRECORD
  5
10E
102
{ACAD_REACTORS
330
DD
102
}
330
DD
100
AcDbXrecord
280
     1
340
1A
  0
LAYOUT
  5
1D
102
{ACAD_REACTORS
330
19
102
}
330
19
100
AcDbPlotSettings
  1

  2
\\NT_WORK01\HP LaserJet 5000 PCL 6
  4

  6

 40
0.0
 41
0.0
 42
0.0
 43
0.0
 44
0.0
 45
0.0
 46
0.0
 47
0.0
 48
0.0
 49
0.0
140
0.0
141
0.0
142
1.0
143
1.0
 70
   688
 72
     0
 73
     0
 74
     5
  7

 75
    16
147
1.0
 76
     0
 77
     2
 78
   300
148
0.0
149
0.0
100
AcDbLayout
  1
Layout1
 70
     0
 71
     1
 10
0.0
 20
0.0
 11
12.0
 21
9.0
 12
0.0
 22
0.0
 32
0.0
 14
1.000000000000000E+20
 24
1.000000000000000E+20
 34
1.000000000000000E+20
 15
-1.000000000000000E+20
 25
-1.000000000000000E+20
 35
-1.000000000000000E+20
146
0.0
 13
0.0
 23
0.0
 33
0.0
 16
1.0
 26
0.0
 36
0.0
 17
0.0
 27
1.0
 37
0.0
 76
     0
330
1A
  0
LAYOUT
  5
21
102
{ACAD_REACTORS
330
19
102
}
330
19
100
AcDbPlotSettings
  1

  2
none_device
  4
Letter_(8.50_x_11.00_Inches)
  6

 40
6.349999904632568
 41
6.349999904632568
 42
6.350006103515625
 43
6.350006103515625
 44
215.8999938964844
 45
279.3999938964844
 46
0.0
 47
0.0
 48
0.0
 49
0.0
140
0.0
141
0.0
142
1.0
143
1.0
 70
 11952
 72
     0
 73
     1
 74
     0
  7

 75
     0
147
1.0
 76
     0
 77
     2
 78
   300
148
-3124.2
149
0.0
100
AcDbLayout
  1
Model
 70
     1
 71
     0
 10
0.0
 20
0.0
 11
12.0
 21
9.0
 12
0.0
 22
0.0
 32
0.0
 14
0.0
 24
0.0
 34
0.0
 15
0.0
 25
0.0
 35
0.0
146
0.0
 13
0.0
 23
0.0
 33
0.0
 16
1.0
 26
0.0
 36
0.0
 17
0.0
 27
1.0
 37
0.0
 76
     0
330
1E
  0
MLINESTYLE
  5
17
102
{ACAD_REACTORS
330
16
102
}
330
16
100
AcDbMlineStyle
  2
STANDARD
 70
     0
  3

 62
   256
 51
90.0
 52
90.0
 71
     2
 49
0.5
 62
   256
  6
BYLAYER
 49
-0.5
 62
   256
  6
BYLAYER
  0
ACDBPLACEHOLDER
  5
F
102
{ACAD_REACTORS
330
E
102
}
330
E
  0
DICTIONARYVAR
  5
126
102
{ACAD_REACTORS
330
125
102
}
330
125
100
DictionaryVariables
280
     0
  1
1
  0
DICTIONARYVAR
  5
127
102
{ACAD_REACTORS
330
125
102
}
330
125
100
DictionaryVariables
280
     0
  1

  0
ENDSEC
  0
EOF
