  0
SECTION
  2
HEADER
  9
$ACADVER
  1
AC1018
  9
$ACADMAINTVER
 70
     2
  9
$DWGCODEPAGE
  3
ANSI_1252
  9
$INSBASE
 10
0.0
 20
0.0
 30
0.0
  9
$EXTMIN
 10
-0.0000000000001137
 20
-0.0000000000001137
 30
0.0
  9
$EXTMAX
 10
420.0
 20
594.0000000000002
 30
0.0
  9
$LIMMIN
 10
0.0
 20
0.0
  9
$LIMMAX
 10
419.9999999999999
 20
594.0
  9
$ORTHOMODE
 70
     1
  9
$REGENMODE
 70
     1
  9
$FILLMODE
 70
     1
  9
$QTEXTMODE
 70
     0
  9
$MIRRTEXT
 70
     1
  9
$LTSCALE
 40
20.0
  9
$ATTMODE
 70
     1
  9
$TEXTSIZE
 40
3.5
  9
$TRACEWID
 40
0.5
  9
$TEXTSTYLE
  7
STANDARD
  9
$CLAYER
  8
VOLL
  9
$CELTYPE
  6
ByLayer
  9
$CECOLOR
 62
   256
  9
$CELTSCALE
 40
1.0
  9
$DISPSILH
 70
     0
  9
$DIMSCALE
 40
2.0
  9
$DIMASZ
 40
3.5
  9
$DIMEXO
 40
1.0
  9
$DIMDLI
 40
7.0
  9
$DIMRND
 40
0.0
  9
$DIMDLE
 40
0.0
  9
$DIMEXE
 40
1.0
  9
$DIMTP
 40
0.0
  9
$DIMTM
 40
0.0
  9
$DIMTXT
 40
3.5
  9
$DIMCEN
 40
1.5
  9
$DIMTSZ
 40
0.0
  9
$DIMTOL
 70
     0
  9
$DIMLIM
 70
     0
  9
$DIMTIH
 70
     0
  9
$DIMTOH
 70
     0
  9
$DIMSE1
 70
     0
  9
$DIMSE2
 70
     0
  9
$DIMTAD
 70
     1
  9
$DIMZIN
 70
     8
  9
$DIMBLK
  1

  9
$DIMASO
 70
     1
  9
$DIMSHO
 70
     0
  9
$DIMPOST
  1

  9
$DIMAPOST
  1

  9
$DIMALT
 70
     0
  9
$DIMALTD
 70
     2
  9
$DIMALTF
 40
25.4
  9
$DIMLFAC
 40
1.0
  9
$DIMTOFL
 70
     1
  9
$DIMTVP
 40
0.0
  9
$DIMTIX
 70
     0
  9
$DIMSOXD
 70
     0
  9
$DIMSAH
 70
     0
  9
$DIMBLK1
  1

  9
$DIMBLK2
  1

  9
$DIMSTYLE
  2
Standard
  9
$DIMCLRD
 70
     0
  9
$DIMCLRE
 70
     0
  9
$DIMCLRT
 70
     1
  9
$DIMTFAC
 40
0.5142857142857144
  9
$DIMGAP
 40
1.5
  9
$DIMJUST
 70
     0
  9
$DIMSD1
 70
     0
  9
$DIMSD2
 70
     0
  9
$DIMTOLJ
 70
     1
  9
$DIMTZIN
 70
     8
  9
$DIMALTZ
 70
     8
  9
$DIMALTTZ
 70
     8
  9
$DIMUPT
 70
     0
  9
$DIMDEC
 70
     2
  9
$DIMTDEC
 70
     2
  9
$DIMALTU
 70
     2
  9
$DIMALTTD
 70
     2
  9
$DIMTXSTY
  7
STANDARD
  9
$DIMAUNIT
 70
     0
  9
$DIMADEC
 70
     2
  9
$DIMALTRND
 40
0.0
  9
$DIMAZIN
 70
     2
  9
$DIMDSEP
 70
    46
  9
$DIMATFIT
 70
     3
  9
$DIMFRAC
 70
     0
  9
$DIMLDRBLK
  1

  9
$DIMLUNIT
 70
     2
  9
$DIMLWD
 70
    -2
  9
$DIMLWE
 70
    -2
  9
$DIMTMOVE
 70
     0
  9
$LUNITS
 70
     2
  9
$LUPREC
 70
     2
  9
$SKETCHINC
 40
1.0
  9
$FILLETRAD
 40
0.0
  9
$AUNITS
 70
     0
  9
$AUPREC
 70
     0
  9
$MENU
  1
ACAD
  9
$ELEVATION
 40
0.0
  9
$PELEVATION
 40
0.0
  9
$THICKNESS
 40
0.0
  9
$LIMCHECK
 70
     0
  9
$CHAMFERA
 40
0.0
  9
$CHAMFERB
 40
0.0
  9
$CHAMFERC
 40
0.0
  9
$CHAMFERD
 40
0.0
  9
$SKPOLY
 70
     0
  9
$TDCREATE
 40
2455397.823042361
  9
$TDUCREATE
 40
2455397.781375695
  9
$TDUPDATE
 40
2455502.416062003
  9
$TDUUPDATE
 40
2455502.374395336
  9
$TDINDWG
 40
0.1675790741
  9
$TDUSRTIMER
 40
0.1675790741
  9
$USRTIMER
 70
     1
  9
$ANGBASE
 50
0.0
  9
$ANGDIR
 70
     0
  9
$PDMODE
 70
     0
  9
$PDSIZE
 40
0.0
  9
$PLINEWID
 40
0.0
  9
$SPLFRAME
 70
     0
  9
$SPLINETYPE
 70
     6
  9
$SPLINESEGS
 70
     8
  9
$HANDSEED
  5
149A
  9
$SURFTAB1
 70
     6
  9
$SURFTAB2
 70
     6
  9
$SURFTYPE
 70
     6
  9
$SURFU
 70
     6
  9
$SURFV
 70
     6
  9
$UCSBASE
  2

  9
$UCSNAME
  2

  9
$UCSORG
 10
0.0
 20
0.0
 30
0.0
  9
$UCSXDIR
 10
1.0
 20
0.0
 30
0.0
  9
$UCSYDIR
 10
0.0
 20
1.0
 30
0.0
  9
$UCSORTHOREF
  2

  9
$UCSORTHOVIEW
 70
     0
  9
$UCSORGTOP
 10
0.0
 20
0.0
 30
0.0
  9
$UCSORGBOTTOM
 10
0.0
 20
0.0
 30
0.0
  9
$UCSORGLEFT
 10
0.0
 20
0.0
 30
0.0
  9
$UCSORGRIGHT
 10
0.0
 20
0.0
 30
0.0
  9
$UCSORGFRONT
 10
0.0
 20
0.0
 30
0.0
  9
$UCSORGBACK
 10
0.0
 20
0.0
 30
0.0
  9
$PUCSBASE
  2

  9
$PUCSNAME
  2

  9
$PUCSORG
 10
0.0
 20
0.0
 30
0.0
  9
$PUCSXDIR
 10
1.0
 20
0.0
 30
0.0
  9
$PUCSYDIR
 10
0.0
 20
1.0
 30
0.0
  9
$PUCSORTHOREF
  2

  9
$PUCSORTHOVIEW
 70
     0
  9
$PUCSORGTOP
 10
0.0
 20
0.0
 30
0.0
  9
$PUCSORGBOTTOM
 10
0.0
 20
0.0
 30
0.0
  9
$PUCSORGLEFT
 10
0.0
 20
0.0
 30
0.0
  9
$PUCSORGRIGHT
 10
0.0
 20
0.0
 30
0.0
  9
$PUCSORGFRONT
 10
0.0
 20
0.0
 30
0.0
  9
$PUCSORGBACK
 10
0.0
 20
0.0
 30
0.0
  9
$USERI1
 70
     0
  9
$USERI2
 70
     0
  9
$USERI3
 70
     0
  9
$USERI4
 70
     0
  9
$USERI5
 70
     0
  9
$USERR1
 40
0.0
  9
$USERR2
 40
0.0
  9
$USERR3
 40
0.0
  9
$USERR4
 40
0.0
  9
$USERR5
 40
0.0
  9
$WORLDVIEW
 70
     1
  9
$SHADEDGE
 70
     3
  9
$SHADEDIF
 70
    70
  9
$TILEMODE
 70
     1
  9
$MAXACTVP
 70
    16
  9
$PINSBASE
 10
0.0
 20
0.0
 30
0.0
  9
$PLIMCHECK
 70
     0
  9
$PEXTMIN
 10
1.000000000000000E+20
 20
1.000000000000000E+20
 30
1.000000000000000E+20
  9
$PEXTMAX
 10
-1.000000000000000E+20
 20
-1.000000000000000E+20
 30
-1.000000000000000E+20
  9
$PLIMMIN
 10
0.0
 20
0.0
  9
$PLIMMAX
 10
12.0
 20
9.0
  9
$UNITMODE
 70
     0
  9
$VISRETAIN
 70
     0
  9
$PLINEGEN
 70
     0
  9
$PSLTSCALE
 70
     0
  9
$TREEDEPTH
 70
  3020
  9
$CMLSTYLE
  2
Standard
  9
$CMLJUST
 70
     0
  9
$CMLSCALE
 40
1.0
  9
$PROXYGRAPHICS
 70
     1
  9
$MEASUREMENT
 70
     0
  9
$CELWEIGHT
370
    -1
  9
$ENDCAPS
280
     0
  9
$JOINSTYLE
280
     0
  9
$LWDISPLAY
290
     0
  9
$INSUNITS
 70
     0
  9
$HYPERLINKBASE
  1

  9
$STYLESHEET
  1

  9
$XEDIT
290
     1
  9
$CEPSNTYPE
380
     0
  9
$PSTYLEMODE
290
     1
  9
$FINGERPRINTGUID
  2
{D68B0D02-A558-11D7-B632-000102183313}
  9
$VERSIONGUID
  2
{41439E61-CD50-4BE0-99F9-A9E3D43A5593}
  9
$EXTNAMES
290
     1
  9
$PSVPSCALE
 40
0.0
  9
$OLESTARTUP
290
     0
  9
$SORTENTS
280
   127
  9
$INDEXCTL
280
     0
  9
$HIDETEXT
280
     0
  9
$XCLIPFRAME
290
     0
  9
$HALOGAP
280
     0
  9
$OBSCOLOR
 70
   257
  9
$OBSLTYPE
280
     0
  9
$INTERSECTIONDISPLAY
280
     0
  9
$INTERSECTIONCOLOR
 70
   257
  9
$DIMASSOC
280
     1
  9
$PROJECTNAME
  1

  0
ENDSEC
  0
SECTION
  2
CLASSES
  0
CLASS
  1
ACDBDICTIONARYWDFLT
  2
AcDbDictionaryWithDefault
  3
ObjectDBX Classes
 90
        0
 91
        1
280
     0
281
     0
  0
CLASS
  1
DICTIONARYVAR
  2
AcDbDictionaryVar
  3
ObjectDBX Classes
 90
        0
 91
        2
280
     0
281
     0
  0
ENDSEC
  0
SECTION
  2
TABLES
  0
TABLE
  2
VPORT
  5
8
330
0
100
AcDbSymbolTable
 70
     2
  0
VPORT
  5
1499
330
8
100
AcDbSymbolTableRecord
100
AcDbViewportTableRecord
  2
*Active
 70
     0
 10
0.0
 20
0.0
 11
1.0
 21
1.0
 12
210.0000122244892
 22
297.0000172889198
 13
0.0
 23
0.0
 14
1.0
 24
1.0
 15
10.0
 25
10.0
 16
0.0
 26
0.0
 36
1.0
 17
0.0
 27
0.0
 37
0.0
 40
598.9002198542188
 41
1.336927223719676
 42
50.0
 43
0.0
 44
0.0
 50
0.0
 51
0.0
 71
     0
 72
  1500
 73
     1
 74
     0
 75
     0
 76
     0
 77
     0
 78
     0
281
     0
 65
     1
110
0.0
120
0.0
130
0.0
111
1.0
121
0.0
131
0.0
112
0.0
122
1.0
132
0.0
 79
     0
146
0.0
  0
ENDTAB
  0
TABLE
  2
LTYPE
  5
5
330
0
100
AcDbSymbolTable
 70
     3
  0
LTYPE
  5
13
330
5
100
AcDbSymbolTableRecord
100
AcDbLinetypeTableRecord
  2
ByBlock
 70
     0
  3

 72
    65
 73
     0
 40
0.0
  0
LTYPE
  5
14
330
5
100
AcDbSymbolTableRecord
100
AcDbLinetypeTableRecord
  2
ByLayer
 70
     0
  3

 72
    65
 73
     0
 40
0.0
  0
LTYPE
  5
15
330
5
100
AcDbSymbolTableRecord
100
AcDbLinetypeTableRecord
  2
Continuous
 70
     0
  3
Solid line
 72
    65
 73
     0
 40
0.0
  0
LTYPE
  5
25
330
5
100
AcDbSymbolTableRecord
100
AcDbLinetypeTableRecord
  2
STRICHPUNKT
 70
     0
  3
__ . __ . __ . __ . __ . __ . __ . __ . __ . __
 72
    65
 73
     4
 40
1.0
 49
0.5
 74
     0
 49
-0.25
 74
     0
 49
0.0
 74
     0
 49
-0.25
 74
     0
  0
LTYPE
  5
32
330
5
100
AcDbSymbolTableRecord
100
AcDbLinetypeTableRecord
  2
AUSGEZOGEN
 70
     0
  3
Ausgezogene Linie
 72
    65
 73
     0
 40
0.0
  0
ENDTAB
  0
TABLE
  2
LAYER
  5
2
330
0
100
AcDbSymbolTable
 70
     9
  0
LAYER
  5
10
330
2
100
AcDbSymbolTableRecord
100
AcDbLayerTableRecord
  2
0
 70
     0
 62
     7
  6
Continuous
370
    -3
390
F
  0
LAYER
  5
2A
330
2
100
AcDbSymbolTableRecord
100
AcDbLayerTableRecord
  2
VOLL
 70
     0
 62
     1
  6
Continuous
370
    -3
390
F
  0
LAYER
  5
2B
330
2
100
AcDbSymbolTableRecord
100
AcDbLayerTableRecord
  2
HILF
 70
     0
 62
     2
  6
Continuous
370
    -3
390
F
  0
LAYER
  5
2C
330
2
100
AcDbSymbolTableRecord
100
AcDbLayerTableRecord
  2
MITTEL
 70
     0
 62
     2
  6
STRICHPUNKT
370
    -3
390
F
  0
LAYER
  5
2F
330
2
100
AcDbSymbolTableRecord
100
AcDbLayerTableRecord
  2
BEM
 70
     0
 62
     7
  6
Continuous
370
    -3
390
F
  0
LAYER
  5
30
330
2
100
AcDbSymbolTableRecord
100
AcDbLayerTableRecord
  2
STEMPEL
 70
     0
 62
     3
  6
Continuous
370
    -3
390
F
  0
LAYER
  5
31
330
2
100
AcDbSymbolTableRecord
100
AcDbLayerTableRecord
  2
TEXT
 70
     0
 62
     7
  6
Continuous
370
    -3
390
F
  0
LAYER
  5
474
330
2
100
AcDbSymbolTableRecord
100
AcDbLayerTableRecord
  2
DEFPOINTS
 70
     0
 62
     7
  6
AUSGEZOGEN
290
     0
370
    -3
390
F
  0
LAYER
  5
475
330
2
100
AcDbSymbolTableRecord
100
AcDbLayerTableRecord
  2
SCHRAFF
 70
     0
 62
     7
  6
AUSGEZOGEN
370
    -3
390
F
  0
ENDTAB
  0
TABLE
  2
STYLE
  5
3
330
0
100
AcDbSymbolTable
 70
     2
  0
STYLE
  5
11
330
3
100
AcDbSymbolTableRecord
100
AcDbTextStyleTableRecord
  2
STANDARD
 70
     0
 40
0.0
 41
0.8
 50
0.0
 71
     0
 42
3.5
  3
simplex.shx
  4

  0
STYLE
  5
24
330
3
100
AcDbSymbolTableRecord
100
AcDbTextStyleTableRecord
  2
GREEKS
 70
     0
 40
0.0
 41
0.8
 50
0.0
 71
     0
 42
2.5
  3
SIMPLEX.shx
  4

  0
ENDTAB
  0
TABLE
  2
VIEW
  5
6
330
0
100
AcDbSymbolTable
 70
     0
  0
ENDTAB
  0
TABLE
  2
UCS
  5
7
330
0
100
AcDbSymbolTable
 70
     0
  0
ENDTAB
  0
TABLE
  2
APPID
  5
9
330
0
100
AcDbSymbolTable
 70
     1
  0
APPID
  5
12
330
9
100
AcDbSymbolTableRecord
100
AcDbRegAppTableRecord
  2
ACAD
 70
     0
  0
ENDTAB
  0
TABLE
  2
DIMSTYLE
  5
A
330
0
100
AcDbSymbolTable
 70
     1
100
AcDbDimStyleTable
 71
     1
340
9D
  0
DIMSTYLE
105
9D
102
{ACAD_REACTORS
330
108F
330
1099
330
109E
330
1356
330
1357
330
1358
102
}
330
A
100
AcDbSymbolTableRecord
100
AcDbDimStyleTableRecord
  2
Standard
 70
     0
340
11
  0
ENDTAB
  0
TABLE
  2
BLOCK_RECORD
  5
1
330
0
100
AcDbSymbolTable
 70
     7
  0
BLOCK_RECORD
  5
1E
102
{ACAD_XDICTIONARY
360
A0
102
}
330
1
100
AcDbSymbolTableRecord
100
AcDbBlockTableRecord
  2
*Model_Space
340
21
  0
BLOCK_RECORD
  5
1A
102
{ACAD_XDICTIONARY
360
A2
102
}
330
1
100
AcDbSymbolTableRecord
100
AcDbBlockTableRecord
  2
*Paper_Space
340
1D
  0
BLOCK_RECORD
  5
22
330
1
100
AcDbSymbolTableRecord
100
AcDbBlockTableRecord
  2
LOGO
340
0
102
{BLKREFS
331
11AA
102
}
  0
BLOCK_RECORD
  5
11CB
330
1
100
AcDbSymbolTableRecord
100
AcDbBlockTableRecord
  2
*D1
340
0
  0
BLOCK_RECORD
  5
11D7
330
1
100
AcDbSymbolTableRecord
100
AcDbBlockTableRecord
  2
*D2
340
0
  0
BLOCK_RECORD
  5
11E3
330
1
100
AcDbSymbolTableRecord
100
AcDbBlockTableRecord
  2
*D3
340
0
  0
BLOCK_RECORD
  5
1366
330
1
100
AcDbSymbolTableRecord
100
AcDbBlockTableRecord
  2
*D4
340
0
  0
BLOCK_RECORD
  5
1372
330
1
100
AcDbSymbolTableRecord
100
AcDbBlockTableRecord
  2
*D5
340
0
  0
BLOCK_RECORD
  5
137E
330
1
100
AcDbSymbolTableRecord
100
AcDbBlockTableRecord
  2
*D6
340
0
  0
ENDTAB
  0
ENDSEC
  0
SECTION
  2
BLOCKS
  0
BLOCK
  5
35
330
1E
100
AcDbEntity
  8
0
100
AcDbBlockBegin
  2
*Model_Space
 70
     0
 10
0.0
 20
0.0
 30
0.0
  3
*Model_Space
  1

  0
ENDBLK
  5
36
330
1E
100
AcDbEntity
  8
0
100
AcDbBlockEnd
  0
BLOCK
  5
33
330
1A
100
AcDbEntity
 67
     1
  8
0
100
AcDbBlockBegin
  2
*Paper_Space
 70
     0
 10
0.0
 20
0.0
 30
0.0
  3
*Paper_Space
  1

  0
ENDBLK
  5
34
330
1A
100
AcDbEntity
 67
     1
  8
0
100
AcDbBlockEnd
  0
BLOCK
  5
37
330
22
100
AcDbEntity
  8
0
100
AcDbBlockBegin
  2
LOGO
 70
     0
 10
0.0
 20
0.0
 30
0.0
  3
LOGO
  1

  0
ARC
  5
38
330
22
100
AcDbEntity
  8
0
100
AcDbCircle
 10
11.59973089678112
 20
-9.271599258481501
 30
0.0
 40
4.5
100
AcDbArc
 50
270.0
 51
231.0575587310159
  0
LINE
  5
39
330
22
100
AcDbEntity
  8
0
100
AcDbLine
 10
3.599730896781125
 20
-4.771599258481529
 30
0.0
 11
3.599730896781153
 21
-11.77159925848133
 31
0.0
  0
LINE
  5
3A
330
22
100
AcDbEntity
  8
0
100
AcDbLine
 10
2.599730896781125
 20
-4.771599258481529
 30
0.0
 11
2.599730896781153
 21
-11.77159925848133
 31
0.0
  0
CIRCLE
  5
3B
330
22
100
AcDbEntity
  8
0
100
AcDbCircle
 10
11.59973089678112
 20
-9.271599258481501
 30
0.0
 40
3.5
  0
ARC
  5
3C
330
22
100
AcDbEntity
  8
0
100
AcDbCircle
 10
31.59973089678115
 20
-9.271599258481472
 30
0.0
 40
4.5
100
AcDbArc
 50
270.0
 51
231.0575587310182
  0
LINE
  5
3D
330
22
100
AcDbEntity
  8
0
100
AcDbLine
 10
17.59973089678112
 20
-4.771599258481472
 30
0.0
 11
17.59973089678115
 21
-13.77159925848147
 31
0.0
  0
ARC
  5
3E
330
22
100
AcDbEntity
  8
0
100
AcDbCircle
 10
22.59973089678116
 20
-7.271599258481472
 30
0.0
 40
2.5
100
AcDbArc
 50
293.1161887722295
 51
90.0
  0
CIRCLE
  5
3F
330
22
100
AcDbEntity
  8
0
100
AcDbCircle
 10
31.59973089678115
 20
-9.271599258481472
 30
0.0
 40
3.5
  0
ARC
  5
40
330
22
100
AcDbEntity
  8
0
100
AcDbCircle
 10
4.599730896781153
 20
-11.77159925848133
 30
0.0
 40
1.0
100
AcDbArc
 50
180.0
 51
270.0
  0
ARC
  5
41
330
22
100
AcDbEntity
  8
0
100
AcDbCircle
 10
4.599730896781153
 20
-11.77159925848133
 30
0.0
 40
2.0
100
AcDbArc
 50
179.9999999999992
 51
270.0
  0
LINE
  5
42
330
22
100
AcDbEntity
  8
0
100
AcDbLine
 10
11.59973089678115
 20
-13.77159925848144
 30
0.0
 11
4.599730896781153
 21
-13.77159925848147
 31
0.0
  0
LINE
  5
43
330
22
100
AcDbEntity
  8
0
100
AcDbLine
 10
8.771303772034769
 20
-12.77159925848136
 30
0.0
 11
4.599730896781153
 21
-12.77159925848133
 31
0.0
  0
LINE
  5
44
330
22
100
AcDbEntity
  8
0
100
AcDbLine
 10
31.59973089678115
 20
-13.77159925848147
 30
0.0
 11
23.6715276665056
 21
-13.77159925848144
 31
0.0
  0
LINE
  5
45
330
22
100
AcDbEntity
  8
0
100
AcDbLine
 10
23.56565672307022
 20
-9.51278021337896
 30
0.0
 11
24.4388546544846
 21
-12.77159925848144
 31
0.0
  0
LINE
  5
46
330
22
100
AcDbEntity
  8
0
100
AcDbLine
 10
22.59973089678116
 20
-9.771599258481472
 30
0.0
 11
18.59973089678112
 21
-9.771599258481472
 31
0.0
  0
LINE
  5
47
330
22
100
AcDbEntity
  8
0
100
AcDbLine
 10
18.59973089678115
 20
-13.77159925848144
 30
0.0
 11
17.59973089678115
 21
-13.77159925848144
 31
0.0
  0
LINE
  5
48
330
22
100
AcDbEntity
  8
0
100
AcDbLine
 10
18.59973089678115
 20
-9.771599258481472
 30
0.0
 11
18.59973089678115
 21
-13.77159925848144
 31
0.0
  0
LINE
  5
49
330
22
100
AcDbEntity
  8
0
100
AcDbLine
 10
22.59973089678116
 20
-9.771599258481472
 30
0.0
 11
23.67152766650562
 21
-13.77159925848147
 31
0.0
  0
ARC
  5
4A
330
22
100
AcDbEntity
  8
0
100
AcDbCircle
 10
22.59973089678116
 20
-7.271599258481472
 30
0.0
 40
2.5
100
AcDbArc
 50
270.0
 51
270.0000000000007
  0
LINE
  5
4B
330
22
100
AcDbEntity
  8
0
100
AcDbLine
 10
28.77130377203494
 20
-12.77159925848147
 30
0.0
 11
24.43885465448463
 21
-12.77159925848144
 31
0.0
  0
LINE
  5
4C
330
22
100
AcDbEntity
  8
0
100
AcDbLine
 10
3.599730896781125
 20
-4.771599258481472
 30
0.0
 11
2.599730896781125
 21
-4.771599258481472
 31
0.0
  0
LINE
  5
4D
330
22
100
AcDbEntity
  8
0
100
AcDbLine
 10
22.59973089678116
 20
-8.771599258481472
 30
0.0
 11
18.59973089678115
 21
-8.771599258481472
 31
0.0
  0
LINE
  5
4E
330
22
100
AcDbEntity
  8
0
100
AcDbLine
 10
22.59973089678116
 20
-5.771599258481472
 30
0.0
 11
18.59973089678115
 21
-5.771599258481472
 31
0.0
  0
LINE
  5
4F
330
22
100
AcDbEntity
  8
0
100
AcDbLine
 10
22.59973089678116
 20
-4.771599258481472
 30
0.0
 11
17.59973089678115
 21
-4.771599258481472
 31
0.0
  0
LINE
  5
50
330
22
100
AcDbEntity
  8
0
100
AcDbLine
 10
18.59973089678115
 20
-5.771599258481472
 30
0.0
 11
18.59973089678115
 21
-8.771599258481472
 31
0.0
  0
ARC
  5
51
330
22
100
AcDbEntity
  8
0
100
AcDbCircle
 10
22.59973089678116
 20
-7.271599258481472
 30
0.0
 40
1.5
100
AcDbArc
 50
270.0
 51
90.0
  0
ENDBLK
  5
52
330
22
100
AcDbEntity
  8
0
100
AcDbBlockEnd
  0
BLOCK
  5
11D5
330
11CB
100
AcDbEntity
  8
0
100
AcDbBlockBegin
  2
*D1
 70
     1
 10
0.0
 20
0.0
 30
0.0
  3
*D1
  1

  0
LINE
  5
11EF
330
11CB
100
AcDbEntity
  8
BEM
 62
     0
370
    -2
100
AcDbLine
 10
162.7579896026309
 20
170.1638060849723
 30
0.0
 11
162.7579896026309
 21
134.3701605762961
 31
0.0
  0
LINE
  5
11F0
330
11CB
100
AcDbEntity
  8
BEM
 62
     0
370
    -2
100
AcDbLine
 10
295.7579896026309
 20
170.1638060849784
 30
0.0
 11
295.7579896026309
 21
134.3701605762961
 31
0.0
  0
LINE
  5
11F1
330
11CB
100
AcDbEntity
  8
BEM
 62
     0
370
    -2
100
AcDbLine
 10
169.7579896026309
 20
136.3701605762961
 30
0.0
 11
288.7579896026309
 21
136.3701605762961
 31
0.0
  0
SOLID
  5
11F2
330
11CB
100
AcDbEntity
  8
BEM
 62
     0
100
AcDbTrace
 10
169.7579896026309
 20
137.5368272429628
 30
0.0
 11
169.7579896026309
 21
135.2034939096295
 31
0.0
 12
162.7579896026309
 22
136.3701605762961
 32
0.0
 13
162.7579896026309
 23
136.3701605762961
 33
0.0
  0
SOLID
  5
11F3
330
11CB
100
AcDbEntity
  8
BEM
 62
     0
100
AcDbTrace
 10
288.7579896026309
 20
137.5368272429628
 30
0.0
 11
288.7579896026309
 21
135.2034939096295
 31
0.0
 12
295.7579896026309
 22
136.3701605762961
 32
0.0
 13
295.7579896026309
 23
136.3701605762961
 33
0.0
  0
MTEXT
  5
11F4
330
11CB
100
AcDbEntity
  8
BEM
 62
     1
100
AcDbMText
 10
229.2579896026309
 20
141.8701605762961
 30
0.0
 40
7.0
 41
0.0
 71
     5
 72
     1
  1
\A1;%%c133
  7
GREEKS
 73
     1
 44
1.0
  0
POINT
  5
11F5
330
11CB
100
AcDbEntity
  8
DEFPOINTS
 62
     0
100
AcDbPoint
 10
162.7579896026309
 20
172.1638060849723
 30
0.0
  0
POINT
  5
11F6
330
11CB
100
AcDbEntity
  8
DEFPOINTS
 62
     0
100
AcDbPoint
 10
295.7579896026309
 20
172.1638060849784
 30
0.0
  0
POINT
  5
11F7
330
11CB
100
AcDbEntity
  8
DEFPOINTS
 62
     0
100
AcDbPoint
 10
295.7579896026309
 20
136.3701605762961
 30
0.0
  0
ENDBLK
  5
11D6
330
11CB
100
AcDbEntity
  8
0
100
AcDbBlockEnd
  0
BLOCK
  5
11E1
330
11D7
100
AcDbEntity
  8
0
100
AcDbBlockBegin
  2
*D2
 70
     1
 10
0.0
 20
0.0
 30
0.0
  3
*D2
  1

  0
LINE
  5
1262
330
11D7
100
AcDbEntity
  8
BEM
 62
     0
370
    -2
100
AcDbLine
 10
64.25798960263091
 20
440.163806084972
 30
0.0
 11
64.25798960263091
 21
487.81563759056
 31
0.0
  0
LINE
  5
1263
330
11D7
100
AcDbEntity
  8
BEM
 62
     0
370
    -2
100
AcDbLine
 10
394.2579896026304
 20
440.163806084972
 30
0.0
 11
394.2579896026304
 21
487.81563759056
 31
0.0
  0
LINE
  5
1264
330
11D7
100
AcDbEntity
  8
BEM
 62
     0
370
    -2
100
AcDbLine
 10
71.25798960263091
 20
485.8156375905601
 30
0.0
 11
387.2579896026305
 21
485.8156375905601
 31
0.0
  0
SOLID
  5
1265
330
11D7
100
AcDbEntity
  8
BEM
 62
     0
100
AcDbTrace
 10
71.25798960263091
 20
486.9823042572267
 30
0.0
 11
71.25798960263091
 21
484.6489709238934
 31
0.0
 12
64.25798960263091
 22
485.8156375905601
 32
0.0
 13
64.25798960263091
 23
485.8156375905601
 33
0.0
  0
SOLID
  5
1266
330
11D7
100
AcDbEntity
  8
BEM
 62
     0
100
AcDbTrace
 10
387.2579896026305
 20
486.9823042572267
 30
0.0
 11
387.2579896026305
 21
484.6489709238934
 31
0.0
 12
394.2579896026304
 22
485.8156375905601
 32
0.0
 13
394.2579896026304
 23
485.8156375905601
 33
0.0
  0
MTEXT
  5
1267
330
11D7
100
AcDbEntity
  8
BEM
 62
     1
100
AcDbMText
 10
229.2579896026307
 20
491.31563759056
 30
0.0
 40
7.0
 41
0.0
 71
     5
 72
     1
  1
\A1;%%c330
  7
GREEKS
 73
     1
 44
1.0
  0
POINT
  5
1268
330
11D7
100
AcDbEntity
  8
DEFPOINTS
 62
     0
100
AcDbPoint
 10
64.25798960263091
 20
438.163806084972
 30
0.0
  0
POINT
  5
1269
330
11D7
100
AcDbEntity
  8
DEFPOINTS
 62
     0
100
AcDbPoint
 10
394.2579896026304
 20
438.163806084972
 30
0.0
  0
POINT
  5
126A
330
11D7
100
AcDbEntity
  8
DEFPOINTS
 62
     0
100
AcDbPoint
 10
394.2579896026304
 20
485.8156375905601
 30
0.0
  0
ENDBLK
  5
11E2
330
11D7
100
AcDbEntity
  8
0
100
AcDbBlockEnd
  0
BLOCK
  5
11ED
330
11E3
100
AcDbEntity
  8
0
100
AcDbBlockBegin
  2
*D3
 70
     1
 10
0.0
 20
0.0
 30
0.0
  3
*D3
  1

  0
LINE
  5
13AF
330
11E3
100
AcDbEntity
  8
BEM
 62
     0
370
    -2
100
AcDbLine
 10
162.2452968825716
 20
155.1638060849719
 30
0.0
 11
41.35460005155385
 21
155.1638060849719
 31
0.0
  0
LINE
  5
13B0
330
11E3
100
AcDbEntity
  8
BEM
 62
     0
370
    -2
100
AcDbLine
 10
67.08641672737712
 20
435.1638060849719
 30
0.0
 11
41.35460005155391
 21
435.1638060849719
 31
0.0
  0
LINE
  5
13B1
330
11E3
100
AcDbEntity
  8
BEM
 62
     0
370
    -2
100
AcDbLine
 10
43.35460005155385
 20
162.1638060849719
 30
0.0
 11
43.35460005155391
 21
428.1638060849719
 31
0.0
  0
SOLID
  5
13B2
330
11E3
100
AcDbEntity
  8
BEM
 62
     0
100
AcDbTrace
 10
42.18793338488718
 20
162.1638060849719
 30
0.0
 11
44.52126671822052
 21
162.1638060849719
 31
0.0
 12
43.35460005155385
 22
155.1638060849719
 32
0.0
 13
43.35460005155385
 23
155.1638060849719
 33
0.0
  0
SOLID
  5
13B3
330
11E3
100
AcDbEntity
  8
BEM
 62
     0
100
AcDbTrace
 10
42.18793338488724
 20
428.1638060849719
 30
0.0
 11
44.52126671822057
 21
428.1638060849719
 31
0.0
 12
43.35460005155391
 22
435.1638060849719
 32
0.0
 13
43.35460005155391
 23
435.1638060849719
 33
0.0
  0
MTEXT
  5
13B4
330
11E3
100
AcDbEntity
  8
BEM
 62
     1
100
AcDbMText
 10
37.85460005155384
 20
295.1638060849719
 30
0.0
 40
7.0
 41
0.0
 71
     5
 72
     1
  1
\A1;280
  7
GREEKS
 11
0.0000000000000001
 21
1.0
 31
0.0
 73
     1
 44
1.0
  0
POINT
  5
13B5
330
11E3
100
AcDbEntity
  8
DEFPOINTS
 62
     0
100
AcDbPoint
 10
164.2452968825717
 20
155.1638060849719
 30
0.0
  0
POINT
  5
13B6
330
11E3
100
AcDbEntity
  8
DEFPOINTS
 62
     0
100
AcDbPoint
 10
69.08641672737712
 20
435.1638060849719
 30
0.0
  0
POINT
  5
13B7
330
11E3
100
AcDbEntity
  8
DEFPOINTS
 62
     0
100
AcDbPoint
 10
43.35460005155391
 20
435.1638060849719
 30
0.0
  0
ENDBLK
  5
11EE
330
11E3
100
AcDbEntity
  8
0
100
AcDbBlockEnd
  0
BLOCK
  5
1370
330
1366
100
AcDbEntity
  8
0
100
AcDbBlockBegin
  2
*D4
 70
     1
 10
0.0
 20
0.0
 30
0.0
  3
*D4
  1

  0
LINE
  5
13E3
330
1366
100
AcDbEntity
  8
BEM
 62
     0
370
    -2
100
AcDbLine
 10
134.2579896026307
 20
270.1638060849711
 30
0.0
 11
134.2579896026307
 21
248.5433493782631
 31
0.0
  0
LINE
  5
13E4
330
1366
100
AcDbEntity
  8
BEM
 62
     0
370
    -2
100
AcDbLine
 10
324.2579896026307
 20
270.1638060849711
 30
0.0
 11
324.2579896026307
 21
248.5433493782631
 31
0.0
  0
LINE
  5
13E5
330
1366
100
AcDbEntity
  8
BEM
 62
     0
370
    -2
100
AcDbLine
 10
141.2579896026307
 20
250.5433493782631
 30
0.0
 11
317.2579896026307
 21
250.5433493782631
 31
0.0
  0
SOLID
  5
13E6
330
1366
100
AcDbEntity
  8
BEM
 62
     0
100
AcDbTrace
 10
141.2579896026307
 20
251.7100160449297
 30
0.0
 11
141.2579896026307
 21
249.3766827115964
 31
0.0
 12
134.2579896026307
 22
250.5433493782631
 32
0.0
 13
134.2579896026307
 23
250.5433493782631
 33
0.0
  0
SOLID
  5
13E7
330
1366
100
AcDbEntity
  8
BEM
 62
     0
100
AcDbTrace
 10
317.2579896026307
 20
251.7100160449297
 30
0.0
 11
317.2579896026307
 21
249.3766827115964
 31
0.0
 12
324.2579896026307
 22
250.5433493782631
 32
0.0
 13
324.2579896026307
 23
250.5433493782631
 33
0.0
  0
MTEXT
  5
13E8
330
1366
100
AcDbEntity
  8
BEM
 62
     1
100
AcDbMText
 10
229.2579896026307
 20
257.0433493782631
 30
0.0
 40
7.0
 41
0.0
 71
     5
 72
     1
  1
\A1;%%c190
 73
     1
 44
1.0
  0
POINT
  5
13E9
330
1366
100
AcDbEntity
  8
DEFPOINTS
 62
     0
100
AcDbPoint
 10
134.2579896026307
 20
272.1638060849711
 30
0.0
  0
POINT
  5
13EA
330
1366
100
AcDbEntity
  8
DEFPOINTS
 62
     0
100
AcDbPoint
 10
324.2579896026307
 20
272.1638060849711
 30
0.0
  0
POINT
  5
13EB
330
1366
100
AcDbEntity
  8
DEFPOINTS
 62
     0
100
AcDbPoint
 10
324.2579896026307
 20
250.5433493782631
 30
0.0
  0
ENDBLK
  5
1371
330
1366
100
AcDbEntity
  8
0
100
AcDbBlockEnd
  0
BLOCK
  5
137C
330
1372
100
AcDbEntity
  8
0
100
AcDbBlockBegin
  2
*D5
 70
     1
 10
0.0
 20
0.0
 30
0.0
  3
*D5
  1

  0
LINE
  5
13A5
330
1372
100
AcDbEntity
  8
BEM
 62
     0
370
    -2
100
AcDbLine
 10
119.2579896026307
 20
434.163806084971
 30
0.0
 11
119.2579896026307
 21
472.8556644312868
 31
0.0
  0
LINE
  5
13A6
330
1372
100
AcDbEntity
  8
BEM
 62
     0
370
    -2
100
AcDbLine
 10
339.2579896026306
 20
434.163806084971
 30
0.0
 11
339.2579896026306
 21
472.8556644312868
 31
0.0
  0
LINE
  5
13A7
330
1372
100
AcDbEntity
  8
BEM
 62
     0
370
    -2
100
AcDbLine
 10
126.2579896026307
 20
470.8556644312868
 30
0.0
 11
332.2579896026306
 21
470.8556644312868
 31
0.0
  0
SOLID
  5
13A8
330
1372
100
AcDbEntity
  8
BEM
 62
     0
100
AcDbTrace
 10
126.2579896026307
 20
472.0223310979535
 30
0.0
 11
126.2579896026307
 21
469.68899776462
 31
0.0
 12
119.2579896026307
 22
470.8556644312868
 32
0.0
 13
119.2579896026307
 23
470.8556644312868
 33
0.0
  0
SOLID
  5
13A9
330
1372
100
AcDbEntity
  8
BEM
 62
     0
100
AcDbTrace
 10
332.2579896026306
 20
472.0223310979535
 30
0.0
 11
332.2579896026306
 21
469.68899776462
 31
0.0
 12
339.2579896026306
 22
470.8556644312868
 32
0.0
 13
339.2579896026306
 23
470.8556644312868
 33
0.0
  0
MTEXT
  5
13AA
330
1372
100
AcDbEntity
  8
BEM
 62
     1
100
AcDbMText
 10
229.2579896026306
 20
477.3556644312868
 30
0.0
 40
7.0
 41
0.0
 71
     5
 72
     1
  1
\A1;%%c220
 73
     1
 44
1.0
  0
POINT
  5
13AB
330
1372
100
AcDbEntity
  8
DEFPOINTS
 62
     0
100
AcDbPoint
 10
119.2579896026307
 20
432.163806084971
 30
0.0
  0
POINT
  5
13AC
330
1372
100
AcDbEntity
  8
DEFPOINTS
 62
     0
100
AcDbPoint
 10
339.2579896026306
 20
432.163806084971
 30
0.0
  0
POINT
  5
13AD
330
1372
100
AcDbEntity
  8
DEFPOINTS
 62
     0
100
AcDbPoint
 10
339.2579896026306
 20
470.8556644312868
 30
0.0
  0
ENDBLK
  5
137D
330
1372
100
AcDbEntity
  8
0
100
AcDbBlockEnd
  0
BLOCK
  5
1388
330
137E
100
AcDbEntity
  8
0
100
AcDbBlockBegin
  2
*D6
 70
     1
 10
0.0
 20
0.0
 30
0.0
  3
*D6
  1

  0
LINE
  5
13C1
330
137E
100
AcDbEntity
  8
BEM
 62
     0
370
    -2
100
AcDbLine
 10
134.9898943551284
 20
272.1638060849711
 30
0.0
 11
55.99856604171483
 21
272.1638060849711
 31
0.0
  0
LINE
  5
13C2
330
137E
100
AcDbEntity
  8
BEM
 62
     0
370
    -2
100
AcDbLine
 10
68.62195063331012
 20
432.1638060849719
 30
0.0
 11
55.99856604171487
 21
432.1638060849719
 31
0.0
  0
LINE
  5
13C3
330
137E
100
AcDbEntity
  8
BEM
 62
     0
370
    -2
100
AcDbLine
 10
57.99856604171483
 20
279.1638060849711
 30
0.0
 11
57.99856604171486
 21
425.1638060849718
 31
0.0
  0
SOLID
  5
13C4
330
137E
100
AcDbEntity
  8
BEM
 62
     0
100
AcDbTrace
 10
56.83189937504817
 20
279.1638060849711
 30
0.0
 11
59.16523270838149
 21
279.1638060849711
 31
0.0
 12
57.99856604171483
 22
272.1638060849711
 32
0.0
 13
57.99856604171483
 23
272.1638060849711
 33
0.0
  0
SOLID
  5
13C5
330
137E
100
AcDbEntity
  8
BEM
 62
     0
100
AcDbTrace
 10
56.8318993750482
 20
425.1638060849718
 30
0.0
 11
59.16523270838152
 21
425.1638060849718
 31
0.0
 12
57.99856604171487
 22
432.1638060849719
 32
0.0
 13
57.99856604171487
 23
432.1638060849719
 33
0.0
  0
MTEXT
  5
13C6
330
137E
100
AcDbEntity
  8
BEM
 62
     1
100
AcDbMText
 10
51.49856604171478
 20
352.1638060849715
 30
0.0
 40
7.0
 41
0.0
 71
     5
 72
     1
  1
\A1;160
 11
0.0000000000000001
 21
1.0
 31
0.0
 73
     1
 44
1.0
  0
POINT
  5
13C7
330
137E
100
AcDbEntity
  8
DEFPOINTS
 62
     0
100
AcDbPoint
 10
136.9898943551284
 20
272.1638060849711
 30
0.0
  0
POINT
  5
13C8
330
137E
100
AcDbEntity
  8
DEFPOINTS
 62
     0
100
AcDbPoint
 10
70.62195063331012
 20
432.1638060849719
 30
0.0
  0
POINT
  5
13C9
330
137E
100
AcDbEntity
  8
DEFPOINTS
 62
     0
100
AcDbPoint
 10
57.99856604171487
 20
432.1638060849719
 30
0.0
  0
ENDBLK
  5
1389
330
137E
100
AcDbEntity
  8
0
100
AcDbBlockEnd
  0
ENDSEC
  0
SECTION
  2
ENTITIES
  0
LINE
  5
83
330
1E
100
AcDbEntity
  8
STEMPEL
100
AcDbLine
 10
39.99999999999989
 20
10.0
 30
0.0
 11
410.0
 21
10.0
 31
0.0
  0
LINE
  5
85
330
1E
100
AcDbEntity
  8
STEMPEL
100
AcDbLine
 10
410.0
 20
10.0
 30
0.0
 11
29.99999999999989
 21
10.0
 31
0.0
  0
LINE
  5
86
330
1E
100
AcDbEntity
  8
STEMPEL
100
AcDbLine
 10
410.0
 20
10.0
 30
0.0
 11
410.0
 21
584.0
 31
0.0
  0
LINE
  5
87
330
1E
100
AcDbEntity
  8
STEMPEL
100
AcDbLine
 10
30.0
 20
10.0
 30
0.0
 11
29.99999999999989
 21
584.0
 31
0.0
  0
LINE
  5
88
330
1E
100
AcDbEntity
  8
STEMPEL
100
AcDbLine
 10
410.0
 20
584.0
 30
0.0
 11
29.99999999999989
 21
584.0
 31
0.0
  0
LINE
  5
89
330
1E
100
AcDbEntity
  8
HILF
100
AcDbLine
 10
0.0
 20
0.0
 30
0.0
 11
-0.0000000000001137
 21
594.0
 31
0.0
  0
LINE
  5
8A
330
1E
100
AcDbEntity
  8
HILF
100
AcDbLine
 10
419.9999999999999
 20
594.0000000000002
 30
0.0
 11
0.0
 21
594.0
 31
0.0
  0
LINE
  5
8B
330
1E
100
AcDbEntity
  8
HILF
100
AcDbLine
 10
420.0
 20
0.0
 30
0.0
 11
0.0
 21
0.0
 31
0.0
  0
LINE
  5
8C
330
1E
100
AcDbEntity
  8
HILF
100
AcDbLine
 10
31.08767135713856
 20
297.0
 30
0.0
 11
0.0000000000001137
 21
297.0
 31
0.0
  0
LINE
  5
8E
330
1E
100
AcDbEntity
  8
HILF
100
AcDbLine
 10
420.0
 20
-0.0000000000001137
 30
0.0
 11
419.9999999999999
 21
594.0
 31
0.0
  0
TEXT
  5
8F
330
1E
100
AcDbEntity
  8
VOLL
100
AcDbText
 10
78.07675471698113
 20
31.02594776470585
 30
0.0
 40
1.8
  1

  7
GREEKS
100
AcDbText
  0
TEXT
  5
118
330
1E
100
AcDbEntity
  8
TEXT
100
AcDbText
 10
417.3022923857165
 20
10.16790107998849
 30
0.0
 40
4.0
  1
Diese Zeichnung ist urheberrechtlich geschützt und bleibt unser Eigentum. Sie darf weder ganz noch teilweise verfielfältigt und nicht an Dritte weitergegeben werden.
 50
90.0
 41
0.8
  7
GREEKS
100
AcDbText
  0
LINE
  5
AC7
330
1E
100
AcDbEntity
  8
STEMPEL
100
AcDbLine
 10
410.0
 20
110.0
 30
0.0
 11
29.99999999999998
 21
110.0
 31
0.0
  0
LINE
  5
AC8
330
1E
100
AcDbEntity
  8
STEMPEL
100
AcDbLine
 10
49.99999999999989
 20
10.0
 30
0.0
 11
410.0
 21
10.0
 31
0.0
  0
LINE
  5
AC9
330
1E
100
AcDbEntity
  8
STEMPEL
100
AcDbLine
 10
410.0
 20
10.0
 30
0.0
 11
39.99999999999989
 21
10.0
 31
0.0
  0
TEXT
  5
ACF
330
1E
100
AcDbEntity
  8
TEXT
100
AcDbText
 10
42.32142973901864
 20
112.7871664996321
 30
0.0
 40
5.0
  1
Erstellt mit AUTOCAD 2004
 41
0.8
  7
GREEKS
100
AcDbText
  0
TEXT
  5
AD0
330
1E
100
AcDbEntity
  8
TEXT
100
AcDbText
 10
62.62737065767236
 20
18.67381894984134
 30
0.0
 40
4.0
  1
Änderung
 41
0.8
  7
GREEKS
 72
     1
 11
73.37022780052951
 21
18.67381894984134
 31
0.0
100
AcDbText
  0
LINE
  5
AD1
330
1E
100
AcDbEntity
  8
HILF
100
AcDbLine
 10
29.99999999999998
 20
100.0
 30
0.0
 11
146.0000000000001
 21
100.0
 31
0.0
  0
LINE
  5
AD2
330
1E
100
AcDbEntity
  8
HILF
100
AcDbLine
 10
29.99999999999998
 20
90.00000000000005
 30
0.0
 11
146.0000000000001
 21
90.00000000000005
 31
0.0
  0
LINE
  5
AD3
330
1E
100
AcDbEntity
  8
HILF
100
AcDbLine
 10
29.99999999999999
 20
79.99999999999996
 30
0.0
 11
146.0000000000001
 21
79.99999999999994
 31
0.0
  0
LINE
  5
AD4
330
1E
100
AcDbEntity
  8
STEMPEL
100
AcDbLine
 10
145.9999999999999
 20
30.0
 30
0.0
 11
30.0
 21
30.0
 31
0.0
  0
LINE
  5
AD5
330
1E
100
AcDbEntity
  8
HILF
100
AcDbLine
 10
29.99999999999999
 20
70.0
 30
0.0
 11
146.0000000000001
 21
70.0
 31
0.0
  0
LINE
  5
AD6
330
1E
100
AcDbEntity
  8
HILF
100
AcDbLine
 10
29.99999999999999
 20
60.0
 30
0.0
 11
146.0000000000001
 21
60.0
 31
0.0
  0
LINE
  5
AD7
330
1E
100
AcDbEntity
  8
HILF
100
AcDbLine
 10
29.99999999999999
 20
50.0
 30
0.0
 11
146.0000000000001
 21
50.0
 31
0.0
  0
LINE
  5
AD8
330
1E
100
AcDbEntity
  8
HILF
100
AcDbLine
 10
30.0
 20
40.0
 30
0.0
 11
146.0000000000001
 21
40.0
 31
0.0
  0
TEXT
  5
AD9
330
1E
100
AcDbEntity
  8
TEXT
100
AcDbText
 10
39.0984531395901
 20
13.65465846027189
 30
0.0
 40
4.0
  1
Index
 50
90.0
 41
0.8
  7
GREEKS
100
AcDbText
  0
LINE
  5
ADA
330
1E
100
AcDbEntity
  8
VOLL
100
AcDbLine
 10
44.83204206913263
 20
110.0
 30
0.0
 11
44.83204206913251
 21
10.0
 31
0.0
  0
TEXT
  5
ADB
330
1E
100
AcDbEntity
  8
TEXT
100
AcDbText
 10
109.5776045897335
 20
18.67156269339807
 30
0.0
 40
4.0
  1
Tag
 41
0.8
  7
GREEKS
 72
     1
 11
113.3109379230668
 21
18.67156269339807
 31
0.0
100
AcDbText
  0
LINE
  5
ADC
330
1E
100
AcDbEntity
  8
VOLL
100
AcDbLine
 10
124.0000000000001
 20
109.9999999999999
 30
0.0
 11
124.0
 21
10.0
 31
0.0
  0
LINE
  5
ADD
330
1E
100
AcDbEntity
  8
VOLL
100
AcDbLine
 10
104.0000000000001
 20
109.9999999999999
 30
0.0
 11
104.0
 21
10.0
 31
0.0
  0
TEXT
  5
ADE
330
1E
100
AcDbEntity
  8
TEXT
100
AcDbText
 10
128.8695483014987
 20
18.59324216966411
 30
0.0
 40
4.0
  1
Name
 41
0.8
  7
GREEKS
 72
     1
 11
135.1933578253082
 21
18.59324216966411
 31
0.0
100
AcDbText
  0
HATCH
  5
1089
330
1E
100
AcDbEntity
  8
SCHRAFF
100
AcDbHatch
 10
0.0
 20
0.0
 30
0.0
210
0.0
220
0.0
230
1.0
  2
_USER
 70
     0
 71
     0
 91
        2
 92
        7
 72
     1
 73
     1
 93
       18
 10
158.4579896026307
 20
307.6325255076425
 42
0.1413181575641217
 10
161.2222753169162
 20
298.0474845476844
 42
-0.1413181575641145
 10
162.7579896026309
 20
292.7224617921513
 42
0.0
 10
162.757989602631
 20
172.1638060849713
 42
0.0
 10
164.2452968825717
 20
155.1638060849719
 42
0.0
 10
166.2529365576583
 20
155.1638060849719
 42
0.0
 10
164.7579896026306
 20
172.2511279707921
 42
0.0
 10
164.7579896026305
 20
292.7224617921513
 42
0.1413181575641148
 10
162.9151324597733
 20
299.1124890987907
 42
-0.1413181575641199
 10
160.4579896026307
 20
307.6325255076425
 42
0.0
 10
160.4579896026307
 20
386.1638060849715
 42
0.1095429991352503
 10
158.5833037745099
 20
394.6179758354954
 42
-0.1095647526818655
 10
155.9579896026305
 20
406.4584035833911
 42
0.0
 10
155.9579896026305
 20
416.8330911148597
 42
0.0
 10
153.9579896026305
 20
412.5500243259021
 42
0.0
 10
153.9579896026305
 20
406.4548060849714
 42
0.1095291172821938
 10
156.7705792361563
 20
393.7729728887804
 42
-0.1095494204693623
 10
158.4579896026307
 20
386.1638060849698
 42
0.0
 97
        0
 92
        7
 72
     1
 73
     1
 93
       22
 10
300.0579896026307
 20
386.1638060849715
 42
-0.1095494205537608
 10
301.7453999716441
 20
393.7729728942237
 42
0.1095291172315498
 10
304.5579896026309
 20
406.4548060849714
 42
0.0
 10
304.5579896026309
 20
425.5614286405071
 42
0.1095178116832406
 10
301.7472232137302
 20
438.239976492728
 42
0.0
 10
301.3164344000371
 20
439.1638060849715
 42
0.0
 10
299.1096785621126
 20
439.1638060849714
 42
0.0
 10
299.9346076396569
 20
437.3947399692468
 42
-0.1095178116832459
 10
302.5579896026309
 20
425.5614286405068
 42
0.0
 10
302.5579896026309
 20
406.4584035834858
 42
-0.109564752697261
 10
299.9326754300711
 20
394.6179758340368
 42
0.109542999114913
 10
298.0579896026307
 20
386.1638060849697
 42
0.0
 10
298.0579896026307
 20
307.6325255076425
 42
-0.1413181575641339
 10
295.6008467454875
 20
299.1124890987899
 42
0.1413181575640995
 10
293.7579896026307
 20
292.7224617921512
 42
0.0
 10
293.7579896026307
 20
172.2511279707929
 42
0.0
 10
292.2630426476028
 20
155.1638060849718
 42
0.0
 10
294.2706823226895
 20
155.1638060849719
 42
0.0
 10
295.7579896026309
 20
172.1638060849779
 42
0.0
 10
295.7579896026309
 20
292.7224617921511
 42
-0.1413181575640853
 10
297.2937038883446
 20
298.0474845476832
 42
0.1413181575641394
 10
300.0579896026307
 20
307.6325255076425
 42
0.0
 97
        0
 75
     0
 76
     0
 52
135.0
 41
2.0
 77
     0
 78
     1
 53
135.0
 43
0.0
 44
0.0
 45
-1.414213562373095
 46
-1.414213562373094
 79
     0
 47
0.5623793280665894
 98
        2
 10
159.080891937509
 20
358.5026994198815
 10
299.2078072764448
 20
346.1303537457434
  0
HATCH
  5
108A
330
1E
100
AcDbEntity
  8
SCHRAFF
100
AcDbHatch
 10
0.0
 20
0.0
 30
0.0
210
0.0
220
0.0
230
1.0
  2
_USER
 70
     0
 71
     0
 91
        4
 92
        7
 72
     1
 73
     1
 93
       12
 10
139.4149165642261
 20
432.1638060849719
 42
-0.2553615373329216
 10
141.9394489100623
 20
430.7845270464048
 42
0.0
 10
150.9834572567948
 20
416.6970362625818
 42
0.0
 10
153.5079896026306
 20
418.3177572240147
 42
0.0
 10
144.463981255898
 20
432.405248007838
 42
0.2553615373328927
 10
139.4149165642261
 20
435.1638060849717
 42
0.0
 10
70.62195063331016
 20
435.1638060849719
 42
0.1989123673796689
 10
66.37930994619058
 20
433.4064467720913
 42
0.0
 10
64.25798960263101
 20
431.2851264285316
 42
0.0
 10
66.37930994619051
 20
429.1638060849717
 42
0.0
 10
68.50063028975057
 20
431.2851264285315
 42
-0.1989123673796555
 10
70.62195063331019
 20
432.1638060849719
 42
0.0
 97
        0
 92
        7
 72
     1
 73
     1
 93
        8
 10
387.8940285719517
 20
432.1638060849719
 42
-0.1989123673796481
 10
390.0153489155113
 20
431.2851264285315
 42
0.0
 10
392.1366692590713
 20
429.1638060849718
 42
0.0
 10
394.2579896026308
 20
431.2851264285315
 42
0.0
 10
392.1366692590713
 20
433.4064467720913
 42
0.1989123673796368
 10
387.8940285719521
 20
435.1638060849711
 42
0.0
 10
330.5713531068143
 20
435.1638060849712
 42
0.0
 10
328.9729129260909
 20
432.163806084972
 42
0.0
 97
        0
 92
        7
 72
     0
 73
     1
 93
        4
 10
324.9292395837628
 20
435.1638060849713
 10
323.7546607070193
 20
432.1638060849719
 10
328.9729129260909
 20
432.163806084972
 10
330.5713531068143
 20
435.1638060849713
 97
        0
 92
        7
 72
     1
 73
     1
 93
        8
 10
314.0519979493634
 20
432.4052480078381
 42
0.0
 10
305.0079896026308
 20
418.3177572240145
 42
0.0
 10
307.5325219484664
 20
416.6970362625818
 42
0.0
 10
316.5765302951992
 20
430.7845270464051
 42
-0.2553615373328771
 10
319.101062641035
 20
432.1638060849718
 42
0.0
 10
323.7546607070193
 20
432.1638060849719
 42
0.0
 10
324.9292395837628
 20
435.1638060849712
 42
0.0
 10
319.101062641035
 20
435.1638060849712
 42
0.2553615373328677
 97
        0
 75
     0
 76
     0
 52
45.0
 41
2.0
 77
     0
 78
     1
 53
45.0
 43
0.0
 44
0.0
 45
-1.414213562373094
 46
1.414213562373095
 79
     0
 47
0.4768581626667819
 98
        4
 10
119.9040471732269
 20
433.0693257200359
 10
348.473190843185
 20
433.0693257200359
 10
326.5229174806814
 20
434.0230420905349
 10
318.8880402800901
 20
434.0230420905349
  0
LINE
  5
108C
330
1E
100
AcDbEntity
  8
HILF
100
AcDbLine
 10
162.571548316057
 20
304.6060097018443
 30
0.0
 11
295.9444308892041
 21
304.6060097018443
 31
0.0
  0
LINE
  5
108D
330
1E
100
AcDbEntity
  8
HILF
100
AcDbLine
 10
166.5100827664187
 20
294.1412461809349
 30
0.0
 11
292.0058964388425
 21
294.1412461809349
 31
0.0
  0
LINE
  5
108E
330
1E
100
AcDbEntity
  8
HILF
100
AcDbLine
 10
162.124810837367
 20
388.7914085111253
 30
0.0
 11
296.3911683678941
 21
388.7914085111252
 31
0.0
  0
DIMENSION
  5
108F
330
1E
100
AcDbEntity
  8
BEM
100
AcDbDimension
  2
*D1
 10
295.7579896026309
 20
136.3701605762961
 30
0.0
 11
229.2579896026309
 21
141.8701605762961
 31
0.0
 70
    32
  1
%%c<>
 71
     5
 42
133.0
  3
Standard
100
AcDbAlignedDimension
 13
162.7579896026309
 23
172.1638060849723
 33
0.0
 14
295.7579896026309
 24
172.1638060849784
 34
0.0
100
AcDbRotatedDimension
1001
ACAD
1000
DSTYLE
1002
{
1070
    40
1040
2.0
1070
    41
1040
3.5
1070
    42
1040
1.0
1070
    43
1040
7.0
1070
    44
1040
1.0
1070
    47
1040
0.7
1070
    48
1040
0.7
1070
    73
1070
     0
1070
    74
1070
     0
1070
    77
1070
     1
1070
    78
1070
     8
1070
   140
1040
3.5
1070
   141
1040
1.5
1070
   146
1040
0.5142857142857144
1070
   147
1040
1.0
1070
   172
1070
     1
1070
   178
1070
     1
1070
   271
1070
     2
1070
   272
1070
     2
1070
   279
1070
     2
1070
   284
1070
     8
1070
   285
1070
     8
1070
   286
1070
     8
1070
   340
1005
24
1002
}
  0
LINE
  5
1090
330
1E
100
AcDbEntity
  8
HILF
100
AcDbLine
 10
166.7656292777176
 20
172.1638060849719
 30
0.0
 11
291.7503499275436
 21
172.1638060849719
 31
0.0
  0
LINE
  5
1091
330
1E
100
AcDbEntity
  8
STEMPEL
100
AcDbLine
 10
164.2452968825717
 20
155.1638060849719
 30
0.0
 11
294.2706823226895
 21
155.1638060849719
 31
0.0
  0
HATCH
  5
1093
330
1E
100
AcDbEntity
  8
SCHRAFF
100
AcDbHatch
 10
0.0
 20
0.0
 30
0.0
210
0.0
220
0.0
230
1.0
  2
_U
 70
     0
 71
     0
 91
        4
 92
        7
 72
     1
 73
     1
 93
        4
 10
95.25798960263092
 20
440.6638060849719
 42
0.0
 10
95.25798960263092
 20
446.663806084972
 42
0.0
 10
72.25798960263091
 20
446.6638060849719
 42
1.0
 10
72.25798960263091
 20
440.6638060849719
 42
0.0
 97
        0
 92
        7
 72
     1
 73
     1
 93
        4
 10
109.2579896026309
 20
446.6638060849721
 42
0.0
 10
109.2579896026309
 20
440.6638060849719
 42
0.0
 10
132.2579896026309
 20
440.6638060849719
 42
1.0
 10
132.2579896026309
 20
446.663806084972
 42
0.0
 97
        0
 92
        7
 72
     1
 73
     1
 93
        4
 10
326.2579896026305
 20
446.6638060849723
 42
1.0
 10
326.2579896026305
 20
440.6638060849718
 42
0.0
 10
349.2579896026305
 20
440.6638060849717
 42
0.0
 10
349.2579896026304
 20
446.6638060849722
 42
0.0
 97
        0
 92
        7
 72
     1
 73
     1
 93
        4
 10
386.2579896026304
 20
440.6638060849719
 42
1.0
 10
386.2579896026309
 20
446.6638060849724
 42
0.0
 10
363.2579896026304
 20
446.6638060849724
 42
0.0
 10
363.2579896026304
 20
440.6638060849719
 42
0.0
 97
        0
 75
     0
 76
     0
 52
135.0
 41
5.0
 77
     0
 78
     1
 53
135.0
 43
0.0
 44
0.0
 45
-3.535533905932737
 46
-3.535533905932737
 79
     0
 47
0.5122585957789356
 98
        4
 10
87.5219727472554
 20
443.6579636196404
 10
114.1788780365841
 20
444.6824803232689
 10
343.3257263943046
 20
444.6824803232689
 10
371.5205270883739
 20
443.145705267826
  0
LINE
  5
1094
330
1E
100
AcDbEntity
  8
STEMPEL
100
AcDbLine
 10
161.7579896026306
 20
439.1638060849714
 30
0.0
 11
296.7579896026307
 21
439.1638060849714
 31
0.0
  0
HATCH
  5
1095
330
1E
100
AcDbEntity
  8
SCHRAFF
100
AcDbHatch
 10
0.0
 20
0.0
 30
0.0
210
0.0
220
0.0
230
1.0
  2
NET
 70
     0
 71
     0
 91
        2
 92
        7
 72
     1
 73
     1
 93
       16
 10
161.7579896026306
 20
439.1638060849713
 42
0.0
 10
160.4384220028811
 20
444.0884994112585
 42
0.3370502855478927
 10
157.7579896026307
 20
446.163701850636
 42
0.3370502855479026
 10
155.0775572023802
 20
444.0884994112585
 42
0.0
 10
153.7579896026306
 20
439.1638060849714
 42
0.0
 10
159.4063006431488
 20
439.1638060849714
 42
0.0
 10
158.5813715656011
 20
437.3947399692396
 42
0.1095178116831741
 10
155.9579896026304
 20
425.5614286405069
 42
0.0
 10
155.9579896026304
 20
414.9259838946315
 42
0.0
 10
157.1754046082728
 20
414.9259838946315
 42
0.0
 10
158.5579896026306
 20
419.1638060849714
 42
0.0
 10
159.1011353531382
 20
419.1638060849714
 42
0.3178372451957828
 10
164.7579896026306
 20
415.1638060849714
 42
0.0
 10
167.7579896026306
 20
415.1638060849714
 42
0.0
 10
167.7579896026306
 20
417.1638060849715
 42
-0.4142135623730951
 10
161.7579896026306
 20
423.1638060849714
 42
0.0
 97
        0
 92
        7
 72
     1
 73
     1
 93
       16
 10
299.9346076396599
 20
437.39473996924
 42
0.0
 10
299.1096785621123
 20
439.1638060849715
 42
0.0
 10
304.7579896026304
 20
439.1638060849715
 42
0.0
 10
303.438422002881
 20
444.0884994112584
 42
0.337050285547893
 10
300.7579896026306
 20
446.163701850636
 42
0.3370502855478887
 10
298.0775572023802
 20
444.0884994112585
 42
0.0
 10
296.7579896026306
 20
439.1638060849714
 42
0.0
 10
296.7579896026306
 20
423.1638060849714
 42
-0.4142135623730951
 10
290.7579896026306
 20
417.1638060849715
 42
0.0
 10
290.7579896026306
 20
415.1638060849714
 42
0.0
 10
293.7579896026306
 20
415.1638060849714
 42
0.3178372451957814
 10
299.4148438521229
 20
419.1638060849714
 42
0.0
 10
299.9579896026305
 20
419.1638060849714
 42
0.0
 10
301.3405745969883
 20
414.9259838946315
 42
0.0
 10
302.5579896026309
 20
414.9259838946315
 42
0.0
 10
302.5579896026309
 20
425.5614286405072
 42
0.1095178116831741
 97
        0
 75
     0
 76
     1
 52
45.0
 41
15.0
 77
     0
 78
     2
 53
45.0
 43
0.0
 44
0.0
 45
-1.325825214724776
 46
1.325825214724776
 79
     0
 53
135.0
 43
0.0
 44
0.0
 45
-1.325825214724776
 46
-1.325825214724776
 79
     0
 47
0.2341892865663445
 98
        2
 10
157.6850581223529
 20
425.777387378649
 10
298.7513135349404
 20
431.3979293199958
  0
LINE
  5
1096
330
1E
100
AcDbEntity
  8
STEMPEL
100
AcDbLine
 10
290.7579896026307
 20
417.1638060849715
 30
0.0
 11
167.7579896026306
 21
417.1638060849715
 31
0.0
  0
LINE
  5
1097
330
1E
100
AcDbEntity
  8
STEMPEL
100
AcDbLine
 10
293.7579896026307
 20
415.1638060849714
 30
0.0
 11
164.7579896026306
 21
415.1638060849714
 31
0.0
  0
LINE
  5
1098
330
1E
100
AcDbEntity
  8
STEMPEL
100
AcDbLine
 10
300.7338296892717
 20
446.1638060849715
 30
0.0
 11
157.7821495159896
 21
446.1638060849715
 31
0.0
  0
DIMENSION
  5
1099
330
1E
100
AcDbEntity
  8
BEM
100
AcDbDimension
  2
*D2
 10
394.2579896026304
 20
485.8156375905601
 30
0.0
 11
229.2579896026307
 21
491.31563759056
 31
0.0
 70
    32
  1
%%c<>
 71
     5
 42
329.9999999999995
  3
Standard
100
AcDbAlignedDimension
 13
64.25798960263091
 23
438.163806084972
 33
0.0
 14
394.2579896026304
 24
438.163806084972
 34
0.0
100
AcDbRotatedDimension
1001
ACAD
1000
DSTYLE
1002
{
1070
    40
1040
2.0
1070
    41
1040
3.5
1070
    42
1040
1.0
1070
    43
1040
7.0
1070
    44
1040
1.0
1070
    47
1040
0.7
1070
    48
1040
0.7
1070
    73
1070
     0
1070
    74
1070
     0
1070
    77
1070
     1
1070
    78
1070
     8
1070
   140
1040
3.5
1070
   141
1040
1.5
1070
   146
1040
0.5142857142857144
1070
   147
1040
1.0
1070
   172
1070
     1
1070
   178
1070
     1
1070
   271
1070
     2
1070
   272
1070
     2
1070
   279
1070
     2
1070
   284
1070
     8
1070
   285
1070
     8
1070
   286
1070
     8
1070
   340
1005
24
1002
}
  0
LINE
  5
109A
330
1E
100
AcDbEntity
  8
STEMPEL
100
AcDbLine
 10
205.8337941517846
 20
460.6638060849718
 30
0.0
 11
220.8337941517846
 21
460.6638060849718
 31
0.0
  0
LINE
  5
109B
330
1E
100
AcDbEntity
  8
STEMPEL
100
AcDbLine
 10
72.25798960263091
 20
446.6638060849719
 30
0.0
 11
386.2579896026309
 21
446.6638060849724
 31
0.0
  0
ARC
  5
109C
330
1E
100
AcDbEntity
  8
STEMPEL
  6
Continuous
100
AcDbCircle
 10
152.7579896026298
 20
292.7224617921513
 30
0.0
 40
12.00000000000085
100
AcDbArc
 50
0.0
 51
32.17467992952127
  0
ARC
  5
109D
330
1E
100
AcDbEntity
  8
STEMPEL
  6
Continuous
100
AcDbCircle
 10
152.7579896026293
 20
292.7224617921511
 30
0.0
 40
10.00000000000133
100
AcDbArc
 50
0.0
 51
32.17467992952127
  0
DIMENSION
  5
109E
330
1E
100
AcDbEntity
  8
BEM
100
AcDbDimension
  2
*D3
 10
43.35460005155391
 20
435.1638060849719
 30
0.0
 11
37.85460005155384
 21
295.1638060849719
 31
0.0
 70
    32
 71
     5
 42
280.0
  3
Standard
100
AcDbAlignedDimension
 13
164.2452968825717
 23
155.1638060849719
 33
0.0
 14
69.08641672737712
 24
435.1638060849719
 34
0.0
 50
90.0
100
AcDbRotatedDimension
1001
ACAD
1000
DSTYLE
1002
{
1070
    40
1040
2.0
1070
    41
1040
3.5
1070
    42
1040
1.0
1070
    43
1040
7.0
1070
    44
1040
1.0
1070
    47
1040
0.7
1070
    48
1040
0.7
1070
    73
1070
     0
1070
    74
1070
     0
1070
    77
1070
     1
1070
    78
1070
     8
1070
   140
1040
3.5
1070
   141
1040
1.5
1070
   146
1040
0.5142857142857144
1070
   147
1040
1.0
1070
   172
1070
     1
1070
   178
1070
     1
1070
   271
1070
     2
1070
   272
1070
     2
1070
   279
1070
     2
1070
   284
1070
     8
1070
   285
1070
     8
1070
   286
1070
     8
1070
   340
1005
24
1002
}
  0
LINE
  5
109F
330
1E
100
AcDbEntity
  8
STEMPEL
  6
Continuous
100
AcDbLine
 10
162.7579896026309
 20
292.7224617921511
 30
0.0
 11
162.757989602631
 21
172.1638060849723
 31
0.0
  0
LINE
  5
10A0
330
1E
100
AcDbEntity
  8
STEMPEL
  6
Continuous
100
AcDbLine
 10
164.7579896026305
 20
292.7224617921513
 30
0.0
 11
164.7579896026307
 21
172.1638060849723
 31
0.0
  0
LINE
  5
10A1
330
1E
100
AcDbEntity
  8
STEMPEL
100
AcDbLine
 10
162.7579896026309
 20
172.1638060849723
 30
0.0
 11
164.2452968825717
 21
155.1638060849719
 31
0.0
  0
LINE
  5
10A2
330
1E
100
AcDbEntity
  8
STEMPEL
100
AcDbLine
 10
164.7579896026309
 20
172.2511279707894
 30
0.0
 11
166.2529365576583
 21
155.1638060849719
 31
0.0
  0
LINE
  5
10A3
330
1E
100
AcDbEntity
  8
TEXT
 62
     2
100
AcDbLine
 10
62.40002971100924
 20
518.4152028182518
 30
0.0
 11
71.1043411697957
 21
487.81563759056
 31
0.0
  0
LINE
  5
10A4
330
1E
100
AcDbEntity
  8
STEMPEL
100
AcDbLine
 10
70.62195063331012
 20
432.1638060849719
 30
0.0
 11
139.4149165642261
 21
432.1638060849719
 31
0.0
  0
LINE
  5
10A5
330
1E
100
AcDbEntity
  8
STEMPEL
100
AcDbLine
 10
66.37930994619035
 20
429.1638060849715
 30
0.0
 11
119.5392396026306
 21
429.1638060849714
 31
0.0
  0
LINE
  5
10A6
330
1E
100
AcDbEntity
  8
TEXT
 62
     2
100
AcDbLine
 10
312.8229276692564
 20
549.6510106755742
 30
0.0
 11
209.9192567398936
 21
549.651010675574
 31
0.0
  0
TEXT
  5
10A7
330
1E
100
AcDbEntity
  8
TEXT
 62
     1
100
AcDbText
 10
210.6495112039105
 20
540.2160068007885
 30
0.0
 40
7.0
  1
EDV-Art.Nr. 00911.125X
 41
0.8
  7
GREEKS
100
AcDbText
  0
TEXT
  5
10A8
330
1E
100
AcDbEntity
  8
TEXT
 62
     1
100
AcDbText
 10
210.6495112039105
 20
553.2637789477678
 30
0.0
 40
7.0
  1
Dichtelement DN125
 41
0.8
  7
GREEKS
100
AcDbText
  0
TEXT
  5
10A9
330
1E
100
AcDbEntity
  8
TEXT
 62
     1
100
AcDbText
 10
68.50467969974852
 20
508.6776701435883
 30
0.0
 40
7.0
  1
EDV-Art.Nr. 21905.125X
 41
0.8
  7
GREEKS
100
AcDbText
  0
LINE
  5
10AA
330
1E
100
AcDbEntity
  8
TEXT
 62
     2
100
AcDbLine
 10
62.40002971100924
 20
518.4152028182518
 30
0.0
 11
173.0150611489325
 21
518.4152028182518
 31
0.0
  0
TEXT
  5
10AB
330
1E
100
AcDbEntity
  8
TEXT
 62
     1
100
AcDbText
 10
68.22027387557909
 20
520.6520728944743
 30
0.0
 40
7.0
  1
Losflansch DN125
 41
0.8
  7
GREEKS
100
AcDbText
  0
LINE
  5
10AC
330
1E
100
AcDbEntity
  8
STEMPEL
100
AcDbLine
 10
72.25798960263091
 20
440.6638060849719
 30
0.0
 11
97.25798960263091
 21
440.6638060849719
 31
0.0
  0
LINE
  5
10AE
102
{ACAD_REACTORS
330
127D
102
}
330
1E
100
AcDbEntity
  8
STEMPEL
100
AcDbLine
 10
64.25798960263091
 20
438.163806084972
 30
0.0
 11
97.25798960263091
 21
438.163806084972
 31
0.0
  0
LINE
  5
10AF
102
{ACAD_REACTORS
330
127D
102
}
330
1E
100
AcDbEntity
  8
STEMPEL
100
AcDbLine
 10
64.25798960263091
 20
435.1638060849719
 30
0.0
 11
155.5362664420964
 21
435.1638060849716
 31
0.0
  0
LINE
  5
10B0
102
{ACAD_REACTORS
330
127D
102
}
330
1E
100
AcDbEntity
  8
STEMPEL
100
AcDbLine
 10
64.25798960263091
 20
438.1638060849719
 30
0.0
 11
64.25798960263091
 21
435.1638060849719
 31
0.0
  0
ARC
  5
10B1
330
1E
100
AcDbEntity
  8
STEMPEL
100
AcDbCircle
 10
70.62195063331012
 20
429.1638060849718
 30
0.0
 40
6.0
100
AcDbArc
 50
90.0
 51
135.0
  0
ARC
  5
10B2
330
1E
100
AcDbEntity
  8
STEMPEL
100
AcDbCircle
 10
70.62195063331012
 20
429.1638060849718
 30
0.0
 40
3.0
100
AcDbArc
 50
90.0
 51
135.0
  0
LINE
  5
10B3
330
1E
100
AcDbEntity
  8
STEMPEL
100
AcDbLine
 10
66.37930994619058
 20
429.1638060849718
 30
0.0
 11
68.50063028975057
 21
431.2851264285315
 31
0.0
  0
LINE
  5
10B4
330
1E
100
AcDbEntity
  8
STEMPEL
100
AcDbLine
 10
64.25798960263103
 20
431.2851264285315
 30
0.0
 11
66.37930994619058
 21
433.4064467720913
 31
0.0
  0
LINE
  5
10B5
330
1E
100
AcDbEntity
  8
STEMPEL
100
AcDbLine
 10
64.25798960263103
 20
431.2851264285315
 30
0.0
 11
66.37930994619058
 21
429.1638060849717
 31
0.0
  0
ARC
  5
10B6
330
1E
100
AcDbEntity
  8
STEMPEL
100
AcDbCircle
 10
72.25798960263091
 20
443.6638060849719
 30
0.0
 40
3.0
100
AcDbArc
 50
90.0
 51
270.0
  0
ARC
  5
10B9
330
1E
100
AcDbEntity
  8
STEMPEL
100
AcDbCircle
 10
139.4149165642261
 20
429.1638060849723
 30
0.0
 40
6.0
100
AcDbArc
 50
32.70000000000014
 51
90.0
  0
LINE
  5
10BA
330
1E
100
AcDbEntity
  8
STEMPEL
100
AcDbLine
 10
141.9394489100621
 20
430.7845270464051
 30
0.0
 11
150.9834572567947
 21
416.6970362625818
 31
0.0
  0
LINE
  5
10BB
330
1E
100
AcDbEntity
  8
STEMPEL
100
AcDbLine
 10
107.2579896026309
 20
440.6638060849719
 30
0.0
 11
154.1599133912773
 21
440.6638060849718
 31
0.0
  0
LINE
  5
10BD
102
{ACAD_REACTORS
330
127D
102
}
330
1E
100
AcDbEntity
  8
STEMPEL
100
AcDbLine
 10
107.2579896026309
 20
438.163806084972
 30
0.0
 11
156.733366873431
 21
438.163806084972
 31
0.0
  0
LINE
  5
10C3
330
1E
100
AcDbEntity
  8
STEMPEL
100
AcDbLine
 10
97.25798960263091
 20
446.663806084972
 30
0.0
 11
97.25798960263091
 21
435.1638060849715
 31
0.0
  0
LINE
  5
10C4
330
1E
100
AcDbEntity
  8
STEMPEL
100
AcDbLine
 10
107.2579896026309
 20
446.663806084972
 30
0.0
 11
107.2579896026309
 21
435.1638060849715
 31
0.0
  0
LINE
  5
10C5
330
1E
100
AcDbEntity
  8
MITTEL
100
AcDbLine
 10
102.2579896026309
 20
465.1638060849715
 30
0.0
 11
102.2579896026309
 21
435.1638060849716
 31
0.0
  0
LINE
  5
10C6
330
1E
100
AcDbEntity
  8
HILF
100
AcDbLine
 10
98.25798960263092
 20
446.663806084972
 30
0.0
 11
98.25798960263092
 21
435.1638060849715
 31
0.0
  0
LINE
  5
10C7
330
1E
100
AcDbEntity
  8
HILF
100
AcDbLine
 10
106.2579896026309
 20
446.663806084972
 30
0.0
 11
106.2579896026309
 21
435.1638060849715
 31
0.0
  0
LINE
  5
10C8
102
{ACAD_REACTORS
330
127D
102
}
330
1E
100
AcDbEntity
  8
STEMPEL
100
AcDbLine
 10
95.25798960263092
 20
438.163806084972
 30
0.0
 11
95.25798960263092
 21
435.1638060849715
 31
0.0
  0
LINE
  5
10C9
102
{ACAD_REACTORS
330
127D
102
}
330
1E
100
AcDbEntity
  8
STEMPEL
100
AcDbLine
 10
109.2579896026309
 20
438.163806084972
 30
0.0
 11
109.2579896026309
 21
435.1638060849715
 31
0.0
  0
LINE
  5
10CF
330
1E
100
AcDbEntity
  8
STEMPEL
100
AcDbLine
 10
107.2579896026309
 20
459.1638060849727
 30
0.0
 11
106.2579896026309
 21
460.1638060849727
 31
0.0
  0
LINE
  5
10D0
330
1E
100
AcDbEntity
  8
HILF
100
AcDbLine
 10
106.2579896026309
 20
460.1638060849727
 30
0.0
 11
106.2579896026309
 21
456.663806084972
 31
0.0
  0
LINE
  5
10D1
330
1E
100
AcDbEntity
  8
HILF
100
AcDbLine
 10
98.25798960263092
 20
460.1638060849727
 30
0.0
 11
98.25798960263092
 21
456.663806084972
 31
0.0
  0
LINE
  5
10D2
330
1E
100
AcDbEntity
  8
STEMPEL
100
AcDbLine
 10
98.25798960263092
 20
460.1638060849727
 30
0.0
 11
97.25798960263091
 21
459.1638060849727
 31
0.0
  0
LINE
  5
10D5
330
1E
100
AcDbEntity
  8
STEMPEL
100
AcDbLine
 10
97.25798960263091
 20
459.1638060849727
 30
0.0
 11
107.2579896026309
 21
459.1638060849727
 31
0.0
  0
LINE
  5
10D7
330
1E
100
AcDbEntity
  8
STEMPEL
100
AcDbLine
 10
95.25798960263092
 20
446.663806084972
 30
0.0
 11
95.25798960263092
 21
440.6638060849719
 31
0.0
  0
LINE
  5
10D8
330
1E
100
AcDbEntity
  8
STEMPEL
100
AcDbLine
 10
97.25798960263091
 20
459.1638060849727
 30
0.0
 11
97.25798960263091
 21
456.663806084972
 31
0.0
  0
LINE
  5
10DA
330
1E
100
AcDbEntity
  8
STEMPEL
100
AcDbLine
 10
109.2579896026309
 20
446.663806084972
 30
0.0
 11
109.2579896026309
 21
440.6638060849719
 31
0.0
  0
LINE
  5
10DB
330
1E
100
AcDbEntity
  8
STEMPEL
100
AcDbLine
 10
107.2579896026309
 20
459.1638060849727
 30
0.0
 11
107.2579896026309
 21
456.6638060849721
 31
0.0
  0
LINE
  5
10DD
330
1E
100
AcDbEntity
  8
STEMPEL
100
AcDbLine
 10
106.2579896026309
 20
460.1638060849727
 30
0.0
 11
98.25798960263092
 21
460.1638060849727
 31
0.0
  0
LINE
  5
10DE
102
{ACAD_REACTORS
330
127D
102
}
330
1E
100
AcDbEntity
  8
STEMPEL
100
AcDbLine
 10
134.2579896026309
 20
438.1638060849719
 30
0.0
 11
134.2579896026309
 21
435.1638060849719
 31
0.0
  0
ARC
  5
10DF
330
1E
100
AcDbEntity
  8
STEMPEL
100
AcDbCircle
 10
139.4149165642261
 20
429.1638060849723
 30
0.0
 40
3.0
100
AcDbArc
 50
32.70000000000014
 51
90.0
  0
ARC
  5
10E2
330
1E
100
AcDbEntity
  8
STEMPEL
100
AcDbCircle
 10
132.2579896026309
 20
443.6638060849719
 30
0.0
 40
3.0
100
AcDbArc
 50
270.0
 51
90.0
  0
ARC
  5
10E4
330
1E
100
AcDbEntity
  8
STEMPEL
  6
Continuous
100
AcDbCircle
 10
140.4579896026241
 20
386.1638060849697
 30
0.0
 40
18.00000000000656
100
AcDbArc
 50
0.0000000000065138
 51
25.00715833655689
  0
ARC
  5
10E5
330
1E
100
AcDbEntity
  8
STEMPEL
  6
Continuous
100
AcDbCircle
 10
140.457989602623
 20
386.1638060849696
 30
0.0
 40
20.00000000000776
100
AcDbArc
 50
0.0000000000065138
 51
25.00715833654961
  0
LINE
  5
10E6
330
1E
100
AcDbEntity
  8
STEMPEL
  6
Continuous
100
AcDbLine
 10
160.4579896026307
 20
386.1638060849715
 30
0.0
 11
160.4579896026307
 21
307.6325255076425
 31
0.0
  0
LINE
  5
10E7
330
1E
100
AcDbEntity
  8
STEMPEL
  6
Continuous
100
AcDbLine
 10
158.4579896026307
 20
386.1638060849715
 30
0.0
 11
158.4579896026307
 21
307.6325255076425
 31
0.0
  0
ARC
  5
10E8
330
1E
100
AcDbEntity
  8
STEMPEL
  6
Continuous
100
AcDbCircle
 10
176.45798960263
 20
307.6325255076421
 30
0.0
 40
15.99999999999934
100
AcDbArc
 50
180.0
 51
212.1746799295302
  0
ARC
  5
10E9
330
1E
100
AcDbEntity
  8
STEMPEL
  6
Continuous
100
AcDbCircle
 10
176.4579896026296
 20
307.6325255076421
 30
0.0
 40
17.99999999999875
100
AcDbArc
 50
180.0
 51
212.1746799295302
  0
HATCH
  5
10EA
330
1E
100
AcDbEntity
  8
SCHRAFF
100
AcDbHatch
 10
0.0
 20
0.0
 30
0.0
210
0.0
220
0.0
230
1.0
  2
_USER
 70
     0
 71
     0
 91
        1
 92
        7
 72
     1
 73
     1
 93
        8
 10
158.5813715656045
 20
437.3947399692468
 42
0.0
 10
159.4063006431488
 20
439.1638060849715
 42
0.0
 10
157.1995448052244
 20
439.1638060849715
 42
0.0
 10
156.7687559915311
 20
438.239976492728
 42
0.109517811683245
 10
153.9579896026305
 20
425.5614286405067
 42
0.0
 10
153.9579896026305
 20
412.5500243259021
 42
0.0
 10
155.9579896026305
 20
416.8330911148599
 42
0.0
 10
155.9579896026305
 20
425.5614286405071
 42
-0.1095178116832429
 97
        0
 75
     0
 76
     0
 52
135.0
 41
2.0
 77
     0
 78
     1
 53
135.0
 43
0.0
 44
0.0
 45
-1.414213562373095
 46
-1.414213562373094
 79
     0
 47
0.1818927594781915
 98
        1
 10
155.8456113758361
 20
432.0170841123299
  0
ARC
  5
10EB
330
1E
100
AcDbEntity
  8
STEMPEL
  6
Continuous
100
AcDbCircle
 10
183.9579896026305
 20
425.5614286405071
 30
0.0
 40
30.0
100
AcDbArc
 50
155.0000000000006
 51
180.0
  0
ARC
  5
10EC
330
1E
100
AcDbEntity
  8
STEMPEL
  6
Continuous
100
AcDbCircle
 10
183.9579896026305
 20
425.5614286405071
 30
0.0
 40
28.0
100
AcDbArc
 50
155.0000000000006
 51
180.0
  0
LINE
  5
10ED
330
1E
100
AcDbEntity
  8
STEMPEL
100
AcDbLine
 10
161.7579896026306
 20
439.1638060849714
 30
0.0
 11
161.7579896026306
 21
423.1638060849714
 31
0.0
  0
ARC
  5
10EE
330
1E
100
AcDbEntity
  8
STEMPEL
100
AcDbCircle
 10
164.7579896026306
 20
421.1638060849715
 30
0.0
 40
6.0
100
AcDbArc
 50
199.4712206344929
 51
270.0
  0
ARC
  5
10EF
330
1E
100
AcDbEntity
  8
STEMPEL
100
AcDbCircle
 10
167.7579896026306
 20
423.1638060849714
 30
0.0
 40
6.0
100
AcDbArc
 50
180.0
 51
270.0
  0
LINE
  5
10F0
330
1E
100
AcDbEntity
  8
STEMPEL
  6
Continuous
100
AcDbLine
 10
153.9579896026305
 20
425.5614286405071
 30
0.0
 11
153.9579896026305
 21
406.4548060849714
 31
0.0
  0
LINE
  5
10F1
330
1E
100
AcDbEntity
  8
STEMPEL
  6
Continuous
100
AcDbLine
 10
155.9579896026305
 20
425.5614286405071
 30
0.0
 11
155.9579896026305
 21
406.4548060849714
 31
0.0
  0
LINE
  5
10F2
330
1E
100
AcDbEntity
  8
TEXT
 62
     2
100
AcDbLine
 10
158.4425225783969
 20
441.4633964270738
 30
0.0
 11
171.7062326878608
 21
469.3394685245134
 31
0.0
  0
ARC
  5
10F3
330
1E
100
AcDbEntity
  8
STEMPEL
  6
Continuous
100
AcDbCircle
 10
183.9632868532023
 20
406.4566048128167
 30
0.0
 40
30.00529730448587
100
AcDbArc
 50
180.0034347106476
 51
205.0059950393217
  0
ARC
  5
10F4
330
1E
100
AcDbEntity
  8
STEMPEL
  6
Continuous
100
AcDbCircle
 10
183.9632869216782
 20
406.4566048360683
 30
0.0
 40
28.00529737681344
100
AcDbArc
 50
180.0036800482752
 51
205.0059119462661
  0
LINE
  5
10F5
330
1E
100
AcDbEntity
  8
STEMPEL
  6
Continuous
100
AcDbLine
 10
153.9582533429386
 20
406.4548060849714
 30
0.0
 11
153.9579896026305
 21
406.4548060849714
 31
0.0
  0
LINE
  5
10F6
330
1E
100
AcDbEntity
  8
STEMPEL
100
AcDbLine
 10
153.5079896026307
 20
418.3177572240147
 30
0.0
 11
150.9834572567947
 21
416.6970362625818
 31
0.0
  0
LINE
  5
10F8
330
1E
100
AcDbEntity
  8
STEMPEL
100
AcDbLine
 10
144.463981255898
 20
432.405248007838
 30
0.0
 11
153.9579896026305
 21
417.6168101870729
 31
0.0
  0
LINE
  5
10F9
330
1E
100
AcDbEntity
  8
STEMPEL
100
AcDbLine
 10
155.9579896026304
 20
414.9259838946315
 30
0.0
 11
157.1754046082728
 21
414.9259838946315
 31
0.0
  0
LINE
  5
10FA
330
1E
100
AcDbEntity
  8
STEMPEL
100
AcDbLine
 10
158.5579896026306
 20
419.1638060849714
 30
0.0
 11
159.1011353531384
 21
419.1638060849714
 31
0.0
  0
LINE
  5
10FB
330
1E
100
AcDbEntity
  8
STEMPEL
100
AcDbLine
 10
157.1754046082728
 20
414.9259838946315
 30
0.0
 11
158.5579896026306
 21
419.1638060849714
 31
0.0
  0
LINE
  5
10FC
330
1E
100
AcDbEntity
  8
STEMPEL
100
AcDbLine
 10
167.7579896026306
 20
417.1638060849715
 30
0.0
 11
167.7579896026306
 21
415.1638060849714
 31
0.0
  0
LINE
  5
10FD
330
1E
100
AcDbEntity
  8
STEMPEL
100
AcDbLine
 10
161.7579896026306
 20
439.1638060849714
 30
0.0
 11
160.4384220028811
 21
444.0884994112585
 31
0.0
  0
ARC
  5
10FE
330
1E
100
AcDbEntity
  8
STEMPEL
100
AcDbCircle
 10
157.7338296892717
 20
443.3638060849714
 30
0.0
 40
2.799999999999999
100
AcDbArc
 50
15.00000000000158
 51
90.0
  0
LINE
  5
1100
330
1E
100
AcDbEntity
  8
STEMPEL
100
AcDbLine
 10
161.7579896026309
 20
459.6638060849727
 30
0.0
 11
160.7579896026309
 21
458.6638060849727
 31
0.0
  0
LINE
  5
1104
330
1E
100
AcDbEntity
  8
STEMPEL
100
AcDbLine
 10
160.7579896026309
 20
458.6638060849727
 30
0.0
 11
170.7579896026309
 21
458.6638060849727
 31
0.0
  0
LINE
  5
1106
330
1E
100
AcDbEntity
  8
STEMPEL
100
AcDbLine
 10
153.7579896026306
 20
439.1638060849714
 30
0.0
 11
159.4063006431488
 21
439.1638060849714
 31
0.0
  0
ARC
  5
1107
330
1E
100
AcDbEntity
  8
STEMPEL
100
AcDbCircle
 10
157.7821495159896
 20
443.3638060849714
 30
0.0
 40
2.799999999999999
100
AcDbArc
 50
90.0
 51
164.9999999999984
  0
LINE
  5
1108
330
1E
100
AcDbEntity
  8
STEMPEL
100
AcDbLine
 10
153.7579896026306
 20
439.1638060849714
 30
0.0
 11
155.0775572023802
 21
444.0884994112585
 31
0.0
  0
LINE
  5
1109
330
1E
100
AcDbEntity
  8
STEMPEL
  6
Continuous
100
AcDbLine
 10
159.4063006431488
 20
439.1638060849714
 30
0.0
 11
158.5813715656045
 21
437.3947399692468
 31
0.0
  0
LINE
  5
110A
330
1E
100
AcDbEntity
  8
STEMPEL
  6
Continuous
100
AcDbLine
 10
157.1995448052244
 20
439.1638060849714
 30
0.0
 11
156.7687559915311
 21
438.239976492728
 31
0.0
  0
LINE
  5
110C
330
1E
100
AcDbEntity
  8
STEMPEL
100
AcDbLine
 10
160.7579896026309
 20
458.6638060849727
 30
0.0
 11
160.7579896026309
 21
456.6638060849721
 31
0.0
  0
LINE
  5
110D
330
1E
100
AcDbEntity
  8
STEMPEL
100
AcDbLine
 10
170.7579896026309
 20
458.6638060849727
 30
0.0
 11
169.7579896026309
 21
459.6638060849727
 31
0.0
  0
LINE
  5
110E
330
1E
100
AcDbEntity
  8
HILF
100
AcDbLine
 10
169.7579896026309
 20
459.6638060849727
 30
0.0
 11
169.7579896026309
 21
456.6638060849721
 31
0.0
  0
LINE
  5
110F
330
1E
100
AcDbEntity
  8
HILF
100
AcDbLine
 10
161.7579896026309
 20
459.6638060849727
 30
0.0
 11
161.7579896026309
 21
456.6638060849721
 31
0.0
  0
LINE
  5
1110
330
1E
100
AcDbEntity
  8
MITTEL
100
AcDbLine
 10
165.7579896026307
 20
465.1638060849714
 30
0.0
 11
165.7579896026306
 21
446.1638060849715
 31
0.0
  0
LINE
  5
1117
330
1E
100
AcDbEntity
  8
STEMPEL
100
AcDbLine
 10
170.7579896026309
 20
458.6638060849727
 30
0.0
 11
170.7579896026309
 21
456.6638060849721
 31
0.0
  0
LINE
  5
111A
330
1E
100
AcDbEntity
  8
STEMPEL
100
AcDbLine
 10
169.7579896026309
 20
459.6638060849727
 30
0.0
 11
161.7579896026309
 21
459.6638060849727
 31
0.0
  0
LINE
  5
111B
330
1E
100
AcDbEntity
  8
STEMPEL
100
AcDbLine
 10
205.6751754029931
 20
451.5765440527856
 30
0.0
 11
205.8337941517846
 21
460.6638060849718
 31
0.0
  0
ARC
  5
111C
330
1E
100
AcDbEntity
  8
STEMPEL
100
AcDbCircle
 10
200.6759369272113
 20
451.6638060849721
 30
0.0
 40
5.0
100
AcDbArc
 50
270.0
 51
358.9999999999982
  0
ARC
  5
111D
330
1E
100
AcDbEntity
  8
STEMPEL
  6
Continuous
100
AcDbCircle
 10
305.7579896026316
 20
292.7224617921513
 30
0.0
 40
12.00000000000085
100
AcDbArc
 50
147.8253200704787
 51
180.0
  0
ARC
  5
111E
330
1E
100
AcDbEntity
  8
STEMPEL
  6
Continuous
100
AcDbCircle
 10
305.7579896026321
 20
292.7224617921511
 30
0.0
 40
10.00000000000133
100
AcDbArc
 50
147.8253200704787
 51
179.9999999999935
  0
LINE
  5
111F
330
1E
100
AcDbEntity
  8
MITTEL
100
AcDbLine
 10
229.2579896026307
 20
451.6638060849721
 30
0.0
 11
229.2579896026305
 21
263.4226111911585
 31
0.0
  0
TEXT
  5
1120
330
1E
100
AcDbEntity
  8
TEXT
 62
     1
100
AcDbText
 10
308.321398470639
 20
196.290142305496
 30
0.0
 40
7.0
  1
Unterteil DN125
 41
0.8
  7
GREEKS
100
AcDbText
  0
TEXT
  5
1121
330
1E
100
AcDbEntity
  8
TEXT
 62
     1
100
AcDbText
 10
307.594686700276
 20
184.7193491775677
 30
0.0
 40
7.0
  1
EDV-Art.Nr. 21971.125X
 41
0.7
  7
GREEKS
100
AcDbText
  0
LINE
  5
1122
330
1E
100
AcDbEntity
  8
TEXT
 62
     2
100
AcDbLine
 10
397.1054084176149
 20
194.1543530523534
 30
0.0
 11
307.2407120718019
 21
194.1543530523534
 31
0.0
  0
LINE
  5
1123
330
1E
100
AcDbEntity
  8
STEMPEL
  6
Continuous
100
AcDbLine
 10
293.7579896026307
 20
292.7224617921513
 30
0.0
 11
293.7579896026307
 21
172.2511279707934
 31
0.0
  0
LINE
  5
1124
330
1E
100
AcDbEntity
  8
STEMPEL
  6
Continuous
100
AcDbLine
 10
295.7579896026309
 20
292.7224617921511
 30
0.0
 11
295.7579896026309
 21
172.1638060849785
 31
0.0
  0
LINE
  5
1125
330
1E
100
AcDbEntity
  8
STEMPEL
100
AcDbLine
 10
295.7579896026309
 20
172.1638060849785
 30
0.0
 11
294.2706823226895
 21
155.1638060849719
 31
0.0
  0
LINE
  5
1126
330
1E
100
AcDbEntity
  8
STEMPEL
100
AcDbLine
 10
293.7579896026307
 20
172.2511279707931
 30
0.0
 11
292.2630426476028
 21
155.1638060849719
 31
0.0
  0
LINE
  5
1127
330
1E
100
AcDbEntity
  8
TEXT
 62
     2
100
AcDbLine
 10
307.2407120718019
 20
194.1543530523534
 30
0.0
 11
294.5191627019594
 21
201.046320892559
 31
0.0
  0
LINE
  5
1128
330
1E
100
AcDbEntity
  8
STEMPEL
100
AcDbLine
 10
304.3560658139839
 20
440.6638060849718
 30
0.0
 11
351.2579896026308
 21
440.6638060849718
 31
0.0
  0
LINE
  5
112A
102
{ACAD_REACTORS
330
127D
102
}
330
1E
100
AcDbEntity
  8
STEMPEL
100
AcDbLine
 10
302.9797127631651
 20
435.1638060849713
 30
0.0
 11
394.2579896026309
 21
435.1638060849711
 31
0.0
  0
LINE
  5
112B
102
{ACAD_REACTORS
330
127D
102
}
330
1E
100
AcDbEntity
  8
STEMPEL
100
AcDbLine
 10
301.7826123318304
 20
438.1638060849718
 30
0.0
 11
351.2579896026308
 21
438.1638060849718
 31
0.0
  0
LINE
  5
112C
330
1E
100
AcDbEntity
  8
STEMPEL
100
AcDbLine
 10
387.8940285719517
 20
432.1638060849719
 30
0.0
 11
319.101062641035
 21
432.1638060849718
 31
0.0
  0
LINE
  5
112D
330
1E
100
AcDbEntity
  8
STEMPEL
100
AcDbLine
 10
392.1366692590715
 20
429.1638060849715
 30
0.0
 11
338.9767396026307
 21
429.1638060849715
 31
0.0
  0
LINE
  5
112E
330
1E
100
AcDbEntity
  8
TEXT
 62
     2
100
AcDbLine
 10
258.0938323210925
 20
510.0053864382564
 30
0.0
 11
366.0810290496828
 21
510.0053864382564
 31
0.0
  0
TEXT
  5
112F
330
1E
100
AcDbEntity
  8
TEXT
 62
     1
100
AcDbText
 10
258.3576636209136
 20
499.0586829550084
 30
0.0
 40
7.0
  1
EDV-Art.Nr. 21810.150X
 41
0.8
  7
GREEKS
100
AcDbText
  0
TEXT
  5
1130
330
1E
100
AcDbEntity
  8
TEXT
 62
     1
100
AcDbText
 10
258.9646232335053
 20
513.8941724868514
 30
0.0
 40
7.0
  1
Kompressionsdichtung
 41
0.8
  7
GREEKS
100
AcDbText
  0
TEXT
  5
1134
330
1E
100
AcDbEntity
  8
TEXT
 62
     1
100
AcDbText
 10
218.6320592461768
 20
332.4280041034108
 30
0.0
 40
7.0
  1
DN125
 50
90.0
 41
0.8
  7
GREEKS
100
AcDbText
  0
LINE
  5
1135
330
1E
100
AcDbEntity
  8
STEMPEL
100
AcDbLine
 10
220.992412900576
 20
451.5765440527856
 30
0.0
 11
220.8337941517846
 21
460.6638060849718
 31
0.0
  0
LINE
  5
1136
330
1E
100
AcDbEntity
  8
MITTEL
100
AcDbLine
 10
213.3337941517845
 20
465.6638060849718
 30
0.0
 11
213.333794151785
 21
443.3763134253935
 31
0.0
  0
ARC
  5
1137
330
1E
100
AcDbEntity
  8
STEMPEL
100
AcDbCircle
 10
225.9916513763581
 20
451.6638060849719
 30
0.0
 40
5.0
100
AcDbArc
 50
181.0000000000017
 51
270.0
  0
ARC
  5
1138
330
1E
100
AcDbEntity
  8
STEMPEL
  6
Continuous
100
AcDbCircle
 10
318.0579896026384
 20
386.1638060849696
 30
0.0
 40
20.00000000000776
100
AcDbArc
 50
154.9928416634504
 51
179.9999999999935
  0
ARC
  5
1139
330
1E
100
AcDbEntity
  8
STEMPEL
  6
Continuous
100
AcDbCircle
 10
318.0579896026372
 20
386.1638060849697
 30
0.0
 40
18.00000000000656
100
AcDbArc
 50
154.9928416634431
 51
179.9999999999935
  0
LINE
  5
113A
330
1E
100
AcDbEntity
  8
STEMPEL
  6
Continuous
100
AcDbLine
 10
300.0579896026307
 20
386.1638060849715
 30
0.0
 11
300.0579896026307
 21
307.6325255076425
 31
0.0
  0
LINE
  5
113B
330
1E
100
AcDbEntity
  8
STEMPEL
  6
Continuous
100
AcDbLine
 10
298.0579896026307
 20
386.1638060849715
 30
0.0
 11
298.0579896026307
 21
307.6325255076425
 31
0.0
  0
ARC
  5
113C
330
1E
100
AcDbEntity
  8
STEMPEL
  6
Continuous
100
AcDbCircle
 10
282.0579896026318
 20
307.6325255076421
 30
0.0
 40
17.99999999999875
100
AcDbArc
 50
327.8253200704697
 51
0.0
  0
ARC
  5
113D
330
1E
100
AcDbEntity
  8
STEMPEL
  6
Continuous
100
AcDbCircle
 10
282.0579896026313
 20
307.6325255076421
 30
0.0
 40
15.99999999999934
100
AcDbArc
 50
327.8253200704697
 51
0.0
  0
LINE
  5
113F
330
1E
100
AcDbEntity
  8
STEMPEL
100
AcDbLine
 10
314.0519979493634
 20
432.405248007838
 30
0.0
 11
304.5579896026309
 21
417.6168101870729
 31
0.0
  0
LINE
  5
1140
330
1E
100
AcDbEntity
  8
STEMPEL
100
AcDbLine
 10
316.5765302951992
 20
430.7845270464051
 30
0.0
 11
307.5325219484664
 21
416.6970362625818
 31
0.0
  0
ARC
  5
1141
330
1E
100
AcDbEntity
  8
STEMPEL
  6
Continuous
100
AcDbCircle
 10
274.5579896026309
 20
425.5614286405071
 30
0.0
 40
28.0
100
AcDbArc
 50
0.0
 51
24.99999999999935
  0
ARC
  5
1142
330
1E
100
AcDbEntity
  8
STEMPEL
  6
Continuous
100
AcDbCircle
 10
274.5579896026309
 20
425.5614286405071
 30
0.0
 40
30.0
100
AcDbArc
 50
0.0
 51
24.99999999999935
  0
LINE
  5
1143
330
1E
100
AcDbEntity
  8
STEMPEL
100
AcDbLine
 10
296.7579896026307
 20
439.1638060849714
 30
0.0
 11
296.7579896026307
 21
423.1638060849714
 31
0.0
  0
ARC
  5
1144
330
1E
100
AcDbEntity
  8
STEMPEL
100
AcDbCircle
 10
290.7579896026307
 20
423.1638060849714
 30
0.0
 40
6.0
100
AcDbArc
 50
270.0
 51
0.0
  0
LINE
  5
1145
330
1E
100
AcDbEntity
  8
STEMPEL
100
AcDbLine
 10
290.7579896026307
 20
417.1638060849715
 30
0.0
 11
290.7579896026307
 21
415.1638060849714
 31
0.0
  0
LINE
  5
1146
330
1E
100
AcDbEntity
  8
STEMPEL
  6
Continuous
100
AcDbLine
 10
304.5579896026309
 20
425.5614286405071
 30
0.0
 11
304.5579896026309
 21
406.4548060849714
 31
0.0
  0
LINE
  5
1147
330
1E
100
AcDbEntity
  8
STEMPEL
  6
Continuous
100
AcDbLine
 10
302.5579896026309
 20
425.5614286405071
 30
0.0
 11
302.5579896026309
 21
406.4548060849714
 31
0.0
  0
ARC
  5
1148
330
1E
100
AcDbEntity
  8
STEMPEL
  6
Continuous
100
AcDbCircle
 10
274.5526922835832
 20
406.4566048360683
 30
0.0
 40
28.00529737681344
100
AcDbArc
 50
334.9940880537339
 51
359.9963199517248
  0
ARC
  5
1149
330
1E
100
AcDbEntity
  8
STEMPEL
  6
Continuous
100
AcDbCircle
 10
274.552692352059
 20
406.4566048128167
 30
0.0
 40
30.00529730448587
100
AcDbArc
 50
334.9940049606784
 51
359.9965652893524
  0
LINE
  5
114A
330
1E
100
AcDbEntity
  8
STEMPEL
100
AcDbLine
 10
301.3405745969885
 20
414.9259838946315
 30
0.0
 11
299.9579896026308
 21
419.1638060849714
 31
0.0
  0
ARC
  5
114B
330
1E
100
AcDbEntity
  8
STEMPEL
100
AcDbCircle
 10
293.7579896026307
 20
421.1638060849715
 30
0.0
 40
6.0
100
AcDbArc
 50
270.0
 51
340.528779365507
  0
LINE
  5
114C
330
1E
100
AcDbEntity
  8
STEMPEL
100
AcDbLine
 10
299.9579896026308
 20
419.1638060849714
 30
0.0
 11
299.4148438521229
 21
419.1638060849714
 31
0.0
  0
LINE
  5
114D
330
1E
100
AcDbEntity
  8
STEMPEL
100
AcDbLine
 10
302.5579896026309
 20
414.9259838946315
 30
0.0
 11
301.3405745969885
 21
414.9259838946315
 31
0.0
  0
LINE
  5
114E
330
1E
100
AcDbEntity
  8
STEMPEL
100
AcDbLine
 10
305.0079896026306
 20
418.3177572240147
 30
0.0
 11
307.5325219484664
 21
416.6970362625818
 31
0.0
  0
LINE
  5
114F
330
1E
100
AcDbEntity
  8
STEMPEL
100
AcDbLine
 10
288.7579896026305
 20
460.1638060849727
 30
0.0
 11
296.7579896026304
 21
460.1638060849727
 31
0.0
  0
LINE
  5
1151
330
1E
100
AcDbEntity
  8
STEMPEL
100
AcDbLine
 10
297.7579896026305
 20
459.1638060849727
 30
0.0
 11
287.7579896026304
 21
459.1638060849727
 31
0.0
  0
LINE
  5
1155
330
1E
100
AcDbEntity
  8
HILF
100
AcDbLine
 10
288.7579896026305
 20
460.1638060849727
 30
0.0
 11
288.7579896026305
 21
456.6638060849722
 31
0.0
  0
LINE
  5
1156
330
1E
100
AcDbEntity
  8
STEMPEL
100
AcDbLine
 10
287.7579896026304
 20
459.1638060849727
 30
0.0
 11
288.7579896026305
 21
460.1638060849727
 31
0.0
  0
LINE
  5
115B
330
1E
100
AcDbEntity
  8
STEMPEL
100
AcDbLine
 10
287.7579896026304
 20
459.1638060849727
 30
0.0
 11
287.7579896026304
 21
456.6638060849722
 31
0.0
  0
LINE
  5
115D
330
1E
100
AcDbEntity
  8
STEMPEL
100
AcDbLine
 10
296.7579896026304
 20
460.1638060849727
 30
0.0
 11
297.7579896026305
 21
459.1638060849727
 31
0.0
  0
LINE
  5
115E
330
1E
100
AcDbEntity
  8
HILF
100
AcDbLine
 10
296.7579896026304
 20
460.1638060849727
 30
0.0
 11
296.7579896026304
 21
456.6638060849722
 31
0.0
  0
LINE
  5
115F
330
1E
100
AcDbEntity
  8
MITTEL
100
AcDbLine
 10
292.7579896026307
 20
465.1638060849712
 30
0.0
 11
292.7579896026307
 21
446.1638060849715
 31
0.0
  0
ARC
  5
1162
330
1E
100
AcDbEntity
  8
STEMPEL
100
AcDbCircle
 10
300.7821495159896
 20
443.3638060849714
 30
0.0
 40
2.799999999999999
100
AcDbArc
 50
90.0
 51
164.9999999999984
  0
LINE
  5
1163
330
1E
100
AcDbEntity
  8
STEMPEL
100
AcDbLine
 10
304.7579896026307
 20
439.1638060849714
 30
0.0
 11
299.1096785621126
 21
439.1638060849714
 31
0.0
  0
LINE
  5
1164
330
1E
100
AcDbEntity
  8
STEMPEL
  6
Continuous
100
AcDbLine
 10
299.1096785621126
 20
439.1638060849714
 30
0.0
 11
299.9346076396569
 21
437.3947399692468
 31
0.0
  0
LINE
  5
1165
330
1E
100
AcDbEntity
  8
STEMPEL
100
AcDbLine
 10
296.7579896026307
 20
439.1638060849714
 30
0.0
 11
298.0775572023802
 21
444.0884994112585
 31
0.0
  0
LINE
  5
1167
330
1E
100
AcDbEntity
  8
STEMPEL
100
AcDbLine
 10
297.7579896026305
 20
459.1638060849727
 30
0.0
 11
297.7579896026305
 21
456.6638060849722
 31
0.0
  0
LINE
  5
1169
330
1E
100
AcDbEntity
  8
STEMPEL
100
AcDbLine
 10
304.7579896026307
 20
439.1638060849714
 30
0.0
 11
303.4384220028811
 21
444.0884994112585
 31
0.0
  0
LINE
  5
116A
330
1E
100
AcDbEntity
  8
STEMPEL
  6
Continuous
100
AcDbLine
 10
301.316434400037
 20
439.1638060849714
 30
0.0
 11
301.7472232137302
 21
438.239976492728
 31
0.0
  0
ARC
  5
116B
330
1E
100
AcDbEntity
  8
STEMPEL
100
AcDbCircle
 10
300.7338296892717
 20
443.3638060849714
 30
0.0
 40
2.799999999999999
100
AcDbArc
 50
15.00000000000158
 51
90.0
  0
LINE
  5
116E
102
{ACAD_REACTORS
330
127D
102
}
330
1E
100
AcDbEntity
  8
STEMPEL
100
AcDbLine
 10
324.2579896026305
 20
438.1638060849719
 30
0.0
 11
324.2579896026305
 21
435.1638060849719
 31
0.0
  0
LINE
  5
116F
330
1E
100
AcDbEntity
  8
TEXT
 62
     2
100
AcDbLine
 10
366.0810290496828
 20
510.0053864382564
 30
0.0
 11
372.4977000705401
 21
487.81563759056
 31
0.0
  0
ARC
  5
1170
330
1E
100
AcDbEntity
  8
STEMPEL
100
AcDbCircle
 10
319.101062641035
 20
429.1638060849723
 30
0.0
 40
3.0
100
AcDbArc
 50
90.0
 51
147.2999999999998
  0
ARC
  5
1171
330
1E
100
AcDbEntity
  8
STEMPEL
100
AcDbCircle
 10
319.101062641035
 20
429.1638060849723
 30
0.0
 40
6.0
100
AcDbArc
 50
90.0
 51
147.2999999999998
  0
ARC
  5
1172
330
1E
100
AcDbEntity
  8
STEMPEL
100
AcDbCircle
 10
326.2579896026305
 20
443.6638060849719
 30
0.0
 40
3.0
100
AcDbArc
 50
90.0
 51
270.0
  0
LINE
  5
1174
102
{ACAD_REACTORS
330
127D
102
}
330
1E
100
AcDbEntity
  8
STEMPEL
100
AcDbLine
 10
394.2579896026304
 20
438.163806084972
 30
0.0
 11
361.2579896026304
 21
438.163806084972
 31
0.0
  0
LINE
  5
1176
330
1E
100
AcDbEntity
  8
STEMPEL
100
AcDbLine
 10
386.2579896026304
 20
440.6638060849719
 30
0.0
 11
361.2579896026304
 21
440.6638060849719
 31
0.0
  0
LINE
  5
1177
102
{ACAD_REACTORS
330
127D
102
}
330
1E
100
AcDbEntity
  8
STEMPEL
100
AcDbLine
 10
349.2579896026305
 20
438.163806084972
 30
0.0
 11
349.2579896026305
 21
435.1638060849715
 31
0.0
  0
LINE
  5
1178
330
1E
100
AcDbEntity
  8
STEMPEL
100
AcDbLine
 10
351.2579896026305
 20
446.663806084972
 30
0.0
 11
351.2579896026305
 21
435.1638060849715
 31
0.0
  0
LINE
  5
117A
102
{ACAD_REACTORS
330
127D
102
}
330
1E
100
AcDbEntity
  8
STEMPEL
100
AcDbLine
 10
363.2579896026304
 20
438.163806084972
 30
0.0
 11
363.2579896026304
 21
435.1638060849715
 31
0.0
  0
LINE
  5
117B
330
1E
100
AcDbEntity
  8
HILF
100
AcDbLine
 10
352.2579896026305
 20
446.663806084972
 30
0.0
 11
352.2579896026305
 21
435.1638060849715
 31
0.0
  0
LINE
  5
117C
330
1E
100
AcDbEntity
  8
HILF
100
AcDbLine
 10
360.2579896026305
 20
446.663806084972
 30
0.0
 11
360.2579896026305
 21
435.1638060849715
 31
0.0
  0
LINE
  5
117D
330
1E
100
AcDbEntity
  8
MITTEL
100
AcDbLine
 10
356.2579896026305
 20
465.1638060849712
 30
0.0
 11
356.2579896026305
 21
435.1638060849716
 31
0.0
  0
LINE
  5
117E
330
1E
100
AcDbEntity
  8
STEMPEL
100
AcDbLine
 10
361.2579896026304
 20
446.663806084972
 30
0.0
 11
361.2579896026304
 21
435.1638060849715
 31
0.0
  0
LINE
  5
1182
330
1E
100
AcDbEntity
  8
STEMPEL
100
AcDbLine
 10
352.2579896026305
 20
460.1638060849727
 30
0.0
 11
360.2579896026305
 21
460.1638060849727
 31
0.0
  0
LINE
  5
1186
330
1E
100
AcDbEntity
  8
STEMPEL
100
AcDbLine
 10
361.2579896026304
 20
459.1638060849727
 30
0.0
 11
351.2579896026305
 21
459.1638060849727
 31
0.0
  0
LINE
  5
1188
330
1E
100
AcDbEntity
  8
HILF
100
AcDbLine
 10
352.2579896026305
 20
460.1638060849727
 30
0.0
 11
352.2579896026305
 21
456.6638060849722
 31
0.0
  0
LINE
  5
1189
330
1E
100
AcDbEntity
  8
STEMPEL
100
AcDbLine
 10
351.2579896026305
 20
459.1638060849727
 30
0.0
 11
352.2579896026305
 21
460.1638060849727
 31
0.0
  0
LINE
  5
118D
330
1E
100
AcDbEntity
  8
STEMPEL
100
AcDbLine
 10
349.2579896026305
 20
446.663806084972
 30
0.0
 11
349.2579896026304
 21
440.6638060849717
 31
0.0
  0
LINE
  5
118F
330
1E
100
AcDbEntity
  8
STEMPEL
100
AcDbLine
 10
351.2579896026305
 20
459.1638060849727
 30
0.0
 11
351.2579896026305
 21
456.6638060849722
 31
0.0
  0
LINE
  5
1191
330
1E
100
AcDbEntity
  8
STEMPEL
100
AcDbLine
 10
360.2579896026305
 20
460.1638060849727
 30
0.0
 11
361.2579896026304
 21
459.1638060849727
 31
0.0
  0
LINE
  5
1192
330
1E
100
AcDbEntity
  8
HILF
100
AcDbLine
 10
360.2579896026305
 20
460.1638060849727
 30
0.0
 11
360.2579896026305
 21
456.6638060849722
 31
0.0
  0
LINE
  5
1193
330
1E
100
AcDbEntity
  8
STEMPEL
100
AcDbLine
 10
363.2579896026304
 20
446.663806084972
 30
0.0
 11
363.2579896026304
 21
440.6638060849719
 31
0.0
  0
LINE
  5
1197
330
1E
100
AcDbEntity
  8
STEMPEL
100
AcDbLine
 10
361.2579896026304
 20
459.1638060849727
 30
0.0
 11
361.2579896026304
 21
456.6638060849722
 31
0.0
  0
LINE
  5
119A
102
{ACAD_REACTORS
330
127D
102
}
330
1E
100
AcDbEntity
  8
STEMPEL
100
AcDbLine
 10
394.2579896026304
 20
438.1638060849719
 30
0.0
 11
394.2579896026304
 21
435.1638060849719
 31
0.0
  0
LINE
  5
119B
330
1E
100
AcDbEntity
  8
STEMPEL
100
AcDbLine
 10
392.1366692590713
 20
429.1638060849718
 30
0.0
 11
390.0153489155113
 21
431.2851264285315
 31
0.0
  0
ARC
  5
119C
330
1E
100
AcDbEntity
  8
STEMPEL
100
AcDbCircle
 10
387.8940285719517
 20
429.1638060849718
 30
0.0
 40
6.0
100
AcDbArc
 50
45.0
 51
90.0
  0
ARC
  5
119D
330
1E
100
AcDbEntity
  8
STEMPEL
100
AcDbCircle
 10
387.8940285719517
 20
429.1638060849718
 30
0.0
 40
3.0
100
AcDbArc
 50
45.0
 51
90.0
  0
LINE
  5
119E
330
1E
100
AcDbEntity
  8
STEMPEL
100
AcDbLine
 10
394.2579896026308
 20
431.2851264285315
 30
0.0
 11
392.1366692590713
 21
433.4064467720913
 31
0.0
  0
LINE
  5
119F
330
1E
100
AcDbEntity
  8
STEMPEL
100
AcDbLine
 10
394.2579896026308
 20
431.2851264285315
 30
0.0
 11
392.1366692590713
 21
429.1638060849717
 31
0.0
  0
ARC
  5
11A0
330
1E
100
AcDbEntity
  8
STEMPEL
100
AcDbCircle
 10
386.2579896026304
 20
443.6638060849719
 30
0.0
 40
3.0
100
AcDbArc
 50
270.0
 51
90.0
  0
TEXT
  5
11A3
330
1E
100
AcDbEntity
  8
TEXT
100
AcDbText
 10
194.2858954734051
 20
102.4184168434819
 30
0.0
 40
5.0
  1
Zul. Abw.
 41
0.8
  7
GREEKS
100
AcDbText
  0
TEXT
  5
11A4
330
1E
100
AcDbEntity
  8
TEXT
100
AcDbText
 10
202.4626584226294
 20
73.30961091915219
 30
0.0
 40
4.0
  1
Name
 41
0.8
  7
GREEKS
100
AcDbText
  0
TEXT
  5
11A5
330
1E
100
AcDbEntity
  8
TEXT
100
AcDbText
 10
204.4216048581258
 20
63.0896391972351
 30
0.0
 40
4.0
  1
Koeh
 41
0.8
  7
GREEKS
 72
     1
 11
209.6787477152686
 21
63.0896391972351
 31
0.0
100
AcDbText
  0
LINE
  5
11A6
330
1E
100
AcDbEntity
  8
HILF
100
AcDbLine
 10
146.0
 20
70.0
 30
0.0
 11
230.0
 21
70.0
 31
0.0
  0
LINE
  5
11A7
330
1E
100
AcDbEntity
  8
HILF
100
AcDbLine
 10
146.0
 20
60.0
 30
0.0
 11
230.0
 21
60.0
 31
0.0
  0
LINE
  5
11A8
330
1E
100
AcDbEntity
  8
HILF
100
AcDbLine
 10
146.0
 20
50.0
 30
0.0
 11
230.0
 21
50.0
 31
0.0
  0
TEXT
  5
11A9
330
1E
100
AcDbEntity
  8
TEXT
100
AcDbText
 10
192.626132208084
 20
90.76363841023022
 30
0.0
 40
4.0
  1
DIN EN1124-3
 41
0.8
  7
GREEKS
 72
     1
 11
209.6166083985602
 21
90.76363841023022
 31
0.0
100
AcDbText
  0
INSERT
  5
11AA
330
1E
100
AcDbEntity
  8
STEMPEL
100
AcDbBlockReference
  2
LOGO
 10
150.9955485457794
 20
45.02105276448321
 30
0.0
 41
2.0
 42
2.0
 43
2.0
  0
LINE
  5
11AB
330
1E
100
AcDbEntity
  8
STEMPEL
100
AcDbLine
 10
410.0
 20
40.0
 30
0.0
 11
146.0
 21
40.0
 31
0.0
  0
LINE
  5
11AC
330
1E
100
AcDbEntity
  8
STEMPEL
100
AcDbLine
 10
410.0
 20
80.0
 30
0.0
 11
146.0
 21
80.0
 31
0.0
  0
LINE
  5
11AD
330
1E
100
AcDbEntity
  8
STEMPEL
100
AcDbLine
 10
146.0
 20
110.0
 30
0.0
 11
146.0
 21
10.0
 31
0.0
  0
TEXT
  5
11AE
330
1E
100
AcDbEntity
  8
TEXT
100
AcDbText
 10
172.331167315365
 20
73.31880501229921
 30
0.0
 40
4.0
  1
Tag
 41
0.8
  7
GREEKS
100
AcDbText
  0
TEXT
  5
11AF
330
1E
100
AcDbEntity
  8
TEXT
100
AcDbText
 10
171.3132828225218
 20
63.10765040825732
 30
0.0
 40
4.0
  1
01.11.
 41
0.8
  7
GREEKS
 72
     1
 11
177.4085209177599
 21
63.10765040825732
 31
0.0
100
AcDbText
  0
LINE
  5
11B0
330
1E
100
AcDbEntity
  8
VOLL
100
AcDbLine
 10
164.0
 20
80.0
 30
0.0
 11
164.0
 21
40.0
 31
0.0
  0
TEXT
  5
11B1
330
1E
100
AcDbEntity
  8
TEXT
100
AcDbText
 10
147.5836127167615
 20
63.62990369617967
 30
0.0
 40
4.0
  1
Gez.
 41
0.8
  7
GREEKS
100
AcDbText
  0
TEXT
  5
11B2
330
1E
100
AcDbEntity
  8
TEXT
100
AcDbText
 10
147.5515086571672
 20
53.68926291428374
 30
0.0
 40
4.0
  1
Gepr.
 41
0.8
  7
GREEKS
100
AcDbText
  0
TEXT
  5
11B3
330
1E
100
AcDbEntity
  8
TEXT
100
AcDbText
 10
147.6006777387303
 20
43.5294638964981
 30
0.0
 40
4.0
  1
Norm.
 41
0.8
  7
GREEKS
100
AcDbText
  0
TEXT
  5
11B4
330
1E
100
AcDbEntity
  8
TEXT
100
AcDbText
 10
153.5163572150377
 20
102.4620895087089
 30
0.0
 40
5.0
  1
Maßstab
 41
0.8
  7
GREEKS
100
AcDbText
  0
TEXT
  5
11B5
330
1E
100
AcDbEntity
  8
TEXT
 62
     1
100
AcDbText
 10
160.5006306481887
 20
88.14901428913959
 30
0.0
 40
7.0
  1
1:2
 41
0.8
  7
GREEKS
100
AcDbText
  0
TEXT
  5
11B6
330
1E
100
AcDbEntity
  8
TEXT
100
AcDbText
 10
148.622109822104
 20
73.14025471151672
 30
0.0
 40
4.0
  1
2010
 41
0.8
  7
GREEKS
100
AcDbText
  0
LINE
  5
11B7
330
1E
100
AcDbEntity
  8
VOLL
100
AcDbLine
 10
190.0
 20
109.9999999999997
 30
0.0
 11
190.0
 21
40.0
 31
0.0
  0
LINE
  5
11B8
330
1E
100
AcDbEntity
  8
HILF
100
AcDbLine
 10
336.7238616296993
 20
83.77983636955832
 30
0.0
 11
404.8588839326728
 21
83.77983636955832
 31
0.0
  0
LINE
  5
11B9
330
1E
100
AcDbEntity
  8
VOLL
100
AcDbLine
 10
332.0
 20
60.0
 30
0.0
 11
410.0
 21
60.0
 31
0.0
  0
TEXT
  5
11BA
330
1E
100
AcDbEntity
  8
TEXT
100
AcDbText
 10
337.2400861497006
 20
52.07416177878599
 30
0.0
 40
5.0
  1
ersetzt durch:
 41
0.8
  7
GREEKS
100
AcDbText
  0
TEXT
  5
11BB
330
1E
100
AcDbEntity
  8
TEXT
100
AcDbText
 10
336.7238616296993
 20
73.18118237099975
 30
0.0
 40
5.0
  1
Ersatz für:
 41
0.8
  7
GREEKS
100
AcDbText
  0
TEXT
  5
11BC
330
1E
100
AcDbEntity
  8
TEXT
100
AcDbText
 10
336.178754957634
 20
102.3132034537136
 30
0.0
 40
5.0
  1
Zeichnungs Nr.
 41
0.8
  7
GREEKS
100
AcDbText
  0
LINE
  5
11BD
330
1E
100
AcDbEntity
  8
HILF
100
AcDbLine
 10
233.4909699289885
 20
14.89398258028314
 30
0.0
 11
404.8588839326728
 21
14.89398258028314
 31
0.0
  0
TEXT
  5
11BE
330
1E
100
AcDbEntity
  8
TEXT
 62
     1
100
AcDbText
 10
234.8934189602655
 20
87.41748789253779
 30
0.0
 40
7.0
  1
Unterteileinheit DN125
 41
0.75
  7
GREEKS
100
AcDbText
  0
TEXT
  5
11BF
330
1E
100
AcDbEntity
  8
TEXT
100
AcDbText
 10
235.1296391125316
 20
51.64011943042158
 30
0.0
 40
5.0
  1
EDV-Art.Nr. 21993.125X
 41
0.8
  7
GREEKS
100
AcDbText
  0
LINE
  5
11C0
330
1E
100
AcDbEntity
  8
HILF
100
AcDbLine
 10
234.7736801096949
 20
84.03758247564132
 30
0.0
 11
324.8353916556312
 21
84.03758247564132
 31
0.0
  0
LINE
  5
11C1
330
1E
100
AcDbEntity
  8
HILF
100
AcDbLine
 10
234.7736801096949
 20
70.0
 30
0.0
 11
324.8353916556309
 21
70.0
 31
0.0
  0
LINE
  5
11C2
330
1E
100
AcDbEntity
  8
HILF
100
AcDbLine
 10
234.7736801096949
 20
60.0
 30
0.0
 11
324.8353916556309
 21
60.0
 31
0.0
  0
LINE
  5
11C3
330
1E
100
AcDbEntity
  8
HILF
100
AcDbLine
 10
234.7736801096949
 20
50.0
 30
0.0
 11
324.8353916556309
 21
50.0
 31
0.0
  0
LINE
  5
11C4
330
1E
100
AcDbEntity
  8
STEMPEL
100
AcDbLine
 10
230.0
 20
110.0
 30
0.0
 11
230.0
 21
10.0
 31
0.0
  0
TEXT
  5
11C5
330
1E
100
AcDbEntity
  8
TEXT
100
AcDbText
 10
234.742238391136
 20
30.8456057019306
 30
0.0
 40
5.0
  1
Bauvorhaben
 41
0.8
  7
GREEKS
100
AcDbText
  0
TEXT
  5
11C6
330
1E
100
AcDbEntity
  8
TEXT
100
AcDbText
 10
234.9837501577827
 20
42.62974153022628
 30
0.0
 40
4.0
  1
21993125W.DWG
 41
0.8
  7
GREEKS
100
AcDbText
  0
TEXT
  5
11C7
330
1E
100
AcDbEntity
  8
TEXT
100
AcDbText
 10
234.877940380901
 20
102.5489328011779
 30
0.0
 40
5.0
  1
Benennung
 41
0.8
  7
GREEKS
100
AcDbText
  0
LINE
  5
11C8
330
1E
100
AcDbEntity
  8
STEMPEL
100
AcDbLine
 10
332.0
 20
109.9999999999997
 30
0.0
 11
332.0
 21
40.0
 31
0.0
  0
TEXT
  5
11CA
330
1E
100
AcDbEntity
  8
TEXT
 62
     1
100
AcDbText
 10
346.967087172186
 20
88.14901428913959
 30
0.0
 40
7.0
  1
21993125W
 41
0.8
  7
GREEKS
 72
     1
 11
369.9004205055194
 21
88.14901428913959
 31
0.0
100
AcDbText
  0
ARC
  5
1216
330
1E
100
AcDbEntity
  8
SCHRAFF
100
AcDbCircle
 10
303.9981071193862
 20
416.7237588719691
 30
0.0
 40
4.693546110672069
100
AcDbArc
 50
276.8509975199322
 51
17.7490024800654
  0
ARC
  5
1217
330
1E
100
AcDbEntity
  8
SCHRAFF
100
AcDbCircle
 10
154.5178720858751
 20
416.7237588719693
 30
0.0
 40
4.693546110672069
100
AcDbArc
 50
162.2509975199345
 51
263.1490024800678
  0
HATCH
  5
1224
330
1E
100
AcDbEntity
  8
SCHRAFF
100
AcDbHatch
 10
0.0
 20
0.0
 30
0.0
210
0.0
220
0.0
230
1.0
  2
_USER
 70
     0
 71
     0
 91
        2
 92
        7
 72
     1
 73
     1
 93
        5
 10
308.4682456318309
 20
418.154575692028
 42
0.0
 10
307.5325219484664
 20
416.6970362625817
 42
0.0
 10
305.0079896026308
 20
418.3177572240146
 42
0.0
 10
304.5579896026308
 20
417.6168101870728
 42
0.0
 10
304.5579896026308
 20
412.0637259645788
 42
0.4710867035112652
 97
        0
 92
        7
 72
     1
 73
     1
 93
        6
 10
153.9579896026305
 20
417.616810187073
 42
0.0
 10
153.5079896026307
 20
418.3177572240146
 42
0.0
 10
150.9834572567947
 20
416.6970362625818
 42
0.0
 10
150.0477335734303
 20
418.1545756920278
 42
0.4571665055715
 10
153.7451660615892
 20
412.094255605631
 42
0.0
 10
153.9579896026305
 20
412.550024325902
 42
0.0
 97
        0
 75
     0
 76
     0
 52
0.0
 41
0.1
 77
     0
 78
     1
 53
0.0
 43
0.0
 44
0.0
 45
0.0
 46
0.1
 79
     0
 47
0.3493072198478198
 98
        2
 10
306.7487067132661
 20
415.4162899139605
 10
150.8511295040498
 20
414.7176749914799
  0
LINE
  5
1237
330
1E
100
AcDbEntity
  8
TEXT
 62
     2
100
AcDbLine
 10
72.24217582777433
 20
483.81563759056
 30
0.0
 11
83.37925353037398
 21
444.663806084972
 31
0.0
  0
LINE
  5
1238
330
1E
100
AcDbEntity
  8
TEXT
 62
     2
100
AcDbLine
 10
180.4973762022298
 20
487.81563759056
 30
0.0
 11
209.9192567398936
 21
549.651010675574
 31
0.0
  0
LINE
  5
123A
330
1E
100
AcDbEntity
  8
TEXT
 62
     2
100
AcDbLine
 10
373.6543911290824
 20
483.81563759056
 30
0.0
 11
387.2786668612444
 21
436.7009802011211
 31
0.0
  0
HATCH
  5
127D
330
1E
100
AcDbEntity
  8
SCHRAFF
100
AcDbHatch
 10
0.0
 20
0.0
 30
0.0
210
0.0
220
0.0
230
1.0
  2
NET
 70
     0
 71
     1
 91
        4
 92
        7
 72
     0
 73
     1
 93
        4
 10
394.2579896026304
 20
435.1638060849712
 10
394.2579896026304
 20
438.163806084972
 10
363.2579896026304
 20
438.163806084972
 10
363.2579896026304
 20
435.1638060849712
 97
        4
330
1174
330
117A
330
112A
330
119A
 92
        7
 72
     0
 73
     1
 93
        4
 10
349.2579896026305
 20
435.1638060849711
 10
349.2579896026305
 20
438.1638060849719
 10
324.2579896026305
 20
438.1638060849719
 10
324.2579896026305
 20
435.1638060849713
 97
        4
330
112B
330
116E
330
112A
330
1177
 92
        7
 72
     0
 73
     1
 93
        4
 10
109.2579896026309
 20
438.163806084972
 10
109.2579896026309
 20
435.1638060849719
 10
134.2579896026309
 20
435.1638060849717
 10
134.2579896026309
 20
438.163806084972
 97
        4
330
10BD
330
10C9
330
10AF
330
10DE
 92
        7
 72
     0
 73
     1
 93
        4
 10
95.25798960263093
 20
435.1638060849719
 10
95.2579896026309
 20
438.163806084972
 10
64.25798960263091
 20
438.163806084972
 10
64.25798960263091
 20
435.163806084972
 97
        4
330
10AE
330
10B0
330
10AF
330
10C8
 75
     0
 76
     1
 52
45.0
 41
15.0
 77
     0
 78
     2
 53
45.0
 43
0.0
 44
0.0
 45
-1.325825214724776
 46
1.325825214724776
 79
     0
 53
135.0
 43
0.0
 44
0.0
 45
-1.325825214724776
 46
-1.325825214724776
 79
     0
 47
0.3592151782672798
 98
        4
 10
380.6692306685168
 20
436.1654730386251
 10
345.4551544018796
 20
436.5246881281747
 10
123.0315409290347
 20
437.2431183072745
 10
88.1767908870661
 20
436.1654730386251
  0
TEXT
  5
129B
330
1E
100
AcDbEntity
  8
VOLL
100
AcDbText
 10
423.0960140840969
 20
419.3858388889656
 30
0.0
 40
1.8
  1

  7
GREEKS
100
AcDbText
  0
ARC
  5
12B2
330
1E
100
AcDbEntity
  8
STEMPEL
100
AcDbCircle
 10
356.2579896026305
 20
426.3529169525174
 30
0.0
 40
30.31088913245485
100
AcDbArc
 50
81.78678929826059
 51
98.2132107017394
  0
ARC
  5
12B3
330
1E
100
AcDbEntity
  8
STEMPEL
100
AcDbCircle
 10
349.7627990742472
 20
448.9695003771878
 30
0.0
 40
7.694305707784447
100
AcDbArc
 50
73.65710669401657
 51
106.3428933059865
  0
ARC
  5
12B4
330
1E
100
AcDbEntity
  8
STEMPEL
100
AcDbCircle
 10
362.7531801310138
 20
448.9695003771878
 30
0.0
 40
7.694305707784447
100
AcDbArc
 50
73.65710669401345
 51
106.3428933059834
  0
ARC
  5
12B5
330
1E
100
AcDbEntity
  8
HILF
100
AcDbCircle
 10
356.2579896026305
 20
426.765345037311
 30
0.0
 40
22.41111549782308
100
AcDbArc
 50
78.85962783890455
 51
101.1403721610954
  0
ARC
  5
12B6
330
1E
100
AcDbEntity
  8
HILF
100
AcDbCircle
 10
362.7531801310138
 20
443.4153199354426
 30
0.0
 40
5.761140599691502
100
AcDbArc
 50
67.92594526326054
 51
112.0740547367394
  0
ARC
  5
12B7
330
1E
100
AcDbEntity
  8
HILF
100
AcDbCircle
 10
349.7627990742472
 20
443.4153199354426
 30
0.0
 40
5.761140599691502
100
AcDbArc
 50
67.92594526326054
 51
112.0740547367394
  0
LINE
  5
12B8
330
1E
100
AcDbEntity
  8
STEMPEL
100
AcDbLine
 10
348.7579896026304
 20
456.6638060849722
 30
0.0
 11
363.7579896026305
 21
456.6638060849722
 31
0.0
  0
LINE
  5
12B9
330
1E
100
AcDbEntity
  8
STEMPEL
100
AcDbLine
 10
364.9182436404748
 20
448.7541626011721
 30
0.0
 11
364.9182436404748
 21
456.3529169525168
 31
0.0
  0
LINE
  5
12BA
330
1E
100
AcDbEntity
  8
STEMPEL
100
AcDbLine
 10
360.5881166215527
 20
448.7541626011721
 30
0.0
 11
360.5881166215527
 21
456.3529169525168
 31
0.0
  0
LINE
  5
12BB
330
1E
100
AcDbEntity
  8
STEMPEL
100
AcDbLine
 10
351.9278625837082
 20
448.7541626011721
 30
0.0
 11
351.9278625837082
 21
456.3529169525168
 31
0.0
  0
LINE
  5
12BC
330
1E
100
AcDbEntity
  8
STEMPEL
100
AcDbLine
 10
366.6645047101247
 20
448.1185755505617
 30
0.0
 11
345.8514744951362
 21
448.1185755505617
 31
0.0
  0
LINE
  5
12BD
330
1E
100
AcDbEntity
  8
STEMPEL
100
AcDbLine
 10
366.4079896026304
 20
446.6638060849723
 30
0.0
 11
346.1079896026305
 21
446.6638060849723
 31
0.0
  0
LINE
  5
12BE
330
1E
100
AcDbEntity
  8
STEMPEL
100
AcDbLine
 10
347.5977355647861
 20
448.7541626011721
 30
0.0
 11
347.5977355647861
 21
456.3529169525168
 31
0.0
  0
LINE
  5
12BF
330
1E
100
AcDbEntity
  8
STEMPEL
100
AcDbLine
 10
348.7579896026304
 20
456.6638060849722
 30
0.0
 11
347.5977355647861
 21
456.3529169525168
 31
0.0
  0
LINE
  5
12C0
330
1E
100
AcDbEntity
  8
STEMPEL
100
AcDbLine
 10
364.9182436404748
 20
456.3529169525168
 30
0.0
 11
363.7579896026305
 21
456.6638060849722
 31
0.0
  0
LINE
  5
12C1
330
1E
100
AcDbEntity
  8
STEMPEL
100
AcDbLine
 10
366.6645047101247
 20
448.1185755505617
 30
0.0
 11
364.9182436404748
 21
448.7541626011721
 31
0.0
  0
LINE
  5
12C2
330
1E
100
AcDbEntity
  8
STEMPEL
100
AcDbLine
 10
347.5977355647861
 20
448.7541626011721
 30
0.0
 11
345.8514744951362
 21
448.1185755505617
 31
0.0
  0
ARC
  5
12C3
330
1E
100
AcDbEntity
  8
STEMPEL
100
AcDbCircle
 10
346.1079896026305
 20
447.4138060849723
 30
0.0
 40
0.7500000000000013
100
AcDbArc
 50
109.9999999999995
 51
269.9999991462263
  0
ARC
  5
12C4
330
1E
100
AcDbEntity
  8
STEMPEL
100
AcDbCircle
 10
366.4079896026304
 20
447.4138060849723
 30
0.0
 40
0.750000000000001
100
AcDbArc
 50
269.9999991462263
 51
70.00000000000047
  0
ARC
  5
12C5
330
1E
100
AcDbEntity
  8
STEMPEL
100
AcDbCircle
 10
292.7579896026307
 20
426.3529169525173
 30
0.0
 40
30.31088913245485
100
AcDbArc
 50
81.78678929826059
 51
98.2132107017394
  0
ARC
  5
12C6
330
1E
100
AcDbEntity
  8
STEMPEL
100
AcDbCircle
 10
286.2627990742474
 20
448.9695003771878
 30
0.0
 40
7.694305707784447
100
AcDbArc
 50
73.65710669401657
 51
106.3428933059865
  0
ARC
  5
12C7
330
1E
100
AcDbEntity
  8
STEMPEL
100
AcDbCircle
 10
299.253180131014
 20
448.9695003771878
 30
0.0
 40
7.694305707784447
100
AcDbArc
 50
73.65710669401345
 51
106.3428933059834
  0
ARC
  5
12C8
330
1E
100
AcDbEntity
  8
HILF
100
AcDbCircle
 10
292.7579896026307
 20
426.765345037311
 30
0.0
 40
22.41111549782308
100
AcDbArc
 50
78.85962783890455
 51
101.1403721610954
  0
ARC
  5
12C9
330
1E
100
AcDbEntity
  8
HILF
100
AcDbCircle
 10
299.253180131014
 20
443.4153199354425
 30
0.0
 40
5.761140599691502
100
AcDbArc
 50
67.92594526326054
 51
112.0740547367394
  0
ARC
  5
12CA
330
1E
100
AcDbEntity
  8
HILF
100
AcDbCircle
 10
286.2627990742474
 20
443.4153199354425
 30
0.0
 40
5.761140599691502
100
AcDbArc
 50
67.92594526326054
 51
112.0740547367394
  0
LINE
  5
12CB
330
1E
100
AcDbEntity
  8
STEMPEL
100
AcDbLine
 10
285.2579896026307
 20
456.6638060849722
 30
0.0
 11
300.2579896026307
 21
456.6638060849722
 31
0.0
  0
LINE
  5
12CC
330
1E
100
AcDbEntity
  8
STEMPEL
100
AcDbLine
 10
301.418243640475
 20
448.754162601172
 30
0.0
 11
301.418243640475
 21
456.3529169525168
 31
0.0
  0
LINE
  5
12CD
330
1E
100
AcDbEntity
  8
STEMPEL
100
AcDbLine
 10
297.0881166215529
 20
448.754162601172
 30
0.0
 11
297.0881166215529
 21
456.3529169525168
 31
0.0
  0
LINE
  5
12CE
330
1E
100
AcDbEntity
  8
STEMPEL
100
AcDbLine
 10
288.4278625837085
 20
448.754162601172
 30
0.0
 11
288.4278625837085
 21
456.3529169525168
 31
0.0
  0
LINE
  5
12CF
330
1E
100
AcDbEntity
  8
STEMPEL
100
AcDbLine
 10
303.164504710125
 20
448.1185755505617
 30
0.0
 11
282.3514744951364
 21
448.1185755505617
 31
0.0
  0
LINE
  5
12D0
330
1E
100
AcDbEntity
  8
STEMPEL
100
AcDbLine
 10
302.9079896026307
 20
446.6638060849722
 30
0.0
 11
282.6079896026307
 21
446.6638060849722
 31
0.0
  0
LINE
  5
12D1
330
1E
100
AcDbEntity
  8
STEMPEL
100
AcDbLine
 10
284.0977355647863
 20
448.754162601172
 30
0.0
 11
284.0977355647863
 21
456.3529169525168
 31
0.0
  0
LINE
  5
12D2
330
1E
100
AcDbEntity
  8
STEMPEL
100
AcDbLine
 10
285.2579896026307
 20
456.6638060849722
 30
0.0
 11
284.0977355647863
 21
456.3529169525168
 31
0.0
  0
LINE
  5
12D3
330
1E
100
AcDbEntity
  8
STEMPEL
100
AcDbLine
 10
301.418243640475
 20
456.3529169525168
 30
0.0
 11
300.2579896026307
 21
456.6638060849722
 31
0.0
  0
LINE
  5
12D4
330
1E
100
AcDbEntity
  8
STEMPEL
100
AcDbLine
 10
303.164504710125
 20
448.1185755505617
 30
0.0
 11
301.418243640475
 21
448.754162601172
 31
0.0
  0
LINE
  5
12D5
330
1E
100
AcDbEntity
  8
STEMPEL
100
AcDbLine
 10
284.0977355647863
 20
448.754162601172
 30
0.0
 11
282.3514744951365
 21
448.1185755505617
 31
0.0
  0
ARC
  5
12D6
330
1E
100
AcDbEntity
  8
STEMPEL
100
AcDbCircle
 10
282.6079896026307
 20
447.4138060849722
 30
0.0
 40
0.7500000000000013
100
AcDbArc
 50
109.9999999999995
 51
269.9999991462263
  0
ARC
  5
12D7
330
1E
100
AcDbEntity
  8
STEMPEL
100
AcDbCircle
 10
302.9079896026307
 20
447.4138060849722
 30
0.0
 40
0.750000000000001
100
AcDbArc
 50
269.9999991462263
 51
70.00000000000047
  0
ARC
  5
12D8
330
1E
100
AcDbEntity
  8
STEMPEL
100
AcDbCircle
 10
165.7579896026306
 20
426.3529169525171
 30
0.0
 40
30.31088913245485
100
AcDbArc
 50
81.78678929826059
 51
98.2132107017394
  0
ARC
  5
12D9
330
1E
100
AcDbEntity
  8
STEMPEL
100
AcDbCircle
 10
159.2627990742474
 20
448.9695003771876
 30
0.0
 40
7.694305707784447
100
AcDbArc
 50
73.65710669401657
 51
106.3428933059865
  0
ARC
  5
12DA
330
1E
100
AcDbEntity
  8
STEMPEL
100
AcDbCircle
 10
172.253180131014
 20
448.9695003771876
 30
0.0
 40
7.694305707784447
100
AcDbArc
 50
73.65710669401345
 51
106.3428933059834
  0
ARC
  5
12DB
330
1E
100
AcDbEntity
  8
HILF
100
AcDbCircle
 10
165.7579896026306
 20
426.7653450373108
 30
0.0
 40
22.41111549782308
100
AcDbArc
 50
78.85962783890455
 51
101.1403721610954
  0
ARC
  5
12DC
330
1E
100
AcDbEntity
  8
HILF
100
AcDbCircle
 10
172.253180131014
 20
443.4153199354424
 30
0.0
 40
5.761140599691502
100
AcDbArc
 50
67.92594526326054
 51
112.0740547367394
  0
ARC
  5
12DD
330
1E
100
AcDbEntity
  8
HILF
100
AcDbCircle
 10
159.2627990742474
 20
443.4153199354424
 30
0.0
 40
5.761140599691502
100
AcDbArc
 50
67.92594526326054
 51
112.0740547367394
  0
LINE
  5
12DE
330
1E
100
AcDbEntity
  8
STEMPEL
100
AcDbLine
 10
158.2579896026306
 20
456.6638060849721
 30
0.0
 11
173.2579896026306
 21
456.6638060849721
 31
0.0
  0
LINE
  5
12DF
330
1E
100
AcDbEntity
  8
STEMPEL
100
AcDbLine
 10
174.418243640475
 20
448.7541626011719
 30
0.0
 11
174.418243640475
 21
456.3529169525167
 31
0.0
  0
LINE
  5
12E0
330
1E
100
AcDbEntity
  8
STEMPEL
100
AcDbLine
 10
170.0881166215529
 20
448.7541626011719
 30
0.0
 11
170.0881166215529
 21
456.3529169525167
 31
0.0
  0
LINE
  5
12E1
330
1E
100
AcDbEntity
  8
STEMPEL
100
AcDbLine
 10
161.4278625837084
 20
448.7541626011719
 30
0.0
 11
161.4278625837084
 21
456.3529169525167
 31
0.0
  0
LINE
  5
12E2
330
1E
100
AcDbEntity
  8
STEMPEL
100
AcDbLine
 10
176.1645047101249
 20
448.1185755505615
 30
0.0
 11
155.3514744951364
 21
448.1185755505615
 31
0.0
  0
LINE
  5
12E3
330
1E
100
AcDbEntity
  8
STEMPEL
100
AcDbLine
 10
175.9079896026306
 20
446.663806084972
 30
0.0
 11
155.6079896026307
 21
446.663806084972
 31
0.0
  0
LINE
  5
12E4
330
1E
100
AcDbEntity
  8
STEMPEL
100
AcDbLine
 10
157.0977355647863
 20
448.7541626011719
 30
0.0
 11
157.0977355647863
 21
456.3529169525167
 31
0.0
  0
LINE
  5
12E5
330
1E
100
AcDbEntity
  8
STEMPEL
100
AcDbLine
 10
158.2579896026306
 20
456.6638060849721
 30
0.0
 11
157.0977355647863
 21
456.3529169525167
 31
0.0
  0
LINE
  5
12E6
330
1E
100
AcDbEntity
  8
STEMPEL
100
AcDbLine
 10
174.418243640475
 20
456.3529169525167
 30
0.0
 11
173.2579896026306
 21
456.6638060849721
 31
0.0
  0
LINE
  5
12E7
330
1E
100
AcDbEntity
  8
STEMPEL
100
AcDbLine
 10
176.1645047101249
 20
448.1185755505615
 30
0.0
 11
174.418243640475
 21
448.7541626011719
 31
0.0
  0
LINE
  5
12E8
330
1E
100
AcDbEntity
  8
STEMPEL
100
AcDbLine
 10
157.0977355647863
 20
448.7541626011719
 30
0.0
 11
155.3514744951364
 21
448.1185755505615
 31
0.0
  0
ARC
  5
12E9
330
1E
100
AcDbEntity
  8
STEMPEL
100
AcDbCircle
 10
155.6079896026307
 20
447.413806084972
 30
0.0
 40
0.7500000000000013
100
AcDbArc
 50
109.9999999999995
 51
269.9999991462263
  0
ARC
  5
12EA
330
1E
100
AcDbEntity
  8
STEMPEL
100
AcDbCircle
 10
175.9079896026306
 20
447.413806084972
 30
0.0
 40
0.750000000000001
100
AcDbArc
 50
269.9999991462263
 51
70.00000000000047
  0
ARC
  5
12EB
330
1E
100
AcDbEntity
  8
STEMPEL
100
AcDbCircle
 10
102.2579896026309
 20
426.3529169525171
 30
0.0
 40
30.31088913245485
100
AcDbArc
 50
81.78678929826059
 51
98.2132107017394
  0
ARC
  5
12EC
330
1E
100
AcDbEntity
  8
STEMPEL
100
AcDbCircle
 10
95.76279907424765
 20
448.9695003771875
 30
0.0
 40
7.694305707784447
100
AcDbArc
 50
73.65710669401657
 51
106.3428933059865
  0
ARC
  5
12ED
330
1E
100
AcDbEntity
  8
STEMPEL
100
AcDbCircle
 10
108.7531801310142
 20
448.9695003771875
 30
0.0
 40
7.694305707784447
100
AcDbArc
 50
73.65710669401345
 51
106.3428933059834
  0
ARC
  5
12EE
330
1E
100
AcDbEntity
  8
HILF
100
AcDbCircle
 10
102.2579896026309
 20
426.7653450373107
 30
0.0
 40
22.41111549782308
100
AcDbArc
 50
78.85962783890455
 51
101.1403721610954
  0
ARC
  5
12EF
330
1E
100
AcDbEntity
  8
HILF
100
AcDbCircle
 10
108.7531801310142
 20
443.4153199354423
 30
0.0
 40
5.761140599691502
100
AcDbArc
 50
67.92594526326054
 51
112.0740547367394
  0
ARC
  5
12F0
330
1E
100
AcDbEntity
  8
HILF
100
AcDbCircle
 10
95.76279907424765
 20
443.4153199354423
 30
0.0
 40
5.761140599691502
100
AcDbArc
 50
67.92594526326054
 51
112.0740547367394
  0
LINE
  5
12F1
330
1E
100
AcDbEntity
  8
STEMPEL
100
AcDbLine
 10
94.75798960263091
 20
456.663806084972
 30
0.0
 11
109.7579896026309
 21
456.663806084972
 31
0.0
  0
LINE
  5
12F2
330
1E
100
AcDbEntity
  8
STEMPEL
100
AcDbLine
 10
110.9182436404753
 20
448.7541626011718
 30
0.0
 11
110.9182436404753
 21
456.3529169525166
 31
0.0
  0
LINE
  5
12F3
330
1E
100
AcDbEntity
  8
STEMPEL
100
AcDbLine
 10
106.5881166215531
 20
448.7541626011718
 30
0.0
 11
106.5881166215531
 21
456.3529169525166
 31
0.0
  0
LINE
  5
12F4
330
1E
100
AcDbEntity
  8
STEMPEL
100
AcDbLine
 10
97.9278625837087
 20
448.7541626011718
 30
0.0
 11
97.9278625837087
 21
456.3529169525166
 31
0.0
  0
LINE
  5
12F5
330
1E
100
AcDbEntity
  8
STEMPEL
100
AcDbLine
 10
112.6645047101252
 20
448.1185755505614
 30
0.0
 11
91.85147449513664
 21
448.1185755505614
 31
0.0
  0
LINE
  5
12F6
330
1E
100
AcDbEntity
  8
STEMPEL
100
AcDbLine
 10
112.4079896026309
 20
446.663806084972
 30
0.0
 11
92.10798960263094
 21
446.663806084972
 31
0.0
  0
LINE
  5
12F7
330
1E
100
AcDbEntity
  8
STEMPEL
100
AcDbLine
 10
93.59773556478655
 20
448.7541626011718
 30
0.0
 11
93.59773556478655
 21
456.3529169525166
 31
0.0
  0
LINE
  5
12F8
330
1E
100
AcDbEntity
  8
STEMPEL
100
AcDbLine
 10
94.75798960263091
 20
456.663806084972
 30
0.0
 11
93.59773556478655
 21
456.3529169525166
 31
0.0
  0
LINE
  5
12F9
330
1E
100
AcDbEntity
  8
STEMPEL
100
AcDbLine
 10
110.9182436404753
 20
456.3529169525166
 30
0.0
 11
109.7579896026309
 21
456.663806084972
 31
0.0
  0
LINE
  5
12FA
330
1E
100
AcDbEntity
  8
STEMPEL
100
AcDbLine
 10
112.6645047101252
 20
448.1185755505614
 30
0.0
 11
110.9182436404753
 21
448.7541626011718
 31
0.0
  0
LINE
  5
12FB
330
1E
100
AcDbEntity
  8
STEMPEL
100
AcDbLine
 10
93.59773556478655
 20
448.7541626011718
 30
0.0
 11
91.85147449513669
 21
448.1185755505614
 31
0.0
  0
ARC
  5
12FC
330
1E
100
AcDbEntity
  8
STEMPEL
100
AcDbCircle
 10
92.10798960263094
 20
447.4138060849719
 30
0.0
 40
0.7500000000000013
100
AcDbArc
 50
109.9999999999995
 51
269.9999991462263
  0
ARC
  5
12FD
330
1E
100
AcDbEntity
  8
STEMPEL
100
AcDbCircle
 10
112.4079896026309
 20
447.4138060849719
 30
0.0
 40
0.750000000000001
100
AcDbArc
 50
269.9999991462263
 51
70.00000000000047
  0
LINE
  5
134D
330
1E
100
AcDbEntity
  8
STEMPEL
100
AcDbLine
 10
306.7579896026306
 20
362.1638060849705
 30
0.0
 11
306.2156291291474
 21
362.1638060849705
 31
0.0
  0
LINE
  5
134E
330
1E
100
AcDbEntity
  8
STEMPEL
100
AcDbLine
 10
162.7579896026309
 20
278.9638060849706
 30
0.0
 11
151.7579896026304
 21
292.1638060849711
 31
0.0
  0
LINE
  5
134F
330
1E
100
AcDbEntity
  8
STEMPEL
100
AcDbLine
 10
305.7579896026307
 20
290.9638060849705
 30
0.0
 11
306.7579896026304
 21
292.1638060849703
 31
0.0
  0
LINE
  5
1350
330
1E
100
AcDbEntity
  8
STEMPEL
  6
Continuous
100
AcDbLine
 10
151.7579896026304
 20
292.1638060849711
 30
0.0
 11
162.7579896026309
 21
292.1638060849711
 31
0.0
  0
LINE
  5
1351
330
1E
100
AcDbEntity
  8
STEMPEL
100
AcDbLine
 10
151.7579896026306
 20
362.1638060849709
 30
0.0
 11
151.7579896026304
 21
292.1638060849711
 31
0.0
  0
LINE
  5
1352
330
1E
100
AcDbEntity
  8
STEMPEL
100
AcDbLine
 10
306.7579896026306
 20
362.1638060849706
 30
0.0
 11
306.7579896026304
 21
292.1638060849703
 31
0.0
  0
LINE
  5
1353
330
1E
100
AcDbEntity
  8
STEMPEL
  6
Continuous
100
AcDbLine
 10
119.2579896026307
 20
432.163806084971
 30
0.0
 11
134.0029916769506
 21
274.8837839588919
 31
0.0
  0
ARC
  5
1354
330
1E
100
AcDbEntity
  8
STEMPEL
  6
Continuous
100
AcDbCircle
 10
136.9898943551284
 20
275.163806084971
 30
0.0
 40
3.0
100
AcDbArc
 50
185.3558250428554
 51
270.0
  0
LINE
  5
1355
330
1E
100
AcDbEntity
  8
STEMPEL
  6
Continuous
100
AcDbLine
 10
136.9898943551284
 20
272.1638060849711
 30
0.0
 11
162.7579896026309
 21
272.1638060849711
 31
0.0
  0
DIMENSION
  5
1356
330
1E
100
AcDbEntity
  8
BEM
100
AcDbDimension
  2
*D4
 10
324.2579896026307
 20
250.5433493782631
 30
0.0
 11
229.2579896026307
 21
257.0433493782631
 31
0.0
 70
    32
  1
%%c<>
 71
     5
 42
190.0
  3
Standard
100
AcDbAlignedDimension
 13
134.2579896026307
 23
272.1638060849711
 33
0.0
 14
324.2579896026307
 24
272.1638060849711
 34
0.0
100
AcDbRotatedDimension
1001
ACAD
1000
DSTYLE
1002
{
1070
    40
1040
2.0
1070
    41
1040
3.5
1070
    42
1040
1.0
1070
    43
1040
7.0
1070
    44
1040
1.0
1070
    73
1070
     0
1070
    74
1070
     0
1070
    77
1070
     1
1070
    78
1070
     8
1070
    79
1070
     2
1070
   140
1040
3.5
1070
   141
1040
1.5
1070
   146
1040
0.5142857142857144
1070
   147
1040
1.5
1070
   172
1070
     1
1070
   178
1070
     1
1070
   179
1070
     2
1070
   271
1070
     2
1070
   272
1070
     2
1070
   284
1070
     8
1070
   285
1070
     8
1070
   286
1070
     8
1002
}
  0
DIMENSION
  5
1357
330
1E
100
AcDbEntity
  8
BEM
100
AcDbDimension
  2
*D5
 10
339.2579896026306
 20
470.8556644312868
 30
0.0
 11
229.2579896026306
 21
477.3556644312868
 31
0.0
 70
    32
  1
%%c<>
 71
     5
 42
219.9999999999999
  3
Standard
100
AcDbAlignedDimension
 13
119.2579896026307
 23
432.163806084971
 33
0.0
 14
339.2579896026306
 24
432.163806084971
 34
0.0
100
AcDbRotatedDimension
1001
ACAD
1000
DSTYLE
1002
{
1070
    40
1040
2.0
1070
    41
1040
3.5
1070
    42
1040
1.0
1070
    43
1040
7.0
1070
    44
1040
1.0
1070
    73
1070
     0
1070
    74
1070
     0
1070
    77
1070
     1
1070
    78
1070
     8
1070
    79
1070
     2
1070
   140
1040
3.5
1070
   141
1040
1.5
1070
   146
1040
0.5142857142857144
1070
   147
1040
1.5
1070
   172
1070
     1
1070
   178
1070
     1
1070
   179
1070
     2
1070
   271
1070
     2
1070
   272
1070
     2
1070
   284
1070
     8
1070
   285
1070
     8
1070
   286
1070
     8
1002
}
  0
DIMENSION
  5
1358
330
1E
100
AcDbEntity
  8
BEM
100
AcDbDimension
  2
*D6
 10
57.99856604171487
 20
432.1638060849719
 30
0.0
 11
51.49856604171478
 21
352.1638060849715
 31
0.0
 70
    32
 71
     5
 42
160.0000000000008
  3
Standard
100
AcDbAlignedDimension
 13
136.9898943551284
 23
272.1638060849711
 33
0.0
 14
70.62195063331012
 24
432.1638060849719
 34
0.0
 50
90.0
100
AcDbRotatedDimension
1001
ACAD
1000
DSTYLE
1002
{
1070
    40
1040
2.0
1070
    41
1040
3.5
1070
    42
1040
1.0
1070
    43
1040
7.0
1070
    44
1040
1.0
1070
    73
1070
     0
1070
    74
1070
     0
1070
    77
1070
     1
1070
    78
1070
     8
1070
    79
1070
     2
1070
   140
1040
3.5
1070
   141
1040
1.5
1070
   146
1040
0.5142857142857144
1070
   147
1040
1.5
1070
   172
1070
     1
1070
   178
1070
     1
1070
   179
1070
     2
1070
   271
1070
     2
1070
   272
1070
     2
1070
   284
1070
     8
1070
   285
1070
     8
1070
   286
1070
     8
1002
}
  0
LINE
  5
1359
330
1E
100
AcDbEntity
  8
STEMPEL
100
AcDbLine
 10
134.2579896026307
 20
432.163806084971
 30
0.0
 11
140.2579896026307
 21
427.163806084971
 31
0.0
  0
LINE
  5
135A
330
1E
100
AcDbEntity
  8
STEMPEL
100
AcDbLine
 10
140.2579896026307
 20
407.163806084971
 30
0.0
 11
153.9579896026305
 21
407.163806084971
 31
0.0
  0
LINE
  5
135B
330
1E
100
AcDbEntity
  8
STEMPEL
100
AcDbLine
 10
140.2579896026307
 20
427.1638060849708
 30
0.0
 11
140.2579896026307
 21
407.163806084971
 31
0.0
  0
LINE
  5
135C
330
1E
100
AcDbEntity
  8
STEMPEL
100
AcDbLine
 10
140.2579896026307
 20
407.163806084971
 30
0.0
 11
151.7579896026306
 21
362.1638060849709
 31
0.0
  0
LINE
  5
135F
330
1E
100
AcDbEntity
  8
STEMPEL
100
AcDbLine
 10
318.2579896026307
 20
407.163806084971
 30
0.0
 11
306.7579896026306
 21
362.1638060849705
 31
0.0
  0
LINE
  5
1360
330
1E
100
AcDbEntity
  8
STEMPEL
100
AcDbLine
 10
318.2579896026307
 20
427.1638060849708
 30
0.0
 11
318.2579896026307
 21
407.163806084971
 31
0.0
  0
LINE
  5
1361
330
1E
100
AcDbEntity
  8
STEMPEL
100
AcDbLine
 10
324.2579896026307
 20
432.163806084971
 30
0.0
 11
318.2579896026307
 21
427.163806084971
 31
0.0
  0
ARC
  5
1362
330
1E
100
AcDbEntity
  8
STEMPEL
  6
Continuous
100
AcDbCircle
 10
321.526084850133
 20
275.163806084971
 30
0.0
 40
3.0
100
AcDbArc
 50
270.0
 51
354.6441749571445
  0
LINE
  5
1363
330
1E
100
AcDbEntity
  8
STEMPEL
  6
Continuous
100
AcDbLine
 10
339.2579896026307
 20
432.163806084971
 30
0.0
 11
324.5129875283108
 21
274.8837839588919
 31
0.0
  0
LINE
  5
1365
330
1E
100
AcDbEntity
  8
STEMPEL
100
AcDbLine
 10
140.2579896026307
 20
427.1638060849708
 30
0.0
 11
144.2639104553363
 21
427.1638060849708
 31
0.0
  0
LINE
  5
13AE
330
1E
100
AcDbEntity
  8
TEXT
 62
     2
100
AcDbLine
 10
172.9874911597365
 20
472.0322636205081
 30
0.0
 11
178.5941367410746
 21
483.8156375905601
 31
0.0
  0
TEXT
  5
13D0
330
1E
100
AcDbEntity
  8
TEXT
100
AcDbText
 10
235.1296391125316
 20
71.64011943042158
 30
0.0
 40
5.0
  1
mit Wärmedämmung und Heizung
 41
0.7
  7
GREEKS
100
AcDbText
  0
LINE
  5
13DA
330
1E
100
AcDbEntity
  8
TEXT
 62
     2
100
AcDbLine
 10
371.4489325344008
 20
403.3578963234894
 30
0.0
 11
371.448932534401
 21
300.4542253941267
 31
0.0
  0
TEXT
  5
13DB
330
1E
100
AcDbEntity
  8
TEXT
 62
     1
100
AcDbText
 10
380.8839364091864
 20
301.1844798581436
 30
0.0
 40
7.0
  1
EDV-Art.Nr. 19842.125X
 50
90.0
 41
0.8
  7
GREEKS
100
AcDbText
  0
TEXT
  5
13DC
330
1E
100
AcDbEntity
  8
TEXT
 62
     1
100
AcDbText
 10
367.8361642622072
 20
301.1844798581437
 30
0.0
 40
7.0
  1
Wärmedämmung DN125
 50
90.0
 41
0.8
  7
GREEKS
100
AcDbText
  0
LINE
  5
13DD
330
1E
100
AcDbEntity
  8
TEXT
 62
     2
100
AcDbLine
 10
320.4552972444085
 20
283.2981594651046
 30
0.0
 11
371.4489325344009
 21
300.4542253941267
 31
0.0
  0
LINE
  5
13DE
330
1E
100
AcDbEntity
  8
STEMPEL
100
AcDbLine
 10
304.5579896026309
 20
407.163806084971
 30
0.0
 11
318.2579896026306
 21
407.163806084971
 31
0.0
  0
LINE
  5
13DF
330
1E
100
AcDbEntity
  8
STEMPEL
100
AcDbLine
 10
158.4579896026307
 20
362.1638060849708
 30
0.0
 11
151.7579896026306
 21
362.1638060849709
 31
0.0
  0
LINE
  5
13E0
330
1E
100
AcDbEntity
  8
STEMPEL
  6
Continuous
100
AcDbLine
 10
305.7579896026307
 20
272.1638060849703
 30
0.0
 11
321.5260848501328
 21
272.1638060849703
 31
0.0
  0
LINE
  5
13E1
330
1E
100
AcDbEntity
  8
STEMPEL
  6
Continuous
100
AcDbLine
 10
305.7579896026307
 20
292.1638060849703
 30
0.0
 11
306.7579896026304
 21
292.1638060849703
 31
0.0
  0
LINE
  5
13E2
330
1E
100
AcDbEntity
  8
STEMPEL
100
AcDbLine
 10
314.252068749925
 20
427.1638060849708
 30
0.0
 11
318.2579896026307
 21
427.1638060849708
 31
0.0
  0
LINE
  5
13EC
330
1E
100
AcDbEntity
  8
MITTEL
100
AcDbLine
 10
229.2579896026305
 20
246.6339159221165
 30
0.0
 11
229.2579896026304
 21
150.1638060849719
 31
0.0
  0
ARC
  5
143E
330
1E
100
AcDbEntity
  8
STEMPEL
100
AcDbCircle
 10
155.4579896026307
 20
386.1638060849714
 30
0.0
 40
2.0
100
AcDbArc
 50
90.0
 51
180.0
  0
ARC
  5
143F
330
1E
100
AcDbEntity
  8
STEMPEL
100
AcDbCircle
 10
155.4579896026307
 20
386.1638060849714
 30
0.0
 40
1.0
100
AcDbArc
 50
90.0
 51
180.0
  0
ARC
  5
1440
330
1E
100
AcDbEntity
  8
STEMPEL
100
AcDbCircle
 10
155.4579896026307
 20
380.1638060849714
 30
0.0
 40
2.0
100
AcDbArc
 50
180.0
 51
270.0
  0
ARC
  5
1441
330
1E
100
AcDbEntity
  8
STEMPEL
100
AcDbCircle
 10
155.4579896026307
 20
380.1638060849714
 30
0.0
 40
1.0
100
AcDbArc
 50
180.0
 51
270.0
  0
HATCH
  5
1442
330
1E
100
AcDbEntity
  8
SCHRAFF
100
AcDbHatch
 10
0.0
 20
0.0
 30
0.0
210
0.0
220
0.0
230
1.0
  2
_USER
 70
     0
 71
     0
 91
        1
 92
        7
 72
     1
 73
     1
 93
        8
 10
154.4579896026307
 20
386.1638060849714
 42
-0.4142135623730951
 10
155.4579896026307
 20
387.1638060849714
 42
0.0
 10
156.4579896026307
 20
387.1638060849715
 42
-0.4142135623730951
 10
157.4579896026307
 20
386.1638060849715
 42
0.0
 10
157.4579896026307
 20
380.1638060849714
 42
-0.4142135623730951
 10
156.4579896026307
 20
379.1638060849714
 42
0.0
 10
155.4579896026307
 20
379.1638060849714
 42
-0.4142135623730951
 10
154.4579896026307
 20
380.1638060849714
 42
0.0
 97
        0
 75
     0
 76
     0
 52
135.0
 41
1.0
 77
     0
 78
     1
 53
135.0
 43
-5.399999645362356
 44
-28.06350760536435
 45
-0.7071067811865476
 46
-0.7071067811865475
 79
     0
 47
0.1071053300341939
 98
        1
 10
155.8928395908383
 20
382.9398815185481
  0
HATCH
  5
1443
330
1E
100
AcDbEntity
  8
SCHRAFF
100
AcDbHatch
 10
0.0
 20
0.0
 30
0.0
210
0.0
220
0.0
230
1.0
  2
NET
 70
     0
 71
     0
 91
        2
 92
        7
 72
     1
 73
     1
 93
        8
 10
153.4579896026307
 20
386.1638060849714
 42
-0.4142135623730618
 10
155.4579896026305
 20
388.1638060849714
 42
0.0
 10
156.4579896026307
 20
388.1638060849715
 42
-0.4142135623730951
 10
158.4579896026307
 20
386.1638060849715
 42
0.0
 10
158.4579896026307
 20
380.1638060849714
 42
-0.4142135623730951
 10
156.4579896026307
 20
378.1638060849714
 42
0.0
 10
155.4579896026307
 20
378.1638060849714
 42
-0.4142135623730951
 10
153.4579896026307
 20
380.1638060849714
 42
0.0
 97
        0
 92
       22
 72
     1
 73
     1
 93
        8
 10
154.4579896026307
 20
380.1638060849714
 42
0.4142135623730951
 10
155.4579896026307
 20
379.1638060849714
 42
0.0
 10
156.4579896026307
 20
379.1638060849714
 42
0.4142135623730951
 10
157.4579896026307
 20
380.1638060849714
 42
0.0
 10
157.4579896026307
 20
386.1638060849715
 42
0.4142135623731284
 10
156.4579896026306
 20
387.1638060849715
 42
0.0
 10
155.4579896026307
 20
387.1638060849714
 42
0.4142135623730951
 10
154.4579896026307
 20
386.1638060849714
 42
0.0
 97
        0
 75
     0
 76
     1
 52
45.0
 41
10.0
 77
     0
 78
     2
 53
134.9999999999999
 43
448.7337617561492
 44
35.0596565494163
 45
0.8838834764831855
 46
0.8838834764831831
 79
     0
 53
44.99999999999992
 43
448.7337617561492
 44
35.0596565494163
 45
0.8838834764831831
 46
-0.8838834764831855
 79
     0
 47
0.2432155912222071
 98
        2
 10
153.7455591954776
 20
380.4829814776157
 10
153.7455591954776
 20
380.4829814776157
  0
LINE
  5
1444
330
1E
100
AcDbEntity
  8
STEMPEL
  6
Continuous
100
AcDbLine
 10
154.4579896026307
 20
386.1638060849714
 30
0.0
 11
154.4579896026307
 21
380.1638060849714
 31
0.0
  0
LINE
  5
1445
330
1E
100
AcDbEntity
  8
STEMPEL
  6
Continuous
100
AcDbLine
 10
153.4579896026307
 20
386.1638060849714
 30
0.0
 11
153.4579896026307
 21
380.1638060849714
 31
0.0
  0
LINE
  5
1446
330
1E
100
AcDbEntity
  8
STEMPEL
  6
Continuous
100
AcDbLine
 10
158.4579896026307
 20
386.1638060849715
 30
0.0
 11
158.4579896026307
 21
380.1638060849714
 31
0.0
  0
LINE
  5
1447
330
1E
100
AcDbEntity
  8
STEMPEL
  6
Continuous
100
AcDbLine
 10
157.4579896026307
 20
386.1638060849715
 30
0.0
 11
157.4579896026307
 21
380.1638060849714
 31
0.0
  0
ARC
  5
1448
330
1E
100
AcDbEntity
  8
STEMPEL
100
AcDbCircle
 10
156.4579896026307
 20
380.1638060849714
 30
0.0
 40
1.0
100
AcDbArc
 50
270.0
 51
0.0
  0
LINE
  5
1449
330
1E
100
AcDbEntity
  8
STEMPEL
100
AcDbLine
 10
156.4579896026307
 20
378.1638060849714
 30
0.0
 11
155.4579896026307
 21
378.1638060849714
 31
0.0
  0
LINE
  5
144A
330
1E
100
AcDbEntity
  8
STEMPEL
100
AcDbLine
 10
156.4579896026307
 20
379.1638060849714
 30
0.0
 11
155.4579896026307
 21
379.1638060849714
 31
0.0
  0
ARC
  5
144B
330
1E
100
AcDbEntity
  8
STEMPEL
100
AcDbCircle
 10
156.4579896026307
 20
380.1638060849714
 30
0.0
 40
2.0
100
AcDbArc
 50
270.0
 51
0.0
  0
LINE
  5
144C
330
1E
100
AcDbEntity
  8
STEMPEL
100
AcDbLine
 10
155.4579896026307
 20
388.1638060849714
 30
0.0
 11
156.4579896026307
 21
388.1638060849715
 31
0.0
  0
ARC
  5
144D
330
1E
100
AcDbEntity
  8
STEMPEL
100
AcDbCircle
 10
156.4579896026307
 20
386.1638060849715
 30
0.0
 40
1.0
100
AcDbArc
 50
0.0
 51
90.0
  0
LINE
  5
144E
330
1E
100
AcDbEntity
  8
STEMPEL
100
AcDbLine
 10
156.4579896026307
 20
387.1638060849715
 30
0.0
 11
155.4579896026307
 21
387.1638060849714
 31
0.0
  0
ARC
  5
144F
330
1E
100
AcDbEntity
  8
STEMPEL
100
AcDbCircle
 10
156.4579896026307
 20
386.1638060849715
 30
0.0
 40
2.0
100
AcDbArc
 50
0.0
 51
90.0
  0
HATCH
  5
1450
330
1E
100
AcDbEntity
  8
SCHRAFF
100
AcDbHatch
 10
0.0
 20
0.0
 30
0.0
210
0.0
220
0.0
230
1.0
  2
NET
 70
     0
 71
     0
 91
        2
 92
        7
 72
     1
 73
     1
 93
        8
 10
305.0579896026306
 20
386.1638060849716
 42
0.4142135623730618
 10
303.0579896026309
 20
388.1638060849716
 42
0.0
 10
302.0579896026307
 20
388.1638060849717
 42
0.4142135623730951
 10
300.0579896026307
 20
386.1638060849717
 42
0.0
 10
300.0579896026307
 20
380.1638060849716
 42
0.4142135623730951
 10
302.0579896026307
 20
378.1638060849716
 42
0.0
 10
303.0579896026306
 20
378.1638060849716
 42
0.4142135623730951
 10
305.0579896026306
 20
380.1638060849716
 42
0.0
 97
        0
 92
       22
 72
     1
 73
     1
 93
        8
 10
304.0579896026307
 20
380.1638060849716
 42
-0.4142135623730951
 10
303.0579896026306
 20
379.1638060849716
 42
0.0
 10
302.0579896026307
 20
379.1638060849716
 42
-0.4142135623730951
 10
301.0579896026306
 20
380.1638060849716
 42
0.0
 10
301.0579896026306
 20
386.1638060849717
 42
-0.4142135623731284
 10
302.0579896026307
 20
387.1638060849717
 42
0.0
 10
303.0579896026306
 20
387.1638060849716
 42
-0.4142135623730951
 10
304.0579896026307
 20
386.1638060849716
 42
0.0
 97
        0
 75
     0
 76
     1
 52
45.0
 41
10.0
 77
     0
 78
     2
 53
45.0
 43
9.782217449111584
 44
35.0596565494169
 45
-0.8838834764831842
 46
0.8838834764831844
 79
     0
 53
135.0
 43
9.782217449111584
 44
35.0596565494169
 45
-0.8838834764831844
 46
-0.8838834764831842
 79
     0
 47
0.2432155912222071
 98
        2
 10
304.7704200097837
 20
380.4829814776159
 10
304.7704200097837
 20
380.4829814776159
  0
ARC
  5
1451
330
1E
100
AcDbEntity
  8
STEMPEL
100
AcDbCircle
 10
303.0579896026306
 20
386.1638060849716
 30
0.0
 40
2.0
100
AcDbArc
 50
0.0
 51
90.0
  0
ARC
  5
1452
330
1E
100
AcDbEntity
  8
STEMPEL
100
AcDbCircle
 10
303.0579896026306
 20
386.1638060849716
 30
0.0
 40
1.0
100
AcDbArc
 50
0.0
 51
90.0
  0
ARC
  5
1453
330
1E
100
AcDbEntity
  8
STEMPEL
100
AcDbCircle
 10
303.0579896026306
 20
380.1638060849716
 30
0.0
 40
2.0
100
AcDbArc
 50
270.0
 51
0.0
  0
ARC
  5
1454
330
1E
100
AcDbEntity
  8
STEMPEL
100
AcDbCircle
 10
303.0579896026306
 20
380.1638060849716
 30
0.0
 40
1.0
100
AcDbArc
 50
270.0
 51
0.0
  0
HATCH
  5
1455
330
1E
100
AcDbEntity
  8
SCHRAFF
100
AcDbHatch
 10
0.0
 20
0.0
 30
0.0
210
0.0
220
0.0
230
1.0
  2
_USER
 70
     0
 71
     0
 91
        1
 92
        7
 72
     1
 73
     1
 93
        8
 10
304.0579896026307
 20
386.1638060849716
 42
0.4142135623730951
 10
303.0579896026306
 20
387.1638060849716
 42
0.0
 10
302.0579896026307
 20
387.1638060849717
 42
0.4142135623730951
 10
301.0579896026306
 20
386.1638060849717
 42
0.0
 10
301.0579896026306
 20
380.1638060849716
 42
0.4142135623730951
 10
302.0579896026307
 20
379.1638060849716
 42
0.0
 10
303.0579896026306
 20
379.1638060849716
 42
0.4142135623730951
 10
304.0579896026307
 20
380.1638060849716
 42
0.0
 97
        0
 75
     0
 76
     0
 52
135.0
 41
1.0
 77
     0
 78
     1
 53
135.0
 43
42.12807085078881
 44
3.756692114635484
 45
-0.7071067811865476
 46
-0.7071067811865475
 79
     0
 47
0.1071053300341939
 98
        1
 10
302.623139614423
 20
382.9398815185483
  0
LINE
  5
1456
330
1E
100
AcDbEntity
  8
STEMPEL
  6
Continuous
100
AcDbLine
 10
300.0579896026307
 20
386.1638060849717
 30
0.0
 11
300.0579896026307
 21
380.1638060849716
 31
0.0
  0
LINE
  5
1457
330
1E
100
AcDbEntity
  8
STEMPEL
  6
Continuous
100
AcDbLine
 10
301.0579896026306
 20
386.1638060849717
 30
0.0
 11
301.0579896026306
 21
380.1638060849716
 31
0.0
  0
ARC
  5
1458
330
1E
100
AcDbEntity
  8
STEMPEL
100
AcDbCircle
 10
302.0579896026307
 20
380.1638060849716
 30
0.0
 40
2.0
100
AcDbArc
 50
180.0
 51
270.0
  0
ARC
  5
1459
330
1E
100
AcDbEntity
  8
STEMPEL
100
AcDbCircle
 10
302.0579896026307
 20
380.1638060849716
 30
0.0
 40
1.0
100
AcDbArc
 50
180.0
 51
270.0
  0
LINE
  5
145A
330
1E
100
AcDbEntity
  8
STEMPEL
100
AcDbLine
 10
302.0579896026307
 20
378.1638060849716
 30
0.0
 11
303.0579896026306
 21
378.1638060849716
 31
0.0
  0
LINE
  5
145B
330
1E
100
AcDbEntity
  8
STEMPEL
100
AcDbLine
 10
302.0579896026307
 20
379.1638060849716
 30
0.0
 11
303.0579896026306
 21
379.1638060849716
 31
0.0
  0
ARC
  5
145C
330
1E
100
AcDbEntity
  8
STEMPEL
100
AcDbCircle
 10
302.0579896026307
 20
386.1638060849717
 30
0.0
 40
2.0
100
AcDbArc
 50
90.0
 51
180.0
  0
LINE
  5
145D
330
1E
100
AcDbEntity
  8
STEMPEL
100
AcDbLine
 10
303.0579896026306
 20
388.1638060849716
 30
0.0
 11
302.0579896026307
 21
388.1638060849717
 31
0.0
  0
ARC
  5
145E
330
1E
100
AcDbEntity
  8
STEMPEL
100
AcDbCircle
 10
302.0579896026307
 20
386.1638060849717
 30
0.0
 40
1.0
100
AcDbArc
 50
90.0
 51
180.0
  0
LINE
  5
145F
330
1E
100
AcDbEntity
  8
STEMPEL
100
AcDbLine
 10
302.0579896026307
 20
387.1638060849717
 30
0.0
 11
303.0579896026306
 21
387.1638060849716
 31
0.0
  0
ARC
  5
1460
330
1E
100
AcDbEntity
  8
STEMPEL
100
AcDbCircle
 10
302.8299029084745
 20
381.2847729571075
 30
0.0
 40
6.829365039711341
100
AcDbArc
 50
358.8913910658281
 51
82.70138442210614
  0
LINE
  5
1461
330
1E
100
AcDbEntity
  8
STEMPEL
  6
Continuous
100
AcDbLine
 10
304.0579896026307
 20
386.1638060849716
 30
0.0
 11
304.0579896026307
 21
380.1638060849716
 31
0.0
  0
LINE
  5
1462
330
1E
100
AcDbEntity
  8
STEMPEL
  6
Continuous
100
AcDbLine
 10
305.0579896026306
 20
386.1638060849716
 30
0.0
 11
305.0579896026306
 21
380.1638060849716
 31
0.0
  0
LINE
  5
1463
330
1E
100
AcDbEntity
  8
STEMPEL
100
AcDbLine
 10
309.6579896026308
 20
381.4169052495925
 30
0.0
 11
309.6579896026308
 21
373.5116321719278
 31
0.0
  0
ARC
  5
1464
330
1E
100
AcDbEntity
  8
STEMPEL
100
AcDbCircle
 10
314.7579896026307
 20
359.3304198527266
 30
0.0
 40
9.0
100
AcDbArc
 50
151.4960981673648
 51
180.0
  0
ARC
  5
1465
330
1E
100
AcDbEntity
  8
STEMPEL
100
AcDbCircle
 10
298.9398665111119
 20
367.9203547687524
 30
0.0
 40
9.0
100
AcDbArc
 50
331.4960981673648
 51
345.6645645804794
  0
LINE
  5
1466
330
1E
100
AcDbEntity
  8
STEMPEL
100
AcDbLine
 10
305.7579896026307
 20
359.3304198527266
 30
0.0
 11
305.7579896026307
 21
272.1638060849706
 31
0.0
  0
HATCH
  5
1467
330
1E
100
AcDbEntity
  8
SCHRAFF
100
AcDbHatch
 10
0.0
 20
0.0
 30
0.0
210
0.0
220
0.0
230
1.0
  2
HONEY
 70
     0
 71
     0
 91
        2
 92
        7
 72
     1
 73
     1
 93
       10
 10
339.2579896026307
 20
432.163806084972
 42
0.0
 10
324.2579896026316
 20
432.163806084972
 42
0.0
 10
318.2579896026307
 20
427.1638060849713
 42
0.0
 10
318.2579896026306
 20
407.1638060849711
 42
0.0
 10
306.7579896026306
 20
362.1638060849705
 42
0.0
 10
306.7579896026304
 20
292.1638060849705
 42
0.0
 10
305.7579896026307
 20
290.9638060849708
 42
0.0
 10
305.7579896026307
 20
272.1638060849705
 42
0.0
 10
321.5260848501328
 20
272.1638060849705
 42
0.3870924378343681
 10
324.5129875283108
 20
274.8837839588921
 42
0.0
 97
        0
 92
        7
 72
     1
 73
     1
 93
       10
 10
140.2579896026306
 20
407.1638060849712
 42
0.0
 10
140.2579896026306
 20
427.1638060849712
 42
0.0
 10
134.2579896026298
 20
432.163806084972
 42
0.0
 10
119.2579896026306
 20
432.163806084972
 42
0.0
 10
134.0029916769506
 20
274.8837839588921
 42
0.3870924378342833
 10
136.9898943551284
 20
272.1638060849714
 42
0.0
 10
162.7579896026307
 20
272.1638060849713
 42
0.0
 10
162.7579896026307
 20
278.9638060849709
 42
0.0
 10
151.7579896026304
 20
292.1638060849713
 42
0.0
 10
151.7579896026305
 20
362.1638060849713
 42
0.0
 97
        0
 75
     0
 76
     1
 52
0.0
 41
35.0
 77
     0
 78
     3
 53
0.0
 43
-4.999999645362578
 44
-17.84213984575331
 45
6.5625
 46
3.788861124999999
 79
     2
 49
4.375
 49
-8.75
 53
120.0
 43
-4.999999645362578
 44
-17.84213984575331
 45
-6.562499985661285
 46
3.788861149835379
 79
     2
 49
4.374999999999998
 49
-8.749999999999996
 53
60.0
 43
-4.999999645362578
 44
-17.84213984575331
 45
0.000000014338714
 46
7.577722274835378
 79
     2
 49
-8.75
 49
4.375
 47
0.2517006619164946
 98
        2
 10
321.0318826557405
 20
364.0768327272838
 10
143.2757381176638
 20
381.9475801072799
  0
LINE
  5
1468
330
1E
100
AcDbEntity
  8
TEXT
 62
     2
100
AcDbLine
 10
317.3260599447838
 20
221.532732786613
 30
0.0
 11
399.9647584192344
 21
221.532732786613
 31
0.0
  0
TEXT
  5
1469
330
1E
100
AcDbEntity
  8
TEXT
 62
     1
100
AcDbText
 10
319.1251519392502
 20
225.6778833963247
 30
0.0
 40
7.0
  1
Heizbandkabel
 41
0.8
  7
GREEKS
100
AcDbText
  0
TEXT
  5
146A
330
1E
100
AcDbEntity
  8
TEXT
 62
     1
100
AcDbText
 10
319.1251519392502
 20
210.7151776019582
 30
0.0
 40
7.0
  1
EDV-Art.Nr. 19853.000X
 41
0.65
  7
GREEKS
100
AcDbText
  0
POLYLINE
  5
146B
330
1E
100
AcDbEntity
  8
STEMPEL
100
AcDb2dPolyline
 66
     1
 10
0.0
 20
0.0
 30
0.0
 70
     4
 75
     6
  0
VERTEX
  5
146C
330
146B
100
AcDbEntity
  8
STEMPEL
100
AcDbVertex
100
AcDb2dVertex
 10
295.7579982804724
 20
272.1701619519369
 30
0.0
 70
    16
  0
VERTEX
  5
146D
330
146B
100
AcDbEntity
  8
STEMPEL
100
AcDbVertex
100
AcDb2dVertex
 10
295.7579982804724
 20
272.1701619519369
 30
0.0
 70
     8
  0
VERTEX
  5
146E
330
146B
100
AcDbEntity
  8
STEMPEL
100
AcDbVertex
100
AcDb2dVertex
 10
296.4126533841079
 20
265.2485398616022
 30
0.0
 70
     8
  0
VERTEX
  5
146F
330
146B
100
AcDbEntity
  8
STEMPEL
100
AcDbVertex
100
AcDb2dVertex
 10
296.9787218621918
 20
259.7981566569334
 30
0.0
 70
     8
  0
VERTEX
  5
1470
330
146B
100
AcDbEntity
  8
STEMPEL
100
AcDbVertex
100
AcDb2dVertex
 10
297.550186054962
 20
255.3356616132472
 30
0.0
 70
     8
  0
VERTEX
  5
1471
330
146B
100
AcDbEntity
  8
STEMPEL
100
AcDbVertex
100
AcDb2dVertex
 10
298.2210283026559
 20
251.3777040058608
 30
0.0
 70
     8
  0
VERTEX
  5
1472
330
146B
100
AcDbEntity
  8
STEMPEL
100
AcDbVertex
100
AcDb2dVertex
 10
299.0852309455115
 20
247.4409331100909
 30
0.0
 70
     8
  0
VERTEX
  5
1473
330
146B
100
AcDbEntity
  8
STEMPEL
100
AcDbVertex
100
AcDb2dVertex
 10
300.2367763237665
 20
243.0419982012548
 30
0.0
 70
     8
  0
VERTEX
  5
1474
330
146B
100
AcDbEntity
  8
STEMPEL
100
AcDbVertex
100
AcDb2dVertex
 10
301.7696467776583
 20
237.6975485546692
 30
0.0
 70
     8
  0
VERTEX
  5
1475
330
146B
100
AcDbEntity
  8
STEMPEL
100
AcDbVertex
100
AcDb2dVertex
 10
303.7778246474251
 20
230.9242334456512
 30
0.0
 70
     8
  0
VERTEX
  5
1476
330
146B
100
AcDbEntity
  8
STEMPEL
100
AcDbVertex
100
AcDb2dVertex
 10
297.7054005822249
 20
251.3212061082163
 30
0.0
 70
    16
  0
VERTEX
  5
1477
330
146B
100
AcDbEntity
  8
STEMPEL
100
AcDbVertex
100
AcDb2dVertex
 10
303.7778246474252
 20
230.9242334456512
 30
0.0
 70
    16
  0
SEQEND
  5
1478
330
146B
100
AcDbEntity
  8
STEMPEL
  0
LINE
  5
1479
330
1E
100
AcDbEntity
  8
MITTEL
100
AcDbLine
 10
314.3257215700869
 20
234.045430412987
 30
0.0
 11
300.9011254866995
 21
230.072997909105
 31
0.0
  0
LINE
  5
147A
330
1E
100
AcDbEntity
  8
TEXT
 62
     2
100
AcDbLine
 10
317.3260599447838
 20
221.532732786613
 30
0.0
 11
305.8669909597488
 21
233.9527757793306
 31
0.0
  0
POLYLINE
  5
147B
330
1E
100
AcDbEntity
  8
STEMPEL
100
AcDb2dPolyline
 66
     1
 10
0.0
 20
0.0
 30
0.0
  0
VERTEX
  5
147C
330
147B
100
AcDbEntity
  8
STEMPEL
100
AcDbVertex
100
AcDb2dVertex
 10
305.7579896026307
 20
272.1638060849706
 30
0.0
  0
VERTEX
  5
147D
330
147B
100
AcDbEntity
  8
STEMPEL
100
AcDbVertex
100
AcDb2dVertex
 10
305.7525338112696
 20
265.2967150422147
 30
0.0
  0
VERTEX
  5
147E
330
147B
100
AcDbEntity
  8
STEMPEL
100
AcDbVertex
100
AcDb2dVertex
 10
305.8199854858328
 20
260.0429689289929
 30
0.0
  0
VERTEX
  5
147F
330
147B
100
AcDbEntity
  8
STEMPEL
100
AcDbVertex
100
AcDb2dVertex
 10
306.0174091724446
 20
255.9641895291053
 30
0.0
  0
VERTEX
  5
1480
330
147B
100
AcDbEntity
  8
STEMPEL
100
AcDbVertex
100
AcDb2dVertex
 10
306.3923923612973
 20
252.5330779457432
 30
0.0
  0
VERTEX
  5
1481
330
147B
100
AcDbEntity
  8
STEMPEL
100
AcDbVertex
100
AcDb2dVertex
 10
307.0175682184612
 20
249.1132218516889
 30
0.0
  0
VERTEX
  5
1482
330
147B
100
AcDbEntity
  8
STEMPEL
100
AcDbVertex
100
AcDb2dVertex
 10
308.0056502328343
 20
245.0786909762798
 30
0.0
  0
VERTEX
  5
1483
330
147B
100
AcDbEntity
  8
STEMPEL
100
AcDbVertex
100
AcDb2dVertex
 10
309.4596350873932
 20
239.9172093580542
 30
0.0
  0
VERTEX
  5
1484
330
147B
100
AcDbEntity
  8
STEMPEL
100
AcDbVertex
100
AcDb2dVertex
 10
311.449022409361
 20
233.1941948764409
 30
0.0
  0
SEQEND
  5
1485
330
147B
100
AcDbEntity
  8
STEMPEL
  0
ENDSEC
  0
SECTION
  2
OBJECTS
  0
DICTIONARY
  5
C
330
0
100
AcDbDictionary
281
     1
  3
ACAD_COLOR
350
DF
  3
ACAD_GROUP
350
D
  3
ACAD_LAYOUT
350
19
  3
ACAD_MATERIAL
350
DE
  3
ACAD_MLINESTYLE
350
16
  3
ACAD_PLOTSETTINGS
350
18
  3
ACAD_PLOTSTYLENAME
350
E
  3
AcDbVariableDictionary
350
EA
  0
DICTIONARY
  5
A0
330
1E
100
AcDbDictionary
280
     1
281
     1
  3
ACAD_LAYOUTSELFREF
360
D4
  0
DICTIONARY
  5
A2
330
1A
100
AcDbDictionary
280
     1
281
     1
  3
ACAD_LAYOUTSELFREF
360
D3
  0
DICTIONARY
  5
DF
102
{ACAD_REACTORS
330
C
102
}
330
C
100
AcDbDictionary
281
     1
  0
DICTIONARY
  5
D
102
{ACAD_REACTORS
330
C
102
}
330
C
100
AcDbDictionary
281
     1
  0
DICTIONARY
  5
19
102
{ACAD_REACTORS
330
C
102
}
330
C
100
AcDbDictionary
281
     1
  3
Layout1
350
1D
  3
Model
350
21
  0
DICTIONARY
  5
DE
102
{ACAD_REACTORS
330
C
102
}
330
C
100
AcDbDictionary
281
     1
  0
DICTIONARY
  5
16
102
{ACAD_REACTORS
330
C
102
}
330
C
100
AcDbDictionary
281
     1
  3
Standard
350
17
  0
DICTIONARY
  5
18
102
{ACAD_REACTORS
330
C
102
}
330
C
100
AcDbDictionary
281
     1
  0
ACDBDICTIONARYWDFLT
  5
E
102
{ACAD_REACTORS
330
C
102
}
330
C
100
AcDbDictionary
281
     1
  3
Normal
350
F
100
AcDbDictionaryWithDefault
340
F
  0
DICTIONARY
  5
EA
102
{ACAD_REACTORS
330
C
102
}
330
C
100
AcDbDictionary
281
     1
  3
DIMASSOC
350
EB
  3
PROJECTNAME
350
EC
  0
XRECORD
  5
D4
102
{ACAD_REACTORS
330
A0
102
}
330
A0
100
AcDbXrecord
280
     1
340
1E
  0
XRECORD
  5
D3
102
{ACAD_REACTORS
330
A2
102
}
330
A2
100
AcDbXrecord
280
     1
340
1A
  0
LAYOUT
  5
1D
102
{ACAD_REACTORS
330
19
102
}
330
19
100
AcDbPlotSettings
  1

  2
\\NT_WORK01\HP LaserJet 5000 PCL 6
  4

  6

 40
0.0
 41
0.0
 42
0.0
 43
0.0
 44
0.0
 45
0.0
 46
0.0
 47
0.0
 48
0.0
 49
0.0
140
0.0
141
0.0
142
1.0
143
1.0
 70
   688
 72
     0
 73
     0
 74
     5
  7

 75
    16
147
1.0
 76
     0
 77
     2
 78
   300
148
0.0
149
0.0
100
AcDbLayout
  1
Layout1
 70
     0
 71
     1
 10
0.0
 20
0.0
 11
12.0
 21
9.0
 12
0.0
 22
0.0
 32
0.0
 14
1.000000000000000E+20
 24
1.000000000000000E+20
 34
1.000000000000000E+20
 15
-1.000000000000000E+20
 25
-1.000000000000000E+20
 35
-1.000000000000000E+20
146
0.0
 13
0.0
 23
0.0
 33
0.0
 16
1.0
 26
0.0
 36
0.0
 17
0.0
 27
1.0
 37
0.0
 76
     0
330
1A
  0
LAYOUT
  5
21
102
{ACAD_REACTORS
330
19
102
}
330
19
100
AcDbPlotSettings
  1

  2
none_device
  4
Letter_(8.50_x_11.00_Inches)
  6

 40
6.349999904632568
 41
6.349999904632568
 42
6.350006103515625
 43
6.350006103515625
 44
215.8999938964844
 45
279.3999938964844
 46
0.0
 47
0.0
 48
0.0
 49
0.0
140
0.0
141
0.0
142
1.0
143
1.0
 70
 11952
 72
     0
 73
     1
 74
     0
  7

 75
     0
147
1.0
 76
     0
 77
     2
 78
   300
148
2209.800000000002
149
0.0
100
AcDbLayout
  1
Model
 70
     1
 71
     0
 10
0.0
 20
0.0
 11
12.0
 21
9.0
 12
0.0
 22
0.0
 32
0.0
 14
0.0
 24
0.0
 34
0.0
 15
0.0
 25
0.0
 35
0.0
146
0.0
 13
0.0
 23
0.0
 33
0.0
 16
1.0
 26
0.0
 36
0.0
 17
0.0
 27
1.0
 37
0.0
 76
     0
330
1E
  0
MLINESTYLE
  5
17
102
{ACAD_REACTORS
330
16
102
}
330
16
100
AcDbMlineStyle
  2
STANDARD
 70
     0
  3

 62
   256
 51
90.0
 52
90.0
 71
     2
 49
0.5
 62
   256
  6
BYLAYER
 49
-0.5
 62
   256
  6
BYLAYER
  0
ACDBPLACEHOLDER
  5
F
102
{ACAD_REACTORS
330
E
102
}
330
E
  0
DICTIONARYVAR
  5
EB
102
{ACAD_REACTORS
330
EA
102
}
330
EA
100
DictionaryVariables
280
     0
  1
1
  0
DICTIONARYVAR
  5
EC
102
{ACAD_REACTORS
330
EA
102
}
330
EA
100
DictionaryVariables
280
     0
  1

  0
ENDSEC
  0
EOF
