  0
SECTION
  2
HEADER
  9
$ACADVER
  1
AC1018
  9
$ACADMAINTVER
 70
   104
  9
$DWGCODEPAGE
  3
ANSI_1252
  9
$LASTSAVEDBY
  1
w.koehlhoff
  9
$INSBASE
 10
0.0
 20
0.0
 30
0.0
  9
$EXTMIN
 10
-0.0128036914306904
 20
-0.018108077881152
 30
-0.000000000000013
  9
$EXTMAX
 10
420.0128242284961
 20
594.0181371231585
 30
0.0000000000000023
  9
$LIMMIN
 10
0.0
 20
0.0
  9
$LIMMAX
 10
419.9999999999999
 20
594.0
  9
$ORTHOMODE
 70
     1
  9
$REGENMODE
 70
     1
  9
$FILLMODE
 70
     1
  9
$QTEXTMODE
 70
     0
  9
$MIRRTEXT
 70
     1
  9
$LTSCALE
 40
20.0
  9
$ATTMODE
 70
     1
  9
$TEXTSIZE
 40
3.5
  9
$TRACEWID
 40
0.5
  9
$TEXTSTYLE
  7
STANDARD
  9
$CLAYER
  8
SCHRAFF
  9
$CELTYPE
  6
ByLayer
  9
$CECOLOR
 62
   256
  9
$CELTSCALE
 40
1.0
  9
$DISPSILH
 70
     0
  9
$DIMSCALE
 40
2.0
  9
$DIMASZ
 40
3.5
  9
$DIMEXO
 40
1.0
  9
$DIMDLI
 40
7.0
  9
$DIMRND
 40
0.0
  9
$DIMDLE
 40
0.0
  9
$DIMEXE
 40
1.0
  9
$DIMTP
 40
0.0
  9
$DIMTM
 40
0.0
  9
$DIMTXT
 40
3.5
  9
$DIMCEN
 40
1.5
  9
$DIMTSZ
 40
0.0
  9
$DIMTOL
 70
     0
  9
$DIMLIM
 70
     0
  9
$DIMTIH
 70
     0
  9
$DIMTOH
 70
     0
  9
$DIMSE1
 70
     0
  9
$DIMSE2
 70
     0
  9
$DIMTAD
 70
     1
  9
$DIMZIN
 70
     8
  9
$DIMBLK
  1

  9
$DIMASO
 70
     1
  9
$DIMSHO
 70
     0
  9
$DIMPOST
  1

  9
$DIMAPOST
  1

  9
$DIMALT
 70
     0
  9
$DIMALTD
 70
     2
  9
$DIMALTF
 40
25.4
  9
$DIMLFAC
 40
1.0
  9
$DIMTOFL
 70
     1
  9
$DIMTVP
 40
0.0
  9
$DIMTIX
 70
     0
  9
$DIMSOXD
 70
     0
  9
$DIMSAH
 70
     0
  9
$DIMBLK1
  1

  9
$DIMBLK2
  1

  9
$DIMSTYLE
  2
Standard
  9
$DIMCLRD
 70
     0
  9
$DIMCLRE
 70
     0
  9
$DIMCLRT
 70
     1
  9
$DIMTFAC
 40
0.5142857142857144
  9
$DIMGAP
 40
1.5
  9
$DIMJUST
 70
     0
  9
$DIMSD1
 70
     0
  9
$DIMSD2
 70
     0
  9
$DIMTOLJ
 70
     1
  9
$DIMTZIN
 70
     8
  9
$DIMALTZ
 70
     8
  9
$DIMALTTZ
 70
     8
  9
$DIMUPT
 70
     0
  9
$DIMDEC
 70
     2
  9
$DIMTDEC
 70
     2
  9
$DIMALTU
 70
     2
  9
$DIMALTTD
 70
     2
  9
$DIMTXSTY
  7
STANDARD
  9
$DIMAUNIT
 70
     0
  9
$DIMADEC
 70
     2
  9
$DIMALTRND
 40
0.0
  9
$DIMAZIN
 70
     2
  9
$DIMDSEP
 70
    46
  9
$DIMATFIT
 70
     3
  9
$DIMFRAC
 70
     0
  9
$DIMLDRBLK
  1

  9
$DIMLUNIT
 70
     2
  9
$DIMLWD
 70
    -2
  9
$DIMLWE
 70
    -2
  9
$DIMTMOVE
 70
     0
  9
$LUNITS
 70
     2
  9
$LUPREC
 70
     2
  9
$SKETCHINC
 40
1.0
  9
$FILLETRAD
 40
0.0
  9
$AUNITS
 70
     0
  9
$AUPREC
 70
     0
  9
$MENU
  1
ACAD
  9
$ELEVATION
 40
0.0
  9
$PELEVATION
 40
0.0
  9
$THICKNESS
 40
0.0
  9
$LIMCHECK
 70
     0
  9
$CHAMFERA
 40
0.0
  9
$CHAMFERB
 40
0.0
  9
$CHAMFERC
 40
0.0
  9
$CHAMFERD
 40
0.0
  9
$SKPOLY
 70
     0
  9
$TDCREATE
 40
2455397.823042361
  9
$TDUCREATE
 40
2455397.781375695
  9
$TDUPDATE
 40
2456674.548425197
  9
$TDUUPDATE
 40
2456674.506758530
  9
$TDINDWG
 40
0.0925390856
  9
$TDUSRTIMER
 40
0.0925390856
  9
$USRTIMER
 70
     1
  9
$ANGBASE
 50
0.0
  9
$ANGDIR
 70
     0
  9
$PDMODE
 70
     0
  9
$PDSIZE
 40
0.0
  9
$PLINEWID
 40
0.0
  9
$SPLFRAME
 70
     0
  9
$SPLINETYPE
 70
     6
  9
$SPLINESEGS
 70
     8
  9
$HANDSEED
  5
1884
  9
$SURFTAB1
 70
     6
  9
$SURFTAB2
 70
     6
  9
$SURFTYPE
 70
     6
  9
$SURFU
 70
     6
  9
$SURFV
 70
     6
  9
$UCSBASE
  2

  9
$UCSNAME
  2

  9
$UCSORG
 10
0.0
 20
0.0
 30
0.0
  9
$UCSXDIR
 10
1.0
 20
0.0
 30
0.0
  9
$UCSYDIR
 10
0.0
 20
1.0
 30
0.0
  9
$UCSORTHOREF
  2

  9
$UCSORTHOVIEW
 70
     0
  9
$UCSORGTOP
 10
0.0
 20
0.0
 30
0.0
  9
$UCSORGBOTTOM
 10
0.0
 20
0.0
 30
0.0
  9
$UCSORGLEFT
 10
0.0
 20
0.0
 30
0.0
  9
$UCSORGRIGHT
 10
0.0
 20
0.0
 30
0.0
  9
$UCSORGFRONT
 10
0.0
 20
0.0
 30
0.0
  9
$UCSORGBACK
 10
0.0
 20
0.0
 30
0.0
  9
$PUCSBASE
  2

  9
$PUCSNAME
  2

  9
$PUCSORG
 10
0.0
 20
0.0
 30
0.0
  9
$PUCSXDIR
 10
1.0
 20
0.0
 30
0.0
  9
$PUCSYDIR
 10
0.0
 20
1.0
 30
0.0
  9
$PUCSORTHOREF
  2

  9
$PUCSORTHOVIEW
 70
     0
  9
$PUCSORGTOP
 10
0.0
 20
0.0
 30
0.0
  9
$PUCSORGBOTTOM
 10
0.0
 20
0.0
 30
0.0
  9
$PUCSORGLEFT
 10
0.0
 20
0.0
 30
0.0
  9
$PUCSORGRIGHT
 10
0.0
 20
0.0
 30
0.0
  9
$PUCSORGFRONT
 10
0.0
 20
0.0
 30
0.0
  9
$PUCSORGBACK
 10
0.0
 20
0.0
 30
0.0
  9
$USERI1
 70
     0
  9
$USERI2
 70
     0
  9
$USERI3
 70
     0
  9
$USERI4
 70
     0
  9
$USERI5
 70
     0
  9
$USERR1
 40
0.0
  9
$USERR2
 40
0.0
  9
$USERR3
 40
0.0
  9
$USERR4
 40
0.0
  9
$USERR5
 40
0.0
  9
$WORLDVIEW
 70
     1
  9
$SHADEDGE
 70
     3
  9
$SHADEDIF
 70
    70
  9
$TILEMODE
 70
     1
  9
$MAXACTVP
 70
    16
  9
$PINSBASE
 10
0.0
 20
0.0
 30
0.0
  9
$PLIMCHECK
 70
     0
  9
$PEXTMIN
 10
1.000000000000000E+20
 20
1.000000000000000E+20
 30
1.000000000000000E+20
  9
$PEXTMAX
 10
-1.000000000000000E+20
 20
-1.000000000000000E+20
 30
-1.000000000000000E+20
  9
$PLIMMIN
 10
0.0
 20
0.0
  9
$PLIMMAX
 10
12.0
 20
9.0
  9
$UNITMODE
 70
     0
  9
$VISRETAIN
 70
     0
  9
$PLINEGEN
 70
     0
  9
$PSLTSCALE
 70
     0
  9
$TREEDEPTH
 70
  3020
  9
$CMLSTYLE
  2
Standard
  9
$CMLJUST
 70
     0
  9
$CMLSCALE
 40
1.0
  9
$PROXYGRAPHICS
 70
     1
  9
$MEASUREMENT
 70
     0
  9
$CELWEIGHT
370
    -1
  9
$ENDCAPS
280
     0
  9
$JOINSTYLE
280
     0
  9
$LWDISPLAY
290
     0
  9
$INSUNITS
 70
     0
  9
$HYPERLINKBASE
  1

  9
$STYLESHEET
  1
monochrome1.ctb
  9
$XEDIT
290
     1
  9
$CEPSNTYPE
380
     0
  9
$PSTYLEMODE
290
     1
  9
$FINGERPRINTGUID
  2
{D68B0D02-A558-11D7-B632-000102183313}
  9
$VERSIONGUID
  2
{ADA1B327-46A9-41C0-94F3-61282E8171FF}
  9
$EXTNAMES
290
     1
  9
$PSVPSCALE
 40
0.0
  9
$OLESTARTUP
290
     0
  9
$SORTENTS
280
   127
  9
$INDEXCTL
280
     0
  9
$HIDETEXT
280
     0
  9
$XCLIPFRAME
290
     0
  9
$HALOGAP
280
     0
  9
$OBSCOLOR
 70
   257
  9
$OBSLTYPE
280
     0
  9
$INTERSECTIONDISPLAY
280
     0
  9
$INTERSECTIONCOLOR
 70
   257
  9
$DIMASSOC
280
     1
  9
$PROJECTNAME
  1

  0
ENDSEC
  0
SECTION
  2
CLASSES
  0
CLASS
  1
ACDBDICTIONARYWDFLT
  2
AcDbDictionaryWithDefault
  3
ObjectDBX Classes
 90
        0
 91
        1
280
     0
281
     0
  0
CLASS
  1
DICTIONARYVAR
  2
AcDbDictionaryVar
  3
ObjectDBX Classes
 90
        0
 91
        7
280
     0
281
     0
  0
CLASS
  1
MATERIAL
  2
AcDbMaterial
  3
ObjectDBX Classes
 90
     1153
 91
        3
280
     0
281
     0
  0
CLASS
  1
VISUALSTYLE
  2
AcDbVisualStyle
  3
ObjectDBX Classes
 90
     4095
 91
       24
280
     0
281
     0
  0
CLASS
  1
TABLESTYLE
  2
AcDbTableStyle
  3
ObjectDBX Classes
 90
     4095
 91
        1
280
     0
281
     0
  0
CLASS
  1
SCALE
  2
AcDbScale
  3
ObjectDBX Classes
 90
     1153
 91
       17
280
     0
281
     0
  0
CLASS
  1
MLEADERSTYLE
  2
AcDbMLeaderStyle
  3
ACDB_MLEADERSTYLE_CLASS
 90
     4095
 91
        1
280
     0
281
     0
  0
CLASS
  1
ACDBSECTIONVIEWSTYLE
  2
AcDbSectionViewStyle
  3
ObjectDBX Classes
 90
     1025
 91
        1
280
     0
281
     0
  0
CLASS
  1
ACDBDETAILVIEWSTYLE
  2
AcDbDetailViewStyle
  3
ObjectDBX Classes
 90
     1025
 91
        1
280
     0
281
     0
  0
CLASS
  1
SORTENTSTABLE
  2
AcDbSortentsTable
  3
ObjectDBX Classes
 90
        0
 91
        1
280
     0
281
     0
  0
CLASS
  1
CELLSTYLEMAP
  2
AcDbCellStyleMap
  3
ObjectDBX Classes
 90
     1152
 91
        3
280
     0
281
     0
  0
ENDSEC
  0
SECTION
  2
TABLES
  0
TABLE
  2
VPORT
  5
8
102
{ACAD_XDICTIONARY
360
14F3
102
}
330
0
100
AcDbSymbolTable
 70
     1
  0
VPORT
  5
1147
330
8
100
AcDbSymbolTableRecord
100
AcDbViewportTableRecord
  2
*Active
 70
     0
 10
0.0
 20
0.0
 11
1.0
 21
1.0
 12
210.0000102685327
 22
297.0000145226387
 13
0.0
 23
0.0
 14
1.0
 24
1.0
 15
10.0
 25
10.0
 16
0.0
 26
0.0
 36
1.0
 17
0.0
 27
0.0
 37
0.0
 40
598.0454887007092
 41
1.70045045045045
 42
50.0
 43
0.0
 44
0.0
 50
0.0
 51
0.0
 71
     0
 72
  1500
 73
     1
 74
     0
 75
     0
 76
     0
 77
     0
 78
     0
281
     0
 65
     1
110
0.0
120
0.0
130
0.0
111
1.0
121
0.0
131
0.0
112
0.0
122
1.0
132
0.0
 79
     0
146
0.0
1001
ACAD_NAV_VCDISPLAY
1070
     3
  0
ENDTAB
  0
TABLE
  2
LTYPE
  5
5
330
0
100
AcDbSymbolTable
 70
     5
  0
LTYPE
  5
13
330
5
100
AcDbSymbolTableRecord
100
AcDbLinetypeTableRecord
  2
ByBlock
 70
     0
  3

 72
    65
 73
     0
 40
0.0
  0
LTYPE
  5
14
330
5
100
AcDbSymbolTableRecord
100
AcDbLinetypeTableRecord
  2
ByLayer
 70
     0
  3

 72
    65
 73
     0
 40
0.0
  0
LTYPE
  5
15
330
5
100
AcDbSymbolTableRecord
100
AcDbLinetypeTableRecord
  2
Continuous
 70
     0
  3
Solid line
 72
    65
 73
     0
 40
0.0
  0
LTYPE
  5
25
330
5
100
AcDbSymbolTableRecord
100
AcDbLinetypeTableRecord
  2
STRICHPUNKT
 70
     0
  3
__ . __ . __ . __ . __ . __ . __ . __ . __ . __
 72
    65
 73
     4
 40
1.0
 49
0.5
 74
     0
 49
-0.25
 74
     0
 49
0.0
 74
     0
 49
-0.25
 74
     0
  0
LTYPE
  5
32
330
5
100
AcDbSymbolTableRecord
100
AcDbLinetypeTableRecord
  2
AUSGEZOGEN
 70
     0
  3
Ausgezogene Linie
 72
    65
 73
     0
 40
0.0
  0
LTYPE
  5
1191
330
5
100
AcDbSymbolTableRecord
100
AcDbLinetypeTableRecord
  2
PHANTOM2
 70
     0
  3
Phantom (.5x) ___ _ _ ___ _ _ ___ _ _ ___ _ _
 72
    65
 73
     6
 40
1.25
 49
0.625
 74
     0
 49
-0.125
 74
     0
 49
0.125
 74
     0
 49
-0.125
 74
     0
 49
0.125
 74
     0
 49
-0.125
 74
     0
  0
ENDTAB
  0
TABLE
  2
LAYER
  5
2
102
{ACAD_XDICTIONARY
360
11C0
102
}
330
0
100
AcDbSymbolTable
 70
     9
  0
LAYER
  5
10
102
{ACAD_XDICTIONARY
360
133B
102
}
330
2
100
AcDbSymbolTableRecord
100
AcDbLayerTableRecord
  2
0
 70
     0
 62
     7
  6
Continuous
370
    -3
390
F
  0
LAYER
  5
2A
102
{ACAD_XDICTIONARY
360
133D
102
}
330
2
100
AcDbSymbolTableRecord
100
AcDbLayerTableRecord
  2
VOLL
 70
     0
 62
     1
  6
Continuous
370
    -3
390
F
  0
LAYER
  5
2B
102
{ACAD_XDICTIONARY
360
133F
102
}
330
2
100
AcDbSymbolTableRecord
100
AcDbLayerTableRecord
  2
HILF
 70
     0
 62
     2
  6
Continuous
370
    -3
390
F
  0
LAYER
  5
2C
102
{ACAD_XDICTIONARY
360
1341
102
}
330
2
100
AcDbSymbolTableRecord
100
AcDbLayerTableRecord
  2
MITTEL
 70
     0
 62
     2
  6
STRICHPUNKT
370
    -3
390
F
  0
LAYER
  5
2F
102
{ACAD_XDICTIONARY
360
1343
102
}
330
2
100
AcDbSymbolTableRecord
100
AcDbLayerTableRecord
  2
BEM
 70
     0
 62
     7
  6
Continuous
370
    -3
390
F
  0
LAYER
  5
30
102
{ACAD_XDICTIONARY
360
1345
102
}
330
2
100
AcDbSymbolTableRecord
100
AcDbLayerTableRecord
  2
STEMPEL
 70
     0
 62
     3
  6
Continuous
370
    -3
390
F
  0
LAYER
  5
31
102
{ACAD_XDICTIONARY
360
1347
102
}
330
2
100
AcDbSymbolTableRecord
100
AcDbLayerTableRecord
  2
TEXT
 70
     0
 62
     7
  6
Continuous
370
    -3
390
F
  0
LAYER
  5
4F0
330
2
100
AcDbSymbolTableRecord
100
AcDbLayerTableRecord
  2
DEFPOINTS
 70
     0
 62
     7
  6
AUSGEZOGEN
290
     0
370
    -3
390
F
  0
LAYER
  5
4F1
102
{ACAD_XDICTIONARY
360
1349
102
}
330
2
100
AcDbSymbolTableRecord
100
AcDbLayerTableRecord
  2
SCHRAFF
 70
     0
 62
     7
  6
AUSGEZOGEN
370
    -3
390
F
  0
ENDTAB
  0
TABLE
  2
STYLE
  5
3
330
0
100
AcDbSymbolTable
 70
     4
  0
STYLE
  5
11
330
3
100
AcDbSymbolTableRecord
100
AcDbTextStyleTableRecord
  2
STANDARD
 70
     0
 40
0.0
 41
0.8
 50
0.0
 71
     0
 42
3.5
  3
simplex.shx
  4

  0
STYLE
  5
24
330
3
100
AcDbSymbolTableRecord
100
AcDbTextStyleTableRecord
  2
GREEKS
 70
     0
 40
0.0
 41
0.8
 50
0.0
 71
     0
 42
2.5
  3
SIMPLEX.shx
  4

  0
ENDTAB
  0
TABLE
  2
VIEW
  5
6
330
0
100
AcDbSymbolTable
 70
     0
  0
ENDTAB
  0
TABLE
  2
UCS
  5
7
330
0
100
AcDbSymbolTable
 70
     0
  0
ENDTAB
  0
TABLE
  2
APPID
  5
9
330
0
100
AcDbSymbolTable
 70
     7
  0
APPID
  5
12
330
9
100
AcDbSymbolTableRecord
100
AcDbRegAppTableRecord
  2
ACAD
 70
     0
  0
APPID
  5
11BC
330
9
100
AcDbSymbolTableRecord
100
AcDbRegAppTableRecord
  2
ACAD_NAV_VCDISPLAY
 70
     0
  0
APPID
  5
11BD
330
9
100
AcDbSymbolTableRecord
100
AcDbRegAppTableRecord
  2
GradientColor1ACI
 70
     0
  0
APPID
  5
11BE
330
9
100
AcDbSymbolTableRecord
100
AcDbRegAppTableRecord
  2
GradientColor2ACI
 70
     0
  0
APPID
  5
11BF
330
9
100
AcDbSymbolTableRecord
100
AcDbRegAppTableRecord
  2
ACAD_PSEXT
 70
     0
  0
APPID
  5
1305
330
9
100
AcDbSymbolTableRecord
100
AcDbRegAppTableRecord
  2
ACAD_EXEMPT_FROM_CAD_STANDARDS
 70
     0
  0
APPID
  5
152B
330
9
100
AcDbSymbolTableRecord
100
AcDbRegAppTableRecord
  2
ACAD_MLEADERVER
 70
     0
  0
ENDTAB
  0
TABLE
  2
DIMSTYLE
  5
A
330
0
100
AcDbSymbolTable
 70
     3
100
AcDbDimStyleTable
 71
     1
340
9D
  0
DIMSTYLE
105
9D
102
{ACAD_REACTORS
330
124D
330
124B
330
15C0
330
15C3
330
1605
102
}
330
A
100
AcDbSymbolTableRecord
100
AcDbDimStyleTableRecord
  2
Standard
 70
     0
340
11
  0
ENDTAB
  0
TABLE
  2
BLOCK_RECORD
  5
1
330
0
100
AcDbSymbolTable
 70
     8
  0
BLOCK_RECORD
  5
1E
102
{ACAD_XDICTIONARY
360
A0
102
}
330
1
100
AcDbSymbolTableRecord
100
AcDbBlockTableRecord
  2
*Model_Space
340
21
  0
BLOCK_RECORD
  5
1A
102
{ACAD_XDICTIONARY
360
A2
102
}
330
1
100
AcDbSymbolTableRecord
100
AcDbBlockTableRecord
  2
*Paper_Space
340
1D
  0
BLOCK_RECORD
  5
22
330
1
100
AcDbSymbolTableRecord
100
AcDbBlockTableRecord
  2
LOGO
340
0
102
{BLKREFS
331
F91
102
}
  0
BLOCK_RECORD
  5
12C6
330
1
100
AcDbSymbolTableRecord
100
AcDbBlockTableRecord
  2
*D1
340
0
  0
BLOCK_RECORD
  5
12DE
330
1
100
AcDbSymbolTableRecord
100
AcDbBlockTableRecord
  2
*D2
340
0
  0
BLOCK_RECORD
  5
1606
330
1
100
AcDbSymbolTableRecord
100
AcDbBlockTableRecord
  2
*D3
340
0
  0
BLOCK_RECORD
  5
1612
330
1
100
AcDbSymbolTableRecord
100
AcDbBlockTableRecord
  2
*D4
340
0
  0
BLOCK_RECORD
  5
161E
330
1
100
AcDbSymbolTableRecord
100
AcDbBlockTableRecord
  2
*D5
340
0
  0
ENDTAB
  0
ENDSEC
  0
SECTION
  2
BLOCKS
  0
BLOCK
  5
35
330
1E
100
AcDbEntity
  8
0
100
AcDbBlockBegin
  2
*Model_Space
 70
     0
 10
0.0
 20
0.0
 30
0.0
  3
*Model_Space
  1

  0
ENDBLK
  5
36
330
1E
100
AcDbEntity
  8
0
100
AcDbBlockEnd
  0
BLOCK
  5
33
330
1A
100
AcDbEntity
 67
     1
  8
0
100
AcDbBlockBegin
  2
*Paper_Space
 70
     0
 10
0.0
 20
0.0
 30
0.0
  3
*Paper_Space
  1

  0
ENDBLK
  5
34
330
1A
100
AcDbEntity
 67
     1
  8
0
100
AcDbBlockEnd
  0
BLOCK
  5
37
330
22
100
AcDbEntity
  8
0
100
AcDbBlockBegin
  2
LOGO
 70
     0
 10
0.0
 20
0.0
 30
0.0
  3
LOGO
  1

  0
ARC
  5
38
330
22
100
AcDbEntity
  8
0
100
AcDbCircle
 10
11.59973089678112
 20
-9.271599258481501
 30
0.0
 40
4.5
100
AcDbArc
 50
270.0
 51
231.0575587310159
  0
LINE
  5
39
330
22
100
AcDbEntity
  8
0
100
AcDbLine
 10
3.599730896781125
 20
-4.771599258481529
 30
0.0
 11
3.599730896781153
 21
-11.77159925848133
 31
0.0
  0
LINE
  5
3A
330
22
100
AcDbEntity
  8
0
100
AcDbLine
 10
2.599730896781125
 20
-4.771599258481529
 30
0.0
 11
2.599730896781153
 21
-11.77159925848133
 31
0.0
  0
CIRCLE
  5
3B
330
22
100
AcDbEntity
  8
0
100
AcDbCircle
 10
11.59973089678112
 20
-9.271599258481501
 30
0.0
 40
3.5
  0
ARC
  5
3C
330
22
100
AcDbEntity
  8
0
100
AcDbCircle
 10
31.59973089678115
 20
-9.271599258481472
 30
0.0
 40
4.5
100
AcDbArc
 50
270.0
 51
231.0575587310182
  0
LINE
  5
3D
330
22
100
AcDbEntity
  8
0
100
AcDbLine
 10
17.59973089678112
 20
-4.771599258481472
 30
0.0
 11
17.59973089678115
 21
-13.77159925848147
 31
0.0
  0
ARC
  5
3E
330
22
100
AcDbEntity
  8
0
100
AcDbCircle
 10
22.59973089678116
 20
-7.271599258481472
 30
0.0
 40
2.5
100
AcDbArc
 50
293.1161887722295
 51
90.0
  0
CIRCLE
  5
3F
330
22
100
AcDbEntity
  8
0
100
AcDbCircle
 10
31.59973089678115
 20
-9.271599258481472
 30
0.0
 40
3.5
  0
ARC
  5
40
330
22
100
AcDbEntity
  8
0
100
AcDbCircle
 10
4.599730896781153
 20
-11.77159925848133
 30
0.0
 40
1.0
100
AcDbArc
 50
180.0
 51
270.0
  0
ARC
  5
41
330
22
100
AcDbEntity
  8
0
100
AcDbCircle
 10
4.599730896781153
 20
-11.77159925848133
 30
0.0
 40
2.0
100
AcDbArc
 50
179.9999999999992
 51
270.0
  0
LINE
  5
42
330
22
100
AcDbEntity
  8
0
100
AcDbLine
 10
11.59973089678115
 20
-13.77159925848144
 30
0.0
 11
4.599730896781153
 21
-13.77159925848147
 31
0.0
  0
LINE
  5
43
330
22
100
AcDbEntity
  8
0
100
AcDbLine
 10
8.771303772034769
 20
-12.77159925848136
 30
0.0
 11
4.599730896781153
 21
-12.77159925848133
 31
0.0
  0
LINE
  5
44
330
22
100
AcDbEntity
  8
0
100
AcDbLine
 10
31.59973089678115
 20
-13.77159925848147
 30
0.0
 11
23.6715276665056
 21
-13.77159925848144
 31
0.0
  0
LINE
  5
45
330
22
100
AcDbEntity
  8
0
100
AcDbLine
 10
23.56565672307022
 20
-9.51278021337896
 30
0.0
 11
24.4388546544846
 21
-12.77159925848144
 31
0.0
  0
LINE
  5
46
330
22
100
AcDbEntity
  8
0
100
AcDbLine
 10
22.59973089678116
 20
-9.771599258481472
 30
0.0
 11
18.59973089678112
 21
-9.771599258481472
 31
0.0
  0
LINE
  5
47
330
22
100
AcDbEntity
  8
0
100
AcDbLine
 10
18.59973089678115
 20
-13.77159925848144
 30
0.0
 11
17.59973089678115
 21
-13.77159925848144
 31
0.0
  0
LINE
  5
48
330
22
100
AcDbEntity
  8
0
100
AcDbLine
 10
18.59973089678115
 20
-9.771599258481472
 30
0.0
 11
18.59973089678115
 21
-13.77159925848144
 31
0.0
  0
LINE
  5
49
330
22
100
AcDbEntity
  8
0
100
AcDbLine
 10
22.59973089678116
 20
-9.771599258481472
 30
0.0
 11
23.67152766650562
 21
-13.77159925848147
 31
0.0
  0
ARC
  5
4A
330
22
100
AcDbEntity
  8
0
100
AcDbCircle
 10
22.59973089678116
 20
-7.271599258481472
 30
0.0
 40
2.5
100
AcDbArc
 50
270.0
 51
270.0000000000007
  0
LINE
  5
4B
330
22
100
AcDbEntity
  8
0
100
AcDbLine
 10
28.77130377203494
 20
-12.77159925848147
 30
0.0
 11
24.43885465448463
 21
-12.77159925848144
 31
0.0
  0
LINE
  5
4C
330
22
100
AcDbEntity
  8
0
100
AcDbLine
 10
3.599730896781125
 20
-4.771599258481472
 30
0.0
 11
2.599730896781125
 21
-4.771599258481472
 31
0.0
  0
LINE
  5
4D
330
22
100
AcDbEntity
  8
0
100
AcDbLine
 10
22.59973089678116
 20
-8.771599258481472
 30
0.0
 11
18.59973089678115
 21
-8.771599258481472
 31
0.0
  0
LINE
  5
4E
330
22
100
AcDbEntity
  8
0
100
AcDbLine
 10
22.59973089678116
 20
-5.771599258481472
 30
0.0
 11
18.59973089678115
 21
-5.771599258481472
 31
0.0
  0
LINE
  5
4F
330
22
100
AcDbEntity
  8
0
100
AcDbLine
 10
22.59973089678116
 20
-4.771599258481472
 30
0.0
 11
17.59973089678115
 21
-4.771599258481472
 31
0.0
  0
LINE
  5
50
330
22
100
AcDbEntity
  8
0
100
AcDbLine
 10
18.59973089678115
 20
-5.771599258481472
 30
0.0
 11
18.59973089678115
 21
-8.771599258481472
 31
0.0
  0
ARC
  5
51
330
22
100
AcDbEntity
  8
0
100
AcDbCircle
 10
22.59973089678116
 20
-7.271599258481472
 30
0.0
 40
1.5
100
AcDbArc
 50
270.0
 51
90.0
  0
ENDBLK
  5
52
330
22
100
AcDbEntity
  8
0
100
AcDbBlockEnd
  0
BLOCK
  5
12C7
330
12C6
100
AcDbEntity
  8
0
100
AcDbBlockBegin
  2
*D1
 70
     1
 10
0.0
 20
0.0
 30
0.0
  3
*D1
  1

  0
LINE
  5
1650
330
12C6
100
AcDbEntity
  8
BEM
 62
     0
440
 16777216
370
    -2
100
AcDbLine
 10
169.9990001890478
 20
186.8428152624688
 30
0.0
 11
169.9990001890478
 21
162.0731781481522
 31
0.0
  0
LINE
  5
1651
330
12C6
100
AcDbEntity
  8
BEM
 62
     0
440
 16777216
370
    -2
100
AcDbLine
 10
222.9990001890478
 20
186.8428152624687
 30
0.0
 11
222.9990001890478
 21
162.0731781481522
 31
0.0
  0
LINE
  5
1652
330
12C6
100
AcDbEntity
  8
BEM
 62
     0
440
 16777216
370
    -2
100
AcDbLine
 10
176.9990001890478
 20
164.0731781481522
 30
0.0
 11
215.9990001890478
 21
164.0731781481522
 31
0.0
  0
SOLID
  5
1653
330
12C6
100
AcDbEntity
  8
BEM
 62
     0
440
 16777216
100
AcDbTrace
 10
176.9990001890478
 20
165.2398448148188
 30
0.0
 11
176.9990001890478
 21
162.9065114814855
 31
0.0
 12
169.9990001890478
 22
164.0731781481522
 32
0.0
 13
169.9990001890478
 23
164.0731781481522
 33
0.0
  0
SOLID
  5
1654
330
12C6
100
AcDbEntity
  8
BEM
 62
     0
440
 16777216
100
AcDbTrace
 10
215.9990001890478
 20
165.2398448148188
 30
0.0
 11
215.9990001890478
 21
162.9065114814855
 31
0.0
 12
222.9990001890478
 22
164.0731781481522
 32
0.0
 13
222.9990001890478
 23
164.0731781481522
 33
0.0
  0
MTEXT
  5
1655
330
12C6
100
AcDbEntity
  8
BEM
 62
     1
440
 16777216
100
AcDbMText
 10
196.4990001890478
 20
170.5731781481522
 30
0.0
 40
7.0
 41
0.0
 71
     5
 72
     1
  1
\A1;%%c53
 73
     1
 44
1.0
  0
POINT
  5
1656
330
12C6
100
AcDbEntity
  8
DEFPOINTS
 62
     0
440
 16777216
100
AcDbPoint
 10
169.9990001890478
 20
188.8428152624688
 30
0.0
  0
POINT
  5
1657
330
12C6
100
AcDbEntity
  8
DEFPOINTS
 62
     0
440
 16777216
100
AcDbPoint
 10
222.9990001890478
 20
188.8428152624687
 30
0.0
  0
POINT
  5
1658
330
12C6
100
AcDbEntity
  8
DEFPOINTS
 62
     0
440
 16777216
100
AcDbPoint
 10
222.9990001890478
 20
164.0731781481522
 30
0.0
  0
ENDBLK
  5
12C8
330
12C6
100
AcDbEntity
  8
0
100
AcDbBlockEnd
  0
BLOCK
  5
12DF
330
12DE
100
AcDbEntity
  8
0
100
AcDbBlockBegin
  2
*D2
 70
     1
 10
0.0
 20
0.0
 30
0.0
  3
*D2
  1

  0
LINE
  5
1647
330
12DE
100
AcDbEntity
  8
BEM
 62
     0
440
 16777216
370
    -2
100
AcDbLine
 10
73.99900018904748
 20
441.9689668486107
 30
0.0
 11
73.99900018904748
 21
486.4465204470696
 31
0.0
  0
LINE
  5
1648
330
12DE
100
AcDbEntity
  8
BEM
 62
     0
440
 16777216
370
    -2
100
AcDbLine
 10
318.9990001890476
 20
441.9689668486107
 30
0.0
 11
318.9990001890476
 21
486.4465204470696
 31
0.0
  0
LINE
  5
1649
330
12DE
100
AcDbEntity
  8
BEM
 62
     0
440
 16777216
370
    -2
100
AcDbLine
 10
80.99900018904747
 20
484.4465204470696
 30
0.0
 11
311.9990001890476
 21
484.4465204470696
 31
0.0
  0
SOLID
  5
164A
330
12DE
100
AcDbEntity
  8
BEM
 62
     0
440
 16777216
100
AcDbTrace
 10
80.99900018904747
 20
485.6131871137363
 30
0.0
 11
80.99900018904747
 21
483.279853780403
 31
0.0
 12
73.99900018904748
 22
484.4465204470696
 32
0.0
 13
73.99900018904748
 23
484.4465204470696
 33
0.0
  0
SOLID
  5
164B
330
12DE
100
AcDbEntity
  8
BEM
 62
     0
440
 16777216
100
AcDbTrace
 10
311.9990001890476
 20
485.6131871137363
 30
0.0
 11
311.9990001890476
 21
483.279853780403
 31
0.0
 12
318.9990001890476
 22
484.4465204470696
 32
0.0
 13
318.9990001890476
 23
484.4465204470696
 33
0.0
  0
MTEXT
  5
164C
330
12DE
100
AcDbEntity
  8
BEM
 62
     1
440
 16777216
100
AcDbMText
 10
196.4990001890475
 20
490.9465204470696
 30
0.0
 40
7.0
 41
0.0
 71
     5
 72
     1
  1
\A1;%%c245
 73
     1
 44
1.0
  0
POINT
  5
164D
330
12DE
100
AcDbEntity
  8
DEFPOINTS
 62
     0
440
 16777216
100
AcDbPoint
 10
73.99900018904748
 20
439.9689668486106
 30
0.0
  0
POINT
  5
164E
330
12DE
100
AcDbEntity
  8
DEFPOINTS
 62
     0
440
 16777216
100
AcDbPoint
 10
318.9990001890476
 20
439.9689668486106
 30
0.0
  0
POINT
  5
164F
330
12DE
100
AcDbEntity
  8
DEFPOINTS
 62
     0
440
 16777216
100
AcDbPoint
 10
318.9990001890476
 20
484.4465204470696
 30
0.0
  0
ENDBLK
  5
12E0
330
12DE
100
AcDbEntity
  8
0
100
AcDbBlockEnd
  0
BLOCK
  5
1607
330
1606
100
AcDbEntity
  8
0
100
AcDbBlockBegin
  2
*D3
 70
     1
 10
0.0
 20
0.0
 30
0.0
  3
*D3
  1

  0
LINE
  5
1659
330
1606
100
AcDbEntity
  8
BEM
 62
     0
440
 16777216
370
    -2
100
AcDbLine
 10
131.5014555545259
 20
279.9083066768308
 30
0.0
 11
131.5014555545259
 21
261.9630852914469
 31
0.0
  0
LINE
  5
165A
330
1606
100
AcDbEntity
  8
BEM
 62
     0
440
 16777216
370
    -2
100
AcDbLine
 10
261.4965448235693
 20
279.908306676829
 30
0.0
 11
261.4965448235693
 21
261.9630852914469
 31
0.0
  0
LINE
  5
165B
330
1606
100
AcDbEntity
  8
BEM
 62
     0
440
 16777216
370
    -2
100
AcDbLine
 10
138.5014555545259
 20
263.9630852914469
 30
0.0
 11
254.4965448235692
 21
263.9630852914469
 31
0.0
  0
SOLID
  5
165C
330
1606
100
AcDbEntity
  8
BEM
 62
     0
440
 16777216
100
AcDbTrace
 10
138.5014555545259
 20
265.1297519581135
 30
0.0
 11
138.5014555545259
 21
262.7964186247802
 31
0.0
 12
131.5014555545259
 22
263.9630852914469
 32
0.0
 13
131.5014555545259
 23
263.9630852914469
 33
0.0
  0
SOLID
  5
165D
330
1606
100
AcDbEntity
  8
BEM
 62
     0
440
 16777216
100
AcDbTrace
 10
254.4965448235692
 20
265.1297519581135
 30
0.0
 11
254.4965448235692
 21
262.7964186247802
 31
0.0
 12
261.4965448235693
 22
263.9630852914469
 32
0.0
 13
261.4965448235693
 23
263.9630852914469
 33
0.0
  0
MTEXT
  5
165E
330
1606
100
AcDbEntity
  8
BEM
 62
     1
440
 16777216
100
AcDbMText
 10
196.4990001890475
 20
270.4630852914469
 30
0.0
 40
7.0
 41
0.0
 71
     5
 72
     1
  1
\A1;%%c130
  7
GREEKS
 73
     1
 44
1.0
  0
POINT
  5
165F
330
1606
100
AcDbEntity
  8
DEFPOINTS
 62
     0
440
 16777216
100
AcDbPoint
 10
131.5014555545259
 20
281.9083066768308
 30
0.0
  0
POINT
  5
1660
330
1606
100
AcDbEntity
  8
DEFPOINTS
 62
     0
440
 16777216
100
AcDbPoint
 10
261.4965448235693
 20
281.908306676829
 30
0.0
  0
POINT
  5
1661
330
1606
100
AcDbEntity
  8
DEFPOINTS
 62
     0
440
 16777216
100
AcDbPoint
 10
261.4965448235693
 20
263.9630852914469
 30
0.0
  0
ENDBLK
  5
1608
330
1606
100
AcDbEntity
  8
0
100
AcDbBlockEnd
  0
BLOCK
  5
1613
330
1612
100
AcDbEntity
  8
0
100
AcDbBlockBegin
  2
*D4
 70
     1
 10
0.0
 20
0.0
 30
0.0
  3
*D4
  1

  0
LINE
  5
1662
330
1612
100
AcDbEntity
  8
BEM
 62
     0
440
 16777216
370
    -2
100
AcDbLine
 10
78.21651461031942
 20
441.9083066768314
 30
0.0
 11
63.35721673070965
 21
441.9083066768314
 31
0.0
  0
LINE
  5
1663
330
1612
100
AcDbEntity
  8
BEM
 62
     0
440
 16777216
370
    -2
100
AcDbLine
 10
129.5014555545259
 20
281.9083066768308
 30
0.0
 11
63.35721673070962
 21
281.9083066768308
 31
0.0
  0
LINE
  5
1664
330
1612
100
AcDbEntity
  8
BEM
 62
     0
440
 16777216
370
    -2
100
AcDbLine
 10
65.35721673070965
 20
434.9083066768314
 30
0.0
 11
65.35721673070963
 21
288.9083066768308
 31
0.0
  0
SOLID
  5
1665
330
1612
100
AcDbEntity
  8
BEM
 62
     0
440
 16777216
100
AcDbTrace
 10
64.19055006404298
 20
434.9083066768314
 30
0.0
 11
66.52388339737632
 21
434.9083066768314
 31
0.0
 12
65.35721673070965
 22
441.9083066768314
 32
0.0
 13
65.35721673070965
 23
441.9083066768314
 33
0.0
  0
SOLID
  5
1666
330
1612
100
AcDbEntity
  8
BEM
 62
     0
440
 16777216
100
AcDbTrace
 10
64.19055006404295
 20
288.9083066768308
 30
0.0
 11
66.5238833973763
 21
288.9083066768308
 31
0.0
 12
65.35721673070961
 22
281.9083066768308
 32
0.0
 13
65.35721673070961
 23
281.9083066768308
 33
0.0
  0
MTEXT
  5
1667
330
1612
100
AcDbEntity
  8
BEM
 62
     1
440
 16777216
100
AcDbMText
 10
58.85721673070957
 20
361.9083066768311
 30
0.0
 40
7.0
 41
0.0
 71
     5
 72
     1
  1
\A1;160
  7
GREEKS
 11
0.0000000000000001
 21
1.0
 31
0.0
 73
     1
 44
1.0
  0
POINT
  5
1668
330
1612
100
AcDbEntity
  8
DEFPOINTS
 62
     0
440
 16777216
100
AcDbPoint
 10
80.21651461031941
 20
441.9083066768314
 30
0.0
  0
POINT
  5
1669
330
1612
100
AcDbEntity
  8
DEFPOINTS
 62
     0
440
 16777216
100
AcDbPoint
 10
131.5014555545259
 20
281.9083066768308
 30
0.0
  0
POINT
  5
166A
330
1612
100
AcDbEntity
  8
DEFPOINTS
 62
     0
440
 16777216
100
AcDbPoint
 10
65.35721673070961
 20
281.9083066768308
 30
0.0
  0
ENDBLK
  5
1614
330
1612
100
AcDbEntity
  8
0
100
AcDbBlockEnd
  0
BLOCK
  5
161F
330
161E
100
AcDbEntity
  8
0
100
AcDbBlockBegin
  2
*D5
 70
     1
 10
0.0
 20
0.0
 30
0.0
  3
*D5
  1

  0
LINE
  5
166B
330
161E
100
AcDbEntity
  8
BEM
 62
     0
440
 16777216
370
    -2
100
AcDbLine
 10
168.4307137503623
 20
183.9083066768313
 30
0.0
 11
48.06279497065435
 21
183.9083066768313
 31
0.0
  0
LINE
  5
166C
330
161E
100
AcDbEntity
  8
BEM
 62
     0
440
 16777216
370
    -2
100
AcDbLine
 10
71.99900018904731
 20
443.908306676831
 30
0.0
 11
48.06279497065441
 21
443.908306676831
 31
0.0
  0
LINE
  5
166D
330
161E
100
AcDbEntity
  8
BEM
 62
     0
440
 16777216
370
    -2
100
AcDbLine
 10
50.06279497065435
 20
190.9083066768313
 30
0.0
 11
50.06279497065441
 21
436.908306676831
 31
0.0
  0
SOLID
  5
166E
330
161E
100
AcDbEntity
  8
BEM
 62
     0
440
 16777216
100
AcDbTrace
 10
48.89612830398768
 20
190.9083066768313
 30
0.0
 11
51.22946163732102
 21
190.9083066768313
 31
0.0
 12
50.06279497065435
 22
183.9083066768313
 32
0.0
 13
50.06279497065435
 23
183.9083066768313
 33
0.0
  0
SOLID
  5
166F
330
161E
100
AcDbEntity
  8
BEM
 62
     0
440
 16777216
100
AcDbTrace
 10
48.89612830398775
 20
436.908306676831
 30
0.0
 11
51.22946163732107
 21
436.908306676831
 31
0.0
 12
50.06279497065441
 22
443.908306676831
 32
0.0
 13
50.06279497065441
 23
443.908306676831
 33
0.0
  0
MTEXT
  5
1670
330
161E
100
AcDbEntity
  8
BEM
 62
     1
440
 16777216
100
AcDbMText
 10
43.56279497065433
 20
313.9083066768312
 30
0.0
 40
7.0
 41
0.0
 71
     5
 72
     1
  1
\A1;260
 11
0.0000000000000001
 21
1.0
 31
0.0
 73
     1
 44
1.0
  0
POINT
  5
1671
330
161E
100
AcDbEntity
  8
DEFPOINTS
 62
     0
440
 16777216
100
AcDbPoint
 10
170.4307137503623
 20
183.9083066768313
 30
0.0
  0
POINT
  5
1672
330
161E
100
AcDbEntity
  8
DEFPOINTS
 62
     0
440
 16777216
100
AcDbPoint
 10
73.9990001890473
 20
443.908306676831
 30
0.0
  0
POINT
  5
1673
330
161E
100
AcDbEntity
  8
DEFPOINTS
 62
     0
440
 16777216
100
AcDbPoint
 10
50.06279497065441
 20
443.908306676831
 30
0.0
  0
ENDBLK
  5
1620
330
161E
100
AcDbEntity
  8
0
100
AcDbBlockEnd
  0
ENDSEC
  0
SECTION
  2
ENTITIES
  0
LINE
  5
57
330
1E
100
AcDbEntity
  8
STEMPEL
100
AcDbLine
 10
410.0
 20
110.0
 30
0.0
 11
29.99999999999997
 21
110.0
 31
0.0
  0
LINE
  5
5B
330
1E
100
AcDbEntity
  8
STEMPEL
100
AcDbLine
 10
145.9999999999999
 20
29.99999999999997
 30
0.0
 11
29.99999999999997
 21
29.99999999999997
 31
0.0
  0
LINE
  5
5E
330
1E
100
AcDbEntity
  8
VOLL
100
AcDbLine
 10
44.00000000000008
 20
110.0
 30
0.0
 11
43.99999999999997
 21
9.999999999999971
 31
0.0
  0
LINE
  5
5F
330
1E
100
AcDbEntity
  8
VOLL
100
AcDbLine
 10
104.0000000000001
 20
109.9999999999999
 30
0.0
 11
104.0
 21
9.999999999999971
 31
0.0
  0
LINE
  5
60
330
1E
100
AcDbEntity
  8
VOLL
100
AcDbLine
 10
124.0000000000001
 20
109.9999999999999
 30
0.0
 11
124.0
 21
9.999999999999971
 31
0.0
  0
LINE
  5
63
330
1E
100
AcDbEntity
  8
HILF
100
AcDbLine
 10
30.00000000000009
 20
100.0
 30
0.0
 11
146.0000000000001
 21
100.0
 31
0.0
  0
LINE
  5
64
330
1E
100
AcDbEntity
  8
HILF
100
AcDbLine
 10
30.00000000000009
 20
90.00000000000005
 30
0.0
 11
146.0000000000001
 21
90.00000000000005
 31
0.0
  0
LINE
  5
65
330
1E
100
AcDbEntity
  8
HILF
100
AcDbLine
 10
30.00000000000009
 20
79.99999999999994
 30
0.0
 11
146.0000000000001
 21
79.99999999999994
 31
0.0
  0
LINE
  5
66
330
1E
100
AcDbEntity
  8
HILF
100
AcDbLine
 10
30.00000000000009
 20
69.99999999999994
 30
0.0
 11
146.0000000000001
 21
69.99999999999994
 31
0.0
  0
LINE
  5
67
330
1E
100
AcDbEntity
  8
HILF
100
AcDbLine
 10
30.00000000000009
 20
59.99999999999997
 30
0.0
 11
146.0000000000001
 21
59.99999999999997
 31
0.0
  0
LINE
  5
68
330
1E
100
AcDbEntity
  8
HILF
100
AcDbLine
 10
30.00000000000009
 20
49.99999999999997
 30
0.0
 11
146.0000000000001
 21
49.99999999999997
 31
0.0
  0
LINE
  5
69
330
1E
100
AcDbEntity
  8
HILF
100
AcDbLine
 10
30.00000000000009
 20
39.99999999999997
 30
0.0
 11
146.0000000000001
 21
39.99999999999997
 31
0.0
  0
TEXT
  5
74
330
1E
100
AcDbEntity
  8
TEXT
100
AcDbText
 10
64.34071736793199
 20
18.67381894984132
 30
0.0
 40
4.0
  1
Änderung
 41
0.8
  7
GREEKS
 72
     1
 11
75.08357451078913
 21
18.67381894984132
 31
0.0
100
AcDbText
  0
TEXT
  5
7B
330
1E
100
AcDbEntity
  8
TEXT
100
AcDbText
 10
38.26641107045757
 20
13.65465846027192
 30
0.0
 40
4.0
  1
Index
 50
90.0
 41
0.8
  7
GREEKS
100
AcDbText
  0
TEXT
  5
7C
330
1E
100
AcDbEntity
  8
TEXT
100
AcDbText
 10
110.0934676075481
 20
18.6715626933981
 30
0.0
 40
4.0
  1
Tag
 41
0.8
  7
GREEKS
 72
     1
 11
113.8268009408814
 21
18.6715626933981
 31
0.0
100
AcDbText
  0
TEXT
  5
7D
330
1E
100
AcDbEntity
  8
TEXT
100
AcDbText
 10
129.0122744386592
 20
18.59324216966408
 30
0.0
 40
4.0
  1
Name
 41
0.8
  7
GREEKS
 72
     1
 11
135.3360839624688
 21
18.59324216966408
 31
0.0
100
AcDbText
  0
LINE
  5
83
330
1E
100
AcDbEntity
  8
STEMPEL
100
AcDbLine
 10
39.99999999999989
 20
10.0
 30
0.0
 11
410.0
 21
10.0
 31
0.0
  0
LINE
  5
85
330
1E
100
AcDbEntity
  8
STEMPEL
100
AcDbLine
 10
410.0
 20
10.0
 30
0.0
 11
29.99999999999989
 21
10.0
 31
0.0
  0
LINE
  5
86
330
1E
100
AcDbEntity
  8
STEMPEL
100
AcDbLine
 10
410.0
 20
10.0
 30
0.0
 11
410.0
 21
584.0
 31
0.0
  0
LINE
  5
87
330
1E
100
AcDbEntity
  8
STEMPEL
100
AcDbLine
 10
30.0
 20
10.0
 30
0.0
 11
29.99999999999989
 21
584.0
 31
0.0
  0
LINE
  5
88
330
1E
100
AcDbEntity
  8
STEMPEL
100
AcDbLine
 10
410.0
 20
584.0
 30
0.0
 11
29.99999999999989
 21
584.0
 31
0.0
  0
LINE
  5
89
330
1E
100
AcDbEntity
  8
HILF
100
AcDbLine
 10
0.0
 20
0.0
 30
0.0
 11
-0.0000000000001137
 21
594.0
 31
0.0
  0
LINE
  5
8A
330
1E
100
AcDbEntity
  8
HILF
100
AcDbLine
 10
419.9999999999999
 20
594.0000000000002
 30
0.0
 11
0.0
 21
594.0
 31
0.0
  0
LINE
  5
8B
330
1E
100
AcDbEntity
  8
HILF
100
AcDbLine
 10
420.0
 20
0.0
 30
0.0
 11
0.0
 21
0.0
 31
0.0
  0
LINE
  5
8C
330
1E
100
AcDbEntity
  8
HILF
100
AcDbLine
 10
31.08767135713856
 20
297.0
 30
0.0
 11
0.0000000000001137
 21
297.0
 31
0.0
  0
LINE
  5
8E
330
1E
100
AcDbEntity
  8
HILF
100
AcDbLine
 10
420.0
 20
-0.0000000000001137
 30
0.0
 11
419.9999999999999
 21
594.0
 31
0.0
  0
TEXT
  5
8F
330
1E
100
AcDbEntity
  8
VOLL
100
AcDbText
 10
78.07675471698113
 20
31.02594776470585
 30
0.0
 40
1.8
  1

  7
GREEKS
100
AcDbText
  0
TEXT
  5
90
330
1E
100
AcDbEntity
  8
TEXT
100
AcDbText
 10
31.85509950977675
 20
111.6719999999999
 30
0.0
 40
5.0
  1
Erstellt mit AUTOCAD 2004
 41
0.8
  7
GREEKS
100
AcDbText
  0
TEXT
  5
118
330
1E
100
AcDbEntity
  8
BEM
100
AcDbText
 10
417.3022923857165
 20
10.16790107998849
 30
0.0
 40
4.0
  1
Diese Zeichnung ist urheberrechtlich geschützt und bleibt unser Eigentum. Sie darf weder ganz noch teilweise verfielfältigt und nicht an Dritte weitergegeben werden.
 50
90.0
 41
0.8
  7
GREEKS
100
AcDbText
  0
LINE
  5
E55
102
{ACAD_REACTORS
330
1146
102
}
330
1E
100
AcDbEntity
  8
STEMPEL
100
AcDbLine
 10
224.4280199718301
 20
443.908306676831
 30
0.0
 11
318.9990001890476
 21
443.9083066768311
 31
0.0
  0
LINE
  5
E57
330
1E
100
AcDbEntity
  8
STEMPEL
100
AcDbLine
 10
196.4990001890476
 20
449.9083066768315
 30
0.0
 11
281.4990001890476
 21
449.9083066768313
 31
0.0
  0
HATCH
  5
E65
330
1E
100
AcDbEntity
  8
SCHRAFF
100
AcDbHatch
 10
0.0
 20
0.0
 30
0.0
210
0.0
220
0.0
230
1.0
  2
_USER
 70
     0
 71
     0
 91
        4
 92
        7
 72
     1
 73
     1
 93
        4
 10
308.4990001890476
 20
455.9083066768322
 42
0.0
 10
292.9990001890477
 20
455.9083066768322
 42
0.0
 10
292.9990001890477
 20
449.9083066768313
 42
0.0
 10
308.4990001890476
 20
449.9083066768313
 42
1.0
 97
        0
 92
        7
 72
     1
 73
     1
 93
        4
 10
279.9990001890476
 20
455.9083066768322
 42
0.0
 10
261.9990001890474
 20
455.9083066768322
 42
1.0
 10
261.9990001890474
 20
449.9083066768313
 42
0.0
 10
279.9990001890476
 20
449.9083066768313
 42
0.0
 97
        0
 92
        7
 72
     1
 73
     1
 93
        4
 10
130.9990001890478
 20
455.908306676832
 42
0.0
 10
112.9990001890476
 20
455.908306676832
 42
0.0
 10
112.9990001890476
 20
449.9083066768314
 42
0.0
 10
130.9990001890478
 20
449.9083066768314
 42
1.0
 97
        0
 92
        7
 72
     1
 73
     1
 93
        4
 10
99.9990001890476
 20
455.908306676832
 42
0.0
 10
84.49900018904759
 20
455.9083066768319
 42
1.0
 10
84.49900018904759
 20
449.9083066768314
 42
0.0
 10
99.9990001890476
 20
449.9083066768314
 42
0.0
 97
        0
 75
     0
 76
     0
 52
135.0
 41
5.0
 77
     0
 78
     1
 53
135.0
 43
-15.89338422124956
 44
12.10909197354999
 45
-3.535533905932737
 46
-3.535533905932737
 79
     0
 47
0.3996542823765836
 98
        4
 10
296.088245251437
 20
453.6366635357653
 10
274.0906098808718
 20
453.6366635357653
 10
122.1069497832423
 20
454.0363187103878
 10
95.70978824153099
 20
454.0363187103878
  0
TEXT
  5
E67
330
1E
100
AcDbEntity
  8
TEXT
 62
     1
100
AcDbText
 10
290.7576342205611
 20
388.2157171397769
 30
0.0
 40
7.0
  1
Dichtelement DN50
 41
0.8
  7
GREEKS
100
AcDbText
  0
TEXT
  5
E68
330
1E
100
AcDbEntity
  8
TEXT
 62
     1
100
AcDbText
 10
290.7576342205611
 20
375.1679449927976
 30
0.0
 40
7.0
  1
EDV-Art.Nr. 00911.050X
 41
0.8
  7
GREEKS
100
AcDbText
  0
LINE
  5
E69
330
1E
100
AcDbEntity
  8
TEXT
 62
     2
100
AcDbLine
 10
393.3062996501147
 20
384.6029488675833
 30
0.0
 11
288.9501538010392
 21
384.6029488675831
 31
0.0
  0
LINE
  5
E6F
330
1E
100
AcDbEntity
  8
TEXT
 62
     2
100
AcDbLine
 10
288.9501538010392
 20
384.6029488675831
 30
0.0
 11
224.8852570225874
 21
438.1097899074469
 31
0.0
  0
LINE
  5
EC4
330
1E
100
AcDbEntity
  8
MITTEL
100
AcDbLine
 10
196.4990001890476
 20
460.9083066768321
 30
0.0
 11
196.4990001890475
 21
277.5775166867347
 31
0.0
  0
TEXT
  5
EC5
330
1E
100
AcDbEntity
  8
TEXT
 62
     1
100
AcDbText
 10
54.61930670042306
 20
525.0920896413754
 30
0.0
 40
7.0
  1
Losflansch DN70
 41
0.8
100
AcDbText
  0
LINE
  5
EC7
330
1E
100
AcDbEntity
  8
TEXT
 62
     2
100
AcDbLine
 10
44.65394691100732
 20
522.5199660687381
 30
0.0
 11
87.77962258911031
 21
452.9083066768317
 31
0.0
  0
LINE
  5
ECB
330
1E
100
AcDbEntity
  8
TEXT
 62
     2
100
AcDbLine
 10
44.65394691100732
 20
522.5199660687381
 30
0.0
 11
160.1462947280374
 21
522.5199660687381
 31
0.0
  0
TEXT
  5
ECC
330
1E
100
AcDbEntity
  8
TEXT
 62
     1
100
AcDbText
 10
54.35385293265222
 20
512.8116593604227
 30
0.0
 40
7.0
  1
EDV-Art.Nr. 21905.070X
 41
0.8
100
AcDbText
  0
LINE
  5
ECD
330
1E
100
AcDbEntity
  8
TEXT
 62
     2
100
AcDbLine
 10
287.7965323631583
 20
414.5938292273508
 30
0.0
 11
259.9570836380985
 21
445.4083066768321
 31
0.0
  0
TEXT
  5
ECF
330
1E
100
AcDbEntity
  8
TEXT
 62
     1
100
AcDbText
 10
289.7844427618752
 20
405.6581818185354
 30
0.0
 40
7.0
  1
EDV-Art.Nr. 21920.070X
 41
0.8
  7
GREEKS
100
AcDbText
  0
TEXT
  5
ED0
330
1E
100
AcDbEntity
  8
TEXT
 62
     1
100
AcDbText
 10
290.3914023744669
 20
417.7726815397009
 30
0.0
 40
7.0
  1
Kompressionsdichtung
 41
0.8
  7
GREEKS
100
AcDbText
  0
LINE
  5
ED1
330
1E
100
AcDbEntity
  8
TEXT
 62
     2
100
AcDbLine
 10
287.7965323631583
 20
414.5938292273508
 30
0.0
 11
393.3941848389886
 21
414.5938292273508
 31
0.0
  0
LINE
  5
ED3
330
1E
100
AcDbEntity
  8
STEMPEL
100
AcDbLine
 10
279.9990001890476
 20
455.908306676832
 30
0.0
 11
279.9990001890476
 21
449.9083066768314
 31
0.0
  0
LINE
  5
ED4
330
1E
100
AcDbEntity
  8
STEMPEL
100
AcDbLine
 10
292.9990001890476
 20
455.9083066768319
 30
0.0
 11
292.9990001890477
 21
449.9083066768313
 31
0.0
  0
LINE
  5
ED5
102
{ACAD_REACTORS
330
1146
102
}
330
1E
100
AcDbEntity
  8
STEMPEL
100
AcDbLine
 10
292.9990001890476
 20
446.9083066768312
 30
0.0
 11
292.9990001890476
 21
443.9083066768313
 31
0.0
  0
LINE
  5
ED6
102
{ACAD_REACTORS
330
1146
102
}
330
1E
100
AcDbEntity
  8
STEMPEL
100
AcDbLine
 10
279.9990001890476
 20
446.9083066768312
 30
0.0
 11
279.9990001890476
 21
443.9083066768312
 31
0.0
  0
LINE
  5
ED7
102
{ACAD_REACTORS
330
1146
102
}
330
1E
100
AcDbEntity
  8
STEMPEL
100
AcDbLine
 10
112.9990001890476
 20
446.9083066768313
 30
0.0
 11
112.9990001890476
 21
443.9083066768312
 31
0.0
  0
LINE
  5
ED8
102
{ACAD_REACTORS
330
1146
102
}
330
1E
100
AcDbEntity
  8
STEMPEL
100
AcDbLine
 10
99.9990001890476
 20
446.9083066768313
 30
0.0
 11
99.9990001890476
 21
443.9083066768313
 31
0.0
  0
LINE
  5
ED9
330
1E
100
AcDbEntity
  8
STEMPEL
100
AcDbLine
 10
112.9990001890476
 20
455.908306676832
 30
0.0
 11
112.9990001890476
 21
449.9083066768314
 31
0.0
  0
LINE
  5
EDA
330
1E
100
AcDbEntity
  8
STEMPEL
100
AcDbLine
 10
99.9990001890476
 20
455.9083066768319
 30
0.0
 11
99.9990001890476
 21
449.9083066768314
 31
0.0
  0
LINE
  5
EDB
330
1E
100
AcDbEntity
  8
MITTEL
100
AcDbLine
 10
286.4990001890477
 20
473.9083066768312
 30
0.0
 11
286.4990001890477
 21
443.9083066768312
 31
0.0
  0
LINE
  5
EF0
330
1E
100
AcDbEntity
  8
STEMPEL
100
AcDbLine
 10
291.4990001890476
 20
455.9083066768321
 30
0.0
 11
291.4990001890476
 21
443.9083066768313
 31
0.0
  0
LINE
  5
EF1
330
1E
100
AcDbEntity
  8
HILF
100
AcDbLine
 10
290.4990001890476
 20
455.9083066768321
 30
0.0
 11
290.4990001890476
 21
443.9083066768313
 31
0.0
  0
LINE
  5
EF2
330
1E
100
AcDbEntity
  8
HILF
100
AcDbLine
 10
282.4990001890476
 20
455.9083066768321
 30
0.0
 11
282.4990001890476
 21
443.9083066768314
 31
0.0
  0
LINE
  5
EF3
330
1E
100
AcDbEntity
  8
STEMPEL
100
AcDbLine
 10
281.4990001890476
 20
455.9083066768321
 30
0.0
 11
281.4990001890476
 21
443.9083066768314
 31
0.0
  0
LINE
  5
EF6
330
1E
100
AcDbEntity
  8
MITTEL
100
AcDbLine
 10
241.4990001890477
 20
473.9083066768313
 30
0.0
 11
241.4990001890477
 21
443.9083066768312
 31
0.0
  0
LINE
  5
F0D
330
1E
100
AcDbEntity
  8
HILF
100
AcDbLine
 10
245.4990001890477
 20
449.9083066768314
 30
0.0
 11
245.4990001890478
 21
446.9083066768313
 31
0.0
  0
LINE
  5
F0E
330
1E
100
AcDbEntity
  8
STEMPEL
100
AcDbLine
 10
246.4990001890477
 20
449.9083066768314
 30
0.0
 11
246.4990001890478
 21
446.9083066768313
 31
0.0
  0
LINE
  5
F1F
330
1E
100
AcDbEntity
  8
MITTEL
100
AcDbLine
 10
151.4990001890474
 20
473.9083066768314
 30
0.0
 11
151.4990001890474
 21
443.9083066768313
 31
0.0
  0
LINE
  5
F20
330
1E
100
AcDbEntity
  8
HILF
100
AcDbLine
 10
147.4990001890475
 20
449.9083066768314
 30
0.0
 11
147.4990001890475
 21
446.9083066768313
 31
0.0
  0
LINE
  5
F21
330
1E
100
AcDbEntity
  8
STEMPEL
100
AcDbLine
 10
146.4990001890474
 20
449.9083066768314
 30
0.0
 11
146.4990001890474
 21
446.9083066768313
 31
0.0
  0
LINE
  5
F29
330
1E
100
AcDbEntity
  8
STEMPEL
100
AcDbLine
 10
111.4990001890476
 20
467.9083066768313
 30
0.0
 11
110.4990001890476
 21
468.9083066768313
 31
0.0
  0
LINE
  5
F2A
330
1E
100
AcDbEntity
  8
STEMPEL
100
AcDbLine
 10
102.4990001890476
 20
468.9083066768313
 30
0.0
 11
101.4990001890476
 21
467.9083066768313
 31
0.0
  0
LINE
  5
F2B
330
1E
100
AcDbEntity
  8
STEMPEL
100
AcDbLine
 10
101.4990001890476
 20
467.9083066768313
 30
0.0
 11
111.4990001890473
 21
467.9083066768313
 31
0.0
  0
LINE
  5
F2C
330
1E
100
AcDbEntity
  8
STEMPEL
100
AcDbLine
 10
110.4990001890476
 20
468.9083066768313
 30
0.0
 11
102.4990001890476
 21
468.9083066768313
 31
0.0
  0
LINE
  5
F34
330
1E
100
AcDbEntity
  8
STEMPEL
100
AcDbLine
 10
101.4990001890475
 20
455.908306676832
 30
0.0
 11
101.4990001890476
 21
443.9083066768313
 31
0.0
  0
LINE
  5
F35
330
1E
100
AcDbEntity
  8
HILF
100
AcDbLine
 10
102.4990001890476
 20
455.908306676832
 30
0.0
 11
102.4990001890476
 21
443.9083066768313
 31
0.0
  0
LINE
  5
F36
330
1E
100
AcDbEntity
  8
HILF
100
AcDbLine
 10
110.4990001890476
 20
455.908306676832
 30
0.0
 11
110.4990001890476
 21
443.9083066768312
 31
0.0
  0
LINE
  5
F37
330
1E
100
AcDbEntity
  8
STEMPEL
100
AcDbLine
 10
111.4990001890476
 20
455.908306676832
 30
0.0
 11
111.4990001890476
 21
443.9083066768312
 31
0.0
  0
LINE
  5
F3D
330
1E
100
AcDbEntity
  8
MITTEL
100
AcDbLine
 10
106.4990001890476
 20
473.9083066768314
 30
0.0
 11
106.4990001890476
 21
443.9083066768313
 31
0.0
  0
LINE
  5
F3E
330
1E
100
AcDbEntity
  8
STEMPEL
100
AcDbLine
 10
101.4990001890476
 20
467.9083066768313
 30
0.0
 11
101.4990001890476
 21
465.908306676832
 31
0.0
  0
LINE
  5
F3F
330
1E
100
AcDbEntity
  8
HILF
100
AcDbLine
 10
102.4990001890476
 20
468.9083066768312
 30
0.0
 11
102.4990001890476
 21
465.908306676832
 31
0.0
  0
LINE
  5
F40
330
1E
100
AcDbEntity
  8
STEMPEL
100
AcDbLine
 10
111.4990001890476
 20
467.9083066768312
 30
0.0
 11
111.4990001890476
 21
465.908306676832
 31
0.0
  0
LINE
  5
F41
330
1E
100
AcDbEntity
  8
HILF
100
AcDbLine
 10
110.4990001890476
 20
468.9083066768313
 30
0.0
 11
110.4990001890476
 21
465.908306676832
 31
0.0
  0
LINE
  5
F43
330
1E
100
AcDbEntity
  8
TEXT
 62
     2
100
AcDbLine
 10
263.1269878938989
 20
195.8697498778867
 30
0.0
 11
222.317167213355
 21
212.2433191136988
 31
0.0
  0
LINE
  5
F44
330
1E
100
AcDbEntity
  8
TEXT
 62
     2
100
AcDbLine
 10
263.1269878938989
 20
195.8697498778867
 30
0.0
 11
367.4064055574128
 21
195.8697498778867
 31
0.0
  0
TEXT
  5
F45
330
1E
100
AcDbEntity
  8
TEXT
 62
     1
100
AcDbText
 10
264.4783570420751
 20
198.6714448725585
 30
0.0
 40
7.0
  1
Unterteil DN50
 41
0.8
  7
GREEKS
100
AcDbText
  0
TEXT
  5
F46
330
1E
100
AcDbEntity
  8
TEXT
 62
     1
100
AcDbText
 10
263.8713974294834
 20
184.9230463946387
 30
0.0
 40
7.0
  1
EDV-Art.Nr. 21971.050X
 41
0.8
  7
GREEKS
100
AcDbText
  0
LINE
  5
F47
102
{ACAD_REACTORS
330
1146
102
}
330
1E
100
AcDbEntity
  8
STEMPEL
100
AcDbLine
 10
258.9990001890476
 20
446.9083066768312
 30
0.0
 11
258.9990001890476
 21
443.9083066768313
 31
0.0
  0
ARC
  5
F49
330
1E
100
AcDbEntity
  8
STEMPEL
100
AcDbCircle
 10
190.1351567652075
 20
468.9083066768315
 30
0.0
 40
1.0
100
AcDbArc
 50
0.1659131358906212
 51
90.0
  0
ARC
  5
F4A
330
1E
100
AcDbEntity
  8
STEMPEL
100
AcDbCircle
 10
170.6899941331843
 20
468.9083066768311
 30
0.0
 40
1.0
100
AcDbArc
 50
90.0
 51
179.8340868641094
  0
LINE
  5
F4B
330
1E
100
AcDbEntity
  8
STEMPEL
100
AcDbLine
 10
191.1351525725829
 20
468.9112024032781
 30
0.0
 11
191.1585795545829
 21
460.8210446446459
 31
0.0
  0
LWPOLYLINE
  5
F4C
330
1E
100
AcDbEntity
  8
STEMPEL
100
AcDbPolyline
 90
       10
 70
   128
 43
0.0
 10
-192.7162401776917
 20
455.9083066768321
 10
-192.4337078826876
 20
455.9862519328899
 10
-192.1620703142832
 20
456.2104652668395
 10
-191.9095810425392
 20
456.5741340699862
 10
-191.6839118262118
 20
457.0662084497716
 10
-191.491919510245
 20
457.6717369751676
 10
-191.3394376840067
 20
458.3723209683424
 10
-191.2310994306275
 20
459.1466735391758
 10
-191.1701965531146
 20
459.9712663766445
 10
-191.1585795545829
 20
460.8210446446459
210
0.0
220
0.0
230
-1.0
  0
LINE
  5
F4D
330
1E
100
AcDbEntity
  8
HILF
100
AcDbLine
 10
171.303243734429
 20
469.9083066768312
 30
0.0
 11
171.2770536565029
 21
460.8210446446437
 31
0.0
  0
LWPOLYLINE
  5
F4E
330
1E
100
AcDbEntity
  8
HILF
100
AcDbPolyline
 90
       10
 70
   128
 43
0.0
 10
169.7193930333942
 20
455.9083066768298
 10
170.0019253283983
 20
455.9862519328876
 10
170.2735628968027
 20
456.2104652668373
 10
170.5260521685467
 20
456.5741340699839
 10
170.751721384874
 20
457.0662084497693
 10
170.9437137008408
 20
457.6717369751654
 10
171.0961955270791
 20
458.3723209683401
 10
171.2045337804583
 20
459.1466735391736
 10
171.2654366579712
 20
459.9712663766422
 10
171.2770536565029
 20
460.8210446446437
  0
LINE
  5
F4F
330
1E
100
AcDbEntity
  8
HILF
100
AcDbLine
 10
189.8146812388804
 20
460.8210446446459
 30
0.0
 11
172.1262699068686
 21
460.8210446446459
 31
0.0
  0
LINE
  5
F50
330
1E
100
AcDbEntity
  8
MITTEL
100
AcDbLine
 10
180.5748047381994
 20
474.9083066768314
 30
0.0
 11
180.5748047381994
 21
449.9083066768314
 31
0.0
  0
LWPOLYLINE
  5
F51
330
1E
100
AcDbEntity
  8
STEMPEL
100
AcDbPolyline
 90
       10
 70
   128
 43
0.0
 10
168.1089107207003
 20
455.9083066768321
 10
168.3914430157044
 20
455.9862519328899
 10
168.6630805841088
 20
456.2104652668395
 10
168.9155698558528
 20
456.5741340699862
 10
169.1412390721802
 20
457.0662084497716
 10
169.3332313881469
 20
457.6717369751676
 10
169.4857132143853
 20
458.3723209683424
 10
169.5940514677644
 20
459.1466735391758
 10
169.6549543452773
 20
459.9712663766445
 10
169.666571343809
 20
460.8210446446459
  0
LINE
  5
F52
330
1E
100
AcDbEntity
  8
STEMPEL
100
AcDbLine
 10
169.689998325809
 20
468.9112024032779
 30
0.0
 11
169.666571343809
 21
460.8210446446459
 31
0.0
  0
LINE
  5
F53
330
1E
100
AcDbEntity
  8
STEMPEL
100
AcDbLine
 10
170.6899941331843
 20
469.9083066768312
 30
0.0
 11
190.1351567652075
 21
469.9083066768315
 31
0.0
  0
LINE
  5
F55
102
{ACAD_REACTORS
330
1146
102
}
330
1E
100
AcDbEntity
  8
STEMPEL
100
AcDbLine
 10
318.9990001890475
 20
446.9083066768312
 30
0.0
 11
318.9990001890476
 21
443.9083066768313
 31
0.0
  0
ARC
  5
F56
330
1E
100
AcDbEntity
  8
STEMPEL
100
AcDbCircle
 10
308.4990001890476
 20
452.908306676832
 30
0.0
 40
3.0
100
AcDbArc
 50
270.0
 51
90.0
  0
ARC
  5
F57
330
1E
100
AcDbEntity
  8
STEMPEL
100
AcDbCircle
 10
261.9990001890474
 20
452.9083066768322
 30
0.0
 40
3.0
100
AcDbArc
 50
90.0
 51
270.0
  0
LINE
  5
F5A
330
1E
100
AcDbEntity
  8
STEMPEL
100
AcDbLine
 10
291.4990001890476
 20
449.9083066768313
 30
0.0
 11
308.4990001890476
 21
449.9083066768313
 31
0.0
  0
ARC
  5
F5B
330
1E
100
AcDbEntity
  8
STEMPEL
100
AcDbCircle
 10
130.9990001890478
 20
452.9083066768322
 30
0.0
 40
3.0
100
AcDbArc
 50
270.0
 51
90.0
  0
LINE
  5
F5D
102
{ACAD_REACTORS
330
1146
102
}
330
1E
100
AcDbEntity
  8
STEMPEL
100
AcDbLine
 10
133.9990001890476
 20
446.9083066768313
 30
0.0
 11
133.9990001890476
 21
443.9083066768313
 31
0.0
  0
LINE
  5
F5E
330
1E
100
AcDbEntity
  8
STEMPEL
100
AcDbLine
 10
111.4990001890476
 20
449.9083066768314
 30
0.0
 11
196.4990001890475
 21
449.9083066768314
 31
0.0
  0
POINT
  5
F61
330
1E
100
AcDbEntity
  8
BEM
100
AcDbPoint
 10
81.49900018904759
 20
452.908306676832
 30
0.0
  0
ARC
  5
F62
330
1E
100
AcDbEntity
  8
STEMPEL
100
AcDbCircle
 10
84.49900018904759
 20
452.908306676832
 30
0.0
 40
3.0
100
AcDbArc
 50
90.0
 51
270.0
  0
LINE
  5
F63
330
1E
100
AcDbEntity
  8
STEMPEL
100
AcDbLine
 10
84.49900018904759
 20
455.9083066768319
 30
0.0
 11
308.4990001890476
 21
455.9083066768322
 31
0.0
  0
LINE
  5
F65
102
{ACAD_REACTORS
330
1146
102
}
330
1E
100
AcDbEntity
  8
STEMPEL
100
AcDbLine
 10
73.99900018904759
 20
446.9083066768313
 30
0.0
 11
73.99900018904759
 21
443.9083066768313
 31
0.0
  0
LINE
  5
F66
330
1E
100
AcDbEntity
  8
STEMPEL
100
AcDbLine
 10
84.49900018904759
 20
449.9083066768314
 30
0.0
 11
101.4990001890475
 21
449.9083066768314
 31
0.0
  0
LINE
  5
F69
102
{ACAD_REACTORS
330
1146
102
}
330
1E
100
AcDbEntity
  8
STEMPEL
100
AcDbLine
 10
73.99900018904759
 20
443.9083066768313
 30
0.0
 11
168.5699804062647
 21
443.9083066768313
 31
0.0
  0
TEXT
  5
F6B
330
1E
100
AcDbEntity
  8
TEXT
 62
     1
100
AcDbText
 10
346.1875199574007
 20
88.14901428913959
 30
0.0
 40
7.0
  1
21992050W
 41
0.8
  7
GREEKS
 72
     1
 11
369.6541866240674
 21
88.14901428913959
 31
0.0
100
AcDbText
  0
LINE
  5
F6C
330
1E
100
AcDbEntity
  8
STEMPEL
100
AcDbLine
 10
332.0
 20
109.9999999999997
 30
0.0
 11
332.0
 21
40.0
 31
0.0
  0
TEXT
  5
F6D
330
1E
100
AcDbEntity
  8
TEXT
100
AcDbText
 10
234.877940380901
 20
102.5489328011779
 30
0.0
 40
5.0
  1
Benennung
 41
0.8
  7
GREEKS
100
AcDbText
  0
TEXT
  5
F6E
330
1E
100
AcDbEntity
  8
TEXT
100
AcDbText
 10
234.742238391136
 20
30.8456057019306
 30
0.0
 40
5.0
  1
Bauvorhaben
 41
0.8
  7
GREEKS
100
AcDbText
  0
TEXT
  5
F6F
330
1E
100
AcDbEntity
  8
TEXT
100
AcDbText
 10
234.9837501577827
 20
42.62974153022628
 30
0.0
 40
4.0
  1
21992050W.DWG
 41
0.8
  7
GREEKS
100
AcDbText
  0
LINE
  5
F70
330
1E
100
AcDbEntity
  8
STEMPEL
100
AcDbLine
 10
230.0
 20
110.0
 30
0.0
 11
230.0
 21
10.0
 31
0.0
  0
LINE
  5
F71
330
1E
100
AcDbEntity
  8
HILF
100
AcDbLine
 10
234.7736801096947
 20
84.03758247564139
 30
0.0
 11
324.8353916556311
 21
84.03758247564139
 31
0.0
  0
LINE
  5
F72
330
1E
100
AcDbEntity
  8
HILF
100
AcDbLine
 10
234.7736801096947
 20
70.0
 30
0.0
 11
324.835391655631
 21
70.0
 31
0.0
  0
LINE
  5
F73
330
1E
100
AcDbEntity
  8
HILF
100
AcDbLine
 10
234.7736801096947
 20
60.0
 30
0.0
 11
324.835391655631
 21
60.0
 31
0.0
  0
LINE
  5
F74
330
1E
100
AcDbEntity
  8
HILF
100
AcDbLine
 10
234.7736801096947
 20
50.0
 30
0.0
 11
324.835391655631
 21
50.0
 31
0.0
  0
TEXT
  5
F75
330
1E
100
AcDbEntity
  8
TEXT
 62
     1
100
AcDbText
 10
234.7710897819973
 20
87.41748789253779
 30
0.0
 40
7.0
  1
Unterteileinheit DN50
 41
0.8
  7
GREEKS
100
AcDbText
  0
TEXT
  5
F76
330
1E
100
AcDbEntity
  8
TEXT
100
AcDbText
 10
235.1296391125315
 20
51.64011943042158
 30
0.0
 40
5.0
  1
EDV-Art.Nr. 21992.050X
 41
0.8
  7
GREEKS
100
AcDbText
  0
LINE
  5
F77
330
1E
100
AcDbEntity
  8
VOLL
100
AcDbLine
 10
332.0
 20
60.0
 30
0.0
 11
410.0
 21
60.0
 31
0.0
  0
LINE
  5
F78
330
1E
100
AcDbEntity
  8
HILF
100
AcDbLine
 10
336.7238616296993
 20
83.77983636955827
 30
0.0
 11
404.8588839326728
 21
83.77983636955827
 31
0.0
  0
LINE
  5
F79
330
1E
100
AcDbEntity
  8
HILF
100
AcDbLine
 10
233.4909699289885
 20
14.89398258028314
 30
0.0
 11
404.8588839326728
 21
14.89398258028314
 31
0.0
  0
TEXT
  5
F7A
330
1E
100
AcDbEntity
  8
TEXT
100
AcDbText
 10
336.178754957634
 20
102.3132034537136
 30
0.0
 40
5.0
  1
Zeichnungs Nr.
 41
0.8
  7
GREEKS
100
AcDbText
  0
TEXT
  5
F7B
330
1E
100
AcDbEntity
  8
TEXT
100
AcDbText
 10
336.7238616296993
 20
73.1811823709997
 30
0.0
 40
5.0
  1
Ersatz für:
 41
0.8
  7
GREEKS
100
AcDbText
  0
TEXT
  5
F7C
330
1E
100
AcDbEntity
  8
TEXT
100
AcDbText
 10
337.2400861497006
 20
52.07416177878599
 30
0.0
 40
5.0
  1
ersetzt durch:
 41
0.8
  7
GREEKS
100
AcDbText
  0
LINE
  5
F7D
330
1E
100
AcDbEntity
  8
VOLL
100
AcDbLine
 10
190.0000000000001
 20
109.9999999999998
 30
0.0
 11
190.0
 21
40.0
 31
0.0
  0
TEXT
  5
F7E
330
1E
100
AcDbEntity
  8
TEXT
100
AcDbText
 10
148.622109822104
 20
73.14025471151666
 30
0.0
 40
4.0
  1
2014
 41
0.8
  7
GREEKS
100
AcDbText
  0
TEXT
  5
F7F
330
1E
100
AcDbEntity
  8
TEXT
100
AcDbText
 10
153.5163572150377
 20
102.4620895087088
 30
0.0
 40
5.0
  1
Maßstab
 41
0.8
  7
GREEKS
100
AcDbText
  0
TEXT
  5
F80
330
1E
100
AcDbEntity
  8
TEXT
 62
     1
100
AcDbText
 10
160.5006306481887
 20
88.14901428913959
 30
0.0
 40
7.0
  1
1:2
 41
0.8
  7
GREEKS
100
AcDbText
  0
TEXT
  5
F81
330
1E
100
AcDbEntity
  8
TEXT
100
AcDbText
 10
147.5515086571672
 20
53.68926291428374
 30
0.0
 40
4.0
  1
Gepr.
 41
0.8
  7
GREEKS
100
AcDbText
  0
TEXT
  5
F82
330
1E
100
AcDbEntity
  8
TEXT
100
AcDbText
 10
147.6006777387303
 20
43.5294638964981
 30
0.0
 40
4.0
  1
Norm.
 41
0.8
  7
GREEKS
100
AcDbText
  0
LINE
  5
F83
330
1E
100
AcDbEntity
  8
VOLL
100
AcDbLine
 10
164.0000000000001
 20
79.99999999999994
 30
0.0
 11
164.0000000000001
 21
40.0
 31
0.0
  0
TEXT
  5
F84
330
1E
100
AcDbEntity
  8
TEXT
100
AcDbText
 10
147.5836127167615
 20
63.62990369617967
 30
0.0
 40
4.0
  1
Gez.
 41
0.8
  7
GREEKS
100
AcDbText
  0
TEXT
  5
F85
330
1E
100
AcDbEntity
  8
TEXT
100
AcDbText
 10
172.331167315365
 20
73.31880501229926
 30
0.0
 40
4.0
  1
Tag
 41
0.8
  7
GREEKS
100
AcDbText
  0
TEXT
  5
F86
330
1E
100
AcDbEntity
  8
TEXT
100
AcDbText
 10
171.0085209177598
 20
63.10765040825732
 30
0.0
 40
4.0
  1
16.01.
 41
0.8
  7
GREEKS
 72
     1
 11
177.4085209177598
 21
63.10765040825732
 31
0.0
100
AcDbText
  0
LINE
  5
F87
330
1E
100
AcDbEntity
  8
STEMPEL
100
AcDbLine
 10
146.0000000000001
 20
109.9999999999999
 30
0.0
 11
146.0
 21
10.0
 31
0.0
  0
LINE
  5
F88
330
1E
100
AcDbEntity
  8
STEMPEL
100
AcDbLine
 10
410.0
 20
40.0
 30
0.0
 11
146.0000000000001
 21
40.0
 31
0.0
  0
LINE
  5
F89
330
1E
100
AcDbEntity
  8
STEMPEL
100
AcDbLine
 10
410.0
 20
80.0
 30
0.0
 11
146.0000000000001
 21
79.99999999999994
 31
0.0
  0
LINE
  5
F8A
330
1E
100
AcDbEntity
  8
HILF
100
AcDbLine
 10
146.0000000000001
 20
70.0
 30
0.0
 11
230.0
 21
70.0
 31
0.0
  0
LINE
  5
F8B
330
1E
100
AcDbEntity
  8
HILF
100
AcDbLine
 10
146.0000000000001
 20
60.0
 30
0.0
 11
230.0
 21
60.0
 31
0.0
  0
LINE
  5
F8C
330
1E
100
AcDbEntity
  8
HILF
100
AcDbLine
 10
146.0000000000001
 20
50.0
 30
0.0
 11
230.0
 21
50.0
 31
0.0
  0
TEXT
  5
F8D
330
1E
100
AcDbEntity
  8
TEXT
100
AcDbText
 10
194.2858954734051
 20
102.4184168434819
 30
0.0
 40
5.0
  1
Zul. Abw.
 41
0.8
  7
GREEKS
100
AcDbText
  0
TEXT
  5
F8E
330
1E
100
AcDbEntity
  8
TEXT
100
AcDbText
 10
202.4626584226295
 20
73.30961091915225
 30
0.0
 40
4.0
  1
Name
 41
0.8
  7
GREEKS
100
AcDbText
  0
TEXT
  5
F8F
330
1E
100
AcDbEntity
  8
TEXT
100
AcDbText
 10
204.4216048581257
 20
63.0896391972351
 30
0.0
 40
4.0
  1
Koeh
 41
0.8
  7
GREEKS
 72
     1
 11
209.6787477152686
 21
63.0896391972351
 31
0.0
100
AcDbText
  0
TEXT
  5
F90
330
1E
100
AcDbEntity
  8
TEXT
100
AcDbText
 10
192.626132208084
 20
90.76363841023022
 30
0.0
 40
4.0
  1
DIN EN1124-3
 41
0.8
  7
GREEKS
 72
     1
 11
209.6166083985602
 21
90.76363841023022
 31
0.0
100
AcDbText
  0
INSERT
  5
F91
330
1E
100
AcDbEntity
  8
STEMPEL
100
AcDbBlockReference
  2
LOGO
 10
150.9955485457794
 20
45.02105276448321
 30
0.0
 41
2.0
 42
2.0
 43
2.0
  0
ARC
  5
10AD
330
1E
100
AcDbEntity
  8
STEMPEL
100
AcDbCircle
 10
106.4990001890476
 20
435.5974175443771
 30
0.0
 40
30.31088913245485
100
AcDbArc
 50
81.78678929826142
 51
98.21321070173775
  0
ARC
  5
10AE
330
1E
100
AcDbEntity
  8
STEMPEL
100
AcDbCircle
 10
100.0038096606643
 20
458.2140009690475
 30
0.0
 40
7.694305707784447
100
AcDbArc
 50
73.65710669401497
 51
106.342893305985
  0
ARC
  5
10AF
330
1E
100
AcDbEntity
  8
STEMPEL
100
AcDbCircle
 10
112.9941907174309
 20
458.2140009690475
 30
0.0
 40
7.694305707784447
100
AcDbArc
 50
73.65710669401497
 51
106.342893305985
  0
ARC
  5
10B0
330
1E
100
AcDbEntity
  8
HILF
100
AcDbCircle
 10
106.4990001890476
 20
436.0098456291707
 30
0.0
 40
22.41111549782308
100
AcDbArc
 50
78.85962783890533
 51
101.1403721610946
  0
ARC
  5
10B1
330
1E
100
AcDbEntity
  8
HILF
100
AcDbCircle
 10
112.9941907174309
 20
452.6598205273024
 30
0.0
 40
5.761140599691502
100
AcDbArc
 50
67.92594526326202
 51
112.0740547367379
  0
ARC
  5
10B2
330
1E
100
AcDbEntity
  8
HILF
100
AcDbCircle
 10
100.0038096606643
 20
452.6598205273024
 30
0.0
 40
5.761140599691502
100
AcDbArc
 50
67.92594526326202
 51
112.0740547367379
  0
POINT
  5
10B3
330
1E
100
AcDbEntity
  8
0
100
AcDbPoint
 10
106.4990001890476
 20
455.9083066768319
 30
0.0
210
0.0000000000000001
220
1.0
230
0.0
  0
LINE
  5
10B4
330
1E
100
AcDbEntity
  8
STEMPEL
100
AcDbLine
 10
98.99900018904762
 20
465.908306676832
 30
0.0
 11
113.9990001890475
 21
465.908306676832
 31
0.0
  0
LINE
  5
10B5
330
1E
100
AcDbEntity
  8
STEMPEL
100
AcDbLine
 10
115.159254226892
 20
457.9986631930318
 30
0.0
 11
115.159254226892
 21
465.5974175443766
 31
0.0
  0
LINE
  5
10B6
330
1E
100
AcDbEntity
  8
STEMPEL
100
AcDbLine
 10
110.8291272079698
 20
457.9986631930318
 30
0.0
 11
110.8291272079698
 21
465.5974175443766
 31
0.0
  0
LINE
  5
10B7
330
1E
100
AcDbEntity
  8
STEMPEL
100
AcDbLine
 10
102.1688731701254
 20
457.9986631930318
 30
0.0
 11
102.1688731701254
 21
465.5974175443766
 31
0.0
  0
LINE
  5
10B8
330
1E
100
AcDbEntity
  8
STEMPEL
100
AcDbLine
 10
116.9055152965418
 20
457.3630761424214
 30
0.0
 11
96.09248508155333
 21
457.3630761424214
 31
0.0
  0
LINE
  5
10B9
330
1E
100
AcDbEntity
  8
STEMPEL
100
AcDbLine
 10
116.6490001890476
 20
455.9083066768319
 30
0.0
 11
96.34900018904758
 21
455.9083066768319
 31
0.0
  0
LINE
  5
10BA
330
1E
100
AcDbEntity
  8
STEMPEL
100
AcDbLine
 10
97.83874615120321
 20
457.9986631930318
 30
0.0
 11
97.83874615120321
 21
465.5974175443766
 31
0.0
  0
LINE
  5
10BB
330
1E
100
AcDbEntity
  8
STEMPEL
100
AcDbLine
 10
98.99900018904762
 20
465.908306676832
 30
0.0
 11
97.83874615120321
 21
465.5974175443766
 31
0.0
  0
LINE
  5
10BC
330
1E
100
AcDbEntity
  8
STEMPEL
100
AcDbLine
 10
115.159254226892
 20
465.5974175443766
 30
0.0
 11
113.9990001890475
 21
465.908306676832
 31
0.0
  0
LINE
  5
10BD
330
1E
100
AcDbEntity
  8
STEMPEL
100
AcDbLine
 10
116.9055152965418
 20
457.3630761424214
 30
0.0
 11
115.1592542268919
 21
457.9986631930318
 31
0.0
  0
LINE
  5
10BE
330
1E
100
AcDbEntity
  8
STEMPEL
100
AcDbLine
 10
97.83874615120321
 20
457.9986631930318
 30
0.0
 11
96.09248508155335
 21
457.3630761424214
 31
0.0
  0
ARC
  5
10BF
330
1E
100
AcDbEntity
  8
STEMPEL
100
AcDbCircle
 10
96.34900018904758
 20
456.658306676832
 30
0.0
 40
0.7500000000000013
100
AcDbArc
 50
109.9999999999996
 51
269.9999991462263
  0
ARC
  5
10C0
330
1E
100
AcDbEntity
  8
STEMPEL
100
AcDbCircle
 10
116.6490001890476
 20
456.658306676832
 30
0.0
 40
0.750000000000001
100
AcDbArc
 50
269.9999991462263
 51
70.00000000000039
  0
ARC
  5
10C1
330
1E
100
AcDbEntity
  8
STEMPEL
100
AcDbCircle
 10
161.6490001890475
 20
456.658306676832
 30
0.0
 40
0.750000000000001
100
AcDbArc
 50
269.9999991462263
 51
70.00000000000039
  0
ARC
  5
10C2
330
1E
100
AcDbEntity
  8
STEMPEL
100
AcDbCircle
 10
141.3490001890474
 20
456.658306676832
 30
0.0
 40
0.7500000000000013
100
AcDbArc
 50
109.9999999999996
 51
269.9999991462263
  0
LINE
  5
10C3
330
1E
100
AcDbEntity
  8
STEMPEL
100
AcDbLine
 10
142.8387461512031
 20
457.9986631930318
 30
0.0
 11
141.0924850815532
 21
457.3630761424214
 31
0.0
  0
LINE
  5
10C4
330
1E
100
AcDbEntity
  8
STEMPEL
100
AcDbLine
 10
161.9055152965417
 20
457.3630761424214
 30
0.0
 11
160.1592542268918
 21
457.9986631930318
 31
0.0
  0
LINE
  5
10C5
330
1E
100
AcDbEntity
  8
STEMPEL
100
AcDbLine
 10
160.1592542268918
 20
465.5974175443766
 30
0.0
 11
158.9990001890474
 21
465.908306676832
 31
0.0
  0
LINE
  5
10C6
330
1E
100
AcDbEntity
  8
STEMPEL
100
AcDbLine
 10
143.9990001890475
 20
465.908306676832
 30
0.0
 11
142.8387461512031
 21
465.5974175443766
 31
0.0
  0
LINE
  5
10C7
330
1E
100
AcDbEntity
  8
STEMPEL
100
AcDbLine
 10
142.8387461512031
 20
457.9986631930318
 30
0.0
 11
142.8387461512031
 21
465.5974175443766
 31
0.0
  0
LINE
  5
10C8
330
1E
100
AcDbEntity
  8
STEMPEL
100
AcDbLine
 10
161.6490001890475
 20
455.9083066768319
 30
0.0
 11
141.3490001890474
 21
455.9083066768319
 31
0.0
  0
LINE
  5
10C9
330
1E
100
AcDbEntity
  8
STEMPEL
100
AcDbLine
 10
161.9055152965417
 20
457.3630761424214
 30
0.0
 11
141.0924850815532
 21
457.3630761424214
 31
0.0
  0
LINE
  5
10CA
330
1E
100
AcDbEntity
  8
STEMPEL
100
AcDbLine
 10
147.1688731701252
 20
457.9986631930318
 30
0.0
 11
147.1688731701252
 21
465.5974175443766
 31
0.0
  0
LINE
  5
10CB
330
1E
100
AcDbEntity
  8
STEMPEL
100
AcDbLine
 10
155.8291272079697
 20
457.9986631930318
 30
0.0
 11
155.8291272079697
 21
465.5974175443766
 31
0.0
  0
LINE
  5
10CC
330
1E
100
AcDbEntity
  8
STEMPEL
100
AcDbLine
 10
160.1592542268918
 20
457.9986631930318
 30
0.0
 11
160.1592542268918
 21
465.5974175443766
 31
0.0
  0
LINE
  5
10CD
330
1E
100
AcDbEntity
  8
STEMPEL
100
AcDbLine
 10
143.9990001890475
 20
465.908306676832
 30
0.0
 11
158.9990001890474
 21
465.908306676832
 31
0.0
  0
POINT
  5
10CE
330
1E
100
AcDbEntity
  8
0
100
AcDbPoint
 10
151.4990001890474
 20
455.9083066768319
 30
0.0
210
0.0000000000000001
220
1.0
230
0.0
  0
ARC
  5
10CF
330
1E
100
AcDbEntity
  8
HILF
100
AcDbCircle
 10
145.0038096606642
 20
452.6598205273024
 30
0.0
 40
5.761140599691502
100
AcDbArc
 50
67.92594526326202
 51
112.0740547367379
  0
ARC
  5
10D0
330
1E
100
AcDbEntity
  8
HILF
100
AcDbCircle
 10
157.9941907174307
 20
452.6598205273024
 30
0.0
 40
5.761140599691502
100
AcDbArc
 50
67.92594526326202
 51
112.0740547367379
  0
ARC
  5
10D1
330
1E
100
AcDbEntity
  8
HILF
100
AcDbCircle
 10
151.4990001890474
 20
436.0098456291707
 30
0.0
 40
22.41111549782308
100
AcDbArc
 50
78.85962783890533
 51
101.1403721610946
  0
ARC
  5
10D2
330
1E
100
AcDbEntity
  8
STEMPEL
100
AcDbCircle
 10
157.9941907174307
 20
458.2140009690475
 30
0.0
 40
7.694305707784447
100
AcDbArc
 50
73.65710669401497
 51
106.342893305985
  0
ARC
  5
10D3
330
1E
100
AcDbEntity
  8
STEMPEL
100
AcDbCircle
 10
145.0038096606642
 20
458.2140009690475
 30
0.0
 40
7.694305707784447
100
AcDbArc
 50
73.65710669401497
 51
106.342893305985
  0
ARC
  5
10D4
330
1E
100
AcDbEntity
  8
STEMPEL
100
AcDbCircle
 10
151.4990001890474
 20
435.5974175443771
 30
0.0
 40
30.31088913245485
100
AcDbArc
 50
81.78678929826142
 51
98.21321070173775
  0
LINE
  5
10D5
330
1E
100
AcDbEntity
  8
HILF
100
AcDbLine
 10
155.4990001890474
 20
468.9083066768313
 30
0.0
 11
155.4990001890475
 21
465.908306676832
 31
0.0
  0
LINE
  5
10D6
330
1E
100
AcDbEntity
  8
STEMPEL
100
AcDbLine
 10
156.4990001890475
 20
467.9083066768312
 30
0.0
 11
156.4990001890475
 21
465.908306676832
 31
0.0
  0
LINE
  5
10D7
330
1E
100
AcDbEntity
  8
HILF
100
AcDbLine
 10
147.4990001890475
 20
468.9083066768312
 30
0.0
 11
147.4990001890475
 21
465.908306676832
 31
0.0
  0
LINE
  5
10D8
330
1E
100
AcDbEntity
  8
STEMPEL
100
AcDbLine
 10
146.4990001890475
 20
467.9083066768313
 30
0.0
 11
146.4990001890475
 21
465.908306676832
 31
0.0
  0
LINE
  5
10D9
330
1E
100
AcDbEntity
  8
STEMPEL
100
AcDbLine
 10
155.4990001890474
 20
468.9083066768313
 30
0.0
 11
147.4990001890475
 21
468.9083066768313
 31
0.0
  0
LINE
  5
10DA
330
1E
100
AcDbEntity
  8
STEMPEL
100
AcDbLine
 10
146.4990001890475
 20
467.9083066768313
 30
0.0
 11
156.4990001890472
 21
467.9083066768313
 31
0.0
  0
LINE
  5
10DB
330
1E
100
AcDbEntity
  8
STEMPEL
100
AcDbLine
 10
147.4990001890475
 20
468.9083066768313
 30
0.0
 11
146.4990001890475
 21
467.9083066768313
 31
0.0
  0
LINE
  5
10DC
330
1E
100
AcDbEntity
  8
STEMPEL
100
AcDbLine
 10
156.4990001890475
 20
467.9083066768313
 30
0.0
 11
155.4990001890474
 21
468.9083066768313
 31
0.0
  0
ARC
  5
10DD
330
1E
100
AcDbEntity
  8
STEMPEL
100
AcDbCircle
 10
251.6490001890478
 20
456.6583066768319
 30
0.0
 40
0.750000000000001
100
AcDbArc
 50
269.9999991462263
 51
70.00000000000039
  0
ARC
  5
10DE
330
1E
100
AcDbEntity
  8
STEMPEL
100
AcDbCircle
 10
231.3490001890478
 20
456.6583066768319
 30
0.0
 40
0.7500000000000013
100
AcDbArc
 50
109.9999999999996
 51
269.9999991462263
  0
LINE
  5
10DF
330
1E
100
AcDbEntity
  8
STEMPEL
100
AcDbLine
 10
232.8387461512034
 20
457.9986631930317
 30
0.0
 11
231.0924850815535
 21
457.3630761424213
 31
0.0
  0
LINE
  5
10E0
330
1E
100
AcDbEntity
  8
STEMPEL
100
AcDbLine
 10
251.9055152965421
 20
457.3630761424213
 30
0.0
 11
250.1592542268921
 21
457.9986631930317
 31
0.0
  0
LINE
  5
10E1
330
1E
100
AcDbEntity
  8
STEMPEL
100
AcDbLine
 10
250.1592542268921
 20
465.5974175443765
 30
0.0
 11
248.9990001890477
 21
465.9083066768318
 31
0.0
  0
LINE
  5
10E2
330
1E
100
AcDbEntity
  8
STEMPEL
100
AcDbLine
 10
233.9990001890478
 20
465.9083066768318
 30
0.0
 11
232.8387461512034
 21
465.5974175443765
 31
0.0
  0
LINE
  5
10E3
330
1E
100
AcDbEntity
  8
STEMPEL
100
AcDbLine
 10
232.8387461512034
 20
457.9986631930317
 30
0.0
 11
232.8387461512034
 21
465.5974175443765
 31
0.0
  0
LINE
  5
10E4
330
1E
100
AcDbEntity
  8
STEMPEL
100
AcDbLine
 10
251.6490001890478
 20
455.9083066768319
 30
0.0
 11
231.3490001890478
 21
455.9083066768319
 31
0.0
  0
LINE
  5
10E5
330
1E
100
AcDbEntity
  8
STEMPEL
100
AcDbLine
 10
251.9055152965421
 20
457.3630761424213
 30
0.0
 11
231.0924850815535
 21
457.3630761424213
 31
0.0
  0
LINE
  5
10E6
330
1E
100
AcDbEntity
  8
STEMPEL
100
AcDbLine
 10
237.1688731701255
 20
457.9986631930317
 30
0.0
 11
237.1688731701255
 21
465.5974175443765
 31
0.0
  0
LINE
  5
10E7
330
1E
100
AcDbEntity
  8
STEMPEL
100
AcDbLine
 10
245.82912720797
 20
457.9986631930317
 30
0.0
 11
245.82912720797
 21
465.5974175443765
 31
0.0
  0
LINE
  5
10E8
330
1E
100
AcDbEntity
  8
STEMPEL
100
AcDbLine
 10
250.1592542268921
 20
457.9986631930317
 30
0.0
 11
250.1592542268921
 21
465.5974175443765
 31
0.0
  0
LINE
  5
10E9
330
1E
100
AcDbEntity
  8
STEMPEL
100
AcDbLine
 10
233.9990001890478
 20
465.9083066768318
 30
0.0
 11
248.9990001890477
 21
465.9083066768318
 31
0.0
  0
POINT
  5
10EA
330
1E
100
AcDbEntity
  8
0
100
AcDbPoint
 10
241.4990001890477
 20
455.9083066768319
 30
0.0
210
0.0000000000000001
220
1.0
230
0.0
  0
ARC
  5
10EB
330
1E
100
AcDbEntity
  8
HILF
100
AcDbCircle
 10
235.0038096606645
 20
452.6598205273022
 30
0.0
 40
5.761140599691502
100
AcDbArc
 50
67.92594526326202
 51
112.0740547367379
  0
ARC
  5
10EC
330
1E
100
AcDbEntity
  8
HILF
100
AcDbCircle
 10
247.994190717431
 20
452.6598205273022
 30
0.0
 40
5.761140599691502
100
AcDbArc
 50
67.92594526326202
 51
112.0740547367379
  0
ARC
  5
10ED
330
1E
100
AcDbEntity
  8
HILF
100
AcDbCircle
 10
241.4990001890477
 20
436.0098456291706
 30
0.0
 40
22.41111549782308
100
AcDbArc
 50
78.85962783890533
 51
101.1403721610946
  0
ARC
  5
10EE
330
1E
100
AcDbEntity
  8
STEMPEL
100
AcDbCircle
 10
247.994190717431
 20
458.2140009690474
 30
0.0
 40
7.694305707784447
100
AcDbArc
 50
73.65710669401497
 51
106.342893305985
  0
ARC
  5
10EF
330
1E
100
AcDbEntity
  8
STEMPEL
100
AcDbCircle
 10
235.0038096606645
 20
458.2140009690474
 30
0.0
 40
7.694305707784447
100
AcDbArc
 50
73.65710669401497
 51
106.342893305985
  0
ARC
  5
10F0
330
1E
100
AcDbEntity
  8
STEMPEL
100
AcDbCircle
 10
241.4990001890477
 20
435.597417544377
 30
0.0
 40
30.31088913245485
100
AcDbArc
 50
81.78678929826142
 51
98.21321070173775
  0
LINE
  5
10F1
330
1E
100
AcDbEntity
  8
HILF
100
AcDbLine
 10
245.4990001890478
 20
468.9083066768312
 30
0.0
 11
245.4990001890478
 21
465.9083066768318
 31
0.0
  0
LINE
  5
10F2
330
1E
100
AcDbEntity
  8
STEMPEL
100
AcDbLine
 10
246.4990001890478
 20
467.9083066768312
 30
0.0
 11
246.4990001890478
 21
465.9083066768318
 31
0.0
  0
LINE
  5
10F3
330
1E
100
AcDbEntity
  8
HILF
100
AcDbLine
 10
237.4990001890477
 20
468.9083066768311
 30
0.0
 11
237.4990001890478
 21
465.9083066768318
 31
0.0
  0
LINE
  5
10F4
330
1E
100
AcDbEntity
  8
STEMPEL
100
AcDbLine
 10
236.4990001890478
 20
467.9083066768312
 30
0.0
 11
236.4990001890478
 21
465.9083066768318
 31
0.0
  0
LINE
  5
10F5
330
1E
100
AcDbEntity
  8
STEMPEL
100
AcDbLine
 10
245.4990001890478
 20
468.9083066768312
 30
0.0
 11
237.4990001890477
 21
468.9083066768312
 31
0.0
  0
LINE
  5
10F6
330
1E
100
AcDbEntity
  8
STEMPEL
100
AcDbLine
 10
236.4990001890478
 20
467.9083066768312
 30
0.0
 11
246.4990001890476
 21
467.9083066768312
 31
0.0
  0
LINE
  5
10F7
330
1E
100
AcDbEntity
  8
STEMPEL
100
AcDbLine
 10
237.4990001890477
 20
468.9083066768312
 30
0.0
 11
236.4990001890478
 21
467.9083066768312
 31
0.0
  0
LINE
  5
10F8
330
1E
100
AcDbEntity
  8
STEMPEL
100
AcDbLine
 10
246.4990001890478
 20
467.9083066768312
 30
0.0
 11
245.4990001890478
 21
468.9083066768312
 31
0.0
  0
ARC
  5
10F9
330
1E
100
AcDbEntity
  8
STEMPEL
100
AcDbCircle
 10
296.6490001890477
 20
456.6583066768318
 30
0.0
 40
0.750000000000001
100
AcDbArc
 50
269.9999991462263
 51
70.00000000000039
  0
ARC
  5
10FA
330
1E
100
AcDbEntity
  8
STEMPEL
100
AcDbCircle
 10
276.3490001890477
 20
456.6583066768318
 30
0.0
 40
0.7500000000000013
100
AcDbArc
 50
109.9999999999996
 51
269.9999991462263
  0
LINE
  5
10FB
330
1E
100
AcDbEntity
  8
STEMPEL
100
AcDbLine
 10
277.8387461512033
 20
457.9986631930316
 30
0.0
 11
276.0924850815535
 21
457.3630761424213
 31
0.0
  0
LINE
  5
10FC
330
1E
100
AcDbEntity
  8
STEMPEL
100
AcDbLine
 10
296.9055152965419
 20
457.3630761424213
 30
0.0
 11
295.1592542268921
 21
457.9986631930316
 31
0.0
  0
LINE
  5
10FD
330
1E
100
AcDbEntity
  8
STEMPEL
100
AcDbLine
 10
295.1592542268921
 20
465.5974175443764
 30
0.0
 11
293.9990001890477
 21
465.9083066768318
 31
0.0
  0
LINE
  5
10FE
330
1E
100
AcDbEntity
  8
STEMPEL
100
AcDbLine
 10
278.9990001890477
 20
465.9083066768318
 30
0.0
 11
277.8387461512033
 21
465.5974175443764
 31
0.0
  0
LINE
  5
10FF
330
1E
100
AcDbEntity
  8
STEMPEL
100
AcDbLine
 10
277.8387461512033
 20
457.9986631930316
 30
0.0
 11
277.8387461512033
 21
465.5974175443764
 31
0.0
  0
LINE
  5
1100
330
1E
100
AcDbEntity
  8
STEMPEL
100
AcDbLine
 10
296.6490001890477
 20
455.9083066768318
 30
0.0
 11
276.3490001890477
 21
455.9083066768318
 31
0.0
  0
LINE
  5
1101
330
1E
100
AcDbEntity
  8
STEMPEL
100
AcDbLine
 10
296.9055152965419
 20
457.3630761424213
 30
0.0
 11
276.0924850815534
 21
457.3630761424213
 31
0.0
  0
LINE
  5
1102
330
1E
100
AcDbEntity
  8
STEMPEL
100
AcDbLine
 10
282.1688731701255
 20
457.9986631930316
 30
0.0
 11
282.1688731701255
 21
465.5974175443764
 31
0.0
  0
LINE
  5
1103
330
1E
100
AcDbEntity
  8
STEMPEL
100
AcDbLine
 10
290.8291272079699
 20
457.9986631930316
 30
0.0
 11
290.8291272079699
 21
465.5974175443764
 31
0.0
  0
LINE
  5
1104
330
1E
100
AcDbEntity
  8
STEMPEL
100
AcDbLine
 10
295.1592542268921
 20
457.9986631930316
 30
0.0
 11
295.1592542268921
 21
465.5974175443764
 31
0.0
  0
LINE
  5
1105
330
1E
100
AcDbEntity
  8
STEMPEL
100
AcDbLine
 10
278.9990001890477
 20
465.9083066768318
 30
0.0
 11
293.9990001890477
 21
465.9083066768318
 31
0.0
  0
POINT
  5
1106
330
1E
100
AcDbEntity
  8
0
100
AcDbPoint
 10
286.4990001890477
 20
455.9083066768318
 30
0.0
210
0.0000000000000001
220
1.0
230
0.0
  0
ARC
  5
1107
330
1E
100
AcDbEntity
  8
HILF
100
AcDbCircle
 10
280.0038096606644
 20
452.6598205273022
 30
0.0
 40
5.761140599691502
100
AcDbArc
 50
67.92594526326202
 51
112.0740547367379
  0
ARC
  5
1108
330
1E
100
AcDbEntity
  8
HILF
100
AcDbCircle
 10
292.994190717431
 20
452.6598205273022
 30
0.0
 40
5.761140599691502
100
AcDbArc
 50
67.92594526326202
 51
112.0740547367379
  0
ARC
  5
1109
330
1E
100
AcDbEntity
  8
HILF
100
AcDbCircle
 10
286.4990001890477
 20
436.0098456291705
 30
0.0
 40
22.41111549782308
100
AcDbArc
 50
78.85962783890533
 51
101.1403721610946
  0
ARC
  5
110A
330
1E
100
AcDbEntity
  8
STEMPEL
100
AcDbCircle
 10
292.994190717431
 20
458.2140009690474
 30
0.0
 40
7.694305707784447
100
AcDbArc
 50
73.65710669401497
 51
106.342893305985
  0
ARC
  5
110B
330
1E
100
AcDbEntity
  8
STEMPEL
100
AcDbCircle
 10
280.0038096606644
 20
458.2140009690474
 30
0.0
 40
7.694305707784447
100
AcDbArc
 50
73.65710669401497
 51
106.342893305985
  0
ARC
  5
110C
330
1E
100
AcDbEntity
  8
STEMPEL
100
AcDbCircle
 10
286.4990001890477
 20
435.5974175443769
 30
0.0
 40
30.31088913245485
100
AcDbArc
 50
81.78678929826142
 51
98.21321070173775
  0
LINE
  5
110D
330
1E
100
AcDbEntity
  8
HILF
100
AcDbLine
 10
290.4990001890477
 20
468.9083066768311
 30
0.0
 11
290.4990001890478
 21
465.9083066768318
 31
0.0
  0
LINE
  5
110E
330
1E
100
AcDbEntity
  8
STEMPEL
100
AcDbLine
 10
291.4990001890477
 20
467.9083066768311
 30
0.0
 11
291.4990001890478
 21
465.9083066768318
 31
0.0
  0
LINE
  5
110F
330
1E
100
AcDbEntity
  8
HILF
100
AcDbLine
 10
282.4990001890477
 20
468.908306676831
 30
0.0
 11
282.4990001890478
 21
465.9083066768318
 31
0.0
  0
LINE
  5
1110
330
1E
100
AcDbEntity
  8
STEMPEL
100
AcDbLine
 10
281.4990001890477
 20
467.9083066768312
 30
0.0
 11
281.4990001890477
 21
465.9083066768318
 31
0.0
  0
LINE
  5
1111
330
1E
100
AcDbEntity
  8
STEMPEL
100
AcDbLine
 10
290.4990001890477
 20
468.9083066768311
 30
0.0
 11
282.4990001890477
 21
468.9083066768311
 31
0.0
  0
LINE
  5
1112
330
1E
100
AcDbEntity
  8
STEMPEL
100
AcDbLine
 10
281.4990001890477
 20
467.9083066768312
 30
0.0
 11
291.4990001890475
 21
467.9083066768312
 31
0.0
  0
LINE
  5
1113
330
1E
100
AcDbEntity
  8
STEMPEL
100
AcDbLine
 10
282.4990001890477
 20
468.9083066768311
 30
0.0
 11
281.4990001890477
 21
467.9083066768312
 31
0.0
  0
LINE
  5
1114
330
1E
100
AcDbEntity
  8
STEMPEL
100
AcDbLine
 10
291.4990001890477
 20
467.9083066768312
 30
0.0
 11
290.4990001890477
 21
468.9083066768311
 31
0.0
  0
LINE
  5
111E
102
{ACAD_REACTORS
330
1146
102
}
330
1E
100
AcDbEntity
  8
STEMPEL
100
AcDbLine
 10
226.2669493814788
 20
446.9083066768312
 30
0.0
 11
281.4990001890476
 21
446.9083066768312
 31
0.0
  0
LINE
  5
111F
102
{ACAD_REACTORS
330
1146
102
}
330
1E
100
AcDbEntity
  8
STEMPEL
100
AcDbLine
 10
291.4990001890477
 20
446.9083066768313
 30
0.0
 11
318.9990001890475
 21
446.9083066768312
 31
0.0
  0
LINE
  5
1132
102
{ACAD_REACTORS
330
1146
102
}
330
1E
100
AcDbEntity
  8
STEMPEL
100
AcDbLine
 10
73.99900018904759
 20
446.9083066768313
 30
0.0
 11
101.4990001890476
 21
446.9083066768313
 31
0.0
  0
LINE
  5
1133
102
{ACAD_REACTORS
330
1146
102
}
330
1E
100
AcDbEntity
  8
STEMPEL
100
AcDbLine
 10
111.4990001890476
 20
446.9083066768313
 30
0.0
 11
166.7310509966164
 21
446.9083066768313
 31
0.0
  0
HATCH
  5
1146
330
1E
100
AcDbEntity
  8
SCHRAFF
100
AcDbHatch
 10
0.0
 20
0.0
 30
0.0
210
0.0
220
0.0
230
1.0
  2
NET
 70
     0
 71
     1
 91
        4
 92
        7
 72
     0
 73
     1
 93
        4
 10
318.9990001890476
 20
443.9083066768311
 10
318.9990001890475
 20
446.9083066768312
 10
292.9990001890476
 20
446.9083066768313
 10
292.9990001890476
 20
443.9083066768311
 97
        4
330
111F
330
ED5
330
E55
330
F55
 92
        7
 72
     0
 73
     1
 93
        4
 10
279.9990001890476
 20
443.9083066768311
 10
279.9990001890476
 20
446.9083066768312
 10
258.9990001890476
 20
446.9083066768312
 10
258.9990001890476
 20
443.9083066768311
 97
        4
330
111E
330
F47
330
E55
330
ED6
 92
        7
 72
     0
 73
     1
 93
        4
 10
112.9990001890476
 20
446.9083066768313
 10
112.9990001890476
 20
443.9083066768313
 10
133.9990001890476
 20
443.9083066768313
 10
133.9990001890476
 20
446.9083066768313
 97
        4
330
1133
330
ED7
330
F69
330
F5D
 92
        7
 72
     0
 73
     1
 93
        4
 10
99.9990001890476
 20
443.9083066768313
 10
99.9990001890476
 20
446.9083066768313
 10
73.99900018904762
 20
446.9083066768313
 10
73.99900018904756
 20
443.9083066768313
 97
        4
330
1132
330
F65
330
F69
330
ED8
 75
     0
 76
     1
 52
45.0
 41
15.0
 77
     0
 78
     2
 53
45.0
 43
-15.89338422124956
 44
12.10909197354999
 45
-1.325825214724776
 46
1.325825214724776
 79
     0
 53
135.0
 43
-15.89338422124956
 44
12.10909197354999
 45
-1.325825214724776
 46
-1.325825214724776
 79
     0
 47
0.3122569881655028
 98
        4
 10
295.7842479472792
 20
444.7088191615275
 10
274.5435687344066
 20
445.3333326656811
 10
118.6744597254465
 20
446.2701029219115
 10
92.12361012314067
 20
445.0210759136044
  0
TEXT
  5
1248
330
1E
100
AcDbEntity
  8
TEXT
 62
     1
100
AcDbText
 10
190.1803040030468
 20
364.3327389197803
 30
0.0
 40
7.0
  1
DN50
 50
90.0
 41
0.8
  7
GREEKS
100
AcDbText
  0
DIMENSION
  5
124B
330
1E
100
AcDbEntity
  8
BEM
100
AcDbDimension
  2
*D2
 10
318.9990001890476
 20
484.4465204470696
 30
0.0
 11
196.4990001890475
 21
490.9465204470696
 31
0.0
 70
    32
  1
%%c<>
 71
     5
 42
245.0000000000001
  3
Standard
100
AcDbAlignedDimension
 13
73.99900018904748
 23
439.9689668486106
 33
0.0
 14
318.9990001890476
 24
439.9689668486106
 34
0.0
100
AcDbRotatedDimension
1001
ACAD
1000
DSTYLE
1002
{
1070
    40
1040
2.0
1070
    41
1040
3.5
1070
    42
1040
1.0
1070
    43
1040
7.0
1070
    44
1040
1.0
1070
    47
1040
2.0
1070
    48
1040
2.0
1070
    73
1070
     0
1070
    74
1070
     0
1070
    77
1070
     1
1070
    78
1070
     8
1070
    79
1070
     2
1070
   140
1040
3.5
1070
   141
1040
1.5
1070
   146
1040
0.5
1070
   147
1040
1.5
1070
   172
1070
     1
1070
   178
1070
     1
1070
   179
1070
     2
1070
   279
1070
     0
1002
}
  0
LINE
  5
124C
330
1E
100
AcDbEntity
  8
HILF
100
AcDbLine
 10
220.997090270275
 20
188.9083066768312
 30
0.0
 11
172.0009101078195
 21
188.9083066768312
 31
0.0
  0
DIMENSION
  5
124D
330
1E
100
AcDbEntity
  8
BEM
100
AcDbDimension
  2
*D1
 10
222.9990001890478
 20
164.0731781481522
 30
0.0
 11
196.4990001890478
 21
170.5731781481522
 31
0.0
 70
    32
  1
%%c<>
 71
     5
 42
53.0
  3
Standard
100
AcDbAlignedDimension
 13
169.9990001890478
 23
188.8428152624688
 33
0.0
 14
222.9990001890478
 24
188.8428152624687
 34
0.0
100
AcDbRotatedDimension
1001
ACAD
1000
DSTYLE
1002
{
1070
    40
1040
2.0
1070
    41
1040
3.5
1070
    42
1040
1.0
1070
    43
1040
7.0
1070
    44
1040
1.0
1070
    47
1040
2.0
1070
    48
1040
2.0
1070
    73
1070
     0
1070
    74
1070
     0
1070
    77
1070
     1
1070
    78
1070
     8
1070
    79
1070
     2
1070
   140
1040
3.5
1070
   141
1040
1.5
1070
   146
1040
0.5
1070
   147
1040
1.5
1070
   172
1070
     1
1070
   178
1070
     1
1070
   179
1070
     2
1070
   279
1070
     0
1002
}
  0
HATCH
  5
124E
330
1E
100
AcDbEntity
  8
SCHRAFF
100
AcDbHatch
 10
0.0
 20
0.0
 30
0.0
210
0.0
220
0.0
230
1.0
  2
_USER
 70
     0
 71
     0
 91
        2
 92
        7
 72
     1
 73
     1
 93
       20
 10
222.9990001890474
 20
349.764147002756
 42
-0.1286888967177364
 10
224.0246412146883
 20
353.6831158590723
 42
0.1286888967177385
 10
225.4990001890472
 20
359.3166335900273
 42
0.0
 10
225.4990001890474
 20
422.4083066768313
 42
-0.0851285408962484
 10
226.0990092566266
 20
425.9069034724037
 42
0.0855359070439059
 10
227.4990001890472
 20
434.1099400000449
 42
0.0
 10
227.4990001890472
 20
435.5258053341704
 42
0.1147289187204838
 10
225.5499142771625
 20
443.908306676831
 42
0.0
 10
224.4280199718301
 20
443.908306676831
 42
-0.1217003665640574
 10
226.4990001890471
 20
435.5258053341704
 42
0.0
 10
226.4990001890471
 20
434.1091227308984
 42
-0.0855444844068394
 10
225.1561529773486
 20
426.24010316722
 42
0.0851285408962485
 10
224.4990001890474
 20
422.4083066768312
 42
0.0
 10
224.4990001890473
 20
359.3166335900273
 42
-0.1286888967177392
 10
223.1528463428935
 20
354.1729869661119
 42
0.1286888967177365
 10
221.9990001890474
 20
349.764147002756
 42
0.0
 10
221.9990001890476
 20
188.8864762053863
 42
0.0
 10
221.5634667901891
 20
183.9083066768313
 42
0.0
 10
222.5672866277323
 20
183.9083066768313
 42
0.0
 10
222.9990001890476
 20
188.842815262478
 42
0.0
 97
        0
 92
        7
 72
     1
 73
     1
 93
       20
 10
169.9990001890478
 20
188.8428152624688
 42
0.0
 10
170.4307137503624
 20
183.9083066768312
 42
0.0
 10
171.4345335879057
 20
183.9083066768313
 42
0.0
 10
170.9990001890478
 20
188.8864762053772
 42
0.0
 10
170.9990001890473
 20
349.7641470027557
 42
0.1286888967177411
 10
169.8451540352012
 20
354.1729869661119
 42
-0.1286888967177401
 10
168.4990001890473
 20
359.3166335900272
 42
0.0
 10
168.4990001890473
 20
422.4083066768312
 42
0.0851285408962495
 10
167.8418474007462
 20
426.2401031672199
 42
-0.0847126266276844
 10
166.4990001890475
 20
434.0314906227639
 42
0.0
 10
166.4990001890475
 20
435.5258053341703
 42
-0.1217003665640589
 10
168.5699804062645
 20
443.9083066768311
 42
0.0
 10
167.4480861009322
 20
443.9083066768311
 42
0.1147289187204858
 10
165.4990001890475
 20
435.5258053341702
 42
0.0
 10
165.4990001890475
 20
434.0306733536123
 42
0.0847212027970134
 10
166.898991121468
 20
425.9069034724035
 42
-0.0851285408962485
 10
167.4990001890473
 20
422.4083066768312
 42
0.0
 10
167.4990001890473
 20
359.3166335900272
 42
0.1286888967177405
 10
168.9733591634063
 20
353.6831158590723
 42
-0.1286888967177416
 10
169.9990001890473
 20
349.7641470027557
 42
0.0
 97
        0
 75
     1
 76
     0
 52
45.0
 41
2.0
 77
     0
 78
     1
 53
45.0
 43
-26.43975074286732
 44
-12.22073766833949
 45
-1.414213562373094
 46
1.414213562373095
 79
     0
 47
0.4618509126667901
 98
        2
 10
222.6089016344783
 20
274.4603752250778
 10
170.395553825351
 20
195.4838685795201
1001
GradientColor1ACI
1070
     5
1001
GradientColor2ACI
1070
     2
1001
ACAD
1010
0.0
1020
0.0
1030
0.0
  0
LINE
  5
124F
330
1E
100
AcDbEntity
  8
STEMPEL
100
AcDbLine
 10
222.5672866277323
 20
183.9083066768313
 30
0.0
 11
170.4307137503624
 21
183.9083066768312
 31
0.0
  0
LINE
  5
1250
330
1E
100
AcDbEntity
  8
STEMPEL
100
AcDbLine
 10
80.21651461031979
 20
443.9083066768312
 30
0.0
 11
168.5699804062646
 21
443.9083066768311
 31
0.0
  0
LINE
  5
1252
330
1E
100
AcDbEntity
  8
STEMPEL
100
AcDbLine
 10
169.9990001890488
 20
349.7641470027557
 30
0.0
 11
169.9990001890478
 21
188.8428152624688
 31
0.0
  0
LINE
  5
1253
330
1E
100
AcDbEntity
  8
STEMPEL
100
AcDbLine
 10
169.9990001890478
 20
188.8428152624688
 30
0.0
 11
170.4307137503624
 21
183.9083066768312
 31
0.0
  0
LINE
  5
1256
330
1E
100
AcDbEntity
  8
STEMPEL
100
AcDbLine
 10
80.21651461031934
 20
441.9083066768314
 30
0.0
 11
138.1852916900627
 21
441.908306676831
 31
0.0
  0
LINE
  5
1257
330
1E
100
AcDbEntity
  8
STEMPEL
100
AcDbLine
 10
121.7085972759595
 20
438.5547532862372
 30
0.0
 11
75.41321375142024
 21
438.5547532862372
 31
0.0
  0
LINE
  5
1258
330
1E
100
AcDbEntity
  8
STEMPEL
100
AcDbLine
 10
75.41321375142024
 20
438.5547532862374
 30
0.0
 11
77.74164087616623
 21
440.8831804109836
 31
0.0
  0
ARC
  5
1259
330
1E
100
AcDbEntity
  8
STEMPEL
100
AcDbCircle
 10
80.21651461031934
 20
438.4083066768308
 30
0.0
 40
5.499999999999851
100
AcDbArc
 50
90.0
 51
135.0000000000002
  0
LINE
  5
125A
330
1E
100
AcDbEntity
  8
STEMPEL
100
AcDbLine
 10
73.99900018904713
 20
439.9689668486105
 30
0.0
 11
75.41321375142001
 21
438.5547532862372
 31
0.0
  0
LINE
  5
125B
330
1E
100
AcDbEntity
  8
STEMPEL
100
AcDbLine
 10
73.99900018904713
 20
439.9689668486105
 30
0.0
 11
76.32742731379313
 21
442.2973939733568
 31
0.0
  0
ARC
  5
125C
330
1E
100
AcDbEntity
  8
STEMPEL
100
AcDbCircle
 10
80.21651461031934
 20
438.4083066768308
 30
0.0
 40
3.499999999999851
100
AcDbArc
 50
90.0
 51
135.0000000000002
  0
LINE
  5
1274
330
1E
100
AcDbEntity
  8
STEMPEL
100
AcDbLine
 10
222.9990001890492
 20
349.764147002756
 30
0.0
 11
222.9990001890476
 21
188.842815262478
 31
0.0
  0
LINE
  5
1275
330
1E
100
AcDbEntity
  8
STEMPEL
100
AcDbLine
 10
222.9990001890476
 20
188.842815262478
 30
0.0
 11
222.5672866277323
 21
183.9083066768313
 31
0.0
  0
ARC
  5
1276
330
1E
100
AcDbEntity
  8
STEMPEL
100
AcDbCircle
 10
312.7814857677754
 20
438.4083066768308
 30
0.0
 40
3.499999999999851
100
AcDbArc
 50
44.99999999999979
 51
90.0
  0
ARC
  5
1277
330
1E
100
AcDbEntity
  8
STEMPEL
100
AcDbCircle
 10
312.7814857677754
 20
438.4083066768308
 30
0.0
 40
5.499999999999851
100
AcDbArc
 50
44.99999999999979
 51
90.0
  0
LINE
  5
1278
330
1E
100
AcDbEntity
  8
STEMPEL
100
AcDbLine
 10
271.2894031021356
 20
438.5547532862373
 30
0.0
 11
317.5847866266745
 21
438.5547532862372
 31
0.0
  0
LINE
  5
128B
330
1E
100
AcDbEntity
  8
STEMPEL
100
AcDbLine
 10
312.7814857677754
 20
441.9083066768314
 30
0.0
 11
254.812708688032
 21
441.908306676831
 31
0.0
  0
LINE
  5
1293
330
1E
100
AcDbEntity
  8
STEMPEL
100
AcDbLine
 10
318.9990001890476
 20
439.9689668486105
 30
0.0
 11
317.5847866266747
 21
438.5547532862372
 31
0.0
  0
LINE
  5
1294
330
1E
100
AcDbEntity
  8
STEMPEL
100
AcDbLine
 10
318.9990001890476
 20
439.9689668486105
 30
0.0
 11
316.6705730643016
 21
442.2973939733568
 31
0.0
  0
LINE
  5
1295
330
1E
100
AcDbEntity
  8
STEMPEL
100
AcDbLine
 10
317.5847866266745
 20
438.5547532862374
 30
0.0
 11
315.2563595019285
 21
440.8831804109836
 31
0.0
  0
LINE
  5
129E
330
1E
100
AcDbEntity
  8
STEMPEL
100
AcDbLine
 10
221.9990001890492
 20
349.764147002756
 30
0.0
 11
221.9990001890476
 21
188.8864762053863
 31
0.0
  0
LINE
  5
129F
330
1E
100
AcDbEntity
  8
STEMPEL
100
AcDbLine
 10
170.9990001890489
 20
349.7641470027558
 30
0.0
 11
170.9990001890478
 21
188.8864762053773
 31
0.0
  0
LINE
  5
12A0
330
1E
100
AcDbEntity
  8
STEMPEL
100
AcDbLine
 10
221.9990001890476
 20
188.8864762053863
 30
0.0
 11
221.5634667901891
 21
183.9083066768312
 31
0.0
  0
LINE
  5
12A1
330
1E
100
AcDbEntity
  8
STEMPEL
100
AcDbLine
 10
170.9990001890478
 20
188.8864762053773
 30
0.0
 11
171.4345335879057
 21
183.9083066768312
 31
0.0
  0
ARC
  5
12A5
330
1E
100
AcDbEntity
  8
STEMPEL
100
AcDbCircle
 10
208.4990001890471
 20
435.5258053341704
 30
0.0
 40
18.0
100
AcDbArc
 50
0.0
 51
27.75517939161843
  0
ARC
  5
12A6
330
1E
100
AcDbEntity
  8
STEMPEL
100
AcDbCircle
 10
208.4990001890471
 20
435.5258053341704
 30
0.0
 40
19.0
100
AcDbArc
 50
0.0
 51
26.17946737290628
  0
ARC
  5
12A7
330
1E
100
AcDbEntity
  8
STEMPEL
100
AcDbCircle
 10
202.9990001890471
 20
434.0703066768312
 30
0.0
 40
23.5000320571282
100
AcDbArc
 50
340.536900555311
 51
0.0946380447188703
  0
ARC
  5
12A8
330
1E
100
AcDbEntity
  8
STEMPEL
100
AcDbCircle
 10
202.9990001890471
 20
434.0703066768312
 30
0.0
 40
24.5000320571282
100
AcDbArc
 50
340.536900555311
 51
0.0946380447188703
  0
LINE
  5
12A9
330
1E
100
AcDbEntity
  8
STEMPEL
100
AcDbLine
 10
226.4990001890471
 20
435.5258053341704
 30
0.0
 11
226.4990001890471
 21
434.0314906227589
 31
0.0
  0
LINE
  5
12AA
330
1E
100
AcDbEntity
  8
STEMPEL
100
AcDbLine
 10
227.4990001890472
 20
435.5258053341704
 30
0.0
 11
227.4990001890472
 21
434.0314906227589
 31
0.0
  0
LINE
  5
12AB
330
1E
100
AcDbEntity
  8
STEMPEL
100
AcDbLine
 10
224.4990001890474
 20
422.4083066768312
 30
0.0
 11
224.4990001890474
 21
359.3166335900273
 31
0.0
  0
LINE
  5
12AC
330
1E
100
AcDbEntity
  8
STEMPEL
100
AcDbLine
 10
225.4990001890474
 20
422.4083066768312
 30
0.0
 11
225.4990001890474
 21
359.3166335900273
 31
0.0
  0
ARC
  5
12AD
330
1E
100
AcDbEntity
  8
STEMPEL
100
AcDbCircle
 10
213.9990001890473
 20
359.3166335900273
 30
0.0
 40
10.5
100
AcDbArc
 50
330.6678898323006
 51
0.0
  0
ARC
  5
12AE
330
1E
100
AcDbEntity
  8
STEMPEL
100
AcDbCircle
 10
230.9990001890473
 20
349.7641470027559
 30
0.0
 40
9.0
100
AcDbArc
 50
150.6678898322956
 51
180.0
  0
ARC
  5
12AF
330
1E
100
AcDbEntity
  8
STEMPEL
100
AcDbCircle
 10
230.9990001890473
 20
349.7641470027559
 30
0.0
 40
8.0
100
AcDbArc
 50
150.6678898322956
 51
180.0
  0
ARC
  5
12B0
330
1E
100
AcDbEntity
  8
STEMPEL
100
AcDbCircle
 10
213.9990001890473
 20
359.3166335900273
 30
0.0
 40
11.5
100
AcDbArc
 50
330.6678898323006
 51
0.0
  0
ARC
  5
12B1
330
1E
100
AcDbEntity
  8
STEMPEL
100
AcDbCircle
 10
235.9990001890474
 20
422.4083066768312
 30
0.0
 40
11.5
100
AcDbArc
 50
160.536900555311
 51
180.0
  0
ARC
  5
12B2
330
1E
100
AcDbEntity
  8
STEMPEL
100
AcDbCircle
 10
235.9990001890474
 20
422.4083066768312
 30
0.0
 40
10.5
100
AcDbArc
 50
160.536900555311
 51
180.0
  0
ARC
  5
12B3
330
1E
100
AcDbEntity
  8
STEMPEL
100
AcDbCircle
 10
184.4990001890474
 20
435.5258053341703
 30
0.0
 40
18.0
100
AcDbArc
 50
152.2448206083814
 51
180.0
  0
ARC
  5
12B4
330
1E
100
AcDbEntity
  8
STEMPEL
100
AcDbCircle
 10
184.4990001890474
 20
435.5258053341703
 30
0.0
 40
19.0
100
AcDbArc
 50
153.8205326270937
 51
180.0
  0
ARC
  5
12B5
330
1E
100
AcDbEntity
  8
STEMPEL
100
AcDbCircle
 10
189.9990001890474
 20
434.0703066768311
 30
0.0
 40
23.5000320571282
100
AcDbArc
 50
179.9053619552811
 51
199.4630994446902
  0
ARC
  5
12B6
330
1E
100
AcDbEntity
  8
STEMPEL
100
AcDbCircle
 10
189.9990001890474
 20
434.0703066768311
 30
0.0
 40
24.5000320571282
100
AcDbArc
 50
179.9053619552811
 51
199.4630994446902
  0
LINE
  5
12B7
330
1E
100
AcDbEntity
  8
STEMPEL
100
AcDbLine
 10
166.4990001890475
 20
435.5258053341704
 30
0.0
 11
166.4990001890475
 21
434.0314906227588
 31
0.0
  0
LINE
  5
12B8
330
1E
100
AcDbEntity
  8
STEMPEL
100
AcDbLine
 10
165.4990001890475
 20
435.5258053341704
 30
0.0
 11
165.4990001890475
 21
434.0314906227588
 31
0.0
  0
LINE
  5
12B9
330
1E
100
AcDbEntity
  8
STEMPEL
100
AcDbLine
 10
168.4990001890473
 20
422.4083066768311
 30
0.0
 11
168.4990001890473
 21
359.3166335900273
 31
0.0
  0
LINE
  5
12BA
330
1E
100
AcDbEntity
  8
STEMPEL
100
AcDbLine
 10
167.4990001890473
 20
422.4083066768311
 30
0.0
 11
167.4990001890473
 21
359.3166335900273
 31
0.0
  0
ARC
  5
12BB
330
1E
100
AcDbEntity
  8
STEMPEL
100
AcDbCircle
 10
178.9990001890473
 20
359.3166335900272
 30
0.0
 40
10.5
100
AcDbArc
 50
180.0
 51
209.3321101677042
  0
ARC
  5
12BC
330
1E
100
AcDbEntity
  8
STEMPEL
100
AcDbCircle
 10
161.9990001890473
 20
349.7641470027558
 30
0.0
 40
9.0
100
AcDbArc
 50
0.0
 51
29.33211016770432
  0
ARC
  5
12BD
330
1E
100
AcDbEntity
  8
STEMPEL
100
AcDbCircle
 10
161.9990001890473
 20
349.7641470027558
 30
0.0
 40
8.0
100
AcDbArc
 50
0.0
 51
29.33211016770432
  0
ARC
  5
12BE
330
1E
100
AcDbEntity
  8
STEMPEL
100
AcDbCircle
 10
178.9990001890473
 20
359.3166335900272
 30
0.0
 40
11.5
100
AcDbArc
 50
180.0
 51
209.3321101677042
  0
ARC
  5
12BF
330
1E
100
AcDbEntity
  8
STEMPEL
100
AcDbCircle
 10
156.9990001890474
 20
422.4083066768312
 30
0.0
 40
11.5
100
AcDbArc
 50
0.0
 51
19.46309944469027
  0
ARC
  5
12C0
330
1E
100
AcDbEntity
  8
STEMPEL
100
AcDbCircle
 10
156.9990001890474
 20
422.4083066768312
 30
0.0
 40
10.5
100
AcDbArc
 50
0.0
 51
19.46309944469027
  0
LINE
  5
12C1
330
1E
100
AcDbEntity
  8
HILF
100
AcDbLine
 10
223.6256436357426
 20
424.1831440228412
 30
0.0
 11
169.372356742352
 21
424.1831440228412
 31
0.0
  0
LINE
  5
12C2
330
1E
100
AcDbEntity
  8
HILF
100
AcDbLine
 10
223.0418114719082
 20
356.4050079096618
 30
0.0
 11
169.9561889061865
 21
356.4050079096618
 31
0.0
  0
LINE
  5
12C3
330
1E
100
AcDbEntity
  8
HILF
100
AcDbLine
 10
221.206276569061
 20
351.7896257369232
 30
0.0
 11
171.7917238090335
 21
351.7896257369232
 31
0.0
  0
LINE
  5
1404
330
1E
100
AcDbEntity
  8
STEMPEL
100
AcDbLine
 10
222.9990001890477
 20
442.9083066768313
 30
0.0
 11
224.0569620732985
 21
448.9083066768314
 31
0.0
  0
ARC
  5
1405
330
1E
100
AcDbEntity
  8
STEMPEL
100
AcDbCircle
 10
221.4990001890476
 20
433.9083066768314
 30
0.0
 40
3.0
100
AcDbArc
 50
270.0
 51
348.4630409671885
  0
ARC
  5
1406
330
1E
100
AcDbEntity
  8
STEMPEL
100
AcDbCircle
 10
219.9990001890477
 20
434.9083066768313
 30
0.0
 40
3.0
100
AcDbArc
 50
270.0
 51
0.0
  0
LINE
  5
1407
330
1E
100
AcDbEntity
  8
STEMPEL
100
AcDbLine
 10
168.7517769387802
 20
448.9083066768315
 30
0.0
 11
224.2462234393151
 21
448.9083066768314
 31
0.0
  0
LINE
  5
140A
330
1E
100
AcDbEntity
  8
STEMPEL
100
AcDbLine
 10
169.9990001890476
 20
442.9083066768313
 30
0.0
 11
168.9410383047968
 21
448.9083066768314
 31
0.0
  0
LINE
  5
140C
330
1E
100
AcDbEntity
  8
STEMPEL
100
AcDbLine
 10
169.2629322115479
 20
431.9083066768313
 30
0.0
 11
166.5986313311415
 21
431.9083066768314
 31
0.0
  0
LINE
  5
140F
330
1E
100
AcDbEntity
  8
STEMPEL
100
AcDbLine
 10
169.9990001890476
 20
442.9083066768313
 30
0.0
 11
169.9990001890476
 21
434.9083066768313
 31
0.0
  0
ARC
  5
1410
330
1E
100
AcDbEntity
  8
STEMPEL
100
AcDbCircle
 10
172.9990001890476
 20
434.9083066768313
 30
0.0
 40
3.0
100
AcDbArc
 50
180.0
 51
270.0
  0
LINE
  5
1416
330
1E
100
AcDbEntity
  8
STEMPEL
100
AcDbLine
 10
172.9990001890476
 20
431.9083066768313
 30
0.0
 11
172.9990001890476
 21
430.9083066768315
 31
0.0
  0
POINT
  5
1417
330
1E
100
AcDbEntity
  8
DEFPOINTS
  6
ByBlock
 62
     0
100
AcDbPoint
 10
169.9990001890476
 20
434.9083066768313
 30
0.0
  0
POINT
  5
141B
330
1E
100
AcDbEntity
  8
DEFPOINTS
  6
ByBlock
 62
     0
100
AcDbPoint
 10
169.9990001890476
 20
442.9083066768313
 30
0.0
  0
POINT
  5
141C
330
1E
100
AcDbEntity
  8
DEFPOINTS
  6
ByBlock
 62
     0
100
AcDbPoint
 10
169.9990001890476
 20
442.9083066768313
 30
0.0
  0
LINE
  5
141E
330
1E
100
AcDbEntity
  8
STEMPEL
100
AcDbLine
 10
164.9990001890476
 20
443.9083066768313
 30
0.0
 11
167.4527388331035
 21
448.1583066768314
 31
0.0
  0
ARC
  5
141F
330
1E
100
AcDbEntity
  8
STEMPEL
100
AcDbCircle
 10
168.7517769387802
 20
447.4083066768313
 30
0.0
 40
1.5
100
AcDbArc
 50
90.0
 51
150.0
  0
POINT
  5
1420
330
1E
100
AcDbEntity
  8
DEFPOINTS
  6
ByBlock
 62
     0
100
AcDbPoint
 10
168.9410383047968
 20
448.9083066768314
 30
0.0
  0
LINE
  5
1424
330
1E
100
AcDbEntity
  8
STEMPEL
100
AcDbLine
 10
169.9990001890476
 20
442.9083066768314
 30
0.0
 11
222.9990001890477
 21
442.9083066768313
 31
0.0
  0
LINE
  5
1425
330
1E
100
AcDbEntity
  8
STEMPEL
100
AcDbLine
 10
172.9990001890476
 20
431.9083066768313
 30
0.0
 11
219.9990001890477
 21
431.9083066768313
 31
0.0
  0
LINE
  5
1426
330
1E
100
AcDbEntity
  8
STEMPEL
100
AcDbLine
 10
171.4990001890476
 20
430.9083066768315
 30
0.0
 11
221.4990001890476
 21
430.9083066768315
 31
0.0
  0
LINE
  5
1427
330
1E
100
AcDbEntity
  8
STEMPEL
100
AcDbLine
 10
222.9990001890477
 20
442.9083066768313
 30
0.0
 11
222.9990001890477
 21
434.9083066768313
 31
0.0
  0
LINE
  5
1428
330
1E
100
AcDbEntity
  8
STEMPEL
100
AcDbLine
 10
219.9990001890477
 20
431.9083066768313
 30
0.0
 11
219.9990001890476
 21
430.9083066768315
 31
0.0
  0
POINT
  5
1429
330
1E
100
AcDbEntity
  8
DEFPOINTS
  6
ByBlock
 62
     0
100
AcDbPoint
 10
221.4990001890476
 20
430.9083066768315
 30
0.0
  0
LINE
  5
142D
330
1E
100
AcDbEntity
  8
STEMPEL
100
AcDbLine
 10
223.7350681665474
 20
431.9083066768313
 30
0.0
 11
226.3993690469531
 21
431.9083066768313
 31
0.0
  0
LINE
  5
142F
330
1E
100
AcDbEntity
  8
STEMPEL
100
AcDbLine
 10
225.5593068907776
 20
433.3083066768317
 30
0.0
 11
225.5593068907776
 21
431.9083066768313
 31
0.0
  0
ARC
  5
1436
330
1E
100
AcDbEntity
  8
STEMPEL
100
AcDbCircle
 10
224.2462234393151
 20
447.4083066768313
 30
0.0
 40
1.5
100
AcDbArc
 50
29.99999999999991
 51
90.0
  0
LINE
  5
1437
330
1E
100
AcDbEntity
  8
STEMPEL
100
AcDbLine
 10
227.9990001890476
 20
443.9083066768313
 30
0.0
 11
225.5452615449918
 21
448.1583066768314
 31
0.0
  0
POINT
  5
1439
330
1E
100
AcDbEntity
  8
DEFPOINTS
  6
ByBlock
 62
     0
100
AcDbPoint
 10
224.2462234393151
 20
448.9083066768314
 30
0.0
  0
LINE
  5
143D
330
1E
100
AcDbEntity
  8
STEMPEL
100
AcDbLine
 10
224.4280199718301
 20
443.908306676831
 30
0.0
 11
312.7814857677754
 21
443.908306676831
 31
0.0
  0
ARC
  5
1440
330
1E
100
AcDbEntity
  8
STEMPEL
100
AcDbCircle
 10
224.9988473855826
 20
433.2333066768316
 30
0.0
 40
0.5654554420673107
100
AcDbArc
 50
352.3780308865708
 51
172.378030886565
  0
ARC
  5
1441
330
1E
100
AcDbEntity
  8
STEMPEL
100
AcDbCircle
 10
171.4990001890475
 20
433.9083066768314
 30
0.0
 40
3.0
100
AcDbArc
 50
191.5369590328118
 51
270.0
  0
LINE
  5
1442
330
1E
100
AcDbEntity
  8
STEMPEL
100
AcDbLine
 10
167.4386934873175
 20
433.3083066768317
 30
0.0
 11
167.4386934873175
 21
431.9083066768313
 31
0.0
  0
ARC
  5
1443
330
1E
100
AcDbEntity
  8
STEMPEL
100
AcDbCircle
 10
167.9991529925126
 20
433.2333066768316
 30
0.0
 40
0.5654554420673107
100
AcDbArc
 50
7.621969113435023
 51
187.6219691134293
  0
HATCH
  5
146A
330
1E
100
AcDbEntity
  8
SCHRAFF
100
AcDbHatch
 10
0.0
 20
0.0
 30
0.0
210
0.0
220
0.0
230
1.0
  2
NET
 70
     0
 71
     0
 91
        2
 92
        7
 72
     1
 73
     1
 93
       16
 10
169.9990001890476
 20
442.9083066768313
 42
0.0
 10
168.9410383047968
 20
448.9083066768315
 42
0.0
 10
168.7517769387802
 20
448.9083066768314
 42
0.2679491924311218
 10
167.4527388331036
 20
448.1583066768314
 42
0.0
 10
164.9990001890475
 20
443.9083066768311
 42
0.0
 10
168.5699804062646
 20
443.9083066768311
 42
0.1217003665640594
 10
166.4990001890475
 20
435.5258053341703
 42
0.0
 10
166.4990001890475
 20
434.0314906227639
 42
0.0226234601942595
 10
166.5986313311415
 20
431.9083066768314
 42
0.0
 10
167.4386934873175
 20
431.9083066768314
 42
0.0
 10
167.4386934873175
 20
433.1583066768315
 42
-1.0
 10
168.5596124977077
 20
433.3083066768317
 42
0.356393958692622
 10
171.4990001890475
 20
430.9083066768315
 42
0.0
 10
172.9990001890476
 20
430.9083066768315
 42
0.0
 10
172.9990001890476
 20
431.9083066768313
 42
-0.4142135623730951
 10
169.9990001890476
 20
434.9083066768313
 42
0.0
 97
        0
 92
        7
 72
     1
 73
     1
 93
       16
 10
224.4280199718301
 20
443.908306676831
 42
0.0
 10
227.9990001890478
 20
443.908306676831
 42
0.0
 10
225.5452615449917
 20
448.1583066768314
 42
0.267949192431125
 10
224.2462234393151
 20
448.9083066768314
 42
0.0
 10
224.0569620732985
 20
448.9083066768314
 42
0.0
 10
222.9990001890477
 20
442.9083066768313
 42
0.0
 10
222.9990001890477
 20
434.9083066768313
 42
-0.4142135623730951
 10
219.9990001890477
 20
431.9083066768313
 42
0.0
 10
219.9990001890476
 20
430.9083066768315
 42
0.0
 10
221.4990001890476
 20
430.9083066768315
 42
0.3563939586926589
 10
224.4383878803875
 20
433.3083066768321
 42
-1.0
 10
225.5593068907776
 20
433.1583066768315
 42
0.0
 10
225.5593068907776
 20
431.9083066768313
 42
0.0
 10
226.3993690469531
 20
431.9083066768313
 42
0.0226234601942947
 10
226.4990001890471
 20
434.0314906227672
 42
0.0
 10
226.4990001890471
 20
435.5258053341704
 42
0.1217003665640567
 97
        0
 75
     1
 76
     1
 52
45.0
 41
15.0
 77
     0
 78
     2
 53
45.0
 43
-15.89338422124956
 44
12.10909197354999
 45
-1.325825214724776
 46
1.325825214724776
 79
     0
 53
135.0
 43
-15.89338422124956
 44
12.10909197354999
 45
-1.325825214724776
 46
-1.325825214724776
 79
     0
 47
0.0683735829604685
 98
        2
 10
168.431493280179
 20
439.3796512357421
 10
224.7290380931167
 20
436.1660927121329
1001
GradientColor1ACI
1070
     5
1001
GradientColor2ACI
1070
     2
1001
ACAD
1010
0.0
1020
0.0
1030
0.0
  0
HATCH
  5
15B4
330
1E
100
AcDbEntity
  8
SCHRAFF
100
AcDbHatch
 10
0.0
 20
0.0
 30
0.0
210
0.0
220
0.0
230
1.0
  2
HONEY
 70
     0
 71
     0
 91
        2
 92
        7
 72
     1
 73
     1
 93
       11
 10
271.4990001890477
 20
441.9083066768311
 42
0.0
 10
261.4990001890478
 20
441.9083066768311
 42
0.0
 10
249.9990001890477
 20
431.9083066768309
 42
0.0
 10
249.9990001890475
 20
377.9083066768309
 42
0.0
 10
243.9990001890477
 20
371.9083066768311
 42
0.0
 10
243.9990001890477
 20
305.9083066768292
 42
0.0
 10
238.8074596445453
 20
298.8478115363066
 42
0.0
 10
239.3990001890474
 20
281.9083066768295
 42
0.0
 10
240.9990001890475
 20
281.9083066768295
 42
0.0
 10
258.6806465249448
 20
281.9083066768292
 42
0.3960474615044523
 10
261.6748042603934
 20
284.7211718183636
 42
0.0
 97
        0
 92
        7
 72
     1
 73
     1
 93
       10
 10
142.9990001890476
 20
431.9083066768309
 42
0.0
 10
131.4990001890474
 20
441.9083066768311
 42
0.0
 10
121.4990001890476
 20
441.9083066768311
 42
0.0
 10
131.3231961177018
 20
284.7211718183653
 42
0.396047461504447
 10
134.3173538531504
 20
281.9083066768308
 42
0.0
 10
153.5990001890475
 20
281.9083066768305
 42
0.0
 10
154.1905407335496
 20
298.8478115363074
 42
0.0
 10
148.9990001890479
 20
305.9083066768289
 42
0.0
 10
148.9990001890474
 20
371.9083066768308
 42
0.0
 10
142.9990001890478
 20
377.9083066768303
 42
0.0
 97
        0
 75
     1
 76
     1
 52
0.0
 41
30.0
 77
     0
 78
     3
 53
0.0
 43
-51.87048844752436
 44
-33.93297734345348
 45
5.625
 46
3.247595264191644
 79
     2
 49
3.75
 49
-7.5
 53
120.0
 43
-51.87048844752436
 44
-33.93297734345348
 45
-5.624999999999998
 46
3.247595264191645
 79
     2
 49
3.749999999999996
 49
-7.499999999999993
 53
60.0
 43
-51.87048844752436
 44
-33.93297734345348
 45
0.0000000000000012
 46
6.49519052838329
 79
     2
 49
-7.5
 49
3.75
 47
0.4284511753888297
 98
        2
 10
261.5207363848106
 20
418.0697228493691
 10
133.7830985540938
 20
378.2237636808669
1001
GradientColor1ACI
1070
     5
1001
GradientColor2ACI
1070
     2
1001
ACAD
1010
0.0
1020
0.0
1030
0.0
  0
ARC
  5
15B5
330
1E
100
AcDbEntity
  8
STEMPEL
100
AcDbCircle
 10
134.3173538531504
 20
284.9083066768308
 30
0.0
 40
3.0
100
AcDbArc
 50
183.5763343749981
 51
270.0
  0
ARC
  5
15B6
330
1E
100
AcDbEntity
  8
STEMPEL
100
AcDbCircle
 10
258.6806465249448
 20
284.9083066768292
 30
0.0
 40
3.0
100
AcDbArc
 50
270.0
 51
356.4236656250018
  0
LINE
  5
15B7
330
1E
100
AcDbEntity
  8
STEMPEL
100
AcDbLine
 10
148.9990001890474
 20
371.9083066768308
 30
0.0
 11
142.9990001890476
 21
377.9083066768306
 31
0.0
  0
LINE
  5
15B8
330
1E
100
AcDbEntity
  8
STEMPEL
100
AcDbLine
 10
148.9990001890474
 20
371.9083066768308
 30
0.0
 11
148.9990001890479
 21
305.9083066768289
 31
0.0
  0
LINE
  5
15B9
330
1E
100
AcDbEntity
  8
STEMPEL
100
AcDbLine
 10
154.8813531302245
 20
297.9083066768296
 30
0.0
 11
148.9990001890479
 21
305.9083066768289
 31
0.0
  0
LINE
  5
15BA
330
1E
100
AcDbEntity
  8
STEMPEL
100
AcDbLine
 10
243.9990001890477
 20
371.9083066768311
 30
0.0
 11
249.9990001890475
 21
377.9083066768309
 31
0.0
  0
LINE
  5
15BB
330
1E
100
AcDbEntity
  8
STEMPEL
100
AcDbLine
 10
243.9990001890477
 20
371.9083066768311
 30
0.0
 11
225.4990001890473
 21
371.9083066768308
 31
0.0
  0
LINE
  5
15BC
330
1E
100
AcDbEntity
  8
STEMPEL
100
AcDbLine
 10
243.9990001890477
 20
305.9083066768292
 30
0.0
 11
222.9990001890488
 21
305.9083066768296
 31
0.0
  0
LINE
  5
15BD
330
1E
100
AcDbEntity
  8
STEMPEL
100
AcDbLine
 10
238.8074596445453
 20
298.8478115363066
 30
0.0
 11
243.9990001890477
 21
305.9083066768292
 31
0.0
  0
LINE
  5
15BE
330
1E
100
AcDbEntity
  8
STEMPEL
100
AcDbLine
 10
243.9990001890477
 20
371.9083066768311
 30
0.0
 11
243.9990001890477
 21
305.9083066768292
 31
0.0
  0
LINE
  5
15BF
330
1E
100
AcDbEntity
  8
STEMPEL
100
AcDbLine
 10
258.6806465249448
 20
281.9083066768292
 30
0.0
 11
239.3990001890474
 21
281.9083066768294
 31
0.0
  0
DIMENSION
  5
15C0
330
1E
100
AcDbEntity
  8
BEM
100
AcDbDimension
  2
*D3
 10
261.4965448235693
 20
263.9630852914469
 30
0.0
 11
196.4990001890475
 21
270.4630852914469
 31
0.0
 70
    32
  1
%%c<>
 71
     5
 42
129.9950892690433
  3
Standard
100
AcDbAlignedDimension
 13
131.5014555545259
 23
281.9083066768308
 33
0.0
 14
261.4965448235693
 24
281.908306676829
 34
0.0
100
AcDbRotatedDimension
1001
ACAD
1000
DSTYLE
1002
{
1070
    40
1040
2.0
1070
    41
1040
3.5
1070
    42
1040
1.0
1070
    43
1040
7.0
1070
    44
1040
1.0
1070
    73
1070
     0
1070
    74
1070
     0
1070
    77
1070
     1
1070
    78
1070
     8
1070
    79
1070
     2
1070
   140
1040
3.5
1070
   141
1040
1.5
1070
   146
1040
0.5
1070
   147
1040
1.5
1070
   172
1070
     1
1070
   178
1070
     1
1070
   179
1070
     2
1070
   271
1070
     2
1070
   272
1070
     2
1070
   284
1070
     8
1070
   285
1070
     8
1070
   286
1070
     8
1070
   340
1005
24
1002
}
  0
LINE
  5
15C1
330
1E
100
AcDbEntity
  8
STEMPEL
100
AcDbLine
 10
249.9990001890479
 20
431.9083066768309
 30
0.0
 11
241.9280684450436
 21
431.9083066768309
 31
0.0
  0
LINE
  5
15C2
330
1E
100
AcDbEntity
  8
STEMPEL
100
AcDbLine
 10
249.9990001890473
 20
377.9083066768309
 30
0.0
 11
225.4990001890474
 21
377.9083066768308
 31
0.0
  0
DIMENSION
  5
15C3
330
1E
100
AcDbEntity
  8
BEM
100
AcDbDimension
  2
*D4
 10
65.35721673070961
 20
281.9083066768308
 30
0.0
 11
58.85721673070957
 21
361.9083066768311
 31
0.0
 70
    32
 71
     5
 42
160.0000000000006
  3
Standard
100
AcDbAlignedDimension
 13
80.21651461031941
 23
441.9083066768314
 33
0.0
 14
131.5014555545259
 24
281.9083066768308
 34
0.0
 50
90.0
100
AcDbRotatedDimension
1001
ACAD
1000
DSTYLE
1002
{
1070
    40
1040
2.0
1070
    41
1040
3.5
1070
    42
1040
1.0
1070
    43
1040
7.0
1070
    44
1040
1.0
1070
    73
1070
     0
1070
    74
1070
     0
1070
    77
1070
     1
1070
    78
1070
     8
1070
    79
1070
     2
1070
   140
1040
3.5
1070
   141
1040
1.5
1070
   146
1040
0.5
1070
   147
1040
1.5
1070
   172
1070
     1
1070
   178
1070
     1
1070
   179
1070
     2
1070
   271
1070
     2
1070
   272
1070
     2
1070
   284
1070
     8
1070
   285
1070
     8
1070
   286
1070
     8
1070
   340
1005
24
1002
}
  0
LINE
  5
15C4
330
1E
100
AcDbEntity
  8
STEMPEL
100
AcDbLine
 10
131.4990001890476
 20
441.9083066768308
 30
0.0
 11
142.9990001890476
 21
431.9083066768309
 31
0.0
  0
LINE
  5
15C5
330
1E
100
AcDbEntity
  8
STEMPEL
100
AcDbLine
 10
271.4990001890477
 20
441.9083066768307
 30
0.0
 11
261.6748042603934
 21
284.7211718183636
 31
0.0
  0
LINE
  5
15C6
330
1E
100
AcDbEntity
  8
STEMPEL
100
AcDbLine
 10
261.4990001890477
 20
441.9083066768308
 30
0.0
 11
249.9990001890477
 21
431.9083066768309
 31
0.0
  0
LINE
  5
15C7
330
1E
100
AcDbEntity
  8
STEMPEL
100
AcDbLine
 10
249.9990001890475
 20
377.9083066768306
 30
0.0
 11
249.9990001890477
 21
431.9083066768309
 31
0.0
  0
TEXT
  5
15C8
330
1E
100
AcDbEntity
  8
TEXT
 62
     1
100
AcDbText
 10
290.9429592544766
 20
310.2658761670081
 30
0.0
 40
7.0
  1
EDV-Art.Nr. 19842.070X
 41
0.8
  7
GREEKS
100
AcDbText
  0
LINE
  5
15C9
330
1E
100
AcDbEntity
  8
TEXT
 62
     2
100
AcDbLine
 10
396.1667227574695
 20
319.7008800417938
 30
0.0
 11
290.0428281497916
 21
319.7008800417935
 31
0.0
  0
LINE
  5
15CA
330
1E
100
AcDbEntity
  8
TEXT
 62
     2
100
AcDbLine
 10
290.0428281497916
 20
319.7008800417935
 30
0.0
 11
250.3204718300119
 21
343.3405695792768
 31
0.0
  0
TEXT
  5
15CB
330
1E
100
AcDbEntity
  8
TEXT
 62
     1
100
AcDbText
 10
291.1235145486287
 20
323.3136483139873
 30
0.0
 40
7.0
  1
Wärmedämmung
 41
0.8
  7
GREEKS
100
AcDbText
  0
LINE
  5
15CC
330
1E
100
AcDbEntity
  8
STEMPEL
100
AcDbLine
 10
151.0699319330515
 20
431.9083066768309
 30
0.0
 11
142.9990001890476
 21
431.9083066768309
 31
0.0
  0
LINE
  5
15CD
330
1E
100
AcDbEntity
  8
STEMPEL
100
AcDbLine
 10
167.4990001890473
 20
377.9083066768308
 30
0.0
 11
142.9990001890478
 21
377.9083066768306
 31
0.0
  0
LINE
  5
15CE
330
1E
100
AcDbEntity
  8
STEMPEL
100
AcDbLine
 10
167.4990001890473
 20
371.9083066768309
 30
0.0
 11
148.9990001890474
 21
371.908306676831
 31
0.0
  0
LINE
  5
15CF
330
1E
100
AcDbEntity
  8
STEMPEL
100
AcDbLine
 10
153.5990001890475
 20
281.9083066768305
 30
0.0
 11
134.3173538531504
 21
281.9083066768308
 31
0.0
  0
LINE
  5
15D0
330
1E
100
AcDbEntity
  8
STEMPEL
100
AcDbLine
 10
170.0669272382165
 20
305.9083066768303
 30
0.0
 11
148.9990001890479
 21
305.9083066768307
 31
0.0
  0
LINE
  5
15D1
330
1E
100
AcDbEntity
  8
STEMPEL
100
AcDbLine
 10
151.9990001890475
 20
281.9083066768295
 30
0.0
 11
151.9990001890475
 21
279.9083066768295
 31
0.0
  0
LINE
  5
15D2
330
1E
100
AcDbEntity
  8
STEMPEL
100
AcDbLine
 10
151.9990001890475
 20
279.9083066768295
 30
0.0
 11
169.9990001890485
 21
279.9083066768295
 31
0.0
  0
LINE
  5
15D3
330
1E
100
AcDbEntity
  8
STEMPEL
100
AcDbLine
 10
222.9990001890485
 20
279.9083066768295
 30
0.0
 11
240.9990001890475
 21
279.9083066768295
 31
0.0
  0
LINE
  5
15D4
330
1E
100
AcDbEntity
  8
STEMPEL
100
AcDbLine
 10
154.1577325009154
 20
297.9083066768295
 30
0.0
 11
169.9990001890486
 21
297.9083066768295
 31
0.0
  0
LINE
  5
15D5
330
1E
100
AcDbEntity
  8
STEMPEL
100
AcDbLine
 10
222.9990001890488
 20
297.9083066768294
 30
0.0
 11
238.8402678771794
 21
297.9083066768294
 31
0.0
  0
LINE
  5
15D6
330
1E
100
AcDbEntity
  8
STEMPEL
100
AcDbLine
 10
151.9990001890475
 20
281.9083066768295
 30
0.0
 11
153.5990001890475
 21
281.9083066768295
 31
0.0
  0
LINE
  5
15D7
330
1E
100
AcDbEntity
  8
STEMPEL
100
AcDbLine
 10
153.5990001890475
 20
281.9083066768305
 30
0.0
 11
154.1905407335496
 21
298.8478115363073
 31
0.0
  0
LINE
  5
15D8
330
1E
100
AcDbEntity
  8
STEMPEL
100
AcDbLine
 10
165.9990001890474
 20
287.9083066768295
 30
0.0
 11
169.9990001890485
 21
287.9083066768295
 31
0.0
  0
LINE
  5
15D9
330
1E
100
AcDbEntity
  8
STEMPEL
100
AcDbLine
 10
222.9990001890486
 20
287.9083066768295
 30
0.0
 11
226.9990001890475
 21
287.9083066768295
 31
0.0
  0
LINE
  5
15DA
330
1E
100
AcDbEntity
  8
STEMPEL
100
AcDbLine
 10
169.9990001890474
 20
297.9083066768295
 30
0.0
 11
169.9990001890474
 21
287.9083066768295
 31
0.0
  0
LINE
  5
15DB
330
1E
100
AcDbEntity
  8
STEMPEL
100
AcDbLine
 10
165.9990001890474
 20
287.9083066768295
 30
0.0
 11
162.5348985739097
 21
281.9083066768295
 31
0.0
  0
LINE
  5
15DC
330
1E
100
AcDbEntity
  8
STEMPEL
100
AcDbLine
 10
157.9990001890475
 20
281.9083066768295
 30
0.0
 11
157.9990001890475
 21
279.9083066768295
 31
0.0
  0
LINE
  5
15DD
330
1E
100
AcDbEntity
  8
STEMPEL
100
AcDbLine
 10
157.9990001890475
 20
281.9083066768295
 30
0.0
 11
169.9990001890484
 21
281.9083066768295
 31
0.0
  0
LINE
  5
15DE
330
1E
100
AcDbEntity
  8
STEMPEL
100
AcDbLine
 10
222.9990001890486
 20
281.9083066768295
 30
0.0
 11
234.9990001890475
 21
281.9083066768295
 31
0.0
  0
ARC
  5
15DF
330
1E
100
AcDbEntity
  8
STEMPEL
100
AcDbCircle
 10
161.9990001890475
 20
293.9083066768295
 30
0.0
 40
3.0
100
AcDbArc
 50
180.0000000000065
 51
0.0
  0
LINE
  5
15E0
330
1E
100
AcDbEntity
  8
STEMPEL
100
AcDbLine
 10
158.9990001890475
 20
293.9083066768295
 30
0.0
 11
158.9990001890475
 21
297.9083066768295
 31
0.0
  0
LINE
  5
15E1
330
1E
100
AcDbEntity
  8
STEMPEL
100
AcDbLine
 10
164.9990001890474
 20
293.9083066768295
 30
0.0
 11
164.9990001890474
 21
297.9083066768295
 31
0.0
  0
LINE
  5
15E2
330
1E
100
AcDbEntity
  8
STEMPEL
100
AcDbLine
 10
222.9990001890475
 20
297.9083066768295
 30
0.0
 11
222.9990001890475
 21
287.9083066768295
 31
0.0
  0
LINE
  5
15E3
330
1E
100
AcDbEntity
  8
STEMPEL
100
AcDbLine
 10
239.3990001890474
 20
281.9083066768294
 30
0.0
 11
238.8074596445453
 21
298.8478115363065
 31
0.0
  0
ARC
  5
15E4
330
1E
100
AcDbEntity
  8
STEMPEL
100
AcDbCircle
 10
230.9990001890475
 20
293.9083066768295
 30
0.0
 40
3.0
100
AcDbArc
 50
180.0000000000065
 51
0.0
  0
LINE
  5
15E5
330
1E
100
AcDbEntity
  8
STEMPEL
100
AcDbLine
 10
233.9990001890475
 20
293.9083066768295
 30
0.0
 11
233.9990001890475
 21
297.9083066768295
 31
0.0
  0
LINE
  5
15E6
330
1E
100
AcDbEntity
  8
STEMPEL
100
AcDbLine
 10
227.9990001890475
 20
293.9083066768295
 30
0.0
 11
227.9990001890475
 21
297.9083066768295
 31
0.0
  0
LINE
  5
15E7
330
1E
100
AcDbEntity
  8
STEMPEL
100
AcDbLine
 10
240.9990001890475
 20
281.9083066768295
 30
0.0
 11
239.3990001890474
 21
281.9083066768295
 31
0.0
  0
LINE
  5
15E8
330
1E
100
AcDbEntity
  8
STEMPEL
100
AcDbLine
 10
240.9990001890475
 20
281.9083066768295
 30
0.0
 11
240.9990001890475
 21
279.9083066768295
 31
0.0
  0
LINE
  5
15E9
330
1E
100
AcDbEntity
  8
STEMPEL
100
AcDbLine
 10
226.9990001890475
 20
287.9083066768295
 30
0.0
 11
230.4631018041852
 21
281.9083066768295
 31
0.0
  0
LINE
  5
15EA
330
1E
100
AcDbEntity
  8
STEMPEL
100
AcDbLine
 10
234.9990001890475
 20
281.9083066768295
 30
0.0
 11
234.9990001890475
 21
279.9083066768295
 31
0.0
  0
POINT
  5
15EB
330
1E
100
AcDbEntity
  8
STEMPEL
100
AcDbPoint
 10
165.9990001890474
 20
287.9083066768295
 30
0.0
  0
POINT
  5
15EC
330
1E
100
AcDbEntity
  8
STEMPEL
100
AcDbPoint
 10
226.9990001890475
 20
287.9083066768295
 30
0.0
  0
POINT
  5
15ED
330
1E
100
AcDbEntity
  8
STEMPEL
100
AcDbPoint
 10
228.9990001890475
 20
284.4442050616917
 30
0.0
  0
POINT
  5
15EE
330
1E
100
AcDbEntity
  8
STEMPEL
100
AcDbPoint
 10
238.8402678771795
 20
297.9083066768295
 30
0.0
  0
POINT
  5
15EF
330
1E
100
AcDbEntity
  8
STEMPEL
100
AcDbPoint
 10
230.9990001890475
 20
290.9083066768295
 30
0.0
  0
POINT
  5
15F0
330
1E
100
AcDbEntity
  8
STEMPEL
100
AcDbPoint
 10
240.9990001890475
 20
279.9083066768295
 30
0.0
  0
POINT
  5
15F1
330
1E
100
AcDbEntity
  8
STEMPEL
100
AcDbPoint
 10
226.9990001890475
 20
287.9083066768295
 30
0.0
  0
POINT
  5
15F2
330
1E
100
AcDbEntity
  8
STEMPEL
100
AcDbPoint
 10
157.9990001890475
 20
279.9083066768295
 30
0.0
  0
POINT
  5
15F3
330
1E
100
AcDbEntity
  8
STEMPEL
100
AcDbPoint
 10
234.9990001890475
 20
279.9083066768295
 30
0.0
  0
POINT
  5
15F4
330
1E
100
AcDbEntity
  8
STEMPEL
100
AcDbPoint
 10
151.9990001890475
 20
279.9083066768295
 30
0.0
  0
POINT
  5
15F5
330
1E
100
AcDbEntity
  8
STEMPEL
100
AcDbPoint
 10
240.9990001890475
 20
279.9083066768295
 30
0.0
  0
POINT
  5
15F6
330
1E
100
AcDbEntity
  8
STEMPEL
100
AcDbPoint
 10
153.5990001890474
 20
281.9083066768295
 30
0.0
  0
POINT
  5
15F7
330
1E
100
AcDbEntity
  8
STEMPEL
100
AcDbPoint
 10
239.3990001890474
 20
281.9083066768295
 30
0.0
  0
POINT
  5
15F8
330
1E
100
AcDbEntity
  8
STEMPEL
100
AcDbPoint
 10
161.9990001890475
 20
297.9083066768295
 30
0.0
  0
POINT
  5
15F9
330
1E
100
AcDbEntity
  8
STEMPEL
100
AcDbPoint
 10
233.9990001890475
 20
297.9083066768295
 30
0.0
  0
POINT
  5
15FA
330
1E
100
AcDbEntity
  8
STEMPEL
100
AcDbPoint
 10
227.9990001890475
 20
297.9083066768295
 30
0.0
  0
POINT
  5
15FB
330
1E
100
AcDbEntity
  8
STEMPEL
100
AcDbPoint
 10
153.5990001890474
 20
281.9083066768295
 30
0.0
  0
POINT
  5
15FC
330
1E
100
AcDbEntity
  8
STEMPEL
100
AcDbPoint
 10
153.5990001890474
 20
281.9083066768295
 30
0.0
  0
POINT
  5
15FD
330
1E
100
AcDbEntity
  8
STEMPEL
100
AcDbPoint
 10
154.1577325009154
 20
297.9083066768295
 30
0.0
  0
HATCH
  5
15FE
330
1E
100
AcDbEntity
  8
SCHRAFF
100
AcDbHatch
 10
0.0
 20
0.0
 30
0.0
210
0.0
220
0.0
230
1.0
  2
NET
 70
     0
 71
     0
 91
        2
 92
        7
 72
     1
 73
     1
 93
       14
 10
234.9990001890475
 20
281.9083066768295
 42
0.0
 10
234.9990001890475
 20
279.9083066768295
 42
0.0
 10
240.9990001890475
 20
279.9083066768295
 42
0.0
 10
240.9990001890475
 20
281.9083066768295
 42
0.0
 10
239.3990001890474
 20
281.9083066768295
 42
0.0
 10
238.8402678771795
 20
297.9083066768294
 42
0.0
 10
233.9990001890475
 20
297.9083066768294
 42
0.0
 10
233.9990001890475
 20
293.9083066768295
 42
-1.0
 10
227.9990001890475
 20
293.9083066768294
 42
0.0
 10
227.9990001890475
 20
297.9083066768294
 42
0.0
 10
222.9990001890475
 20
297.9083066768294
 42
0.0
 10
222.9990001890475
 20
287.9083066768295
 42
0.0
 10
226.9990001890475
 20
287.9083066768295
 42
0.0
 10
230.4631018041852
 20
281.9083066768295
 42
0.0
 97
        0
 92
        7
 72
     1
 73
     1
 93
       14
 10
153.5990001890475
 20
281.9083066768295
 42
0.0
 10
151.9990001890474
 20
281.9083066768295
 42
0.0
 10
151.9990001890475
 20
279.9083066768295
 42
0.0
 10
157.9990001890475
 20
279.9083066768295
 42
0.0
 10
157.9990001890475
 20
281.9083066768295
 42
0.0
 10
162.5348985739097
 20
281.9083066768295
 42
0.0
 10
165.9990001890474
 20
287.9083066768295
 42
0.0
 10
169.9990001890474
 20
287.9083066768295
 42
0.0
 10
169.9990001890475
 20
297.9083066768295
 42
0.0
 10
164.9990001890474
 20
297.9083066768295
 42
0.0
 10
164.9990001890474
 20
293.9083066768295
 42
-1.0
 10
158.9990001890475
 20
293.9083066768294
 42
0.0
 10
158.9990001890475
 20
297.9083066768295
 42
0.0
 10
154.1577325009154
 20
297.9083066768295
 42
0.0
 97
        0
 75
     0
 76
     1
 52
45.0
 41
20.0
 77
     0
 78
     2
 53
45.0
 43
-109.2595468087819
 44
87.57547406508265
 45
-1.767766952966368
 46
1.767766952966368
 79
     0
 53
135.0
 43
-109.2595468087819
 44
87.57547406508265
 45
-1.767766952966368
 46
-1.767766952966368
 79
     0
 47
0.6454066402587449
 98
        2
 10
234.1244344362257
 20
286.1927228505699
 10
157.8937490098248
 20
288.1289420851528
  0
LINE
  5
15FF
330
1E
100
AcDbEntity
  8
STEMPEL
100
AcDbLine
 10
238.8074596445453
 20
298.8478115363065
 30
0.0
 11
222.9990001890488
 21
298.8478115363065
 31
0.0
  0
LINE
  5
1600
330
1E
100
AcDbEntity
  8
STEMPEL
100
AcDbLine
 10
169.9990001890486
 20
298.8478115363066
 30
0.0
 11
154.1905407335502
 21
298.8478115363066
 31
0.0
  0
TEXT
  5
1601
330
1E
100
AcDbEntity
  8
TEXT
 62
     1
100
AcDbText
 10
290.9429592544766
 20
260.2340724165102
 30
0.0
 40
7.0
  1
EDV-Art.Nr. 17208.050X
 41
0.8
  7
GREEKS
100
AcDbText
  0
LINE
  5
1602
330
1E
100
AcDbEntity
  8
TEXT
 62
     2
100
AcDbLine
 10
396.1667227574695
 20
269.6690762912959
 30
0.0
 11
290.0428281497916
 21
269.6690762912957
 31
0.0
  0
LINE
  5
1603
330
1E
100
AcDbEntity
  8
TEXT
 62
     2
100
AcDbLine
 10
290.0428281497916
 20
269.6690762912957
 30
0.0
 11
233.9183195262951
 21
287.6650176331669
 31
0.0
  0
TEXT
  5
1604
330
1E
100
AcDbEntity
  8
TEXT
 62
     1
100
AcDbText
 10
291.1235145486287
 20
273.2818445634895
 30
0.0
 40
7.0
  1
Zentrierring DN50
 41
0.8
  7
GREEKS
100
AcDbText
  0
DIMENSION
  5
1605
330
1E
100
AcDbEntity
  8
BEM
100
AcDbDimension
  2
*D5
 10
50.06279497065441
 20
443.908306676831
 30
0.0
 11
43.56279497065433
 21
313.9083066768312
 31
0.0
 70
    32
 71
     5
 42
259.9999999999998
  3
Standard
100
AcDbAlignedDimension
 13
170.4307137503623
 23
183.9083066768313
 33
0.0
 14
73.9990001890473
 24
443.908306676831
 34
0.0
 50
90.0
100
AcDbRotatedDimension
1001
ACAD
1000
DSTYLE
1002
{
1070
    40
1040
2.0
1070
    41
1040
3.5
1070
    42
1040
1.0
1070
    43
1040
7.0
1070
    44
1040
1.0
1070
    73
1070
     0
1070
    74
1070
     0
1070
    77
1070
     1
1070
    78
1070
     8
1070
    79
1070
     2
1070
   140
1040
3.5
1070
   141
1040
1.5
1070
   146
1040
0.5
1070
   147
1040
1.5
1070
   172
1070
     1
1070
   178
1070
     1
1070
   179
1070
     2
1070
   271
1070
     2
1070
   272
1070
     2
1070
   284
1070
     8
1070
   285
1070
     8
1070
   286
1070
     8
1002
}
  0
LINE
  5
1645
330
1E
100
AcDbEntity
  8
STEMPEL
100
AcDbLine
 10
121.4990001890474
 20
441.9083066768308
 30
0.0
 11
131.3231961177015
 21
284.7211718183636
 31
0.0
  0
LINE
  5
1646
330
1E
100
AcDbEntity
  8
STEMPEL
100
AcDbLine
 10
142.9990001890476
 20
377.9083066768307
 30
0.0
 11
142.9990001890474
 21
431.9083066768309
 31
0.0
  0
LINE
  5
1674
330
1E
100
AcDbEntity
  8
MITTEL
100
AcDbLine
 10
196.4990001890475
 20
260.9626572469172
 30
0.0
 11
196.4990001890475
 21
178.9083066768314
 31
0.0
  0
TEXT
  5
1675
330
1E
100
AcDbEntity
  8
TEXT
100
AcDbText
 10
235.1296391125315
 20
71.64011943042158
 30
0.0
 40
5.0
  1
mit Wärmedämmung
 41
0.8
  7
GREEKS
100
AcDbText
  0
HATCH
  5
16CB
330
1E
100
AcDbEntity
  8
SCHRAFF
100
AcDbHatch
 10
0.0
 20
0.0
 30
0.0
210
0.0
220
0.0
230
1.0
  2
ANSI31
 70
     0
 71
     1
 91
        4
 92
        7
 72
     1
 73
     1
 93
        4
 10
167.4990001890475
 20
417.9354763450257
 42
0.0
 10
165.5705540342028
 20
417.9354763450257
 42
0.0
 10
163.5380486090688
 20
419.8940029003531
 42
0.4557916655486203
 10
167.4990001890475
 20
415.336452381508
 42
0.0
 97
        3
330
16D8
330
16D4
330
16DC
 92
       23
 72
     0
 73
     1
 93
        4
 10
167.4990001890475
 20
419.3364523815079
 10
166.9990001890475
 20
419.336452381508
 10
165.5705540342028
 20
417.9354763450257
 10
167.4990001890475
 20
417.9354763450257
 97
        2
330
16DA
330
16D2
 92
       23
 72
     0
 73
     1
 93
        4
 10
225.9990001890475
 20
419.336452381508
 10
225.4990001890475
 20
419.336452381508
 10
225.4990001890475
 20
417.9354763450257
 10
227.4274463438922
 20
417.9354763450259
 97
        3
330
16D9
330
16D7
330
16CD
 92
        7
 72
     1
 73
     1
 93
        4
 10
229.4599517690262
 20
419.8940029003531
 42
0.0
 10
227.4274463438922
 20
417.9354763450259
 42
0.0
 10
225.4990001890475
 20
417.9354763450257
 42
0.0
 10
225.4990001890475
 20
415.336452381508
 42
0.4557916655486214
 97
        2
330
16CF
330
16DB
 75
     1
 76
     1
 52
0.0
 41
0.1
 77
     0
 78
     1
 53
45.0
 43
-26.4397507428672
 44
-12.22073766833946
 45
-0.0088388347648318
 46
0.0088388347648318
 79
     0
 47
0.0649668680939897
 98
        4
 10
164.9527046858665
 20
417.5576097832207
 10
166.7726196362395
 20
418.3372124494042
 10
226.4398516889559
 20
418.5321134640795
 10
227.0898235128606
 20
417.4276767017826
1001
GradientColor1ACI
1070
     5
1001
GradientColor2ACI
1070
     2
1001
ACAD
1010
0.0
1020
0.0
1030
0.0
  0
HATCH
  5
16CC
330
1E
100
AcDbEntity
  8
SCHRAFF
100
AcDbHatch
 10
0.0
 20
0.0
 30
0.0
210
0.0
220
0.0
230
1.0
  2
_USER
 70
     0
 71
     0
 91
        4
 92
        7
 72
     1
 73
     1
 93
        8
 10
106.4990001890476
 20
443.9083066768311
 42
0.0
 10
80.21651461031941
 20
443.9083066768305
 42
0.1989123673796708
 10
76.32742731379334
 20
442.2973939733564
 42
0.0
 10
73.99900018904728
 20
439.9689668486104
 42
0.0
 10
75.41321375142016
 20
438.5547532862373
 42
0.0
 10
77.74164087616664
 20
440.8831804109835
 42
-0.19891236737966
 10
80.21651461031947
 20
441.9083066768305
 42
0.0
 10
106.4990001890476
 20
441.9083066768306
 42
0.0
 97
        0
 92
        7
 72
     1
 73
     1
 93
        8
 10
138.2718184749468
 20
443.9083066768309
 42
0.0
 10
106.4990001890476
 20
443.908306676831
 42
0.0
 10
106.4990001890476
 20
441.9083066768311
 42
0.0
 10
138.2718184749469
 20
441.9083066768308
 42
-0.1940998989257024
 10
142.4351012267936
 20
440.2288479309071
 42
0.0
 10
165.5705540342028
 20
417.9354763450257
 42
0.0
 10
166.9990001890474
 20
419.336452381508
 42
0.0
 10
143.8228621440759
 20
441.6690283489325
 42
0.1940998989257044
 97
        0
 92
        7
 72
     1
 73
     1
 93
        8
 10
286.4990001890476
 20
443.908306676831
 42
0.0
 10
254.7261819031481
 20
443.908306676831
 42
0.1940998989257052
 10
249.1751382340191
 20
441.6690283489327
 42
0.0
 10
225.9990001890475
 20
419.336452381508
 42
0.0
 10
227.4274463438922
 20
417.9354763450259
 42
0.0
 10
250.5628991513013
 20
440.2288479309072
 42
-0.1940998989257033
 10
254.726181903148
 20
441.9083066768309
 42
0.0
 10
286.4990001890476
 20
441.9083066768312
 42
0.0
 97
        0
 92
        7
 72
     1
 73
     1
 93
        8
 10
312.7814857677755
 20
443.9083066768305
 42
0.0
 10
286.4990001890476
 20
443.9083066768305
 42
0.0
 10
286.4990001890476
 20
441.9083066768312
 42
0.0
 10
312.7814857677755
 20
441.9083066768305
 42
-0.1989123673796592
 10
315.2563595019284
 20
440.8831804109833
 42
0.0
 10
317.5847866266748
 20
438.5547532862373
 42
0.0
 10
318.9990001890477
 20
439.9689668486104
 42
0.0
 10
316.6705730643016
 20
442.2973939733564
 42
0.1989123673796707
 97
        0
 75
     1
 76
     0
 52
45.0
 41
2.0
 77
     0
 78
     1
 53
45.0
 43
-27.8221862470077
 44
165.7467237980671
 45
-1.414213562373094
 46
1.414213562373095
 79
     0
 47
0.2542548231135494
 98
        4
 10
95.43082908546969
 20
443.5108623273903
 10
119.8506092777043
 20
443.0023529648003
 10
262.8080600980516
 20
442.4938436022102
 10
293.0784101503373
 20
442.748098283505
1001
GradientColor1ACI
1070
     5
1001
GradientColor2ACI
1070
     2
1001
ACAD
1010
0.0
1020
0.0
1030
0.0
  0
LINE
  5
16CD
102
{ACAD_REACTORS
330
16CB
102
}
330
1E
100
AcDbEntity
  8
STEMPEL
100
AcDbLine
 10
225.9990001890475
 20
419.336452381508
 30
0.0
 11
227.4274463438922
 21
417.9354763450259
 31
0.0
  0
LINE
  5
16CE
330
1E
100
AcDbEntity
  8
STEMPEL
100
AcDbLine
 10
249.1751382340191
 20
441.6690283489327
 30
0.0
 11
225.9990001890475
 21
419.336452381508
 31
0.0
  0
LINE
  5
16CF
102
{ACAD_REACTORS
330
16CB
102
}
330
1E
100
AcDbEntity
  8
STEMPEL
100
AcDbLine
 10
250.5628991513013
 20
440.2288479309072
 30
0.0
 11
227.4274463438922
 21
417.9354763450259
 31
0.0
  0
ARC
  5
16D0
330
1E
100
AcDbEntity
  8
STEMPEL
100
AcDbCircle
 10
254.7261819031481
 20
435.908306676831
 30
0.0
 40
6.0
100
AcDbArc
 50
90.0
 51
133.938071237409
  0
ARC
  5
16D1
330
1E
100
AcDbEntity
  8
STEMPEL
100
AcDbCircle
 10
254.7261819031481
 20
435.908306676831
 30
0.0
 40
8.0
100
AcDbArc
 50
90.0
 51
133.938071237409
  0
LINE
  5
16D2
102
{ACAD_REACTORS
330
16CB
102
}
330
1E
100
AcDbEntity
  8
STEMPEL
100
AcDbLine
 10
166.9990001890475
 20
419.336452381508
 30
0.0
 11
165.5705540342028
 21
417.9354763450257
 31
0.0
  0
LINE
  5
16D3
330
1E
100
AcDbEntity
  8
STEMPEL
100
AcDbLine
 10
143.8228621440759
 20
441.6690283489325
 30
0.0
 11
166.9990001890475
 21
419.336452381508
 31
0.0
  0
LINE
  5
16D4
102
{ACAD_REACTORS
330
16CB
102
}
330
1E
100
AcDbEntity
  8
STEMPEL
100
AcDbLine
 10
142.4351012267936
 20
440.2288479309071
 30
0.0
 11
165.5705540342028
 21
417.9354763450257
 31
0.0
  0
ARC
  5
16D5
330
1E
100
AcDbEntity
  8
STEMPEL
100
AcDbCircle
 10
138.2718184749468
 20
435.9083066768309
 30
0.0
 40
6.0
100
AcDbArc
 50
46.06192876259098
 51
90.0
  0
ARC
  5
16D6
330
1E
100
AcDbEntity
  8
STEMPEL
100
AcDbCircle
 10
138.2718184749468
 20
435.9083066768309
 30
0.0
 40
8.0
100
AcDbArc
 50
46.06192876259098
 51
90.0
  0
LINE
  5
16D7
102
{ACAD_REACTORS
330
16CB
102
}
330
1E
100
AcDbEntity
  8
STEMPEL
100
AcDbLine
 10
227.4274463438922
 20
417.9354763450259
 30
0.0
 11
225.4990001890475
 21
417.9354763450257
 31
0.0
  0
LINE
  5
16D8
102
{ACAD_REACTORS
330
16CB
102
}
330
1E
100
AcDbEntity
  8
STEMPEL
100
AcDbLine
 10
167.4990001890475
 20
417.9354763450257
 30
0.0
 11
165.5705540342028
 21
417.9354763450257
 31
0.0
  0
LINE
  5
16D9
102
{ACAD_REACTORS
330
16CB
102
}
330
1E
100
AcDbEntity
  8
STEMPEL
100
AcDbLine
 10
225.9990001890475
 20
419.336452381508
 30
0.0
 11
225.4990001890475
 21
419.336452381508
 31
0.0
  0
LINE
  5
16DA
102
{ACAD_REACTORS
330
16CB
102
}
330
1E
100
AcDbEntity
  8
STEMPEL
100
AcDbLine
 10
167.4990001890474
 20
419.3364523815079
 30
0.0
 11
166.9990001890475
 21
419.336452381508
 31
0.0
  0
ARC
  5
16DB
102
{ACAD_REACTORS
330
16CB
102
}
330
1E
100
AcDbEntity
  8
SCHRAFF
100
AcDbCircle
 10
225.4990001890475
 20
419.336452381508
 30
0.0
 40
4.0
100
AcDbArc
 50
270.0
 51
8.012412577599677
  0
ARC
  5
16DC
102
{ACAD_REACTORS
330
16CB
102
}
330
1E
100
AcDbEntity
  8
SCHRAFF
100
AcDbCircle
 10
167.4990001890475
 20
419.336452381508
 30
0.0
 40
4.0
100
AcDbArc
 50
171.9875874224003
 51
270.0
  0
ENDSEC
  0
SECTION
  2
OBJECTS
  0
DICTIONARY
  5
C
330
0
100
AcDbDictionary
281
     1
  3
ACAD_CIP_PREVIOUS_PRODUCT_INFO
350
1197
  3
ACAD_COLOR
350
DF
  3
ACAD_DETAILVIEWSTYLE
350
1193
  3
ACAD_GROUP
350
D
  3
ACAD_LAYOUT
350
19
  3
ACAD_MATERIAL
350
DE
  3
ACAD_MLEADERSTYLE
350
118E
  3
ACAD_MLINESTYLE
350
16
  3
ACAD_PLOTSETTINGS
350
18
  3
ACAD_PLOTSTYLENAME
350
E
  3
ACAD_SCALELIST
350
117C
  3
ACAD_SECTIONVIEWSTYLE
350
1190
  3
ACAD_TABLESTYLE
350
117A
  3
ACAD_VISUALSTYLE
350
1161
  3
ACDB_RECOMPOSE_DATA
350
184D
  3
AcDbVariableDictionary
350
EA
  0
DICTIONARY
  5
14F3
330
8
100
AcDbDictionary
280
     1
281
     1
  0
DICTIONARY
  5
11C0
330
2
100
AcDbDictionary
280
     1
281
     1
  3
ACAD_LAYERSTATES
360
11C1
  0
DICTIONARY
  5
133B
330
10
100
AcDbDictionary
280
     1
281
     1
  3
ADSK_XREC_LAYER_RECONCILED
360
133C
  0
DICTIONARY
  5
133D
330
2A
100
AcDbDictionary
280
     1
281
     1
  3
ADSK_XREC_LAYER_RECONCILED
360
133E
  0
DICTIONARY
  5
133F
330
2B
100
AcDbDictionary
280
     1
281
     1
  3
ADSK_XREC_LAYER_RECONCILED
360
1340
  0
DICTIONARY
  5
1341
330
2C
100
AcDbDictionary
280
     1
281
     1
  3
ADSK_XREC_LAYER_RECONCILED
360
1342
  0
DICTIONARY
  5
1343
330
2F
100
AcDbDictionary
280
     1
281
     1
  3
ADSK_XREC_LAYER_RECONCILED
360
1344
  0
DICTIONARY
  5
1345
330
30
100
AcDbDictionary
280
     1
281
     1
  3
ADSK_XREC_LAYER_RECONCILED
360
1346
  0
DICTIONARY
  5
1347
330
31
100
AcDbDictionary
280
     1
281
     1
  3
ADSK_XREC_LAYER_RECONCILED
360
1348
  0
DICTIONARY
  5
1349
330
4F1
100
AcDbDictionary
280
     1
281
     1
  3
ADSK_XREC_LAYER_RECONCILED
360
134A
  0
DICTIONARY
  5
A0
330
1E
100
AcDbDictionary
280
     1
281
     1
  3
ACAD_LAYOUTSELFREF
360
D4
  3
ACAD_SORTENTS
360
1326
  0
DICTIONARY
  5
A2
330
1A
100
AcDbDictionary
280
     1
281
     1
  3
ACAD_LAYOUTSELFREF
360
D3
  0
XRECORD
  5
1197
102
{ACAD_REACTORS
330
C
102
}
330
C
100
AcDbXrecord
280
     1
300
ACD
300
2013
300
ACD_F_S
  0
DICTIONARY
  5
DF
102
{ACAD_REACTORS
330
C
102
}
330
C
100
AcDbDictionary
281
     1
  0
DICTIONARY
  5
1193
102
{ACAD_REACTORS
330
C
102
}
330
C
100
AcDbDictionary
281
     1
  3
Imperial24
350
1194
  0
DICTIONARY
  5
D
102
{ACAD_REACTORS
330
C
102
}
330
C
100
AcDbDictionary
281
     1
  0
DICTIONARY
  5
19
102
{ACAD_REACTORS
330
C
102
}
330
C
100
AcDbDictionary
281
     1
  3
Layout1
350
1D
  3
Model
350
21
  0
DICTIONARY
  5
DE
102
{ACAD_REACTORS
330
C
102
}
330
C
100
AcDbDictionary
281
     1
  3
ByBlock
350
1151
  3
ByLayer
350
1149
  3
Global
350
1159
  0
DICTIONARY
  5
118E
102
{ACAD_REACTORS
330
C
102
}
330
C
100
AcDbDictionary
281
     1
  3
Standard
350
118F
  0
DICTIONARY
  5
16
102
{ACAD_REACTORS
330
C
102
}
330
C
100
AcDbDictionary
281
     1
  3
Standard
350
17
  0
DICTIONARY
  5
18
102
{ACAD_REACTORS
330
C
102
}
330
C
100
AcDbDictionary
281
     1
  0
ACDBDICTIONARYWDFLT
  5
E
102
{ACAD_REACTORS
330
C
102
}
330
C
100
AcDbDictionary
281
     1
  3
Normal
350
F
100
AcDbDictionaryWithDefault
340
F
  0
DICTIONARY
  5
117C
102
{ACAD_REACTORS
330
C
102
}
330
C
100
AcDbDictionary
281
     1
  3
A0
350
117D
  3
A1
350
117E
  3
A2
350
117F
  3
A3
350
1180
  3
A4
350
1181
  3
A5
350
1182
  3
A6
350
1183
  3
A7
350
1184
  3
A8
350
1185
  3
A9
350
1186
  3
B0
350
1187
  3
B1
350
1188
  3
B2
350
1189
  3
B3
350
118A
  3
B4
350
118B
  3
B5
350
118C
  3
B6
350
118D
  0
DICTIONARY
  5
1190
102
{ACAD_REACTORS
330
C
102
}
330
C
100
AcDbDictionary
281
     1
  3
Imperial24
350
1192
  0
DICTIONARY
  5
117A
102
{ACAD_REACTORS
330
C
102
}
330
C
100
AcDbDictionary
281
     1
  3
Standard
350
117B
  0
DICTIONARY
  5
1161
102
{ACAD_REACTORS
330
C
102
}
330
C
100
AcDbDictionary
281
     1
  3
2dWireframe
350
1167
  3
Basic
350
1166
  3
Brighten
350
116D
  3
ColorChange
350
1171
  3
Conceptual
350
116A
  3
Dim
350
116C
  3
EdgeColorOff
350
1179
  3
Facepattern
350
1170
  3
Flat
350
1162
  3
FlatWithEdges
350
1163
  3
Gouraud
350
1164
  3
GouraudWithEdges
350
1165
  3
Hidden
350
1169
  3
JitterOff
350
1177
  3
Linepattern
350
116F
  3
OverhangOff
350
1178
  3
Realistic
350
116B
  3
Shaded
350
1176
  3
Shaded with edges
350
1175
  3
Shades of Gray
350
1172
  3
Sketchy
350
1173
  3
Thicken
350
116E
  3
Wireframe
350
1168
  3
X-Ray
350
1174
  0
XRECORD
  5
184D
102
{ACAD_REACTORS
330
C
102
}
330
C
100
AcDbXrecord
280
     1
 90
        1
330
117B
  0
DICTIONARY
  5
EA
102
{ACAD_REACTORS
330
C
102
}
330
C
100
AcDbDictionary
281
     1
  3
CANNOSCALE
350
1532
  3
CMLEADERSTYLE
350
152F
  3
CTABLESTYLE
350
152E
  3
CVIEWDETAILSTYLE
350
1530
  3
CVIEWSECTIONSTYLE
350
1531
  3
DIMASSOC
350
EB
  3
PROJECTNAME
350
EC
  0
DICTIONARY
  5
11C1
102
{ACAD_REACTORS
330
11C0
102
}
330
11C0
100
AcDbDictionary
281
     1
  0
XRECORD
  5
133C
102
{ACAD_REACTORS
330
133B
102
}
330
133B
100
AcDbXrecord
280
     1
290
     1
  0
XRECORD
  5
133E
102
{ACAD_REACTORS
330
133D
102
}
330
133D
100
AcDbXrecord
280
     1
290
     1
  0
XRECORD
  5
1340
102
{ACAD_REACTORS
330
133F
102
}
330
133F
100
AcDbXrecord
280
     1
290
     1
  0
XRECORD
  5
1342
102
{ACAD_REACTORS
330
1341
102
}
330
1341
100
AcDbXrecord
280
     1
290
     1
  0
XRECORD
  5
1344
102
{ACAD_REACTORS
330
1343
102
}
330
1343
100
AcDbXrecord
280
     1
290
     1
  0
XRECORD
  5
1346
102
{ACAD_REACTORS
330
1345
102
}
330
1345
100
AcDbXrecord
280
     1
290
     1
  0
XRECORD
  5
1348
102
{ACAD_REACTORS
330
1347
102
}
330
1347
100
AcDbXrecord
280
     1
290
     1
  0
XRECORD
  5
134A
102
{ACAD_REACTORS
330
1349
102
}
330
1349
100
AcDbXrecord
280
     1
290
     1
  0
XRECORD
  5
D4
102
{ACAD_REACTORS
330
A0
102
}
330
A0
100
AcDbXrecord
280
     1
340
1E
  0
SORTENTSTABLE
  5
1326
102
{ACAD_REACTORS
330
A0
102
}
330
A0
100
AcDbSortentsTable
330
1E
331
15D6
  5
15D7
331
15D2
  5
15D3
331
F29
  5
F2B
331
125C
  5
1275
331
12AF
  5
12B9
331
1258
  5
126C
331
F21
  5
F2A
331
12AB
  5
12B5
331
1250
  5
1259
331
10B6
  5
10B9
331
10B2
  5
10B5
331
10AE
  5
10B1
331
10ED
  5
10F0
331
10E9
  5
10EC
331
15CE
  5
15CF
331
15CA
  5
15CB
331
1605
  5
1645
331
15C6
  5
15C7
331
1601
  5
1602
331
15C2
  5
15C3
331
15FD
  5
15FE
331
1443
  5
15B4
331
15F9
  5
15FA
331
12A7
  5
12B1
331
124C
  5
1251
331
F0D
  5
F1F
331
1248
  5
124C
331
129F
  5
12A9
331
F50
  5
F52
331
69
  5
69
331
65
  5
65
331
10E5
  5
10E8
331
10E1
  5
10E4
331
F8E
  5
F91
331
10DD
  5
10E0
331
F8A
  5
F8D
331
1114
  5
1132
331
10D9
  5
10DC
331
1110
  5
1113
331
15BE
  5
15BF
331
15BA
  5
15BB
331
15F5
  5
15F6
331
1437
  5
1443
331
15F1
  5
15F2
331
15B6
  5
15B7
331
15ED
  5
15EE
331
15E9
  5
15EA
331
F4C
  5
F4E
331
8F
  5
8F
331
EF1
  5
EF3
331
1405
  5
1410
331
1293
  5
129D
331
8B
  5
8B
331
F44
  5
F46
331
ED9
  5
EDB
331
F40
  5
F43
331
128B
  5
129B
331
12C2
  5
1406
331
F86
  5
F89
331
10D5
  5
10D8
331
F82
  5
F85
331
110C
  5
110F
331
10D1
  5
10D4
331
F7E
  5
F81
331
1108
  5
110B
331
10CD
  5
10D0
331
F7A
  5
F7D
331
1104
  5
1107
331
10C9
  5
10CC
331
1100
  5
1103
331
142F
  5
1441
331
15E5
  5
15E6
331
15E1
  5
15E2
331
1427
  5
1437
331
15DD
  5
15DE
331
15D9
  5
15DA
331
87
  5
87
331
83
  5
83
331
ED5
  5
ED7
331
ED1
  5
ED4
331
12BE
  5
1327
331
7B
  5
7B
331
ECD
  5
ED0
331
F34
  5
F36
331
12BA
  5
12C4
331
1277
  5
128C
331
12B6
  5
12C0
331
12B2
  5
12BC
331
F76
  5
F79
331
10C5
  5
10C8
331
F72
  5
F75
331
10FC
  5
10FF
331
10C1
  5
10C4
331
F6E
  5
F71
331
10F8
  5
10FB
331
10BD
  5
10C0
331
10B9
  5
10BC
331
10F4
  5
10F7
331
10F0
  5
10F3
331
15D5
  5
15D6
331
15D1
  5
15D2
331
F2C
  5
F35
331
EC5
  5
ECB
331
125B
  5
1274
331
F63
  5
F66
331
12AE
  5
12B8
331
1257
  5
1269
331
F20
  5
F29
331
12AA
  5
12B4
331
1253
  5
1265
331
141C
  5
1426
331
74
  5
74
331
10B5
  5
10B8
331
10B1
  5
10B4
331
10AD
  5
10B0
331
10EC
  5
10EF
331
10E8
  5
10EB
331
1133
  5
1248
331
15CD
  5
15CE
331
15C9
  5
15CA
331
146A
  5
1258
331
1604
  5
1605
331
15C5
  5
15C6
331
1600
  5
1601
331
15C1
  5
15C2
331
1442
  5
1449
331
15FC
  5
15FD
331
15F8
  5
15F9
331
E69
  5
E69
331
F5B
  5
F5E
331
12A6
  5
12B0
331
124F
  5
1256
331
E65
  5
E65
331
F57
  5
F5B
331
124B
  5
1250
331
F53
  5
F56
331
129E
  5
12A8
331
1410
  5
141F
331
140C
  5
141C
331
68
  5
68
331
64
  5
64
331
10E4
  5
10E7
331
111F
  5
1146
331
60
  5
60
331
F91
  5
10AF
331
10E0
  5
10E3
331
F8D
  5
F90
331
10DC
  5
10DF
331
F89
  5
F8C
331
1113
  5
111F
331
10D8
  5
10DB
331
15BD
  5
15BE
331
15B9
  5
15BA
331
15F4
  5
15F5
331
15B5
  5
15B6
331
15F0
  5
15F1
331
1436
  5
1442
331
15EC
  5
15ED
331
15E8
  5
15E9
331
E55
  5
E55
331
F4F
  5
F51
331
F4B
  5
F4D
331
8E
  5
8E
331
EF0
  5
EF2
331
F47
  5
F4A
331
1404
  5
140F
331
8A
  5
8A
331
F43
  5
F45
331
ED8
  5
EDA
331
12C1
  5
1405
331
F85
  5
F88
331
110F
  5
1112
331
10D4
  5
10D7
331
F81
  5
F84
331
110B
  5
110E
331
10D0
  5
10D3
331
F7D
  5
F80
331
1107
  5
110A
331
10CC
  5
10CF
331
F79
  5
F7C
331
1103
  5
1106
331
10C8
  5
10CB
331
15E4
  5
15E5
331
15E0
  5
15E1
331
1426
  5
1430
331
15DC
  5
15DD
331
15D8
  5
15D9
331
86
  5
86
331
F3F
  5
F41
331
ED4
  5
ED6
331
ED0
  5
ED3
331
F37
  5
F3E
331
12BD
  5
1325
331
ECC
  5
ECF
331
12B9
  5
12C3
331
1276
  5
128B
331
12B5
  5
12BF
331
12B1
  5
12BB
331
F75
  5
F78
331
10FF
  5
1102
331
10C4
  5
10C7
331
F71
  5
F74
331
10FB
  5
10FE
331
10C0
  5
10C3
331
F6D
  5
F70
331
10F7
  5
10FA
331
10BC
  5
10BF
331
F69
  5
F6D
331
10F3
  5
10F6
331
10B8
  5
10BB
331
15D4
  5
15D5
331
15D0
  5
15D1
331
F2B
  5
F34
331
EC4
  5
EC5
331
F66
  5
F6C
331
125A
  5
1271
331
F62
  5
F65
331
12AD
  5
12B7
331
141F
  5
1428
331
1256
  5
1268
331
12A9
  5
12B3
331
141B
  5
1425
331
1252
  5
125C
331
10B4
  5
10B7
331
1146
  5
124A
331
10B0
  5
10B3
331
10EF
  5
10F2
331
10EB
  5
10EE
331
1132
  5
1247
331
15CC
  5
15CD
331
15C8
  5
15C9
331
1603
  5
1604
331
15C4
  5
15C5
331
15FF
  5
1600
331
15C0
  5
15C1
331
1441
  5
1448
331
15FB
  5
15FC
331
F1F
  5
F21
331
F5E
  5
F62
331
E68
  5
E68
331
F5A
  5
F5D
331
12A5
  5
12AF
331
1417
  5
1424
331
124E
  5
1253
331
F56
  5
F5A
331
12A1
  5
12AB
331
F52
  5
F55
331
140F
  5
141E
331
10E7
  5
10EA
331
67
  5
67
331
10E3
  5
10E6
331
111E
  5
1133
331
63
  5
63
331
F90
  5
10AE
331
10DF
  5
10E2
331
F8C
  5
F8F
331
10DB
  5
10DE
331
F88
  5
F8B
331
1112
  5
111E
331
15BC
  5
15BD
331
143D
  5
125B
331
15F7
  5
15F8
331
15B8
  5
15B9
331
1439
  5
1445
331
15F3
  5
15F4
331
15B4
  5
15B5
331
15EF
  5
15F0
331
1646
  5
1674
331
15EB
  5
15EC
331
F4E
  5
F50
331
EF3
  5
F0D
331
F4A
  5
F4C
331
1407
  5
1417
331
1295
  5
129F
331
F46
  5
F49
331
89
  5
89
331
EDB
  5
EF1
331
12C0
  5
1404
331
5F
  5
5F
331
5B
  5
5B
331
10D7
  5
10DA
331
57
  5
57
331
F84
  5
F87
331
110E
  5
1111
331
10D3
  5
10D6
331
F80
  5
F83
331
110A
  5
110D
331
10CF
  5
10D2
331
F7C
  5
F7F
331
1106
  5
1109
331
10CB
  5
10CE
331
F78
  5
F7B
331
1102
  5
1105
331
142D
  5
1440
331
15E7
  5
15E8
331
1429
  5
143D
331
15E3
  5
15E4
331
1425
  5
142F
331
15DF
  5
15E0
331
15DB
  5
15DC
331
85
  5
85
331
ED7
  5
ED9
331
F3E
  5
F40
331
118
  5
118
331
ED3
  5
ED5
331
7D
  5
7D
331
ECF
  5
ED1
331
F36
  5
F3D
331
12BC
  5
1323
331
ECB
  5
ECD
331
12B8
  5
12C2
331
1275
  5
1284
331
12B4
  5
12BE
331
12B0
  5
12BA
331
10C7
  5
10CA
331
F74
  5
F77
331
10FE
  5
1101
331
10C3
  5
10C6
331
F70
  5
F73
331
10FA
  5
10FD
331
10BF
  5
10C2
331
F6C
  5
F6F
331
10F6
  5
10F9
331
10BB
  5
10BE
331
10F2
  5
10F5
331
15D7
  5
15D8
331
15D3
  5
15D4
331
EC7
  5
ECC
331
F2A
  5
F2C
331
F65
  5
F6B
331
1259
  5
126D
331
F61
  5
F63
331
141E
  5
1427
331
12AC
  5
12B6
331
12A8
  5
12B2
331
10B7
  5
10BA
331
10B3
  5
10B6
331
10AF
  5
10B2
331
10EE
  5
10F1
331
10EA
  5
10ED
331
15CF
  5
15D0
331
15CB
  5
15CC
331
15C7
  5
15C8
331
1602
  5
1603
331
15C3
  5
15C4
331
15FE
  5
15FF
331
1440
  5
1447
331
15FA
  5
15FB
331
E6F
  5
EC4
331
F5D
  5
F61
331
E67
  5
E67
331
1416
  5
1420
331
124D
  5
1252
331
F0E
  5
F20
331
F55
  5
F57
331
12A0
  5
12AA
331
F51
  5
F53
331
140A
  5
141B
331
66
  5
66
331
10E6
  5
10E9
331
10E2
  5
10E5
331
F8F
  5
10AD
331
10DE
  5
10E1
331
F8B
  5
F8E
331
10DA
  5
10DD
331
1111
  5
1114
331
15BF
  5
15C0
331
15BB
  5
15BC
331
15F6
  5
15F7
331
15B7
  5
15B8
331
15F2
  5
15F3
331
1645
  5
1646
331
15EE
  5
15EF
331
15EA
  5
15EB
331
E57
  5
E57
331
EF6
  5
F0E
331
F4D
  5
F4F
331
90
  5
90
331
EF2
  5
EF6
331
F49
  5
F4B
331
1406
  5
1412
331
1294
  5
129E
331
8C
  5
8C
331
F45
  5
F47
331
88
  5
88
331
EDA
  5
EF0
331
F41
  5
F44
331
12C3
  5
1407
331
5E
  5
5E
331
F87
  5
F8A
331
10D6
  5
10D9
331
F83
  5
F86
331
110D
  5
1110
331
10D2
  5
10D5
331
F7F
  5
F82
331
1109
  5
110C
331
10CE
  5
10D1
331
F7B
  5
F7E
331
1105
  5
1108
331
10CA
  5
10CD
331
1101
  5
1104
331
15E6
  5
15E7
331
15E2
  5
15E3
331
1428
  5
1439
331
15DE
  5
15DF
331
1424
  5
142C
331
15DA
  5
15DB
331
1420
  5
1429
331
ED6
  5
ED8
331
F3D
  5
F3F
331
12BF
  5
1328
331
7C
  5
7C
331
F35
  5
F37
331
12BB
  5
12C5
331
1278
  5
1293
331
12B7
  5
12C1
331
1274
  5
1283
331
1674
  5
EC7
331
12B3
  5
12BD
331
F77
  5
F7A
331
10C6
  5
10C9
331
F73
  5
F76
331
10FD
  5
1100
331
10C2
  5
10C5
331
F6F
  5
F72
331
10F9
  5
10FC
331
10BE
  5
10C1
331
F6B
  5
F6E
331
10F5
  5
10F8
331
10BA
  5
10BD
331
10F1
  5
10F4
  0
XRECORD
  5
D3
102
{ACAD_REACTORS
330
A2
102
}
330
A2
100
AcDbXrecord
280
     1
340
1A
  0
ACDBDETAILVIEWSTYLE
  5
1194
102
{ACAD_REACTORS
330
1193
102
}
330
1193
100
AcDbModelDocViewStyle
 70
     0
  3
Imperial24
290
     0
100
AcDbDetailViewStyle
 70
     0
 71
     0
 90
        3
 71
     1
340
11
 62
   256
 40
0.24
340
0
 62
   256
 40
0.24
300

 40
0.36
280
     3
 71
     2
340
15
 90
       25
 62
   256
 71
     3
340
11
 62
   256
 40
0.24
 90
        1
 40
0.75
 90
        1
300
%<\AcVar ViewType \f "%tc1">% %<\AcVar ViewDetailId>%\PVARIA %<\AcVar ViewScale \f "%sn">%
 71
     4
340
15
 90
       25
 62
   256
340
15
 90
       25
 62
   256
280
     0
  0
LAYOUT
  5
1D
102
{ACAD_REACTORS
330
19
102
}
330
19
100
AcDbPlotSettings
  1

  2
\\NT_WORK01\HP LaserJet 5000 PCL 6
  4

  6

 40
0.0
 41
0.0
 42
0.0
 43
0.0
 44
0.0
 45
0.0
 46
0.0
 47
0.0
 48
0.0
 49
0.0
140
0.0
141
0.0
142
1.0
143
1.0
 70
   688
 72
     0
 73
     0
 74
     5
  7

 75
    16
147
1.0
 76
     0
 77
     2
 78
   300
148
0.0
149
0.0
100
AcDbLayout
  1
Layout1
 70
     0
 71
     1
 10
0.0
 20
0.0
 11
12.0
 21
9.0
 12
0.0
 22
0.0
 32
0.0
 14
1.000000000000000E+20
 24
1.000000000000000E+20
 34
1.000000000000000E+20
 15
-1.000000000000000E+20
 25
-1.000000000000000E+20
 35
-1.000000000000000E+20
146
0.0
 13
0.0
 23
0.0
 33
0.0
 16
1.0
 26
0.0
 36
0.0
 17
0.0
 27
1.0
 37
0.0
 76
     0
330
1A
  0
LAYOUT
  5
21
102
{ACAD_XDICTIONARY
360
14F5
102
}
102
{ACAD_REACTORS
330
19
102
}
330
19
100
AcDbPlotSettings
  1

  2
none_device
  4
Letter_(8.50_x_11.00_Inches)
  6

 40
6.349999904632568
 41
6.349999904632568
 42
6.350006103515625
 43
6.350006103515625
 44
215.8999938964844
 45
279.3999938964844
 46
0.0
 47
0.0
 48
0.0
 49
0.0
140
0.0
141
0.0
142
1.0
143
96.85355168895773
 70
 11952
 72
     0
 73
     1
 74
     0
  7

 75
     0
147
0.0103248665904527
 76
     0
 77
     2
 78
   300
148
7581.827396154292
149
52.0690866789122
100
AcDbLayout
  1
Model
 70
     1
 71
     0
 10
0.0
 20
0.0
 11
12.0
 21
9.0
 12
0.0
 22
0.0
 32
0.0
 14
0.0
 24
0.0
 34
0.0
 15
0.0
 25
0.0
 35
0.0
146
0.0
 13
0.0
 23
0.0
 33
0.0
 16
1.0
 26
0.0
 36
0.0
 17
0.0
 27
1.0
 37
0.0
 76
     0
330
1E
331
1147
1001
ACAD_PSEXT
1000
Kein
1000
Kein
1000
Nicht anwendbar
1000
Das Layout wird erst geplottet, wenn ein neuer Plotter-Konfigurationsname ausgewählt wird.
1070
     0
  0
MATERIAL
  5
1151
102
{ACAD_XDICTIONARY
360
1152
102
}
102
{ACAD_REACTORS
330
DE
102
}
330
DE
100
AcDbMaterial
  1
ByBlock
 72
     0
 43
0.0208333333333333
 43
0.0
 43
0.0
 43
0.0
 43
0.0
 43
0.0208333333333333
 43
0.0
 43
0.0
 43
0.0
 43
0.0
 43
1.0
 43
0.0
 43
0.0
 43
0.0
 43
0.0
 43
1.0
 77
     0
 47
0.0208333333333333
 47
0.0
 47
0.0
 47
0.0
 47
0.0
 47
0.0208333333333333
 47
0.0
 47
0.0
 47
0.0
 47
0.0
 47
1.0
 47
0.0
 47
0.0
 47
0.0
 47
0.0
 47
1.0
171
     0
 49
0.0208333333333333
 49
0.0
 49
0.0
 49
0.0
 49
0.0
 49
0.0208333333333333
 49
0.0
 49
0.0
 49
0.0
 49
0.0
 49
1.0
 49
0.0
 49
0.0
 49
0.0
 49
0.0
 49
1.0
175
     0
142
0.0208333333333333
142
0.0
142
0.0
142
0.0
142
0.0
142
0.0208333333333333
142
0.0
142
0.0
142
0.0
142
0.0
142
1.0
142
0.0
142
0.0
142
0.0
142
0.0
142
1.0
179
     0
144
0.0208333333333333
144
0.0
144
0.0
144
0.0
144
0.0
144
0.0208333333333333
144
0.0
144
0.0
144
0.0
144
0.0
144
1.0
144
0.0
144
0.0
144
0.0
144
0.0
144
1.0
147
0.0208333333333333
147
0.0
147
0.0
147
0.0
147
0.0
147
0.0208333333333333
147
0.0
147
0.0
147
0.0
147
0.0
147
1.0
147
0.0
147
0.0
147
0.0
147
0.0
147
1.0
  0
MATERIAL
  5
1149
102
{ACAD_XDICTIONARY
360
114A
102
}
102
{ACAD_REACTORS
330
DE
102
}
330
DE
100
AcDbMaterial
  1
ByLayer
 72
     0
 43
0.0208333333333333
 43
0.0
 43
0.0
 43
0.0
 43
0.0
 43
0.0208333333333333
 43
0.0
 43
0.0
 43
0.0
 43
0.0
 43
1.0
 43
0.0
 43
0.0
 43
0.0
 43
0.0
 43
1.0
 77
     0
 47
0.0208333333333333
 47
0.0
 47
0.0
 47
0.0
 47
0.0
 47
0.0208333333333333
 47
0.0
 47
0.0
 47
0.0
 47
0.0
 47
1.0
 47
0.0
 47
0.0
 47
0.0
 47
0.0
 47
1.0
171
     0
 49
0.0208333333333333
 49
0.0
 49
0.0
 49
0.0
 49
0.0
 49
0.0208333333333333
 49
0.0
 49
0.0
 49
0.0
 49
0.0
 49
1.0
 49
0.0
 49
0.0
 49
0.0
 49
0.0
 49
1.0
175
     0
142
0.0208333333333333
142
0.0
142
0.0
142
0.0
142
0.0
142
0.0208333333333333
142
0.0
142
0.0
142
0.0
142
0.0
142
1.0
142
0.0
142
0.0
142
0.0
142
0.0
142
1.0
179
     0
144
0.0208333333333333
144
0.0
144
0.0
144
0.0
144
0.0
144
0.0208333333333333
144
0.0
144
0.0
144
0.0
144
0.0
144
1.0
144
0.0
144
0.0
144
0.0
144
0.0
144
1.0
147
0.0208333333333333
147
0.0
147
0.0
147
0.0
147
0.0
147
0.0208333333333333
147
0.0
147
0.0
147
0.0
147
0.0
147
1.0
147
0.0
147
0.0
147
0.0
147
0.0
147
1.0
  0
MATERIAL
  5
1159
102
{ACAD_XDICTIONARY
360
115A
102
}
102
{ACAD_REACTORS
330
DE
102
}
330
DE
100
AcDbMaterial
  1
Global
 72
     0
 43
0.0208333333333333
 43
0.0
 43
0.0
 43
0.0
 43
0.0
 43
0.0208333333333333
 43
0.0
 43
0.0
 43
0.0
 43
0.0
 43
1.0
 43
0.0
 43
0.0
 43
0.0
 43
0.0
 43
1.0
 77
     0
 47
0.0208333333333333
 47
0.0
 47
0.0
 47
0.0
 47
0.0
 47
0.0208333333333333
 47
0.0
 47
0.0
 47
0.0
 47
0.0
 47
1.0
 47
0.0
 47
0.0
 47
0.0
 47
0.0
 47
1.0
171
     0
 49
0.0208333333333333
 49
0.0
 49
0.0
 49
0.0
 49
0.0
 49
0.0208333333333333
 49
0.0
 49
0.0
 49
0.0
 49
0.0
 49
1.0
 49
0.0
 49
0.0
 49
0.0
 49
0.0
 49
1.0
175
     0
142
0.0208333333333333
142
0.0
142
0.0
142
0.0
142
0.0
142
0.0208333333333333
142
0.0
142
0.0
142
0.0
142
0.0
142
1.0
142
0.0
142
0.0
142
0.0
142
0.0
142
1.0
179
     0
144
0.0208333333333333
144
0.0
144
0.0
144
0.0
144
0.0
144
0.0208333333333333
144
0.0
144
0.0
144
0.0
144
0.0
144
1.0
144
0.0
144
0.0
144
0.0
144
0.0
144
1.0
147
0.0208333333333333
147
0.0
147
0.0
147
0.0
147
0.0
147
0.0208333333333333
147
0.0
147
0.0
147
0.0
147
0.0
147
1.0
147
0.0
147
0.0
147
0.0
147
0.0
147
1.0
  0
MLEADERSTYLE
  5
118F
102
{ACAD_XDICTIONARY
360
1882
102
}
102
{ACAD_REACTORS
330
118E
102
}
330
118E
100
AcDbMLeaderStyle
170
     2
171
     1
172
     0
 90
        2
 40
0.0
 41
0.0
173
     1
 91
-1056964608
340
13
 92
       -2
290
     1
 42
0.09
291
     1
 43
0.36
  3
Standard
 44
0.18
300

342
11
174
     1
178
     6
175
     1
176
     0
 93
-1056964608
 45
0.18
292
     0
297
     0
 46
0.18
 94
-1056964608
 47
1.0
 49
1.0
140
1.0
293
     1
141
0.0
294
     1
177
     0
142
1.0
295
     0
296
     0
143
0.125
1001
ACAD_MLEADERVER
1070
     2
  0
MLINESTYLE
  5
17
102
{ACAD_REACTORS
330
16
102
}
330
16
100
AcDbMlineStyle
  2
STANDARD
 70
     0
  3

 62
   256
 51
90.0
 52
90.0
 71
     2
 49
0.5
 62
   256
  6
BYLAYER
 49
-0.5
 62
   256
  6
BYLAYER
  0
ACDBPLACEHOLDER
  5
F
102
{ACAD_REACTORS
330
E
102
}
330
E
  0
SCALE
  5
117D
102
{ACAD_REACTORS
330
117C
102
}
330
117C
100
AcDbScale
 70
     0
300
1:1
140
1.0
141
1.0
290
     1
  0
SCALE
  5
117E
102
{ACAD_REACTORS
330
117C
102
}
330
117C
100
AcDbScale
 70
     0
300
1/128" = 1'-0"
140
0.0078125
141
12.0
290
     0
  0
SCALE
  5
117F
102
{ACAD_REACTORS
330
117C
102
}
330
117C
100
AcDbScale
 70
     0
300
1/64" = 1'-0"
140
0.015625
141
12.0
290
     0
  0
SCALE
  5
1180
102
{ACAD_REACTORS
330
117C
102
}
330
117C
100
AcDbScale
 70
     0
300
1/32" = 1'-0"
140
0.03125
141
12.0
290
     0
  0
SCALE
  5
1181
102
{ACAD_REACTORS
330
117C
102
}
330
117C
100
AcDbScale
 70
     0
300
1/16" = 1'-0"
140
0.0625
141
12.0
290
     0
  0
SCALE
  5
1182
102
{ACAD_REACTORS
330
117C
102
}
330
117C
100
AcDbScale
 70
     0
300
3/32" = 1'-0"
140
0.09375
141
12.0
290
     0
  0
SCALE
  5
1183
102
{ACAD_REACTORS
330
117C
102
}
330
117C
100
AcDbScale
 70
     0
300
1/8" = 1'-0"
140
0.125
141
12.0
290
     0
  0
SCALE
  5
1184
102
{ACAD_REACTORS
330
117C
102
}
330
117C
100
AcDbScale
 70
     0
300
3/16" = 1'-0"
140
0.1875
141
12.0
290
     0
  0
SCALE
  5
1185
102
{ACAD_REACTORS
330
117C
102
}
330
117C
100
AcDbScale
 70
     0
300
1/4" = 1'-0"
140
0.25
141
12.0
290
     0
  0
SCALE
  5
1186
102
{ACAD_REACTORS
330
117C
102
}
330
117C
100
AcDbScale
 70
     0
300
3/8" = 1'-0"
140
0.375
141
12.0
290
     0
  0
SCALE
  5
1187
102
{ACAD_REACTORS
330
117C
102
}
330
117C
100
AcDbScale
 70
     0
300
1/2" = 1'-0"
140
0.5
141
12.0
290
     0
  0
SCALE
  5
1188
102
{ACAD_REACTORS
330
117C
102
}
330
117C
100
AcDbScale
 70
     0
300
3/4" = 1'-0"
140
0.75
141
12.0
290
     0
  0
SCALE
  5
1189
102
{ACAD_REACTORS
330
117C
102
}
330
117C
100
AcDbScale
 70
     0
300
1" = 1'-0"
140
1.0
141
12.0
290
     0
  0
SCALE
  5
118A
102
{ACAD_REACTORS
330
117C
102
}
330
117C
100
AcDbScale
 70
     0
300
1-1/2" = 1'-0"
140
1.5
141
12.0
290
     0
  0
SCALE
  5
118B
102
{ACAD_REACTORS
330
117C
102
}
330
117C
100
AcDbScale
 70
     0
300
3" = 1'-0"
140
3.0
141
12.0
290
     0
  0
SCALE
  5
118C
102
{ACAD_REACTORS
330
117C
102
}
330
117C
100
AcDbScale
 70
     0
300
6" = 1'-0"
140
6.0
141
12.0
290
     0
  0
SCALE
  5
118D
102
{ACAD_REACTORS
330
117C
102
}
330
117C
100
AcDbScale
 70
     0
300
1'-0" = 1'-0"
140
12.0
141
12.0
290
     0
  0
ACDBSECTIONVIEWSTYLE
  5
1192
102
{ACAD_REACTORS
330
1190
102
}
330
1190
100
AcDbModelDocViewStyle
 70
     0
  3
Imperial24
290
     0
100
AcDbSectionViewStyle
 70
     0
 71
     0
 90
       78
 71
     1
340
11
 62
   256
 40
0.24
340
0
340
0
 62
   256
 40
0.24
300
I, O, Q, S, X, Z
 40
0.48
 90
        3
 40
0.18
 90
        1
 71
     2
340
1191
 90
       25
 62
   256
340
15
 90
       50
 62
   256
 40
0.24
 40
0.0
 40
0.24
 71
     3
340
11
 62
   256
 40
0.24
 90
        1
 40
0.75
 90
        1
300
%<\AcVar ViewType \f "%tc1">% %<\AcVar ViewSectionStartId>%-%<\AcVar ViewSectionEndId>%\PVARIA %<\AcVar ViewScale \f "%sn">%
 71
     4
 62
   256
 62
   257
300
ANSI31
 40
1.0
 90
        0
290
     0
290
     0
 90
        6
 40
0.0
 40
1.570796326794896
 40
0.2617993877991494
 40
1.308996938995747
 40
-0.2617993877991494
 40
1.832595714594046
  0
TABLESTYLE
  5
117B
102
{ACAD_XDICTIONARY
360
14E8
102
}
102
{ACAD_REACTORS
330
117A
102
}
330
117A
100
AcDbTableStyle
  3
Standard
 70
     0
 71
     0
 40
0.06
 41
0.06
280
     0
281
     0
  7
STANDARD
140
0.18
170
     2
 62
     0
 63
     7
283
     0
274
    -2
284
     1
 64
     0
275
    -2
285
     1
 65
     0
276
    -2
286
     1
 66
     0
277
    -2
287
     1
 67
     0
278
    -2
288
     1
 68
     0
279
    -2
289
     1
 69
     0
  7
STANDARD
140
0.25
170
     5
 62
     0
 63
     7
283
     0
274
    -2
284
     1
 64
     0
275
    -2
285
     1
 65
     0
276
    -2
286
     1
 66
     0
277
    -2
287
     1
 67
     0
278
    -2
288
     1
 68
     0
279
    -2
289
     1
 69
     0
  7
STANDARD
140
0.18
170
     5
 62
     0
 63
     7
283
     0
274
    -2
284
     1
 64
     0
275
    -2
285
     1
 65
     0
276
    -2
286
     1
 66
     0
277
    -2
287
     1
 67
     0
278
    -2
288
     1
 68
     0
279
    -2
289
     1
 69
     0
  0
VISUALSTYLE
  5
1167
102
{ACAD_XDICTIONARY
360
185B
102
}
102
{ACAD_REACTORS
330
1161
102
}
330
1161
100
AcDbVisualStyle
  2
2dWireframe
 70
     4
 71
     0
 72
     2
 73
     0
 90
        0
 40
-0.6
 41
-30.0
 62
     5
 63
     7
421
 16777215
 74
     1
 91
        4
 64
     7
 65
   257
 75
     1
175
     1
 42
1.0
 92
        0
 66
   257
 43
1.0
 76
     1
 77
     6
 78
     2
 67
     7
 79
     5
170
     0
171
     0
290
     0
174
     0
 93
        1
 44
0.0
173
     0
291
     0
 45
0.0
1001
ACAD
1000
AcDbSavedByObjectVersion
1070
     0
  0
VISUALSTYLE
  5
1166
102
{ACAD_XDICTIONARY
360
1859
102
}
102
{ACAD_REACTORS
330
1161
102
}
330
1161
100
AcDbVisualStyle
  2
Basic
 70
     7
 71
     1
 72
     0
 73
     1
 90
        0
 40
-0.6
 41
-30.0
 62
     5
 63
     7
421
 16777215
 74
     0
 91
        4
 64
     7
 65
   257
 75
     1
175
     1
 42
1.0
 92
        8
 66
     7
 43
1.0
 76
     1
 77
     6
 78
     2
 67
     7
 79
     5
170
     0
171
     0
290
     0
174
     0
 93
        1
 44
0.0
173
     0
291
     1
 45
0.0
1001
ACAD
1000
AcDbSavedByObjectVersion
1070
     0
  0
VISUALSTYLE
  5
116D
102
{ACAD_XDICTIONARY
360
1867
102
}
102
{ACAD_REACTORS
330
1161
102
}
330
1161
100
AcDbVisualStyle
  2
Brighten
 70
    12
 71
     2
 72
     2
 73
     0
 90
        0
 40
-0.6
 41
-30.0
 62
     5
 63
     7
421
 16777215
 74
     1
 91
        4
 64
     7
 65
   257
 75
     1
175
     1
 42
1.0
 92
        8
 66
     7
 43
1.0
 76
     1
 77
     6
 78
     2
 67
     7
 79
     5
170
     0
171
     0
290
     0
174
     0
 93
        1
 44
50.0
173
     0
291
     1
 45
0.0
1001
ACAD
1000
AcDbSavedByObjectVersion
1070
     0
  0
VISUALSTYLE
  5
1171
102
{ACAD_XDICTIONARY
360
186F
102
}
102
{ACAD_REACTORS
330
1161
102
}
330
1161
100
AcDbVisualStyle
  2
ColorChange
 70
    16
 71
     2
 72
     2
 73
     3
 90
        0
 40
-0.6
 41
-30.0
 62
     5
 63
     8
421
  8421504
 74
     1
 91
        4
 64
     7
 65
   257
 75
     1
175
     1
 42
1.0
 92
        8
 66
     8
424
  8421504
 43
1.0
 76
     1
 77
     6
 78
     2
 67
     7
 79
     5
170
     0
171
     0
290
     0
174
     0
 93
        1
 44
0.0
173
     0
291
     1
 45
0.0
1001
ACAD
1000
AcDbSavedByObjectVersion
1070
     0
  0
VISUALSTYLE
  5
116A
102
{ACAD_XDICTIONARY
360
1861
102
}
102
{ACAD_REACTORS
330
1161
102
}
330
1161
100
AcDbVisualStyle
  2
Conceptual
 70
     9
 71
     3
 72
     2
 73
     0
 90
        0
 40
-0.6
 41
-30.0
 62
     5
 63
     7
421
 16777215
 74
     2
 91
        2
 64
     7
 65
   257
 75
     1
175
     1
 42
179.0
 92
        8
 66
     7
 43
1.0
 76
     1
 77
     6
 78
     2
 67
     7
 79
     3
170
     0
171
     0
290
     0
174
     0
 93
        1
 44
0.0
173
     0
291
     0
 45
0.0
1001
ACAD
1000
AcDbSavedByObjectVersion
1070
     0
  0
VISUALSTYLE
  5
116C
102
{ACAD_XDICTIONARY
360
1865
102
}
102
{ACAD_REACTORS
330
1161
102
}
330
1161
100
AcDbVisualStyle
  2
Dim
 70
    11
 71
     2
 72
     2
 73
     0
 90
        0
 40
-0.6
 41
-30.0
 62
     5
 63
     7
421
 16777215
 74
     1
 91
        4
 64
     7
 65
   257
 75
     1
175
     1
 42
1.0
 92
        8
 66
     7
 43
1.0
 76
     1
 77
     6
 78
     2
 67
     7
 79
     5
170
     0
171
     0
290
     0
174
     0
 93
        1
 44
-50.0
173
     0
291
     1
 45
0.0
1001
ACAD
1000
AcDbSavedByObjectVersion
1070
     0
  0
VISUALSTYLE
  5
1179
102
{ACAD_XDICTIONARY
360
187F
102
}
102
{ACAD_REACTORS
330
1161
102
}
330
1161
100
AcDbVisualStyle
  2
EdgeColorOff
 70
    22
 71
     2
 72
     2
 73
     0
 90
        0
 40
-0.6
 41
-30.0
 62
     5
 63
     7
421
 16777215
 74
     1
 91
        4
 64
     7
 65
   257
 75
     1
175
     1
 42
1.0
 92
        8
 66
     7
 43
1.0
 76
     1
 77
     6
 78
     2
 67
     7
 79
     5
170
     0
171
     0
290
     0
174
     0
 93
        1
 44
0.0
173
     0
291
     1
 45
0.0
1001
ACAD
1000
AcDbSavedByObjectVersion
1070
     0
  0
VISUALSTYLE
  5
1170
102
{ACAD_XDICTIONARY
360
186D
102
}
102
{ACAD_REACTORS
330
1161
102
}
330
1161
100
AcDbVisualStyle
  2
Facepattern
 70
    15
 71
     2
 72
     2
 73
     0
 90
        0
 40
-0.6
 41
-30.0
 62
     5
 63
     7
421
 16777215
 74
     1
 91
        4
 64
     7
 65
   257
 75
     1
175
     1
 42
1.0
 92
        8
 66
     7
 43
1.0
 76
     1
 77
     6
 78
     2
 67
     7
 79
     5
170
     0
171
     0
290
     0
174
     0
 93
        1
 44
0.0
173
     0
291
     1
 45
0.0
1001
ACAD
1000
AcDbSavedByObjectVersion
1070
     0
  0
VISUALSTYLE
  5
1162
102
{ACAD_XDICTIONARY
360
1851
102
}
102
{ACAD_REACTORS
330
1161
102
}
330
1161
100
AcDbVisualStyle
  2
Flat
 70
     0
 71
     2
 72
     1
 73
     1
 90
        2
 40
-0.6
 41
30.0
 62
     5
 63
     7
421
 16777215
 74
     0
 91
        0
 64
     7
 65
   257
 75
     1
175
     1
 42
1.0
 92
        8
 66
     7
 43
1.0
 76
     1
 77
     6
 78
     2
 67
     7
 79
     5
170
     0
171
     0
290
     0
174
     0
 93
       13
 44
0.0
173
     0
291
     1
 45
0.0
1001
ACAD
1000
AcDbSavedByObjectVersion
1070
     0
  0
VISUALSTYLE
  5
1163
102
{ACAD_XDICTIONARY
360
1853
102
}
102
{ACAD_REACTORS
330
1161
102
}
330
1161
100
AcDbVisualStyle
  2
FlatWithEdges
 70
     1
 71
     2
 72
     1
 73
     1
 90
        2
 40
-0.6
 41
30.0
 62
     5
 63
     7
421
 16777215
 74
     1
 91
        0
 64
     7
 65
   257
 75
     1
175
     1
 42
1.0
 92
        0
 66
   257
 43
1.0
 76
     1
 77
     6
 78
     2
 67
     7
 79
     5
170
     0
171
     0
290
     0
174
     0
 93
       13
 44
0.0
173
     0
291
     1
 45
0.0
1001
ACAD
1000
AcDbSavedByObjectVersion
1070
     0
  0
VISUALSTYLE
  5
1164
102
{ACAD_XDICTIONARY
360
1855
102
}
102
{ACAD_REACTORS
330
1161
102
}
330
1161
100
AcDbVisualStyle
  2
Gouraud
 70
     2
 71
     2
 72
     2
 73
     1
 90
        2
 40
-0.6
 41
30.0
 62
     5
 63
     7
421
 16777215
 74
     0
 91
        0
 64
     7
 65
   257
 75
     1
175
     1
 42
1.0
 92
        0
 66
     7
 43
1.0
 76
     1
 77
     6
 78
     2
 67
     7
 79
     5
170
     0
171
     0
290
     0
174
     0
 93
       13
 44
0.0
173
     0
291
     1
 45
0.0
1001
ACAD
1000
AcDbSavedByObjectVersion
1070
     0
  0
VISUALSTYLE
  5
1165
102
{ACAD_XDICTIONARY
360
1857
102
}
102
{ACAD_REACTORS
330
1161
102
}
330
1161
100
AcDbVisualStyle
  2
GouraudWithEdges
 70
     3
 71
     2
 72
     2
 73
     1
 90
        2
 40
-0.6
 41
30.0
 62
     5
 63
     7
421
 16777215
 74
     1
 91
        0
 64
     7
 65
   257
 75
     1
175
     1
 42
1.0
 92
        0
 66
   257
 43
1.0
 76
     1
 77
     6
 78
     2
 67
     7
 79
     5
170
     0
171
     0
290
     0
174
     0
 93
       13
 44
0.0
173
     0
291
     1
 45
0.0
1001
ACAD
1000
AcDbSavedByObjectVersion
1070
     0
  0
VISUALSTYLE
  5
1169
102
{ACAD_XDICTIONARY
360
185F
102
}
102
{ACAD_REACTORS
330
1161
102
}
330
1161
100
AcDbVisualStyle
  2
Hidden
 70
     6
 71
     1
 72
     2
 73
     2
 90
        0
 40
-0.6
 41
-30.0
 62
     5
 63
     7
421
 16777215
 74
     2
 91
        2
 64
     7
 65
   257
 75
     2
175
     1
 42
40.0
 92
        0
 66
   257
 43
1.0
 76
     1
 77
     6
 78
     2
 67
     7
 79
     3
170
     0
171
     0
290
     0
174
     0
 93
        1
 44
0.0
173
     0
291
     0
 45
0.0
1001
ACAD
1000
AcDbSavedByObjectVersion
1070
     0
  0
VISUALSTYLE
  5
1177
102
{ACAD_XDICTIONARY
360
187B
102
}
102
{ACAD_REACTORS
330
1161
102
}
330
1161
100
AcDbVisualStyle
  2
JitterOff
 70
    20
 71
     2
 72
     2
 73
     0
 90
        0
 40
-0.6
 41
-30.0
 62
     5
 63
     7
421
 16777215
 74
     1
 91
        4
 64
     7
 65
   257
 75
     1
175
     1
 42
1.0
 92
       10
 66
     7
 43
1.0
 76
     1
 77
     6
 78
     2
 67
     7
 79
     5
170
     0
171
     0
290
     0
174
     0
 93
        1
 44
0.0
173
     0
291
     1
 45
0.0
1001
ACAD
1000
AcDbSavedByObjectVersion
1070
     0
  0
VISUALSTYLE
  5
116F
102
{ACAD_XDICTIONARY
360
186B
102
}
102
{ACAD_REACTORS
330
1161
102
}
330
1161
100
AcDbVisualStyle
  2
Linepattern
 70
    14
 71
     2
 72
     2
 73
     0
 90
        0
 40
-0.6
 41
-30.0
 62
     5
 63
     7
421
 16777215
 74
     1
 91
        4
 64
     7
 65
   257
 75
     7
175
     7
 42
1.0
 92
        8
 66
     7
 43
1.0
 76
     1
 77
     6
 78
     2
 67
     7
 79
     5
170
     0
171
     0
290
     0
174
     0
 93
        1
 44
0.0
173
     0
291
     1
 45
0.0
1001
ACAD
1000
AcDbSavedByObjectVersion
1070
     0
  0
VISUALSTYLE
  5
1178
102
{ACAD_XDICTIONARY
360
187D
102
}
102
{ACAD_REACTORS
330
1161
102
}
330
1161
100
AcDbVisualStyle
  2
OverhangOff
 70
    21
 71
     2
 72
     2
 73
     0
 90
        0
 40
-0.6
 41
-30.0
 62
     5
 63
     7
421
 16777215
 74
     1
 91
        4
 64
     7
 65
   257
 75
     1
175
     1
 42
1.0
 92
        9
 66
     7
 43
1.0
 76
     1
 77
     6
 78
     2
 67
     7
 79
     5
170
     0
171
     0
290
     0
174
     0
 93
        1
 44
0.0
173
     0
291
     1
 45
0.0
1001
ACAD
1000
AcDbSavedByObjectVersion
1070
     0
  0
VISUALSTYLE
  5
116B
102
{ACAD_XDICTIONARY
360
1863
102
}
102
{ACAD_REACTORS
330
1161
102
}
330
1161
100
AcDbVisualStyle
  2
Realistic
 70
     8
 71
     2
 72
     2
 73
     0
 90
        2
 40
-0.6
 41
30.0
 62
     5
 63
     7
421
 16777215
 74
     0
 91
        0
 64
     7
 65
   257
 75
     1
175
     1
 42
1.0
 92
        8
 66
   257
 43
1.0
 76
     1
 77
     6
 78
     2
 67
     7
 79
     3
170
     0
171
     0
290
     0
174
     0
 93
       13
 44
0.0
173
     0
291
     0
 45
0.0
1001
ACAD
1000
AcDbSavedByObjectVersion
1070
     0
  0
VISUALSTYLE
  5
1176
102
{ACAD_XDICTIONARY
360
1879
102
}
102
{ACAD_REACTORS
330
1161
102
}
330
1161
100
AcDbVisualStyle
  2
Shaded
 70
    27
 71
     2
 72
     2
 73
     1
 90
        2
 40
-0.6
 41
30.0
 62
     5
 63
     7
421
 16777215
 74
     0
 91
        4
 64
     7
 65
   257
 75
     1
175
     1
 42
1.0
 92
        8
 66
   257
 43
1.0
 76
     1
 77
     6
 78
     2
 67
     8
425
  7895160
 79
     3
170
     0
171
     0
290
     0
174
     0
 93
        5
 44
0.0
173
     0
291
     0
 45
0.0
1001
ACAD
1000
AcDbSavedByObjectVersion
1070
     0
  0
VISUALSTYLE
  5
1175
102
{ACAD_XDICTIONARY
360
1877
102
}
102
{ACAD_REACTORS
330
1161
102
}
330
1161
100
AcDbVisualStyle
  2
Shaded with edges
 70
    26
 71
     2
 72
     2
 73
     1
 90
        2
 40
-0.6
 41
30.0
 62
     5
 63
     7
421
 16777215
 74
     1
 91
       10
 64
     7
 65
   257
 75
     2
175
     1
 42
1.0
 92
        8
 66
   257
 43
1.0
 76
     1
 77
     6
 78
     2
 67
     7
 79
     3
170
     0
171
     0
290
     0
174
     0
 93
        5
 44
0.0
173
     0
291
     0
 45
0.0
1001
ACAD
1000
AcDbSavedByObjectVersion
1070
     0
  0
VISUALSTYLE
  5
1172
102
{ACAD_XDICTIONARY
360
1871
102
}
102
{ACAD_REACTORS
330
1161
102
}
330
1161
100
AcDbVisualStyle
  2
Shades of Gray
 70
    23
 71
     2
 72
     2
 73
     3
 90
        0
 40
-0.6
 41
-30.0
 62
     5
 63
     7
421
 16777215
 74
     2
 91
        2
 64
     7
 65
     7
 75
     1
175
     1
 42
40.0
 92
        8
 66
     7
 43
1.0
 76
     1
 77
     6
 78
     2
 67
     7
 79
     3
170
     0
171
     0
290
     0
174
     0
 93
        1
 44
0.0
173
     0
291
     0
 45
0.0
1001
ACAD
1000
AcDbSavedByObjectVersion
1070
     0
  0
VISUALSTYLE
  5
1173
102
{ACAD_XDICTIONARY
360
1873
102
}
102
{ACAD_REACTORS
330
1161
102
}
330
1161
100
AcDbVisualStyle
  2
Sketchy
 70
    24
 71
     1
 72
     2
 73
     2
 90
        0
 40
-0.6
 41
-30.0
 62
     5
 63
     7
421
 16777215
 74
     2
 91
        2
 64
     7
 65
     7
 75
     1
175
     1
 42
40.0
 92
       11
 66
     7
 43
1.0
 76
     1
 77
     6
 78
     2
 67
     7
 79
     6
170
     0
171
     0
290
     0
174
     0
 93
        1
 44
0.0
173
     0
291
     0
 45
0.0
1001
ACAD
1000
AcDbSavedByObjectVersion
1070
     0
  0
VISUALSTYLE
  5
116E
102
{ACAD_XDICTIONARY
360
1869
102
}
102
{ACAD_REACTORS
330
1161
102
}
330
1161
100
AcDbVisualStyle
  2
Thicken
 70
    13
 71
     2
 72
     2
 73
     0
 90
        0
 40
-0.6
 41
-30.0
 62
     5
 63
     7
421
 16777215
 74
     1
 91
        4
 64
     7
 65
   257
 75
     1
175
     1
 42
1.0
 92
       12
 66
     7
 43
1.0
 76
     1
 77
     6
 78
     2
 67
     7
 79
     5
170
     0
171
     0
290
     0
174
     0
 93
        1
 44
0.0
173
     0
291
     1
 45
0.0
1001
ACAD
1000
AcDbSavedByObjectVersion
1070
     0
  0
VISUALSTYLE
  5
1168
102
{ACAD_XDICTIONARY
360
185D
102
}
102
{ACAD_REACTORS
330
1161
102
}
330
1161
100
AcDbVisualStyle
  2
Wireframe
 70
     5
 71
     0
 72
     2
 73
     0
 90
        0
 40
-0.6
 41
-30.0
 62
     5
 63
     7
421
 16777215
 74
     1
 91
        4
 64
     7
 65
   257
 75
     1
175
     1
 42
1.0
 92
        0
 66
   257
 43
1.0
 76
     1
 77
     6
 78
     2
 67
     7
 79
     3
170
     0
171
     0
290
     0
174
     0
 93
        1
 44
0.0
173
     0
291
     0
 45
0.0
1001
ACAD
1000
AcDbSavedByObjectVersion
1070
     0
  0
VISUALSTYLE
  5
1174
102
{ACAD_XDICTIONARY
360
1875
102
}
102
{ACAD_REACTORS
330
1161
102
}
330
1161
100
AcDbVisualStyle
  2
X-Ray
 70
    25
 71
     2
 72
     2
 73
     1
 90
        1
 40
0.5
 41
-30.0
 62
     5
 63
     7
421
 16777215
 74
     1
 91
        0
 64
     7
 65
   257
 75
     1
175
     1
 42
1.0
 92
        8
 66
     7
 43
1.0
 76
     1
 77
     6
 78
     2
 67
     7
 79
     3
170
     0
171
     0
290
     0
174
     0
 93
       13
 44
0.0
173
     0
291
     0
 45
0.0
1001
ACAD
1000
AcDbSavedByObjectVersion
1070
     0
  0
DICTIONARYVAR
  5
1532
102
{ACAD_REACTORS
330
EA
102
}
330
EA
100
DictionaryVariables
280
     0
  1
1:1
  0
DICTIONARYVAR
  5
152F
102
{ACAD_REACTORS
330
EA
102
}
330
EA
100
DictionaryVariables
280
     0
  1
STANDARD
  0
DICTIONARYVAR
  5
152E
102
{ACAD_REACTORS
330
EA
102
}
330
EA
100
DictionaryVariables
280
     0
  1
STANDARD
  0
DICTIONARYVAR
  5
1530
102
{ACAD_REACTORS
330
EA
102
}
330
EA
100
DictionaryVariables
280
     0
  1
Imperial24
  0
DICTIONARYVAR
  5
1531
102
{ACAD_REACTORS
330
EA
102
}
330
EA
100
DictionaryVariables
280
     0
  1
Imperial24
  0
DICTIONARYVAR
  5
EB
102
{ACAD_REACTORS
330
EA
102
}
330
EA
100
DictionaryVariables
280
     0
  1
1
  0
DICTIONARYVAR
  5
EC
102
{ACAD_REACTORS
330
EA
102
}
330
EA
100
DictionaryVariables
280
     0
  1

  0
DICTIONARY
  5
14F5
330
21
100
AcDbDictionary
280
     1
281
     1
  3
ADSK_XREC_LAYOUTTHUMBNAIL
360
14F6
  0
DICTIONARY
  5
1152
330
1151
100
AcDbDictionary
280
     1
281
     1
  3
ACAD_XREC_ROUNDTRIP
360
184F
  3
BUMPTILE
360
1154
  3
DIFFUSETILE
360
1153
  3
OPACITYTILE
360
1157
  3
REFLECTIONTILE
360
1156
  3
REFRACTIONTILE
360
1158
  3
SPECULARTILE
360
1155
  0
DICTIONARY
  5
114A
330
1149
100
AcDbDictionary
280
     1
281
     1
  3
ACAD_XREC_ROUNDTRIP
360
184E
  3
BUMPTILE
360
114C
  3
DIFFUSETILE
360
114B
  3
OPACITYTILE
360
114F
  3
REFLECTIONTILE
360
114E
  3
REFRACTIONTILE
360
1150
  3
SPECULARTILE
360
114D
  0
DICTIONARY
  5
115A
330
1159
100
AcDbDictionary
280
     1
281
     1
  3
ACAD_XREC_ROUNDTRIP
360
1850
  3
BUMPTILE
360
115C
  3
DIFFUSETILE
360
115B
  3
OPACITYTILE
360
115F
  3
REFLECTIONTILE
360
115E
  3
REFRACTIONTILE
360
1160
  3
SPECULARTILE
360
115D
  0
DICTIONARY
  5
1882
330
118F
100
AcDbDictionary
280
     1
281
     1
  3
ACAD_XREC_ROUNDTRIP
360
1883
  0
DICTIONARY
  5
14E8
330
117B
100
AcDbDictionary
280
     1
281
     1
  3
ACAD_ROUNDTRIP_2008_TABLESTYLE_CELLSTYLEMAP
360
184C
  3
ACAD_XREC_ROUNDTRIP
360
1881
  0
DICTIONARY
  5
185B
330
1167
100
AcDbDictionary
280
     1
281
     1
  3
ACAD_XREC_ROUNDTRIP
360
185C
  0
DICTIONARY
  5
1859
330
1166
100
AcDbDictionary
280
     1
281
     1
  3
ACAD_XREC_ROUNDTRIP
360
185A
  0
DICTIONARY
  5
1867
330
116D
100
AcDbDictionary
280
     1
281
     1
  3
ACAD_XREC_ROUNDTRIP
360
1868
  0
DICTIONARY
  5
186F
330
1171
100
AcDbDictionary
280
     1
281
     1
  3
ACAD_XREC_ROUNDTRIP
360
1870
  0
DICTIONARY
  5
1861
330
116A
100
AcDbDictionary
280
     1
281
     1
  3
ACAD_XREC_ROUNDTRIP
360
1862
  0
DICTIONARY
  5
1865
330
116C
100
AcDbDictionary
280
     1
281
     1
  3
ACAD_XREC_ROUNDTRIP
360
1866
  0
DICTIONARY
  5
187F
330
1179
100
AcDbDictionary
280
     1
281
     1
  3
ACAD_XREC_ROUNDTRIP
360
1880
  0
DICTIONARY
  5
186D
330
1170
100
AcDbDictionary
280
     1
281
     1
  3
ACAD_XREC_ROUNDTRIP
360
186E
  0
DICTIONARY
  5
1851
330
1162
100
AcDbDictionary
280
     1
281
     1
  3
ACAD_XREC_ROUNDTRIP
360
1852
  0
DICTIONARY
  5
1853
330
1163
100
AcDbDictionary
280
     1
281
     1
  3
ACAD_XREC_ROUNDTRIP
360
1854
  0
DICTIONARY
  5
1855
330
1164
100
AcDbDictionary
280
     1
281
     1
  3
ACAD_XREC_ROUNDTRIP
360
1856
  0
DICTIONARY
  5
1857
330
1165
100
AcDbDictionary
280
     1
281
     1
  3
ACAD_XREC_ROUNDTRIP
360
1858
  0
DICTIONARY
  5
185F
330
1169
100
AcDbDictionary
280
     1
281
     1
  3
ACAD_XREC_ROUNDTRIP
360
1860
  0
DICTIONARY
  5
187B
330
1177
100
AcDbDictionary
280
     1
281
     1
  3
ACAD_XREC_ROUNDTRIP
360
187C
  0
DICTIONARY
  5
186B
330
116F
100
AcDbDictionary
280
     1
281
     1
  3
ACAD_XREC_ROUNDTRIP
360
186C
  0
DICTIONARY
  5
187D
330
1178
100
AcDbDictionary
280
     1
281
     1
  3
ACAD_XREC_ROUNDTRIP
360
187E
  0
DICTIONARY
  5
1863
330
116B
100
AcDbDictionary
280
     1
281
     1
  3
ACAD_XREC_ROUNDTRIP
360
1864
  0
DICTIONARY
  5
1879
330
1176
100
AcDbDictionary
280
     1
281
     1
  3
ACAD_XREC_ROUNDTRIP
360
187A
  0
DICTIONARY
  5
1877
330
1175
100
AcDbDictionary
280
     1
281
     1
  3
ACAD_XREC_ROUNDTRIP
360
1878
  0
DICTIONARY
  5
1871
330
1172
100
AcDbDictionary
280
     1
281
     1
  3
ACAD_XREC_ROUNDTRIP
360
1872
  0
DICTIONARY
  5
1873
330
1173
100
AcDbDictionary
280
     1
281
     1
  3
ACAD_XREC_ROUNDTRIP
360
1874
  0
DICTIONARY
  5
1869
330
116E
100
AcDbDictionary
280
     1
281
     1
  3
ACAD_XREC_ROUNDTRIP
360
186A
  0
DICTIONARY
  5
185D
330
1168
100
AcDbDictionary
280
     1
281
     1
  3
ACAD_XREC_ROUNDTRIP
360
185E
  0
DICTIONARY
  5
1875
330
1174
100
AcDbDictionary
280
     1
281
     1
  3
ACAD_XREC_ROUNDTRIP
360
1876
  0
XRECORD
  5
14F6
102
{ACAD_REACTORS
330
14F5
102
}
330
14F5
100
AcDbXrecord
280
     1
310
280000000001000096000000010008000000000000960000010000000100000000010000000000000000000000000040C8C8C8FF000000FF000000FF000000FF000000FF000000FF000000FF000000FF000000FF330000FF660000FF990000FFCC0000FFFF0000FF003300FF333300FF663300FF993300FFCC3300FFFF3300
310
FF006600FF336600FF666600FF996600FFCC6600FFFF6600FF009900FF339900FF669900FF999900FFCC9900FFFF9900FF00CC00FF33CC00FF66CC00FF99CC00FFCCCC00FFFFCC00FF00FF00FF33FF00FF66FF00FF99FF00FFCCFF00FFFFFF00FF000033FF330033FF660033FF990033FFCC0033FFFF0033FF003333FF3333
310
33FF663333FF993333FFCC3333FFFF3333FF006633FF336633FF666633FF996633FFCC6633FFFF6633FF009933FF339933FF669933FF999933FFCC9933FFFF9933FF00CC33FF33CC33FF66CC33FF99CC33FFCCCC33FFFFCC33FF00FF33FF33FF33FF66FF33FF99FF33FFCCFF33FFFFFF33FF000066FF330066FF660066FF99
310
0066FFCC0066FFFF0066FF003366FF333366FF663366FF993366FFCC3366FFFF3366FF006666FF336666FF666666FF996666FFCC6666FFFF6666FF009966FF339966FF669966FF999966FFCC9966FFFF9966FF00CC66FF33CC66FF66CC66FF99CC66FFCCCC66FFFFCC66FF00FF66FF33FF66FF66FF66FF99FF66FFCCFF66FF
310
FFFF66FF000099FF330099FF660099FF990099FFCC0099FFFF0099FF003399FF333399FF663399FF993399FFCC3399FFFF3399FF006699FF336699FF666699FF996699FFCC6699FFFF6699FF009999FF339999FF669999FF999999FFCC9999FFFF9999FF00CC99FF33CC99FF66CC99FF99CC99FFCCCC99FFFFCC99FF00FF99
310
FF33FF99FF66FF99FF99FF99FFCCFF99FFFFFF99FF0000CCFF3300CCFF6600CCFF9900CCFFCC00CCFFFF00CCFF0033CCFF3333CCFF6633CCFF9933CCFFCC33CCFFFF33CCFF0066CCFF3366CCFF6666CCFF9966CCFFCC66CCFFFF66CCFF0099CCFF3399CCFF6699CCFF9999CCFFCC99CCFFFF99CCFF00CCCCFF33CCCCFF66CC
310
CCFF99CCCCFFCCCCCCFFFFCCCCFF00FFCCFF33FFCCFF66FFCCFF99FFCCFFCCFFCCFFFFFFCCFF0000FFFF3300FFFF6600FFFF9900FFFFCC00FFFFFF00FFFF0033FFFF3333FFFF6633FFFF9933FFFFCC33FFFFFF33FFFF0066FFFF3366FFFF6666FFFF9966FFFFCC66FFFFFF66FFFF0099FFFF3399FFFF6699FFFF9999FFFFCC
310
99FFFFFF99FFFF00CCFFFF33CCFFFF66CCFFFF99CCFFFFCCCCFFFFFFCCFFFF00FFFFFF33FFFFFF66FFFFFF99FFFFFFCCFFFFFFFFFFFFFF000000FF0D0D0DFF1A1A1AFF282828FF353535FF434343FF505050FF5D5D5DFF6B6B6BFF787878FF868686FF939393FFA1A1A1FFAEAEAEFFBBBBBBFFC9C9C9FFD6D6D6FFE4E4E4FF
310
F1F1F1FFFFFFFFFF000000FF000000FF000000FF000000FF000000FF000000FF000000FF000000FF000000FF000000FF00000000000000000000000000000000000000000000000000000000000000000000000000000000000000000000000000000000000000000000000000000000000000000000000000000000000000
310
00000000000000000000000000000000000000000000000000000000000000000000000000000000000000000000000000000000000000000000000000000000000000000000000000000000000000000000000000000000000000000000000000000000000000000000000000000000000000000000000000000000000000
310
0000000000000000000000000000000000000000000000000000000000000000000000000000000000000000000000000000000000000000000000000000000000000000000000000000000000000000000000000000000000000000000000000000000000000000000000000000000000000000000000000000000000DCDC
310
DCDCDCDCDCDCDCDCDCDCDCDCDCDCDCDCDCDCDCDCDCDCDCDCDCDCDCDCDCDCDCDCDCDCDCDCDCDCDCDCDCDCDCDCDCDCDCDCDCDCDCDCDCDCDCDCDCDCDCDCDCDCDCDCDCDCDCDCDCDCDCDCDCDCDCDCDCDCDCDCDCDCDCDCDCDCDCDCDCDCDCDCDCDCDCDCDCDCDCDCDCDCDCDC0000000000000000000000000000000000000000000000
310
00000000000000000000000000000000000000000000000000000000000000000000000000000000000000000000000000000000000000000000000000000000000000000000000000000000000000000000000000000000000000000000000000000000000000000000000000000000000000000000000000000000000000
310
DC0000000000000000000000000000000000000000000000000000000000000000000000000000000000000000000000000000000000000000000000000000000000000000000000000000000000000000000000000000000000000000000000000000000000000000DC000000000000000000000000000000000000000000
310
00000000000000000000000000000000000000000000000000000000000000000000000000000000000000000000000000000000000000000000000000000000000000000000000000000000000000000000000000000000000000000000000000000000000000000000000000000000000000000000000000000000000000
310
0000DC000000000000282828282828282828282828282828282828282828282828282828282828282828282828282828282828282828282828282828282828282828282828282828282828282828282828282828282828282828282828282828282828282828282828F5F5DC00000000000000000000000000000000000000
310
00000000000000000000000000000000000000000000000000000000000000000000000000000000000000000000000000000000000000000000000000000000000000000000000000000000000000000000000000000000000000000000000000000000000000000000000000000000000000000000000000000000000000
310
00000000DC00000000000028F5F500BE0000000000000000000000000000BE00000000BE0000000028000000000000000000000000000000000000000000DCDCDCDCDCDCDCDCDCDCDCDCDCDCDCDCDCDCDCDCDCDCDCDCDCDCDCDCDCDCDCDCDCDCDCDCDCDCDCDCDCDCDCDC00F5F5DC0000000000000000000000000000000000
310
00000000000000000000000000000000000000000000000000000000000000000000000000000000000000000000000000000000000000000000000000000000000000000000000000000000000000000000000000000000000000000000000000000000000000000000000000000000000000000000000000000000000000
310
000000000000DC00000000000028F5F500BE00000000F5F5F5F5F5F500000000BE00F5F500BEF5F5F5F52800002828282828282800280000282828282828000028000000000000000000000000000000000000000000000000000000000000000000000000000000000000000028F5DC000000000000000000000000000000
310
00000000000000000000000000000000000000000000000000000000000000000000000000000000000000000000000000000000000000000000000000000000000000000000000000000000000000000000000000000000000000000000000000000000000000000000000000000000000000000000000000000000000000
310
0000000000000000DC0000000000002800F500BE00000000F5F5F5F5F5F500000000BEF5F5F500BEF5F5F5F52800002828282828282828280000282828282828280028000000000000000000000000000000000000000000000000000000000000000000000000000000000000000028F5DC00000000000000000000000000
310
00000000000000000000000000000000000000000000000000000000000000000000000000000000000000000000000000000000000000000000000000000000000000000000000000000000000000000000000000000000000000000000000000000000000000000000000000000000000000000000000000000000000000
310
00000000000000000000DC0000000000002800F500BE0000000000000000000000000000BE00000000BE0000000028000028282828000028282828282828280000282800280000000000000000000000000000000000000000000000000000000000000000000000000000000000000000F5F5DC0000000000000000000000
310
00000000000000000000000000000000000000000000000000000000000000000000000000000000000000000000000000000000000000000000000000000000000000000000000000000000000000000000000000000000000000000000000000000000000000000000000000000000000000000000000000000000000000
310
000000000000000000000000DC00000000000028282828BE2828282828282828282828282828BE28282828BE282828282800002828282800002828280000282828000028280028F5F5F5F5F5F5F5F5F5F500000000000000000000000000000000000000000000000000000000000000000000F5F5DC000000000000000000
310
00000000000000000000000000000000000000000000000000000000000000000000000000000000000000000000000000000000000000000000000000000000000000000000000000000000000000000000000000000000000000000000000000000000000000000000000000000000000000000000000000000000000000
310
0000000000000000000000000000DC00000000000028000000BE0000000000000000000000000000BE00000000BE000000002800002828002828282800282828280028282828000028F5F5F5F5F5F5F5F5F5F500000000000000000000000000000000000000000000000000000000000000000000F5F5DC00000000000000
310
00000000000000000000000000000000000000000000000000000000000000000000000000000000000000000000000000000000000000000000000000000000000000000000000000000000000000000000000000000000000000000000000000000000000000000000000000000000000000000000000000000000000000
310
00000000000000000000000000000000DC00000000000028DCDCDCDCDCDCDCDCDCDCDCDCDCDCDCDCDCDCDCDCDCDCDCDCDCDCDCDC2828282828282828282828282828282828282828282828282828282828282828282828282828282828282828282828282828282828282828282828282828282828282828F5DC0000000000
310
00000000000000000000000000000000000000000000000000000000000000000000000000000000000000000000000000000000000000000000000000000000000000000000000000000000000000000000000000000000000000000000000000000000000000000000000000000000000000000000000000000000000000
310
000000000000000000000000000000000000DC00000000000028000000BE0000000000000000000000000000BE00000000BE0000000028F5F5F5F5BE00F5F5F5F5BE00000000F5F50000000028F5F5F5F5F5F5F5F5F5F50000000000000000000000000000280000000000000000000000000000000000000028F5DC000000
310
00000000000000000000000000000000000000000000000000000000000000000000000000000000000000000000000000000000000000000000000000000000000000000000000000000000000000000000000000000000000000000000000000000000000000000000000000000000000000000000000000000000000000
310
0000000000000000000000000000000000000000DC00000000000028000000BE0000000000000000000000000000BE00000000BE0000000028F5F5F5F5BE00F5F5F500BE00000000F5F50000000028F5F5F5F5F5F5F5F5F5F50000000000000000000000000000280000000000000000000000000000000000000028F5F500
310
00000000000000000000000000000000000000000000000000000000000000000000000000000000000000000000000000000000000000000000000000000000000000000000000000000000000000000000000000000000000000000000000000000000000000000000000000000000000000000000000000000000000000
310
00000000000000000000000000000000000000000000DC00000000000028DCDCDCDCDCDCDCDCDCDCDCDCDCDCDCDCDCDCDCDCDCDCDCDCDCDCDCDCDCDCDCDCDCDCDCDCDCDCDCDCDCDCDCDCDCDCDCDCDCDCDCF5F5F5DCF5F5F5F5F5DCF5F5F5F5F5F5F5F5F5DCDCDCDC002800F5F5F5F5F500F5F5F5F5F50000000000000028F5
310
F5000000000000000000000000000000000000000000000000000000000000000000000000000000000000000000000000000000000000000000000000000000000000000000000000000000000000000000000000000000000000000000000000000000000000000000000000000000000000000000000000000000000000
310
000000000000000000000000000000000000000000000000DC00000000000028000000BE0000000000000000000000000000BE00000000BE0000000028F5F5F5F5BE0000000000BE0000000000000000000028F5F5F5F5F5F5F5F5F500F5F5F5F5F5F5F5F5F5000000000028F5F5F5F5F5F500F5F5F5F5F500000000000000
310
F5F5DC00000000000000000000000000000000000000000000000000000000000000000000000000000000000000000000000000000000000000000000000000000000000000000000000000000000000000000000000000000000000000000000000000000000000000000000000000000000000000000000000000000000
310
0000000000000000000000000000000000000000000000000000DC00000000000028DCDCDCDCDCDCDCDCDCDCDCDCDCDCDCDCDCDCDCDCDCDCDCDCDCDCDCDCDCDCDCDCDCDCDCDCDCDCDCDCDCDCDCDCDCDCDCDCDCDCDCF5F5F5DCF5DCF5F5DCDCF5F5F5F5F5F5F5F5F5DCDCDCDC00BEBEBEBEBEF5F5BEF5BEBEF5BEBEBEBEBEBE
310
BEBEBEF5DC0000000000000000000000000000000000000000000000000000000000000000000000000000000000000000000000000000000000000000000000000000000000000000000000000000000000000000000000000000000000000000000000000000000000000000000000000000000000000000000000000000
310
00000000000000000000000000000000000000000000000000000000DC00000000000028000000BE0000000000000000000000000000BE00000000BE0000000028F5F5F500BE00F5F5F5F5BE000000F5F5F5F5000000280000000000000000000000000000000000000000000000002800000000BEBEBEBEBEBEBEBEBEBE00
310
0000000028F5DC000000000000000000000000000000000000000000000000000000000000000000000000000000000000000000000000000000000000000000000000000000000000000000000000000000000000000000000000000000000000000000000000000000000000000000000000000000000000000000000000
310
000000000000000000000000000000000000000000000000000000000000DC00000000000028000000BE0000000000000000000000000000BE00000000BE0000000028F5F5F500BE00F5F5F5F5BE000000F5F5F5F5000000280000000000000000000000000000000000000000000000002800000000BEBEBEBEBEBEBEBEBE
310
BE0000000000F5F5DC00000000000000000000000000000000000000000000000000000000000000000000000000000000000000000000000000000000000000000000000000000000000000000000000000000000000000000000000000000000000000000000000000000000000000000000000000000000000000000000
310
0000000000000000000000000000000000000000000000000000000000000000DC00000000000028DCDCDCDCDCDCDCDCDCDCDCDCDCDCDCDCDCDCDCDCDCDCDCDCDCDCDCDCDCDCDCDCDCDCDCDCDCDCDCDCDCDCDCDCDCDCDCDCDCDCDCF5F5F5F5F5F5F5F5F5F5F5F5F5F5F5F5DCDCDCDCDCDCDC002800000000BEBEBEBEBEBEBE
310
BEBEBE0000000000F5F5DC0000000000000000000000000000000000000000000000000000000000000000000000000000000000000000000000000000000000000000000000000000000000000000000000000000000000000000000000000000000000000000000000000000000000000000000000000000000000000000
310
00000000000000000000000000000000000000000000000000000000000000000000DC00000000000028000000BE0000000000000000000000000000BE00000000BE0000000028F5F5F5F5BE00F5F5F500BE000000F5F5F5F500000028F5F5F5F5F5F5F5F5F5F5F5F5F5F5F5F5000000000000000028F5F5F5F5F5F5F5F5F5
310
0000000000000000000028F5DC000000000000000000000000000000000000000000000000000000000000000000000000000000000000000000000000000000000000000000000000000000000000000000000000000000000000000000000000000000000000000000000000000000000000000000000000000000000000
310
000000000000000000000000000000000000000000000000000000000000000000000000DC00000000000028DCDCDCDCDCDCDCDCDCDCDCDCDCDCDCDCDCDCDCDCDCDCDCDCDCDCDCDC282828282828282828282828282828F52828282828282828F5F5F5F5F5282828F5F5282828282828282828282828282828282828282828
310
28282828282828282828282828F5DC00000000000000000000000000000000000000000000000000000000000000000000000000000000000000000000000000000000000000000000000000000000000000000000000000000000000000000000000000000000000000000000000000000000000000000000000000000000
310
0000000000000000000000000000000000000000000000000000000000000000000000000000DC00000000000028000000BE0000000000000000000000000000BE00000000BE000000002800000000000000000000BE0000000000000000000028DCDCDCDCDCDCDCDCDCDCDCDCDCDCDCDCDCDCDCDCDCDCDC0028DCDCDCDCDC
310
DCDCDCDCDCDCDCDCDCDCDCDCDC0028F5DC0000000000000000000000000000000000000000000000000000000000000000000000000000000000000000000000000000000000000000000000000000000000000000000000000000000000000000000000000000000000000000000000000000000000000000000000000000
310
00000000000000000000000000000000000000000000000000000000000000000000000000000000DC00000000000028000000BE0000000000000000000000000000BE00000000BE0000000028000000BEBEBEBE000000BE0000000000000000000028BEBEBEBEBEBEBEBEBEBEBEBEBEBEBEBE00BEBEBEBEBEBE0028000000
310
BEBEBEBEBEBEBEBEBEBEBEBE00000000F5F5DC000000000000000000000000000000000000000000000000000000000000000000000000000000000000000000000000000000000000000000000000000000000000000000000000000000000000000000000000000000000000000000000000000000000000000000000000
310
000000000000000000000000000000000000000000000000000000000000000000000000000000000000DC00000000000028DCDCDCDCDCDCDCDCDCDCDCDCDCDCDCDCDCDCDCDCDCDCDCDCDCDCDCDC28000000BEBE00BE000000BEF5F5F5F5F5F5F5F5F5F528BEBEBEBEBEBEBEBEBEBEBEBEBEBEBEBE00BEBEBEBEBEBE002800
310
000000BEBEBEBE00BEBEBEBEBEBE00000000F5F5DC00000000000000000000000000000000000000000000000000000000000000000000000000000000000000000000000000000000000000000000000000000000000000000000000000000000000000000000000000000000000000000000000000000000000000000000
310
0000000000000000000000000000000000000000000000000000000000000000000000000000000000000000DC00000000000028000000BE0000000000000000000000000000BE00000000BE0000000028000000BEBEBEBE000000BEF5F5F5F5F5F5F5F5F5F528BEBE00BE0000BE00BE00BE00BE00BEBE00BEBEBEBEBEBE00
310
28000000BEBEBEBEBEBEBEBEBEBEBEBE00000000F5F5DC0000000000000000000000000000000000000000000000000000000000000000000000000000000000000000000000000000000000000000000000000000000000000000000000000000000000000000000000000000000000000000000000000000000000000000
310
00000000000000000000000000000000000000000000000000000000000000000000000000000000000000000000DC00000000000028DCDCDCDCDCDCDCDCDCDCDCDCDCDCDCDCDCDCDCDCDCDCDCDCDCDCDCDC2800000000000000000000BE000000000000000000002800000000000000000000000000000000000000000000
310
00002800000000000000000000000000000000000000F5F5DC000000000000000000000000000000000000000000000000000000000000000000000000000000000000000000000000000000000000000000000000000000000000000000000000000000000000000000000000000000000000000000000000000000000000
310
000000000000000000000000000000000000000000000000000000000000000000000000000000000000000000000000DC00000000000028000000BE0000000000000000000000000000BE00000000BE000000002800F5F5F5F5F5F5F50000BE00F5F5F5F5F5F5F5000028F5F5F5F5F5F5F5F5F50000000000000000000000
310
0000000028F5F5F5F5F5F5F5F5F5F5F5F50000000000000028F5F500000000000000000000000000000000000000000000000000000000000000000000000000000000000000000000000000000000000000000000000000000000000000000000000000000000000000000000000000000000000000000000000000000000
310
0000000000000000000000000000000000000000000000000000000000000000000000000000000000000000000000000000DC00000000000028000000BE0000000000000000000000000000BE00000000BE000000002800F5F5F5F5F5F5F50000BE00F5F50000F5F5F5000028F5F5F5F5F5F5F5F5F5000000000000000000
310
00000000000028F5F5F5F5F5F5F5F5F5F5F5F50000000000000028F5F50000000000000000000000000000000000000000000000000000000000000000000000000000000000000000000000000000000000000000000000000000000000000000000000000000000000000000000000000000000000000000000000000000
310
00000000000000000000000000000000000000000000000000000000000000000000000000000000000000000000000000000000DC00000000000028F5F5F5F5F5F5F5F5F5F5F5F5F5F5F5F5F5F5F5F5F5F528BE282828282828282828282828282828BE282828282828282828282828282828282828282828282828282828
310
2828282828282828282828282828282828282828282828282828282828F5DC000000000000000000000000000000000000000000000000000000000000000000000000000000000000000000000000000000000000000000000000000000000000000000000000000000000000000000000000000000000000000000000000
310
000000000000000000000000000000000000000000000000000000000000000000000000000000000000000000000000000000000000DC00000000000028F5F5F5F5F5F5F5F5F500F5F5F5F5F5F5F5F5F5F5F5F500000000000000000000000000000000000000000000000000000000000000000000000000000000000000
310
000000000000000000000000000000000000000000000000000000000000F5F5DC00000000000000000000000000000000000000000000000000000000000000000000000000000000000000000000000000000000000000000000000000000000000000000000000000000000000000000000000000000000000000000000
310
0000000000000000000000000000000000000000000000000000000000000000000000000000000000000000000000000000000000000000DC00000000000028F500F500F5F500F5F500F5F5F5F5F5F5F500F5F5F5F50000000000000000000000000000000000000000000000000000000000000000000000000000000000
310
0000000000000000000000000000000000000000000000000000000000000000F5F5DC0000000000000000000000000000000000000000000000000000000000000000000000000000000000000000000000000000000000000000000000000000000000000000000000000000000000000000000000000000000000000000
310
00000000000000000000000000000000000000000000000000000000000000000000000000000000000000000000000000000000000000000000DC0000000000002800000000000000000000000000000000000000000000000000000000000000000000000000000000000000000000000000000000000000000000000000
310
0000000000000000000000000000000000000000000000000000000000000000000028F5DC000000000000000000000000000000000000000000000000000000000000000000000000000000000000000000000000000000000000000000000000000000000000000000000000000000000000000000000000000000000000
310
000000000000000000000000000000000000000000000000000000000000000000000000000000000000000000000000000000000000000000000000DC000000000000280000000000000000000000000000000000000000000000000000000000000000000000000000000000000000000000000000000000000000000000
310
000000000000000000000000000000000000000000000000000000000000000000000000F5F5DC00000000000000000000000000000000000000000000000000000000000000000000000000000000000000000000000000000000000000000000000000000000000000000000000000000000000000000000000000000000
310
0000000000000000000000000000000000000000000000000000000000000000000000000000000000000000000000000000000000000000000000000000DC00000000000028000000000000000000000000000000000000000000000000000000000000000000000000000000000000000000000000000000000000000000
310
000000000000000000000000000000000000000000000000000000000000000000000000000028F5DC0000000000000000000000000000000000000000000000000000000000000000000000000000000000000000000000000000000000000000000000000000000000000000000000000000000000000000000000000000
310
00000000000000000000000000000000000000000000000000000000000000000000000000000000000000000000000000000000000000000000000000000000DC0000000000002800000000000000000000000000000000000000000000000000000000000000000000000000000000000000000000000000000000000000
310
0000000000000000000000000000000000000000000000000000000000000000000000000000000028F5DC000000000000000000000000000000000000000000000000000000000000000000000000000000000000000000000000000000000000000000000000000000000000000000000000000000000000000000000000
310
000000000000000000000000000000000000000000000000000000000000000000000000000000000000000000000000000000000000000000000000000000000000DC000000000000280000000000000000000000000000000000000000000000000000000000000000000000000000000000000000000000000000000000
310
000000000000000000000000000000000000000000000000000000000000000000000000000000000000F5F5DC00000000000000000000000000000000000000000000000000000000000000000000000000000000000000000000000000000000000000000000000000000000000000000000000000000000000000000000
310
0000000000000000000000000000000000000000000000000000000000000000000000000000000000000000000000000000000000000000000000000000000000000000DC00000000000028000000000000000000000000000000000000000000000000000000000000000000000000000000000000000000000000000000
310
0000000000000000000000000000000000000000000000000000000000000000000000000000000000000000F5F5DC0000000000000000000000000000000000000000000000000000000000000000000000000000000000000000000000000000000000000000000000000000000000000000000000000000000000000000
310
00000000000000000000000000000000000000000000000000000000000000000000000000000000000000000000000000000000000000000000000000000000000000000000DC0000000000002800000000000000000000000000000000000000000000000000000000000000000000000000000000000000000000000000
310
00000000000000000000000000000000000000000000000000000000000000000000000000000000000000000000F5F5DC000000000000000000000000000000000000000000000000000000000000000000000000000000000000000000000000000000000000000000000000000000000000000000000000000000000000
310
000000000000000000000000000000000000000000000000000000000000000000000000000000000000000000000000000000000000000000000000000000000000000000000000DC000000000000280000000000000000000000000000000000000000000000000000000000000000000000000000000000000000000000
310
000000000000000000000000000000000000000000000000000000000000000000000000000000000000000000000000F5F5DC00000000000000000000000000000000000000000000000000000000000000000000000000000000000000000000000000000000000000000000000000000000000000000000000000000000
310
0000000000000000000000000000000000000000000000000000000000000000000000000000000000000000000000000000000000000000000000000000000000000000000000000000DC00000000000028000000000000000000000000000000000000000000000000000000000000000000000000000000000000000000
310
0000000000000000000000000000000000000000000000000000000000000000000000000000000000000000000000000000F5F5DC0000000000000000000000000000000000000000000000000000000000000000000000000000000000000000000000000000000000000000000000000000000000000000000000000000
310
00000000000000000000000000000000000000000000000000000000000000000000000000000000000000000000000000000000000000000000000000000000000000000000000000000000DC0000000000002800000000000000000000000000000000000000000000000000000000000000000000000000000000000000
310
0000000000000000000000000000000000000000000000000000000000000000000000000000000000000000000000000000000028F5DC000000000000000000000000000000000000000000000000000000000000000000000000000000000000000000000000000000000000000000000000000000000000000000000000
310
000000000000000000000000000000000000000000000000000000000000000000000000000000000000000000000000000000000000000000000000000000000000000000000000000000000000DC0000000000002800000000000000000000000000000000000000000000000000000000000000000000F5F5F5F5F5F5F5
310
F5F5F5F5F5F5F5F50000000000000000000000000000000000000000000000000000000000000000000000000000000000000000000028F5DC00000000000000000000000000000000000000000000000000000000000000000000000000000000000000000000000000000000000000000000000000000000000000000000
310
0000000000000000000000000000000000000000000000000000000000000000000000000000000000000000000000000000000000000000000000000000000000000000000000000000000000000000DC0000000000002800000000000000000000000000000000000000000000000000000000000000000000F5F5F50000
310
BEBEBEBEBE0000F5F5F50000000000000000000000000000000000000000000000000000000000000000000000000000000000000000000028F5DC0000000000000000000000000000000000000000000000000000000000000000000000000000000000000000000000000000000000000000000000000000000000000000
310
00000000000000000000000000000000000000000000000000000000000000000000000000000000000000000000000000000000000000000000000000000000000000000000000000000000000000000000DC0000000000002800000000000000000000000000000000000000000000000000000000000000000000F50000
310
0000BEBEBEBEBE00000000F50000000000000000000000000000000000000000000000000000000000000000000000000000000000000000000028F5DC000000000000000000000000000000000000000000000000000000000000000000000000000000000000000000000000000000000000000000000000000000000000
310
000000000000000000000000000000000000000000000000000000000000000000000000000000000000000000000000000000000000000000000000000000000000000000000000000000000000000000000000DC0000000000002800000000000000000000000000000000000000000000000000000000000000000000F5
310
0000000000BEBEBEBE00000000F500000000000000000000000000000000000000000000000000000000000000000000000000000000000000000000F5F5DC00000000000000000000000000000000000000000000000000000000000000000000000000000000000000000000000000000000000000000000000000000000
310
0000000000000000000000000000000000000000000000000000000000000000000000000000000000000000000000000000000000000000000000000000000000000000000000000000000000000000000000000000DC00000000000028000000000000000000000000000000000000000000000000000000000000000000
310
00F5000000000000DC000000000000F50000000000000000000000000000000000000000000000000000000000000000000000000000000000000000000028F5F50000000000000000000000000000000000000000000000000000000000000000000000000000000000000000000000000000000000000000000000000000
310
00000000000000000000000000000000000000000000000000000000000000000000000000000000000000000000000000000000000000000000000000000000000000000000000000000000000000000000000000000000DC0000000000002800000000F5F5F5F5F5F5F5F5F5F5F5F5F5F5F5F5F5F5F5F5F5F5F5F5F5F5F5
310
F5F5F5F5F5282828282828282828282828280000000000000000000000000000000000000000000000000000000000000000000000000000000000000000000028F5DC000000000000000000000000000000000000000000000000000000000000000000000000000000000000000000000000000000000000000000000000
310
000000000000000000000000000000000000000000000000000000000000000000000000000000000000000000000000000000000000000000000000000000000000000000000000000000000000000000000000000000000000DC0000000000002800000000F5F50000000000000000000000000000000000000000000000
310
0000000000F5280000000000DC0000000000F528000000000000000000BEBEBEBEBEBEBEBEBEBEBEBEBE00BEBEBEBEBEBEBEBEBEBEBEBEBE00000000000000000000F5F5DC00000000000000000000000000000000000000000000000000000000000000000000000000000000000000000000000000000000000000000000
310
0000000000000000000000000000000000000000000000000000000000000000000000000000000000000000000000000000000000000000000000000000000000000000000000000000000000000000000000000000000000000000DC0000000000002800000000F5F5000000000000000000000000000000000000000000
310
000000000000002828DCDCDCDCDCDCDCDCDCDCDCDC28000000000000000000BEBEBEBEBE00BEBEBEBEBEBEBE00BEBEBEBEBEBE00BEBEBEBEBEBE0000000000000000000028F5DC0000000000000000000000000000000000000000000000000000000000000000000000000000000000000000000000000000000000000000
310
00000000000000000000000000000000000000000000000000000000000000000000000000000000000000000000000000000000000000000000000000000000000000000000000000000000000000000000000000000000000000000000DC0000000000002800000000F50000000000000000000000000000000000000000
310
00000000000000000028280000000000DC000000000000280000000000000000DCDCDCDCDCDCDCDCDCDCDCDCDCDCDCDCDCDCDCDCDCDCDCDCDCDCDCDC0000000000000000000028F5DC000000000000000000000000000000000000000000000000000000000000000000000000000000000000000000000000000000000000
310
000000000000000000000000000000000000000000000000000000000000000000000000000000000000000000000000000000000000000000000000000000000000000000000000000000000000000000000000000000000000000000000000DC0000000000002800000000F5000000000000000000000000000000000000
310
000000000000000000000028280000000000DC00000000000028000000000000DCDC00BEBEBEBEBEBEBEBEBEBEBEBEBEBEBEBE000000000000000000000000000000000000000000F5F5DC00000000000000000000000000000000000000000000000000000000000000000000000000000000000000000000000000000000
310
0000000000000000000000000000000000000000000000000000000000000000000000000000000000000000000000000000000000000000000000000000000000000000000000000000000000000000000000000000000000000000000000000000DC0000000000002800000000F500000000000000000000000000000000
310
0000000000000000000000000028280000000000DC00000000000028000000DCDCDC000000BEBEBEBEBEBEBEBEBEBEBEBEBEBEBEBEBE0000000000000000000000000000000000000000F5F5DC0000000000000000000000000000000000000000000000000000000000000000000000000000000000000000000000000000
310
00000000000000000000000000000000000000000000000000000000000000000000000000000000000000000000000000000000000000000000000000000000000000000000000000000000000000000000000000000000000000000000000000000000DC0000000000002800000000F50000000000000000000000000000
310
00000000000000000000000000000028280000000000DC0000000000002800DCDC000000000000BEBE00BE0000BE00BEBEBEBEBEBEBEBE00000000000000000000000000000000000000000028F5DC000000000000000000000000000000000000000000000000000000000000000000000000000000000000000000000000
310
000000000000000000000000000000000000000000000000000000000000000000000000000000000000000000000000000000000000000000000000000000000000000000000000000000000000000000000000000000000000000000000000000000000000DC0000000000002800000000F5000000000000000000000000
310
000000000000000000000000000000000028280000000000DC00000000000028DC000000000000000000000000000000000000000000000000000000000000000000000000000000000000000000F5F5DC00000000000000000000000000000000000000000000000000000000000000000000000000000000000000000000
310
0000000000000000000000000000000000000000000000000000000000000000000000000000000000000000000000000000000000000000000000000000000000000000000000000000000000000000000000000000000000000000000000000000000000000000DC0000000000002800000000F500000000000000000000
310
0000000000000000000000000000000000000028280000000000DC000000000000280000000000000000000000000000000000000000000000000000000000000000000000000000000000000000000028F5DC0000000000000000000000000000000000000000000000000000000000000000000000000000000000000000
310
00000000000000000000000000000000000000000000000000000000000000000000000000000000000000000000000000000000000000000000000000000000000000000000000000000000000000000000000000000000000000000000000000000000000000000000DC0000000000002800000000F50000000000000000
310
00000000000000000000000000000000000000000028280000000000DC0000000000002800000000000000000000000000000000000000000000000000000000000000000000000000000000000000000000F5F5DC000000000000000000000000000000000000000000000000000000000000000000000000000000000000
310
000000000000000000000000000000000000000000000000000000000000000000000000000000000000000000000000000000000000000000000000000000000000000000000000000000000000000000000000000000000000000000000000000000000000000000000000DC0000000000002800000000F5000000000000
310
000000000000000000000000000000000000000000000028280000000000DC000000000000280000000000000000000000000000000000000000000000000000000000000000000000000000000000000000000028F5DC00000000000000000000000000000000000000000000000000000000000000000000000000000000
310
0000000000000000000000000000000000000000000000000000000000000000000000000000000000000000000000000000000000000000000000000000000000000000000000000000000000000000000000000000000000000000000000000000000000000000000000000000DC0000000000002800000000F500000000
310
0000000000000000000000000000000000000000000000000028280000000000DC000000000000280000000000000000000000000000000000000000000000000000000000000000000000000000000000000000000028F5DC0000000000000000000000000000000000000000000000000000000000000000000000000000
310
00000000000000000000000000000000000000000000000000000000000000000000000000000000000000000000000000000000000000000000000000000000000000000000000000000000000000000000000000000000000000000000000000000000000000000000000000000000DC0000000000002800000000F50000
310
00000000000000000000000000000000000000000000000000000028280000000000DC0000000000002800000000000000000000000000000000000000000000000000000000000000000000000000000000000000000000F5F5DC000000000000000000000000000000000000000000000000000000000000000000000000
310
000000000000000000000000000000000000000000000000000000000000000000000000000000000000000000000000000000000000000000000000000000000000000000000000000000000000000000000000000000000000000000000000000000000000000000000000000000000000DC0000000000002800000000F5
310
000000000000000000000000000000000000000000000000000000000028280000000000DC000000000000280000000000000000000000000000000000000000000000000000000000000000000000000000000000000000000028F5DC00000000000000000000000000000000000000000000000000000000000000000000
310
0000000000000000000000000000000000000000000000000000000000000000000000000000000000000000000000000000000000000000000000000000000000000000000000000000000000000000000000000000000000000000000000000000000000000000000000000000000000000000DC00000000000028000000
310
00F5000000000000000000000000000000000000000000000000000000000028280000000000DC000000000000280000000000000000000000000000000000000000000000000000000000000000000000000000000000000000000028F5F50000000000000000000000000000000000000000000000000000000000000000
310
00000000000000000000000000000000000000000000000000000000000000000000000000000000000000000000000000000000000000000000000000000000000000000000000000000000000000000000000000000000000000000000000000000000000000000000000000000000000000000000DC0000000000002800
310
000000F5000000000000000000000000000000000000000000000000000000000028280000000000DC000000000000280000000000000000000000000000000000000000000000000000000000000000000000000000000000000000000028F5DC000000000000000000000000000000000000000000000000000000000000
310
000000000000000000000000000000000000000000000000000000000000000000000000000000000000000000000000000000000000000000000000000000000000000000000000000000000000000000000000000000000000000000000000000000000000000000000000000000000000000000000000DC000000000000
310
2800000000F5000000000000000000000000000000000000000000000000000000000028280000000000DC000000000000280000000000000000000000000000000000000000000000000000000000000000000000000000000000000000000028F5DC00000000000000000000000000000000000000000000000000000000
310
0000000000000000000000000000000000000000000000000000000000000000000000000000000000000000000000000000000000000000000000000000000000000000000000000000000000000000000000000000000000000000000000000000000000000000000000000000000000000000000000000000DC00000000
310
00002800000000F5000000000000000000000000000000000000000000000000000000000028280000000000DC000000000000280000000000000000000000000000000000000000000000000000000000000000000000000000000000000000000028F5DC0000000000000000000000000000000000000000000000000000
310
00000000000000000000000000000000000000000000000000000000000000000000000000000000000000000000000000000000000000000000000000000000000000000000000000000000000000000000000000000000000000000000000000000000000000000000000000000000000000000000000000000000DC0000
310
000000002800000000F5000000000000000000000000000000000000000000000000000000000028280000000000DC000000000000280000000000000000000000000000000000000000000000000000000000000000000000000000000000000000000028F5DC000000000000000000000000000000000000000000000000
310
000000000000000000000000000000000000000000000000000000000000000000000000000000000000000000000000000000000000000000000000000000000000000000000000000000000000000000000000000000000000000000000000000000000000000000000000000000000000000000000000000000000000DC
310
0000000000002800000000F5000000000000000000000000000000000000000000000000000000000028280000000000DC0000000000002800000000000000000000000000000000BEBEBEBE0000BEBEBEBEBEBEBE00BEBEBEBEBEBEBEBEBEBEBEBEBE00000028F5DC00000000000000000000000000000000000000000000
310
00000000000000000000000000000000000000000000000000000000000000000000000000000000000000000000000000000000000000000000000000000000000000000000000000000000000000000000000000000000000000000000000000000000000000000000000000000000000000000000000000000000000000
310
00DC0000000000002800000000F50000000000000000000000000000000000000000F5F5F5F5F5F5F5F5F5F5F5F5F5F5F5F5F5F5F5F5F5F5F5F5F5F5F5F5F5F5F5F5F500000000000000BEBEBEBEBEBEBEBEBEBEBEBEBE00BE00BEBEBEBEBEBEBEBEBE00BE000000F5F5DC0000000000000000000000000000000000000000
310
00000000000000000000000000000000000000000000000000000000000000000000000000000000000000000000000000000000000000000000000000000000000000000000000000000000000000000000000000000000000000000000000000000000000000000000000000000000000000000000000000000000000000
310
000000DC0000000000002800000000F50000000000000000000000000000000000000000F5F5F50000000000002828000000BEBEBEBEBE000000002800000000000000F5F500000000000000BEBEBE00BE00BEBEBEBEBEBEBE00BEBEBEBEBEBEBEBEBEBEBEBEBE000000F5F5DC000000000000000000000000000000000000
310
00000000000000000000000000000000000000000000000000000000000000000000000000000000000000000000000000000000000000000000000000000000000000000000000000000000000000000000000000000000000000000000000000000000000000000000000000000000000000000000000000000000000000
310
0000000000DC0000000000002800000000F50000000000000000000000000000000000000000F500000000000000002828000000BEBE00BEBE00000000280000000000000000F5000000000000DCDCDCDCDCDCDCDCDCDCDCDCBEBEDCDCDCDCDCDCDCDCDCDCDCDCDCDC000000F5F5DC00000000000000000000000000000000
310
00000000000000000000000000000000000000000000000000000000000000000000000000000000000000000000000000000000000000000000000000000000000000000000000000000000000000000000000000000000000000000000000000000000000000000000000000000000000000000000000000000000000000
310
00000000000000DC0000000000002800000000F50000000000000000000000000000000000000000F50000000000000000282800000000BEBEBEBE00000000280000000000000000F50000DCDCDCDC00BEBEBEBEBEBEBEBEBEBEBEBEBEBEBEBEBEBEBE0000000000000000000000F5F5DC0000000000000000000000000000
310
00000000000000000000000000000000000000000000000000000000000000000000000000000000000000000000000000000000000000000000000000000000000000000000000000000000000000000000000000000000000000000000000000000000000000000000000000000000000000000000000000000000000000
310
000000000000000000DC0000000000002800000000F50000000000000000000000000000000000000000F500000000F5F5282828280000000000DC000000000000282828F5F500000000DCDCDC0000000000BEBEBEBEBEBEBEBEBEBEBEBEBEBEBEBEBEBEBE000000000000000000000028F5DC000000000000000000000000
310
00000000000000000000000000000000000000000000000000000000000000000000000000000000000000000000000000000000000000000000000000000000000000000000000000000000000000000000000000000000000000000000000000000000000000000000000000000000000000000000000000000000000000
310
0000000000000000000000DC0000000000002800000000F5000000F5F5F5F5F5F5F5F5F5F5F5F5F5F5F5F5F52828282828F5F5F5F528280000000000DC00000000000028F5F5F5F5DCDCDCDC2800000000000000000000000000000000000000000000000000000000000000000000000000F5F5DC00000000000000000000
310
00000000000000000000000000000000000000000000000000000000000000000000000000000000000000000000000000000000000000000000000000000000000000000000000000000000000000000000000000000000000000000000000000000000000000000000000000000000000000000000000000000000000000
310
00000000000000000000000000DC0000000000002800000000F5000000F5F500000000000000000000000000000028F500F5F5F5F5F5F5F528000000000000000000000000F5F5F5DCDC00F5F5F528F500000000000000000000000000000000000000000000000000000000000000000000000028F5DC0000000000000000
310
00000000000000000000000000000000000000000000000000000000000000000000000000000000000000000000000000000000000000000000000000000000000000000000000000000000000000000000000000000000000000000000000000000000000000000000000000000000000000000000000000000000000000
310
000000000000000000000000000000DC0000000000002800000000F5000000F5000000000000000000000000000000002800F5F500F5F5F5F5F5280000000000DC000000000000F5F5F5F5F5F500F5F528F500000000000000000000000000000000000000000000000000000000000000000000000028F5DC000000000000
310
00000000000000000000000000000000000000000000000000000000000000000000000000000000000000000000000000000000000000000000000000000000000000000000000000000000000000000000000000000000000000000000000000000000000000000000000000000000000000000000000000000000000000
310
0000000000000000000000000000000000DC0000000000002800000000F5000000F50000000000000000000000000000000028F500F5F5F5F5F5F5F5280000000000DC000000000000F5F500F5F500F5F5F528F500000000000000000000000000000000000000000000000000000000000000000000000028F5DC00000000
310
00000000000000000000000000000000000000000000000000000000000000000000000000000000000000000000000000000000000000000000000000000000000000000000000000000000000000000000000000000000000000000000000000000000000000000000000000000000000000000000000000000000000000
310
00000000000000000000000000000000000000DCDCDCDCDCDCDCDCDC000000F5000000F50000000000000000000000000000000028F5F5F5F5F528282828280000000000DC0000000000002828282828F5F5F5F528F5000000000000000000000000000000000000000000000000000000000000000000000000F5F5DC0000
310
00000000000000000000000000000000000000000000000000000000000000000000000000000000000000000000000000000000000000000000000000000000000000000000000000000000000000000000000000000000000000000000000000000000000000000000000000000000000000000000000000000000000000
310
000000000000000000000000000000000000000000DC0000000000002800000000F5000000F5000000000000000000000000000000F52800F5F5002800000028280000000000DC00000000000028000000002800F5F528F5000000000000000000000000000000000000000000000000000000000000000000000000F5F5DC
310
00000000000000000000000000000000000000000000000000000000000000000000000000000000000000000000000000000000000000000000000000000000000000000000000000000000000000000000000000000000000000000000000000000000000000000000000000000000000000000000000000000000000000
310
0000000000000000000000000000000000000000000000DC000000000000280000BE00BE000000F50000000000000000000000000000000028F500F528282828282828000000000000000000000000282828282828F5F5F52800000000000000000000000000000000000000000000000000000000000000000000000000F5
310
F5DC0000000000000000000000000000000000000000000000000000000000000000000000000000000000000000000000000000000000000000000000000000000000000000000000000000000000000000000000000000000000000000000000000000000000000000000000000000000000000000000000000000000000
310
00000000000000000000000000000000000000000000000000DC000000000000280000BEBEBE000000F500000000000000000000000000000028F500F5F5280000000028280000000000DC00000000000028000000002800F5F50028000000000000BEBEBEBE0000BEBEBEBEBEBEBE00BEBEBEBEBEBEBEBEBE00BEBEBE0000
310
00F5F5DC000000000000000000000000000000000000000000000000000000000000000000000000000000000000000000000000000000000000000000000000000000000000000000000000000000000000000000000000000000000000000000000000000000000000000000000000000000000000000000000000000000
310
000000000000000000000000000000000000000000000000000000DC000000000000280000BEBEBE000000F500000000000000000000000000000028F5F5F5F5280000000028280000000000DC000000000000280000000028F5F5F5F528000000000000BEBEBEBEBEBEBEBEBEBEBEBEBE00BEBEBEBEBEBEBEBEBEBEBE00BE
310
00000028F5F500000000000000000000000000000000000000000000000000000000000000000000000000000000000000000000000000000000000000000000000000000000000000000000000000000000000000000000000000000000000000000000000000000000000000000000000000000000000000000000000000
310
0000000000000000000000000000000000000000000000000000000000DC000000000000280000BEBEBE000000F500000000000000000000000000000028F5F500F5280000000028280000000000DC000000000000280000000028F5F5F5F528000000000000DCDCDCDCDCDCDCDCDCDCDCDCDCDCDCDCBEDCDCDCDCDCDCDCDC
310
DCDC000000F5F5DC0000000000000000000000000000000000000000000000000000000000000000000000000000000000000000000000000000000000000000000000000000000000000000000000000000000000000000000000000000000000000000000000000000000000000000000000000000000000000000000000
310
00000000000000000000000000000000000000000000000000000000000000DC00000000000028000000BEF5000000F500000000000000000000000000000028F500F5F5280000000028280000000000DC00000000000028000000002800F5F5002800000000DCDCBEBEBEBEBEBEBEBEBEBEBEBEBEBEBEBEBEBE0000000000
310
0000000000000028F5DC000000000000000000000000000000000000000000000000000000000000000000000000000000000000000000000000000000000000000000000000000000000000000000000000000000000000000000000000000000000000000000000000000000000000000000000000000000000000000000
310
000000000000000000000000000000000000000000000000000000000000000000DC0000000000002800000000F5000000F500000000000000000000000000000028F5F500F528000000002828000000000000000000000000280000000028F5F5F5F5280000DCDC0000BEBEBEBEBEBEBEBEBEBEBEBEBEBEBEBEBEBE000000
310
00000000000000000028F5DC00000000000000000000000000000000000000000000000000000000000000000000000000000000000000000000000000000000000000000000000000000000000000000000000000000000000000000000000000000000000000000000000000000000000000000000000000000000000000
310
0000000000000000000000000000000000000000000000000000000000000000000000DC0000000000002800000000F5000000F500000000000000000000000000000028F5F5F5F5280000000028280000000000DC000000000000280000000028F5F5F5F52800DC00000000BEBEBE0000000000BEBE000000000000000000
310
0000000000000000000000F5F5DC0000000000000000000000000000000000000000000000000000000000000000000000000000000000000000000000000000000000000000000000000000000000000000000000000000000000000000000000000000000000000000000000000000000000000000000000000000000000
310
00000000000000000000000000000000000000000000000000000000000000000000000000DC0000000000002800000000F5000000F500000000000000000000000000000028F500F5F5280000000028280000000000DC00000000000028000000002800F5F500DCDC00000000000000000000000000000000000000000000
310
00000000000000000000000000F5F5DC000000000000000000000000000000000000000000000000000000000000000000000000000000000000000000000000000000000000000000000000000000000000000000000000000000000000000000000000000000000000000000000000000000000000000000000000000000
310
000000000000000000000000000000000000000000000000000000000000000000000000000000DC0000000000002800000000F5000000F500000000000000000000000000000028F5F500F5280000000028280000000000DC000000000000280000000028F5F5DCDC28000000000000000000000000000000000000000000
310
000000000000000000000000000000F5F5DC00000000000000000000000000000000000000000000000000000000000000000000000000000000000000000000000000000000000000000000000000000000000000000000000000000000000000000000000000000000000000000000000000000000000000000000000000
310
0000000000000000000000000000000000000000000000000000000000000000000000000000000000DC0000000000002800000000F5000000F500000000000000000000000000000028F500F5F5280000000028280000000000DC00000000000028000000002800DCF5002800000000000000000000000000000000000000
310
0000000000000000000000000000000000F5F5DC0000000000000000000000000000000000000000000000000000000000000000000000000000000000000000000000000000000000000000000000000000000000000000000000000000000000000000000000000000000000000000000000000000000000000000000000
310
00000000000000000000000000000000000000000000000000000000000000000000000000000000000000DC0000000000002800000000F5000000F500000000000000000000000000000028F5F500F528000000002828000000000000000000000000280000000028F5F5F5F5280000000000000000000000000000000000
310
0000000000000000000000000000000000000028F5DC000000000000000000000000000000000000000000000000000000000000000000000000000000000000000000000000000000000000000000000000000000000000000000000000000000000000000000000000000000000000000000000000000000000000000000
310
000000000000000000000000000000000000000000000000000000000000000000000000000000000000000000DC0000000000002800000000F5000000F500000000000000000000000000000028F5F5F5F5280000000028DCDCDCDCDCDCDCDCDCDCDCDCDC280000000028F5F5F5F528000000000000000000000000000000
310
00000000000000000000000000000000000000000028F5DC00000000000000000000000000000000000000000000000000000000000000000000000000000000000000000000000000000000000000000000000000000000000000000000000000000000000000000000000000000000000000000000000000000000000000
310
0000000000000000000000000000000000000000000000000000000000000000000000000000000000000000000000DC0000000000002800000000F500BEBEF500000000000000000000000000000028F500F5F52800000000DCDCDCDCDCDCDCDCDCDCDCDCDCDCDC000000002800F5F50028F5000000000000000000000000
310
0000000000000000000000000000000000000000000000F5F5DC0000000000000000000000000000000000000000000000000000000000000000000000000000000000000000000000000000000000000000000000000000000000000000000000000000000000000000000000000000000000000000000000000000000000
310
00000000000000000000000000000000000000000000000000000000000000000000000000000000000000000000000000DC0000000000002800000000F500BEBEF500000000000000000000000000000028F5F500F5280000000028000000000000DC000000000000280000000028F5F5F5F5280000000000000000000000
310
00000000000000000000000000000000000000000000000000F5F5DC000000000000000000000000000000000000000000000000000000000000000000000000000000000000000000000000000000000000000000000000000000000000000000000000000000000000000000000000000000000000000000000000000000
310
000000000000000000000000000000000000000000000000000000000000000000000000000000000000000000000000000000DC0000000000002800000000F500BEBEF5000000000000000000000000000028F5F500F5F5280000000028000000BEBEBEDC00000000000028000000002800F5F50028F50000000000000000
310
000000000000000000000000000000000000000000000000000000F5F5DC00000000000000000000000000000000000000000000000000000000000000000000000000000000000000000000000000000000000000000000000000000000000000000000000000000000000000000000000000000000000000000000000000
310
0000000000000000000000000000000000000000000000000000000000000000000000000000000000000000000000000000000000DC0000000000002800000000F500BEBEF5000000000000000000000000000028F5F5F5F5F5280000000028000000BEBEBE00000000000000280000000028F5F5F5F5F528000000000000
310
0000000000000000000000000000000000000000000000000000000000F5F5DC0000000000000000000000000000000000000000000000000000000000000000000000000000000000000000000000000000000000000000000000000000000000000000000000000000000000000000000000000000000000000000000000
310
00000000000000000000000000000000000000000000000000000000000000000000000000000000000000000000000000000000000000DC0000000000002800000000F5000000F5000000000000000000000000000028F5F5F500F5282828282828000000BEBEBEDC000000000000282828282828F5F5F5F5002800000000
310
0000000000000000000000000000000000000000000000000000000000000028F5DC000000000000000000000000000000000000000000000000000000000000000000000000000000000000000000000000000000000000000000000000000000000000000000000000000000000000000000000000000000000000000000
310
000000000000000000000000000000000000000000000000000000000000000000000000000000000000000000000000000000000000000000DC0000000000002800000000F5000000F5000000000000000000000000000028F5F500F5F5280000000028000000BEBEBEDC0000000000002800000000F528F5F500F5280000
310
000000BEBEBEBE0000BEBEBEBEBEBEBE00BEBEBEBEBEBEBEBEBEBEBEBE0000000028F5DC00000000000000000000000000000000000000000000000000000000000000000000000000000000000000000000000000000000000000000000000000000000000000000000000000000000000000000000000000000000000000
310
0000000000000000000000000000000000000000000000000000000000000000000000000000000000000000000000000000000000000000000000DC0000000000002800000000F5000000F5000000000000000000000000000028F5F5F50028282828282828000000BEBEBEDC0000000000002828282828282828F5F50028
310
0000000000BEBEBEBEBEBEBEBEBEBEBEBE0000BEBEBEBEBEBE00BEBEBEBEBE00000000F5F5DC0000000000000000000000000000000000000000000000000000000000000000000000000000000000000000000000000000000000000000000000000000000000000000000000000000000000000000000000000000000000
310
00000000000000000000000000000000000000000000000000000000000000000000000000000000000000000000000000000000000000000000000000DC0000000000002800000000F5000000F5000000000000000000000000000028F5F5F5F528000000000028000000BEBEBEDC0000000000002800000000000028F5F5
310
F52800000000DCDCDCDCDCDCDCDCDCDCDCDCDCDCDCDCDCDCDCDCDCDCDCDCDCDCDC0000000028F5DC000000000000000000000000000000000000000000000000000000000000000000000000000000000000000000000000000000000000000000000000000000000000000000000000000000000000000000000000000000
310
000000000000000000000000000000000000000000000000000000000000000000000000000000000000000000000000000000000000000000000000000000DC0000000000002800000000F5000000F5000000000000000000000000000028F5F500F528000000000028000000000000DC0000000000002800000000000028
310
F500F528000000DC00BEBEBEBEBEBEBEBEBEBEBEBEBEBE00BEBEBEBEBEBE00000000000000000028F5F500000000000000000000000000000000000000000000000000000000000000000000000000000000000000000000000000000000000000000000000000000000000000000000000000000000000000000000000000
310
0000000000000000000000000000000000000000000000000000000000000000000000000000000000000000000000000000000000000000000000000000000000DC0000000000002800000000F5000000F5000000000000000000000000000028F5F5F5002800000000002800000000000000000000000000280000000000
310
0028F5F500280000DC0000BEBEBEBEBEBEBEBEBEBEBEBEBEBE00BEBEBEBEBEBE00000000000000000028F5F50000000000000000000000000000000000000000000000000000000000000000000000000000000000000000000000000000000000000000000000000000000000000000000000000000000000000000000000
310
00000000000000000000000000000000000000000000000000000000000000000000000000000000000000000000000000000000000000000000000000000000000000DC0000000000002800000000F5000000F5000000000000000000000000000028F5F500F528000000000028000000000000DC00000000000028000000
310
00000028F500F52800DC000000BEBE00BEBE00BE000000000000BE00BEBEBEBEBEBE00000000000000000028F5F5000000000000000000000000000000000000000000000000000000000000000000000000000000000000000000000000000000000000000000000000000000000000000000000000000000000000000000
310
000000000000000000000000000000000000000000000000000000000000000000000000000000000000000000000000000000000000000000000000000000000000000000DC0000000000002800000000F5000000F5000000000000000000000000000028F5F5F5F528000000000028000000000000DC0000000000002800
310
000000000028F5F5F528DC00000000000000000000000000000000000000000000000000000000000000000000F5F5DC00000000000000000000000000000000000000000000000000000000000000000000000000000000000000000000000000000000000000000000000000000000000000000000000000000000000000
310
0000000000000000000000000000000000000000000000000000000000000000000000000000000000000000000000000000000000000000000000000000000000000000000000DC0000000000002800000000F5000000F5000000000000000000000000000028F5F5F50028000000000028000000000000DC000000000000
310
2800000000000028F5F5DC28000000000000000000000000000000000000000000000000000000000000000000000028F5DC0000000000000000000000000000000000000000000000000000000000000000000000000000000000000000000000000000000000000000000000000000000000000000000000000000000000
310
00000000000000000000000000000000000000000000000000000000000000000000000000000000000000000000000000000000000000000000000000000000000000000000000000DC0000000000002800000000F5000000F5000000000000000000000000000028F5F500F528000000000028000000000000DC00000000
310
00002800000000000028F5DCF5280000000000BEBEBEBEBEBEBEBEBEBEBEBEBEBEBEBEBEBEBEBEBEBEBEBEBEBEBE00000028F5DC000000000000000000000000000000000000000000000000000000000000000000000000000000000000000000000000000000000000000000000000000000000000000000000000000000
310
000000000000000000000000000000000000000000000000000000000000000000000000000000000000000000000000000000000000000000000000000000000000000000000000000000DC0000000000002800000000F5000000F5000000000000000000000000000028F5F5F50028000000000028000000000000000000
310
000000002800000000000028F5F500280000000000BEBEBEBE0000BEBEBEBEBEBE0000BEBEBEBEBEBEBEBEBEBEBEBEBE00000028F5DC00000000000000000000000000000000000000000000000000000000000000000000000000000000000000000000000000000000000000000000000000000000000000000000000000
310
0000000000000000000000000000000000000000000000000000000000000000000000000000000000000000000000000000000000000000000000000000000000000000000000000000000000DC0000000000002800000000F5000000F5000000000000000000000000000028F5F500F52800000000F5F5000000000000DC
310
000000000000F5F5000000000028F500F52800000000DCDCDCDCDCDCDCDCDCDCDCDCDCDCDCDCDCDCDCDCDCDCDCDCDCDCDC0000000028F5DC0000000000000000000000000000000000000000000000000000000000000000000000000000000000000000000000000000000000000000000000000000000000000000000000
310
00000000000000000000000000000000000000000000000000000000000000000000000000000000000000000000000000000000000000000000000000000000000000000000000000000000000000DC0000000000002800000000F5000000F50000000000000000000000000028F5F5F5F5F52800000000F5280000000000
310
00DC00000000000028F500000000DC28F5F5F5F5280000DC00BEBEBEBEBEBEBEBEBEBEBEBEBEBEBEBEBEBEBEBEBEBEBEBE000000000000F5F5DC000000000000000000000000000000000000000000000000000000000000000000000000000000000000000000000000000000000000000000000000000000000000000000
310
000000000000000000000000000000000000000000000000000000000000000000000000000000000000000000000000000000000000000000000000000000000000000000000000000000000000000000DC0000000000002800000000F5000000F50000000000000000000000000028F5F5F5F500280000F52828DCDCDCDC
310
DCDCDCDCDCDCDCDCDCDCDC00280000DC0028F5F500F52800DC0000BEBEBEBEBEBEBEBEBEBEBEBEBEBEBEBEBEBEBEBEBEBEBEBE00000000000028F5DC00000000000000000000000000000000000000000000000000000000000000000000000000000000000000000000000000000000000000000000000000000000000000
310
0000000000000000000000000000000000000000000000000000000000000000000000000000000000000000000000000000000000000000000000000000000000000000000000000000000000000000000000DC0000000000002800000000F5000000F5000000000000000000000000002800F5F500F52800F52828F52800
310
0000000000DC0000000000002828002828000028F500F5F528DC00000000000000000000000000000000000000000000000000000000000000000028F5DC0000000000000000000000000000000000000000000000000000000000000000000000000000000000000000000000000000000000000000000000000000000000
310
00000000000000000000000000000000000000000000000000000000000000000000000000000000000000000000000000000000000000000000000000000000000000000000000000000000000000000000000000DC0000000000002800000000F5000000F50000000000000000000000000028F5F5F5F500282828280028
310
28282828282828282828282828F52828DC28F5282828F5F500F528000000000000000000000000000000000000000000000000000000000000000000002800DC000000000000000000000000000000000000000000000000000000000000000000000000000000000000000000000000000000000000000000000000000000
310
000000000000000000000000000000000000000000000000000000000000000000000000000000000000000000000000000000000000000000000000000000000000000000000000000000000000000000000000000000DC0000000000002800000000F5F50000F5F500000000000000000000000028F5F5F5F52800282800
310
002828280000000000DC0000000000002828000028F528F528F5F5F528000000000000000000000000000000000000000000000000000000000000000000002800DC00000000000000000000000000000000000000000000000000000000000000000000000000000000000000000000000000000000000000000000000000
310
0000000000000000000000000000000000000000000000000000000000000000000000000000000000000000000000000000000000000000000000000000000000000000000000000000000000000000000000000000000000DC0000000000002800000000F5F50000F5F528F5282828282828282828282800F5F528282828
310
0000002828000000000000DC000000000000282800000028F5282800F5F52828282828282828282828F5F5000000000000000000000000000000000000000000002800DC0000000000000000000000000000000000000000000000000000000000000000000000000000000000000000000000000000000000000000000000
310
00000000000000000000000000000000000000000000000000000000000000000000000000000000000000000000000000000000000000000000000000000000000000000000000000000000000000000000000000000000000000DC0000000000002800000000F5F5F5F5F5F5F5F5F5F5F5F5F5F5F5F5F5F5F5F5F5F5F528
310
2828282828282828282828282828282828282828282828282828282828F5F5F5F5F5F5F5F5F5F5F5F5F5F5F5F5000000000000000000000000000000000000000000002800DC000000000000000000000000000000000000000000000000000000000000000000000000000000000000000000000000000000000000000000
310
000000000000000000000000000000000000000000000000000000000000000000000000000000000000000000000000000000000000000000000000000000000000000000000000000000000000000000000000000000000000000000DC0000000000002800000000000000000000F5F5F5F5F5F5F5F5DCDCF5F5F5F5F5F5
310
28282828282828F5F528282828282828282828282828F5F528282828282828F5F5F5F5F5F5DCDCF5F5F5F5F5F5F5F5000000000000000000000000000000000000000000002800DC00000000000000000000000000000000000000000000000000000000000000000000000000000000000000000000000000000000000000
310
0000000000000000000000000000000000000000000000000000000000000000000000000000000000000000000000000000000000000000000000000000000000000000000000000000000000000000000000000000000000000000000000DC0000000000002800000000000000000000F500282828282828DCDC28282828
310
28282828282828282828282828282828282828282828282828282828DCDC2828282828F528F528DCDC28282828282800F5000000000000000000000000000000000000000000002800DC0000000000000000000000000000000000000000000000000000000000000000000000000000000000000000000000000000000000
310
00000000000000000000000000000000000000000000000000000000000000000000000000000000000000000000000000000000000000000000000000000000000000000000000000000000000000000000000000000000000000000000000000DC0000000000002800000000000000000000F50028282828282828282828
310
2828282828282828F5282828282828282828282828282828282828282828F52828282828282828282828F528282828282800F5000000000000000000000000000000000000000000002800DC000000000000000000000000000000000000000000000000000000000000000000000000000000000000000000000000000000
310
000000000000000000000000000000000000000000000000000000000000000000000000000000000000000000000000000000000000000000000000000000000000000000000000000000000000000000000000000000000000000000000000000000DC0000000000002800000000000000000000F50000DC00002828DCDC
310
2828000000000000DCDCDCDCDC0028DCDCDCDCDC28DC0000000000000000DCDCDCDCDCDC000000000000DCDCDCDCDC0000000000F5000000000000000000000000000000000000000000002800DC00000000000000000000000000000000000000000000000000000000000000000000000000000000000000000000000000
310
0000000000000000000000000000000000000000000000000000000000000000000000000000000000000000000000000000000000000000000000000000000000000000000000000000000000000000000000000000000000000000000000000000000000DC0000000000002800000000000000000000F500DC0000002828
310
00DC28280000000000002828DC28280028DC00DC0000280000000000000000002828DC2800280000000000002828DC28280000000000F5000000000000000000000000000000000000000000002800DC0000000000000000000000000000000000000000000000000000000000000000000000000000000000000000000000
310
00000000000000000000000000000000000000000000000000000000000000000000000000000000000000000000000000000000000000000000000000000000000000000000000000000000000000000000000000000000000000000000000000000000000000DC0000000000002800000000000000000000F500DC000000
310
28282828282800000000000028282828280028DC00DC00002800000000000000000028282828282800000000000028282828280000000000F5000000000000000000000000000000000000000000002800DC000000000000000000000000000000000000000000000000000000000000000000000000000000000000000000
310
000000000000000000000000000000000000000000000000000000000000000000000000000000000000000000000000000000000000000000000000000000000000000000000000000000000000000000000000000000000000000000000000000000000000000000DC0000000000002800000000000000000000F5DC0000
310
0000000000DC00000000000000000000DC000000282828282828280000000000000000000000DC0000000000000000000000DC00000000000000F5000000000000000000000000000000000000000000002800DC00000000000000000000000000000000000000000000000000000000000000000000000000000000000000
310
0000000000000000000000000000000000000000000000000000000000000000000000000000000000000000000000000000000000000000000000000000000000000000000000000000000000000000000000000000000000000000000000000000000000000000000000DC0000000000002800000000000000000000F500
310
00000000000000DC00000000000000000000DC000000000000DC0000000000000000000000000000DC0000000000000000000000DC00000000000000F5000000000000000000000000000000000000000000002800DC0000000000000000000000000000000000000000000000000000000000000000000000000000000000
310
00000000000000000000000000000000000000000000000000000000000000000000000000000000000000000000000000000000000000000000000000000000000000000000000000000000000000000000000000000000000000000000000000000000000000000000000000DC0000000000002800000000000000000000
310
F500000000000000000000000000000000000000000000000000000000000000000000000000000000000000000000000000000000000000000000000000F5000000000000000000000000000000000000000000002800DC000000000000000000000000000000000000000000000000000000000000000000000000000000
310
000000000000000000000000000000000000000000000000000000000000000000000000000000000000000000000000000000000000000000000000000000000000000000000000000000000000000000000000000000000000000000000000000000000000000000000000000000DC000000000000280000000000000000
310
00DCF5F5F5F5F5F5F5F5F5F5F5F5F5F5F5F5F5F5F5F5F5F5F5F5F5F5F5F5F5F5F5F5F5F5F5F5F5F5F5F5F5F5F5F5F5F5F5F5F5F5F5F5F5F5F5F5F5F5F5F5F5F5F5000000000000000000000000000000000000000000002800DC00000000000000000000000000000000000000000000000000000000000000000000000000
310
0000000000000000000000000000000000000000000000000000000000000000000000000000000000000000000000000000000000000000000000000000000000000000000000000000000000000000000000000000000000000000000000000000000000000000000000000000000000DC00000000000028000000000000
310
0000DC00F500000000000000000000000000000000000000000000000000000000BEBEBEBEBEBE000000000000000000000000000000000000000000000000000000F5000000000000000000000000000000000000000000002800DC0000000000000000000000000000000000000000000000000000000000000000000000
310
00000000000000000000000000000000000000000000000000000000000000000000000000000000000000000000000000000000000000000000000000000000000000000000000000000000000000000000000000000000000000000000000000000000000000000000000000000000000000DC0000000000002800000000
310
00000000DC000000000000000000000000000000000000000000000000000000000000BEBEBEBEBEBE00000000000000000000000000000000000000000000000000000000000000000000000000000000000000000000000000002800DC000000000000000000000000000000000000000000000000000000000000000000
310
000000000000000000000000000000000000000000000000000000000000000000000000000000000000000000000000000000000000000000000000000000000000000000000000000000000000000000000000000000000000000000000000000000000000000000000000000000000000000000DC000000000000280000
310
0000000000DC00000000000000000000000000000000000000000000000000000000000000BEBEBEBEBE0000000000000000000000000000000000000000000000000000000000000000000000000000000000000000000000000000002800DC00000000000000000000000000000000000000000000000000000000000000
310
0000000000000000000000000000000000000000000000000000000000000000000000000000000000000000000000000000000000000000000000000000000000000000000000000000000000000000000000000000000000000000000000000000000000000000000000000000000000000000000000DC00000000000028
310
00000000000000DC0000000000000000000000000000000000000000000000000000000000000000000000000000000000000000000000000000000000000000000000000000000000000000000000000000000000000000000000000000002800DC0000000000000000000000000000000000000000000000000000000000
310
00000000000000000000000000000000000000000000000000000000000000000000000000000000000000000000000000000000000000000000000000000000000000000000000000000000000000000000000000000000000000000000000000000000000000000000000000000000000000000000000000DC0000000000
310
0028000000000000DC000000000000000000000000000000000000000000000000000000000000000000000000000000000000000000000000000000000000000000000000000000000000000000000000000000000000000000000000000000002800DC000000000000000000000000000000000000000000000000000000
310
000000000000000000000000000000000000000000000000000000000000000000000000000000000000000000000000000000000000000000000000000000000000000000000000000000000000000000000000000000000000000000000000000000000000000000000000000000000000000000000000000000DC000000
310
000000280000000000DC00000000000000000000000000000000000000000000000000000000000000000000000000000000000000000000000000000000000000000000000000000000000000000000000000000000000000000000000000000000002800DC00000000000000000000000000000000000000000000000000
310
0000000000000000000000000000000000000000000000000000000000000000000000000000000000000000000000000000000000000000000000000000000000000000000000000000000000000000000000000000000000000000000000000000000000000000000000000000000000000000000000000000000000DC00
310
0000000000280000000000BEBEBE00BE00BEBEBEBEBEBEBEBEBEBEBEBEBEBEBEBEBEBEBEBEBE0000000000000000000000000000000000000000000000000000000000000000000000000000000000000000000000000000000000000000000000000000002800DC0000000000000000000000000000000000000000000000
310
00000000000000000000000000000000000000000000000000000000000000000000000000000000000000000000000000000000000000000000000000000000000000000000000000000000000000000000000000000000000000000000000000000000000000000000000000000000000000000000000000000000000000
310
DC0000000000002800000000DCBEBEBEBEBEBEBEBEBEBEBEBEBE0000BEBEBEBEBEBE00BE00BEBEBE0000000000000000000000000000000000000000000000000000000000000000000000000000000000000000000000000000000000000000000000000000002800DC000000000000000000000000000000000000000000
310
00000000000000000000000000000000000000000000000000000000000000000000000000000000000000000000000000000000000000000000000000000000000000000000000000000000000000000000000000000000000000000000000000000000000000000000000000000000000000000000000000000000000000
310
0000DC0000000000002800000000DCBEBEBEBEBE0000BE00BEBEBE000000BEBEBEBEBEBE00BEBEBEBEBE0000000000000000000000000000000000000000000000000000000000000000000000000000000000000000000000000000000000000000000000000000002800DC00000000000000000000000000000000000000
310
00000000000000000000000000000000000000000000000000000000000000000000000000000000000000000000000000000000000000000000000000000000000000000000000000000000000000000000000000000000000000000000000000000000000000000000000000000000000000000000000000000000000000
310
00000000DC00000000000028000000DCDCDCDCDCDCDCDCDCDCDCDCDCDCDCDCDCDCDCDCDCDCDCDCDCDCDCDCDCDC00000000000000000000000000000000000000000000000000000000000000000000000000000000000000000000000000000000000000000000000000002800DC0000000000000000000000000000000000
310
00000000000000000000000000000000000000000000000000000000000000000000000000000000000000000000000000000000000000000000000000000000000000000000000000000000000000000000000000000000000000000000000000000000000000000000000000000000000000000000000000000000000000
310
000000000000DC00000000000028000000000000BEBEBEBEBEBEBEBEBEBEBE00BEBEBE00BEBE00000000000000000000000000000000000000000000000000000000000000000000000000000000000000000000000000000000000000000000000000000000000000000000002800DC000000000000000000000000000000
310
00000000000000000000000000000000000000000000000000000000000000000000000000000000000000000000000000000000000000000000000000000000000000000000000000000000000000000000000000000000000000000000000000000000000000000000000000000000000000000000000000000000000000
310
0000000000000000DC00000000000028000000000000BE0000BEBE00000000BE0000BEBEBEBEBEBE00000000000000000000000000000000000000000000000000000000000000000000000000000000000000000000000000000000000000000000000000000000000000000000002800DC00000000000000000000000000
310
00000000000000000000000000000000000000000000000000000000000000000000000000000000000000000000000000000000000000000000000000000000000000000000000000000000000000000000000000000000000000000000000000000000000000000000000000000000000000000000000000000000000000
310
00000000000000000000DC0000000000002800000000000000000000000000000000000000000000000000000000000000000000000000000000000000000000000000000000000000000000000000000000000000000000000000000000000000000000000000000000000000000000002800DC0000000000000000000000
310
00000000000000000000000000000000000000000000000000000000000000000000000000000000000000000000000000000000000000000000000000000000000000000000000000000000000000000000000000000000000000000000000000000000000000000000000000000000000000000000000000000000000000
310
000000000000000000000000DC0000000000002800000000000000000000000000000000000000000000000000000000000000000000000000000000000000000000000000000000000000000000000000000000000000000000000000000000000000000000000000000000000000000000002800DC000000000000000000
310
00000000000000000000000000000000000000000000000000000000000000000000000000000000000000000000000000000000000000000000000000000000000000000000000000000000000000000000000000000000000000000000000000000000000000000000000000000000000000000000000000000000000000
310
0000000000000000000000000000DC0000000000002800000000000000000000000000000000000000000000000000000000000000000000000000000000000000000000000000000000000000000000000000000000000000000000000000000000000000000000000000000000000000000000002800DC00000000000000
310
00000000000000000000000000000000000000000000000000000000000000000000000000000000000000000000000000000000000000000000000000000000000000000000000000000000000000000000000000000000000000000000000000000000000000000000000000000000000000000000000000000000000000
310
00000000000000000000000000000000DC0000000000002800000000000000000000000000000000000000000000000000000000000000000000000000000000000000000000000000000000000000000000000000000000000000000000000000000000000000000000000000000000000000000000002800DC0000000000
310
00000000000000000000000000000000000000000000000000000000000000000000000000000000000000000000000000000000000000000000000000000000000000000000000000000000000000000000000000000000000000000000000000000000000000000000000000000000000000000000000000000000000000
310
000000000000000000000000000000000000DC0000000000002800000000000000000000000000000000000000000000000000000000000000000000000000000000000000000000000000000000000000000000000000000000000000000000000000000000000000000000000000000000000000000000002800DC000000
310
00000000000000000000000000000000000000000000000000000000000000000000000000000000000000000000000000000000000000000000000000000000000000000000000000000000000000000000000000000000000000000000000000000000000000000000000000000000000000000000000000000000000000
310
0000000000000000000000000000000000000000DC0000000000002800000000000000000000000000000000000000000000000000000000000000000000000000000000000000000000000000000000000000000000000000000000000000000000000000000000000000000000000000000000000000000000002800DC00
310
00000000000000000000000000000000000000000000000000000000000000000000000000000000000000000000000000000000000000000000000000000000000000000000000000000000000000000000000000000000000000000000000000000000000000000000000000000000000000000000000000000000000000
310
00000000000000000000000000000000000000000000DC0000000000002800000000000000000000000000000000000000000000000000000000000000000000000000000000000000000000000000000000000000000000000000000000000000000000000000000000000000000000000000000000000000000000002800
310
DC000000000000000000000000000000000000000000000000000000000000000000000000000000000000000000000000000000000000000000000000000000000000000000000000000000000000000000000000000000000000000000000000000000000000000000000000000000000000000000000000000000000000
310
000000000000000000000000000000000000000000000000DC000000000000280000000000000000000000000000000000000000000000000000000000000000000000000000000000000000000000000000000000000000000000000000000000000000000000000000000000000000000000000000000000000000000000
310
2800DC00000000000000000000000000000000000000000000000000000000000000000000000000000000000000000000000000000000000000000000000000000000000000000000000000000000000000000000000000000000000000000000000000000000000000000000000000000000000000000000000000000000
310
0000000000000000000000000000000000000000000000000000DC00000000000028000000000000000000000000000000000000000000000000000000000000000000000000000000000000000000000000000000000000000000000000000000000000000000000000000000000000000000000000000000000000000000
310
00002800DC0000000000000000000000000000000000000000000000000000000000000000000000000000000000000000000000000000000000000000000000000000000000000000000000000000000000000000000000000000000000000000000000000000000000000000000000000000000000000000000000000000
310
00000000000000000000000000000000000000000000000000000000DC0000000000002800000000000000000000000000000000000000000000000000000000000000000000000000000000000000000000000000000000000000000000000000000000000000000000000000000000000000000000000000000000000000
310
000000002800DC000000000000000000000000000000000000000000000000000000000000000000000000000000000000000000000000000000000000000000000000000000000000000000000000000000000000000000000000000000000000000000000000000000000000000000000000000000000000000000000000
310
000000000000000000000000000000000000000000000000000000000000DC000000000000280000000000000000000000000000000000000000000000000000000000000000000000000000000000000000000000000000000000000000000000000000000000000000000000000000000000000000000000000000000000
310
0000000000002800DC00000000000000000000000000000000000000000000000000000000000000000000000000000000000000000000000000000000000000000000000000000000000000000000000000000000000000000000000000000000000000000000000000000000000000000000000000000000000000000000
310
0000000000000000000000000000000000000000000000000000000000000000DC00000000000028000000000000000000000000000000000000000000000000000000000000000000000000000000000000000000000000000000000000000000000000000000000000000000000000000000000000000000000000000000
310
00000000000000002800DC0000000000000000000000000000000000000000000000000000000000000000000000000000000000000000000000000000000000000000000000000000000000000000000000000000000000000000000000000000000000000000000000000000000000000000000000000000000000000000
310
00000000000000000000000000000000000000000000000000000000000000000000DC0000000000002828282828282828282828282828282828282828282828282828282828282828282828282828282828282828282828282828282828282828282828282828282828282828282828282828282828282828282828282828
310
282828282828282828282800DC000000000000000000000000000000000000000000000000000000000000000000000000000000000000000000000000000000000000000000000000000000000000000000000000000000000000000000000000000000000000000000000000000000000000000000000000000000000000
310
000000000000000000000000000000000000000000000000000000000000000000000000DC000000000000000000000000000000000000000000000000000000000000000000000000000000000000000000000000000000000000000000000000000000000000000000000000000000000000000000000000000000000000
310
0000000000000000000000000000DC00000000000000000000000000000000000000000000000000000000000000000000000000000000000000000000000000000000000000000000000000000000000000000000000000000000000000000000000000000000000000000000000000000000000000000000000000000000
310
0000000000000000000000000000000000000000000000000000000000000000000000000000DC00000000000000000000000000000000000000000000000000000000000000000000000000000000000000000000000000000000000000000000000000000000000000000000000000000000000000000000000000000000
310
00000000000000000000000000000000DC0000000000000000000000000000000000000000000000000000000000000000000000000000000000000000000000000000000000000000000000000000000000000000000000000000000000000000000000000000000000000000000000000000000000000000000000000000
310
00000000000000000000000000000000000000000000000000000000000000000000000000000000DCDCDCDCDCDCDCDCDCDCDCDCDCDCDCDCDCDCDCDCDCDCDCDCDCDCDCDCDCDCDCDCDCDCDCDCDCDCDCDCDCDCDCDCDCDCDCDCDCDCDCDCDCDCDCDCDCDCDCDCDCDCDCDCDCDCDCDCDCDCDCDCDCDCDCDCDCDCDCDCDCDCDCDCDCDCDC
310
DCDCDCDCDCDCDCDCDCDCDCDCDCDCDCDCDCDCDC000000000000000000000000000000000000000000000000000000000000000000000000000000000000000000000000000000000000000000000000000000000000000000000000000000
  0
XRECORD
  5
184F
102
{ACAD_REACTORS
330
1152
102
}
330
1152
100
AcDbXrecord
280
     1
102
MATERIAL
148
0.0
149
0.0
149
0.0
 93
        0
 94
      127
282
     0
 72
     0
 77
     0
171
     0
175
     0
179
     0
273
     0
  0
XRECORD
  5
1154
102
{ACAD_REACTORS
330
1152
102
}
330
1152
100
AcDbXrecord
280
     1
270
     1
271
     1
  0
XRECORD
  5
1153
102
{ACAD_REACTORS
330
1152
102
}
330
1152
100
AcDbXrecord
280
     1
270
     1
271
     1
  0
XRECORD
  5
1157
102
{ACAD_REACTORS
330
1152
102
}
330
1152
100
AcDbXrecord
280
     1
270
     1
271
     1
  0
XRECORD
  5
1156
102
{ACAD_REACTORS
330
1152
102
}
330
1152
100
AcDbXrecord
280
     1
270
     1
271
     1
  0
XRECORD
  5
1158
102
{ACAD_REACTORS
330
1152
102
}
330
1152
100
AcDbXrecord
280
     1
270
     1
271
     1
  0
XRECORD
  5
1155
102
{ACAD_REACTORS
330
1152
102
}
330
1152
100
AcDbXrecord
280
     1
270
     1
271
     1
  0
XRECORD
  5
184E
102
{ACAD_REACTORS
330
114A
102
}
330
114A
100
AcDbXrecord
280
     1
102
MATERIAL
148
0.0
149
0.0
149
0.0
 93
        0
 94
      127
282
     0
 72
     0
 77
     0
171
     0
175
     0
179
     0
273
     0
  0
XRECORD
  5
114C
102
{ACAD_REACTORS
330
114A
102
}
330
114A
100
AcDbXrecord
280
     1
270
     1
271
     1
  0
XRECORD
  5
114B
102
{ACAD_REACTORS
330
114A
102
}
330
114A
100
AcDbXrecord
280
     1
270
     1
271
     1
  0
XRECORD
  5
114F
102
{ACAD_REACTORS
330
114A
102
}
330
114A
100
AcDbXrecord
280
     1
270
     1
271
     1
  0
XRECORD
  5
114E
102
{ACAD_REACTORS
330
114A
102
}
330
114A
100
AcDbXrecord
280
     1
270
     1
271
     1
  0
XRECORD
  5
1150
102
{ACAD_REACTORS
330
114A
102
}
330
114A
100
AcDbXrecord
280
     1
270
     1
271
     1
  0
XRECORD
  5
114D
102
{ACAD_REACTORS
330
114A
102
}
330
114A
100
AcDbXrecord
280
     1
270
     1
271
     1
  0
XRECORD
  5
1850
102
{ACAD_REACTORS
330
115A
102
}
330
115A
100
AcDbXrecord
280
     1
102
MATERIAL
148
0.0
149
0.0
149
0.0
 93
        0
 94
      127
282
     0
 72
     0
 77
     0
171
     0
175
     0
179
     0
273
     0
  0
XRECORD
  5
115C
102
{ACAD_REACTORS
330
115A
102
}
330
115A
100
AcDbXrecord
280
     1
270
     1
271
     1
  0
XRECORD
  5
115B
102
{ACAD_REACTORS
330
115A
102
}
330
115A
100
AcDbXrecord
280
     1
270
     1
271
     1
  0
XRECORD
  5
115F
102
{ACAD_REACTORS
330
115A
102
}
330
115A
100
AcDbXrecord
280
     1
270
     1
271
     1
  0
XRECORD
  5
115E
102
{ACAD_REACTORS
330
115A
102
}
330
115A
100
AcDbXrecord
280
     1
270
     1
271
     1
  0
XRECORD
  5
1160
102
{ACAD_REACTORS
330
115A
102
}
330
115A
100
AcDbXrecord
280
     1
270
     1
271
     1
  0
XRECORD
  5
115D
102
{ACAD_REACTORS
330
115A
102
}
330
115A
100
AcDbXrecord
280
     1
270
     1
271
     1
  0
XRECORD
  5
1883
102
{ACAD_REACTORS
330
1882
102
}
330
1882
100
AcDbXrecord
280
     1
102
ACAD_ROUNDTRIP_2012_MLEADER_STYLE
298
     1
  0
CELLSTYLEMAP
  5
184C
102
{ACAD_REACTORS
330
14E8
102
}
330
14E8
100
AcDbCellStyleMap
 90
        3
300
CELLSTYLE
  1
TABLEFORMAT_BEGIN
 90
        5
170
     1
 91
        0
 92
    32768
 62
   257
 93
        1
300
CONTENTFORMAT
  1
CONTENTFORMAT_BEGIN
 90
        0
 91
        0
 92
      512
 93
        0
300

 40
0.0
140
1.0
 94
        5
 62
     0
340
11
144
0.25
309
CONTENTFORMAT_END
171
     0
 94
        0
309
TABLEFORMAT_END
  1
CELLSTYLE_BEGIN
 90
        1
 91
        1
300
_TITLE
309
CELLSTYLE_END
300
CELLSTYLE
  1
TABLEFORMAT_BEGIN
 90
        5
170
     1
 91
        0
 92
        0
 62
   257
 93
        1
300
CONTENTFORMAT
  1
CONTENTFORMAT_BEGIN
 90
        0
 91
        0
 92
      512
 93
        0
300

 40
0.0
140
1.0
 94
        5
 62
     0
340
11
144
0.18
309
CONTENTFORMAT_END
171
     0
 94
        0
309
TABLEFORMAT_END
  1
CELLSTYLE_BEGIN
 90
        2
 91
        1
300
_HEADER
309
CELLSTYLE_END
300
CELLSTYLE
  1
TABLEFORMAT_BEGIN
 90
        5
170
     1
 91
        0
 92
        0
 62
   257
 93
        1
300
CONTENTFORMAT
  1
CONTENTFORMAT_BEGIN
 90
        0
 91
        0
 92
      512
 93
        0
300

 40
0.0
140
1.0
 94
        2
 62
     0
340
11
144
0.18
309
CONTENTFORMAT_END
171
     0
 94
        0
309
TABLEFORMAT_END
  1
CELLSTYLE_BEGIN
 90
        3
 91
        2
300
_DATA
309
CELLSTYLE_END
  0
XRECORD
  5
1881
102
{ACAD_REACTORS
330
14E8
102
}
330
14E8
100
AcDbXrecord
280
     1
102
ACAD_ROUNDTRIP_PRE2007_TABLESTYLE
 90
      512
 91
        0
  1

 92
      512
 93
        0
  2

 94
      512
 95
        0
  3

  0
XRECORD
  5
185C
102
{ACAD_REACTORS
330
185B
102
}
330
185B
100
AcDbXrecord
280
     1
102
RTVSPost2010Prop28
280
     1
102
RTVSPost2010PropOp28
 70
     1
102
RTVSPost2010Prop29
280
     1
102
RTVSPost2010PropOp29
 70
     1
102
RTVSPost2010Prop30
280
     0
102
RTVSPost2010PropOp30
 70
     1
102
RTVSPost2010Prop31
280
     0
102
RTVSPost2010PropOp31
 70
     1
102
RTVSPost2010Prop32
280
     0
102
RTVSPost2010PropOp32
 70
     1
102
RTVSPost2010Prop33
280
     0
102
RTVSPost2010PropOp33
 70
     1
102
RTVSPost2010Prop34
280
     0
102
RTVSPost2010PropOp34
 70
     1
102
RTVSPost2010Prop35
280
     0
102
RTVSPost2010PropOp35
 70
     1
102
RTVSPost2010Prop36
280
     0
102
RTVSPost2010PropOp36
 70
     1
102
RTVSPost2010Prop37
 90
       50
102
RTVSPost2010PropOp37
 70
     1
102
RTVSPost2010Prop38
140
0.0
102
RTVSPost2010PropOp38
 70
     1
102
RTVSPost2010Prop39
140
1.0
102
RTVSPost2010PropOp39
 70
     1
102
RTVSPost2010Prop40
 90
        0
102
RTVSPost2010PropOp40
 70
     1
102
RTVSPost2010Prop41ColorIndex
 90
       18
102
RTVSPost2010Prop41ColorRGB
 90
        0
102
RTVSPost2010PropOp41
 70
     1
102
RTVSPost2010Prop42
 90
       50
102
RTVSPost2010PropOp42
 70
     1
102
RTVSPost2010Prop43
 90
        3
102
RTVSPost2010PropOp43
 70
     1
102
RTVSPost2010Prop44ColorIndex
 90
        5
102
RTVSPost2010Prop44ColorRGB
 90
      255
102
RTVSPost2010PropOp44
 70
     1
102
RTVSPost2010Prop45
280
     0
102
RTVSPost2010PropOp45
 70
     1
102
RTVSPost2010Prop46
 90
       50
102
RTVSPost2010PropOp46
 70
     1
102
RTVSPost2010Prop47
 90
       50
102
RTVSPost2010PropOp47
 70
     1
102
RTVSPost2010Prop48
 90
       50
102
RTVSPost2010PropOp48
 70
     1
102
RTVSPost2010Prop49
280
     0
102
RTVSPost2010PropOp49
 70
     1
102
RTVSPost2010Prop50
 90
       50
102
RTVSPost2010PropOp50
 70
     1
102
RTVSPost2010Prop51ColorIndex
 90
      256
102
RTVSPost2010Prop51ColorRGB
 90
-16777216
102
RTVSPost2010PropOp51
 70
     0
102
RTVSPost2010Prop52
140
1.0
102
RTVSPost2010PropOp52
 70
     0
102
RTVSPost2010Prop53
 90
        2
102
RTVSPost2010PropOp53
 70
     1
102
RTVSPost2010Prop54
  1
strokes_ogs.tif
102
RTVSPost2010PropOp54
 70
     1
102
RTVSPost2010Prop55
280
     0
102
RTVSPost2010PropOp55
 70
     1
102
RTVSPost2010Prop56
140
1.0
102
RTVSPost2010PropOp56
 70
     1
102
RTVSPost2010Prop57
140
1.0
102
RTVSPost2010PropOp57
 70
     1
102
RTVSPropertyOp0
 70
     1
102
RTVSPropertyOp1
 70
     1
102
RTVSPropertyOp2
 70
     1
102
RTVSPropertyOp3
 70
     1
102
RTVSPropertyOp4
 70
     1
102
RTVSPropertyOp5
 70
     1
102
RTVSPropertyOp6
 70
     1
102
RTVSPropertyOp7
 70
     1
102
RTVSPropertyOp8
 70
     1
102
RTVSPropertyOp9
 70
     1
102
RTVSPropertyOp10
 70
     1
102
RTVSPropertyOp11
 70
     1
102
RTVSPropertyOp12
 70
     1
102
RTVSPropertyOp13
 70
     1
102
RTVSPropertyOp14
 70
     1
102
RTVSPropertyOp15
 70
     1
102
RTVSPropertyOp16
 70
     1
102
RTVSPropertyOp17
 70
     1
102
RTVSPropertyOp18
 70
     1
102
RTVSPropertyOp19
 70
     1
102
RTVSPropertyOp20
 70
     1
102
RTVSPropertyOp21
 70
     1
102
RTVSPropertyOp22
 70
     1
102
RTVSPropertyOp23
 70
     1
102
RTVSPropertyOp24
 70
     1
102
RTVSPropertyOp25
 70
     1
102
RTVSPropertyOp26
 70
     1
102
RTVSPropertyOp27
 70
     1
102
RTVSPropertyOp28
 70
     1
102
RTVSPropertyOp29
 70
     1
102
RTVSPropertyOp30
 70
     1
102
RTVSPropertyOp31
 70
     1
102
RTVSPropertyOp32
 70
     1
102
RTVSPropertyOp33
 70
     1
102
RTVSPropertyOp34
 70
     1
102
RTVSPropertyOp35
 70
     1
102
RTVSPropertyOp36
 70
     1
102
RTVSPropertyOp37
 70
     1
102
RTVSPropertyOp38
 70
     1
102
RTVSPropertyOp39
 70
     1
102
RTVSPropertyOp40
 70
     1
102
RTVSPropertyOp41
 70
     1
102
RTVSPropertyOp42
 70
     1
102
RTVSPropertyOp43
 70
     1
102
RTVSPropertyOp44
 70
     1
102
RTVSPropertyOp45
 70
     1
102
RTVSPropertyOp46
 70
     1
102
RTVSPropertyOp47
 70
     1
102
RTVSPropertyOp48
 70
     1
102
RTVSPropertyOp49
 70
     1
102
RTVSPropertyOp50
 70
     1
102
RTVSPropertyOp51
 70
     0
102
RTVSPropertyOp52
 70
     0
102
RTVSPropertyOp53
 70
     1
102
RTVSPropertyOp54
 70
     1
102
RTVSPropertyOp55
 70
     1
102
RTVSPropertyOp56
 70
     1
102
RTVSPropertyOp57
 70
     1
102
RTVSPropertyOp58
 70
     1
102
RTVSPropertyOp59
 70
     1
102
RTVSPropertyOp60
 70
     1
102
RTVSPropertyOp61
 70
     1
102
RTVSPropertyOp62
 70
     1
  0
XRECORD
  5
185A
102
{ACAD_REACTORS
330
1859
102
}
330
1859
100
AcDbXrecord
280
     1
102
RTVSPost2010Prop28
280
     0
102
RTVSPost2010PropOp28
 70
     1
102
RTVSPost2010Prop29
280
     1
102
RTVSPost2010PropOp29
 70
     1
102
RTVSPost2010Prop30
280
     1
102
RTVSPost2010PropOp30
 70
     1
102
RTVSPost2010Prop31
280
     0
102
RTVSPost2010PropOp31
 70
     1
102
RTVSPost2010Prop32
280
     0
102
RTVSPost2010PropOp32
 70
     1
102
RTVSPost2010Prop33
280
     0
102
RTVSPost2010PropOp33
 70
     1
102
RTVSPost2010Prop34
280
     0
102
RTVSPost2010PropOp34
 70
     1
102
RTVSPost2010Prop35
280
     0
102
RTVSPost2010PropOp35
 70
     1
102
RTVSPost2010Prop36
280
     0
102
RTVSPost2010PropOp36
 70
     1
102
RTVSPost2010Prop37
 90
       50
102
RTVSPost2010PropOp37
 70
     1
102
RTVSPost2010Prop38
140
0.0
102
RTVSPost2010PropOp38
 70
     1
102
RTVSPost2010Prop39
140
1.0
102
RTVSPost2010PropOp39
 70
     1
102
RTVSPost2010Prop40
 90
        0
102
RTVSPost2010PropOp40
 70
     1
102
RTVSPost2010Prop41ColorIndex
 90
       18
102
RTVSPost2010Prop41ColorRGB
 90
        0
102
RTVSPost2010PropOp41
 70
     1
102
RTVSPost2010Prop42
 90
       50
102
RTVSPost2010PropOp42
 70
     1
102
RTVSPost2010Prop43
 90
        3
102
RTVSPost2010PropOp43
 70
     1
102
RTVSPost2010Prop44ColorIndex
 90
        5
102
RTVSPost2010Prop44ColorRGB
 90
      255
102
RTVSPost2010PropOp44
 70
     1
102
RTVSPost2010Prop45
280
     0
102
RTVSPost2010PropOp45
 70
     1
102
RTVSPost2010Prop46
 90
       50
102
RTVSPost2010PropOp46
 70
     1
102
RTVSPost2010Prop47
 90
       50
102
RTVSPost2010PropOp47
 70
     1
102
RTVSPost2010Prop48
 90
       50
102
RTVSPost2010PropOp48
 70
     1
102
RTVSPost2010Prop49
280
     0
102
RTVSPost2010PropOp49
 70
     1
102
RTVSPost2010Prop50
 90
       50
102
RTVSPost2010PropOp50
 70
     1
102
RTVSPost2010Prop51ColorIndex
 90
      256
102
RTVSPost2010Prop51ColorRGB
 90
-16777216
102
RTVSPost2010PropOp51
 70
     0
102
RTVSPost2010Prop52
140
1.0
102
RTVSPost2010PropOp52
 70
     0
102
RTVSPost2010Prop53
 90
        2
102
RTVSPost2010PropOp53
 70
     1
102
RTVSPost2010Prop54
  1
strokes_ogs.tif
102
RTVSPost2010PropOp54
 70
     1
102
RTVSPost2010Prop55
280
     0
102
RTVSPost2010PropOp55
 70
     1
102
RTVSPost2010Prop56
140
1.0
102
RTVSPost2010PropOp56
 70
     1
102
RTVSPost2010Prop57
140
1.0
102
RTVSPost2010PropOp57
 70
     1
102
RTVSPropertyOp0
 70
     1
102
RTVSPropertyOp1
 70
     1
102
RTVSPropertyOp2
 70
     1
102
RTVSPropertyOp3
 70
     1
102
RTVSPropertyOp4
 70
     1
102
RTVSPropertyOp5
 70
     1
102
RTVSPropertyOp6
 70
     1
102
RTVSPropertyOp7
 70
     1
102
RTVSPropertyOp8
 70
     1
102
RTVSPropertyOp9
 70
     1
102
RTVSPropertyOp10
 70
     1
102
RTVSPropertyOp11
 70
     1
102
RTVSPropertyOp12
 70
     1
102
RTVSPropertyOp13
 70
     1
102
RTVSPropertyOp14
 70
     1
102
RTVSPropertyOp15
 70
     1
102
RTVSPropertyOp16
 70
     1
102
RTVSPropertyOp17
 70
     1
102
RTVSPropertyOp18
 70
     1
102
RTVSPropertyOp19
 70
     1
102
RTVSPropertyOp20
 70
     1
102
RTVSPropertyOp21
 70
     1
102
RTVSPropertyOp22
 70
     1
102
RTVSPropertyOp23
 70
     1
102
RTVSPropertyOp24
 70
     1
102
RTVSPropertyOp25
 70
     1
102
RTVSPropertyOp26
 70
     1
102
RTVSPropertyOp27
 70
     1
102
RTVSPropertyOp28
 70
     1
102
RTVSPropertyOp29
 70
     1
102
RTVSPropertyOp30
 70
     1
102
RTVSPropertyOp31
 70
     1
102
RTVSPropertyOp32
 70
     1
102
RTVSPropertyOp33
 70
     1
102
RTVSPropertyOp34
 70
     1
102
RTVSPropertyOp35
 70
     1
102
RTVSPropertyOp36
 70
     1
102
RTVSPropertyOp37
 70
     1
102
RTVSPropertyOp38
 70
     1
102
RTVSPropertyOp39
 70
     1
102
RTVSPropertyOp40
 70
     1
102
RTVSPropertyOp41
 70
     1
102
RTVSPropertyOp42
 70
     1
102
RTVSPropertyOp43
 70
     1
102
RTVSPropertyOp44
 70
     1
102
RTVSPropertyOp45
 70
     1
102
RTVSPropertyOp46
 70
     1
102
RTVSPropertyOp47
 70
     1
102
RTVSPropertyOp48
 70
     1
102
RTVSPropertyOp49
 70
     1
102
RTVSPropertyOp50
 70
     1
102
RTVSPropertyOp51
 70
     0
102
RTVSPropertyOp52
 70
     0
102
RTVSPropertyOp53
 70
     1
102
RTVSPropertyOp54
 70
     1
102
RTVSPropertyOp55
 70
     1
102
RTVSPropertyOp56
 70
     1
102
RTVSPropertyOp57
 70
     1
102
RTVSPropertyOp58
 70
     1
102
RTVSPropertyOp59
 70
     1
102
RTVSPropertyOp60
 70
     1
102
RTVSPropertyOp61
 70
     1
102
RTVSPropertyOp62
 70
     1
  0
XRECORD
  5
1868
102
{ACAD_REACTORS
330
1867
102
}
330
1867
100
AcDbXrecord
280
     1
102
RTVSPost2010Prop28
280
     0
102
RTVSPost2010PropOp28
 70
     1
102
RTVSPost2010Prop29
280
     1
102
RTVSPost2010PropOp29
 70
     1
102
RTVSPost2010Prop30
280
     1
102
RTVSPost2010PropOp30
 70
     1
102
RTVSPost2010Prop31
280
     0
102
RTVSPost2010PropOp31
 70
     1
102
RTVSPost2010Prop32
280
     0
102
RTVSPost2010PropOp32
 70
     1
102
RTVSPost2010Prop33
280
     0
102
RTVSPost2010PropOp33
 70
     1
102
RTVSPost2010Prop34
280
     0
102
RTVSPost2010PropOp34
 70
     1
102
RTVSPost2010Prop35
280
     0
102
RTVSPost2010PropOp35
 70
     1
102
RTVSPost2010Prop36
280
     0
102
RTVSPost2010PropOp36
 70
     1
102
RTVSPost2010Prop37
 90
       50
102
RTVSPost2010PropOp37
 70
     1
102
RTVSPost2010Prop38
140
0.0
102
RTVSPost2010PropOp38
 70
     1
102
RTVSPost2010Prop39
140
1.0
102
RTVSPost2010PropOp39
 70
     1
102
RTVSPost2010Prop40
 90
        0
102
RTVSPost2010PropOp40
 70
     1
102
RTVSPost2010Prop41ColorIndex
 90
       18
102
RTVSPost2010Prop41ColorRGB
 90
        0
102
RTVSPost2010PropOp41
 70
     1
102
RTVSPost2010Prop42
 90
       50
102
RTVSPost2010PropOp42
 70
     1
102
RTVSPost2010Prop43
 90
        3
102
RTVSPost2010PropOp43
 70
     1
102
RTVSPost2010Prop44ColorIndex
 90
        5
102
RTVSPost2010Prop44ColorRGB
 90
      255
102
RTVSPost2010PropOp44
 70
     1
102
RTVSPost2010Prop45
280
     0
102
RTVSPost2010PropOp45
 70
     1
102
RTVSPost2010Prop46
 90
       50
102
RTVSPost2010PropOp46
 70
     1
102
RTVSPost2010Prop47
 90
       50
102
RTVSPost2010PropOp47
 70
     1
102
RTVSPost2010Prop48
 90
       50
102
RTVSPost2010PropOp48
 70
     1
102
RTVSPost2010Prop49
280
     0
102
RTVSPost2010PropOp49
 70
     1
102
RTVSPost2010Prop50
 90
       50
102
RTVSPost2010PropOp50
 70
     1
102
RTVSPost2010Prop51ColorIndex
 90
      256
102
RTVSPost2010Prop51ColorRGB
 90
-16777216
102
RTVSPost2010PropOp51
 70
     0
102
RTVSPost2010Prop52
140
1.0
102
RTVSPost2010PropOp52
 70
     0
102
RTVSPost2010Prop53
 90
        2
102
RTVSPost2010PropOp53
 70
     1
102
RTVSPost2010Prop54
  1
strokes_ogs.tif
102
RTVSPost2010PropOp54
 70
     1
102
RTVSPost2010Prop55
280
     0
102
RTVSPost2010PropOp55
 70
     1
102
RTVSPost2010Prop56
140
1.0
102
RTVSPost2010PropOp56
 70
     1
102
RTVSPost2010Prop57
140
1.0
102
RTVSPost2010PropOp57
 70
     1
102
RTVSPropertyOp0
 70
     1
102
RTVSPropertyOp1
 70
     1
102
RTVSPropertyOp2
 70
     1
102
RTVSPropertyOp3
 70
     1
102
RTVSPropertyOp4
 70
     1
102
RTVSPropertyOp5
 70
     1
102
RTVSPropertyOp6
 70
     1
102
RTVSPropertyOp7
 70
     1
102
RTVSPropertyOp8
 70
     1
102
RTVSPropertyOp9
 70
     1
102
RTVSPropertyOp10
 70
     1
102
RTVSPropertyOp11
 70
     1
102
RTVSPropertyOp12
 70
     1
102
RTVSPropertyOp13
 70
     1
102
RTVSPropertyOp14
 70
     1
102
RTVSPropertyOp15
 70
     1
102
RTVSPropertyOp16
 70
     1
102
RTVSPropertyOp17
 70
     1
102
RTVSPropertyOp18
 70
     1
102
RTVSPropertyOp19
 70
     1
102
RTVSPropertyOp20
 70
     1
102
RTVSPropertyOp21
 70
     1
102
RTVSPropertyOp22
 70
     1
102
RTVSPropertyOp23
 70
     1
102
RTVSPropertyOp24
 70
     1
102
RTVSPropertyOp25
 70
     1
102
RTVSPropertyOp26
 70
     1
102
RTVSPropertyOp27
 70
     1
102
RTVSPropertyOp28
 70
     1
102
RTVSPropertyOp29
 70
     1
102
RTVSPropertyOp30
 70
     1
102
RTVSPropertyOp31
 70
     1
102
RTVSPropertyOp32
 70
     1
102
RTVSPropertyOp33
 70
     1
102
RTVSPropertyOp34
 70
     1
102
RTVSPropertyOp35
 70
     1
102
RTVSPropertyOp36
 70
     1
102
RTVSPropertyOp37
 70
     1
102
RTVSPropertyOp38
 70
     1
102
RTVSPropertyOp39
 70
     1
102
RTVSPropertyOp40
 70
     1
102
RTVSPropertyOp41
 70
     1
102
RTVSPropertyOp42
 70
     1
102
RTVSPropertyOp43
 70
     1
102
RTVSPropertyOp44
 70
     1
102
RTVSPropertyOp45
 70
     1
102
RTVSPropertyOp46
 70
     1
102
RTVSPropertyOp47
 70
     1
102
RTVSPropertyOp48
 70
     1
102
RTVSPropertyOp49
 70
     1
102
RTVSPropertyOp50
 70
     1
102
RTVSPropertyOp51
 70
     0
102
RTVSPropertyOp52
 70
     0
102
RTVSPropertyOp53
 70
     1
102
RTVSPropertyOp54
 70
     1
102
RTVSPropertyOp55
 70
     1
102
RTVSPropertyOp56
 70
     1
102
RTVSPropertyOp57
 70
     1
102
RTVSPropertyOp58
 70
     1
102
RTVSPropertyOp59
 70
     1
102
RTVSPropertyOp60
 70
     1
102
RTVSPropertyOp61
 70
     1
102
RTVSPropertyOp62
 70
     1
  0
XRECORD
  5
1870
102
{ACAD_REACTORS
330
186F
102
}
330
186F
100
AcDbXrecord
280
     1
102
RTVSPost2010Prop28
280
     0
102
RTVSPost2010PropOp28
 70
     1
102
RTVSPost2010Prop29
280
     1
102
RTVSPost2010PropOp29
 70
     1
102
RTVSPost2010Prop30
280
     1
102
RTVSPost2010PropOp30
 70
     1
102
RTVSPost2010Prop31
280
     0
102
RTVSPost2010PropOp31
 70
     1
102
RTVSPost2010Prop32
280
     0
102
RTVSPost2010PropOp32
 70
     1
102
RTVSPost2010Prop33
280
     0
102
RTVSPost2010PropOp33
 70
     1
102
RTVSPost2010Prop34
280
     0
102
RTVSPost2010PropOp34
 70
     1
102
RTVSPost2010Prop35
280
     0
102
RTVSPost2010PropOp35
 70
     1
102
RTVSPost2010Prop36
280
     0
102
RTVSPost2010PropOp36
 70
     1
102
RTVSPost2010Prop37
 90
       50
102
RTVSPost2010PropOp37
 70
     1
102
RTVSPost2010Prop38
140
0.0
102
RTVSPost2010PropOp38
 70
     1
102
RTVSPost2010Prop39
140
1.0
102
RTVSPost2010PropOp39
 70
     1
102
RTVSPost2010Prop40
 90
        0
102
RTVSPost2010PropOp40
 70
     1
102
RTVSPost2010Prop41ColorIndex
 90
       18
102
RTVSPost2010Prop41ColorRGB
 90
        0
102
RTVSPost2010PropOp41
 70
     1
102
RTVSPost2010Prop42
 90
       50
102
RTVSPost2010PropOp42
 70
     1
102
RTVSPost2010Prop43
 90
        3
102
RTVSPost2010PropOp43
 70
     1
102
RTVSPost2010Prop44ColorIndex
 90
        5
102
RTVSPost2010Prop44ColorRGB
 90
      255
102
RTVSPost2010PropOp44
 70
     1
102
RTVSPost2010Prop45
280
     0
102
RTVSPost2010PropOp45
 70
     1
102
RTVSPost2010Prop46
 90
       50
102
RTVSPost2010PropOp46
 70
     1
102
RTVSPost2010Prop47
 90
       50
102
RTVSPost2010PropOp47
 70
     1
102
RTVSPost2010Prop48
 90
       50
102
RTVSPost2010PropOp48
 70
     1
102
RTVSPost2010Prop49
280
     0
102
RTVSPost2010PropOp49
 70
     1
102
RTVSPost2010Prop50
 90
       50
102
RTVSPost2010PropOp50
 70
     1
102
RTVSPost2010Prop51ColorIndex
 90
      256
102
RTVSPost2010Prop51ColorRGB
 90
-16777216
102
RTVSPost2010PropOp51
 70
     0
102
RTVSPost2010Prop52
140
1.0
102
RTVSPost2010PropOp52
 70
     0
102
RTVSPost2010Prop53
 90
        2
102
RTVSPost2010PropOp53
 70
     1
102
RTVSPost2010Prop54
  1
strokes_ogs.tif
102
RTVSPost2010PropOp54
 70
     1
102
RTVSPost2010Prop55
280
     0
102
RTVSPost2010PropOp55
 70
     1
102
RTVSPost2010Prop56
140
1.0
102
RTVSPost2010PropOp56
 70
     1
102
RTVSPost2010Prop57
140
1.0
102
RTVSPost2010PropOp57
 70
     1
102
RTVSPropertyOp0
 70
     1
102
RTVSPropertyOp1
 70
     1
102
RTVSPropertyOp2
 70
     1
102
RTVSPropertyOp3
 70
     1
102
RTVSPropertyOp4
 70
     1
102
RTVSPropertyOp5
 70
     1
102
RTVSPropertyOp6
 70
     1
102
RTVSPropertyOp7
 70
     1
102
RTVSPropertyOp8
 70
     1
102
RTVSPropertyOp9
 70
     1
102
RTVSPropertyOp10
 70
     1
102
RTVSPropertyOp11
 70
     1
102
RTVSPropertyOp12
 70
     1
102
RTVSPropertyOp13
 70
     1
102
RTVSPropertyOp14
 70
     1
102
RTVSPropertyOp15
 70
     1
102
RTVSPropertyOp16
 70
     1
102
RTVSPropertyOp17
 70
     1
102
RTVSPropertyOp18
 70
     1
102
RTVSPropertyOp19
 70
     1
102
RTVSPropertyOp20
 70
     1
102
RTVSPropertyOp21
 70
     1
102
RTVSPropertyOp22
 70
     1
102
RTVSPropertyOp23
 70
     1
102
RTVSPropertyOp24
 70
     1
102
RTVSPropertyOp25
 70
     1
102
RTVSPropertyOp26
 70
     1
102
RTVSPropertyOp27
 70
     1
102
RTVSPropertyOp28
 70
     1
102
RTVSPropertyOp29
 70
     1
102
RTVSPropertyOp30
 70
     1
102
RTVSPropertyOp31
 70
     1
102
RTVSPropertyOp32
 70
     1
102
RTVSPropertyOp33
 70
     1
102
RTVSPropertyOp34
 70
     1
102
RTVSPropertyOp35
 70
     1
102
RTVSPropertyOp36
 70
     1
102
RTVSPropertyOp37
 70
     1
102
RTVSPropertyOp38
 70
     1
102
RTVSPropertyOp39
 70
     1
102
RTVSPropertyOp40
 70
     1
102
RTVSPropertyOp41
 70
     1
102
RTVSPropertyOp42
 70
     1
102
RTVSPropertyOp43
 70
     1
102
RTVSPropertyOp44
 70
     1
102
RTVSPropertyOp45
 70
     1
102
RTVSPropertyOp46
 70
     1
102
RTVSPropertyOp47
 70
     1
102
RTVSPropertyOp48
 70
     1
102
RTVSPropertyOp49
 70
     1
102
RTVSPropertyOp50
 70
     1
102
RTVSPropertyOp51
 70
     0
102
RTVSPropertyOp52
 70
     0
102
RTVSPropertyOp53
 70
     1
102
RTVSPropertyOp54
 70
     1
102
RTVSPropertyOp55
 70
     1
102
RTVSPropertyOp56
 70
     1
102
RTVSPropertyOp57
 70
     1
102
RTVSPropertyOp58
 70
     1
102
RTVSPropertyOp59
 70
     1
102
RTVSPropertyOp60
 70
     1
102
RTVSPropertyOp61
 70
     1
102
RTVSPropertyOp62
 70
     1
  0
XRECORD
  5
1862
102
{ACAD_REACTORS
330
1861
102
}
330
1861
100
AcDbXrecord
280
     1
102
RTVSPost2010Prop28
280
     0
102
RTVSPost2010PropOp28
 70
     1
102
RTVSPost2010Prop29
280
     1
102
RTVSPost2010PropOp29
 70
     1
102
RTVSPost2010Prop30
280
     1
102
RTVSPost2010PropOp30
 70
     1
102
RTVSPost2010Prop31
280
     0
102
RTVSPost2010PropOp31
 70
     1
102
RTVSPost2010Prop32
280
     0
102
RTVSPost2010PropOp32
 70
     1
102
RTVSPost2010Prop33
280
     0
102
RTVSPost2010PropOp33
 70
     1
102
RTVSPost2010Prop34
280
     0
102
RTVSPost2010PropOp34
 70
     1
102
RTVSPost2010Prop35
280
     0
102
RTVSPost2010PropOp35
 70
     1
102
RTVSPost2010Prop36
280
     0
102
RTVSPost2010PropOp36
 70
     1
102
RTVSPost2010Prop37
 90
       50
102
RTVSPost2010PropOp37
 70
     1
102
RTVSPost2010Prop38
140
0.0
102
RTVSPost2010PropOp38
 70
     1
102
RTVSPost2010Prop39
140
1.0
102
RTVSPost2010PropOp39
 70
     1
102
RTVSPost2010Prop40
 90
        0
102
RTVSPost2010PropOp40
 70
     1
102
RTVSPost2010Prop41ColorIndex
 90
       18
102
RTVSPost2010Prop41ColorRGB
 90
        0
102
RTVSPost2010PropOp41
 70
     1
102
RTVSPost2010Prop42
 90
       50
102
RTVSPost2010PropOp42
 70
     1
102
RTVSPost2010Prop43
 90
        3
102
RTVSPost2010PropOp43
 70
     1
102
RTVSPost2010Prop44ColorIndex
 90
        5
102
RTVSPost2010Prop44ColorRGB
 90
      255
102
RTVSPost2010PropOp44
 70
     1
102
RTVSPost2010Prop45
280
     0
102
RTVSPost2010PropOp45
 70
     1
102
RTVSPost2010Prop46
 90
       50
102
RTVSPost2010PropOp46
 70
     1
102
RTVSPost2010Prop47
 90
       50
102
RTVSPost2010PropOp47
 70
     1
102
RTVSPost2010Prop48
 90
       50
102
RTVSPost2010PropOp48
 70
     1
102
RTVSPost2010Prop49
280
     0
102
RTVSPost2010PropOp49
 70
     1
102
RTVSPost2010Prop50
 90
       50
102
RTVSPost2010PropOp50
 70
     1
102
RTVSPost2010Prop51ColorIndex
 90
      256
102
RTVSPost2010Prop51ColorRGB
 90
-16777216
102
RTVSPost2010PropOp51
 70
     0
102
RTVSPost2010Prop52
140
1.0
102
RTVSPost2010PropOp52
 70
     0
102
RTVSPost2010Prop53
 90
        2
102
RTVSPost2010PropOp53
 70
     1
102
RTVSPost2010Prop54
  1
strokes_ogs.tif
102
RTVSPost2010PropOp54
 70
     1
102
RTVSPost2010Prop55
280
     0
102
RTVSPost2010PropOp55
 70
     1
102
RTVSPost2010Prop56
140
1.0
102
RTVSPost2010PropOp56
 70
     1
102
RTVSPost2010Prop57
140
1.0
102
RTVSPost2010PropOp57
 70
     1
102
RTVSPropertyOp0
 70
     1
102
RTVSPropertyOp1
 70
     1
102
RTVSPropertyOp2
 70
     1
102
RTVSPropertyOp3
 70
     1
102
RTVSPropertyOp4
 70
     1
102
RTVSPropertyOp5
 70
     1
102
RTVSPropertyOp6
 70
     1
102
RTVSPropertyOp7
 70
     1
102
RTVSPropertyOp8
 70
     1
102
RTVSPropertyOp9
 70
     1
102
RTVSPropertyOp10
 70
     1
102
RTVSPropertyOp11
 70
     1
102
RTVSPropertyOp12
 70
     1
102
RTVSPropertyOp13
 70
     1
102
RTVSPropertyOp14
 70
     1
102
RTVSPropertyOp15
 70
     1
102
RTVSPropertyOp16
 70
     1
102
RTVSPropertyOp17
 70
     1
102
RTVSPropertyOp18
 70
     1
102
RTVSPropertyOp19
 70
     1
102
RTVSPropertyOp20
 70
     1
102
RTVSPropertyOp21
 70
     1
102
RTVSPropertyOp22
 70
     1
102
RTVSPropertyOp23
 70
     1
102
RTVSPropertyOp24
 70
     1
102
RTVSPropertyOp25
 70
     1
102
RTVSPropertyOp26
 70
     1
102
RTVSPropertyOp27
 70
     1
102
RTVSPropertyOp28
 70
     1
102
RTVSPropertyOp29
 70
     1
102
RTVSPropertyOp30
 70
     1
102
RTVSPropertyOp31
 70
     1
102
RTVSPropertyOp32
 70
     1
102
RTVSPropertyOp33
 70
     1
102
RTVSPropertyOp34
 70
     1
102
RTVSPropertyOp35
 70
     1
102
RTVSPropertyOp36
 70
     1
102
RTVSPropertyOp37
 70
     1
102
RTVSPropertyOp38
 70
     1
102
RTVSPropertyOp39
 70
     1
102
RTVSPropertyOp40
 70
     1
102
RTVSPropertyOp41
 70
     1
102
RTVSPropertyOp42
 70
     1
102
RTVSPropertyOp43
 70
     1
102
RTVSPropertyOp44
 70
     1
102
RTVSPropertyOp45
 70
     1
102
RTVSPropertyOp46
 70
     1
102
RTVSPropertyOp47
 70
     1
102
RTVSPropertyOp48
 70
     1
102
RTVSPropertyOp49
 70
     1
102
RTVSPropertyOp50
 70
     1
102
RTVSPropertyOp51
 70
     0
102
RTVSPropertyOp52
 70
     0
102
RTVSPropertyOp53
 70
     1
102
RTVSPropertyOp54
 70
     1
102
RTVSPropertyOp55
 70
     1
102
RTVSPropertyOp56
 70
     1
102
RTVSPropertyOp57
 70
     1
102
RTVSPropertyOp58
 70
     1
102
RTVSPropertyOp59
 70
     1
102
RTVSPropertyOp60
 70
     1
102
RTVSPropertyOp61
 70
     1
102
RTVSPropertyOp62
 70
     1
  0
XRECORD
  5
1866
102
{ACAD_REACTORS
330
1865
102
}
330
1865
100
AcDbXrecord
280
     1
102
RTVSPost2010Prop28
280
     0
102
RTVSPost2010PropOp28
 70
     1
102
RTVSPost2010Prop29
280
     1
102
RTVSPost2010PropOp29
 70
     1
102
RTVSPost2010Prop30
280
     1
102
RTVSPost2010PropOp30
 70
     1
102
RTVSPost2010Prop31
280
     0
102
RTVSPost2010PropOp31
 70
     1
102
RTVSPost2010Prop32
280
     0
102
RTVSPost2010PropOp32
 70
     1
102
RTVSPost2010Prop33
280
     0
102
RTVSPost2010PropOp33
 70
     1
102
RTVSPost2010Prop34
280
     0
102
RTVSPost2010PropOp34
 70
     1
102
RTVSPost2010Prop35
280
     0
102
RTVSPost2010PropOp35
 70
     1
102
RTVSPost2010Prop36
280
     0
102
RTVSPost2010PropOp36
 70
     1
102
RTVSPost2010Prop37
 90
       50
102
RTVSPost2010PropOp37
 70
     1
102
RTVSPost2010Prop38
140
0.0
102
RTVSPost2010PropOp38
 70
     1
102
RTVSPost2010Prop39
140
1.0
102
RTVSPost2010PropOp39
 70
     1
102
RTVSPost2010Prop40
 90
        0
102
RTVSPost2010PropOp40
 70
     1
102
RTVSPost2010Prop41ColorIndex
 90
       18
102
RTVSPost2010Prop41ColorRGB
 90
        0
102
RTVSPost2010PropOp41
 70
     1
102
RTVSPost2010Prop42
 90
       50
102
RTVSPost2010PropOp42
 70
     1
102
RTVSPost2010Prop43
 90
        3
102
RTVSPost2010PropOp43
 70
     1
102
RTVSPost2010Prop44ColorIndex
 90
        5
102
RTVSPost2010Prop44ColorRGB
 90
      255
102
RTVSPost2010PropOp44
 70
     1
102
RTVSPost2010Prop45
280
     0
102
RTVSPost2010PropOp45
 70
     1
102
RTVSPost2010Prop46
 90
       50
102
RTVSPost2010PropOp46
 70
     1
102
RTVSPost2010Prop47
 90
       50
102
RTVSPost2010PropOp47
 70
     1
102
RTVSPost2010Prop48
 90
       50
102
RTVSPost2010PropOp48
 70
     1
102
RTVSPost2010Prop49
280
     0
102
RTVSPost2010PropOp49
 70
     1
102
RTVSPost2010Prop50
 90
       50
102
RTVSPost2010PropOp50
 70
     1
102
RTVSPost2010Prop51ColorIndex
 90
      256
102
RTVSPost2010Prop51ColorRGB
 90
-16777216
102
RTVSPost2010PropOp51
 70
     0
102
RTVSPost2010Prop52
140
1.0
102
RTVSPost2010PropOp52
 70
     0
102
RTVSPost2010Prop53
 90
        2
102
RTVSPost2010PropOp53
 70
     1
102
RTVSPost2010Prop54
  1
strokes_ogs.tif
102
RTVSPost2010PropOp54
 70
     1
102
RTVSPost2010Prop55
280
     0
102
RTVSPost2010PropOp55
 70
     1
102
RTVSPost2010Prop56
140
1.0
102
RTVSPost2010PropOp56
 70
     1
102
RTVSPost2010Prop57
140
1.0
102
RTVSPost2010PropOp57
 70
     1
102
RTVSPropertyOp0
 70
     1
102
RTVSPropertyOp1
 70
     1
102
RTVSPropertyOp2
 70
     1
102
RTVSPropertyOp3
 70
     1
102
RTVSPropertyOp4
 70
     1
102
RTVSPropertyOp5
 70
     1
102
RTVSPropertyOp6
 70
     1
102
RTVSPropertyOp7
 70
     1
102
RTVSPropertyOp8
 70
     1
102
RTVSPropertyOp9
 70
     1
102
RTVSPropertyOp10
 70
     1
102
RTVSPropertyOp11
 70
     1
102
RTVSPropertyOp12
 70
     1
102
RTVSPropertyOp13
 70
     1
102
RTVSPropertyOp14
 70
     1
102
RTVSPropertyOp15
 70
     1
102
RTVSPropertyOp16
 70
     1
102
RTVSPropertyOp17
 70
     1
102
RTVSPropertyOp18
 70
     1
102
RTVSPropertyOp19
 70
     1
102
RTVSPropertyOp20
 70
     1
102
RTVSPropertyOp21
 70
     1
102
RTVSPropertyOp22
 70
     1
102
RTVSPropertyOp23
 70
     1
102
RTVSPropertyOp24
 70
     1
102
RTVSPropertyOp25
 70
     1
102
RTVSPropertyOp26
 70
     1
102
RTVSPropertyOp27
 70
     1
102
RTVSPropertyOp28
 70
     1
102
RTVSPropertyOp29
 70
     1
102
RTVSPropertyOp30
 70
     1
102
RTVSPropertyOp31
 70
     1
102
RTVSPropertyOp32
 70
     1
102
RTVSPropertyOp33
 70
     1
102
RTVSPropertyOp34
 70
     1
102
RTVSPropertyOp35
 70
     1
102
RTVSPropertyOp36
 70
     1
102
RTVSPropertyOp37
 70
     1
102
RTVSPropertyOp38
 70
     1
102
RTVSPropertyOp39
 70
     1
102
RTVSPropertyOp40
 70
     1
102
RTVSPropertyOp41
 70
     1
102
RTVSPropertyOp42
 70
     1
102
RTVSPropertyOp43
 70
     1
102
RTVSPropertyOp44
 70
     1
102
RTVSPropertyOp45
 70
     1
102
RTVSPropertyOp46
 70
     1
102
RTVSPropertyOp47
 70
     1
102
RTVSPropertyOp48
 70
     1
102
RTVSPropertyOp49
 70
     1
102
RTVSPropertyOp50
 70
     1
102
RTVSPropertyOp51
 70
     0
102
RTVSPropertyOp52
 70
     0
102
RTVSPropertyOp53
 70
     1
102
RTVSPropertyOp54
 70
     1
102
RTVSPropertyOp55
 70
     1
102
RTVSPropertyOp56
 70
     1
102
RTVSPropertyOp57
 70
     1
102
RTVSPropertyOp58
 70
     1
102
RTVSPropertyOp59
 70
     1
102
RTVSPropertyOp60
 70
     1
102
RTVSPropertyOp61
 70
     1
102
RTVSPropertyOp62
 70
     1
  0
XRECORD
  5
1880
102
{ACAD_REACTORS
330
187F
102
}
330
187F
100
AcDbXrecord
280
     1
102
RTVSPost2010Prop28
280
     0
102
RTVSPost2010PropOp28
 70
     0
102
RTVSPost2010Prop29
280
     1
102
RTVSPost2010PropOp29
 70
     0
102
RTVSPost2010Prop30
280
     1
102
RTVSPost2010PropOp30
 70
     0
102
RTVSPost2010Prop31
280
     0
102
RTVSPost2010PropOp31
 70
     0
102
RTVSPost2010Prop32
280
     0
102
RTVSPost2010PropOp32
 70
     0
102
RTVSPost2010Prop33
280
     0
102
RTVSPost2010PropOp33
 70
     0
102
RTVSPost2010Prop34
280
     0
102
RTVSPost2010PropOp34
 70
     0
102
RTVSPost2010Prop35
280
     0
102
RTVSPost2010PropOp35
 70
     0
102
RTVSPost2010Prop36
280
     0
102
RTVSPost2010PropOp36
 70
     0
102
RTVSPost2010Prop37
 90
       50
102
RTVSPost2010PropOp37
 70
     0
102
RTVSPost2010Prop38
140
0.0
102
RTVSPost2010PropOp38
 70
     0
102
RTVSPost2010Prop39
140
1.0
102
RTVSPost2010PropOp39
 70
     0
102
RTVSPost2010Prop40
 90
        0
102
RTVSPost2010PropOp40
 70
     0
102
RTVSPost2010Prop41ColorIndex
 90
       18
102
RTVSPost2010Prop41ColorRGB
 90
        0
102
RTVSPost2010PropOp41
 70
     0
102
RTVSPost2010Prop42
 90
       50
102
RTVSPost2010PropOp42
 70
     0
102
RTVSPost2010Prop43
 90
        3
102
RTVSPost2010PropOp43
 70
     0
102
RTVSPost2010Prop44ColorIndex
 90
        5
102
RTVSPost2010Prop44ColorRGB
 90
      255
102
RTVSPost2010PropOp44
 70
     0
102
RTVSPost2010Prop45
280
     0
102
RTVSPost2010PropOp45
 70
     0
102
RTVSPost2010Prop46
 90
       50
102
RTVSPost2010PropOp46
 70
     0
102
RTVSPost2010Prop47
 90
       50
102
RTVSPost2010PropOp47
 70
     0
102
RTVSPost2010Prop48
 90
       50
102
RTVSPost2010PropOp48
 70
     0
102
RTVSPost2010Prop49
280
     0
102
RTVSPost2010PropOp49
 70
     0
102
RTVSPost2010Prop50
 90
       50
102
RTVSPost2010PropOp50
 70
     0
102
RTVSPost2010Prop51ColorIndex
 90
      256
102
RTVSPost2010Prop51ColorRGB
 90
-16777216
102
RTVSPost2010PropOp51
 70
     0
102
RTVSPost2010Prop52
140
1.0
102
RTVSPost2010PropOp52
 70
     0
102
RTVSPost2010Prop53
 90
        2
102
RTVSPost2010PropOp53
 70
     0
102
RTVSPost2010Prop54
  1
strokes_ogs.tif
102
RTVSPost2010PropOp54
 70
     0
102
RTVSPost2010Prop55
280
     0
102
RTVSPost2010PropOp55
 70
     0
102
RTVSPost2010Prop56
140
1.0
102
RTVSPost2010PropOp56
 70
     0
102
RTVSPost2010Prop57
140
1.0
102
RTVSPost2010PropOp57
 70
     0
102
RTVSPropertyOp0
 70
     0
102
RTVSPropertyOp1
 70
     0
102
RTVSPropertyOp2
 70
     0
102
RTVSPropertyOp3
 70
     0
102
RTVSPropertyOp4
 70
     0
102
RTVSPropertyOp5
 70
     0
102
RTVSPropertyOp6
 70
     0
102
RTVSPropertyOp7
 70
     0
102
RTVSPropertyOp8
 70
     0
102
RTVSPropertyOp9
 70
     0
102
RTVSPropertyOp10
 70
     0
102
RTVSPropertyOp11
 70
     0
102
RTVSPropertyOp12
 70
     0
102
RTVSPropertyOp13
 70
     0
102
RTVSPropertyOp14
 70
     2
102
RTVSPropertyOp15
 70
     0
102
RTVSPropertyOp16
 70
     0
102
RTVSPropertyOp17
 70
     0
102
RTVSPropertyOp18
 70
     0
102
RTVSPropertyOp19
 70
     0
102
RTVSPropertyOp20
 70
     0
102
RTVSPropertyOp21
 70
     0
102
RTVSPropertyOp22
 70
     0
102
RTVSPropertyOp23
 70
     0
102
RTVSPropertyOp24
 70
     0
102
RTVSPropertyOp25
 70
     0
102
RTVSPropertyOp26
 70
     0
102
RTVSPropertyOp27
 70
     0
102
RTVSPropertyOp28
 70
     0
102
RTVSPropertyOp29
 70
     0
102
RTVSPropertyOp30
 70
     0
102
RTVSPropertyOp31
 70
     0
102
RTVSPropertyOp32
 70
     0
102
RTVSPropertyOp33
 70
     0
102
RTVSPropertyOp34
 70
     0
102
RTVSPropertyOp35
 70
     0
102
RTVSPropertyOp36
 70
     0
102
RTVSPropertyOp37
 70
     0
102
RTVSPropertyOp38
 70
     0
102
RTVSPropertyOp39
 70
     0
102
RTVSPropertyOp40
 70
     0
102
RTVSPropertyOp41
 70
     0
102
RTVSPropertyOp42
 70
     0
102
RTVSPropertyOp43
 70
     0
102
RTVSPropertyOp44
 70
     0
102
RTVSPropertyOp45
 70
     0
102
RTVSPropertyOp46
 70
     0
102
RTVSPropertyOp47
 70
     0
102
RTVSPropertyOp48
 70
     0
102
RTVSPropertyOp49
 70
     0
102
RTVSPropertyOp50
 70
     0
102
RTVSPropertyOp51
 70
     0
102
RTVSPropertyOp52
 70
     0
102
RTVSPropertyOp53
 70
     0
102
RTVSPropertyOp54
 70
     0
102
RTVSPropertyOp55
 70
     0
102
RTVSPropertyOp56
 70
     0
102
RTVSPropertyOp57
 70
     0
102
RTVSPropertyOp58
 70
     0
102
RTVSPropertyOp59
 70
     0
102
RTVSPropertyOp60
 70
     0
102
RTVSPropertyOp61
 70
     0
102
RTVSPropertyOp62
 70
     0
  0
XRECORD
  5
186E
102
{ACAD_REACTORS
330
186D
102
}
330
186D
100
AcDbXrecord
280
     1
102
RTVSPost2010Prop28
280
     0
102
RTVSPost2010PropOp28
 70
     1
102
RTVSPost2010Prop29
280
     1
102
RTVSPost2010PropOp29
 70
     1
102
RTVSPost2010Prop30
280
     1
102
RTVSPost2010PropOp30
 70
     1
102
RTVSPost2010Prop31
280
     0
102
RTVSPost2010PropOp31
 70
     1
102
RTVSPost2010Prop32
280
     0
102
RTVSPost2010PropOp32
 70
     1
102
RTVSPost2010Prop33
280
     0
102
RTVSPost2010PropOp33
 70
     1
102
RTVSPost2010Prop34
280
     0
102
RTVSPost2010PropOp34
 70
     1
102
RTVSPost2010Prop35
280
     0
102
RTVSPost2010PropOp35
 70
     1
102
RTVSPost2010Prop36
280
     0
102
RTVSPost2010PropOp36
 70
     1
102
RTVSPost2010Prop37
 90
       50
102
RTVSPost2010PropOp37
 70
     1
102
RTVSPost2010Prop38
140
0.0
102
RTVSPost2010PropOp38
 70
     1
102
RTVSPost2010Prop39
140
1.0
102
RTVSPost2010PropOp39
 70
     1
102
RTVSPost2010Prop40
 90
        0
102
RTVSPost2010PropOp40
 70
     1
102
RTVSPost2010Prop41ColorIndex
 90
       18
102
RTVSPost2010Prop41ColorRGB
 90
        0
102
RTVSPost2010PropOp41
 70
     1
102
RTVSPost2010Prop42
 90
       50
102
RTVSPost2010PropOp42
 70
     1
102
RTVSPost2010Prop43
 90
        3
102
RTVSPost2010PropOp43
 70
     1
102
RTVSPost2010Prop44ColorIndex
 90
        5
102
RTVSPost2010Prop44ColorRGB
 90
      255
102
RTVSPost2010PropOp44
 70
     1
102
RTVSPost2010Prop45
280
     0
102
RTVSPost2010PropOp45
 70
     1
102
RTVSPost2010Prop46
 90
       50
102
RTVSPost2010PropOp46
 70
     1
102
RTVSPost2010Prop47
 90
       50
102
RTVSPost2010PropOp47
 70
     1
102
RTVSPost2010Prop48
 90
       50
102
RTVSPost2010PropOp48
 70
     1
102
RTVSPost2010Prop49
280
     0
102
RTVSPost2010PropOp49
 70
     1
102
RTVSPost2010Prop50
 90
       50
102
RTVSPost2010PropOp50
 70
     1
102
RTVSPost2010Prop51ColorIndex
 90
      256
102
RTVSPost2010Prop51ColorRGB
 90
-16777216
102
RTVSPost2010PropOp51
 70
     0
102
RTVSPost2010Prop52
140
1.0
102
RTVSPost2010PropOp52
 70
     0
102
RTVSPost2010Prop53
 90
        2
102
RTVSPost2010PropOp53
 70
     1
102
RTVSPost2010Prop54
  1
strokes_ogs.tif
102
RTVSPost2010PropOp54
 70
     1
102
RTVSPost2010Prop55
280
     0
102
RTVSPost2010PropOp55
 70
     1
102
RTVSPost2010Prop56
140
1.0
102
RTVSPost2010PropOp56
 70
     1
102
RTVSPost2010Prop57
140
1.0
102
RTVSPost2010PropOp57
 70
     1
102
RTVSPropertyOp0
 70
     1
102
RTVSPropertyOp1
 70
     1
102
RTVSPropertyOp2
 70
     1
102
RTVSPropertyOp3
 70
     1
102
RTVSPropertyOp4
 70
     1
102
RTVSPropertyOp5
 70
     1
102
RTVSPropertyOp6
 70
     1
102
RTVSPropertyOp7
 70
     1
102
RTVSPropertyOp8
 70
     1
102
RTVSPropertyOp9
 70
     1
102
RTVSPropertyOp10
 70
     1
102
RTVSPropertyOp11
 70
     1
102
RTVSPropertyOp12
 70
     1
102
RTVSPropertyOp13
 70
     1
102
RTVSPropertyOp14
 70
     1
102
RTVSPropertyOp15
 70
     1
102
RTVSPropertyOp16
 70
     1
102
RTVSPropertyOp17
 70
     1
102
RTVSPropertyOp18
 70
     1
102
RTVSPropertyOp19
 70
     1
102
RTVSPropertyOp20
 70
     1
102
RTVSPropertyOp21
 70
     1
102
RTVSPropertyOp22
 70
     1
102
RTVSPropertyOp23
 70
     1
102
RTVSPropertyOp24
 70
     1
102
RTVSPropertyOp25
 70
     1
102
RTVSPropertyOp26
 70
     1
102
RTVSPropertyOp27
 70
     1
102
RTVSPropertyOp28
 70
     1
102
RTVSPropertyOp29
 70
     1
102
RTVSPropertyOp30
 70
     1
102
RTVSPropertyOp31
 70
     1
102
RTVSPropertyOp32
 70
     1
102
RTVSPropertyOp33
 70
     1
102
RTVSPropertyOp34
 70
     1
102
RTVSPropertyOp35
 70
     1
102
RTVSPropertyOp36
 70
     1
102
RTVSPropertyOp37
 70
     1
102
RTVSPropertyOp38
 70
     1
102
RTVSPropertyOp39
 70
     1
102
RTVSPropertyOp40
 70
     1
102
RTVSPropertyOp41
 70
     1
102
RTVSPropertyOp42
 70
     1
102
RTVSPropertyOp43
 70
     1
102
RTVSPropertyOp44
 70
     1
102
RTVSPropertyOp45
 70
     1
102
RTVSPropertyOp46
 70
     1
102
RTVSPropertyOp47
 70
     1
102
RTVSPropertyOp48
 70
     1
102
RTVSPropertyOp49
 70
     1
102
RTVSPropertyOp50
 70
     1
102
RTVSPropertyOp51
 70
     0
102
RTVSPropertyOp52
 70
     0
102
RTVSPropertyOp53
 70
     1
102
RTVSPropertyOp54
 70
     1
102
RTVSPropertyOp55
 70
     1
102
RTVSPropertyOp56
 70
     1
102
RTVSPropertyOp57
 70
     1
102
RTVSPropertyOp58
 70
     1
102
RTVSPropertyOp59
 70
     1
102
RTVSPropertyOp60
 70
     1
102
RTVSPropertyOp61
 70
     1
102
RTVSPropertyOp62
 70
     1
  0
XRECORD
  5
1852
102
{ACAD_REACTORS
330
1851
102
}
330
1851
100
AcDbXrecord
280
     1
102
RTVSPost2010Prop28
280
     0
102
RTVSPost2010PropOp28
 70
     1
102
RTVSPost2010Prop29
280
     1
102
RTVSPost2010PropOp29
 70
     1
102
RTVSPost2010Prop30
280
     1
102
RTVSPost2010PropOp30
 70
     1
102
RTVSPost2010Prop31
280
     0
102
RTVSPost2010PropOp31
 70
     1
102
RTVSPost2010Prop32
280
     0
102
RTVSPost2010PropOp32
 70
     1
102
RTVSPost2010Prop33
280
     0
102
RTVSPost2010PropOp33
 70
     1
102
RTVSPost2010Prop34
280
     0
102
RTVSPost2010PropOp34
 70
     1
102
RTVSPost2010Prop35
280
     0
102
RTVSPost2010PropOp35
 70
     1
102
RTVSPost2010Prop36
280
     0
102
RTVSPost2010PropOp36
 70
     1
102
RTVSPost2010Prop37
 90
       50
102
RTVSPost2010PropOp37
 70
     1
102
RTVSPost2010Prop38
140
0.0
102
RTVSPost2010PropOp38
 70
     1
102
RTVSPost2010Prop39
140
1.0
102
RTVSPost2010PropOp39
 70
     1
102
RTVSPost2010Prop40
 90
        0
102
RTVSPost2010PropOp40
 70
     1
102
RTVSPost2010Prop41ColorIndex
 90
       18
102
RTVSPost2010Prop41ColorRGB
 90
        0
102
RTVSPost2010PropOp41
 70
     1
102
RTVSPost2010Prop42
 90
       50
102
RTVSPost2010PropOp42
 70
     1
102
RTVSPost2010Prop43
 90
        3
102
RTVSPost2010PropOp43
 70
     1
102
RTVSPost2010Prop44ColorIndex
 90
        5
102
RTVSPost2010Prop44ColorRGB
 90
      255
102
RTVSPost2010PropOp44
 70
     1
102
RTVSPost2010Prop45
280
     0
102
RTVSPost2010PropOp45
 70
     1
102
RTVSPost2010Prop46
 90
       50
102
RTVSPost2010PropOp46
 70
     1
102
RTVSPost2010Prop47
 90
       50
102
RTVSPost2010PropOp47
 70
     1
102
RTVSPost2010Prop48
 90
       50
102
RTVSPost2010PropOp48
 70
     1
102
RTVSPost2010Prop49
280
     0
102
RTVSPost2010PropOp49
 70
     1
102
RTVSPost2010Prop50
 90
       50
102
RTVSPost2010PropOp50
 70
     1
102
RTVSPost2010Prop51ColorIndex
 90
      256
102
RTVSPost2010Prop51ColorRGB
 90
-16777216
102
RTVSPost2010PropOp51
 70
     0
102
RTVSPost2010Prop52
140
1.0
102
RTVSPost2010PropOp52
 70
     0
102
RTVSPost2010Prop53
 90
        2
102
RTVSPost2010PropOp53
 70
     1
102
RTVSPost2010Prop54
  1
strokes_ogs.tif
102
RTVSPost2010PropOp54
 70
     1
102
RTVSPost2010Prop55
280
     0
102
RTVSPost2010PropOp55
 70
     1
102
RTVSPost2010Prop56
140
1.0
102
RTVSPost2010PropOp56
 70
     1
102
RTVSPost2010Prop57
140
1.0
102
RTVSPost2010PropOp57
 70
     1
102
RTVSPropertyOp0
 70
     1
102
RTVSPropertyOp1
 70
     1
102
RTVSPropertyOp2
 70
     1
102
RTVSPropertyOp3
 70
     1
102
RTVSPropertyOp4
 70
     1
102
RTVSPropertyOp5
 70
     1
102
RTVSPropertyOp6
 70
     1
102
RTVSPropertyOp7
 70
     1
102
RTVSPropertyOp8
 70
     1
102
RTVSPropertyOp9
 70
     1
102
RTVSPropertyOp10
 70
     1
102
RTVSPropertyOp11
 70
     1
102
RTVSPropertyOp12
 70
     1
102
RTVSPropertyOp13
 70
     1
102
RTVSPropertyOp14
 70
     1
102
RTVSPropertyOp15
 70
     1
102
RTVSPropertyOp16
 70
     1
102
RTVSPropertyOp17
 70
     1
102
RTVSPropertyOp18
 70
     1
102
RTVSPropertyOp19
 70
     1
102
RTVSPropertyOp20
 70
     1
102
RTVSPropertyOp21
 70
     1
102
RTVSPropertyOp22
 70
     1
102
RTVSPropertyOp23
 70
     1
102
RTVSPropertyOp24
 70
     1
102
RTVSPropertyOp25
 70
     1
102
RTVSPropertyOp26
 70
     1
102
RTVSPropertyOp27
 70
     1
102
RTVSPropertyOp28
 70
     1
102
RTVSPropertyOp29
 70
     1
102
RTVSPropertyOp30
 70
     1
102
RTVSPropertyOp31
 70
     1
102
RTVSPropertyOp32
 70
     1
102
RTVSPropertyOp33
 70
     1
102
RTVSPropertyOp34
 70
     1
102
RTVSPropertyOp35
 70
     1
102
RTVSPropertyOp36
 70
     1
102
RTVSPropertyOp37
 70
     1
102
RTVSPropertyOp38
 70
     1
102
RTVSPropertyOp39
 70
     1
102
RTVSPropertyOp40
 70
     1
102
RTVSPropertyOp41
 70
     1
102
RTVSPropertyOp42
 70
     1
102
RTVSPropertyOp43
 70
     1
102
RTVSPropertyOp44
 70
     1
102
RTVSPropertyOp45
 70
     1
102
RTVSPropertyOp46
 70
     1
102
RTVSPropertyOp47
 70
     1
102
RTVSPropertyOp48
 70
     1
102
RTVSPropertyOp49
 70
     1
102
RTVSPropertyOp50
 70
     1
102
RTVSPropertyOp51
 70
     0
102
RTVSPropertyOp52
 70
     0
102
RTVSPropertyOp53
 70
     1
102
RTVSPropertyOp54
 70
     1
102
RTVSPropertyOp55
 70
     1
102
RTVSPropertyOp56
 70
     1
102
RTVSPropertyOp57
 70
     1
102
RTVSPropertyOp58
 70
     1
102
RTVSPropertyOp59
 70
     1
102
RTVSPropertyOp60
 70
     1
102
RTVSPropertyOp61
 70
     1
102
RTVSPropertyOp62
 70
     1
  0
XRECORD
  5
1854
102
{ACAD_REACTORS
330
1853
102
}
330
1853
100
AcDbXrecord
280
     1
102
RTVSPost2010Prop28
280
     0
102
RTVSPost2010PropOp28
 70
     1
102
RTVSPost2010Prop29
280
     1
102
RTVSPost2010PropOp29
 70
     1
102
RTVSPost2010Prop30
280
     1
102
RTVSPost2010PropOp30
 70
     1
102
RTVSPost2010Prop31
280
     0
102
RTVSPost2010PropOp31
 70
     1
102
RTVSPost2010Prop32
280
     0
102
RTVSPost2010PropOp32
 70
     1
102
RTVSPost2010Prop33
280
     0
102
RTVSPost2010PropOp33
 70
     1
102
RTVSPost2010Prop34
280
     0
102
RTVSPost2010PropOp34
 70
     1
102
RTVSPost2010Prop35
280
     0
102
RTVSPost2010PropOp35
 70
     1
102
RTVSPost2010Prop36
280
     0
102
RTVSPost2010PropOp36
 70
     1
102
RTVSPost2010Prop37
 90
       50
102
RTVSPost2010PropOp37
 70
     1
102
RTVSPost2010Prop38
140
0.0
102
RTVSPost2010PropOp38
 70
     1
102
RTVSPost2010Prop39
140
1.0
102
RTVSPost2010PropOp39
 70
     1
102
RTVSPost2010Prop40
 90
        0
102
RTVSPost2010PropOp40
 70
     1
102
RTVSPost2010Prop41ColorIndex
 90
       18
102
RTVSPost2010Prop41ColorRGB
 90
        0
102
RTVSPost2010PropOp41
 70
     1
102
RTVSPost2010Prop42
 90
       50
102
RTVSPost2010PropOp42
 70
     1
102
RTVSPost2010Prop43
 90
        3
102
RTVSPost2010PropOp43
 70
     1
102
RTVSPost2010Prop44ColorIndex
 90
        5
102
RTVSPost2010Prop44ColorRGB
 90
      255
102
RTVSPost2010PropOp44
 70
     1
102
RTVSPost2010Prop45
280
     0
102
RTVSPost2010PropOp45
 70
     1
102
RTVSPost2010Prop46
 90
       50
102
RTVSPost2010PropOp46
 70
     1
102
RTVSPost2010Prop47
 90
       50
102
RTVSPost2010PropOp47
 70
     1
102
RTVSPost2010Prop48
 90
       50
102
RTVSPost2010PropOp48
 70
     1
102
RTVSPost2010Prop49
280
     0
102
RTVSPost2010PropOp49
 70
     1
102
RTVSPost2010Prop50
 90
       50
102
RTVSPost2010PropOp50
 70
     1
102
RTVSPost2010Prop51ColorIndex
 90
      256
102
RTVSPost2010Prop51ColorRGB
 90
-16777216
102
RTVSPost2010PropOp51
 70
     0
102
RTVSPost2010Prop52
140
1.0
102
RTVSPost2010PropOp52
 70
     0
102
RTVSPost2010Prop53
 90
        2
102
RTVSPost2010PropOp53
 70
     1
102
RTVSPost2010Prop54
  1
strokes_ogs.tif
102
RTVSPost2010PropOp54
 70
     1
102
RTVSPost2010Prop55
280
     0
102
RTVSPost2010PropOp55
 70
     1
102
RTVSPost2010Prop56
140
1.0
102
RTVSPost2010PropOp56
 70
     1
102
RTVSPost2010Prop57
140
1.0
102
RTVSPost2010PropOp57
 70
     1
102
RTVSPropertyOp0
 70
     1
102
RTVSPropertyOp1
 70
     1
102
RTVSPropertyOp2
 70
     1
102
RTVSPropertyOp3
 70
     1
102
RTVSPropertyOp4
 70
     1
102
RTVSPropertyOp5
 70
     1
102
RTVSPropertyOp6
 70
     1
102
RTVSPropertyOp7
 70
     1
102
RTVSPropertyOp8
 70
     1
102
RTVSPropertyOp9
 70
     1
102
RTVSPropertyOp10
 70
     1
102
RTVSPropertyOp11
 70
     1
102
RTVSPropertyOp12
 70
     1
102
RTVSPropertyOp13
 70
     1
102
RTVSPropertyOp14
 70
     1
102
RTVSPropertyOp15
 70
     1
102
RTVSPropertyOp16
 70
     1
102
RTVSPropertyOp17
 70
     1
102
RTVSPropertyOp18
 70
     1
102
RTVSPropertyOp19
 70
     1
102
RTVSPropertyOp20
 70
     1
102
RTVSPropertyOp21
 70
     1
102
RTVSPropertyOp22
 70
     1
102
RTVSPropertyOp23
 70
     1
102
RTVSPropertyOp24
 70
     1
102
RTVSPropertyOp25
 70
     1
102
RTVSPropertyOp26
 70
     1
102
RTVSPropertyOp27
 70
     1
102
RTVSPropertyOp28
 70
     1
102
RTVSPropertyOp29
 70
     1
102
RTVSPropertyOp30
 70
     1
102
RTVSPropertyOp31
 70
     1
102
RTVSPropertyOp32
 70
     1
102
RTVSPropertyOp33
 70
     1
102
RTVSPropertyOp34
 70
     1
102
RTVSPropertyOp35
 70
     1
102
RTVSPropertyOp36
 70
     1
102
RTVSPropertyOp37
 70
     1
102
RTVSPropertyOp38
 70
     1
102
RTVSPropertyOp39
 70
     1
102
RTVSPropertyOp40
 70
     1
102
RTVSPropertyOp41
 70
     1
102
RTVSPropertyOp42
 70
     1
102
RTVSPropertyOp43
 70
     1
102
RTVSPropertyOp44
 70
     1
102
RTVSPropertyOp45
 70
     1
102
RTVSPropertyOp46
 70
     1
102
RTVSPropertyOp47
 70
     1
102
RTVSPropertyOp48
 70
     1
102
RTVSPropertyOp49
 70
     1
102
RTVSPropertyOp50
 70
     1
102
RTVSPropertyOp51
 70
     0
102
RTVSPropertyOp52
 70
     0
102
RTVSPropertyOp53
 70
     1
102
RTVSPropertyOp54
 70
     1
102
RTVSPropertyOp55
 70
     1
102
RTVSPropertyOp56
 70
     1
102
RTVSPropertyOp57
 70
     1
102
RTVSPropertyOp58
 70
     1
102
RTVSPropertyOp59
 70
     1
102
RTVSPropertyOp60
 70
     1
102
RTVSPropertyOp61
 70
     1
102
RTVSPropertyOp62
 70
     1
  0
XRECORD
  5
1856
102
{ACAD_REACTORS
330
1855
102
}
330
1855
100
AcDbXrecord
280
     1
102
RTVSPost2010Prop28
280
     0
102
RTVSPost2010PropOp28
 70
     1
102
RTVSPost2010Prop29
280
     1
102
RTVSPost2010PropOp29
 70
     1
102
RTVSPost2010Prop30
280
     1
102
RTVSPost2010PropOp30
 70
     1
102
RTVSPost2010Prop31
280
     0
102
RTVSPost2010PropOp31
 70
     1
102
RTVSPost2010Prop32
280
     0
102
RTVSPost2010PropOp32
 70
     1
102
RTVSPost2010Prop33
280
     0
102
RTVSPost2010PropOp33
 70
     1
102
RTVSPost2010Prop34
280
     0
102
RTVSPost2010PropOp34
 70
     1
102
RTVSPost2010Prop35
280
     0
102
RTVSPost2010PropOp35
 70
     1
102
RTVSPost2010Prop36
280
     0
102
RTVSPost2010PropOp36
 70
     1
102
RTVSPost2010Prop37
 90
       50
102
RTVSPost2010PropOp37
 70
     1
102
RTVSPost2010Prop38
140
0.0
102
RTVSPost2010PropOp38
 70
     1
102
RTVSPost2010Prop39
140
1.0
102
RTVSPost2010PropOp39
 70
     1
102
RTVSPost2010Prop40
 90
        0
102
RTVSPost2010PropOp40
 70
     1
102
RTVSPost2010Prop41ColorIndex
 90
       18
102
RTVSPost2010Prop41ColorRGB
 90
        0
102
RTVSPost2010PropOp41
 70
     1
102
RTVSPost2010Prop42
 90
       50
102
RTVSPost2010PropOp42
 70
     1
102
RTVSPost2010Prop43
 90
        3
102
RTVSPost2010PropOp43
 70
     1
102
RTVSPost2010Prop44ColorIndex
 90
        5
102
RTVSPost2010Prop44ColorRGB
 90
      255
102
RTVSPost2010PropOp44
 70
     1
102
RTVSPost2010Prop45
280
     0
102
RTVSPost2010PropOp45
 70
     1
102
RTVSPost2010Prop46
 90
       50
102
RTVSPost2010PropOp46
 70
     1
102
RTVSPost2010Prop47
 90
       50
102
RTVSPost2010PropOp47
 70
     1
102
RTVSPost2010Prop48
 90
       50
102
RTVSPost2010PropOp48
 70
     1
102
RTVSPost2010Prop49
280
     0
102
RTVSPost2010PropOp49
 70
     1
102
RTVSPost2010Prop50
 90
       50
102
RTVSPost2010PropOp50
 70
     1
102
RTVSPost2010Prop51ColorIndex
 90
      256
102
RTVSPost2010Prop51ColorRGB
 90
-16777216
102
RTVSPost2010PropOp51
 70
     0
102
RTVSPost2010Prop52
140
1.0
102
RTVSPost2010PropOp52
 70
     0
102
RTVSPost2010Prop53
 90
        2
102
RTVSPost2010PropOp53
 70
     1
102
RTVSPost2010Prop54
  1
strokes_ogs.tif
102
RTVSPost2010PropOp54
 70
     1
102
RTVSPost2010Prop55
280
     0
102
RTVSPost2010PropOp55
 70
     1
102
RTVSPost2010Prop56
140
1.0
102
RTVSPost2010PropOp56
 70
     1
102
RTVSPost2010Prop57
140
1.0
102
RTVSPost2010PropOp57
 70
     1
102
RTVSPropertyOp0
 70
     1
102
RTVSPropertyOp1
 70
     1
102
RTVSPropertyOp2
 70
     1
102
RTVSPropertyOp3
 70
     1
102
RTVSPropertyOp4
 70
     1
102
RTVSPropertyOp5
 70
     1
102
RTVSPropertyOp6
 70
     1
102
RTVSPropertyOp7
 70
     1
102
RTVSPropertyOp8
 70
     1
102
RTVSPropertyOp9
 70
     1
102
RTVSPropertyOp10
 70
     1
102
RTVSPropertyOp11
 70
     1
102
RTVSPropertyOp12
 70
     1
102
RTVSPropertyOp13
 70
     1
102
RTVSPropertyOp14
 70
     1
102
RTVSPropertyOp15
 70
     1
102
RTVSPropertyOp16
 70
     1
102
RTVSPropertyOp17
 70
     1
102
RTVSPropertyOp18
 70
     1
102
RTVSPropertyOp19
 70
     1
102
RTVSPropertyOp20
 70
     1
102
RTVSPropertyOp21
 70
     1
102
RTVSPropertyOp22
 70
     1
102
RTVSPropertyOp23
 70
     1
102
RTVSPropertyOp24
 70
     1
102
RTVSPropertyOp25
 70
     1
102
RTVSPropertyOp26
 70
     1
102
RTVSPropertyOp27
 70
     1
102
RTVSPropertyOp28
 70
     1
102
RTVSPropertyOp29
 70
     1
102
RTVSPropertyOp30
 70
     1
102
RTVSPropertyOp31
 70
     1
102
RTVSPropertyOp32
 70
     1
102
RTVSPropertyOp33
 70
     1
102
RTVSPropertyOp34
 70
     1
102
RTVSPropertyOp35
 70
     1
102
RTVSPropertyOp36
 70
     1
102
RTVSPropertyOp37
 70
     1
102
RTVSPropertyOp38
 70
     1
102
RTVSPropertyOp39
 70
     1
102
RTVSPropertyOp40
 70
     1
102
RTVSPropertyOp41
 70
     1
102
RTVSPropertyOp42
 70
     1
102
RTVSPropertyOp43
 70
     1
102
RTVSPropertyOp44
 70
     1
102
RTVSPropertyOp45
 70
     1
102
RTVSPropertyOp46
 70
     1
102
RTVSPropertyOp47
 70
     1
102
RTVSPropertyOp48
 70
     1
102
RTVSPropertyOp49
 70
     1
102
RTVSPropertyOp50
 70
     1
102
RTVSPropertyOp51
 70
     0
102
RTVSPropertyOp52
 70
     0
102
RTVSPropertyOp53
 70
     1
102
RTVSPropertyOp54
 70
     1
102
RTVSPropertyOp55
 70
     1
102
RTVSPropertyOp56
 70
     1
102
RTVSPropertyOp57
 70
     1
102
RTVSPropertyOp58
 70
     1
102
RTVSPropertyOp59
 70
     1
102
RTVSPropertyOp60
 70
     1
102
RTVSPropertyOp61
 70
     1
102
RTVSPropertyOp62
 70
     1
  0
XRECORD
  5
1858
102
{ACAD_REACTORS
330
1857
102
}
330
1857
100
AcDbXrecord
280
     1
102
RTVSPost2010Prop28
280
     0
102
RTVSPost2010PropOp28
 70
     1
102
RTVSPost2010Prop29
280
     1
102
RTVSPost2010PropOp29
 70
     1
102
RTVSPost2010Prop30
280
     1
102
RTVSPost2010PropOp30
 70
     1
102
RTVSPost2010Prop31
280
     0
102
RTVSPost2010PropOp31
 70
     1
102
RTVSPost2010Prop32
280
     0
102
RTVSPost2010PropOp32
 70
     1
102
RTVSPost2010Prop33
280
     0
102
RTVSPost2010PropOp33
 70
     1
102
RTVSPost2010Prop34
280
     0
102
RTVSPost2010PropOp34
 70
     1
102
RTVSPost2010Prop35
280
     0
102
RTVSPost2010PropOp35
 70
     1
102
RTVSPost2010Prop36
280
     0
102
RTVSPost2010PropOp36
 70
     1
102
RTVSPost2010Prop37
 90
       50
102
RTVSPost2010PropOp37
 70
     1
102
RTVSPost2010Prop38
140
0.0
102
RTVSPost2010PropOp38
 70
     1
102
RTVSPost2010Prop39
140
1.0
102
RTVSPost2010PropOp39
 70
     1
102
RTVSPost2010Prop40
 90
        0
102
RTVSPost2010PropOp40
 70
     1
102
RTVSPost2010Prop41ColorIndex
 90
       18
102
RTVSPost2010Prop41ColorRGB
 90
        0
102
RTVSPost2010PropOp41
 70
     1
102
RTVSPost2010Prop42
 90
       50
102
RTVSPost2010PropOp42
 70
     1
102
RTVSPost2010Prop43
 90
        3
102
RTVSPost2010PropOp43
 70
     1
102
RTVSPost2010Prop44ColorIndex
 90
        5
102
RTVSPost2010Prop44ColorRGB
 90
      255
102
RTVSPost2010PropOp44
 70
     1
102
RTVSPost2010Prop45
280
     0
102
RTVSPost2010PropOp45
 70
     1
102
RTVSPost2010Prop46
 90
       50
102
RTVSPost2010PropOp46
 70
     1
102
RTVSPost2010Prop47
 90
       50
102
RTVSPost2010PropOp47
 70
     1
102
RTVSPost2010Prop48
 90
       50
102
RTVSPost2010PropOp48
 70
     1
102
RTVSPost2010Prop49
280
     0
102
RTVSPost2010PropOp49
 70
     1
102
RTVSPost2010Prop50
 90
       50
102
RTVSPost2010PropOp50
 70
     1
102
RTVSPost2010Prop51ColorIndex
 90
      256
102
RTVSPost2010Prop51ColorRGB
 90
-16777216
102
RTVSPost2010PropOp51
 70
     0
102
RTVSPost2010Prop52
140
1.0
102
RTVSPost2010PropOp52
 70
     0
102
RTVSPost2010Prop53
 90
        2
102
RTVSPost2010PropOp53
 70
     1
102
RTVSPost2010Prop54
  1
strokes_ogs.tif
102
RTVSPost2010PropOp54
 70
     1
102
RTVSPost2010Prop55
280
     0
102
RTVSPost2010PropOp55
 70
     1
102
RTVSPost2010Prop56
140
1.0
102
RTVSPost2010PropOp56
 70
     1
102
RTVSPost2010Prop57
140
1.0
102
RTVSPost2010PropOp57
 70
     1
102
RTVSPropertyOp0
 70
     1
102
RTVSPropertyOp1
 70
     1
102
RTVSPropertyOp2
 70
     1
102
RTVSPropertyOp3
 70
     1
102
RTVSPropertyOp4
 70
     1
102
RTVSPropertyOp5
 70
     1
102
RTVSPropertyOp6
 70
     1
102
RTVSPropertyOp7
 70
     1
102
RTVSPropertyOp8
 70
     1
102
RTVSPropertyOp9
 70
     1
102
RTVSPropertyOp10
 70
     1
102
RTVSPropertyOp11
 70
     1
102
RTVSPropertyOp12
 70
     1
102
RTVSPropertyOp13
 70
     1
102
RTVSPropertyOp14
 70
     1
102
RTVSPropertyOp15
 70
     1
102
RTVSPropertyOp16
 70
     1
102
RTVSPropertyOp17
 70
     1
102
RTVSPropertyOp18
 70
     1
102
RTVSPropertyOp19
 70
     1
102
RTVSPropertyOp20
 70
     1
102
RTVSPropertyOp21
 70
     1
102
RTVSPropertyOp22
 70
     1
102
RTVSPropertyOp23
 70
     1
102
RTVSPropertyOp24
 70
     1
102
RTVSPropertyOp25
 70
     1
102
RTVSPropertyOp26
 70
     1
102
RTVSPropertyOp27
 70
     1
102
RTVSPropertyOp28
 70
     1
102
RTVSPropertyOp29
 70
     1
102
RTVSPropertyOp30
 70
     1
102
RTVSPropertyOp31
 70
     1
102
RTVSPropertyOp32
 70
     1
102
RTVSPropertyOp33
 70
     1
102
RTVSPropertyOp34
 70
     1
102
RTVSPropertyOp35
 70
     1
102
RTVSPropertyOp36
 70
     1
102
RTVSPropertyOp37
 70
     1
102
RTVSPropertyOp38
 70
     1
102
RTVSPropertyOp39
 70
     1
102
RTVSPropertyOp40
 70
     1
102
RTVSPropertyOp41
 70
     1
102
RTVSPropertyOp42
 70
     1
102
RTVSPropertyOp43
 70
     1
102
RTVSPropertyOp44
 70
     1
102
RTVSPropertyOp45
 70
     1
102
RTVSPropertyOp46
 70
     1
102
RTVSPropertyOp47
 70
     1
102
RTVSPropertyOp48
 70
     1
102
RTVSPropertyOp49
 70
     1
102
RTVSPropertyOp50
 70
     1
102
RTVSPropertyOp51
 70
     0
102
RTVSPropertyOp52
 70
     0
102
RTVSPropertyOp53
 70
     1
102
RTVSPropertyOp54
 70
     1
102
RTVSPropertyOp55
 70
     1
102
RTVSPropertyOp56
 70
     1
102
RTVSPropertyOp57
 70
     1
102
RTVSPropertyOp58
 70
     1
102
RTVSPropertyOp59
 70
     1
102
RTVSPropertyOp60
 70
     1
102
RTVSPropertyOp61
 70
     1
102
RTVSPropertyOp62
 70
     1
  0
XRECORD
  5
1860
102
{ACAD_REACTORS
330
185F
102
}
330
185F
100
AcDbXrecord
280
     1
102
RTVSPost2010Prop28
280
     0
102
RTVSPost2010PropOp28
 70
     1
102
RTVSPost2010Prop29
280
     1
102
RTVSPost2010PropOp29
 70
     1
102
RTVSPost2010Prop30
280
     1
102
RTVSPost2010PropOp30
 70
     1
102
RTVSPost2010Prop31
280
     0
102
RTVSPost2010PropOp31
 70
     1
102
RTVSPost2010Prop32
280
     0
102
RTVSPost2010PropOp32
 70
     1
102
RTVSPost2010Prop33
280
     0
102
RTVSPost2010PropOp33
 70
     1
102
RTVSPost2010Prop34
280
     0
102
RTVSPost2010PropOp34
 70
     1
102
RTVSPost2010Prop35
280
     0
102
RTVSPost2010PropOp35
 70
     1
102
RTVSPost2010Prop36
280
     0
102
RTVSPost2010PropOp36
 70
     1
102
RTVSPost2010Prop37
 90
       50
102
RTVSPost2010PropOp37
 70
     1
102
RTVSPost2010Prop38
140
0.0
102
RTVSPost2010PropOp38
 70
     1
102
RTVSPost2010Prop39
140
1.0
102
RTVSPost2010PropOp39
 70
     1
102
RTVSPost2010Prop40
 90
        0
102
RTVSPost2010PropOp40
 70
     1
102
RTVSPost2010Prop41ColorIndex
 90
       18
102
RTVSPost2010Prop41ColorRGB
 90
        0
102
RTVSPost2010PropOp41
 70
     1
102
RTVSPost2010Prop42
 90
       50
102
RTVSPost2010PropOp42
 70
     1
102
RTVSPost2010Prop43
 90
        3
102
RTVSPost2010PropOp43
 70
     1
102
RTVSPost2010Prop44ColorIndex
 90
        5
102
RTVSPost2010Prop44ColorRGB
 90
      255
102
RTVSPost2010PropOp44
 70
     1
102
RTVSPost2010Prop45
280
     0
102
RTVSPost2010PropOp45
 70
     1
102
RTVSPost2010Prop46
 90
       50
102
RTVSPost2010PropOp46
 70
     1
102
RTVSPost2010Prop47
 90
       50
102
RTVSPost2010PropOp47
 70
     1
102
RTVSPost2010Prop48
 90
       50
102
RTVSPost2010PropOp48
 70
     1
102
RTVSPost2010Prop49
280
     0
102
RTVSPost2010PropOp49
 70
     1
102
RTVSPost2010Prop50
 90
       50
102
RTVSPost2010PropOp50
 70
     1
102
RTVSPost2010Prop51ColorIndex
 90
      256
102
RTVSPost2010Prop51ColorRGB
 90
-16777216
102
RTVSPost2010PropOp51
 70
     0
102
RTVSPost2010Prop52
140
1.0
102
RTVSPost2010PropOp52
 70
     0
102
RTVSPost2010Prop53
 90
        2
102
RTVSPost2010PropOp53
 70
     1
102
RTVSPost2010Prop54
  1
strokes_ogs.tif
102
RTVSPost2010PropOp54
 70
     1
102
RTVSPost2010Prop55
280
     0
102
RTVSPost2010PropOp55
 70
     1
102
RTVSPost2010Prop56
140
1.0
102
RTVSPost2010PropOp56
 70
     1
102
RTVSPost2010Prop57
140
1.0
102
RTVSPost2010PropOp57
 70
     1
102
RTVSPropertyOp0
 70
     1
102
RTVSPropertyOp1
 70
     1
102
RTVSPropertyOp2
 70
     1
102
RTVSPropertyOp3
 70
     1
102
RTVSPropertyOp4
 70
     1
102
RTVSPropertyOp5
 70
     1
102
RTVSPropertyOp6
 70
     1
102
RTVSPropertyOp7
 70
     1
102
RTVSPropertyOp8
 70
     1
102
RTVSPropertyOp9
 70
     1
102
RTVSPropertyOp10
 70
     1
102
RTVSPropertyOp11
 70
     1
102
RTVSPropertyOp12
 70
     1
102
RTVSPropertyOp13
 70
     1
102
RTVSPropertyOp14
 70
     1
102
RTVSPropertyOp15
 70
     1
102
RTVSPropertyOp16
 70
     1
102
RTVSPropertyOp17
 70
     1
102
RTVSPropertyOp18
 70
     1
102
RTVSPropertyOp19
 70
     1
102
RTVSPropertyOp20
 70
     1
102
RTVSPropertyOp21
 70
     1
102
RTVSPropertyOp22
 70
     1
102
RTVSPropertyOp23
 70
     1
102
RTVSPropertyOp24
 70
     1
102
RTVSPropertyOp25
 70
     1
102
RTVSPropertyOp26
 70
     1
102
RTVSPropertyOp27
 70
     1
102
RTVSPropertyOp28
 70
     1
102
RTVSPropertyOp29
 70
     1
102
RTVSPropertyOp30
 70
     1
102
RTVSPropertyOp31
 70
     1
102
RTVSPropertyOp32
 70
     1
102
RTVSPropertyOp33
 70
     1
102
RTVSPropertyOp34
 70
     1
102
RTVSPropertyOp35
 70
     1
102
RTVSPropertyOp36
 70
     1
102
RTVSPropertyOp37
 70
     1
102
RTVSPropertyOp38
 70
     1
102
RTVSPropertyOp39
 70
     1
102
RTVSPropertyOp40
 70
     1
102
RTVSPropertyOp41
 70
     1
102
RTVSPropertyOp42
 70
     1
102
RTVSPropertyOp43
 70
     1
102
RTVSPropertyOp44
 70
     1
102
RTVSPropertyOp45
 70
     1
102
RTVSPropertyOp46
 70
     1
102
RTVSPropertyOp47
 70
     1
102
RTVSPropertyOp48
 70
     1
102
RTVSPropertyOp49
 70
     1
102
RTVSPropertyOp50
 70
     1
102
RTVSPropertyOp51
 70
     0
102
RTVSPropertyOp52
 70
     0
102
RTVSPropertyOp53
 70
     1
102
RTVSPropertyOp54
 70
     1
102
RTVSPropertyOp55
 70
     1
102
RTVSPropertyOp56
 70
     1
102
RTVSPropertyOp57
 70
     1
102
RTVSPropertyOp58
 70
     1
102
RTVSPropertyOp59
 70
     1
102
RTVSPropertyOp60
 70
     1
102
RTVSPropertyOp61
 70
     1
102
RTVSPropertyOp62
 70
     1
  0
XRECORD
  5
187C
102
{ACAD_REACTORS
330
187B
102
}
330
187B
100
AcDbXrecord
280
     1
102
RTVSPost2010Prop28
280
     0
102
RTVSPost2010PropOp28
 70
     0
102
RTVSPost2010Prop29
280
     1
102
RTVSPost2010PropOp29
 70
     0
102
RTVSPost2010Prop30
280
     1
102
RTVSPost2010PropOp30
 70
     0
102
RTVSPost2010Prop31
280
     0
102
RTVSPost2010PropOp31
 70
     0
102
RTVSPost2010Prop32
280
     0
102
RTVSPost2010PropOp32
 70
     0
102
RTVSPost2010Prop33
280
     0
102
RTVSPost2010PropOp33
 70
     0
102
RTVSPost2010Prop34
280
     0
102
RTVSPost2010PropOp34
 70
     0
102
RTVSPost2010Prop35
280
     0
102
RTVSPost2010PropOp35
 70
     0
102
RTVSPost2010Prop36
280
     0
102
RTVSPost2010PropOp36
 70
     0
102
RTVSPost2010Prop37
 90
       50
102
RTVSPost2010PropOp37
 70
     0
102
RTVSPost2010Prop38
140
0.0
102
RTVSPost2010PropOp38
 70
     0
102
RTVSPost2010Prop39
140
1.0
102
RTVSPost2010PropOp39
 70
     0
102
RTVSPost2010Prop40
 90
        0
102
RTVSPost2010PropOp40
 70
     0
102
RTVSPost2010Prop41ColorIndex
 90
       18
102
RTVSPost2010Prop41ColorRGB
 90
        0
102
RTVSPost2010PropOp41
 70
     0
102
RTVSPost2010Prop42
 90
       50
102
RTVSPost2010PropOp42
 70
     0
102
RTVSPost2010Prop43
 90
        3
102
RTVSPost2010PropOp43
 70
     0
102
RTVSPost2010Prop44ColorIndex
 90
        5
102
RTVSPost2010Prop44ColorRGB
 90
      255
102
RTVSPost2010PropOp44
 70
     0
102
RTVSPost2010Prop45
280
     0
102
RTVSPost2010PropOp45
 70
     0
102
RTVSPost2010Prop46
 90
       50
102
RTVSPost2010PropOp46
 70
     0
102
RTVSPost2010Prop47
 90
       50
102
RTVSPost2010PropOp47
 70
     0
102
RTVSPost2010Prop48
 90
       50
102
RTVSPost2010PropOp48
 70
     0
102
RTVSPost2010Prop49
280
     0
102
RTVSPost2010PropOp49
 70
     0
102
RTVSPost2010Prop50
 90
       50
102
RTVSPost2010PropOp50
 70
     0
102
RTVSPost2010Prop51ColorIndex
 90
      256
102
RTVSPost2010Prop51ColorRGB
 90
-16777216
102
RTVSPost2010PropOp51
 70
     0
102
RTVSPost2010Prop52
140
1.0
102
RTVSPost2010PropOp52
 70
     0
102
RTVSPost2010Prop53
 90
        2
102
RTVSPost2010PropOp53
 70
     0
102
RTVSPost2010Prop54
  1
strokes_ogs.tif
102
RTVSPost2010PropOp54
 70
     0
102
RTVSPost2010Prop55
280
     0
102
RTVSPost2010PropOp55
 70
     0
102
RTVSPost2010Prop56
140
1.0
102
RTVSPost2010PropOp56
 70
     0
102
RTVSPost2010Prop57
140
1.0
102
RTVSPost2010PropOp57
 70
     0
102
RTVSPropertyOp0
 70
     0
102
RTVSPropertyOp1
 70
     0
102
RTVSPropertyOp2
 70
     0
102
RTVSPropertyOp3
 70
     0
102
RTVSPropertyOp4
 70
     0
102
RTVSPropertyOp5
 70
     0
102
RTVSPropertyOp6
 70
     0
102
RTVSPropertyOp7
 70
     0
102
RTVSPropertyOp8
 70
     0
102
RTVSPropertyOp9
 70
     0
102
RTVSPropertyOp10
 70
     0
102
RTVSPropertyOp11
 70
     0
102
RTVSPropertyOp12
 70
     0
102
RTVSPropertyOp13
 70
     0
102
RTVSPropertyOp14
 70
     2
102
RTVSPropertyOp15
 70
     0
102
RTVSPropertyOp16
 70
     0
102
RTVSPropertyOp17
 70
     0
102
RTVSPropertyOp18
 70
     0
102
RTVSPropertyOp19
 70
     0
102
RTVSPropertyOp20
 70
     0
102
RTVSPropertyOp21
 70
     0
102
RTVSPropertyOp22
 70
     0
102
RTVSPropertyOp23
 70
     0
102
RTVSPropertyOp24
 70
     0
102
RTVSPropertyOp25
 70
     0
102
RTVSPropertyOp26
 70
     0
102
RTVSPropertyOp27
 70
     0
102
RTVSPropertyOp28
 70
     0
102
RTVSPropertyOp29
 70
     0
102
RTVSPropertyOp30
 70
     0
102
RTVSPropertyOp31
 70
     0
102
RTVSPropertyOp32
 70
     0
102
RTVSPropertyOp33
 70
     0
102
RTVSPropertyOp34
 70
     0
102
RTVSPropertyOp35
 70
     0
102
RTVSPropertyOp36
 70
     0
102
RTVSPropertyOp37
 70
     0
102
RTVSPropertyOp38
 70
     0
102
RTVSPropertyOp39
 70
     0
102
RTVSPropertyOp40
 70
     0
102
RTVSPropertyOp41
 70
     0
102
RTVSPropertyOp42
 70
     0
102
RTVSPropertyOp43
 70
     0
102
RTVSPropertyOp44
 70
     0
102
RTVSPropertyOp45
 70
     0
102
RTVSPropertyOp46
 70
     0
102
RTVSPropertyOp47
 70
     0
102
RTVSPropertyOp48
 70
     0
102
RTVSPropertyOp49
 70
     0
102
RTVSPropertyOp50
 70
     0
102
RTVSPropertyOp51
 70
     0
102
RTVSPropertyOp52
 70
     0
102
RTVSPropertyOp53
 70
     0
102
RTVSPropertyOp54
 70
     0
102
RTVSPropertyOp55
 70
     0
102
RTVSPropertyOp56
 70
     0
102
RTVSPropertyOp57
 70
     0
102
RTVSPropertyOp58
 70
     0
102
RTVSPropertyOp59
 70
     0
102
RTVSPropertyOp60
 70
     0
102
RTVSPropertyOp61
 70
     0
102
RTVSPropertyOp62
 70
     0
  0
XRECORD
  5
186C
102
{ACAD_REACTORS
330
186B
102
}
330
186B
100
AcDbXrecord
280
     1
102
RTVSPost2010Prop28
280
     0
102
RTVSPost2010PropOp28
 70
     1
102
RTVSPost2010Prop29
280
     1
102
RTVSPost2010PropOp29
 70
     1
102
RTVSPost2010Prop30
280
     1
102
RTVSPost2010PropOp30
 70
     1
102
RTVSPost2010Prop31
280
     0
102
RTVSPost2010PropOp31
 70
     1
102
RTVSPost2010Prop32
280
     0
102
RTVSPost2010PropOp32
 70
     1
102
RTVSPost2010Prop33
280
     0
102
RTVSPost2010PropOp33
 70
     1
102
RTVSPost2010Prop34
280
     0
102
RTVSPost2010PropOp34
 70
     1
102
RTVSPost2010Prop35
280
     0
102
RTVSPost2010PropOp35
 70
     1
102
RTVSPost2010Prop36
280
     0
102
RTVSPost2010PropOp36
 70
     1
102
RTVSPost2010Prop37
 90
       50
102
RTVSPost2010PropOp37
 70
     1
102
RTVSPost2010Prop38
140
0.0
102
RTVSPost2010PropOp38
 70
     1
102
RTVSPost2010Prop39
140
1.0
102
RTVSPost2010PropOp39
 70
     1
102
RTVSPost2010Prop40
 90
        0
102
RTVSPost2010PropOp40
 70
     1
102
RTVSPost2010Prop41ColorIndex
 90
       18
102
RTVSPost2010Prop41ColorRGB
 90
        0
102
RTVSPost2010PropOp41
 70
     1
102
RTVSPost2010Prop42
 90
       50
102
RTVSPost2010PropOp42
 70
     1
102
RTVSPost2010Prop43
 90
        3
102
RTVSPost2010PropOp43
 70
     1
102
RTVSPost2010Prop44ColorIndex
 90
        5
102
RTVSPost2010Prop44ColorRGB
 90
      255
102
RTVSPost2010PropOp44
 70
     1
102
RTVSPost2010Prop45
280
     0
102
RTVSPost2010PropOp45
 70
     1
102
RTVSPost2010Prop46
 90
       50
102
RTVSPost2010PropOp46
 70
     1
102
RTVSPost2010Prop47
 90
       50
102
RTVSPost2010PropOp47
 70
     1
102
RTVSPost2010Prop48
 90
       50
102
RTVSPost2010PropOp48
 70
     1
102
RTVSPost2010Prop49
280
     0
102
RTVSPost2010PropOp49
 70
     1
102
RTVSPost2010Prop50
 90
       50
102
RTVSPost2010PropOp50
 70
     1
102
RTVSPost2010Prop51ColorIndex
 90
      256
102
RTVSPost2010Prop51ColorRGB
 90
-16777216
102
RTVSPost2010PropOp51
 70
     0
102
RTVSPost2010Prop52
140
1.0
102
RTVSPost2010PropOp52
 70
     0
102
RTVSPost2010Prop53
 90
        2
102
RTVSPost2010PropOp53
 70
     1
102
RTVSPost2010Prop54
  1
strokes_ogs.tif
102
RTVSPost2010PropOp54
 70
     1
102
RTVSPost2010Prop55
280
     0
102
RTVSPost2010PropOp55
 70
     1
102
RTVSPost2010Prop56
140
1.0
102
RTVSPost2010PropOp56
 70
     1
102
RTVSPost2010Prop57
140
1.0
102
RTVSPost2010PropOp57
 70
     1
102
RTVSPropertyOp0
 70
     1
102
RTVSPropertyOp1
 70
     1
102
RTVSPropertyOp2
 70
     1
102
RTVSPropertyOp3
 70
     1
102
RTVSPropertyOp4
 70
     1
102
RTVSPropertyOp5
 70
     1
102
RTVSPropertyOp6
 70
     1
102
RTVSPropertyOp7
 70
     1
102
RTVSPropertyOp8
 70
     1
102
RTVSPropertyOp9
 70
     1
102
RTVSPropertyOp10
 70
     1
102
RTVSPropertyOp11
 70
     1
102
RTVSPropertyOp12
 70
     1
102
RTVSPropertyOp13
 70
     1
102
RTVSPropertyOp14
 70
     1
102
RTVSPropertyOp15
 70
     1
102
RTVSPropertyOp16
 70
     1
102
RTVSPropertyOp17
 70
     1
102
RTVSPropertyOp18
 70
     1
102
RTVSPropertyOp19
 70
     1
102
RTVSPropertyOp20
 70
     1
102
RTVSPropertyOp21
 70
     1
102
RTVSPropertyOp22
 70
     1
102
RTVSPropertyOp23
 70
     1
102
RTVSPropertyOp24
 70
     1
102
RTVSPropertyOp25
 70
     1
102
RTVSPropertyOp26
 70
     1
102
RTVSPropertyOp27
 70
     1
102
RTVSPropertyOp28
 70
     1
102
RTVSPropertyOp29
 70
     1
102
RTVSPropertyOp30
 70
     1
102
RTVSPropertyOp31
 70
     1
102
RTVSPropertyOp32
 70
     1
102
RTVSPropertyOp33
 70
     1
102
RTVSPropertyOp34
 70
     1
102
RTVSPropertyOp35
 70
     1
102
RTVSPropertyOp36
 70
     1
102
RTVSPropertyOp37
 70
     1
102
RTVSPropertyOp38
 70
     1
102
RTVSPropertyOp39
 70
     1
102
RTVSPropertyOp40
 70
     1
102
RTVSPropertyOp41
 70
     1
102
RTVSPropertyOp42
 70
     1
102
RTVSPropertyOp43
 70
     1
102
RTVSPropertyOp44
 70
     1
102
RTVSPropertyOp45
 70
     1
102
RTVSPropertyOp46
 70
     1
102
RTVSPropertyOp47
 70
     1
102
RTVSPropertyOp48
 70
     1
102
RTVSPropertyOp49
 70
     1
102
RTVSPropertyOp50
 70
     1
102
RTVSPropertyOp51
 70
     0
102
RTVSPropertyOp52
 70
     0
102
RTVSPropertyOp53
 70
     1
102
RTVSPropertyOp54
 70
     1
102
RTVSPropertyOp55
 70
     1
102
RTVSPropertyOp56
 70
     1
102
RTVSPropertyOp57
 70
     1
102
RTVSPropertyOp58
 70
     1
102
RTVSPropertyOp59
 70
     1
102
RTVSPropertyOp60
 70
     1
102
RTVSPropertyOp61
 70
     1
102
RTVSPropertyOp62
 70
     1
  0
XRECORD
  5
187E
102
{ACAD_REACTORS
330
187D
102
}
330
187D
100
AcDbXrecord
280
     1
102
RTVSPost2010Prop28
280
     0
102
RTVSPost2010PropOp28
 70
     0
102
RTVSPost2010Prop29
280
     1
102
RTVSPost2010PropOp29
 70
     0
102
RTVSPost2010Prop30
280
     1
102
RTVSPost2010PropOp30
 70
     0
102
RTVSPost2010Prop31
280
     0
102
RTVSPost2010PropOp31
 70
     0
102
RTVSPost2010Prop32
280
     0
102
RTVSPost2010PropOp32
 70
     0
102
RTVSPost2010Prop33
280
     0
102
RTVSPost2010PropOp33
 70
     0
102
RTVSPost2010Prop34
280
     0
102
RTVSPost2010PropOp34
 70
     0
102
RTVSPost2010Prop35
280
     0
102
RTVSPost2010PropOp35
 70
     0
102
RTVSPost2010Prop36
280
     0
102
RTVSPost2010PropOp36
 70
     0
102
RTVSPost2010Prop37
 90
       50
102
RTVSPost2010PropOp37
 70
     0
102
RTVSPost2010Prop38
140
0.0
102
RTVSPost2010PropOp38
 70
     0
102
RTVSPost2010Prop39
140
1.0
102
RTVSPost2010PropOp39
 70
     0
102
RTVSPost2010Prop40
 90
        0
102
RTVSPost2010PropOp40
 70
     0
102
RTVSPost2010Prop41ColorIndex
 90
       18
102
RTVSPost2010Prop41ColorRGB
 90
        0
102
RTVSPost2010PropOp41
 70
     0
102
RTVSPost2010Prop42
 90
       50
102
RTVSPost2010PropOp42
 70
     0
102
RTVSPost2010Prop43
 90
        3
102
RTVSPost2010PropOp43
 70
     0
102
RTVSPost2010Prop44ColorIndex
 90
        5
102
RTVSPost2010Prop44ColorRGB
 90
      255
102
RTVSPost2010PropOp44
 70
     0
102
RTVSPost2010Prop45
280
     0
102
RTVSPost2010PropOp45
 70
     0
102
RTVSPost2010Prop46
 90
       50
102
RTVSPost2010PropOp46
 70
     0
102
RTVSPost2010Prop47
 90
       50
102
RTVSPost2010PropOp47
 70
     0
102
RTVSPost2010Prop48
 90
       50
102
RTVSPost2010PropOp48
 70
     0
102
RTVSPost2010Prop49
280
     0
102
RTVSPost2010PropOp49
 70
     0
102
RTVSPost2010Prop50
 90
       50
102
RTVSPost2010PropOp50
 70
     0
102
RTVSPost2010Prop51ColorIndex
 90
      256
102
RTVSPost2010Prop51ColorRGB
 90
-16777216
102
RTVSPost2010PropOp51
 70
     0
102
RTVSPost2010Prop52
140
1.0
102
RTVSPost2010PropOp52
 70
     0
102
RTVSPost2010Prop53
 90
        2
102
RTVSPost2010PropOp53
 70
     0
102
RTVSPost2010Prop54
  1
strokes_ogs.tif
102
RTVSPost2010PropOp54
 70
     0
102
RTVSPost2010Prop55
280
     0
102
RTVSPost2010PropOp55
 70
     0
102
RTVSPost2010Prop56
140
1.0
102
RTVSPost2010PropOp56
 70
     0
102
RTVSPost2010Prop57
140
1.0
102
RTVSPost2010PropOp57
 70
     0
102
RTVSPropertyOp0
 70
     0
102
RTVSPropertyOp1
 70
     0
102
RTVSPropertyOp2
 70
     0
102
RTVSPropertyOp3
 70
     0
102
RTVSPropertyOp4
 70
     0
102
RTVSPropertyOp5
 70
     0
102
RTVSPropertyOp6
 70
     0
102
RTVSPropertyOp7
 70
     0
102
RTVSPropertyOp8
 70
     0
102
RTVSPropertyOp9
 70
     0
102
RTVSPropertyOp10
 70
     0
102
RTVSPropertyOp11
 70
     0
102
RTVSPropertyOp12
 70
     0
102
RTVSPropertyOp13
 70
     0
102
RTVSPropertyOp14
 70
     2
102
RTVSPropertyOp15
 70
     0
102
RTVSPropertyOp16
 70
     0
102
RTVSPropertyOp17
 70
     0
102
RTVSPropertyOp18
 70
     0
102
RTVSPropertyOp19
 70
     0
102
RTVSPropertyOp20
 70
     0
102
RTVSPropertyOp21
 70
     0
102
RTVSPropertyOp22
 70
     0
102
RTVSPropertyOp23
 70
     0
102
RTVSPropertyOp24
 70
     0
102
RTVSPropertyOp25
 70
     0
102
RTVSPropertyOp26
 70
     0
102
RTVSPropertyOp27
 70
     0
102
RTVSPropertyOp28
 70
     0
102
RTVSPropertyOp29
 70
     0
102
RTVSPropertyOp30
 70
     0
102
RTVSPropertyOp31
 70
     0
102
RTVSPropertyOp32
 70
     0
102
RTVSPropertyOp33
 70
     0
102
RTVSPropertyOp34
 70
     0
102
RTVSPropertyOp35
 70
     0
102
RTVSPropertyOp36
 70
     0
102
RTVSPropertyOp37
 70
     0
102
RTVSPropertyOp38
 70
     0
102
RTVSPropertyOp39
 70
     0
102
RTVSPropertyOp40
 70
     0
102
RTVSPropertyOp41
 70
     0
102
RTVSPropertyOp42
 70
     0
102
RTVSPropertyOp43
 70
     0
102
RTVSPropertyOp44
 70
     0
102
RTVSPropertyOp45
 70
     0
102
RTVSPropertyOp46
 70
     0
102
RTVSPropertyOp47
 70
     0
102
RTVSPropertyOp48
 70
     0
102
RTVSPropertyOp49
 70
     0
102
RTVSPropertyOp50
 70
     0
102
RTVSPropertyOp51
 70
     0
102
RTVSPropertyOp52
 70
     0
102
RTVSPropertyOp53
 70
     0
102
RTVSPropertyOp54
 70
     0
102
RTVSPropertyOp55
 70
     0
102
RTVSPropertyOp56
 70
     0
102
RTVSPropertyOp57
 70
     0
102
RTVSPropertyOp58
 70
     0
102
RTVSPropertyOp59
 70
     0
102
RTVSPropertyOp60
 70
     0
102
RTVSPropertyOp61
 70
     0
102
RTVSPropertyOp62
 70
     0
  0
XRECORD
  5
1864
102
{ACAD_REACTORS
330
1863
102
}
330
1863
100
AcDbXrecord
280
     1
102
RTVSPost2010Prop28
280
     0
102
RTVSPost2010PropOp28
 70
     1
102
RTVSPost2010Prop29
280
     1
102
RTVSPost2010PropOp29
 70
     1
102
RTVSPost2010Prop30
280
     1
102
RTVSPost2010PropOp30
 70
     1
102
RTVSPost2010Prop31
280
     0
102
RTVSPost2010PropOp31
 70
     1
102
RTVSPost2010Prop32
280
     0
102
RTVSPost2010PropOp32
 70
     1
102
RTVSPost2010Prop33
280
     0
102
RTVSPost2010PropOp33
 70
     1
102
RTVSPost2010Prop34
280
     0
102
RTVSPost2010PropOp34
 70
     1
102
RTVSPost2010Prop35
280
     0
102
RTVSPost2010PropOp35
 70
     1
102
RTVSPost2010Prop36
280
     0
102
RTVSPost2010PropOp36
 70
     1
102
RTVSPost2010Prop37
 90
       50
102
RTVSPost2010PropOp37
 70
     1
102
RTVSPost2010Prop38
140
0.0
102
RTVSPost2010PropOp38
 70
     1
102
RTVSPost2010Prop39
140
1.0
102
RTVSPost2010PropOp39
 70
     1
102
RTVSPost2010Prop40
 90
        0
102
RTVSPost2010PropOp40
 70
     1
102
RTVSPost2010Prop41ColorIndex
 90
       18
102
RTVSPost2010Prop41ColorRGB
 90
        0
102
RTVSPost2010PropOp41
 70
     1
102
RTVSPost2010Prop42
 90
       50
102
RTVSPost2010PropOp42
 70
     1
102
RTVSPost2010Prop43
 90
        3
102
RTVSPost2010PropOp43
 70
     1
102
RTVSPost2010Prop44ColorIndex
 90
        5
102
RTVSPost2010Prop44ColorRGB
 90
      255
102
RTVSPost2010PropOp44
 70
     1
102
RTVSPost2010Prop45
280
     0
102
RTVSPost2010PropOp45
 70
     1
102
RTVSPost2010Prop46
 90
       50
102
RTVSPost2010PropOp46
 70
     1
102
RTVSPost2010Prop47
 90
       50
102
RTVSPost2010PropOp47
 70
     1
102
RTVSPost2010Prop48
 90
       50
102
RTVSPost2010PropOp48
 70
     1
102
RTVSPost2010Prop49
280
     0
102
RTVSPost2010PropOp49
 70
     1
102
RTVSPost2010Prop50
 90
       50
102
RTVSPost2010PropOp50
 70
     1
102
RTVSPost2010Prop51ColorIndex
 90
      256
102
RTVSPost2010Prop51ColorRGB
 90
-16777216
102
RTVSPost2010PropOp51
 70
     0
102
RTVSPost2010Prop52
140
1.0
102
RTVSPost2010PropOp52
 70
     0
102
RTVSPost2010Prop53
 90
        2
102
RTVSPost2010PropOp53
 70
     1
102
RTVSPost2010Prop54
  1
strokes_ogs.tif
102
RTVSPost2010PropOp54
 70
     1
102
RTVSPost2010Prop55
280
     0
102
RTVSPost2010PropOp55
 70
     1
102
RTVSPost2010Prop56
140
1.0
102
RTVSPost2010PropOp56
 70
     1
102
RTVSPost2010Prop57
140
1.0
102
RTVSPost2010PropOp57
 70
     1
102
RTVSPropertyOp0
 70
     1
102
RTVSPropertyOp1
 70
     1
102
RTVSPropertyOp2
 70
     1
102
RTVSPropertyOp3
 70
     1
102
RTVSPropertyOp4
 70
     1
102
RTVSPropertyOp5
 70
     1
102
RTVSPropertyOp6
 70
     1
102
RTVSPropertyOp7
 70
     1
102
RTVSPropertyOp8
 70
     1
102
RTVSPropertyOp9
 70
     1
102
RTVSPropertyOp10
 70
     1
102
RTVSPropertyOp11
 70
     1
102
RTVSPropertyOp12
 70
     1
102
RTVSPropertyOp13
 70
     1
102
RTVSPropertyOp14
 70
     1
102
RTVSPropertyOp15
 70
     1
102
RTVSPropertyOp16
 70
     1
102
RTVSPropertyOp17
 70
     1
102
RTVSPropertyOp18
 70
     1
102
RTVSPropertyOp19
 70
     1
102
RTVSPropertyOp20
 70
     1
102
RTVSPropertyOp21
 70
     1
102
RTVSPropertyOp22
 70
     1
102
RTVSPropertyOp23
 70
     1
102
RTVSPropertyOp24
 70
     1
102
RTVSPropertyOp25
 70
     1
102
RTVSPropertyOp26
 70
     1
102
RTVSPropertyOp27
 70
     1
102
RTVSPropertyOp28
 70
     1
102
RTVSPropertyOp29
 70
     1
102
RTVSPropertyOp30
 70
     1
102
RTVSPropertyOp31
 70
     1
102
RTVSPropertyOp32
 70
     1
102
RTVSPropertyOp33
 70
     1
102
RTVSPropertyOp34
 70
     1
102
RTVSPropertyOp35
 70
     1
102
RTVSPropertyOp36
 70
     1
102
RTVSPropertyOp37
 70
     1
102
RTVSPropertyOp38
 70
     1
102
RTVSPropertyOp39
 70
     1
102
RTVSPropertyOp40
 70
     1
102
RTVSPropertyOp41
 70
     1
102
RTVSPropertyOp42
 70
     1
102
RTVSPropertyOp43
 70
     1
102
RTVSPropertyOp44
 70
     1
102
RTVSPropertyOp45
 70
     1
102
RTVSPropertyOp46
 70
     1
102
RTVSPropertyOp47
 70
     1
102
RTVSPropertyOp48
 70
     1
102
RTVSPropertyOp49
 70
     1
102
RTVSPropertyOp50
 70
     1
102
RTVSPropertyOp51
 70
     0
102
RTVSPropertyOp52
 70
     0
102
RTVSPropertyOp53
 70
     1
102
RTVSPropertyOp54
 70
     1
102
RTVSPropertyOp55
 70
     1
102
RTVSPropertyOp56
 70
     1
102
RTVSPropertyOp57
 70
     1
102
RTVSPropertyOp58
 70
     1
102
RTVSPropertyOp59
 70
     1
102
RTVSPropertyOp60
 70
     1
102
RTVSPropertyOp61
 70
     1
102
RTVSPropertyOp62
 70
     1
  0
XRECORD
  5
187A
102
{ACAD_REACTORS
330
1879
102
}
330
1879
100
AcDbXrecord
280
     1
102
RTVSPost2010Prop28
280
     0
102
RTVSPost2010PropOp28
 70
     1
102
RTVSPost2010Prop29
280
     1
102
RTVSPost2010PropOp29
 70
     1
102
RTVSPost2010Prop30
280
     1
102
RTVSPost2010PropOp30
 70
     1
102
RTVSPost2010Prop31
280
     0
102
RTVSPost2010PropOp31
 70
     1
102
RTVSPost2010Prop32
280
     0
102
RTVSPost2010PropOp32
 70
     1
102
RTVSPost2010Prop33
280
     0
102
RTVSPost2010PropOp33
 70
     1
102
RTVSPost2010Prop34
280
     0
102
RTVSPost2010PropOp34
 70
     1
102
RTVSPost2010Prop35
280
     0
102
RTVSPost2010PropOp35
 70
     1
102
RTVSPost2010Prop36
280
     0
102
RTVSPost2010PropOp36
 70
     1
102
RTVSPost2010Prop37
 90
       50
102
RTVSPost2010PropOp37
 70
     1
102
RTVSPost2010Prop38
140
0.0
102
RTVSPost2010PropOp38
 70
     1
102
RTVSPost2010Prop39
140
1.0
102
RTVSPost2010PropOp39
 70
     1
102
RTVSPost2010Prop40
 90
        0
102
RTVSPost2010PropOp40
 70
     1
102
RTVSPost2010Prop41ColorIndex
 90
       18
102
RTVSPost2010Prop41ColorRGB
 90
        0
102
RTVSPost2010PropOp41
 70
     1
102
RTVSPost2010Prop42
 90
       50
102
RTVSPost2010PropOp42
 70
     1
102
RTVSPost2010Prop43
 90
        3
102
RTVSPost2010PropOp43
 70
     1
102
RTVSPost2010Prop44ColorIndex
 90
        5
102
RTVSPost2010Prop44ColorRGB
 90
      255
102
RTVSPost2010PropOp44
 70
     1
102
RTVSPost2010Prop45
280
     0
102
RTVSPost2010PropOp45
 70
     1
102
RTVSPost2010Prop46
 90
       50
102
RTVSPost2010PropOp46
 70
     1
102
RTVSPost2010Prop47
 90
       50
102
RTVSPost2010PropOp47
 70
     1
102
RTVSPost2010Prop48
 90
       50
102
RTVSPost2010PropOp48
 70
     1
102
RTVSPost2010Prop49
280
     0
102
RTVSPost2010PropOp49
 70
     1
102
RTVSPost2010Prop50
 90
       50
102
RTVSPost2010PropOp50
 70
     1
102
RTVSPost2010Prop51ColorIndex
 90
      256
102
RTVSPost2010Prop51ColorRGB
 90
-16777216
102
RTVSPost2010PropOp51
 70
     0
102
RTVSPost2010Prop52
140
1.0
102
RTVSPost2010PropOp52
 70
     0
102
RTVSPost2010Prop53
 90
        2
102
RTVSPost2010PropOp53
 70
     1
102
RTVSPost2010Prop54
  1
strokes_ogs.tif
102
RTVSPost2010PropOp54
 70
     1
102
RTVSPost2010Prop55
280
     0
102
RTVSPost2010PropOp55
 70
     1
102
RTVSPost2010Prop56
140
1.0
102
RTVSPost2010PropOp56
 70
     1
102
RTVSPost2010Prop57
140
1.0
102
RTVSPost2010PropOp57
 70
     1
102
RTVSPropertyOp0
 70
     1
102
RTVSPropertyOp1
 70
     1
102
RTVSPropertyOp2
 70
     1
102
RTVSPropertyOp3
 70
     1
102
RTVSPropertyOp4
 70
     1
102
RTVSPropertyOp5
 70
     1
102
RTVSPropertyOp6
 70
     1
102
RTVSPropertyOp7
 70
     1
102
RTVSPropertyOp8
 70
     1
102
RTVSPropertyOp9
 70
     1
102
RTVSPropertyOp10
 70
     1
102
RTVSPropertyOp11
 70
     1
102
RTVSPropertyOp12
 70
     1
102
RTVSPropertyOp13
 70
     1
102
RTVSPropertyOp14
 70
     1
102
RTVSPropertyOp15
 70
     1
102
RTVSPropertyOp16
 70
     1
102
RTVSPropertyOp17
 70
     1
102
RTVSPropertyOp18
 70
     1
102
RTVSPropertyOp19
 70
     1
102
RTVSPropertyOp20
 70
     1
102
RTVSPropertyOp21
 70
     1
102
RTVSPropertyOp22
 70
     1
102
RTVSPropertyOp23
 70
     1
102
RTVSPropertyOp24
 70
     1
102
RTVSPropertyOp25
 70
     1
102
RTVSPropertyOp26
 70
     1
102
RTVSPropertyOp27
 70
     1
102
RTVSPropertyOp28
 70
     1
102
RTVSPropertyOp29
 70
     1
102
RTVSPropertyOp30
 70
     1
102
RTVSPropertyOp31
 70
     1
102
RTVSPropertyOp32
 70
     1
102
RTVSPropertyOp33
 70
     1
102
RTVSPropertyOp34
 70
     1
102
RTVSPropertyOp35
 70
     1
102
RTVSPropertyOp36
 70
     1
102
RTVSPropertyOp37
 70
     1
102
RTVSPropertyOp38
 70
     1
102
RTVSPropertyOp39
 70
     1
102
RTVSPropertyOp40
 70
     1
102
RTVSPropertyOp41
 70
     1
102
RTVSPropertyOp42
 70
     1
102
RTVSPropertyOp43
 70
     1
102
RTVSPropertyOp44
 70
     1
102
RTVSPropertyOp45
 70
     1
102
RTVSPropertyOp46
 70
     1
102
RTVSPropertyOp47
 70
     1
102
RTVSPropertyOp48
 70
     1
102
RTVSPropertyOp49
 70
     1
102
RTVSPropertyOp50
 70
     1
102
RTVSPropertyOp51
 70
     0
102
RTVSPropertyOp52
 70
     0
102
RTVSPropertyOp53
 70
     1
102
RTVSPropertyOp54
 70
     1
102
RTVSPropertyOp55
 70
     1
102
RTVSPropertyOp56
 70
     1
102
RTVSPropertyOp57
 70
     1
102
RTVSPropertyOp58
 70
     1
102
RTVSPropertyOp59
 70
     1
102
RTVSPropertyOp60
 70
     1
102
RTVSPropertyOp61
 70
     1
102
RTVSPropertyOp62
 70
     1
  0
XRECORD
  5
1878
102
{ACAD_REACTORS
330
1877
102
}
330
1877
100
AcDbXrecord
280
     1
102
RTVSPost2010Prop28
280
     0
102
RTVSPost2010PropOp28
 70
     1
102
RTVSPost2010Prop29
280
     1
102
RTVSPost2010PropOp29
 70
     1
102
RTVSPost2010Prop30
280
     1
102
RTVSPost2010PropOp30
 70
     1
102
RTVSPost2010Prop31
280
     0
102
RTVSPost2010PropOp31
 70
     1
102
RTVSPost2010Prop32
280
     0
102
RTVSPost2010PropOp32
 70
     1
102
RTVSPost2010Prop33
280
     0
102
RTVSPost2010PropOp33
 70
     1
102
RTVSPost2010Prop34
280
     0
102
RTVSPost2010PropOp34
 70
     1
102
RTVSPost2010Prop35
280
     0
102
RTVSPost2010PropOp35
 70
     1
102
RTVSPost2010Prop36
280
     0
102
RTVSPost2010PropOp36
 70
     1
102
RTVSPost2010Prop37
 90
       50
102
RTVSPost2010PropOp37
 70
     1
102
RTVSPost2010Prop38
140
0.0
102
RTVSPost2010PropOp38
 70
     1
102
RTVSPost2010Prop39
140
1.0
102
RTVSPost2010PropOp39
 70
     1
102
RTVSPost2010Prop40
 90
        0
102
RTVSPost2010PropOp40
 70
     1
102
RTVSPost2010Prop41ColorIndex
 90
       18
102
RTVSPost2010Prop41ColorRGB
 90
        0
102
RTVSPost2010PropOp41
 70
     1
102
RTVSPost2010Prop42
 90
       50
102
RTVSPost2010PropOp42
 70
     1
102
RTVSPost2010Prop43
 90
        3
102
RTVSPost2010PropOp43
 70
     1
102
RTVSPost2010Prop44ColorIndex
 90
        5
102
RTVSPost2010Prop44ColorRGB
 90
      255
102
RTVSPost2010PropOp44
 70
     1
102
RTVSPost2010Prop45
280
     0
102
RTVSPost2010PropOp45
 70
     1
102
RTVSPost2010Prop46
 90
       50
102
RTVSPost2010PropOp46
 70
     1
102
RTVSPost2010Prop47
 90
       50
102
RTVSPost2010PropOp47
 70
     1
102
RTVSPost2010Prop48
 90
       50
102
RTVSPost2010PropOp48
 70
     1
102
RTVSPost2010Prop49
280
     0
102
RTVSPost2010PropOp49
 70
     1
102
RTVSPost2010Prop50
 90
       50
102
RTVSPost2010PropOp50
 70
     1
102
RTVSPost2010Prop51ColorIndex
 90
      256
102
RTVSPost2010Prop51ColorRGB
 90
-16777216
102
RTVSPost2010PropOp51
 70
     0
102
RTVSPost2010Prop52
140
1.0
102
RTVSPost2010PropOp52
 70
     0
102
RTVSPost2010Prop53
 90
        2
102
RTVSPost2010PropOp53
 70
     1
102
RTVSPost2010Prop54
  1
strokes_ogs.tif
102
RTVSPost2010PropOp54
 70
     1
102
RTVSPost2010Prop55
280
     0
102
RTVSPost2010PropOp55
 70
     1
102
RTVSPost2010Prop56
140
1.0
102
RTVSPost2010PropOp56
 70
     1
102
RTVSPost2010Prop57
140
1.0
102
RTVSPost2010PropOp57
 70
     1
102
RTVSPropertyOp0
 70
     1
102
RTVSPropertyOp1
 70
     1
102
RTVSPropertyOp2
 70
     1
102
RTVSPropertyOp3
 70
     1
102
RTVSPropertyOp4
 70
     1
102
RTVSPropertyOp5
 70
     1
102
RTVSPropertyOp6
 70
     1
102
RTVSPropertyOp7
 70
     1
102
RTVSPropertyOp8
 70
     1
102
RTVSPropertyOp9
 70
     1
102
RTVSPropertyOp10
 70
     1
102
RTVSPropertyOp11
 70
     1
102
RTVSPropertyOp12
 70
     1
102
RTVSPropertyOp13
 70
     1
102
RTVSPropertyOp14
 70
     1
102
RTVSPropertyOp15
 70
     1
102
RTVSPropertyOp16
 70
     1
102
RTVSPropertyOp17
 70
     1
102
RTVSPropertyOp18
 70
     1
102
RTVSPropertyOp19
 70
     1
102
RTVSPropertyOp20
 70
     1
102
RTVSPropertyOp21
 70
     1
102
RTVSPropertyOp22
 70
     1
102
RTVSPropertyOp23
 70
     1
102
RTVSPropertyOp24
 70
     1
102
RTVSPropertyOp25
 70
     1
102
RTVSPropertyOp26
 70
     1
102
RTVSPropertyOp27
 70
     1
102
RTVSPropertyOp28
 70
     1
102
RTVSPropertyOp29
 70
     1
102
RTVSPropertyOp30
 70
     1
102
RTVSPropertyOp31
 70
     1
102
RTVSPropertyOp32
 70
     1
102
RTVSPropertyOp33
 70
     1
102
RTVSPropertyOp34
 70
     1
102
RTVSPropertyOp35
 70
     1
102
RTVSPropertyOp36
 70
     1
102
RTVSPropertyOp37
 70
     1
102
RTVSPropertyOp38
 70
     1
102
RTVSPropertyOp39
 70
     1
102
RTVSPropertyOp40
 70
     1
102
RTVSPropertyOp41
 70
     1
102
RTVSPropertyOp42
 70
     1
102
RTVSPropertyOp43
 70
     1
102
RTVSPropertyOp44
 70
     1
102
RTVSPropertyOp45
 70
     1
102
RTVSPropertyOp46
 70
     1
102
RTVSPropertyOp47
 70
     1
102
RTVSPropertyOp48
 70
     1
102
RTVSPropertyOp49
 70
     1
102
RTVSPropertyOp50
 70
     1
102
RTVSPropertyOp51
 70
     0
102
RTVSPropertyOp52
 70
     0
102
RTVSPropertyOp53
 70
     1
102
RTVSPropertyOp54
 70
     1
102
RTVSPropertyOp55
 70
     1
102
RTVSPropertyOp56
 70
     1
102
RTVSPropertyOp57
 70
     1
102
RTVSPropertyOp58
 70
     1
102
RTVSPropertyOp59
 70
     1
102
RTVSPropertyOp60
 70
     1
102
RTVSPropertyOp61
 70
     1
102
RTVSPropertyOp62
 70
     1
  0
XRECORD
  5
1872
102
{ACAD_REACTORS
330
1871
102
}
330
1871
100
AcDbXrecord
280
     1
102
RTVSPost2010Prop28
280
     0
102
RTVSPost2010PropOp28
 70
     1
102
RTVSPost2010Prop29
280
     1
102
RTVSPost2010PropOp29
 70
     1
102
RTVSPost2010Prop30
280
     1
102
RTVSPost2010PropOp30
 70
     1
102
RTVSPost2010Prop31
280
     0
102
RTVSPost2010PropOp31
 70
     1
102
RTVSPost2010Prop32
280
     0
102
RTVSPost2010PropOp32
 70
     1
102
RTVSPost2010Prop33
280
     0
102
RTVSPost2010PropOp33
 70
     1
102
RTVSPost2010Prop34
280
     0
102
RTVSPost2010PropOp34
 70
     1
102
RTVSPost2010Prop35
280
     0
102
RTVSPost2010PropOp35
 70
     1
102
RTVSPost2010Prop36
280
     0
102
RTVSPost2010PropOp36
 70
     1
102
RTVSPost2010Prop37
 90
       50
102
RTVSPost2010PropOp37
 70
     1
102
RTVSPost2010Prop38
140
0.0
102
RTVSPost2010PropOp38
 70
     1
102
RTVSPost2010Prop39
140
1.0
102
RTVSPost2010PropOp39
 70
     1
102
RTVSPost2010Prop40
 90
        0
102
RTVSPost2010PropOp40
 70
     1
102
RTVSPost2010Prop41ColorIndex
 90
       18
102
RTVSPost2010Prop41ColorRGB
 90
        0
102
RTVSPost2010PropOp41
 70
     1
102
RTVSPost2010Prop42
 90
       50
102
RTVSPost2010PropOp42
 70
     1
102
RTVSPost2010Prop43
 90
        3
102
RTVSPost2010PropOp43
 70
     1
102
RTVSPost2010Prop44ColorIndex
 90
        5
102
RTVSPost2010Prop44ColorRGB
 90
      255
102
RTVSPost2010PropOp44
 70
     1
102
RTVSPost2010Prop45
280
     0
102
RTVSPost2010PropOp45
 70
     1
102
RTVSPost2010Prop46
 90
       50
102
RTVSPost2010PropOp46
 70
     1
102
RTVSPost2010Prop47
 90
       50
102
RTVSPost2010PropOp47
 70
     1
102
RTVSPost2010Prop48
 90
       50
102
RTVSPost2010PropOp48
 70
     1
102
RTVSPost2010Prop49
280
     0
102
RTVSPost2010PropOp49
 70
     1
102
RTVSPost2010Prop50
 90
       50
102
RTVSPost2010PropOp50
 70
     1
102
RTVSPost2010Prop51ColorIndex
 90
      256
102
RTVSPost2010Prop51ColorRGB
 90
-16777216
102
RTVSPost2010PropOp51
 70
     0
102
RTVSPost2010Prop52
140
1.0
102
RTVSPost2010PropOp52
 70
     0
102
RTVSPost2010Prop53
 90
        2
102
RTVSPost2010PropOp53
 70
     1
102
RTVSPost2010Prop54
  1
strokes_ogs.tif
102
RTVSPost2010PropOp54
 70
     1
102
RTVSPost2010Prop55
280
     0
102
RTVSPost2010PropOp55
 70
     1
102
RTVSPost2010Prop56
140
1.0
102
RTVSPost2010PropOp56
 70
     1
102
RTVSPost2010Prop57
140
1.0
102
RTVSPost2010PropOp57
 70
     1
102
RTVSPropertyOp0
 70
     1
102
RTVSPropertyOp1
 70
     1
102
RTVSPropertyOp2
 70
     1
102
RTVSPropertyOp3
 70
     1
102
RTVSPropertyOp4
 70
     1
102
RTVSPropertyOp5
 70
     1
102
RTVSPropertyOp6
 70
     1
102
RTVSPropertyOp7
 70
     1
102
RTVSPropertyOp8
 70
     1
102
RTVSPropertyOp9
 70
     1
102
RTVSPropertyOp10
 70
     1
102
RTVSPropertyOp11
 70
     1
102
RTVSPropertyOp12
 70
     1
102
RTVSPropertyOp13
 70
     1
102
RTVSPropertyOp14
 70
     1
102
RTVSPropertyOp15
 70
     1
102
RTVSPropertyOp16
 70
     1
102
RTVSPropertyOp17
 70
     1
102
RTVSPropertyOp18
 70
     1
102
RTVSPropertyOp19
 70
     1
102
RTVSPropertyOp20
 70
     1
102
RTVSPropertyOp21
 70
     1
102
RTVSPropertyOp22
 70
     1
102
RTVSPropertyOp23
 70
     1
102
RTVSPropertyOp24
 70
     1
102
RTVSPropertyOp25
 70
     1
102
RTVSPropertyOp26
 70
     1
102
RTVSPropertyOp27
 70
     1
102
RTVSPropertyOp28
 70
     1
102
RTVSPropertyOp29
 70
     1
102
RTVSPropertyOp30
 70
     1
102
RTVSPropertyOp31
 70
     1
102
RTVSPropertyOp32
 70
     1
102
RTVSPropertyOp33
 70
     1
102
RTVSPropertyOp34
 70
     1
102
RTVSPropertyOp35
 70
     1
102
RTVSPropertyOp36
 70
     1
102
RTVSPropertyOp37
 70
     1
102
RTVSPropertyOp38
 70
     1
102
RTVSPropertyOp39
 70
     1
102
RTVSPropertyOp40
 70
     1
102
RTVSPropertyOp41
 70
     1
102
RTVSPropertyOp42
 70
     1
102
RTVSPropertyOp43
 70
     1
102
RTVSPropertyOp44
 70
     1
102
RTVSPropertyOp45
 70
     1
102
RTVSPropertyOp46
 70
     1
102
RTVSPropertyOp47
 70
     1
102
RTVSPropertyOp48
 70
     1
102
RTVSPropertyOp49
 70
     1
102
RTVSPropertyOp50
 70
     1
102
RTVSPropertyOp51
 70
     0
102
RTVSPropertyOp52
 70
     0
102
RTVSPropertyOp53
 70
     1
102
RTVSPropertyOp54
 70
     1
102
RTVSPropertyOp55
 70
     1
102
RTVSPropertyOp56
 70
     1
102
RTVSPropertyOp57
 70
     1
102
RTVSPropertyOp58
 70
     1
102
RTVSPropertyOp59
 70
     1
102
RTVSPropertyOp60
 70
     1
102
RTVSPropertyOp61
 70
     1
102
RTVSPropertyOp62
 70
     1
  0
XRECORD
  5
1874
102
{ACAD_REACTORS
330
1873
102
}
330
1873
100
AcDbXrecord
280
     1
102
RTVSPost2010Prop28
280
     0
102
RTVSPost2010PropOp28
 70
     1
102
RTVSPost2010Prop29
280
     1
102
RTVSPost2010PropOp29
 70
     1
102
RTVSPost2010Prop30
280
     1
102
RTVSPost2010PropOp30
 70
     1
102
RTVSPost2010Prop31
280
     0
102
RTVSPost2010PropOp31
 70
     1
102
RTVSPost2010Prop32
280
     0
102
RTVSPost2010PropOp32
 70
     1
102
RTVSPost2010Prop33
280
     0
102
RTVSPost2010PropOp33
 70
     1
102
RTVSPost2010Prop34
280
     0
102
RTVSPost2010PropOp34
 70
     1
102
RTVSPost2010Prop35
280
     0
102
RTVSPost2010PropOp35
 70
     1
102
RTVSPost2010Prop36
280
     0
102
RTVSPost2010PropOp36
 70
     1
102
RTVSPost2010Prop37
 90
       50
102
RTVSPost2010PropOp37
 70
     1
102
RTVSPost2010Prop38
140
0.0
102
RTVSPost2010PropOp38
 70
     1
102
RTVSPost2010Prop39
140
1.0
102
RTVSPost2010PropOp39
 70
     1
102
RTVSPost2010Prop40
 90
        0
102
RTVSPost2010PropOp40
 70
     1
102
RTVSPost2010Prop41ColorIndex
 90
       18
102
RTVSPost2010Prop41ColorRGB
 90
        0
102
RTVSPost2010PropOp41
 70
     1
102
RTVSPost2010Prop42
 90
       50
102
RTVSPost2010PropOp42
 70
     1
102
RTVSPost2010Prop43
 90
        3
102
RTVSPost2010PropOp43
 70
     1
102
RTVSPost2010Prop44ColorIndex
 90
        5
102
RTVSPost2010Prop44ColorRGB
 90
      255
102
RTVSPost2010PropOp44
 70
     1
102
RTVSPost2010Prop45
280
     0
102
RTVSPost2010PropOp45
 70
     1
102
RTVSPost2010Prop46
 90
       50
102
RTVSPost2010PropOp46
 70
     1
102
RTVSPost2010Prop47
 90
       50
102
RTVSPost2010PropOp47
 70
     1
102
RTVSPost2010Prop48
 90
       50
102
RTVSPost2010PropOp48
 70
     1
102
RTVSPost2010Prop49
280
     0
102
RTVSPost2010PropOp49
 70
     1
102
RTVSPost2010Prop50
 90
       50
102
RTVSPost2010PropOp50
 70
     1
102
RTVSPost2010Prop51ColorIndex
 90
      256
102
RTVSPost2010Prop51ColorRGB
 90
-16777216
102
RTVSPost2010PropOp51
 70
     0
102
RTVSPost2010Prop52
140
1.0
102
RTVSPost2010PropOp52
 70
     0
102
RTVSPost2010Prop53
 90
        2
102
RTVSPost2010PropOp53
 70
     1
102
RTVSPost2010Prop54
  1
strokes_ogs.tif
102
RTVSPost2010PropOp54
 70
     1
102
RTVSPost2010Prop55
280
     0
102
RTVSPost2010PropOp55
 70
     1
102
RTVSPost2010Prop56
140
1.0
102
RTVSPost2010PropOp56
 70
     1
102
RTVSPost2010Prop57
140
1.0
102
RTVSPost2010PropOp57
 70
     1
102
RTVSPropertyOp0
 70
     1
102
RTVSPropertyOp1
 70
     1
102
RTVSPropertyOp2
 70
     1
102
RTVSPropertyOp3
 70
     1
102
RTVSPropertyOp4
 70
     1
102
RTVSPropertyOp5
 70
     1
102
RTVSPropertyOp6
 70
     1
102
RTVSPropertyOp7
 70
     1
102
RTVSPropertyOp8
 70
     1
102
RTVSPropertyOp9
 70
     1
102
RTVSPropertyOp10
 70
     1
102
RTVSPropertyOp11
 70
     1
102
RTVSPropertyOp12
 70
     1
102
RTVSPropertyOp13
 70
     1
102
RTVSPropertyOp14
 70
     1
102
RTVSPropertyOp15
 70
     1
102
RTVSPropertyOp16
 70
     1
102
RTVSPropertyOp17
 70
     1
102
RTVSPropertyOp18
 70
     1
102
RTVSPropertyOp19
 70
     1
102
RTVSPropertyOp20
 70
     1
102
RTVSPropertyOp21
 70
     1
102
RTVSPropertyOp22
 70
     1
102
RTVSPropertyOp23
 70
     1
102
RTVSPropertyOp24
 70
     1
102
RTVSPropertyOp25
 70
     1
102
RTVSPropertyOp26
 70
     1
102
RTVSPropertyOp27
 70
     1
102
RTVSPropertyOp28
 70
     1
102
RTVSPropertyOp29
 70
     1
102
RTVSPropertyOp30
 70
     1
102
RTVSPropertyOp31
 70
     1
102
RTVSPropertyOp32
 70
     1
102
RTVSPropertyOp33
 70
     1
102
RTVSPropertyOp34
 70
     1
102
RTVSPropertyOp35
 70
     1
102
RTVSPropertyOp36
 70
     1
102
RTVSPropertyOp37
 70
     1
102
RTVSPropertyOp38
 70
     1
102
RTVSPropertyOp39
 70
     1
102
RTVSPropertyOp40
 70
     1
102
RTVSPropertyOp41
 70
     1
102
RTVSPropertyOp42
 70
     1
102
RTVSPropertyOp43
 70
     1
102
RTVSPropertyOp44
 70
     1
102
RTVSPropertyOp45
 70
     1
102
RTVSPropertyOp46
 70
     1
102
RTVSPropertyOp47
 70
     1
102
RTVSPropertyOp48
 70
     1
102
RTVSPropertyOp49
 70
     1
102
RTVSPropertyOp50
 70
     1
102
RTVSPropertyOp51
 70
     0
102
RTVSPropertyOp52
 70
     0
102
RTVSPropertyOp53
 70
     1
102
RTVSPropertyOp54
 70
     1
102
RTVSPropertyOp55
 70
     1
102
RTVSPropertyOp56
 70
     1
102
RTVSPropertyOp57
 70
     1
102
RTVSPropertyOp58
 70
     1
102
RTVSPropertyOp59
 70
     1
102
RTVSPropertyOp60
 70
     1
102
RTVSPropertyOp61
 70
     1
102
RTVSPropertyOp62
 70
     1
  0
XRECORD
  5
186A
102
{ACAD_REACTORS
330
1869
102
}
330
1869
100
AcDbXrecord
280
     1
102
RTVSPost2010Prop28
280
     0
102
RTVSPost2010PropOp28
 70
     1
102
RTVSPost2010Prop29
280
     1
102
RTVSPost2010PropOp29
 70
     1
102
RTVSPost2010Prop30
280
     1
102
RTVSPost2010PropOp30
 70
     1
102
RTVSPost2010Prop31
280
     0
102
RTVSPost2010PropOp31
 70
     1
102
RTVSPost2010Prop32
280
     0
102
RTVSPost2010PropOp32
 70
     1
102
RTVSPost2010Prop33
280
     0
102
RTVSPost2010PropOp33
 70
     1
102
RTVSPost2010Prop34
280
     0
102
RTVSPost2010PropOp34
 70
     1
102
RTVSPost2010Prop35
280
     0
102
RTVSPost2010PropOp35
 70
     1
102
RTVSPost2010Prop36
280
     0
102
RTVSPost2010PropOp36
 70
     1
102
RTVSPost2010Prop37
 90
       50
102
RTVSPost2010PropOp37
 70
     1
102
RTVSPost2010Prop38
140
0.0
102
RTVSPost2010PropOp38
 70
     1
102
RTVSPost2010Prop39
140
1.0
102
RTVSPost2010PropOp39
 70
     1
102
RTVSPost2010Prop40
 90
        0
102
RTVSPost2010PropOp40
 70
     1
102
RTVSPost2010Prop41ColorIndex
 90
       18
102
RTVSPost2010Prop41ColorRGB
 90
        0
102
RTVSPost2010PropOp41
 70
     1
102
RTVSPost2010Prop42
 90
       50
102
RTVSPost2010PropOp42
 70
     1
102
RTVSPost2010Prop43
 90
        3
102
RTVSPost2010PropOp43
 70
     1
102
RTVSPost2010Prop44ColorIndex
 90
        5
102
RTVSPost2010Prop44ColorRGB
 90
      255
102
RTVSPost2010PropOp44
 70
     1
102
RTVSPost2010Prop45
280
     0
102
RTVSPost2010PropOp45
 70
     1
102
RTVSPost2010Prop46
 90
       50
102
RTVSPost2010PropOp46
 70
     1
102
RTVSPost2010Prop47
 90
       50
102
RTVSPost2010PropOp47
 70
     1
102
RTVSPost2010Prop48
 90
       50
102
RTVSPost2010PropOp48
 70
     1
102
RTVSPost2010Prop49
280
     0
102
RTVSPost2010PropOp49
 70
     1
102
RTVSPost2010Prop50
 90
       50
102
RTVSPost2010PropOp50
 70
     1
102
RTVSPost2010Prop51ColorIndex
 90
      256
102
RTVSPost2010Prop51ColorRGB
 90
-16777216
102
RTVSPost2010PropOp51
 70
     0
102
RTVSPost2010Prop52
140
1.0
102
RTVSPost2010PropOp52
 70
     0
102
RTVSPost2010Prop53
 90
        2
102
RTVSPost2010PropOp53
 70
     1
102
RTVSPost2010Prop54
  1
strokes_ogs.tif
102
RTVSPost2010PropOp54
 70
     1
102
RTVSPost2010Prop55
280
     0
102
RTVSPost2010PropOp55
 70
     1
102
RTVSPost2010Prop56
140
1.0
102
RTVSPost2010PropOp56
 70
     1
102
RTVSPost2010Prop57
140
1.0
102
RTVSPost2010PropOp57
 70
     1
102
RTVSPropertyOp0
 70
     1
102
RTVSPropertyOp1
 70
     1
102
RTVSPropertyOp2
 70
     1
102
RTVSPropertyOp3
 70
     1
102
RTVSPropertyOp4
 70
     1
102
RTVSPropertyOp5
 70
     1
102
RTVSPropertyOp6
 70
     1
102
RTVSPropertyOp7
 70
     1
102
RTVSPropertyOp8
 70
     1
102
RTVSPropertyOp9
 70
     1
102
RTVSPropertyOp10
 70
     1
102
RTVSPropertyOp11
 70
     1
102
RTVSPropertyOp12
 70
     1
102
RTVSPropertyOp13
 70
     1
102
RTVSPropertyOp14
 70
     1
102
RTVSPropertyOp15
 70
     1
102
RTVSPropertyOp16
 70
     1
102
RTVSPropertyOp17
 70
     1
102
RTVSPropertyOp18
 70
     1
102
RTVSPropertyOp19
 70
     1
102
RTVSPropertyOp20
 70
     1
102
RTVSPropertyOp21
 70
     1
102
RTVSPropertyOp22
 70
     1
102
RTVSPropertyOp23
 70
     1
102
RTVSPropertyOp24
 70
     1
102
RTVSPropertyOp25
 70
     1
102
RTVSPropertyOp26
 70
     1
102
RTVSPropertyOp27
 70
     1
102
RTVSPropertyOp28
 70
     1
102
RTVSPropertyOp29
 70
     1
102
RTVSPropertyOp30
 70
     1
102
RTVSPropertyOp31
 70
     1
102
RTVSPropertyOp32
 70
     1
102
RTVSPropertyOp33
 70
     1
102
RTVSPropertyOp34
 70
     1
102
RTVSPropertyOp35
 70
     1
102
RTVSPropertyOp36
 70
     1
102
RTVSPropertyOp37
 70
     1
102
RTVSPropertyOp38
 70
     1
102
RTVSPropertyOp39
 70
     1
102
RTVSPropertyOp40
 70
     1
102
RTVSPropertyOp41
 70
     1
102
RTVSPropertyOp42
 70
     1
102
RTVSPropertyOp43
 70
     1
102
RTVSPropertyOp44
 70
     1
102
RTVSPropertyOp45
 70
     1
102
RTVSPropertyOp46
 70
     1
102
RTVSPropertyOp47
 70
     1
102
RTVSPropertyOp48
 70
     1
102
RTVSPropertyOp49
 70
     1
102
RTVSPropertyOp50
 70
     1
102
RTVSPropertyOp51
 70
     0
102
RTVSPropertyOp52
 70
     0
102
RTVSPropertyOp53
 70
     1
102
RTVSPropertyOp54
 70
     1
102
RTVSPropertyOp55
 70
     1
102
RTVSPropertyOp56
 70
     1
102
RTVSPropertyOp57
 70
     1
102
RTVSPropertyOp58
 70
     1
102
RTVSPropertyOp59
 70
     1
102
RTVSPropertyOp60
 70
     1
102
RTVSPropertyOp61
 70
     1
102
RTVSPropertyOp62
 70
     1
  0
XRECORD
  5
185E
102
{ACAD_REACTORS
330
185D
102
}
330
185D
100
AcDbXrecord
280
     1
102
RTVSPost2010Prop28
280
     0
102
RTVSPost2010PropOp28
 70
     1
102
RTVSPost2010Prop29
280
     1
102
RTVSPost2010PropOp29
 70
     1
102
RTVSPost2010Prop30
280
     1
102
RTVSPost2010PropOp30
 70
     1
102
RTVSPost2010Prop31
280
     0
102
RTVSPost2010PropOp31
 70
     1
102
RTVSPost2010Prop32
280
     0
102
RTVSPost2010PropOp32
 70
     1
102
RTVSPost2010Prop33
280
     0
102
RTVSPost2010PropOp33
 70
     1
102
RTVSPost2010Prop34
280
     0
102
RTVSPost2010PropOp34
 70
     1
102
RTVSPost2010Prop35
280
     0
102
RTVSPost2010PropOp35
 70
     1
102
RTVSPost2010Prop36
280
     0
102
RTVSPost2010PropOp36
 70
     1
102
RTVSPost2010Prop37
 90
       50
102
RTVSPost2010PropOp37
 70
     1
102
RTVSPost2010Prop38
140
0.0
102
RTVSPost2010PropOp38
 70
     1
102
RTVSPost2010Prop39
140
1.0
102
RTVSPost2010PropOp39
 70
     1
102
RTVSPost2010Prop40
 90
        0
102
RTVSPost2010PropOp40
 70
     1
102
RTVSPost2010Prop41ColorIndex
 90
       18
102
RTVSPost2010Prop41ColorRGB
 90
        0
102
RTVSPost2010PropOp41
 70
     1
102
RTVSPost2010Prop42
 90
       50
102
RTVSPost2010PropOp42
 70
     1
102
RTVSPost2010Prop43
 90
        3
102
RTVSPost2010PropOp43
 70
     1
102
RTVSPost2010Prop44ColorIndex
 90
        5
102
RTVSPost2010Prop44ColorRGB
 90
      255
102
RTVSPost2010PropOp44
 70
     1
102
RTVSPost2010Prop45
280
     0
102
RTVSPost2010PropOp45
 70
     1
102
RTVSPost2010Prop46
 90
       50
102
RTVSPost2010PropOp46
 70
     1
102
RTVSPost2010Prop47
 90
       50
102
RTVSPost2010PropOp47
 70
     1
102
RTVSPost2010Prop48
 90
       50
102
RTVSPost2010PropOp48
 70
     1
102
RTVSPost2010Prop49
280
     0
102
RTVSPost2010PropOp49
 70
     1
102
RTVSPost2010Prop50
 90
       50
102
RTVSPost2010PropOp50
 70
     1
102
RTVSPost2010Prop51ColorIndex
 90
      256
102
RTVSPost2010Prop51ColorRGB
 90
-16777216
102
RTVSPost2010PropOp51
 70
     0
102
RTVSPost2010Prop52
140
1.0
102
RTVSPost2010PropOp52
 70
     0
102
RTVSPost2010Prop53
 90
        2
102
RTVSPost2010PropOp53
 70
     1
102
RTVSPost2010Prop54
  1
strokes_ogs.tif
102
RTVSPost2010PropOp54
 70
     1
102
RTVSPost2010Prop55
280
     0
102
RTVSPost2010PropOp55
 70
     1
102
RTVSPost2010Prop56
140
1.0
102
RTVSPost2010PropOp56
 70
     1
102
RTVSPost2010Prop57
140
1.0
102
RTVSPost2010PropOp57
 70
     1
102
RTVSPropertyOp0
 70
     1
102
RTVSPropertyOp1
 70
     1
102
RTVSPropertyOp2
 70
     1
102
RTVSPropertyOp3
 70
     1
102
RTVSPropertyOp4
 70
     1
102
RTVSPropertyOp5
 70
     1
102
RTVSPropertyOp6
 70
     1
102
RTVSPropertyOp7
 70
     1
102
RTVSPropertyOp8
 70
     1
102
RTVSPropertyOp9
 70
     1
102
RTVSPropertyOp10
 70
     1
102
RTVSPropertyOp11
 70
     1
102
RTVSPropertyOp12
 70
     1
102
RTVSPropertyOp13
 70
     1
102
RTVSPropertyOp14
 70
     1
102
RTVSPropertyOp15
 70
     1
102
RTVSPropertyOp16
 70
     1
102
RTVSPropertyOp17
 70
     1
102
RTVSPropertyOp18
 70
     1
102
RTVSPropertyOp19
 70
     1
102
RTVSPropertyOp20
 70
     1
102
RTVSPropertyOp21
 70
     1
102
RTVSPropertyOp22
 70
     1
102
RTVSPropertyOp23
 70
     1
102
RTVSPropertyOp24
 70
     1
102
RTVSPropertyOp25
 70
     1
102
RTVSPropertyOp26
 70
     1
102
RTVSPropertyOp27
 70
     1
102
RTVSPropertyOp28
 70
     1
102
RTVSPropertyOp29
 70
     1
102
RTVSPropertyOp30
 70
     1
102
RTVSPropertyOp31
 70
     1
102
RTVSPropertyOp32
 70
     1
102
RTVSPropertyOp33
 70
     1
102
RTVSPropertyOp34
 70
     1
102
RTVSPropertyOp35
 70
     1
102
RTVSPropertyOp36
 70
     1
102
RTVSPropertyOp37
 70
     1
102
RTVSPropertyOp38
 70
     1
102
RTVSPropertyOp39
 70
     1
102
RTVSPropertyOp40
 70
     1
102
RTVSPropertyOp41
 70
     1
102
RTVSPropertyOp42
 70
     1
102
RTVSPropertyOp43
 70
     1
102
RTVSPropertyOp44
 70
     1
102
RTVSPropertyOp45
 70
     1
102
RTVSPropertyOp46
 70
     1
102
RTVSPropertyOp47
 70
     1
102
RTVSPropertyOp48
 70
     1
102
RTVSPropertyOp49
 70
     1
102
RTVSPropertyOp50
 70
     1
102
RTVSPropertyOp51
 70
     0
102
RTVSPropertyOp52
 70
     0
102
RTVSPropertyOp53
 70
     1
102
RTVSPropertyOp54
 70
     1
102
RTVSPropertyOp55
 70
     1
102
RTVSPropertyOp56
 70
     1
102
RTVSPropertyOp57
 70
     1
102
RTVSPropertyOp58
 70
     1
102
RTVSPropertyOp59
 70
     1
102
RTVSPropertyOp60
 70
     1
102
RTVSPropertyOp61
 70
     1
102
RTVSPropertyOp62
 70
     1
  0
XRECORD
  5
1876
102
{ACAD_REACTORS
330
1875
102
}
330
1875
100
AcDbXrecord
280
     1
102
RTVSPost2010Prop28
280
     0
102
RTVSPost2010PropOp28
 70
     1
102
RTVSPost2010Prop29
280
     1
102
RTVSPost2010PropOp29
 70
     1
102
RTVSPost2010Prop30
280
     1
102
RTVSPost2010PropOp30
 70
     1
102
RTVSPost2010Prop31
280
     0
102
RTVSPost2010PropOp31
 70
     1
102
RTVSPost2010Prop32
280
     0
102
RTVSPost2010PropOp32
 70
     1
102
RTVSPost2010Prop33
280
     0
102
RTVSPost2010PropOp33
 70
     1
102
RTVSPost2010Prop34
280
     0
102
RTVSPost2010PropOp34
 70
     1
102
RTVSPost2010Prop35
280
     0
102
RTVSPost2010PropOp35
 70
     1
102
RTVSPost2010Prop36
280
     0
102
RTVSPost2010PropOp36
 70
     1
102
RTVSPost2010Prop37
 90
       50
102
RTVSPost2010PropOp37
 70
     1
102
RTVSPost2010Prop38
140
0.0
102
RTVSPost2010PropOp38
 70
     1
102
RTVSPost2010Prop39
140
1.0
102
RTVSPost2010PropOp39
 70
     1
102
RTVSPost2010Prop40
 90
        0
102
RTVSPost2010PropOp40
 70
     1
102
RTVSPost2010Prop41ColorIndex
 90
       18
102
RTVSPost2010Prop41ColorRGB
 90
        0
102
RTVSPost2010PropOp41
 70
     1
102
RTVSPost2010Prop42
 90
       50
102
RTVSPost2010PropOp42
 70
     1
102
RTVSPost2010Prop43
 90
        3
102
RTVSPost2010PropOp43
 70
     1
102
RTVSPost2010Prop44ColorIndex
 90
        5
102
RTVSPost2010Prop44ColorRGB
 90
      255
102
RTVSPost2010PropOp44
 70
     1
102
RTVSPost2010Prop45
280
     0
102
RTVSPost2010PropOp45
 70
     1
102
RTVSPost2010Prop46
 90
       50
102
RTVSPost2010PropOp46
 70
     1
102
RTVSPost2010Prop47
 90
       50
102
RTVSPost2010PropOp47
 70
     1
102
RTVSPost2010Prop48
 90
       50
102
RTVSPost2010PropOp48
 70
     1
102
RTVSPost2010Prop49
280
     0
102
RTVSPost2010PropOp49
 70
     1
102
RTVSPost2010Prop50
 90
       50
102
RTVSPost2010PropOp50
 70
     1
102
RTVSPost2010Prop51ColorIndex
 90
      256
102
RTVSPost2010Prop51ColorRGB
 90
-16777216
102
RTVSPost2010PropOp51
 70
     0
102
RTVSPost2010Prop52
140
1.0
102
RTVSPost2010PropOp52
 70
     0
102
RTVSPost2010Prop53
 90
        2
102
RTVSPost2010PropOp53
 70
     1
102
RTVSPost2010Prop54
  1
strokes_ogs.tif
102
RTVSPost2010PropOp54
 70
     1
102
RTVSPost2010Prop55
280
     0
102
RTVSPost2010PropOp55
 70
     1
102
RTVSPost2010Prop56
140
1.0
102
RTVSPost2010PropOp56
 70
     1
102
RTVSPost2010Prop57
140
1.0
102
RTVSPost2010PropOp57
 70
     1
102
RTVSPropertyOp0
 70
     1
102
RTVSPropertyOp1
 70
     1
102
RTVSPropertyOp2
 70
     1
102
RTVSPropertyOp3
 70
     1
102
RTVSPropertyOp4
 70
     1
102
RTVSPropertyOp5
 70
     1
102
RTVSPropertyOp6
 70
     1
102
RTVSPropertyOp7
 70
     1
102
RTVSPropertyOp8
 70
     1
102
RTVSPropertyOp9
 70
     1
102
RTVSPropertyOp10
 70
     1
102
RTVSPropertyOp11
 70
     1
102
RTVSPropertyOp12
 70
     1
102
RTVSPropertyOp13
 70
     1
102
RTVSPropertyOp14
 70
     1
102
RTVSPropertyOp15
 70
     1
102
RTVSPropertyOp16
 70
     1
102
RTVSPropertyOp17
 70
     1
102
RTVSPropertyOp18
 70
     1
102
RTVSPropertyOp19
 70
     1
102
RTVSPropertyOp20
 70
     1
102
RTVSPropertyOp21
 70
     1
102
RTVSPropertyOp22
 70
     1
102
RTVSPropertyOp23
 70
     1
102
RTVSPropertyOp24
 70
     1
102
RTVSPropertyOp25
 70
     1
102
RTVSPropertyOp26
 70
     1
102
RTVSPropertyOp27
 70
     1
102
RTVSPropertyOp28
 70
     1
102
RTVSPropertyOp29
 70
     1
102
RTVSPropertyOp30
 70
     1
102
RTVSPropertyOp31
 70
     1
102
RTVSPropertyOp32
 70
     1
102
RTVSPropertyOp33
 70
     1
102
RTVSPropertyOp34
 70
     1
102
RTVSPropertyOp35
 70
     1
102
RTVSPropertyOp36
 70
     1
102
RTVSPropertyOp37
 70
     1
102
RTVSPropertyOp38
 70
     1
102
RTVSPropertyOp39
 70
     1
102
RTVSPropertyOp40
 70
     1
102
RTVSPropertyOp41
 70
     1
102
RTVSPropertyOp42
 70
     1
102
RTVSPropertyOp43
 70
     1
102
RTVSPropertyOp44
 70
     1
102
RTVSPropertyOp45
 70
     1
102
RTVSPropertyOp46
 70
     1
102
RTVSPropertyOp47
 70
     1
102
RTVSPropertyOp48
 70
     1
102
RTVSPropertyOp49
 70
     1
102
RTVSPropertyOp50
 70
     1
102
RTVSPropertyOp51
 70
     0
102
RTVSPropertyOp52
 70
     0
102
RTVSPropertyOp53
 70
     1
102
RTVSPropertyOp54
 70
     1
102
RTVSPropertyOp55
 70
     1
102
RTVSPropertyOp56
 70
     1
102
RTVSPropertyOp57
 70
     1
102
RTVSPropertyOp58
 70
     1
102
RTVSPropertyOp59
 70
     1
102
RTVSPropertyOp60
 70
     1
102
RTVSPropertyOp61
 70
     1
102
RTVSPropertyOp62
 70
     1
  0
ENDSEC
  0
EOF
