  0
SECTION
  2
HEADER
  9
$ACADVER
  1
AC1018
  9
$ACADMAINTVER
 70
     2
  9
$DWGCODEPAGE
  3
ANSI_1252
  9
$INSBASE
 10
0.0
 20
0.0
 30
0.0
  9
$EXTMIN
 10
-0.0000000000001137
 20
-0.0000000000001137
 30
0.0
  9
$EXTMAX
 10
420.0
 20
594.0000000000002
 30
0.0
  9
$LIMMIN
 10
0.0
 20
0.0
  9
$LIMMAX
 10
419.9999999999999
 20
594.0
  9
$ORTHOMODE
 70
     1
  9
$REGENMODE
 70
     1
  9
$FILLMODE
 70
     1
  9
$QTEXTMODE
 70
     0
  9
$MIRRTEXT
 70
     1
  9
$LTSCALE
 40
20.0
  9
$ATTMODE
 70
     1
  9
$TEXTSIZE
 40
3.5
  9
$TRACEWID
 40
0.5
  9
$TEXTSTYLE
  7
STANDARD
  9
$CLAYER
  8
SCHRAFF
  9
$CELTYPE
  6
ByLayer
  9
$CECOLOR
 62
   256
  9
$CELTSCALE
 40
1.0
  9
$DISPSILH
 70
     0
  9
$DIMSCALE
 40
2.0
  9
$DIMASZ
 40
3.5
  9
$DIMEXO
 40
1.0
  9
$DIMDLI
 40
7.0
  9
$DIMRND
 40
0.0
  9
$DIMDLE
 40
0.0
  9
$DIMEXE
 40
1.0
  9
$DIMTP
 40
0.0
  9
$DIMTM
 40
0.0
  9
$DIMTXT
 40
3.5
  9
$DIMCEN
 40
1.5
  9
$DIMTSZ
 40
0.0
  9
$DIMTOL
 70
     0
  9
$DIMLIM
 70
     0
  9
$DIMTIH
 70
     0
  9
$DIMTOH
 70
     0
  9
$DIMSE1
 70
     0
  9
$DIMSE2
 70
     0
  9
$DIMTAD
 70
     1
  9
$DIMZIN
 70
     8
  9
$DIMBLK
  1

  9
$DIMASO
 70
     1
  9
$DIMSHO
 70
     0
  9
$DIMPOST
  1

  9
$DIMAPOST
  1

  9
$DIMALT
 70
     0
  9
$DIMALTD
 70
     2
  9
$DIMALTF
 40
25.4
  9
$DIMLFAC
 40
1.0
  9
$DIMTOFL
 70
     1
  9
$DIMTVP
 40
0.0
  9
$DIMTIX
 70
     0
  9
$DIMSOXD
 70
     0
  9
$DIMSAH
 70
     0
  9
$DIMBLK1
  1

  9
$DIMBLK2
  1

  9
$DIMSTYLE
  2
Standard
  9
$DIMCLRD
 70
     0
  9
$DIMCLRE
 70
     0
  9
$DIMCLRT
 70
     1
  9
$DIMTFAC
 40
0.5142857142857144
  9
$DIMGAP
 40
1.5
  9
$DIMJUST
 70
     0
  9
$DIMSD1
 70
     0
  9
$DIMSD2
 70
     0
  9
$DIMTOLJ
 70
     1
  9
$DIMTZIN
 70
     8
  9
$DIMALTZ
 70
     8
  9
$DIMALTTZ
 70
     8
  9
$DIMUPT
 70
     0
  9
$DIMDEC
 70
     2
  9
$DIMTDEC
 70
     2
  9
$DIMALTU
 70
     2
  9
$DIMALTTD
 70
     2
  9
$DIMTXSTY
  7
STANDARD
  9
$DIMAUNIT
 70
     0
  9
$DIMADEC
 70
     2
  9
$DIMALTRND
 40
0.0
  9
$DIMAZIN
 70
     2
  9
$DIMDSEP
 70
    46
  9
$DIMATFIT
 70
     3
  9
$DIMFRAC
 70
     0
  9
$DIMLDRBLK
  1

  9
$DIMLUNIT
 70
     2
  9
$DIMLWD
 70
    -2
  9
$DIMLWE
 70
    -2
  9
$DIMTMOVE
 70
     0
  9
$LUNITS
 70
     2
  9
$LUPREC
 70
     2
  9
$SKETCHINC
 40
1.0
  9
$FILLETRAD
 40
0.0
  9
$AUNITS
 70
     0
  9
$AUPREC
 70
     0
  9
$MENU
  1
ACAD
  9
$ELEVATION
 40
0.0
  9
$PELEVATION
 40
0.0
  9
$THICKNESS
 40
0.0
  9
$LIMCHECK
 70
     0
  9
$CHAMFERA
 40
0.0
  9
$CHAMFERB
 40
0.0
  9
$CHAMFERC
 40
0.0
  9
$CHAMFERD
 40
0.0
  9
$SKPOLY
 70
     0
  9
$TDCREATE
 40
2455397.823042361
  9
$TDUCREATE
 40
2455397.781375695
  9
$TDUPDATE
 40
2455502.416215266
  9
$TDUUPDATE
 40
2455502.374548600
  9
$TDINDWG
 40
0.0697869097
  9
$TDUSRTIMER
 40
0.0697869097
  9
$USRTIMER
 70
     1
  9
$ANGBASE
 50
0.0
  9
$ANGDIR
 70
     0
  9
$PDMODE
 70
     0
  9
$PDSIZE
 40
0.0
  9
$PLINEWID
 40
0.0
  9
$SPLFRAME
 70
     0
  9
$SPLINETYPE
 70
     6
  9
$SPLINESEGS
 70
     8
  9
$HANDSEED
  5
FC6
  9
$SURFTAB1
 70
     6
  9
$SURFTAB2
 70
     6
  9
$SURFTYPE
 70
     6
  9
$SURFU
 70
     6
  9
$SURFV
 70
     6
  9
$UCSBASE
  2

  9
$UCSNAME
  2

  9
$UCSORG
 10
0.0
 20
0.0
 30
0.0
  9
$UCSXDIR
 10
1.0
 20
0.0
 30
0.0
  9
$UCSYDIR
 10
0.0
 20
1.0
 30
0.0
  9
$UCSORTHOREF
  2

  9
$UCSORTHOVIEW
 70
     0
  9
$UCSORGTOP
 10
0.0
 20
0.0
 30
0.0
  9
$UCSORGBOTTOM
 10
0.0
 20
0.0
 30
0.0
  9
$UCSORGLEFT
 10
0.0
 20
0.0
 30
0.0
  9
$UCSORGRIGHT
 10
0.0
 20
0.0
 30
0.0
  9
$UCSORGFRONT
 10
0.0
 20
0.0
 30
0.0
  9
$UCSORGBACK
 10
0.0
 20
0.0
 30
0.0
  9
$PUCSBASE
  2

  9
$PUCSNAME
  2

  9
$PUCSORG
 10
0.0
 20
0.0
 30
0.0
  9
$PUCSXDIR
 10
1.0
 20
0.0
 30
0.0
  9
$PUCSYDIR
 10
0.0
 20
1.0
 30
0.0
  9
$PUCSORTHOREF
  2

  9
$PUCSORTHOVIEW
 70
     0
  9
$PUCSORGTOP
 10
0.0
 20
0.0
 30
0.0
  9
$PUCSORGBOTTOM
 10
0.0
 20
0.0
 30
0.0
  9
$PUCSORGLEFT
 10
0.0
 20
0.0
 30
0.0
  9
$PUCSORGRIGHT
 10
0.0
 20
0.0
 30
0.0
  9
$PUCSORGFRONT
 10
0.0
 20
0.0
 30
0.0
  9
$PUCSORGBACK
 10
0.0
 20
0.0
 30
0.0
  9
$USERI1
 70
     0
  9
$USERI2
 70
     0
  9
$USERI3
 70
     0
  9
$USERI4
 70
     0
  9
$USERI5
 70
     0
  9
$USERR1
 40
0.0
  9
$USERR2
 40
0.0
  9
$USERR3
 40
0.0
  9
$USERR4
 40
0.0
  9
$USERR5
 40
0.0
  9
$WORLDVIEW
 70
     1
  9
$SHADEDGE
 70
     3
  9
$SHADEDIF
 70
    70
  9
$TILEMODE
 70
     1
  9
$MAXACTVP
 70
    16
  9
$PINSBASE
 10
0.0
 20
0.0
 30
0.0
  9
$PLIMCHECK
 70
     0
  9
$PEXTMIN
 10
1.000000000000000E+20
 20
1.000000000000000E+20
 30
1.000000000000000E+20
  9
$PEXTMAX
 10
-1.000000000000000E+20
 20
-1.000000000000000E+20
 30
-1.000000000000000E+20
  9
$PLIMMIN
 10
0.0
 20
0.0
  9
$PLIMMAX
 10
12.0
 20
9.0
  9
$UNITMODE
 70
     0
  9
$VISRETAIN
 70
     0
  9
$PLINEGEN
 70
     0
  9
$PSLTSCALE
 70
     0
  9
$TREEDEPTH
 70
  3020
  9
$CMLSTYLE
  2
Standard
  9
$CMLJUST
 70
     0
  9
$CMLSCALE
 40
1.0
  9
$PROXYGRAPHICS
 70
     1
  9
$MEASUREMENT
 70
     0
  9
$CELWEIGHT
370
    -1
  9
$ENDCAPS
280
     0
  9
$JOINSTYLE
280
     0
  9
$LWDISPLAY
290
     0
  9
$INSUNITS
 70
     0
  9
$HYPERLINKBASE
  1

  9
$STYLESHEET
  1

  9
$XEDIT
290
     1
  9
$CEPSNTYPE
380
     0
  9
$PSTYLEMODE
290
     1
  9
$FINGERPRINTGUID
  2
{D68B0D02-A558-11D7-B632-000102183313}
  9
$VERSIONGUID
  2
{2D5DC40A-9784-4733-AB1F-C8A2835A7880}
  9
$EXTNAMES
290
     1
  9
$PSVPSCALE
 40
0.0
  9
$OLESTARTUP
290
     0
  9
$SORTENTS
280
   127
  9
$INDEXCTL
280
     0
  9
$HIDETEXT
280
     0
  9
$XCLIPFRAME
290
     0
  9
$HALOGAP
280
     0
  9
$OBSCOLOR
 70
   257
  9
$OBSLTYPE
280
     0
  9
$INTERSECTIONDISPLAY
280
     0
  9
$INTERSECTIONCOLOR
 70
   257
  9
$DIMASSOC
280
     1
  9
$PROJECTNAME
  1

  0
ENDSEC
  0
SECTION
  2
CLASSES
  0
CLASS
  1
ACDBDICTIONARYWDFLT
  2
AcDbDictionaryWithDefault
  3
ObjectDBX Classes
 90
        0
 91
        1
280
     0
281
     0
  0
CLASS
  1
DICTIONARYVAR
  2
AcDbDictionaryVar
  3
ObjectDBX Classes
 90
        0
 91
        2
280
     0
281
     0
  0
ENDSEC
  0
SECTION
  2
TABLES
  0
TABLE
  2
VPORT
  5
8
330
0
100
AcDbSymbolTable
 70
     2
  0
VPORT
  5
FC5
330
8
100
AcDbSymbolTableRecord
100
AcDbViewportTableRecord
  2
*Active
 70
     0
 10
0.0
 20
0.0
 11
1.0
 21
1.0
 12
210.0000009778887
 22
297.0000013830141
 13
0.0
 23
0.0
 14
1.0
 24
1.0
 15
10.0
 25
10.0
 16
0.0
 26
0.0
 36
1.0
 17
0.0
 27
0.0
 37
0.0
 40
599.156803847819
 41
1.336927223719676
 42
50.0
 43
0.0
 44
0.0
 50
0.0
 51
0.0
 71
     0
 72
  1500
 73
     1
 74
     0
 75
     0
 76
     0
 77
     0
 78
     0
281
     0
 65
     1
110
0.0
120
0.0
130
0.0
111
1.0
121
0.0
131
0.0
112
0.0
122
1.0
132
0.0
 79
     0
146
0.0
  0
ENDTAB
  0
TABLE
  2
LTYPE
  5
5
330
0
100
AcDbSymbolTable
 70
     3
  0
LTYPE
  5
13
330
5
100
AcDbSymbolTableRecord
100
AcDbLinetypeTableRecord
  2
ByBlock
 70
     0
  3

 72
    65
 73
     0
 40
0.0
  0
LTYPE
  5
14
330
5
100
AcDbSymbolTableRecord
100
AcDbLinetypeTableRecord
  2
ByLayer
 70
     0
  3

 72
    65
 73
     0
 40
0.0
  0
LTYPE
  5
15
330
5
100
AcDbSymbolTableRecord
100
AcDbLinetypeTableRecord
  2
Continuous
 70
     0
  3
Solid line
 72
    65
 73
     0
 40
0.0
  0
LTYPE
  5
25
330
5
100
AcDbSymbolTableRecord
100
AcDbLinetypeTableRecord
  2
STRICHPUNKT
 70
     0
  3
__ . __ . __ . __ . __ . __ . __ . __ . __ . __
 72
    65
 73
     4
 40
1.0
 49
0.5
 74
     0
 49
-0.25
 74
     0
 49
0.0
 74
     0
 49
-0.25
 74
     0
  0
LTYPE
  5
32
330
5
100
AcDbSymbolTableRecord
100
AcDbLinetypeTableRecord
  2
AUSGEZOGEN
 70
     0
  3
Ausgezogene Linie
 72
    65
 73
     0
 40
0.0
  0
ENDTAB
  0
TABLE
  2
LAYER
  5
2
330
0
100
AcDbSymbolTable
 70
     9
  0
LAYER
  5
10
330
2
100
AcDbSymbolTableRecord
100
AcDbLayerTableRecord
  2
0
 70
     0
 62
     7
  6
Continuous
370
    -3
390
F
  0
LAYER
  5
2A
330
2
100
AcDbSymbolTableRecord
100
AcDbLayerTableRecord
  2
VOLL
 70
     0
 62
     1
  6
Continuous
370
    -3
390
F
  0
LAYER
  5
2B
330
2
100
AcDbSymbolTableRecord
100
AcDbLayerTableRecord
  2
HILF
 70
     0
 62
     2
  6
Continuous
370
    -3
390
F
  0
LAYER
  5
2C
330
2
100
AcDbSymbolTableRecord
100
AcDbLayerTableRecord
  2
MITTEL
 70
     0
 62
     2
  6
STRICHPUNKT
370
    -3
390
F
  0
LAYER
  5
2F
330
2
100
AcDbSymbolTableRecord
100
AcDbLayerTableRecord
  2
BEM
 70
     0
 62
     7
  6
Continuous
370
    -3
390
F
  0
LAYER
  5
30
330
2
100
AcDbSymbolTableRecord
100
AcDbLayerTableRecord
  2
STEMPEL
 70
     0
 62
     3
  6
Continuous
370
    -3
390
F
  0
LAYER
  5
31
330
2
100
AcDbSymbolTableRecord
100
AcDbLayerTableRecord
  2
TEXT
 70
     0
 62
     7
  6
Continuous
370
    -3
390
F
  0
LAYER
  5
474
330
2
100
AcDbSymbolTableRecord
100
AcDbLayerTableRecord
  2
DEFPOINTS
 70
     0
 62
     7
  6
AUSGEZOGEN
290
     0
370
    -3
390
F
  0
LAYER
  5
475
330
2
100
AcDbSymbolTableRecord
100
AcDbLayerTableRecord
  2
SCHRAFF
 70
     0
 62
     7
  6
AUSGEZOGEN
370
    -3
390
F
  0
ENDTAB
  0
TABLE
  2
STYLE
  5
3
330
0
100
AcDbSymbolTable
 70
     2
  0
STYLE
  5
11
330
3
100
AcDbSymbolTableRecord
100
AcDbTextStyleTableRecord
  2
STANDARD
 70
     0
 40
0.0
 41
0.8
 50
0.0
 71
     0
 42
3.5
  3
simplex.shx
  4

  0
STYLE
  5
24
330
3
100
AcDbSymbolTableRecord
100
AcDbTextStyleTableRecord
  2
GREEKS
 70
     0
 40
0.0
 41
0.8
 50
0.0
 71
     0
 42
2.5
  3
SIMPLEX.shx
  4

  0
ENDTAB
  0
TABLE
  2
VIEW
  5
6
330
0
100
AcDbSymbolTable
 70
     0
  0
ENDTAB
  0
TABLE
  2
UCS
  5
7
330
0
100
AcDbSymbolTable
 70
     0
  0
ENDTAB
  0
TABLE
  2
APPID
  5
9
330
0
100
AcDbSymbolTable
 70
     1
  0
APPID
  5
12
330
9
100
AcDbSymbolTableRecord
100
AcDbRegAppTableRecord
  2
ACAD
 70
     0
  0
ENDTAB
  0
TABLE
  2
DIMSTYLE
  5
A
330
0
100
AcDbSymbolTable
 70
     1
100
AcDbDimStyleTable
 71
     1
340
9D
  0
DIMSTYLE
105
9D
102
{ACAD_REACTORS
330
ADE
330
AF0
330
CDE
102
}
330
A
100
AcDbSymbolTableRecord
100
AcDbDimStyleTableRecord
  2
Standard
 70
     0
340
11
  0
ENDTAB
  0
TABLE
  2
BLOCK_RECORD
  5
1
330
0
100
AcDbSymbolTable
 70
     4
  0
BLOCK_RECORD
  5
1E
102
{ACAD_XDICTIONARY
360
A0
102
}
330
1
100
AcDbSymbolTableRecord
100
AcDbBlockTableRecord
  2
*Model_Space
340
21
  0
BLOCK_RECORD
  5
1A
102
{ACAD_XDICTIONARY
360
A2
102
}
330
1
100
AcDbSymbolTableRecord
100
AcDbBlockTableRecord
  2
*Paper_Space
340
1D
  0
BLOCK_RECORD
  5
22
330
1
100
AcDbSymbolTableRecord
100
AcDbBlockTableRecord
  2
LOGO
340
0
102
{BLKREFS
331
AE6
102
}
  0
BLOCK_RECORD
  5
BF4
330
1
100
AcDbSymbolTableRecord
100
AcDbBlockTableRecord
  2
*D1
340
0
  0
BLOCK_RECORD
  5
C00
330
1
100
AcDbSymbolTableRecord
100
AcDbBlockTableRecord
  2
*D2
340
0
  0
BLOCK_RECORD
  5
CE1
330
1
100
AcDbSymbolTableRecord
100
AcDbBlockTableRecord
  2
*D3
340
0
  0
ENDTAB
  0
ENDSEC
  0
SECTION
  2
BLOCKS
  0
BLOCK
  5
35
330
1E
100
AcDbEntity
  8
0
100
AcDbBlockBegin
  2
*Model_Space
 70
     0
 10
0.0
 20
0.0
 30
0.0
  3
*Model_Space
  1

  0
ENDBLK
  5
36
330
1E
100
AcDbEntity
  8
0
100
AcDbBlockEnd
  0
BLOCK
  5
33
330
1A
100
AcDbEntity
 67
     1
  8
0
100
AcDbBlockBegin
  2
*Paper_Space
 70
     0
 10
0.0
 20
0.0
 30
0.0
  3
*Paper_Space
  1

  0
ENDBLK
  5
34
330
1A
100
AcDbEntity
 67
     1
  8
0
100
AcDbBlockEnd
  0
BLOCK
  5
37
330
22
100
AcDbEntity
  8
0
100
AcDbBlockBegin
  2
LOGO
 70
     0
 10
0.0
 20
0.0
 30
0.0
  3
LOGO
  1

  0
ARC
  5
38
330
22
100
AcDbEntity
  8
0
100
AcDbCircle
 10
11.59973089678112
 20
-9.271599258481501
 30
0.0
 40
4.5
100
AcDbArc
 50
270.0
 51
231.0575587310159
  0
LINE
  5
39
330
22
100
AcDbEntity
  8
0
100
AcDbLine
 10
3.599730896781125
 20
-4.771599258481529
 30
0.0
 11
3.599730896781153
 21
-11.77159925848133
 31
0.0
  0
LINE
  5
3A
330
22
100
AcDbEntity
  8
0
100
AcDbLine
 10
2.599730896781125
 20
-4.771599258481529
 30
0.0
 11
2.599730896781153
 21
-11.77159925848133
 31
0.0
  0
CIRCLE
  5
3B
330
22
100
AcDbEntity
  8
0
100
AcDbCircle
 10
11.59973089678112
 20
-9.271599258481501
 30
0.0
 40
3.5
  0
ARC
  5
3C
330
22
100
AcDbEntity
  8
0
100
AcDbCircle
 10
31.59973089678115
 20
-9.271599258481472
 30
0.0
 40
4.5
100
AcDbArc
 50
270.0
 51
231.0575587310182
  0
LINE
  5
3D
330
22
100
AcDbEntity
  8
0
100
AcDbLine
 10
17.59973089678112
 20
-4.771599258481472
 30
0.0
 11
17.59973089678115
 21
-13.77159925848147
 31
0.0
  0
ARC
  5
3E
330
22
100
AcDbEntity
  8
0
100
AcDbCircle
 10
22.59973089678116
 20
-7.271599258481472
 30
0.0
 40
2.5
100
AcDbArc
 50
293.1161887722295
 51
90.0
  0
CIRCLE
  5
3F
330
22
100
AcDbEntity
  8
0
100
AcDbCircle
 10
31.59973089678115
 20
-9.271599258481472
 30
0.0
 40
3.5
  0
ARC
  5
40
330
22
100
AcDbEntity
  8
0
100
AcDbCircle
 10
4.599730896781153
 20
-11.77159925848133
 30
0.0
 40
1.0
100
AcDbArc
 50
180.0
 51
270.0
  0
ARC
  5
41
330
22
100
AcDbEntity
  8
0
100
AcDbCircle
 10
4.599730896781153
 20
-11.77159925848133
 30
0.0
 40
2.0
100
AcDbArc
 50
179.9999999999992
 51
270.0
  0
LINE
  5
42
330
22
100
AcDbEntity
  8
0
100
AcDbLine
 10
11.59973089678115
 20
-13.77159925848144
 30
0.0
 11
4.599730896781153
 21
-13.77159925848147
 31
0.0
  0
LINE
  5
43
330
22
100
AcDbEntity
  8
0
100
AcDbLine
 10
8.771303772034769
 20
-12.77159925848136
 30
0.0
 11
4.599730896781153
 21
-12.77159925848133
 31
0.0
  0
LINE
  5
44
330
22
100
AcDbEntity
  8
0
100
AcDbLine
 10
31.59973089678115
 20
-13.77159925848147
 30
0.0
 11
23.6715276665056
 21
-13.77159925848144
 31
0.0
  0
LINE
  5
45
330
22
100
AcDbEntity
  8
0
100
AcDbLine
 10
23.56565672307022
 20
-9.51278021337896
 30
0.0
 11
24.4388546544846
 21
-12.77159925848144
 31
0.0
  0
LINE
  5
46
330
22
100
AcDbEntity
  8
0
100
AcDbLine
 10
22.59973089678116
 20
-9.771599258481472
 30
0.0
 11
18.59973089678112
 21
-9.771599258481472
 31
0.0
  0
LINE
  5
47
330
22
100
AcDbEntity
  8
0
100
AcDbLine
 10
18.59973089678115
 20
-13.77159925848144
 30
0.0
 11
17.59973089678115
 21
-13.77159925848144
 31
0.0
  0
LINE
  5
48
330
22
100
AcDbEntity
  8
0
100
AcDbLine
 10
18.59973089678115
 20
-9.771599258481472
 30
0.0
 11
18.59973089678115
 21
-13.77159925848144
 31
0.0
  0
LINE
  5
49
330
22
100
AcDbEntity
  8
0
100
AcDbLine
 10
22.59973089678116
 20
-9.771599258481472
 30
0.0
 11
23.67152766650562
 21
-13.77159925848147
 31
0.0
  0
ARC
  5
4A
330
22
100
AcDbEntity
  8
0
100
AcDbCircle
 10
22.59973089678116
 20
-7.271599258481472
 30
0.0
 40
2.5
100
AcDbArc
 50
270.0
 51
270.0000000000007
  0
LINE
  5
4B
330
22
100
AcDbEntity
  8
0
100
AcDbLine
 10
28.77130377203494
 20
-12.77159925848147
 30
0.0
 11
24.43885465448463
 21
-12.77159925848144
 31
0.0
  0
LINE
  5
4C
330
22
100
AcDbEntity
  8
0
100
AcDbLine
 10
3.599730896781125
 20
-4.771599258481472
 30
0.0
 11
2.599730896781125
 21
-4.771599258481472
 31
0.0
  0
LINE
  5
4D
330
22
100
AcDbEntity
  8
0
100
AcDbLine
 10
22.59973089678116
 20
-8.771599258481472
 30
0.0
 11
18.59973089678115
 21
-8.771599258481472
 31
0.0
  0
LINE
  5
4E
330
22
100
AcDbEntity
  8
0
100
AcDbLine
 10
22.59973089678116
 20
-5.771599258481472
 30
0.0
 11
18.59973089678115
 21
-5.771599258481472
 31
0.0
  0
LINE
  5
4F
330
22
100
AcDbEntity
  8
0
100
AcDbLine
 10
22.59973089678116
 20
-4.771599258481472
 30
0.0
 11
17.59973089678115
 21
-4.771599258481472
 31
0.0
  0
LINE
  5
50
330
22
100
AcDbEntity
  8
0
100
AcDbLine
 10
18.59973089678115
 20
-5.771599258481472
 30
0.0
 11
18.59973089678115
 21
-8.771599258481472
 31
0.0
  0
ARC
  5
51
330
22
100
AcDbEntity
  8
0
100
AcDbCircle
 10
22.59973089678116
 20
-7.271599258481472
 30
0.0
 40
1.5
100
AcDbArc
 50
270.0
 51
90.0
  0
ENDBLK
  5
52
330
22
100
AcDbEntity
  8
0
100
AcDbBlockEnd
  0
BLOCK
  5
BFE
330
BF4
100
AcDbEntity
  8
0
100
AcDbBlockBegin
  2
*D1
 70
     1
 10
0.0
 20
0.0
 30
0.0
  3
*D1
  1

  0
LINE
  5
E87
330
BF4
100
AcDbEntity
  8
BEM
 62
     0
370
    -2
100
AcDbLine
 10
52.08566539727133
 20
447.2237895507757
 30
0.0
 11
52.08566539727133
 21
493.0686385989916
 31
0.0
  0
LINE
  5
E88
330
BF4
100
AcDbEntity
  8
BEM
 62
     0
370
    -2
100
AcDbLine
 10
382.0856653972713
 20
447.2237895507756
 30
0.0
 11
382.0856653972713
 21
493.0686385989916
 31
0.0
  0
LINE
  5
E89
330
BF4
100
AcDbEntity
  8
BEM
 62
     0
370
    -2
100
AcDbLine
 10
59.08566539727132
 20
490.0686385989915
 30
0.0
 11
375.0856653972713
 21
490.0686385989915
 31
0.0
  0
SOLID
  5
E8A
330
BF4
100
AcDbEntity
  8
BEM
 62
     0
100
AcDbTrace
 10
59.08566539727132
 20
491.2353052656582
 30
0.0
 11
59.08566539727132
 21
488.9019719323249
 31
0.0
 12
52.08566539727133
 22
490.0686385989915
 32
0.0
 13
52.08566539727133
 23
490.0686385989915
 33
0.0
  0
SOLID
  5
E8B
330
BF4
100
AcDbEntity
  8
BEM
 62
     0
100
AcDbTrace
 10
375.0856653972713
 20
491.2353052656582
 30
0.0
 11
375.0856653972713
 21
488.9019719323249
 31
0.0
 12
382.0856653972713
 22
490.0686385989915
 32
0.0
 13
382.0856653972713
 23
490.0686385989915
 33
0.0
  0
MTEXT
  5
E8C
330
BF4
100
AcDbEntity
  8
BEM
 62
     1
100
AcDbMText
 10
217.0856653972713
 20
495.5686385989915
 30
0.0
 40
7.0
 41
0.0
 71
     5
 72
     1
  1
\A1;%%c330
  7
GREEKS
 73
     1
 44
1.0
  0
POINT
  5
E8D
330
BF4
100
AcDbEntity
  8
DEFPOINTS
 62
     0
100
AcDbPoint
 10
52.08566539727133
 20
445.2237895507757
 30
0.0
  0
POINT
  5
E8E
330
BF4
100
AcDbEntity
  8
DEFPOINTS
 62
     0
100
AcDbPoint
 10
382.0856653972713
 20
445.2237895507756
 30
0.0
  0
POINT
  5
E8F
330
BF4
100
AcDbEntity
  8
DEFPOINTS
 62
     0
100
AcDbPoint
 10
382.0856653972713
 20
490.0686385989915
 30
0.0
  0
ENDBLK
  5
BFF
330
BF4
100
AcDbEntity
  8
0
100
AcDbBlockEnd
  0
BLOCK
  5
C0A
330
C00
100
AcDbEntity
  8
0
100
AcDbBlockBegin
  2
*D2
 70
     1
 10
0.0
 20
0.0
 30
0.0
  3
*D2
  1

  0
LINE
  5
D11
330
C00
100
AcDbEntity
  8
BEM
 62
     0
370
    -2
100
AcDbLine
 10
137.0729726772123
 20
162.223789550775
 30
0.0
 11
40.82509149610443
 21
162.223789550775
 31
0.0
  0
LINE
  5
D12
330
C00
100
AcDbEntity
  8
BEM
 62
     0
370
    -2
100
AcDbLine
 10
50.08566539727133
 20
442.2237895507756
 30
0.0
 11
40.82509149610451
 21
442.2237895507756
 31
0.0
  0
LINE
  5
D13
330
C00
100
AcDbEntity
  8
BEM
 62
     0
370
    -2
100
AcDbLine
 10
42.82509149610444
 20
169.2237895507751
 30
0.0
 11
42.8250914961045
 21
435.2237895507756
 31
0.0
  0
SOLID
  5
D14
330
C00
100
AcDbEntity
  8
BEM
 62
     0
100
AcDbTrace
 10
41.65842482943777
 20
169.2237895507751
 30
0.0
 11
43.9917581627711
 21
169.2237895507751
 31
0.0
 12
42.82509149610444
 22
162.223789550775
 32
0.0
 13
42.82509149610444
 23
162.223789550775
 33
0.0
  0
SOLID
  5
D15
330
C00
100
AcDbEntity
  8
BEM
 62
     0
100
AcDbTrace
 10
41.65842482943784
 20
435.2237895507756
 30
0.0
 11
43.99175816277117
 21
435.2237895507756
 31
0.0
 12
42.8250914961045
 22
442.2237895507756
 32
0.0
 13
42.8250914961045
 23
442.2237895507756
 33
0.0
  0
MTEXT
  5
D16
330
C00
100
AcDbEntity
  8
BEM
 62
     1
100
AcDbMText
 10
37.32509149610443
 20
302.2237895507754
 30
0.0
 40
7.0
 41
0.0
 71
     5
 72
     1
  1
\A1;280
  7
GREEKS
 11
0.0000000000000001
 21
1.0
 31
0.0
 73
     1
 44
1.0
  0
POINT
  5
D17
330
C00
100
AcDbEntity
  8
DEFPOINTS
 62
     0
100
AcDbPoint
 10
139.0729726772123
 20
162.223789550775
 30
0.0
  0
POINT
  5
D18
330
C00
100
AcDbEntity
  8
DEFPOINTS
 62
     0
100
AcDbPoint
 10
52.08566539727133
 20
442.2237895507756
 30
0.0
  0
POINT
  5
D19
330
C00
100
AcDbEntity
  8
DEFPOINTS
 62
     0
100
AcDbPoint
 10
42.8250914961045
 20
442.2237895507756
 30
0.0
  0
ENDBLK
  5
C0B
330
C00
100
AcDbEntity
  8
0
100
AcDbBlockEnd
  0
BLOCK
  5
CEB
330
CE1
100
AcDbEntity
  8
0
100
AcDbBlockBegin
  2
*D3
 70
     1
 10
0.0
 20
0.0
 30
0.0
  3
*D3
  1

  0
LINE
  5
D08
330
CE1
100
AcDbEntity
  8
BEM
 62
     0
370
    -2
100
AcDbLine
 10
296.5856653972714
 20
177.2237895507758
 30
0.0
 11
296.5856653972714
 21
138.6448678895566
 31
0.0
  0
LINE
  5
D09
330
CE1
100
AcDbEntity
  8
BEM
 62
     0
370
    -2
100
AcDbLine
 10
137.5856653972715
 20
177.2237895507753
 30
0.0
 11
137.5856653972715
 21
138.6448678895566
 31
0.0
  0
LINE
  5
D0A
330
CE1
100
AcDbEntity
  8
BEM
 62
     0
370
    -2
100
AcDbLine
 10
289.5856653972714
 20
140.6448678895567
 30
0.0
 11
144.5856653972715
 21
140.6448678895567
 31
0.0
  0
SOLID
  5
D0B
330
CE1
100
AcDbEntity
  8
BEM
 62
     0
100
AcDbTrace
 10
289.5856653972714
 20
141.8115345562233
 30
0.0
 11
289.5856653972714
 21
139.47820122289
 31
0.0
 12
296.5856653972714
 22
140.6448678895567
 32
0.0
 13
296.5856653972714
 23
140.6448678895567
 33
0.0
  0
SOLID
  5
D0C
330
CE1
100
AcDbEntity
  8
BEM
 62
     0
100
AcDbTrace
 10
144.5856653972715
 20
141.8115345562233
 30
0.0
 11
144.5856653972715
 21
139.47820122289
 31
0.0
 12
137.5856653972715
 22
140.6448678895567
 32
0.0
 13
137.5856653972715
 23
140.6448678895567
 33
0.0
  0
MTEXT
  5
D0D
330
CE1
100
AcDbEntity
  8
BEM
 62
     1
100
AcDbMText
 10
217.0856653972715
 20
147.1448678895566
 30
0.0
 40
7.0
 41
0.0
 71
     5
 72
     1
  1
\A1;%%c159
 73
     1
 44
1.0
  0
POINT
  5
D0E
330
CE1
100
AcDbEntity
  8
DEFPOINTS
 62
     0
100
AcDbPoint
 10
296.5856653972714
 20
179.2237895507758
 30
0.0
  0
POINT
  5
D0F
330
CE1
100
AcDbEntity
  8
DEFPOINTS
 62
     0
100
AcDbPoint
 10
137.5856653972715
 20
179.2237895507753
 30
0.0
  0
POINT
  5
D10
330
CE1
100
AcDbEntity
  8
DEFPOINTS
 62
     0
100
AcDbPoint
 10
137.5856653972715
 20
140.6448678895567
 30
0.0
  0
ENDBLK
  5
CEC
330
CE1
100
AcDbEntity
  8
0
100
AcDbBlockEnd
  0
ENDSEC
  0
SECTION
  2
ENTITIES
  0
LINE
  5
83
330
1E
100
AcDbEntity
  8
STEMPEL
100
AcDbLine
 10
39.99999999999989
 20
10.0
 30
0.0
 11
410.0
 21
10.0
 31
0.0
  0
LINE
  5
85
330
1E
100
AcDbEntity
  8
STEMPEL
100
AcDbLine
 10
410.0
 20
10.0
 30
0.0
 11
29.99999999999989
 21
10.0
 31
0.0
  0
LINE
  5
86
330
1E
100
AcDbEntity
  8
STEMPEL
100
AcDbLine
 10
410.0
 20
10.0
 30
0.0
 11
410.0
 21
584.0
 31
0.0
  0
LINE
  5
87
330
1E
100
AcDbEntity
  8
STEMPEL
100
AcDbLine
 10
30.0
 20
10.0
 30
0.0
 11
29.99999999999989
 21
584.0
 31
0.0
  0
LINE
  5
88
330
1E
100
AcDbEntity
  8
STEMPEL
100
AcDbLine
 10
410.0
 20
584.0
 30
0.0
 11
29.99999999999989
 21
584.0
 31
0.0
  0
LINE
  5
89
330
1E
100
AcDbEntity
  8
HILF
100
AcDbLine
 10
0.0
 20
0.0
 30
0.0
 11
-0.0000000000001137
 21
594.0
 31
0.0
  0
LINE
  5
8A
330
1E
100
AcDbEntity
  8
HILF
100
AcDbLine
 10
419.9999999999999
 20
594.0000000000002
 30
0.0
 11
0.0
 21
594.0
 31
0.0
  0
LINE
  5
8B
330
1E
100
AcDbEntity
  8
HILF
100
AcDbLine
 10
420.0
 20
0.0
 30
0.0
 11
0.0
 21
0.0
 31
0.0
  0
LINE
  5
8C
330
1E
100
AcDbEntity
  8
HILF
100
AcDbLine
 10
29.99999999999994
 20
297.0
 30
0.0
 11
0.0000000000001137
 21
297.0
 31
0.0
  0
LINE
  5
8E
330
1E
100
AcDbEntity
  8
HILF
100
AcDbLine
 10
420.0
 20
-0.0000000000001137
 30
0.0
 11
419.9999999999999
 21
594.0
 31
0.0
  0
TEXT
  5
8F
330
1E
100
AcDbEntity
  8
VOLL
100
AcDbText
 10
78.07675471698113
 20
31.02594776470585
 30
0.0
 40
1.8
  1

  7
GREEKS
100
AcDbText
  0
TEXT
  5
118
330
1E
100
AcDbEntity
  8
BEM
100
AcDbText
 10
417.3022923857165
 20
10.16790107998849
 30
0.0
 40
4.0
  1
Diese Zeichnung ist urheberrechtlich geschützt und bleibt unser Eigentum. Sie darf weder ganz noch teilweise verfielfältigt und nicht an Dritte weitergegeben werden.
 50
90.0
 41
0.8
  7
GREEKS
100
AcDbText
  0
HATCH
  5
AD5
330
1E
100
AcDbEntity
  8
SCHRAFF
100
AcDbHatch
 10
0.0
 20
0.0
 30
0.0
210
0.0
220
0.0
230
1.0
  2
_U
 70
     0
 71
     0
 91
        4
 92
        7
 72
     1
 73
     1
 93
        4
 10
60.08566539727133
 20
453.7237895507757
 42
1.0
 10
60.08566539727133
 20
447.7237895507756
 42
0.0
 10
83.0856653972714
 20
447.7237895507756
 42
0.0
 10
83.08566539727138
 20
453.7237895507757
 42
0.0
 97
        0
 92
        7
 72
     1
 73
     1
 93
        4
 10
120.0856653972714
 20
447.7237895507756
 42
1.0
 10
120.0856653972714
 20
453.7237895507757
 42
0.0
 10
97.08566539727138
 20
453.7237895507757
 42
0.0
 10
97.0856653972714
 20
447.7237895507756
 42
0.0
 97
        0
 92
        7
 72
     1
 73
     1
 93
        4
 10
337.0856653972716
 20
447.7237895507756
 42
0.0
 10
337.0856653972714
 20
453.7237895507759
 42
0.0
 10
314.0856653972713
 20
453.7237895507759
 42
1.0
 10
314.0856653972713
 20
447.7237895507755
 42
0.0
 97
        0
 92
        7
 72
     1
 73
     1
 93
        4
 10
374.0856653972713
 20
447.7237895507754
 42
1.0
 10
374.0856653972713
 20
453.723789550776
 42
0.0
 10
351.0856653972715
 20
453.723789550776
 42
0.0
 10
351.0856653972715
 20
447.7237895507754
 42
0.0
 97
        0
 75
     0
 76
     0
 52
45.0
 41
5.0
 77
     0
 78
     1
 53
45.0
 43
0.0
 44
0.0
 45
-3.535533905932737
 46
3.535533905932737
 79
     0
 47
0.5191189065669484
 98
        4
 10
65.96588413300651
 20
450.8260385316007
 10
117.9156947227557
 20
449.2686805986282
 10
321.558945383515
 20
448.2304433835861
 10
358.9628094974955
 20
449.7878013165586
  0
LINE
  5
AD9
330
1E
100
AcDbEntity
  8
STEMPEL
100
AcDbLine
 10
193.661469946425
 20
467.7237895507756
 30
0.0
 11
208.6614699464251
 21
467.7237895507756
 31
0.0
  0
LINE
  5
ADA
330
1E
100
AcDbEntity
  8
STEMPEL
100
AcDbLine
 10
60.08566539727133
 20
453.7237895507757
 30
0.0
 11
374.0856653972713
 21
453.723789550776
 31
0.0
  0
DIMENSION
  5
ADE
330
1E
100
AcDbEntity
  8
BEM
100
AcDbDimension
  2
*D1
 10
382.0856653972713
 20
490.0686385989915
 30
0.0
 11
217.0856653972713
 21
495.5686385989915
 31
0.0
 70
    32
  1
%%c<>
 71
     5
 42
330.0
  3
Standard
100
AcDbAlignedDimension
 13
52.08566539727133
 23
445.2237895507757
 33
0.0
 14
382.0856653972713
 24
445.2237895507756
 34
0.0
100
AcDbRotatedDimension
1001
ACAD
1000
DSTYLE
1002
{
1070
    40
1040
2.0
1070
    41
1040
3.5
1070
    42
1040
1.0
1070
    43
1040
8.0
1070
    44
1040
1.5
1070
    47
1040
1.199999999999999
1070
    48
1040
1.199999999999999
1070
    73
1070
     0
1070
    74
1070
     0
1070
    77
1070
     1
1070
    78
1070
     8
1070
   140
1040
3.5
1070
   141
1040
1.5
1070
   147
1040
1.0
1070
   172
1070
     1
1070
   178
1070
     1
1070
   271
1070
     2
1070
   272
1070
     2
1070
   285
1070
     8
1070
   286
1070
     8
1070
   289
1070
     0
1070
   340
1005
24
1002
}
  0
LINE
  5
ADF
102
{ACAD_REACTORS
330
EA2
102
}
330
1E
100
AcDbEntity
  8
STEMPEL
100
AcDbLine
 10
95.08566539727139
 20
445.2237895507757
 30
0.0
 11
128.7403659356508
 21
445.2237895507757
 31
0.0
  0
LINE
  5
AE1
330
1E
100
AcDbEntity
  8
STEMPEL
100
AcDbLine
 10
95.08566539727139
 20
447.7237895507756
 30
0.0
 11
130.1837416086247
 21
447.7237895507755
 31
0.0
  0
TEXT
  5
AE2
330
1E
100
AcDbEntity
  8
TEXT
100
AcDbText
 10
192.626132208084
 20
90.76363841023022
 30
0.0
 40
4.0
  1
DIN EN1124-3
 41
0.8
  7
GREEKS
 72
     1
 11
209.6166083985602
 21
90.76363841023022
 31
0.0
100
AcDbText
  0
TEXT
  5
AE3
330
1E
100
AcDbEntity
  8
TEXT
100
AcDbText
 10
194.2858954734051
 20
102.4184168434819
 30
0.0
 40
5.0
  1
Zul. Abw.
 41
0.8
  7
GREEKS
100
AcDbText
  0
TEXT
  5
AE4
330
1E
100
AcDbEntity
  8
TEXT
100
AcDbText
 10
204.4216048581258
 20
63.0896391972351
 30
0.0
 40
4.0
  1
Koeh
 41
0.8
  7
GREEKS
 72
     1
 11
209.6787477152686
 21
63.0896391972351
 31
0.0
100
AcDbText
  0
TEXT
  5
AE5
330
1E
100
AcDbEntity
  8
TEXT
100
AcDbText
 10
202.4626584226295
 20
73.30961091915225
 30
0.0
 40
4.0
  1
Name
 41
0.8
  7
GREEKS
100
AcDbText
  0
INSERT
  5
AE6
330
1E
100
AcDbEntity
  8
STEMPEL
100
AcDbBlockReference
  2
LOGO
 10
150.9955485457794
 20
45.02105276448321
 30
0.0
 41
2.0
 42
2.0
 43
2.0
  0
LINE
  5
AE7
330
1E
100
AcDbEntity
  8
HILF
100
AcDbLine
 10
146.0000000000001
 20
70.0
 30
0.0
 11
230.0
 21
70.0
 31
0.0
  0
LINE
  5
AE8
330
1E
100
AcDbEntity
  8
HILF
100
AcDbLine
 10
146.0000000000001
 20
60.0
 30
0.0
 11
230.0
 21
60.0
 31
0.0
  0
LINE
  5
AE9
330
1E
100
AcDbEntity
  8
HILF
100
AcDbLine
 10
146.0000000000001
 20
50.0
 30
0.0
 11
230.0
 21
50.0
 31
0.0
  0
LINE
  5
AEA
102
{ACAD_REACTORS
330
EA2
102
}
330
1E
100
AcDbEntity
  8
STEMPEL
100
AcDbLine
 10
52.08566539727133
 20
442.2237895507756
 30
0.0
 11
131.5856653972715
 21
442.2237895507755
 31
0.0
  0
LINE
  5
AEB
330
1E
100
AcDbEntity
  8
STEMPEL
100
AcDbLine
 10
410.0
 20
40.0
 30
0.0
 11
146.0000000000001
 21
40.0
 31
0.0
  0
LINE
  5
AEC
330
1E
100
AcDbEntity
  8
STEMPEL
100
AcDbLine
 10
410.0
 20
80.0
 30
0.0
 11
146.0000000000001
 21
79.99999999999994
 31
0.0
  0
LINE
  5
AED
330
1E
100
AcDbEntity
  8
STEMPEL
100
AcDbLine
 10
410.0
 20
110.0
 30
0.0
 11
29.99999999999998
 21
110.0
 31
0.0
  0
DIMENSION
  5
AF0
330
1E
100
AcDbEntity
  8
BEM
100
AcDbDimension
  2
*D2
 10
42.8250914961045
 20
442.2237895507756
 30
0.0
 11
37.32509149610443
 21
302.2237895507754
 31
0.0
 70
    32
 71
     5
 42
280.0000000000006
  3
Standard
100
AcDbAlignedDimension
 13
139.0729726772123
 23
162.223789550775
 33
0.0
 14
52.08566539727133
 24
442.2237895507756
 34
0.0
 50
90.0
100
AcDbRotatedDimension
1001
ACAD
1000
DSTYLE
1002
{
1070
    40
1040
2.0
1070
    41
1040
3.5
1070
    42
1040
1.0
1070
    43
1040
7.0
1070
    44
1040
1.0
1070
    47
1040
0.7
1070
    48
1040
0.7
1070
    73
1070
     0
1070
    74
1070
     0
1070
    77
1070
     1
1070
    78
1070
     8
1070
   140
1040
3.5
1070
   141
1040
1.5
1070
   146
1040
0.5142857142857144
1070
   147
1040
1.0
1070
   172
1070
     1
1070
   178
1070
     1
1070
   271
1070
     2
1070
   272
1070
     2
1070
   279
1070
     2
1070
   284
1070
     8
1070
   285
1070
     8
1070
   286
1070
     8
1070
   340
1005
24
1002
}
  0
TEXT
  5
AF1
330
1E
100
AcDbEntity
  8
TEXT
100
AcDbText
 10
42.32142973901864
 20
112.7871664996321
 30
0.0
 40
5.0
  1
Erstellt mit AUTOCAD 2004
 41
0.8
  7
GREEKS
100
AcDbText
  0
TEXT
  5
AF2
330
1E
100
AcDbEntity
  8
TEXT
100
AcDbText
 10
61.63206033284426
 20
18.67381894984134
 30
0.0
 40
4.0
  1
Änderung
 41
0.8
  7
GREEKS
 72
     1
 11
72.37491747570141
 21
18.67381894984134
 31
0.0
100
AcDbText
  0
LINE
  5
AF3
330
1E
100
AcDbEntity
  8
HILF
100
AcDbLine
 10
29.99999999999998
 20
100.0
 30
0.0
 11
146.0000000000001
 21
100.0
 31
0.0
  0
LINE
  5
AF4
330
1E
100
AcDbEntity
  8
HILF
100
AcDbLine
 10
29.99999999999998
 20
90.00000000000005
 30
0.0
 11
146.0000000000001
 21
90.00000000000005
 31
0.0
  0
LINE
  5
AF5
330
1E
100
AcDbEntity
  8
HILF
100
AcDbLine
 10
29.99999999999999
 20
79.99999999999996
 30
0.0
 11
146.0000000000001
 21
79.99999999999994
 31
0.0
  0
LINE
  5
AF6
330
1E
100
AcDbEntity
  8
STEMPEL
100
AcDbLine
 10
145.9999999999999
 20
30.0
 30
0.0
 11
30.0
 21
30.0
 31
0.0
  0
LINE
  5
AF7
330
1E
100
AcDbEntity
  8
HILF
100
AcDbLine
 10
29.99999999999999
 20
70.0
 30
0.0
 11
146.0000000000001
 21
70.0
 31
0.0
  0
LINE
  5
AF8
330
1E
100
AcDbEntity
  8
HILF
100
AcDbLine
 10
29.99999999999999
 20
60.0
 30
0.0
 11
146.0000000000001
 21
60.0
 31
0.0
  0
LINE
  5
AF9
330
1E
100
AcDbEntity
  8
HILF
100
AcDbLine
 10
29.99999999999999
 20
50.0
 30
0.0
 11
146.0000000000001
 21
50.0
 31
0.0
  0
LINE
  5
AFA
330
1E
100
AcDbEntity
  8
HILF
100
AcDbLine
 10
30.0
 20
40.0
 30
0.0
 11
146.0000000000001
 21
40.0
 31
0.0
  0
TEXT
  5
AFB
330
1E
100
AcDbEntity
  8
TEXT
100
AcDbText
 10
39.09188545941777
 20
13.65465846027189
 30
0.0
 40
4.0
  1
Index
 50
90.0
 41
0.8
  7
GREEKS
100
AcDbText
  0
LINE
  5
AFC
330
1E
100
AcDbEntity
  8
VOLL
100
AcDbLine
 10
44.82547438896029
 20
110.0
 30
0.0
 11
44.82547438896017
 21
10.0
 31
0.0
  0
TEXT
  5
AFD
330
1E
100
AcDbEntity
  8
TEXT
100
AcDbText
 10
110.443926643394
 20
18.67156269339807
 30
0.0
 40
4.0
  1
Tag
 41
0.8
  7
GREEKS
 72
     1
 11
114.1772599767273
 21
18.67156269339807
 31
0.0
100
AcDbText
  0
LINE
  5
AFE
330
1E
100
AcDbEntity
  8
VOLL
100
AcDbLine
 10
124.0000000000001
 20
109.9999999999999
 30
0.0
 11
124.0
 21
10.0
 31
0.0
  0
LINE
  5
AFF
330
1E
100
AcDbEntity
  8
VOLL
100
AcDbLine
 10
104.0000000000001
 20
109.9999999999999
 30
0.0
 11
104.0
 21
10.0
 31
0.0
  0
TEXT
  5
B00
330
1E
100
AcDbEntity
  8
TEXT
100
AcDbText
 10
128.671406850916
 20
18.59324216966411
 30
0.0
 40
4.0
  1
Name
 41
0.8
  7
GREEKS
 72
     1
 11
134.9952163747256
 21
18.59324216966411
 31
0.0
100
AcDbText
  0
LINE
  5
B01
330
1E
100
AcDbEntity
  8
STEMPEL
100
AcDbLine
 10
146.0000000000001
 20
109.9999999999999
 30
0.0
 11
146.0
 21
10.0
 31
0.0
  0
TEXT
  5
B02
330
1E
100
AcDbEntity
  8
TEXT
100
AcDbText
 10
172.331167315365
 20
73.31880501229926
 30
0.0
 40
4.0
  1
Tag
 41
0.8
  7
GREEKS
100
AcDbText
  0
TEXT
  5
B03
330
1E
100
AcDbEntity
  8
TEXT
100
AcDbText
 10
171.3132828225218
 20
63.10765040825732
 30
0.0
 40
4.0
  1
01.11.
 41
0.8
  7
GREEKS
 72
     1
 11
177.4085209177599
 21
63.10765040825732
 31
0.0
100
AcDbText
  0
LINE
  5
B04
330
1E
100
AcDbEntity
  8
VOLL
100
AcDbLine
 10
164.0000000000001
 20
79.99999999999994
 30
0.0
 11
164.0000000000001
 21
40.0
 31
0.0
  0
TEXT
  5
B05
330
1E
100
AcDbEntity
  8
TEXT
100
AcDbText
 10
147.5836127167615
 20
63.62990369617967
 30
0.0
 40
4.0
  1
Gez.
 41
0.8
  7
GREEKS
100
AcDbText
  0
TEXT
  5
B06
330
1E
100
AcDbEntity
  8
TEXT
100
AcDbText
 10
147.5515086571672
 20
53.68926291428374
 30
0.0
 40
4.0
  1
Gepr.
 41
0.8
  7
GREEKS
100
AcDbText
  0
TEXT
  5
B07
330
1E
100
AcDbEntity
  8
TEXT
100
AcDbText
 10
147.6006777387303
 20
43.5294638964981
 30
0.0
 40
4.0
  1
Norm.
 41
0.8
  7
GREEKS
100
AcDbText
  0
TEXT
  5
B08
330
1E
100
AcDbEntity
  8
TEXT
 62
     1
100
AcDbText
 10
160.5006306481887
 20
88.14901428913959
 30
0.0
 40
7.0
  1
1:2
 41
0.8
  7
GREEKS
100
AcDbText
  0
TEXT
  5
B09
330
1E
100
AcDbEntity
  8
TEXT
100
AcDbText
 10
153.5163572150377
 20
102.4620895087088
 30
0.0
 40
5.0
  1
Maßstab
 41
0.8
  7
GREEKS
100
AcDbText
  0
TEXT
  5
B0A
330
1E
100
AcDbEntity
  8
TEXT
100
AcDbText
 10
148.622109822104
 20
73.14025471151666
 30
0.0
 40
4.0
  1
2010
 41
0.8
  7
GREEKS
100
AcDbText
  0
LINE
  5
B0B
330
1E
100
AcDbEntity
  8
VOLL
100
AcDbLine
 10
190.0000000000001
 20
109.9999999999998
 30
0.0
 11
190.0
 21
40.0
 31
0.0
  0
TEXT
  5
B0E
330
1E
100
AcDbEntity
  8
TEXT
 62
     1
100
AcDbText
 10
62.0899127623519
 20
547.6697066798491
 30
0.0
 40
7.0
  1
Losflansch DN125
 41
0.8
  7
GREEKS
100
AcDbText
  0
TEXT
  5
B0F
330
1E
100
AcDbEntity
  8
TEXT
 62
     1
100
AcDbText
 10
62.0899127623519
 20
534.7172665780996
 30
0.0
 40
7.0
  1
EDV-Art.Nr. 21905.125X
 41
0.7
  7
GREEKS
100
AcDbText
  0
LINE
  5
B10
330
1E
100
AcDbEntity
  8
TEXT
 62
     2
100
AcDbLine
 10
55.38126118680045
 20
545.6639700613476
 30
0.0
 11
151.601735223272
 21
545.6639700613476
 31
0.0
  0
LINE
  5
B14
330
1E
100
AcDbEntity
  8
STEMPEL
100
AcDbLine
 10
60.08566539727133
 20
447.7237895507756
 30
0.0
 11
85.08566539727139
 21
447.7237895507756
 31
0.0
  0
LINE
  5
B15
102
{ACAD_REACTORS
330
EA2
102
}
330
1E
100
AcDbEntity
  8
STEMPEL
100
AcDbLine
 10
52.08566539727133
 20
445.2237895507757
 30
0.0
 11
85.08566539727139
 21
445.2237895507757
 31
0.0
  0
ARC
  5
B1A
330
1E
100
AcDbEntity
  8
STEMPEL
100
AcDbCircle
 10
60.08566539727133
 20
450.7237895507756
 30
0.0
 40
3.0
100
AcDbArc
 50
90.0
 51
270.0
  0
LINE
  5
B1D
102
{ACAD_REACTORS
330
EA2
102
}
330
1E
100
AcDbEntity
  8
STEMPEL
100
AcDbLine
 10
52.08566539727133
 20
445.2237895507757
 30
0.0
 11
52.08566539727133
 21
442.2237895507756
 31
0.0
  0
LINE
  5
B1F
330
1E
100
AcDbEntity
  8
TEXT
 62
     2
100
AcDbLine
 10
55.38126118680045
 20
545.6639700613476
 30
0.0
 11
67.90684138275797
 21
491.6455695713778
 31
0.0
  0
LINE
  5
B2B
330
1E
100
AcDbEntity
  8
MITTEL
100
AcDbLine
 10
90.08566539727139
 20
472.2237895507756
 30
0.0
 11
90.08566539727139
 21
442.2237895507754
 31
0.0
  0
LINE
  5
B2E
330
1E
100
AcDbEntity
  8
STEMPEL
100
AcDbLine
 10
83.08566539727138
 20
453.7237895507757
 30
0.0
 11
83.0856653972714
 21
447.7237895507756
 31
0.0
  0
LINE
  5
B2F
330
1E
100
AcDbEntity
  8
STEMPEL
100
AcDbLine
 10
85.08566539727139
 20
453.7237895507757
 30
0.0
 11
85.08566539727139
 21
442.2237895507753
 31
0.0
  0
LINE
  5
B30
330
1E
100
AcDbEntity
  8
HILF
100
AcDbLine
 10
86.08566539727139
 20
453.7237895507757
 30
0.0
 11
86.08566539727139
 21
442.2237895507753
 31
0.0
  0
LINE
  5
B32
102
{ACAD_REACTORS
330
EA2
102
}
330
1E
100
AcDbEntity
  8
STEMPEL
100
AcDbLine
 10
83.08566539727138
 20
445.2237895507757
 30
0.0
 11
83.08566539727138
 21
442.2237895507753
 31
0.0
  0
LINE
  5
B33
330
1E
100
AcDbEntity
  8
STEMPEL
100
AcDbLine
 10
97.08566539727138
 20
453.7237895507757
 30
0.0
 11
97.0856653972714
 21
447.7237895507756
 31
0.0
  0
LINE
  5
B34
330
1E
100
AcDbEntity
  8
STEMPEL
100
AcDbLine
 10
95.08566539727139
 20
453.7237895507757
 30
0.0
 11
95.08566539727139
 21
442.2237895507753
 31
0.0
  0
LINE
  5
B35
330
1E
100
AcDbEntity
  8
HILF
100
AcDbLine
 10
94.08566539727138
 20
453.7237895507757
 30
0.0
 11
94.08566539727138
 21
442.2237895507753
 31
0.0
  0
LINE
  5
B37
102
{ACAD_REACTORS
330
EA2
102
}
330
1E
100
AcDbEntity
  8
STEMPEL
100
AcDbLine
 10
97.08566539727138
 20
445.2237895507757
 30
0.0
 11
97.08566539727138
 21
442.2237895507753
 31
0.0
  0
LINE
  5
B38
330
1E
100
AcDbEntity
  8
STEMPEL
100
AcDbLine
 10
94.08566539727145
 20
467.2237895507763
 30
0.0
 11
86.08566539727144
 21
467.2237895507763
 31
0.0
  0
LINE
  5
B39
330
1E
100
AcDbEntity
  8
STEMPEL
100
AcDbLine
 10
85.08566539727144
 20
466.2237895507765
 30
0.0
 11
95.08566539727144
 21
466.2237895507765
 31
0.0
  0
LINE
  5
B3C
330
1E
100
AcDbEntity
  8
HILF
100
AcDbLine
 10
86.08566539727144
 20
467.2237895507763
 30
0.0
 11
86.08566539727144
 21
463.7237895507757
 31
0.0
  0
LINE
  5
B3D
330
1E
100
AcDbEntity
  8
STEMPEL
100
AcDbLine
 10
85.08566539727144
 20
466.2237895507764
 30
0.0
 11
85.08566539727144
 21
463.7237895507757
 31
0.0
  0
LINE
  5
B3E
330
1E
100
AcDbEntity
  8
STEMPEL
100
AcDbLine
 10
86.08566539727144
 20
467.2237895507763
 30
0.0
 11
85.08566539727144
 21
466.2237895507764
 31
0.0
  0
LINE
  5
B3F
330
1E
100
AcDbEntity
  8
STEMPEL
100
AcDbLine
 10
95.08566539727144
 20
466.2237895507764
 30
0.0
 11
94.08566539727145
 21
467.2237895507763
 31
0.0
  0
LINE
  5
B40
330
1E
100
AcDbEntity
  8
HILF
100
AcDbLine
 10
94.08566539727145
 20
467.2237895507763
 30
0.0
 11
94.08566539727145
 21
463.7237895507757
 31
0.0
  0
LINE
  5
B41
330
1E
100
AcDbEntity
  8
STEMPEL
100
AcDbLine
 10
95.08566539727144
 20
466.2237895507764
 30
0.0
 11
95.08566539727143
 21
463.7237895507757
 31
0.0
  0
ARC
  5
B44
330
1E
100
AcDbEntity
  8
STEMPEL
100
AcDbCircle
 10
120.0856653972714
 20
450.7237895507756
 30
0.0
 40
3.0
100
AcDbArc
 50
270.0
 51
90.0
  0
LINE
  5
B46
102
{ACAD_REACTORS
330
EA2
102
}
330
1E
100
AcDbEntity
  8
STEMPEL
100
AcDbLine
 10
122.0856653972714
 20
445.2237895507757
 30
0.0
 11
122.0856653972714
 21
442.2237895507756
 31
0.0
  0
LINE
  5
B54
330
1E
100
AcDbEntity
  8
MITTEL
100
AcDbLine
 10
153.5856653972713
 20
472.2237895507754
 30
0.0
 11
153.5856653972713
 21
442.2237895507754
 31
0.0
  0
LINE
  5
B5F
330
1E
100
AcDbEntity
  8
STEMPEL
100
AcDbLine
 10
157.5856653972713
 20
467.2237895507763
 30
0.0
 11
149.5856653972713
 21
467.2237895507763
 31
0.0
  0
LINE
  5
B61
330
1E
100
AcDbEntity
  8
STEMPEL
100
AcDbLine
 10
148.5856653972713
 20
466.2237895507765
 30
0.0
 11
158.5856653972713
 21
466.2237895507765
 31
0.0
  0
LINE
  5
B62
330
1E
100
AcDbEntity
  8
STEMPEL
100
AcDbLine
 10
149.5856653972713
 20
467.2237895507763
 30
0.0
 11
148.5856653972713
 21
466.2237895507764
 31
0.0
  0
LINE
  5
B63
330
1E
100
AcDbEntity
  8
STEMPEL
100
AcDbLine
 10
148.5856653972713
 20
466.2237895507764
 30
0.0
 11
148.5856653972713
 21
463.7237895507757
 31
0.0
  0
LINE
  5
B64
330
1E
100
AcDbEntity
  8
HILF
100
AcDbLine
 10
149.5856653972713
 20
467.2237895507763
 30
0.0
 11
149.5856653972713
 21
463.7237895507758
 31
0.0
  0
LINE
  5
B66
330
1E
100
AcDbEntity
  8
STEMPEL
100
AcDbLine
 10
158.5856653972713
 20
466.2237895507764
 30
0.0
 11
158.5856653972713
 21
463.7237895507757
 31
0.0
  0
LINE
  5
B67
330
1E
100
AcDbEntity
  8
HILF
100
AcDbLine
 10
157.5856653972713
 20
467.2237895507763
 30
0.0
 11
157.5856653972713
 21
463.7237895507758
 31
0.0
  0
LINE
  5
B68
330
1E
100
AcDbEntity
  8
STEMPEL
100
AcDbLine
 10
158.5856653972713
 20
466.2237895507764
 30
0.0
 11
157.5856653972713
 21
467.2237895507763
 31
0.0
  0
LINE
  5
B69
330
1E
100
AcDbEntity
  8
STEMPEL
100
AcDbLine
 10
193.5028511976336
 20
458.6365275185894
 30
0.0
 11
193.661469946425
 21
467.7237895507756
 31
0.0
  0
ARC
  5
B6A
330
1E
100
AcDbEntity
  8
STEMPEL
100
AcDbCircle
 10
188.5036127218517
 20
458.7237895507758
 30
0.0
 40
5.0
100
AcDbArc
 50
270.0
 51
358.9999999999982
  0
LINE
  5
B6D
330
1E
100
AcDbEntity
  8
MITTEL
100
AcDbLine
 10
217.0856653972714
 20
458.7237895507759
 30
0.0
 11
217.0856653972712
 21
157.2237895507759
 31
0.0
  0
LINE
  5
B6E
330
1E
100
AcDbEntity
  8
TEXT
 62
     2
100
AcDbLine
 10
309.1494621374772
 20
206.6043192277848
 30
0.0
 11
405.6222297148687
 21
206.6043192277848
 31
0.0
  0
TEXT
  5
B6F
330
1E
100
AcDbEntity
  8
TEXT
 62
     1
100
AcDbText
 10
310.5008312856536
 20
209.5882191052627
 30
0.0
 40
7.0
  1
Ablaufkörper DN150
 41
0.8
  7
GREEKS
100
AcDbText
  0
TEXT
  5
B70
330
1E
100
AcDbEntity
  8
TEXT
 62
     1
100
AcDbText
 10
309.8938716730618
 20
196.8803205554898
 30
0.0
 40
7.0
  1
EDV-Art.Nr. 21981.150X
 41
0.75
  7
GREEKS
100
AcDbText
  0
TEXT
  5
B71
330
1E
100
AcDbEntity
  8
TEXT
100
AcDbText
 10
336.178754957634
 20
102.3132034537136
 30
0.0
 40
5.0
  1
Zeichnungs Nr.
 41
0.8
  7
GREEKS
100
AcDbText
  0
TEXT
  5
B72
330
1E
100
AcDbEntity
  8
TEXT
100
AcDbText
 10
336.7238616296993
 20
73.1811823709997
 30
0.0
 40
5.0
  1
Ersatz für:
 41
0.8
  7
GREEKS
100
AcDbText
  0
TEXT
  5
B73
330
1E
100
AcDbEntity
  8
TEXT
100
AcDbText
 10
337.2400861497006
 20
52.07416177878599
 30
0.0
 40
5.0
  1
ersetzt durch:
 41
0.8
  7
GREEKS
100
AcDbText
  0
LINE
  5
B74
330
1E
100
AcDbEntity
  8
HILF
100
AcDbLine
 10
336.7238616296993
 20
83.77983636955827
 30
0.0
 11
404.8588839326728
 21
83.77983636955827
 31
0.0
  0
LINE
  5
B75
330
1E
100
AcDbEntity
  8
VOLL
100
AcDbLine
 10
332.0
 20
60.0
 30
0.0
 11
410.0
 21
60.0
 31
0.0
  0
LINE
  5
B76
330
1E
100
AcDbEntity
  8
HILF
100
AcDbLine
 10
233.4909699289885
 20
14.89398258028314
 30
0.0
 11
404.8588839326728
 21
14.89398258028314
 31
0.0
  0
LINE
  5
B77
330
1E
100
AcDbEntity
  8
HILF
100
AcDbLine
 10
234.7736801096947
 20
84.03758247564139
 30
0.0
 11
324.8353916556311
 21
84.03758247564139
 31
0.0
  0
LINE
  5
B78
330
1E
100
AcDbEntity
  8
HILF
100
AcDbLine
 10
234.7736801096947
 20
70.0
 30
0.0
 11
324.8353916556309
 21
70.0
 31
0.0
  0
LINE
  5
B79
330
1E
100
AcDbEntity
  8
HILF
100
AcDbLine
 10
234.7736801096947
 20
60.0
 30
0.0
 11
324.8353916556309
 21
60.0
 31
0.0
  0
LINE
  5
B7A
330
1E
100
AcDbEntity
  8
HILF
100
AcDbLine
 10
234.7736801096947
 20
50.0
 30
0.0
 11
324.8353916556309
 21
50.0
 31
0.0
  0
TEXT
  5
B7B
330
1E
100
AcDbEntity
  8
TEXT
100
AcDbText
 10
235.1296391125316
 20
51.64011943042158
 30
0.0
 40
5.0
  1
EDV-Art.Nr. 21991.150X
 41
0.8
  7
GREEKS
100
AcDbText
  0
TEXT
  5
B7C
330
1E
100
AcDbEntity
  8
TEXT
 62
     1
100
AcDbText
 10
234.8934189602656
 20
87.41748789253779
 30
0.0
 40
7.0
  1
Unterteileinheit DN150
 41
0.8
  7
GREEKS
100
AcDbText
  0
LINE
  5
B7D
330
1E
100
AcDbEntity
  8
STEMPEL
100
AcDbLine
 10
230.0
 20
110.0
 30
0.0
 11
230.0
 21
10.0
 31
0.0
  0
TEXT
  5
B7E
330
1E
100
AcDbEntity
  8
TEXT
100
AcDbText
 10
234.877940380901
 20
102.5489328011779
 30
0.0
 40
5.0
  1
Benennung
 41
0.8
  7
GREEKS
100
AcDbText
  0
TEXT
  5
B7F
330
1E
100
AcDbEntity
  8
TEXT
100
AcDbText
 10
234.742238391136
 20
30.8456057019306
 30
0.0
 40
5.0
  1
Bauvorhaben
 41
0.8
  7
GREEKS
100
AcDbText
  0
TEXT
  5
B80
330
1E
100
AcDbEntity
  8
TEXT
100
AcDbText
 10
234.9837501577827
 20
42.62974153022628
 30
0.0
 40
4.0
  1
21991150W.DWG
 41
0.8
  7
GREEKS
100
AcDbText
  0
LINE
  5
B81
330
1E
100
AcDbEntity
  8
STEMPEL
100
AcDbLine
 10
332.0
 20
109.9999999999997
 30
0.0
 11
332.0
 21
40.0
 31
0.0
  0
LINE
  5
B84
330
1E
100
AcDbEntity
  8
TEXT
 62
     2
100
AcDbLine
 10
309.1494621374772
 20
206.6043192277848
 30
0.0
 11
295.6103357931124
 21
220.1516422843485
 31
0.0
  0
TEXT
  5
B86
330
1E
100
AcDbEntity
  8
TEXT
 62
     1
100
AcDbText
 10
348.5291118887765
 20
88.14901428913959
 30
0.0
 40
7.0
  1
21991150W
 41
0.8
  7
GREEKS
 72
     1
 11
370.9291118887764
 21
88.14901428913959
 31
0.0
100
AcDbText
  0
TEXT
  5
B89
330
1E
100
AcDbEntity
  8
TEXT
 62
     1
100
AcDbText
 10
213.1016873411109
 20
305.2016561627709
 30
0.0
 40
7.0
  1
DN150
 50
90.0
 41
0.8
  7
GREEKS
100
AcDbText
  0
ARC
  5
B8A
330
1E
100
AcDbEntity
  8
STEMPEL
100
AcDbCircle
 10
213.8193271709986
 20
458.7237895507755
 30
0.0
 40
5.0
100
AcDbArc
 50
181.0000000000017
 51
270.0
  0
LINE
  5
B8B
330
1E
100
AcDbEntity
  8
MITTEL
100
AcDbLine
 10
201.1614699464249
 20
472.2237895507753
 30
0.0
 11
201.1614699464256
 21
447.4976494681491
 31
0.0
  0
LINE
  5
B8C
330
1E
100
AcDbEntity
  8
STEMPEL
100
AcDbLine
 10
208.8200886952165
 20
458.6365275185892
 30
0.0
 11
208.6614699464251
 21
467.7237895507756
 31
0.0
  0
LINE
  5
B95
330
1E
100
AcDbEntity
  8
STEMPEL
100
AcDbLine
 10
285.5856653972716
 20
466.2237895507765
 30
0.0
 11
275.5856653972716
 21
466.2237895507765
 31
0.0
  0
LINE
  5
B98
330
1E
100
AcDbEntity
  8
STEMPEL
100
AcDbLine
 10
276.5856653972715
 20
467.2237895507763
 30
0.0
 11
284.5856653972715
 21
467.2237895507763
 31
0.0
  0
LINE
  5
BA1
330
1E
100
AcDbEntity
  8
STEMPEL
100
AcDbLine
 10
275.5856653972716
 20
466.2237895507764
 30
0.0
 11
276.5856653972715
 21
467.2237895507763
 31
0.0
  0
LINE
  5
BA2
330
1E
100
AcDbEntity
  8
HILF
100
AcDbLine
 10
276.5856653972715
 20
467.2237895507763
 30
0.0
 11
276.5856653972715
 21
463.7237895507759
 31
0.0
  0
LINE
  5
BA3
330
1E
100
AcDbEntity
  8
STEMPEL
100
AcDbLine
 10
275.5856653972716
 20
466.2237895507764
 30
0.0
 11
275.5856653972716
 21
463.7237895507759
 31
0.0
  0
LINE
  5
BA6
330
1E
100
AcDbEntity
  8
MITTEL
100
AcDbLine
 10
280.5856653972716
 20
472.2237895507752
 30
0.0
 11
280.5856653972716
 21
442.2237895507754
 31
0.0
  0
LINE
  5
BAC
330
1E
100
AcDbEntity
  8
HILF
100
AcDbLine
 10
284.5856653972715
 20
467.2237895507763
 30
0.0
 11
284.5856653972715
 21
463.7237895507759
 31
0.0
  0
LINE
  5
BAD
330
1E
100
AcDbEntity
  8
STEMPEL
100
AcDbLine
 10
285.5856653972716
 20
466.2237895507764
 30
0.0
 11
285.5856653972716
 21
463.7237895507759
 31
0.0
  0
LINE
  5
BAE
330
1E
100
AcDbEntity
  8
STEMPEL
100
AcDbLine
 10
284.5856653972715
 20
467.2237895507763
 30
0.0
 11
285.5856653972716
 21
466.2237895507764
 31
0.0
  0
ARC
  5
BAF
330
1E
100
AcDbEntity
  8
STEMPEL
100
AcDbCircle
 10
314.0856653972713
 20
450.7237895507756
 30
0.0
 40
3.0
100
AcDbArc
 50
90.0
 51
270.0
  0
LINE
  5
BB3
102
{ACAD_REACTORS
330
EA2
102
}
330
1E
100
AcDbEntity
  8
STEMPEL
100
AcDbLine
 10
312.0856653972713
 20
445.2237895507757
 30
0.0
 11
312.0856653972713
 21
442.2237895507756
 31
0.0
  0
TEXT
  5
BB5
330
1E
100
AcDbEntity
  8
TEXT
 62
     1
100
AcDbText
 10
242.0619542600127
 20
514.7145609666979
 30
0.0
 40
7.0
  1
EDV-Art.Nr. 21810.150X
 41
0.8
  7
GREEKS
100
AcDbText
  0
TEXT
  5
BB6
330
1E
100
AcDbEntity
  8
TEXT
 62
     1
100
AcDbText
 10
242.6689138726044
 20
527.6670010684474
 30
0.0
 40
7.0
  1
Kompressionsdichtung
 41
0.8
  7
GREEKS
100
AcDbText
  0
LINE
  5
BB7
330
1E
100
AcDbEntity
  8
TEXT
 62
     2
100
AcDbLine
 10
241.3175447244282
 20
525.6612644499459
 30
0.0
 11
348.7930830503012
 21
525.6612644499459
 31
0.0
  0
LINE
  5
BB8
330
1E
100
AcDbEntity
  8
TEXT
 62
     2
100
AcDbLine
 10
348.7930830503012
 20
525.6612644499459
 30
0.0
 11
360.1938146977344
 21
492.0686385989914
 31
0.0
  0
LINE
  5
BBA
102
{ACAD_REACTORS
330
EA2
102
}
330
1E
100
AcDbEntity
  8
STEMPEL
100
AcDbLine
 10
349.0856653972715
 20
445.2237895507756
 30
0.0
 11
382.0856653972713
 21
445.2237895507756
 31
0.0
  0
LINE
  5
BC0
330
1E
100
AcDbEntity
  8
STEMPEL
100
AcDbLine
 10
340.0856653972714
 20
467.2237895507763
 30
0.0
 11
348.0856653972714
 21
467.2237895507763
 31
0.0
  0
LINE
  5
BC3
330
1E
100
AcDbEntity
  8
STEMPEL
100
AcDbLine
 10
349.0856653972715
 20
466.2237895507765
 30
0.0
 11
339.0856653972714
 21
466.2237895507765
 31
0.0
  0
LINE
  5
BC4
330
1E
100
AcDbEntity
  8
MITTEL
100
AcDbLine
 10
344.0856653972715
 20
472.223789550775
 30
0.0
 11
344.0856653972715
 21
442.2237895507754
 31
0.0
  0
LINE
  5
BC9
330
1E
100
AcDbEntity
  8
STEMPEL
100
AcDbLine
 10
339.0856653972715
 20
453.7237895507757
 30
0.0
 11
339.0856653972715
 21
442.2237895507753
 31
0.0
  0
LINE
  5
BCA
330
1E
100
AcDbEntity
  8
STEMPEL
100
AcDbLine
 10
337.0856653972715
 20
453.7237895507757
 30
0.0
 11
337.0856653972716
 21
447.7237895507756
 31
0.0
  0
LINE
  5
BCB
330
1E
100
AcDbEntity
  8
HILF
100
AcDbLine
 10
340.0856653972715
 20
453.7237895507757
 30
0.0
 11
340.0856653972715
 21
442.2237895507753
 31
0.0
  0
LINE
  5
BCC
102
{ACAD_REACTORS
330
EA2
102
}
330
1E
100
AcDbEntity
  8
STEMPEL
100
AcDbLine
 10
337.0856653972715
 20
445.2237895507757
 30
0.0
 11
337.0856653972715
 21
442.2237895507753
 31
0.0
  0
LINE
  5
BCF
330
1E
100
AcDbEntity
  8
STEMPEL
100
AcDbLine
 10
339.0856653972714
 20
466.2237895507764
 30
0.0
 11
339.0856653972714
 21
463.723789550776
 31
0.0
  0
LINE
  5
BD0
330
1E
100
AcDbEntity
  8
HILF
100
AcDbLine
 10
340.0856653972714
 20
467.2237895507763
 30
0.0
 11
340.0856653972714
 21
463.723789550776
 31
0.0
  0
LINE
  5
BD1
330
1E
100
AcDbEntity
  8
STEMPEL
100
AcDbLine
 10
339.0856653972714
 20
466.2237895507764
 30
0.0
 11
340.0856653972714
 21
467.2237895507763
 31
0.0
  0
LINE
  5
BD5
330
1E
100
AcDbEntity
  8
HILF
100
AcDbLine
 10
348.0856653972715
 20
453.7237895507757
 30
0.0
 11
348.0856653972715
 21
442.2237895507753
 31
0.0
  0
LINE
  5
BD6
330
1E
100
AcDbEntity
  8
STEMPEL
100
AcDbLine
 10
349.0856653972715
 20
453.7237895507757
 30
0.0
 11
349.0856653972715
 21
442.2237895507753
 31
0.0
  0
LINE
  5
BD7
330
1E
100
AcDbEntity
  8
STEMPEL
100
AcDbLine
 10
351.0856653972715
 20
453.7237895507757
 30
0.0
 11
351.0856653972715
 21
447.7237895507755
 31
0.0
  0
LINE
  5
BD8
102
{ACAD_REACTORS
330
EA2
102
}
330
1E
100
AcDbEntity
  8
STEMPEL
100
AcDbLine
 10
351.0856653972715
 20
445.2237895507757
 30
0.0
 11
351.0856653972715
 21
442.2237895507753
 31
0.0
  0
LINE
  5
BDC
330
1E
100
AcDbEntity
  8
STEMPEL
100
AcDbLine
 10
348.0856653972714
 20
467.2237895507763
 30
0.0
 11
349.0856653972715
 21
466.2237895507764
 31
0.0
  0
LINE
  5
BDD
330
1E
100
AcDbEntity
  8
HILF
100
AcDbLine
 10
348.0856653972714
 20
467.2237895507763
 30
0.0
 11
348.0856653972714
 21
463.723789550776
 31
0.0
  0
LINE
  5
BDE
330
1E
100
AcDbEntity
  8
STEMPEL
100
AcDbLine
 10
349.0856653972715
 20
466.2237895507764
 30
0.0
 11
349.0856653972714
 21
463.723789550776
 31
0.0
  0
ARC
  5
BE3
330
1E
100
AcDbEntity
  8
STEMPEL
100
AcDbCircle
 10
374.0856653972713
 20
450.7237895507756
 30
0.0
 40
3.0
100
AcDbArc
 50
270.0
 51
90.0
  0
LINE
  5
BE6
102
{ACAD_REACTORS
330
EA2
102
}
330
1E
100
AcDbEntity
  8
STEMPEL
100
AcDbLine
 10
382.0856653972713
 20
445.2237895507757
 30
0.0
 11
382.0856653972713
 21
442.2237895507756
 31
0.0
  0
LINE
  5
C4C
330
1E
100
AcDbEntity
  8
TEXT
 62
     2
100
AcDbLine
 10
361.5513425906733
 20
488.0686385989915
 30
0.0
 11
376.7344270884191
 21
443.3311873047114
 31
0.0
  0
HATCH
  5
CAD
330
1E
100
AcDbEntity
  8
SCHRAFF
100
AcDbHatch
 10
0.0
 20
0.0
 30
0.0
210
0.0
220
0.0
230
1.0
  2
_USER
 70
     0
 71
     0
 91
        2
 92
        7
 72
     0
 73
     1
 93
        4
 10
382.0856653972714
 20
442.223789550775
 10
302.5856653972714
 20
442.2237895507751
 10
302.5856653972714
 20
436.2237895507751
 10
382.0856653972715
 20
436.223789550775
 97
        0
 92
        7
 72
     0
 73
     1
 93
        4
 10
131.5856653972716
 20
442.2237895507754
 10
52.08566539727144
 20
442.2237895507753
 10
52.08566539727144
 20
436.2237895507749
 10
131.5856653972715
 20
436.2237895507749
 97
        0
 75
     0
 76
     0
 52
135.0
 41
5.0
 77
     0
 78
     1
 53
135.0
 43
-27.44420599785553
 44
-260.7969075940835
 45
-3.535533905932737
 46
-3.535533905932737
 79
     0
 47
0.7230679435757049
 98
        2
 10
326.6543177641807
 20
439.1243852998668
 10
115.3947067971471
 20
439.1243852998668
  0
HATCH
  5
CAE
330
1E
100
AcDbEntity
  8
SCHRAFF
100
AcDbHatch
 10
0.0
 20
0.0
 30
0.0
210
0.0
220
0.0
230
1.0
  2
_USER
 70
     0
 71
     1
 91
        2
 92
        7
 72
     1
 73
     1
 93
        3
 10
126.9296329640063
 20
431.335520977117
 42
-0.0357599562310589
 10
127.9807420695648
 20
436.223789550775
 42
0.0
 10
122.9807420695647
 20
436.223789550775
 42
0.3534540684175102
 97
        3
330
CBD
330
CAF
330
CC5
 92
        7
 72
     1
 73
     1
 93
        3
 10
306.1905887249781
 20
436.223789550775
 42
-0.0357599562310598
 10
307.2416978305366
 20
431.335520977117
 42
0.3534540684175161
 10
311.1905887249781
 20
436.223789550775
 42
0.0
 97
        3
330
CBD
330
CD3
330
CB0
 75
     0
 76
     0
 52
0.0
 41
0.1
 77
     0
 78
     1
 53
0.0
 43
-27.44420599785553
 44
-260.7969075940835
 45
0.0
 46
0.1
 79
     0
 47
0.3123162083749499
 98
        2
 10
125.254580384144
 20
433.4301145577826
 10
308.7032790654425
 20
434.6793788053879
  0
ARC
  5
CAF
102
{ACAD_REACTORS
330
CAE
102
}
330
1E
100
AcDbEntity
  8
SCHRAFF
100
AcDbCircle
 10
127.9807420695648
 20
436.223789550775
 30
0.0
 40
5.0
100
AcDbArc
 50
180.0
 51
257.8646481589243
  0
ARC
  5
CB0
102
{ACAD_REACTORS
330
CAE
102
}
330
1E
100
AcDbEntity
  8
SCHRAFF
100
AcDbCircle
 10
306.1905887249781
 20
436.223789550775
 30
0.0
 40
5.0
100
AcDbArc
 50
282.1353518410757
 51
0.0
  0
HATCH
  5
CB1
330
1E
100
AcDbEntity
  8
SCHRAFF
100
AcDbHatch
 10
0.0
 20
0.0
 30
0.0
210
0.0
220
0.0
230
1.0
  2
_USER
 70
     0
 71
     1
 91
        2
 92
        7
 72
     1
 73
     1
 93
       20
 10
305.0856653972715
 20
410.2742996290976
 42
-0.1211241773289237
 10
301.4064363745911
 20
395.198262208445
 42
0.1206909349745548
 10
299.0856653972715
 20
385.7237895507749
 42
0.0
 10
299.0856653972715
 20
370.664761058842
 42
-0.1528962216020376
 10
296.3178082544144
 20
361.8249342355776
 42
0.1528962216020422
 10
294.0856653972714
 20
354.6960416361707
 42
0.0
 10
294.0856653972714
 20
179.3329419080455
 42
0.0
 10
292.5888085234724
 20
162.223789550775
 42
0.0
 10
295.0983581173309
 20
162.223789550775
 42
0.0
 10
296.5856653972714
 20
179.2237895507756
 42
0.0
 10
296.5856653972714
 20
354.6960416361707
 42
-0.1528962216020377
 10
298.3713796829857
 20
360.3991557156961
 42
0.15289622160204
 10
301.5856653972714
 20
370.664761058842
 42
0.0
 10
301.5856653972714
 20
385.7237895507749
 42
-0.1206909349745779
 10
303.6234155236992
 20
394.0428387136087
 42
0.120273494424694
 10
307.5856653972715
 20
410.1611840216021
 42
0.0
 10
307.5856653972715
 20
426.4406853328411
 42
0.0709414746593049
 10
306.1905887249781
 20
436.223789550775
 42
0.0
 10
303.5782592200066
 20
436.223789550775
 42
-0.0765893830497965
 10
305.0856653972715
 20
426.4406853328412
 42
0.0
 97
       20
330
CD3
330
CBD
330
CD2
330
CDA
330
CD4
330
CD6
330
CD7
330
CCE
330
CD0
330
CB9
330
CBC
330
CB7
330
CBB
330
CBA
330
CD1
330
CCF
330
CD8
330
CD9
330
CD5
330
CDB
 92
        7
 72
     1
 73
     1
 93
       20
 10
126.5856653972714
 20
410.1611840216198
 42
0.1202734944248273
 10
130.5479152708439
 20
394.042838713608
 42
-0.1206909349745688
 10
132.5856653972714
 20
385.7237895507749
 42
0.0
 10
132.5856653972714
 20
370.664761058842
 42
0.1528962216020396
 10
135.7999511115571
 20
360.3991557156962
 42
-0.1528962216020402
 10
137.5856653972715
 20
354.6960416361707
 42
0.0
 10
137.5856653972715
 20
179.2237895507753
 42
0.0
 10
139.0729726772123
 20
162.223789550775
 42
0.0
 10
141.5825222710706
 20
162.223789550775
 42
0.0
 10
140.0856653972715
 20
179.3329419080462
 42
0.0
 10
140.0856653972715
 20
354.6960416361707
 42
0.152896221602037
 10
137.8535225401286
 20
361.8249342355774
 42
-0.1528962216020413
 10
135.0856653972714
 20
370.664761058842
 42
0.0
 10
135.0856653972714
 20
385.7237895507749
 42
0.1206909349745684
 10
132.7648944199512
 20
395.198262208446
 42
-0.1211241773287383
 10
129.0856653972714
 20
410.274299629075
 42
0.0
 10
129.0856653972714
 20
426.4406853328411
 42
-0.0765893830497969
 10
130.5930715745362
 20
436.223789550775
 42
0.0
 10
127.9807420695648
 20
436.223789550775
 42
0.0709414746593049
 10
126.5856653972714
 20
426.4406853328411
 42
0.0
 97
       20
330
CC4
330
CBD
330
CC5
330
CCA
330
CC8
330
CC7
330
CCC
330
CC1
330
CC3
330
CB2
330
CB6
330
CB7
330
CB5
330
CB3
330
CC2
330
CC0
330
CCB
330
CCD
330
CC6
330
CC9
 75
     0
 76
     0
 52
45.0
 41
2.0
 77
     0
 78
     1
 53
45.0
 43
-27.44420599785553
 44
-260.7969075940835
 45
-1.414213562373094
 46
1.414213562373095
 79
     0
 47
0.6407199638404306
 98
        2
 10
305.9942567815265
 20
417.949391317121
 10
127.7584072908257
 20
418.5901106503112
  0
LINE
  5
CB2
102
{ACAD_REACTORS
330
CB1
102
}
330
1E
100
AcDbEntity
  8
STEMPEL
  6
Continuous
100
AcDbLine
 10
137.5856653972715
 20
354.6960416361707
 30
0.0
 11
137.5856653972715
 21
179.2237895507753
 31
0.0
  0
LINE
  5
CB3
102
{ACAD_REACTORS
330
CB1
102
}
330
1E
100
AcDbEntity
  8
STEMPEL
  6
Continuous
100
AcDbLine
 10
140.0856653972715
 20
354.6960416361707
 30
0.0
 11
140.0856653972715
 21
179.3329419080465
 31
0.0
  0
LINE
  5
CB4
330
1E
100
AcDbEntity
  8
STEMPEL
100
AcDbLine
 10
52.08566539727144
 20
442.2237895507754
 30
0.0
 11
52.08566539727144
 21
436.223789550775
 31
0.0
  0
LINE
  5
CB5
102
{ACAD_REACTORS
330
CB1
102
}
330
1E
100
AcDbEntity
  8
STEMPEL
100
AcDbLine
 10
140.0856653972715
 20
179.332941908046
 30
0.0
 11
141.5825222710706
 21
162.223789550775
 31
0.0
  0
LINE
  5
CB6
102
{ACAD_REACTORS
330
CB1
102
}
330
1E
100
AcDbEntity
  8
STEMPEL
100
AcDbLine
 10
137.5856653972715
 20
179.2237895507755
 30
0.0
 11
139.0729726772123
 21
162.223789550775
 31
0.0
  0
LINE
  5
CB7
102
{ACAD_REACTORS
330
CB1
102
}
330
1E
100
AcDbEntity
  8
STEMPEL
100
AcDbLine
 10
139.0729726772123
 20
162.223789550775
 30
0.0
 11
295.0983581173309
 21
162.223789550775
 31
0.0
  0
LINE
  5
CB8
330
1E
100
AcDbEntity
  8
HILF
100
AcDbLine
 10
143.0856653972714
 20
179.223789550775
 30
0.0
 11
291.0856653972714
 21
179.223789550775
 31
0.0
  0
LINE
  5
CB9
102
{ACAD_REACTORS
330
CB1
102
}
330
1E
100
AcDbEntity
  8
STEMPEL
  6
Continuous
100
AcDbLine
 10
294.0856653972714
 20
354.6960416361707
 30
0.0
 11
294.0856653972714
 21
179.3329419080463
 31
0.0
  0
LINE
  5
CBA
102
{ACAD_REACTORS
330
CB1
102
}
330
1E
100
AcDbEntity
  8
STEMPEL
  6
Continuous
100
AcDbLine
 10
296.5856653972714
 20
354.6960416361707
 30
0.0
 11
296.5856653972714
 21
179.2237895507758
 31
0.0
  0
LINE
  5
CBB
102
{ACAD_REACTORS
330
CB1
102
}
330
1E
100
AcDbEntity
  8
STEMPEL
100
AcDbLine
 10
296.5856653972714
 20
179.2237895507755
 30
0.0
 11
295.0983581173309
 21
162.223789550775
 31
0.0
  0
LINE
  5
CBC
102
{ACAD_REACTORS
330
CB1
102
}
330
1E
100
AcDbEntity
  8
STEMPEL
100
AcDbLine
 10
294.0856653972714
 20
179.332941908046
 30
0.0
 11
292.5888085234724
 21
162.223789550775
 31
0.0
  0
LINE
  5
CBD
102
{ACAD_REACTORS
330
CB1
330
CAE
102
}
330
1E
100
AcDbEntity
  8
STEMPEL
  6
Continuous
100
AcDbLine
 10
382.0856653972715
 20
436.223789550775
 30
0.0
 11
302.5856653972714
 21
436.223789550775
 31
0.0
  0
LINE
  5
CBE
330
1E
100
AcDbEntity
  8
STEMPEL
100
AcDbLine
 10
382.0856653972714
 20
442.223789550775
 30
0.0
 11
382.0856653972715
 21
436.223789550775
 31
0.0
  0
LINE
  5
CBF
330
1E
100
AcDbEntity
  8
HILF
  6
Continuous
100
AcDbLine
 10
142.1131946828334
 20
358.4311310403407
 30
0.0
 11
292.0581361117097
 21
358.4311310403407
 31
0.0
  0
ARC
  5
CC0
102
{ACAD_REACTORS
330
CB1
102
}
330
1E
100
AcDbEntity
  8
STEMPEL
  6
Continuous
100
AcDbCircle
 10
150.5856653972714
 20
370.664761058842
 30
0.0
 40
15.5
100
AcDbArc
 50
180.0
 51
214.7719440319481
  0
ARC
  5
CC1
102
{ACAD_REACTORS
330
CB1
102
}
330
1E
100
AcDbEntity
  8
STEMPEL
  6
Continuous
100
AcDbCircle
 10
150.5856653972714
 20
370.664761058842
 30
0.0
 40
18.0
100
AcDbArc
 50
180.0
 51
214.7719440319481
  0
ARC
  5
CC2
102
{ACAD_REACTORS
330
CB1
102
}
330
1E
100
AcDbEntity
  8
STEMPEL
  6
Continuous
100
AcDbCircle
 10
127.5856653972714
 20
354.6960416361707
 30
0.0
 40
12.5
100
AcDbArc
 50
0.0
 51
34.7719440319481
  0
ARC
  5
CC3
102
{ACAD_REACTORS
330
CB1
102
}
330
1E
100
AcDbEntity
  8
STEMPEL
  6
Continuous
100
AcDbCircle
 10
127.5856653972714
 20
354.6960416361707
 30
0.0
 40
10.0
100
AcDbArc
 50
0.0
 51
34.7719440319481
  0
ARC
  5
CC4
102
{ACAD_REACTORS
330
CB1
102
}
330
1E
100
AcDbEntity
  8
STEMPEL
  6
Continuous
100
AcDbCircle
 10
161.5856653972714
 20
426.4406853328411
 30
0.0
 40
32.5
100
AcDbArc
 50
162.481207654954
 51
180.0
  0
ARC
  5
CC5
102
{ACAD_REACTORS
330
CB1
330
CAE
102
}
330
1E
100
AcDbEntity
  8
STEMPEL
  6
Continuous
100
AcDbCircle
 10
161.5856653972714
 20
426.4406853328411
 30
0.0
 40
35.0
100
AcDbArc
 50
163.7686044007751
 51
180.0
  0
ARC
  5
CC6
102
{ACAD_REACTORS
330
CB1
102
}
330
1E
100
AcDbEntity
  8
STEMPEL
  6
Continuous
100
AcDbCircle
 10
161.5856653972714
 20
410.2187895507749
 30
0.0
 40
32.50004740563918
100
AcDbArc
 50
179.9056985509114
 51
207.5271836205541
  0
ARC
  5
CC7
102
{ACAD_REACTORS
330
CB1
102
}
330
1E
100
AcDbEntity
  8
STEMPEL
  6
Continuous
100
AcDbCircle
 10
114.5856653972714
 20
385.7237895507749
 30
0.0
 40
18.0
100
AcDbArc
 50
0.0
 51
27.52718362055411
  0
ARC
  5
CC8
102
{ACAD_REACTORS
330
CB1
102
}
330
1E
100
AcDbEntity
  8
STEMPEL
  6
Continuous
100
AcDbCircle
 10
161.5856653972714
 20
410.2187895507749
 30
0.0
 40
35.00004740563918
100
AcDbArc
 50
179.9056985509114
 51
207.5271836205541
  0
LINE
  5
CC9
102
{ACAD_REACTORS
330
CB1
102
}
330
1E
100
AcDbEntity
  8
STEMPEL
  6
Continuous
100
AcDbLine
 10
129.0856653972714
 20
426.4406853328411
 30
0.0
 11
129.0856653972714
 21
410.2763950799521
 31
0.0
  0
LINE
  5
CCA
102
{ACAD_REACTORS
330
CB1
102
}
330
1E
100
AcDbEntity
  8
STEMPEL
  6
Continuous
100
AcDbLine
 10
126.5856653972714
 20
426.4406853328411
 30
0.0
 11
126.5856653972714
 21
410.2763950799521
 31
0.0
  0
LINE
  5
CCB
102
{ACAD_REACTORS
330
CB1
102
}
330
1E
100
AcDbEntity
  8
STEMPEL
  6
Continuous
100
AcDbLine
 10
135.0856653972714
 20
385.7237895507749
 30
0.0
 11
135.0856653972714
 21
370.664761058842
 31
0.0
  0
LINE
  5
CCC
102
{ACAD_REACTORS
330
CB1
102
}
330
1E
100
AcDbEntity
  8
STEMPEL
  6
Continuous
100
AcDbLine
 10
132.5856653972714
 20
385.7237895507749
 30
0.0
 11
132.5856653972714
 21
370.664761058842
 31
0.0
  0
ARC
  5
CCD
102
{ACAD_REACTORS
330
CB1
102
}
330
1E
100
AcDbEntity
  8
STEMPEL
  6
Continuous
100
AcDbCircle
 10
114.5856653972714
 20
385.7237895507749
 30
0.0
 40
20.5
100
AcDbArc
 50
0.0
 51
27.52718362055411
  0
ARC
  5
CCE
102
{ACAD_REACTORS
330
CB1
102
}
330
1E
100
AcDbEntity
  8
STEMPEL
  6
Continuous
100
AcDbCircle
 10
283.5856653972714
 20
370.664761058842
 30
0.0
 40
15.5
100
AcDbArc
 50
325.2280559680519
 51
0.0
  0
ARC
  5
CCF
102
{ACAD_REACTORS
330
CB1
102
}
330
1E
100
AcDbEntity
  8
STEMPEL
  6
Continuous
100
AcDbCircle
 10
283.5856653972714
 20
370.664761058842
 30
0.0
 40
18.0
100
AcDbArc
 50
325.2280559680519
 51
0.0
  0
ARC
  5
CD0
102
{ACAD_REACTORS
330
CB1
102
}
330
1E
100
AcDbEntity
  8
STEMPEL
  6
Continuous
100
AcDbCircle
 10
306.5856653972714
 20
354.6960416361707
 30
0.0
 40
12.5
100
AcDbArc
 50
145.2280559680519
 51
180.0
  0
ARC
  5
CD1
102
{ACAD_REACTORS
330
CB1
102
}
330
1E
100
AcDbEntity
  8
STEMPEL
  6
Continuous
100
AcDbCircle
 10
306.5856653972714
 20
354.6960416361707
 30
0.0
 40
10.0
100
AcDbArc
 50
145.2280559680519
 51
180.0
  0
ARC
  5
CD2
102
{ACAD_REACTORS
330
CB1
102
}
330
1E
100
AcDbEntity
  8
STEMPEL
  6
Continuous
100
AcDbCircle
 10
272.5856653972714
 20
426.4406853328411
 30
0.0
 40
32.5
100
AcDbArc
 50
0.0
 51
17.51879234504597
  0
ARC
  5
CD3
102
{ACAD_REACTORS
330
CB1
330
CAE
102
}
330
1E
100
AcDbEntity
  8
STEMPEL
  6
Continuous
100
AcDbCircle
 10
272.5856653972714
 20
426.4406853328411
 30
0.0
 40
35.0
100
AcDbArc
 50
0.0
 51
16.23139559922487
  0
ARC
  5
CD4
102
{ACAD_REACTORS
330
CB1
102
}
330
1E
100
AcDbEntity
  8
STEMPEL
  6
Continuous
100
AcDbCircle
 10
272.5856653972714
 20
410.2187895507749
 30
0.0
 40
32.50004740563918
100
AcDbArc
 50
332.4728163794459
 51
0.0943014490885655
  0
ARC
  5
CD5
102
{ACAD_REACTORS
330
CB1
102
}
330
1E
100
AcDbEntity
  8
STEMPEL
  6
Continuous
100
AcDbCircle
 10
272.5856653972714
 20
410.2187895507749
 30
0.0
 40
35.00004740563918
100
AcDbArc
 50
332.4728163794459
 51
0.0943014490885655
  0
ARC
  5
CD6
102
{ACAD_REACTORS
330
CB1
102
}
330
1E
100
AcDbEntity
  8
STEMPEL
  6
Continuous
100
AcDbCircle
 10
319.5856653972715
 20
385.7237895507749
 30
0.0
 40
20.5
100
AcDbArc
 50
152.4728163794459
 51
180.0
  0
LINE
  5
CD7
102
{ACAD_REACTORS
330
CB1
102
}
330
1E
100
AcDbEntity
  8
STEMPEL
  6
Continuous
100
AcDbLine
 10
299.0856653972715
 20
385.7237895507749
 30
0.0
 11
299.0856653972715
 21
370.664761058842
 31
0.0
  0
LINE
  5
CD8
102
{ACAD_REACTORS
330
CB1
102
}
330
1E
100
AcDbEntity
  8
STEMPEL
  6
Continuous
100
AcDbLine
 10
301.5856653972714
 20
385.7237895507749
 30
0.0
 11
301.5856653972714
 21
370.664761058842
 31
0.0
  0
ARC
  5
CD9
102
{ACAD_REACTORS
330
CB1
102
}
330
1E
100
AcDbEntity
  8
STEMPEL
  6
Continuous
100
AcDbCircle
 10
319.5856653972715
 20
385.7237895507749
 30
0.0
 40
18.0
100
AcDbArc
 50
152.4728163794459
 51
180.0
  0
LINE
  5
CDA
102
{ACAD_REACTORS
330
CB1
102
}
330
1E
100
AcDbEntity
  8
STEMPEL
  6
Continuous
100
AcDbLine
 10
305.0856653972715
 20
426.4406853328411
 30
0.0
 11
305.0856653972715
 21
410.2763950799521
 31
0.0
  0
LINE
  5
CDB
102
{ACAD_REACTORS
330
CB1
102
}
330
1E
100
AcDbEntity
  8
STEMPEL
  6
Continuous
100
AcDbLine
 10
307.5856653972715
 20
426.4406853328411
 30
0.0
 11
307.5856653972715
 21
410.2763950799521
 31
0.0
  0
LINE
  5
CDC
330
1E
100
AcDbEntity
  8
STEMPEL
100
AcDbLine
 10
131.5856653972715
 20
442.223789550775
 30
0.0
 11
131.5856653972715
 21
436.223789550775
 31
0.0
  0
LINE
  5
CDD
330
1E
100
AcDbEntity
  8
STEMPEL
100
AcDbLine
 10
302.5856653972714
 20
442.2237895507751
 30
0.0
 11
302.5856653972714
 21
436.223789550775
 31
0.0
  0
DIMENSION
  5
CDE
330
1E
100
AcDbEntity
  8
BEM
100
AcDbDimension
  2
*D3
 10
137.5856653972715
 20
140.6448678895567
 30
0.0
 11
217.0856653972715
 21
147.1448678895566
 31
0.0
 70
    32
  1
%%c<>
 71
     5
 42
158.9999999999999
  3
Standard
100
AcDbAlignedDimension
 13
296.5856653972714
 23
179.2237895507758
 33
0.0
 14
137.5856653972715
 24
179.2237895507753
 34
0.0
100
AcDbRotatedDimension
1001
ACAD
1000
DSTYLE
1002
{
1070
    40
1040
2.0
1070
    41
1040
3.5
1070
    42
1040
1.0
1070
    43
1040
7.0
1070
    44
1040
1.0
1070
    73
1070
     0
1070
    74
1070
     0
1070
    77
1070
     1
1070
    78
1070
     8
1070
    79
1070
     2
1070
   140
1040
3.5
1070
   141
1040
1.5
1070
   146
1040
0.5142857142857144
1070
   147
1040
1.5
1070
   172
1070
     1
1070
   178
1070
     1
1070
   179
1070
     2
1070
   271
1070
     2
1070
   272
1070
     2
1070
   284
1070
     8
1070
   285
1070
     8
1070
   286
1070
     8
1002
}
  0
LINE
  5
CDF
330
1E
100
AcDbEntity
  8
HILF
  6
Continuous
100
AcDbLine
 10
138.4386860549466
 20
366.033250197672
 30
0.0
 11
295.7326447395962
 21
366.033250197672
 31
0.0
  0
LINE
  5
CE0
330
1E
100
AcDbEntity
  8
HILF
  6
Continuous
100
AcDbLine
 10
137.0490392516892
 20
390.6631047944761
 30
0.0
 11
297.1222915428537
 21
390.6631047944761
 31
0.0
  0
LINE
  5
D6E
330
1E
100
AcDbEntity
  8
STEMPEL
100
AcDbLine
 10
94.08566539727136
 20
436.2237895507742
 30
0.0
 11
131.5856653972715
 21
436.2237895507744
 31
0.0
  0
TEXT
  5
E0F
330
1E
100
AcDbEntity
  8
TEXT
100
AcDbText
 10
235.1296391125316
 20
71.64011943042158
 30
0.0
 40
5.0
  1

 41
0.8
  7
GREEKS
100
AcDbText
  0
LINE
  5
E7D
330
1E
100
AcDbEntity
  8
STEMPEL
100
AcDbLine
 10
349.0856653972715
 20
447.7237895507754
 30
0.0
 11
374.0856653972713
 21
447.7237895507755
 31
0.0
  0
HATCH
  5
EA2
330
1E
100
AcDbEntity
  8
SCHRAFF
100
AcDbHatch
 10
0.0
 20
0.0
 30
0.0
210
0.0
220
0.0
230
1.0
  2
NET
 70
     0
 71
     1
 91
        4
 92
        7
 72
     0
 73
     1
 93
        4
 10
351.0856653972715
 20
445.2237895507756
 10
351.0856653972715
 20
442.2237895507749
 10
382.0856653972713
 20
442.2237895507748
 10
382.0856653972713
 20
445.2237895507756
 97
        4
330
BD8
330
AEA
330
BE6
330
BBA
 92
        7
 72
     0
 73
     1
 93
        4
 10
312.0856653972713
 20
445.2237895507757
 10
312.0856653972713
 20
442.223789550775
 10
337.0856653972715
 20
442.2237895507749
 10
337.0856653972715
 20
445.2237895507757
 97
        4
330
ADF
330
BB3
330
AEA
330
BCC
 92
        7
 72
     0
 73
     1
 93
        4
 10
97.0856653972714
 20
445.2237895507757
 10
97.08566539727142
 20
442.2237895507755
 10
122.0856653972714
 20
442.2237895507755
 10
122.0856653972713
 20
445.2237895507757
 97
        4
330
ADF
330
B37
330
AEA
330
B46
 92
        7
 72
     0
 73
     1
 93
        4
 10
52.08566539727133
 20
445.2237895507757
 10
52.08566539727133
 20
442.2237895507756
 10
83.08566539727138
 20
442.2237895507755
 10
83.08566539727138
 20
445.2237895507757
 97
        4
330
B15
330
B1D
330
AEA
330
B32
 75
     0
 76
     1
 52
45.0
 41
15.0
 77
     0
 78
     2
 53
45.0
 43
0.0
 44
0.0
 45
-1.325825214724776
 46
1.325825214724776
 79
     0
 53
135.0
 43
0.0
 44
0.0
 45
-1.325825214724776
 46
-1.325825214724776
 79
     0
 47
0.3587485544388043
 98
        4
 10
357.3877054741008
 20
444.0004739177659
 10
332.6256554879653
 20
444.0004739177659
 10
112.9970445727715
 20
444.359223132279
 10
78.18662606906809
 20
444.0004739177659
  0
ARC
  5
EC1
330
1E
100
AcDbEntity
  8
STEMPEL
100
AcDbCircle
 10
90.08566539727139
 20
433.4129004183209
 30
0.0
 40
30.31088913245485
100
AcDbArc
 50
81.78678929826139
 51
98.2132107017378
  0
ARC
  5
EC2
330
1E
100
AcDbEntity
  8
STEMPEL
100
AcDbCircle
 10
83.5904748688881
 20
456.0294838429912
 30
0.0
 40
7.694305707784447
100
AcDbArc
 50
73.65710669401501
 51
106.342893305985
  0
ARC
  5
EC3
330
1E
100
AcDbEntity
  8
STEMPEL
100
AcDbCircle
 10
96.58085592565468
 20
456.0294838429912
 30
0.0
 40
7.694305707784447
100
AcDbArc
 50
73.65710669401501
 51
106.342893305985
  0
ARC
  5
EC4
330
1E
100
AcDbEntity
  8
HILF
100
AcDbCircle
 10
90.08566539727139
 20
433.8253285031145
 30
0.0
 40
22.41111549782308
100
AcDbArc
 50
78.85962783890537
 51
101.1403721610946
  0
ARC
  5
EC5
330
1E
100
AcDbEntity
  8
HILF
100
AcDbCircle
 10
96.58085592565468
 20
450.4753034012461
 30
0.0
 40
5.761140599691502
100
AcDbArc
 50
67.92594526326206
 51
112.0740547367379
  0
ARC
  5
EC6
330
1E
100
AcDbEntity
  8
HILF
100
AcDbCircle
 10
83.5904748688881
 20
450.4753034012461
 30
0.0
 40
5.761140599691502
100
AcDbArc
 50
67.92594526326206
 51
112.0740547367379
  0
POINT
  5
EC7
330
1E
100
AcDbEntity
  8
0
100
AcDbPoint
 10
90.08566539727139
 20
453.7237895507757
 30
0.0
210
0.0000000000000001
220
1.0
230
0.0
  0
LINE
  5
EC8
330
1E
100
AcDbEntity
  8
STEMPEL
100
AcDbLine
 10
82.58566539727141
 20
463.7237895507757
 30
0.0
 11
97.58566539727137
 21
463.7237895507757
 31
0.0
  0
LINE
  5
EC9
330
1E
100
AcDbEntity
  8
STEMPEL
100
AcDbLine
 10
98.74591943511576
 20
455.8141460669755
 30
0.0
 11
98.74591943511576
 21
463.4129004183203
 31
0.0
  0
LINE
  5
ECA
330
1E
100
AcDbEntity
  8
STEMPEL
100
AcDbLine
 10
94.41579241619358
 20
455.8141460669755
 30
0.0
 11
94.41579241619358
 21
463.4129004183203
 31
0.0
  0
LINE
  5
ECB
330
1E
100
AcDbEntity
  8
STEMPEL
100
AcDbLine
 10
85.75553837834918
 20
455.8141460669755
 30
0.0
 11
85.75553837834918
 21
463.4129004183203
 31
0.0
  0
LINE
  5
ECC
330
1E
100
AcDbEntity
  8
STEMPEL
100
AcDbLine
 10
100.4921805047656
 20
455.1785590163651
 30
0.0
 11
79.67915028977713
 21
455.1785590163651
 31
0.0
  0
LINE
  5
ECD
330
1E
100
AcDbEntity
  8
STEMPEL
100
AcDbLine
 10
100.2356653972714
 20
453.7237895507757
 30
0.0
 11
79.93566539727138
 21
453.7237895507757
 31
0.0
  0
LINE
  5
ECE
330
1E
100
AcDbEntity
  8
STEMPEL
100
AcDbLine
 10
81.425411359427
 20
455.8141460669755
 30
0.0
 11
81.425411359427
 21
463.4129004183203
 31
0.0
  0
LINE
  5
ECF
330
1E
100
AcDbEntity
  8
STEMPEL
100
AcDbLine
 10
82.58566539727141
 20
463.7237895507757
 30
0.0
 11
81.425411359427
 21
463.4129004183203
 31
0.0
  0
LINE
  5
ED0
330
1E
100
AcDbEntity
  8
STEMPEL
100
AcDbLine
 10
98.74591943511576
 20
463.4129004183203
 30
0.0
 11
97.58566539727137
 21
463.7237895507757
 31
0.0
  0
LINE
  5
ED1
330
1E
100
AcDbEntity
  8
STEMPEL
100
AcDbLine
 10
100.4921805047656
 20
455.1785590163651
 30
0.0
 11
98.74591943511576
 21
455.8141460669755
 31
0.0
  0
LINE
  5
ED2
330
1E
100
AcDbEntity
  8
STEMPEL
100
AcDbLine
 10
81.425411359427
 20
455.8141460669755
 30
0.0
 11
79.67915028977714
 21
455.1785590163651
 31
0.0
  0
ARC
  5
ED3
330
1E
100
AcDbEntity
  8
STEMPEL
100
AcDbCircle
 10
79.93566539727138
 20
454.4737895507757
 30
0.0
 40
0.7500000000000013
100
AcDbArc
 50
109.9999999999995
 51
269.9999991462263
  0
ARC
  5
ED4
330
1E
100
AcDbEntity
  8
STEMPEL
100
AcDbCircle
 10
100.2356653972714
 20
454.4737895507757
 30
0.0
 40
0.750000000000001
100
AcDbArc
 50
269.9999991462263
 51
70.00000000000047
  0
ARC
  5
EEE
330
1E
100
AcDbEntity
  8
STEMPEL
100
AcDbCircle
 10
153.5856653972713
 20
433.4129004183209
 30
0.0
 40
30.31088913245485
100
AcDbArc
 50
81.78678929826221
 51
98.2132107017378
  0
ARC
  5
EEF
330
1E
100
AcDbEntity
  8
STEMPEL
100
AcDbCircle
 10
147.0904748688879
 20
456.0294838429913
 30
0.0
 40
7.694305707784447
100
AcDbArc
 50
73.65710669401501
 51
106.342893305985
  0
ARC
  5
EF0
330
1E
100
AcDbEntity
  8
STEMPEL
100
AcDbCircle
 10
160.0808559256545
 20
456.0294838429913
 30
0.0
 40
7.694305707784447
100
AcDbArc
 50
73.65710669401501
 51
106.342893305985
  0
ARC
  5
EF1
330
1E
100
AcDbEntity
  8
HILF
100
AcDbCircle
 10
153.5856653972713
 20
433.8253285031145
 30
0.0
 40
22.41111549782308
100
AcDbArc
 50
78.85962783890615
 51
101.1403721610938
  0
ARC
  5
EF2
330
1E
100
AcDbEntity
  8
HILF
100
AcDbCircle
 10
160.0808559256545
 20
450.4753034012461
 30
0.0
 40
5.761140599691502
100
AcDbArc
 50
67.92594526326206
 51
112.0740547367379
  0
ARC
  5
EF3
330
1E
100
AcDbEntity
  8
HILF
100
AcDbCircle
 10
147.0904748688879
 20
450.4753034012461
 30
0.0
 40
5.761140599691502
100
AcDbArc
 50
67.92594526326206
 51
112.0740547367379
  0
POINT
  5
EF4
330
1E
100
AcDbEntity
  8
0
100
AcDbPoint
 10
153.5856653972713
 20
453.7237895507757
 30
0.0
210
0.0000000000000001
220
1.0
230
0.0
  0
LINE
  5
EF5
330
1E
100
AcDbEntity
  8
STEMPEL
100
AcDbLine
 10
146.0856653972713
 20
463.7237895507758
 30
0.0
 11
161.0856653972712
 21
463.7237895507758
 31
0.0
  0
LINE
  5
EF6
330
1E
100
AcDbEntity
  8
STEMPEL
100
AcDbLine
 10
162.2459194351156
 20
455.8141460669756
 30
0.0
 11
162.2459194351156
 21
463.4129004183204
 31
0.0
  0
LINE
  5
EF7
330
1E
100
AcDbEntity
  8
STEMPEL
100
AcDbLine
 10
157.9157924161934
 20
455.8141460669756
 30
0.0
 11
157.9157924161934
 21
463.4129004183204
 31
0.0
  0
LINE
  5
EF8
330
1E
100
AcDbEntity
  8
STEMPEL
100
AcDbLine
 10
149.2555383783491
 20
455.8141460669756
 30
0.0
 11
149.2555383783491
 21
463.4129004183204
 31
0.0
  0
LINE
  5
EF9
330
1E
100
AcDbEntity
  8
STEMPEL
100
AcDbLine
 10
163.9921805047655
 20
455.1785590163652
 30
0.0
 11
143.179150289777
 21
455.1785590163652
 31
0.0
  0
LINE
  5
EFA
330
1E
100
AcDbEntity
  8
STEMPEL
100
AcDbLine
 10
163.7356653972713
 20
453.7237895507757
 30
0.0
 11
143.4356653972712
 21
453.7237895507757
 31
0.0
  0
LINE
  5
EFB
330
1E
100
AcDbEntity
  8
STEMPEL
100
AcDbLine
 10
144.9254113594268
 20
455.8141460669756
 30
0.0
 11
144.9254113594268
 21
463.4129004183204
 31
0.0
  0
LINE
  5
EFC
330
1E
100
AcDbEntity
  8
STEMPEL
100
AcDbLine
 10
146.0856653972713
 20
463.7237895507758
 30
0.0
 11
144.9254113594268
 21
463.4129004183204
 31
0.0
  0
LINE
  5
EFD
330
1E
100
AcDbEntity
  8
STEMPEL
100
AcDbLine
 10
162.2459194351156
 20
463.4129004183204
 30
0.0
 11
161.0856653972712
 21
463.7237895507758
 31
0.0
  0
LINE
  5
EFE
330
1E
100
AcDbEntity
  8
STEMPEL
100
AcDbLine
 10
163.9921805047655
 20
455.1785590163652
 30
0.0
 11
162.2459194351156
 21
455.8141460669756
 31
0.0
  0
LINE
  5
EFF
330
1E
100
AcDbEntity
  8
STEMPEL
100
AcDbLine
 10
144.9254113594269
 20
455.8141460669756
 30
0.0
 11
143.179150289777
 21
455.1785590163652
 31
0.0
  0
ARC
  5
F00
330
1E
100
AcDbEntity
  8
STEMPEL
100
AcDbCircle
 10
143.4356653972712
 20
454.4737895507758
 30
0.0
 40
0.7500000000000013
100
AcDbArc
 50
109.9999999999995
 51
269.9999991462263
  0
ARC
  5
F01
330
1E
100
AcDbEntity
  8
STEMPEL
100
AcDbCircle
 10
163.7356653972713
 20
454.4737895507758
 30
0.0
 40
0.750000000000001
100
AcDbArc
 50
269.9999991462263
 51
70.00000000000047
  0
ARC
  5
F1B
330
1E
100
AcDbEntity
  8
STEMPEL
100
AcDbCircle
 10
280.5856653972716
 20
433.4129004183211
 30
0.0
 40
30.31088913245485
100
AcDbArc
 50
81.78678929826059
 51
98.2132107017394
  0
ARC
  5
F1C
330
1E
100
AcDbEntity
  8
STEMPEL
100
AcDbCircle
 10
274.0904748688883
 20
456.0294838429915
 30
0.0
 40
7.694305707784447
100
AcDbArc
 50
73.65710669401345
 51
106.3428933059834
  0
ARC
  5
F1D
330
1E
100
AcDbEntity
  8
STEMPEL
100
AcDbCircle
 10
287.0808559256549
 20
456.0294838429915
 30
0.0
 40
7.694305707784447
100
AcDbArc
 50
73.65710669401345
 51
106.3428933059834
  0
ARC
  5
F1E
330
1E
100
AcDbEntity
  8
HILF
100
AcDbCircle
 10
280.5856653972716
 20
433.8253285031147
 30
0.0
 40
22.41111549782308
100
AcDbArc
 50
78.85962783890455
 51
101.1403721610954
  0
ARC
  5
F1F
330
1E
100
AcDbEntity
  8
HILF
100
AcDbCircle
 10
287.0808559256549
 20
450.4753034012463
 30
0.0
 40
5.761140599691502
100
AcDbArc
 50
67.92594526326054
 51
112.0740547367394
  0
ARC
  5
F20
330
1E
100
AcDbEntity
  8
HILF
100
AcDbCircle
 10
274.0904748688883
 20
450.4753034012463
 30
0.0
 40
5.761140599691502
100
AcDbArc
 50
67.92594526326054
 51
112.0740547367394
  0
POINT
  5
F21
330
1E
100
AcDbEntity
  8
0
100
AcDbPoint
 10
280.5856653972716
 20
453.7237895507759
 30
0.0
210
0.0000000000000001
220
1.0
230
0.0
  0
LINE
  5
F22
330
1E
100
AcDbEntity
  8
STEMPEL
100
AcDbLine
 10
273.0856653972716
 20
463.7237895507759
 30
0.0
 11
288.0856653972716
 21
463.7237895507759
 31
0.0
  0
LINE
  5
F23
330
1E
100
AcDbEntity
  8
STEMPEL
100
AcDbLine
 10
289.245919435116
 20
455.8141460669758
 30
0.0
 11
289.245919435116
 21
463.4129004183206
 31
0.0
  0
LINE
  5
F24
330
1E
100
AcDbEntity
  8
STEMPEL
100
AcDbLine
 10
284.9157924161938
 20
455.8141460669758
 30
0.0
 11
284.9157924161938
 21
463.4129004183206
 31
0.0
  0
LINE
  5
F25
330
1E
100
AcDbEntity
  8
STEMPEL
100
AcDbLine
 10
276.2555383783494
 20
455.8141460669758
 30
0.0
 11
276.2555383783494
 21
463.4129004183206
 31
0.0
  0
LINE
  5
F26
330
1E
100
AcDbEntity
  8
STEMPEL
100
AcDbLine
 10
290.9921805047659
 20
455.1785590163653
 30
0.0
 11
270.1791502897773
 21
455.1785590163653
 31
0.0
  0
LINE
  5
F27
330
1E
100
AcDbEntity
  8
STEMPEL
100
AcDbLine
 10
290.7356653972716
 20
453.7237895507759
 30
0.0
 11
270.4356653972716
 21
453.7237895507759
 31
0.0
  0
LINE
  5
F28
330
1E
100
AcDbEntity
  8
STEMPEL
100
AcDbLine
 10
271.9254113594272
 20
455.8141460669758
 30
0.0
 11
271.9254113594272
 21
463.4129004183206
 31
0.0
  0
LINE
  5
F29
330
1E
100
AcDbEntity
  8
STEMPEL
100
AcDbLine
 10
273.0856653972716
 20
463.7237895507759
 30
0.0
 11
271.9254113594272
 21
463.4129004183206
 31
0.0
  0
LINE
  5
F2A
330
1E
100
AcDbEntity
  8
STEMPEL
100
AcDbLine
 10
289.245919435116
 20
463.4129004183206
 30
0.0
 11
288.0856653972716
 21
463.7237895507759
 31
0.0
  0
LINE
  5
F2B
330
1E
100
AcDbEntity
  8
STEMPEL
100
AcDbLine
 10
290.9921805047659
 20
455.1785590163653
 30
0.0
 11
289.245919435116
 21
455.8141460669758
 31
0.0
  0
LINE
  5
F2C
330
1E
100
AcDbEntity
  8
STEMPEL
100
AcDbLine
 10
271.9254113594272
 20
455.8141460669758
 30
0.0
 11
270.1791502897773
 21
455.1785590163653
 31
0.0
  0
ARC
  5
F2D
330
1E
100
AcDbEntity
  8
STEMPEL
100
AcDbCircle
 10
270.4356653972716
 20
454.4737895507759
 30
0.0
 40
0.7500000000000013
100
AcDbArc
 50
109.9999999999995
 51
269.9999991462263
  0
ARC
  5
F2E
330
1E
100
AcDbEntity
  8
STEMPEL
100
AcDbCircle
 10
290.7356653972716
 20
454.4737895507759
 30
0.0
 40
0.750000000000001
100
AcDbArc
 50
269.9999991462263
 51
70.00000000000047
  0
ARC
  5
F48
330
1E
100
AcDbEntity
  8
STEMPEL
100
AcDbCircle
 10
344.0856653972715
 20
433.4129004183211
 30
0.0
 40
30.31088913245485
100
AcDbArc
 50
81.78678929826059
 51
98.2132107017394
  0
ARC
  5
F49
330
1E
100
AcDbEntity
  8
STEMPEL
100
AcDbCircle
 10
337.5904748688882
 20
456.0294838429915
 30
0.0
 40
7.694305707784447
100
AcDbArc
 50
73.65710669401345
 51
106.3428933059834
  0
ARC
  5
F4A
330
1E
100
AcDbEntity
  8
STEMPEL
100
AcDbCircle
 10
350.5808559256548
 20
456.0294838429915
 30
0.0
 40
7.694305707784447
100
AcDbArc
 50
73.65710669401345
 51
106.3428933059834
  0
ARC
  5
F4B
330
1E
100
AcDbEntity
  8
HILF
100
AcDbCircle
 10
344.0856653972715
 20
433.8253285031147
 30
0.0
 40
22.41111549782308
100
AcDbArc
 50
78.85962783890455
 51
101.1403721610954
  0
ARC
  5
F4C
330
1E
100
AcDbEntity
  8
HILF
100
AcDbCircle
 10
350.5808559256548
 20
450.4753034012463
 30
0.0
 40
5.761140599691502
100
AcDbArc
 50
67.92594526326054
 51
112.0740547367394
  0
ARC
  5
F4D
330
1E
100
AcDbEntity
  8
HILF
100
AcDbCircle
 10
337.5904748688882
 20
450.4753034012463
 30
0.0
 40
5.761140599691502
100
AcDbArc
 50
67.92594526326054
 51
112.0740547367394
  0
POINT
  5
F4E
330
1E
100
AcDbEntity
  8
0
100
AcDbPoint
 10
344.0856653972715
 20
453.723789550776
 30
0.0
210
0.0000000000000001
220
1.0
230
0.0
  0
LINE
  5
F4F
330
1E
100
AcDbEntity
  8
STEMPEL
100
AcDbLine
 10
336.5856653972715
 20
463.723789550776
 30
0.0
 11
351.5856653972715
 21
463.723789550776
 31
0.0
  0
LINE
  5
F50
330
1E
100
AcDbEntity
  8
STEMPEL
100
AcDbLine
 10
352.7459194351159
 20
455.8141460669758
 30
0.0
 11
352.7459194351159
 21
463.4129004183206
 31
0.0
  0
LINE
  5
F51
330
1E
100
AcDbEntity
  8
STEMPEL
100
AcDbLine
 10
348.4157924161937
 20
455.8141460669758
 30
0.0
 11
348.4157924161937
 21
463.4129004183206
 31
0.0
  0
LINE
  5
F52
330
1E
100
AcDbEntity
  8
STEMPEL
100
AcDbLine
 10
339.7555383783493
 20
455.8141460669758
 30
0.0
 11
339.7555383783493
 21
463.4129004183206
 31
0.0
  0
LINE
  5
F53
330
1E
100
AcDbEntity
  8
STEMPEL
100
AcDbLine
 10
354.4921805047658
 20
455.1785590163654
 30
0.0
 11
333.6791502897772
 21
455.1785590163654
 31
0.0
  0
LINE
  5
F54
330
1E
100
AcDbEntity
  8
STEMPEL
100
AcDbLine
 10
354.2356653972715
 20
453.723789550776
 30
0.0
 11
333.9356653972715
 21
453.723789550776
 31
0.0
  0
LINE
  5
F55
330
1E
100
AcDbEntity
  8
STEMPEL
100
AcDbLine
 10
335.4254113594271
 20
455.8141460669758
 30
0.0
 11
335.4254113594271
 21
463.4129004183206
 31
0.0
  0
LINE
  5
F56
330
1E
100
AcDbEntity
  8
STEMPEL
100
AcDbLine
 10
336.5856653972715
 20
463.723789550776
 30
0.0
 11
335.4254113594271
 21
463.4129004183206
 31
0.0
  0
LINE
  5
F57
330
1E
100
AcDbEntity
  8
STEMPEL
100
AcDbLine
 10
352.7459194351159
 20
463.4129004183206
 30
0.0
 11
351.5856653972715
 21
463.723789550776
 31
0.0
  0
LINE
  5
F58
330
1E
100
AcDbEntity
  8
STEMPEL
100
AcDbLine
 10
354.4921805047658
 20
455.1785590163654
 30
0.0
 11
352.7459194351159
 21
455.8141460669758
 31
0.0
  0
LINE
  5
F59
330
1E
100
AcDbEntity
  8
STEMPEL
100
AcDbLine
 10
335.4254113594271
 20
455.8141460669758
 30
0.0
 11
333.6791502897772
 21
455.1785590163654
 31
0.0
  0
ARC
  5
F5A
330
1E
100
AcDbEntity
  8
STEMPEL
100
AcDbCircle
 10
333.9356653972715
 20
454.4737895507759
 30
0.0
 40
0.7500000000000013
100
AcDbArc
 50
109.9999999999995
 51
269.9999991462263
  0
ARC
  5
F5B
330
1E
100
AcDbEntity
  8
STEMPEL
100
AcDbCircle
 10
354.2356653972715
 20
454.4737895507759
 30
0.0
 40
0.750000000000001
100
AcDbArc
 50
269.9999991462263
 51
70.00000000000047
  0
LINE
  5
F8D
330
1E
100
AcDbEntity
  8
STEMPEL
100
AcDbLine
 10
301.5856653972713
 20
419.2237895507751
 30
0.0
 11
299.513868627547
 21
419.2237895507751
 31
0.0
  0
ARC
  5
F8E
330
1E
100
AcDbEntity
  8
STEMPEL
100
AcDbCircle
 10
288.5856653972714
 20
425.2237895507752
 30
0.0
 40
8.0
100
AcDbArc
 50
270.0
 51
0.0
  0
LINE
  5
F8F
330
1E
100
AcDbEntity
  8
STEMPEL
100
AcDbLine
 10
288.5856653972714
 20
417.2237895507753
 30
0.0
 11
288.5856653972714
 21
415.2237895507752
 31
0.0
  0
ARC
  5
F90
330
1E
100
AcDbEntity
  8
STEMPEL
100
AcDbCircle
 10
292.5856653972714
 20
423.2237895507752
 30
0.0
 40
8.0
100
AcDbArc
 50
270.0
 51
329.9999999999995
  0
LINE
  5
F91
330
1E
100
AcDbEntity
  8
STEMPEL
100
AcDbLine
 10
305.0856653972713
 20
416.0203786467342
 30
0.0
 11
296.0657331189604
 21
416.0203786467342
 31
0.0
  0
LINE
  5
F92
330
1E
100
AcDbEntity
  8
STEMPEL
100
AcDbLine
 10
302.6119768738687
 20
416.0203786467342
 30
0.0
 11
301.5856653972713
 21
419.2237895507753
 31
0.0
  0
LINE
  5
F93
330
1E
100
AcDbEntity
  8
STEMPEL
100
AcDbLine
 10
292.5856653972714
 20
415.2237895507752
 30
0.0
 11
141.5856653972713
 21
415.2237895507752
 31
0.0
  0
LINE
  5
F94
330
1E
100
AcDbEntity
  8
STEMPEL
100
AcDbLine
 10
288.5856653972714
 20
417.2237895507753
 30
0.0
 11
145.5856653972714
 21
417.2237895507753
 31
0.0
  0
HATCH
  5
F95
330
1E
100
AcDbEntity
  8
SCHRAFF
100
AcDbHatch
 10
0.0
 20
0.0
 30
0.0
210
0.0
220
0.0
230
1.0
  2
NET
 70
     0
 71
     0
 91
        2
 92
        7
 72
     1
 73
     1
 93
       20
 10
296.5856653972713
 20
425.2237895507752
 42
-0.4142135623730929
 10
288.5856653972714
 20
417.2237895507753
 42
0.0
 10
288.5856653972714
 20
415.2237895507752
 42
0.0
 10
292.5856653972714
 20
415.2237895507752
 42
0.267949192431123
 10
299.513868627547
 20
419.2237895507751
 42
0.0
 10
301.5856653972715
 20
419.2237895507751
 42
0.0
 10
302.6119768738687
 20
416.0203786467342
 42
0.0
 10
305.0856653972715
 20
416.0203786467341
 42
0.0
 10
305.0856653972715
 20
426.440685332841
 42
0.0765893830497975
 10
303.5782592200066
 20
436.223789550775
 42
0.0
 10
302.5856653972714
 20
436.223789550775
 42
0.0
 10
302.5856653972715
 20
442.223789550775
 42
0.0
 10
306.5856653972713
 20
442.2237895507749
 42
0.0
 10
306.5856653972713
 20
442.5539165696974
 42
0.1316524975873926
 10
306.2507289067324
 20
443.8039165696973
 42
0.0
 10
303.265901349431
 20
448.9737895507751
 42
0.2679491924311341
 10
301.1008378399699
 20
450.2237895507754
 42
0.0
 10
300.6475764066677
 20
450.2237895507754
 42
0.3394542588633965
 10
298.2327618409451
 20
448.3708371635314
 42
0.0
 10
296.5856653972714
 20
442.2237895507753
 42
0.0
 97
        0
 92
        7
 72
     1
 73
     1
 93
       20
 10
129.0856653972714
 20
426.4406853328411
 42
0.0
 10
129.0856653972714
 20
416.0203786467342
 42
0.0
 10
131.559353920674
 20
416.0203786467342
 42
0.0
 10
132.5856653972714
 20
419.2237895507754
 42
0.0
 10
134.6574621669957
 20
419.2237895507753
 42
0.2679491924311312
 10
141.5856653972713
 20
415.2237895507752
 42
0.0
 10
145.5856653972713
 20
415.2237895507752
 42
0.0
 10
145.5856653972713
 20
417.2237895507753
 42
-0.4142135623730929
 10
137.5856653972714
 20
425.2237895507752
 42
0.0
 10
137.5856653972714
 20
442.2237895507753
 42
0.0
 10
135.9385689535976
 20
448.3708371635317
 42
0.3394542588633818
 10
133.523754387875
 20
450.2237895507754
 42
0.0
 10
133.0704929545728
 20
450.2237895507754
 42
0.2679491924311267
 10
130.9054294451116
 20
448.9737895507754
 42
0.0
 10
127.9206018878102
 20
443.8039165696975
 42
0.1316524975873975
 10
127.5856653972714
 20
442.5539165696975
 42
0.0
 10
127.5856653972714
 20
442.2237895507755
 42
0.0
 10
131.5856653972715
 20
442.2237895507754
 42
0.0
 10
131.5856653972715
 20
436.2237895507749
 42
0.0
 10
130.5930715745362
 20
436.2237895507749
 42
0.076589383049796
 97
        0
 75
     0
 76
     1
 52
45.0
 41
15.0
 77
     0
 78
     2
 53
45.0
 43
0.0
 44
16.92530212171886
 45
-1.325825214724776
 46
1.325825214724776
 79
     0
 53
135.0
 43
0.0
 44
16.92530212171886
 45
-1.325825214724776
 46
-1.325825214724776
 79
     0
 47
0.2449142192013533
 98
        2
 10
300.5515960480634
 20
425.7319459478876
 10
133.2162441579003
 20
430.3853170168787
  0
LINE
  5
F96
330
1E
100
AcDbEntity
  8
STEMPEL
100
AcDbLine
 10
131.559353920674
 20
416.0203786467342
 30
0.0
 11
132.5856653972714
 21
419.2237895507753
 31
0.0
  0
LINE
  5
F97
330
1E
100
AcDbEntity
  8
STEMPEL
100
AcDbLine
 10
129.0856653972714
 20
416.0203786467342
 30
0.0
 11
138.1055976755823
 21
416.0203786467342
 31
0.0
  0
LINE
  5
F98
330
1E
100
AcDbEntity
  8
STEMPEL
100
AcDbLine
 10
132.5856653972714
 20
419.2237895507753
 30
0.0
 11
134.6574621669957
 21
419.2237895507753
 31
0.0
  0
ARC
  5
F99
330
1E
100
AcDbEntity
  8
STEMPEL
100
AcDbCircle
 10
141.5856653972713
 20
423.2237895507752
 30
0.0
 40
8.0
100
AcDbArc
 50
210.0000000000005
 51
270.0
  0
ARC
  5
F9A
330
1E
100
AcDbEntity
  8
STEMPEL
100
AcDbCircle
 10
145.5856653972714
 20
425.2237895507752
 30
0.0
 40
8.0
100
AcDbArc
 50
180.0
 51
270.0
  0
LINE
  5
F9B
330
1E
100
AcDbEntity
  8
STEMPEL
100
AcDbLine
 10
145.5856653972713
 20
417.2237895507753
 30
0.0
 11
145.5856653972713
 21
415.2237895507752
 31
0.0
  0
ARC
  5
F9C
330
1E
100
AcDbEntity
  8
STEMPEL
100
AcDbCircle
 10
300.6475764066678
 20
447.7237895507752
 30
0.0
 40
2.5
100
AcDbArc
 50
90.0
 51
164.9999999999984
  0
ARC
  5
F9D
330
1E
100
AcDbEntity
  8
STEMPEL
100
AcDbCircle
 10
301.1008378399699
 20
447.7237895507752
 30
0.0
 40
2.5
100
AcDbArc
 50
30.00000000000055
 51
90.0
  0
LINE
  5
F9E
330
1E
100
AcDbEntity
  8
STEMPEL
100
AcDbLine
 10
306.5856653972713
 20
442.5539165696974
 30
0.0
 11
306.5856653972713
 21
442.2237895507751
 31
0.0
  0
ARC
  5
F9F
330
1E
100
AcDbEntity
  8
STEMPEL
100
AcDbCircle
 10
304.0856653972713
 20
442.5539165696974
 30
0.0
 40
2.5
100
AcDbArc
 50
0.0
 51
30.00000000000055
  0
LINE
  5
FA0
330
1E
100
AcDbEntity
  8
STEMPEL
100
AcDbLine
 10
296.5856653972713
 20
442.2237895507751
 30
0.0
 11
298.2327618409451
 21
448.3708371635314
 31
0.0
  0
LINE
  5
FA1
330
1E
100
AcDbEntity
  8
STEMPEL
100
AcDbLine
 10
306.2507289067324
 20
443.8039165696974
 30
0.0
 11
303.265901349431
 21
448.9737895507751
 31
0.0
  0
LINE
  5
FA2
330
1E
100
AcDbEntity
  8
STEMPEL
100
AcDbLine
 10
301.10083783997
 20
450.2237895507754
 30
0.0
 11
133.0704929545728
 21
450.2237895507754
 31
0.0
  0
LINE
  5
FA3
330
1E
100
AcDbEntity
  8
STEMPEL
100
AcDbLine
 10
296.5856653972713
 20
442.2237895507751
 30
0.0
 11
137.5856653972714
 21
442.2237895507754
 31
0.0
  0
LINE
  5
FA4
330
1E
100
AcDbEntity
  8
STEMPEL
100
AcDbLine
 10
296.5856653972713
 20
442.2237895507751
 30
0.0
 11
296.5856653972713
 21
425.2237895507752
 31
0.0
  0
LINE
  5
FA5
330
1E
100
AcDbEntity
  8
STEMPEL
100
AcDbLine
 10
137.5856653972714
 20
442.2237895507754
 30
0.0
 11
137.5856653972714
 21
425.2237895507752
 31
0.0
  0
LINE
  5
FA6
330
1E
100
AcDbEntity
  8
STEMPEL
100
AcDbLine
 10
127.9206018878102
 20
443.8039165696975
 30
0.0
 11
130.9054294451116
 21
448.9737895507754
 31
0.0
  0
LINE
  5
FA7
330
1E
100
AcDbEntity
  8
STEMPEL
100
AcDbLine
 10
137.5856653972714
 20
442.2237895507754
 30
0.0
 11
135.9385689535976
 21
448.3708371635317
 31
0.0
  0
ARC
  5
FA8
330
1E
100
AcDbEntity
  8
STEMPEL
100
AcDbCircle
 10
130.0856653972713
 20
442.5539165696975
 30
0.0
 40
2.5
100
AcDbArc
 50
149.9999999999994
 51
180.0
  0
LINE
  5
FA9
330
1E
100
AcDbEntity
  8
STEMPEL
100
AcDbLine
 10
127.5856653972714
 20
442.5539165696975
 30
0.0
 11
127.5856653972714
 21
442.2237895507754
 31
0.0
  0
ARC
  5
FAA
330
1E
100
AcDbEntity
  8
STEMPEL
100
AcDbCircle
 10
133.0704929545728
 20
447.7237895507753
 30
0.0
 40
2.5
100
AcDbArc
 50
90.0
 51
149.9999999999994
  0
ARC
  5
FAB
330
1E
100
AcDbEntity
  8
STEMPEL
100
AcDbCircle
 10
133.5237543878749
 20
447.7237895507753
 30
0.0
 40
2.5
100
AcDbArc
 50
15.00000000000158
 51
90.0
  0
LINE
  5
FAC
330
1E
100
AcDbEntity
  8
TEXT
 62
     2
100
AcDbLine
 10
128.914055918443
 20
487.8665284558817
 30
0.0
 11
134.3171211535714
 21
447.6428851064076
 31
0.0
  0
LINE
  5
FAE
330
1E
100
AcDbEntity
  8
TEXT
 62
     2
100
AcDbLine
 10
124.9138220926866
 20
517.6466572752802
 30
0.0
 11
232.3893604185595
 21
517.6466572752802
 31
0.0
  0
TEXT
  5
FAF
330
1E
100
AcDbEntity
  8
TEXT
 62
     1
100
AcDbText
 10
130.5802495949433
 20
519.6523938937816
 30
0.0
 40
7.0
  1
Dichtelement DN150
 41
0.8
  7
GREEKS
100
AcDbText
  0
TEXT
  5
FB0
330
1E
100
AcDbEntity
  8
TEXT
 62
     1
100
AcDbText
 10
129.9732899823516
 20
506.699953792032
 30
0.0
 40
7.0
  1
EDV-Art.Nr. 00911.150X
 41
0.8
  7
GREEKS
100
AcDbText
  0
LINE
  5
FB1
330
1E
100
AcDbEntity
  8
TEXT
 62
     2
100
AcDbLine
 10
124.9138220926866
 20
517.6466572752802
 30
0.0
 11
128.3110486505308
 21
492.3556745657503
 31
0.0
  0
LINE
  5
FB2
330
1E
100
AcDbEntity
  8
STEMPEL
100
AcDbLine
 10
302.5856653972715
 20
436.2237895507757
 30
0.0
 11
340.0856653972714
 21
436.2237895507758
 31
0.0
  0
LINE
  5
FB3
330
1E
100
AcDbEntity
  8
STEMPEL
  6
Continuous
100
AcDbLine
 10
131.5856653972715
 20
436.223789550775
 30
0.0
 11
52.08566539727144
 21
436.223789550775
 31
0.0
  0
LINE
  5
FB4
330
1E
100
AcDbEntity
  8
STEMPEL
100
AcDbLine
 10
302.5856653972714
 20
442.2237895507751
 30
0.0
 11
382.0856653972713
 21
442.2237895507748
 31
0.0
  0
LINE
  5
FB5
330
1E
100
AcDbEntity
  8
STEMPEL
100
AcDbLine
 10
303.9875891859178
 20
447.7237895507755
 30
0.0
 11
339.0856653972715
 21
447.7237895507755
 31
0.0
  0
LINE
  5
FB6
330
1E
100
AcDbEntity
  8
STEMPEL
100
AcDbLine
 10
305.4309648588918
 20
445.2237895507756
 30
0.0
 11
339.0856653972715
 21
445.2237895507757
 31
0.0
  0
LINE
  5
FB7
330
1E
100
AcDbEntity
  8
TEXT
 62
     2
100
AcDbLine
 10
68.78846218442794
 20
487.8434506435643
 30
0.0
 11
77.62980870169326
 21
449.7138478971479
 31
0.0
  0
ENDSEC
  0
SECTION
  2
OBJECTS
  0
DICTIONARY
  5
C
330
0
100
AcDbDictionary
281
     1
  3
ACAD_COLOR
350
DF
  3
ACAD_GROUP
350
D
  3
ACAD_LAYOUT
350
19
  3
ACAD_MATERIAL
350
DE
  3
ACAD_MLINESTYLE
350
16
  3
ACAD_PLOTSETTINGS
350
18
  3
ACAD_PLOTSTYLENAME
350
E
  3
AcDbVariableDictionary
350
EA
  0
DICTIONARY
  5
A0
330
1E
100
AcDbDictionary
280
     1
281
     1
  3
ACAD_LAYOUTSELFREF
360
D4
  0
DICTIONARY
  5
A2
330
1A
100
AcDbDictionary
280
     1
281
     1
  3
ACAD_LAYOUTSELFREF
360
D3
  0
DICTIONARY
  5
DF
102
{ACAD_REACTORS
330
C
102
}
330
C
100
AcDbDictionary
281
     1
  0
DICTIONARY
  5
D
102
{ACAD_REACTORS
330
C
102
}
330
C
100
AcDbDictionary
281
     1
  0
DICTIONARY
  5
19
102
{ACAD_REACTORS
330
C
102
}
330
C
100
AcDbDictionary
281
     1
  3
Layout1
350
1D
  3
Model
350
21
  0
DICTIONARY
  5
DE
102
{ACAD_REACTORS
330
C
102
}
330
C
100
AcDbDictionary
281
     1
  0
DICTIONARY
  5
16
102
{ACAD_REACTORS
330
C
102
}
330
C
100
AcDbDictionary
281
     1
  3
Standard
350
17
  0
DICTIONARY
  5
18
102
{ACAD_REACTORS
330
C
102
}
330
C
100
AcDbDictionary
281
     1
  0
ACDBDICTIONARYWDFLT
  5
E
102
{ACAD_REACTORS
330
C
102
}
330
C
100
AcDbDictionary
281
     1
  3
Normal
350
F
100
AcDbDictionaryWithDefault
340
F
  0
DICTIONARY
  5
EA
102
{ACAD_REACTORS
330
C
102
}
330
C
100
AcDbDictionary
281
     1
  3
DIMASSOC
350
EB
  3
PROJECTNAME
350
EC
  0
XRECORD
  5
D4
102
{ACAD_REACTORS
330
A0
102
}
330
A0
100
AcDbXrecord
280
     1
340
1E
  0
XRECORD
  5
D3
102
{ACAD_REACTORS
330
A2
102
}
330
A2
100
AcDbXrecord
280
     1
340
1A
  0
LAYOUT
  5
1D
102
{ACAD_REACTORS
330
19
102
}
330
19
100
AcDbPlotSettings
  1

  2
\\NT_WORK01\HP LaserJet 5000 PCL 6
  4

  6

 40
0.0
 41
0.0
 42
0.0
 43
0.0
 44
0.0
 45
0.0
 46
0.0
 47
0.0
 48
0.0
 49
0.0
140
0.0
141
0.0
142
1.0
143
1.0
 70
   688
 72
     0
 73
     0
 74
     5
  7

 75
    16
147
1.0
 76
     0
 77
     2
 78
   300
148
0.0
149
0.0
100
AcDbLayout
  1
Layout1
 70
     0
 71
     1
 10
0.0
 20
0.0
 11
12.0
 21
9.0
 12
0.0
 22
0.0
 32
0.0
 14
1.000000000000000E+20
 24
1.000000000000000E+20
 34
1.000000000000000E+20
 15
-1.000000000000000E+20
 25
-1.000000000000000E+20
 35
-1.000000000000000E+20
146
0.0
 13
0.0
 23
0.0
 33
0.0
 16
1.0
 26
0.0
 36
0.0
 17
0.0
 27
1.0
 37
0.0
 76
     0
330
1A
  0
LAYOUT
  5
21
102
{ACAD_REACTORS
330
19
102
}
330
19
100
AcDbPlotSettings
  1

  2
\\NT_WORK01\HP LaserJet 5000 PCL 6
  4

  6

 40
0.0
 41
0.0
 42
0.0
 43
0.0
 44
0.0
 45
0.0
 46
0.0
 47
0.0
 48
0.0
 49
0.0
140
0.0
141
0.0
142
1.0
143
1.0
 70
  1712
 72
     0
 73
     0
 74
     0
  7

 75
     0
147
1.0
 76
     0
 77
     2
 78
   300
148
0.0
149
0.0
100
AcDbLayout
  1
Model
 70
     1
 71
     0
 10
0.0
 20
0.0
 11
12.0
 21
9.0
 12
0.0
 22
0.0
 32
0.0
 14
0.0
 24
0.0
 34
0.0
 15
0.0
 25
0.0
 35
0.0
146
0.0
 13
0.0
 23
0.0
 33
0.0
 16
1.0
 26
0.0
 36
0.0
 17
0.0
 27
1.0
 37
0.0
 76
     0
330
1E
  0
MLINESTYLE
  5
17
102
{ACAD_REACTORS
330
16
102
}
330
16
100
AcDbMlineStyle
  2
STANDARD
 70
     0
  3

 62
   256
 51
90.0
 52
90.0
 71
     2
 49
0.5
 62
   256
  6
BYLAYER
 49
-0.5
 62
   256
  6
BYLAYER
  0
ACDBPLACEHOLDER
  5
F
102
{ACAD_REACTORS
330
E
102
}
330
E
  0
DICTIONARYVAR
  5
EB
102
{ACAD_REACTORS
330
EA
102
}
330
EA
100
DictionaryVariables
280
     0
  1
1
  0
DICTIONARYVAR
  5
EC
102
{ACAD_REACTORS
330
EA
102
}
330
EA
100
DictionaryVariables
280
     0
  1

  0
ENDSEC
  0
EOF
