  0
SECTION
  2
HEADER
  9
$ACADVER
  1
AC1018
  9
$ACADMAINTVER
 70
     2
  9
$DWGCODEPAGE
  3
ANSI_1252
  9
$INSBASE
 10
0.0
 20
0.0
 30
0.0
  9
$EXTMIN
 10
-0.0000000000001137
 20
-0.0000000000001137
 30
0.0
  9
$EXTMAX
 10
420.0
 20
594.0000000000002
 30
0.0
  9
$LIMMIN
 10
0.0
 20
0.0
  9
$LIMMAX
 10
419.9999999999999
 20
594.0
  9
$ORTHOMODE
 70
     1
  9
$REGENMODE
 70
     1
  9
$FILLMODE
 70
     1
  9
$QTEXTMODE
 70
     0
  9
$MIRRTEXT
 70
     1
  9
$LTSCALE
 40
20.0
  9
$ATTMODE
 70
     1
  9
$TEXTSIZE
 40
3.5
  9
$TRACEWID
 40
0.5
  9
$TEXTSTYLE
  7
STANDARD
  9
$CLAYER
  8
VOLL
  9
$CELTYPE
  6
ByLayer
  9
$CECOLOR
 62
   256
  9
$CELTSCALE
 40
1.0
  9
$DISPSILH
 70
     0
  9
$DIMSCALE
 40
2.0
  9
$DIMASZ
 40
3.5
  9
$DIMEXO
 40
1.0
  9
$DIMDLI
 40
7.0
  9
$DIMRND
 40
0.0
  9
$DIMDLE
 40
0.0
  9
$DIMEXE
 40
1.0
  9
$DIMTP
 40
0.0
  9
$DIMTM
 40
0.0
  9
$DIMTXT
 40
3.5
  9
$DIMCEN
 40
1.5
  9
$DIMTSZ
 40
0.0
  9
$DIMTOL
 70
     0
  9
$DIMLIM
 70
     0
  9
$DIMTIH
 70
     0
  9
$DIMTOH
 70
     0
  9
$DIMSE1
 70
     0
  9
$DIMSE2
 70
     0
  9
$DIMTAD
 70
     1
  9
$DIMZIN
 70
     8
  9
$DIMBLK
  1

  9
$DIMASO
 70
     1
  9
$DIMSHO
 70
     0
  9
$DIMPOST
  1

  9
$DIMAPOST
  1

  9
$DIMALT
 70
     0
  9
$DIMALTD
 70
     2
  9
$DIMALTF
 40
25.4
  9
$DIMLFAC
 40
1.0
  9
$DIMTOFL
 70
     1
  9
$DIMTVP
 40
0.0
  9
$DIMTIX
 70
     0
  9
$DIMSOXD
 70
     0
  9
$DIMSAH
 70
     0
  9
$DIMBLK1
  1

  9
$DIMBLK2
  1

  9
$DIMSTYLE
  2
Standard
  9
$DIMCLRD
 70
     0
  9
$DIMCLRE
 70
     0
  9
$DIMCLRT
 70
     1
  9
$DIMTFAC
 40
0.5142857142857144
  9
$DIMGAP
 40
1.5
  9
$DIMJUST
 70
     0
  9
$DIMSD1
 70
     0
  9
$DIMSD2
 70
     0
  9
$DIMTOLJ
 70
     1
  9
$DIMTZIN
 70
     8
  9
$DIMALTZ
 70
     8
  9
$DIMALTTZ
 70
     8
  9
$DIMUPT
 70
     0
  9
$DIMDEC
 70
     2
  9
$DIMTDEC
 70
     2
  9
$DIMALTU
 70
     2
  9
$DIMALTTD
 70
     2
  9
$DIMTXSTY
  7
STANDARD
  9
$DIMAUNIT
 70
     0
  9
$DIMADEC
 70
     2
  9
$DIMALTRND
 40
0.0
  9
$DIMAZIN
 70
     2
  9
$DIMDSEP
 70
    46
  9
$DIMATFIT
 70
     3
  9
$DIMFRAC
 70
     0
  9
$DIMLDRBLK
  1

  9
$DIMLUNIT
 70
     2
  9
$DIMLWD
 70
    -2
  9
$DIMLWE
 70
    -2
  9
$DIMTMOVE
 70
     0
  9
$LUNITS
 70
     2
  9
$LUPREC
 70
     2
  9
$SKETCHINC
 40
1.0
  9
$FILLETRAD
 40
5.0
  9
$AUNITS
 70
     0
  9
$AUPREC
 70
     0
  9
$MENU
  1
ACAD
  9
$ELEVATION
 40
0.0
  9
$PELEVATION
 40
0.0
  9
$THICKNESS
 40
0.0
  9
$LIMCHECK
 70
     0
  9
$CHAMFERA
 40
0.0
  9
$CHAMFERB
 40
0.0
  9
$CHAMFERC
 40
0.0
  9
$CHAMFERD
 40
0.0
  9
$SKPOLY
 70
     0
  9
$TDCREATE
 40
2455397.823042361
  9
$TDUCREATE
 40
2455397.781375695
  9
$TDUPDATE
 40
2455502.414906377
  9
$TDUUPDATE
 40
2455502.373239711
  9
$TDINDWG
 40
0.0556139699
  9
$TDUSRTIMER
 40
0.0556139699
  9
$USRTIMER
 70
     1
  9
$ANGBASE
 50
0.0
  9
$ANGDIR
 70
     0
  9
$PDMODE
 70
     0
  9
$PDSIZE
 40
0.0
  9
$PLINEWID
 40
0.0
  9
$SPLFRAME
 70
     0
  9
$SPLINETYPE
 70
     6
  9
$SPLINESEGS
 70
     8
  9
$HANDSEED
  5
966
  9
$SURFTAB1
 70
     6
  9
$SURFTAB2
 70
     6
  9
$SURFTYPE
 70
     6
  9
$SURFU
 70
     6
  9
$SURFV
 70
     6
  9
$UCSBASE
  2

  9
$UCSNAME
  2

  9
$UCSORG
 10
0.0
 20
0.0
 30
0.0
  9
$UCSXDIR
 10
1.0
 20
0.0
 30
0.0
  9
$UCSYDIR
 10
0.0
 20
1.0
 30
0.0
  9
$UCSORTHOREF
  2

  9
$UCSORTHOVIEW
 70
     0
  9
$UCSORGTOP
 10
0.0
 20
0.0
 30
0.0
  9
$UCSORGBOTTOM
 10
0.0
 20
0.0
 30
0.0
  9
$UCSORGLEFT
 10
0.0
 20
0.0
 30
0.0
  9
$UCSORGRIGHT
 10
0.0
 20
0.0
 30
0.0
  9
$UCSORGFRONT
 10
0.0
 20
0.0
 30
0.0
  9
$UCSORGBACK
 10
0.0
 20
0.0
 30
0.0
  9
$PUCSBASE
  2

  9
$PUCSNAME
  2

  9
$PUCSORG
 10
0.0
 20
0.0
 30
0.0
  9
$PUCSXDIR
 10
1.0
 20
0.0
 30
0.0
  9
$PUCSYDIR
 10
0.0
 20
1.0
 30
0.0
  9
$PUCSORTHOREF
  2

  9
$PUCSORTHOVIEW
 70
     0
  9
$PUCSORGTOP
 10
0.0
 20
0.0
 30
0.0
  9
$PUCSORGBOTTOM
 10
0.0
 20
0.0
 30
0.0
  9
$PUCSORGLEFT
 10
0.0
 20
0.0
 30
0.0
  9
$PUCSORGRIGHT
 10
0.0
 20
0.0
 30
0.0
  9
$PUCSORGFRONT
 10
0.0
 20
0.0
 30
0.0
  9
$PUCSORGBACK
 10
0.0
 20
0.0
 30
0.0
  9
$USERI1
 70
     0
  9
$USERI2
 70
     0
  9
$USERI3
 70
     0
  9
$USERI4
 70
     0
  9
$USERI5
 70
     0
  9
$USERR1
 40
0.0
  9
$USERR2
 40
0.0
  9
$USERR3
 40
0.0
  9
$USERR4
 40
0.0
  9
$USERR5
 40
0.0
  9
$WORLDVIEW
 70
     1
  9
$SHADEDGE
 70
     3
  9
$SHADEDIF
 70
    70
  9
$TILEMODE
 70
     1
  9
$MAXACTVP
 70
    16
  9
$PINSBASE
 10
0.0
 20
0.0
 30
0.0
  9
$PLIMCHECK
 70
     0
  9
$PEXTMIN
 10
1.000000000000000E+20
 20
1.000000000000000E+20
 30
1.000000000000000E+20
  9
$PEXTMAX
 10
-1.000000000000000E+20
 20
-1.000000000000000E+20
 30
-1.000000000000000E+20
  9
$PLIMMIN
 10
0.0
 20
0.0
  9
$PLIMMAX
 10
12.0
 20
9.0
  9
$UNITMODE
 70
     0
  9
$VISRETAIN
 70
     0
  9
$PLINEGEN
 70
     0
  9
$PSLTSCALE
 70
     0
  9
$TREEDEPTH
 70
  3020
  9
$CMLSTYLE
  2
Standard
  9
$CMLJUST
 70
     0
  9
$CMLSCALE
 40
1.0
  9
$PROXYGRAPHICS
 70
     1
  9
$MEASUREMENT
 70
     0
  9
$CELWEIGHT
370
    -1
  9
$ENDCAPS
280
     0
  9
$JOINSTYLE
280
     0
  9
$LWDISPLAY
290
     0
  9
$INSUNITS
 70
     0
  9
$HYPERLINKBASE
  1

  9
$STYLESHEET
  1
monochrome 1.ctb
  9
$XEDIT
290
     1
  9
$CEPSNTYPE
380
     0
  9
$PSTYLEMODE
290
     1
  9
$FINGERPRINTGUID
  2
{D68B0D02-A558-11D7-B632-000102183313}
  9
$VERSIONGUID
  2
{6FCF0581-9C6A-4F00-B6DF-2361A16E0419}
  9
$EXTNAMES
290
     1
  9
$PSVPSCALE
 40
0.0
  9
$OLESTARTUP
290
     0
  9
$SORTENTS
280
   127
  9
$INDEXCTL
280
     0
  9
$HIDETEXT
280
     0
  9
$XCLIPFRAME
290
     0
  9
$HALOGAP
280
     0
  9
$OBSCOLOR
 70
   257
  9
$OBSLTYPE
280
     0
  9
$INTERSECTIONDISPLAY
280
     0
  9
$INTERSECTIONCOLOR
 70
   257
  9
$DIMASSOC
280
     1
  9
$PROJECTNAME
  1

  0
ENDSEC
  0
SECTION
  2
CLASSES
  0
CLASS
  1
ACDBDICTIONARYWDFLT
  2
AcDbDictionaryWithDefault
  3
ObjectDBX Classes
 90
        0
 91
        1
280
     0
281
     0
  0
CLASS
  1
DICTIONARYVAR
  2
AcDbDictionaryVar
  3
ObjectDBX Classes
 90
        0
 91
        2
280
     0
281
     0
  0
ENDSEC
  0
SECTION
  2
TABLES
  0
TABLE
  2
VPORT
  5
8
330
0
100
AcDbSymbolTable
 70
     2
  0
VPORT
  5
965
330
8
100
AcDbSymbolTableRecord
100
AcDbViewportTableRecord
  2
*Active
 70
     0
 10
0.0
 20
0.0
 11
1.0
 21
1.0
 12
210.0000019558371
 22
297.0000027661128
 13
0.0
 23
0.0
 14
1.0
 24
1.0
 15
10.0
 25
10.0
 16
0.0
 26
0.0
 36
1.0
 17
0.0
 27
0.0
 37
0.0
 40
599.0513926266967
 41
1.336927223719676
 42
50.0
 43
0.0
 44
0.0
 50
0.0
 51
0.0
 71
     0
 72
  1500
 73
     1
 74
     0
 75
     0
 76
     0
 77
     0
 78
     0
281
     0
 65
     1
110
0.0
120
0.0
130
0.0
111
1.0
121
0.0
131
0.0
112
0.0
122
1.0
132
0.0
 79
     0
146
0.0
  0
ENDTAB
  0
TABLE
  2
LTYPE
  5
5
330
0
100
AcDbSymbolTable
 70
     3
  0
LTYPE
  5
13
330
5
100
AcDbSymbolTableRecord
100
AcDbLinetypeTableRecord
  2
ByBlock
 70
     0
  3

 72
    65
 73
     0
 40
0.0
  0
LTYPE
  5
14
330
5
100
AcDbSymbolTableRecord
100
AcDbLinetypeTableRecord
  2
ByLayer
 70
     0
  3

 72
    65
 73
     0
 40
0.0
  0
LTYPE
  5
15
330
5
100
AcDbSymbolTableRecord
100
AcDbLinetypeTableRecord
  2
Continuous
 70
     0
  3
Solid line
 72
    65
 73
     0
 40
0.0
  0
LTYPE
  5
25
330
5
100
AcDbSymbolTableRecord
100
AcDbLinetypeTableRecord
  2
STRICHPUNKT
 70
     0
  3
__ . __ . __ . __ . __ . __ . __ . __ . __ . __
 72
    65
 73
     4
 40
1.0
 49
0.5
 74
     0
 49
-0.25
 74
     0
 49
0.0
 74
     0
 49
-0.25
 74
     0
  0
LTYPE
  5
32
330
5
100
AcDbSymbolTableRecord
100
AcDbLinetypeTableRecord
  2
AUSGEZOGEN
 70
     0
  3
Ausgezogene Linie
 72
    65
 73
     0
 40
0.0
  0
ENDTAB
  0
TABLE
  2
LAYER
  5
2
330
0
100
AcDbSymbolTable
 70
     9
  0
LAYER
  5
10
330
2
100
AcDbSymbolTableRecord
100
AcDbLayerTableRecord
  2
0
 70
     0
 62
     7
  6
Continuous
370
    -3
390
F
  0
LAYER
  5
2A
330
2
100
AcDbSymbolTableRecord
100
AcDbLayerTableRecord
  2
VOLL
 70
     0
 62
     1
  6
Continuous
370
    -3
390
F
  0
LAYER
  5
2B
330
2
100
AcDbSymbolTableRecord
100
AcDbLayerTableRecord
  2
HILF
 70
     0
 62
     2
  6
Continuous
370
    -3
390
F
  0
LAYER
  5
2C
330
2
100
AcDbSymbolTableRecord
100
AcDbLayerTableRecord
  2
MITTEL
 70
     0
 62
     2
  6
STRICHPUNKT
370
    -3
390
F
  0
LAYER
  5
2F
330
2
100
AcDbSymbolTableRecord
100
AcDbLayerTableRecord
  2
BEM
 70
     0
 62
     7
  6
Continuous
370
    -3
390
F
  0
LAYER
  5
30
330
2
100
AcDbSymbolTableRecord
100
AcDbLayerTableRecord
  2
STEMPEL
 70
     0
 62
     3
  6
Continuous
370
    -3
390
F
  0
LAYER
  5
31
330
2
100
AcDbSymbolTableRecord
100
AcDbLayerTableRecord
  2
TEXT
 70
     0
 62
     7
  6
Continuous
370
    -3
390
F
  0
LAYER
  5
1AA
330
2
100
AcDbSymbolTableRecord
100
AcDbLayerTableRecord
  2
DEFPOINTS
 70
     0
 62
     7
  6
AUSGEZOGEN
290
     0
370
    -3
390
F
  0
LAYER
  5
1AB
330
2
100
AcDbSymbolTableRecord
100
AcDbLayerTableRecord
  2
SCHRAFF
 70
     0
 62
     7
  6
AUSGEZOGEN
370
    -3
390
F
  0
ENDTAB
  0
TABLE
  2
STYLE
  5
3
330
0
100
AcDbSymbolTable
 70
     2
  0
STYLE
  5
11
330
3
100
AcDbSymbolTableRecord
100
AcDbTextStyleTableRecord
  2
STANDARD
 70
     0
 40
0.0
 41
0.8
 50
0.0
 71
     0
 42
3.5
  3
simplex.shx
  4

  0
STYLE
  5
24
330
3
100
AcDbSymbolTableRecord
100
AcDbTextStyleTableRecord
  2
GREEKS
 70
     0
 40
0.0
 41
0.8
 50
0.0
 71
     0
 42
2.5
  3
SIMPLEX.shx
  4

  0
ENDTAB
  0
TABLE
  2
VIEW
  5
6
330
0
100
AcDbSymbolTable
 70
     0
  0
ENDTAB
  0
TABLE
  2
UCS
  5
7
330
0
100
AcDbSymbolTable
 70
     0
  0
ENDTAB
  0
TABLE
  2
APPID
  5
9
330
0
100
AcDbSymbolTable
 70
     1
  0
APPID
  5
12
330
9
100
AcDbSymbolTableRecord
100
AcDbRegAppTableRecord
  2
ACAD
 70
     0
  0
ENDTAB
  0
TABLE
  2
DIMSTYLE
  5
A
330
0
100
AcDbSymbolTable
 70
     1
100
AcDbDimStyleTable
 71
     1
340
9D
  0
DIMSTYLE
105
9D
102
{ACAD_REACTORS
330
861
330
862
330
863
330
874
330
8BE
330
8C0
330
8C2
102
}
330
A
100
AcDbSymbolTableRecord
100
AcDbDimStyleTableRecord
  2
Standard
 70
     0
340
11
  0
ENDTAB
  0
TABLE
  2
BLOCK_RECORD
  5
1
330
0
100
AcDbSymbolTable
 70
     8
  0
BLOCK_RECORD
  5
1E
102
{ACAD_XDICTIONARY
360
A0
102
}
330
1
100
AcDbSymbolTableRecord
100
AcDbBlockTableRecord
  2
*Model_Space
340
21
  0
BLOCK_RECORD
  5
1A
102
{ACAD_XDICTIONARY
360
A2
102
}
330
1
100
AcDbSymbolTableRecord
100
AcDbBlockTableRecord
  2
*Paper_Space
340
1D
  0
BLOCK_RECORD
  5
22
330
1
100
AcDbSymbolTableRecord
100
AcDbBlockTableRecord
  2
LOGO
340
0
102
{BLKREFS
331
276
102
}
  0
BLOCK_RECORD
  5
8C6
330
1
100
AcDbSymbolTableRecord
100
AcDbBlockTableRecord
  2
*D1
340
0
  0
BLOCK_RECORD
  5
8D2
330
1
100
AcDbSymbolTableRecord
100
AcDbBlockTableRecord
  2
*D2
340
0
  0
BLOCK_RECORD
  5
8DE
330
1
100
AcDbSymbolTableRecord
100
AcDbBlockTableRecord
  2
*D3
340
0
  0
BLOCK_RECORD
  5
8EA
330
1
100
AcDbSymbolTableRecord
100
AcDbBlockTableRecord
  2
*D4
340
0
  0
BLOCK_RECORD
  5
8F6
330
1
100
AcDbSymbolTableRecord
100
AcDbBlockTableRecord
  2
*D5
340
0
  0
BLOCK_RECORD
  5
902
330
1
100
AcDbSymbolTableRecord
100
AcDbBlockTableRecord
  2
*D6
340
0
  0
BLOCK_RECORD
  5
90E
330
1
100
AcDbSymbolTableRecord
100
AcDbBlockTableRecord
  2
*D7
340
0
  0
ENDTAB
  0
ENDSEC
  0
SECTION
  2
BLOCKS
  0
BLOCK
  5
35
330
1E
100
AcDbEntity
  8
0
100
AcDbBlockBegin
  2
*Model_Space
 70
     0
 10
0.0
 20
0.0
 30
0.0
  3
*Model_Space
  1

  0
ENDBLK
  5
36
330
1E
100
AcDbEntity
  8
0
100
AcDbBlockEnd
  0
BLOCK
  5
33
330
1A
100
AcDbEntity
 67
     1
  8
0
100
AcDbBlockBegin
  2
*Paper_Space
 70
     0
 10
0.0
 20
0.0
 30
0.0
  3
*Paper_Space
  1

  0
ENDBLK
  5
34
330
1A
100
AcDbEntity
 67
     1
  8
0
100
AcDbBlockEnd
  0
BLOCK
  5
37
330
22
100
AcDbEntity
  8
0
100
AcDbBlockBegin
  2
LOGO
 70
     0
 10
0.0
 20
0.0
 30
0.0
  3
LOGO
  1

  0
ARC
  5
38
330
22
100
AcDbEntity
  8
0
100
AcDbCircle
 10
11.59973089678112
 20
-9.271599258481501
 30
0.0
 40
4.5
100
AcDbArc
 50
270.0
 51
231.0575587310159
  0
LINE
  5
39
330
22
100
AcDbEntity
  8
0
100
AcDbLine
 10
3.599730896781125
 20
-4.771599258481529
 30
0.0
 11
3.599730896781153
 21
-11.77159925848133
 31
0.0
  0
LINE
  5
3A
330
22
100
AcDbEntity
  8
0
100
AcDbLine
 10
2.599730896781125
 20
-4.771599258481529
 30
0.0
 11
2.599730896781153
 21
-11.77159925848133
 31
0.0
  0
CIRCLE
  5
3B
330
22
100
AcDbEntity
  8
0
100
AcDbCircle
 10
11.59973089678112
 20
-9.271599258481501
 30
0.0
 40
3.5
  0
ARC
  5
3C
330
22
100
AcDbEntity
  8
0
100
AcDbCircle
 10
31.59973089678115
 20
-9.271599258481472
 30
0.0
 40
4.5
100
AcDbArc
 50
270.0
 51
231.0575587310182
  0
LINE
  5
3D
330
22
100
AcDbEntity
  8
0
100
AcDbLine
 10
17.59973089678112
 20
-4.771599258481472
 30
0.0
 11
17.59973089678115
 21
-13.77159925848147
 31
0.0
  0
ARC
  5
3E
330
22
100
AcDbEntity
  8
0
100
AcDbCircle
 10
22.59973089678116
 20
-7.271599258481472
 30
0.0
 40
2.5
100
AcDbArc
 50
293.1161887722295
 51
90.0
  0
CIRCLE
  5
3F
330
22
100
AcDbEntity
  8
0
100
AcDbCircle
 10
31.59973089678115
 20
-9.271599258481472
 30
0.0
 40
3.5
  0
ARC
  5
40
330
22
100
AcDbEntity
  8
0
100
AcDbCircle
 10
4.599730896781153
 20
-11.77159925848133
 30
0.0
 40
1.0
100
AcDbArc
 50
180.0
 51
270.0
  0
ARC
  5
41
330
22
100
AcDbEntity
  8
0
100
AcDbCircle
 10
4.599730896781153
 20
-11.77159925848133
 30
0.0
 40
2.0
100
AcDbArc
 50
179.9999999999992
 51
270.0
  0
LINE
  5
42
330
22
100
AcDbEntity
  8
0
100
AcDbLine
 10
11.59973089678115
 20
-13.77159925848144
 30
0.0
 11
4.599730896781153
 21
-13.77159925848147
 31
0.0
  0
LINE
  5
43
330
22
100
AcDbEntity
  8
0
100
AcDbLine
 10
8.771303772034769
 20
-12.77159925848136
 30
0.0
 11
4.599730896781153
 21
-12.77159925848133
 31
0.0
  0
LINE
  5
44
330
22
100
AcDbEntity
  8
0
100
AcDbLine
 10
31.59973089678115
 20
-13.77159925848147
 30
0.0
 11
23.6715276665056
 21
-13.77159925848144
 31
0.0
  0
LINE
  5
45
330
22
100
AcDbEntity
  8
0
100
AcDbLine
 10
23.56565672307022
 20
-9.51278021337896
 30
0.0
 11
24.4388546544846
 21
-12.77159925848144
 31
0.0
  0
LINE
  5
46
330
22
100
AcDbEntity
  8
0
100
AcDbLine
 10
22.59973089678116
 20
-9.771599258481472
 30
0.0
 11
18.59973089678112
 21
-9.771599258481472
 31
0.0
  0
LINE
  5
47
330
22
100
AcDbEntity
  8
0
100
AcDbLine
 10
18.59973089678115
 20
-13.77159925848144
 30
0.0
 11
17.59973089678115
 21
-13.77159925848144
 31
0.0
  0
LINE
  5
48
330
22
100
AcDbEntity
  8
0
100
AcDbLine
 10
18.59973089678115
 20
-9.771599258481472
 30
0.0
 11
18.59973089678115
 21
-13.77159925848144
 31
0.0
  0
LINE
  5
49
330
22
100
AcDbEntity
  8
0
100
AcDbLine
 10
22.59973089678116
 20
-9.771599258481472
 30
0.0
 11
23.67152766650562
 21
-13.77159925848147
 31
0.0
  0
ARC
  5
4A
330
22
100
AcDbEntity
  8
0
100
AcDbCircle
 10
22.59973089678116
 20
-7.271599258481472
 30
0.0
 40
2.5
100
AcDbArc
 50
270.0
 51
270.0000000000007
  0
LINE
  5
4B
330
22
100
AcDbEntity
  8
0
100
AcDbLine
 10
28.77130377203494
 20
-12.77159925848147
 30
0.0
 11
24.43885465448463
 21
-12.77159925848144
 31
0.0
  0
LINE
  5
4C
330
22
100
AcDbEntity
  8
0
100
AcDbLine
 10
3.599730896781125
 20
-4.771599258481472
 30
0.0
 11
2.599730896781125
 21
-4.771599258481472
 31
0.0
  0
LINE
  5
4D
330
22
100
AcDbEntity
  8
0
100
AcDbLine
 10
22.59973089678116
 20
-8.771599258481472
 30
0.0
 11
18.59973089678115
 21
-8.771599258481472
 31
0.0
  0
LINE
  5
4E
330
22
100
AcDbEntity
  8
0
100
AcDbLine
 10
22.59973089678116
 20
-5.771599258481472
 30
0.0
 11
18.59973089678115
 21
-5.771599258481472
 31
0.0
  0
LINE
  5
4F
330
22
100
AcDbEntity
  8
0
100
AcDbLine
 10
22.59973089678116
 20
-4.771599258481472
 30
0.0
 11
17.59973089678115
 21
-4.771599258481472
 31
0.0
  0
LINE
  5
50
330
22
100
AcDbEntity
  8
0
100
AcDbLine
 10
18.59973089678115
 20
-5.771599258481472
 30
0.0
 11
18.59973089678115
 21
-8.771599258481472
 31
0.0
  0
ARC
  5
51
330
22
100
AcDbEntity
  8
0
100
AcDbCircle
 10
22.59973089678116
 20
-7.271599258481472
 30
0.0
 40
1.5
100
AcDbArc
 50
270.0
 51
90.0
  0
ENDBLK
  5
52
330
22
100
AcDbEntity
  8
0
100
AcDbBlockEnd
  0
BLOCK
  5
8D0
330
8C6
100
AcDbEntity
  8
0
100
AcDbBlockBegin
  2
*D1
 70
     1
 10
0.0
 20
0.0
 30
0.0
  3
*D1
  1

  0
LINE
  5
91A
330
8C6
100
AcDbEntity
  8
BEM
 62
     0
370
    -2
100
AcDbLine
 10
139.3813718646153
 20
297.1220450128559
 30
0.0
 11
94.63784926038655
 21
297.1220450128559
 31
0.0
  0
LINE
  5
91B
330
8C6
100
AcDbEntity
  8
BEM
 62
     0
370
    -2
100
AcDbLine
 10
121.6494671121175
 20
457.1220450128556
 30
0.0
 11
94.63784926038659
 21
457.1220450128556
 31
0.0
  0
LINE
  5
91C
330
8C6
100
AcDbEntity
  8
BEM
 62
     0
370
    -2
100
AcDbLine
 10
96.63784926038657
 20
304.1220450128559
 30
0.0
 11
96.63784926038658
 21
450.1220450128557
 31
0.0
  0
SOLID
  5
91D
330
8C6
100
AcDbEntity
  8
BEM
 62
     0
100
AcDbTrace
 10
95.47118259371989
 20
304.1220450128559
 30
0.0
 11
97.80451592705324
 21
304.1220450128559
 31
0.0
 12
96.63784926038657
 22
297.1220450128559
 32
0.0
 13
96.63784926038657
 23
297.1220450128559
 33
0.0
  0
SOLID
  5
91E
330
8C6
100
AcDbEntity
  8
BEM
 62
     0
100
AcDbTrace
 10
95.47118259371991
 20
450.1220450128557
 30
0.0
 11
97.80451592705325
 21
450.1220450128557
 31
0.0
 12
96.63784926038658
 22
457.1220450128556
 32
0.0
 13
96.63784926038658
 23
457.1220450128556
 33
0.0
  0
MTEXT
  5
91F
330
8C6
100
AcDbEntity
  8
BEM
 62
     1
100
AcDbMText
 10
90.13784926038651
 20
377.1220450128558
 30
0.0
 40
7.0
 41
0.0
 71
     5
 72
     1
  1
\A1;160
 11
0.0000000000000001
 21
1.0
 31
0.0
 73
     1
 44
1.0
  0
POINT
  5
920
330
8C6
100
AcDbEntity
  8
DEFPOINTS
 62
     0
100
AcDbPoint
 10
141.3813718646153
 20
297.1220450128559
 30
0.0
  0
POINT
  5
921
330
8C6
100
AcDbEntity
  8
DEFPOINTS
 62
     0
100
AcDbPoint
 10
123.6494671121175
 20
457.1220450128556
 30
0.0
  0
POINT
  5
922
330
8C6
100
AcDbEntity
  8
DEFPOINTS
 62
     0
100
AcDbPoint
 10
96.63784926038658
 20
457.1220450128556
 30
0.0
  0
ENDBLK
  5
8D1
330
8C6
100
AcDbEntity
  8
0
100
AcDbBlockEnd
  0
BLOCK
  5
8DC
330
8D2
100
AcDbEntity
  8
0
100
AcDbBlockBegin
  2
*D2
 70
     1
 10
0.0
 20
0.0
 30
0.0
  3
*D2
  1

  0
LINE
  5
923
330
8D2
100
AcDbEntity
  8
BEM
 62
     0
370
    -2
100
AcDbLine
 10
123.6494671121175
 20
459.1220450128558
 30
0.0
 11
123.6494671121175
 21
497.4666566479899
 31
0.0
  0
LINE
  5
924
330
8D2
100
AcDbEntity
  8
BEM
 62
     0
370
    -2
100
AcDbLine
 10
343.6494671121175
 20
459.1220450128558
 30
0.0
 11
343.6494671121175
 21
497.4666566479899
 31
0.0
  0
LINE
  5
925
330
8D2
100
AcDbEntity
  8
BEM
 62
     0
370
    -2
100
AcDbLine
 10
130.6494671121176
 20
495.4666566479899
 30
0.0
 11
336.6494671121174
 21
495.4666566479899
 31
0.0
  0
SOLID
  5
926
330
8D2
100
AcDbEntity
  8
BEM
 62
     0
100
AcDbTrace
 10
130.6494671121176
 20
496.6333233146565
 30
0.0
 11
130.6494671121176
 21
494.2999899813232
 31
0.0
 12
123.6494671121175
 22
495.4666566479899
 32
0.0
 13
123.6494671121175
 23
495.4666566479899
 33
0.0
  0
SOLID
  5
927
330
8D2
100
AcDbEntity
  8
BEM
 62
     0
100
AcDbTrace
 10
336.6494671121174
 20
496.6333233146565
 30
0.0
 11
336.6494671121174
 21
494.2999899813232
 31
0.0
 12
343.6494671121175
 22
495.4666566479899
 32
0.0
 13
343.6494671121175
 23
495.4666566479899
 33
0.0
  0
MTEXT
  5
928
330
8D2
100
AcDbEntity
  8
BEM
 62
     1
100
AcDbMText
 10
233.6494671121175
 20
501.9666566479899
 30
0.0
 40
7.0
 41
0.0
 71
     5
 72
     1
  1
\A1;%%c220
 73
     1
 44
1.0
  0
POINT
  5
929
330
8D2
100
AcDbEntity
  8
DEFPOINTS
 62
     0
100
AcDbPoint
 10
123.6494671121175
 20
457.1220450128558
 30
0.0
  0
POINT
  5
92A
330
8D2
100
AcDbEntity
  8
DEFPOINTS
 62
     0
100
AcDbPoint
 10
343.6494671121175
 20
457.1220450128558
 30
0.0
  0
POINT
  5
92B
330
8D2
100
AcDbEntity
  8
DEFPOINTS
 62
     0
100
AcDbPoint
 10
343.6494671121175
 20
495.4666566479899
 30
0.0
  0
ENDBLK
  5
8DD
330
8D2
100
AcDbEntity
  8
0
100
AcDbBlockEnd
  0
BLOCK
  5
8E8
330
8DE
100
AcDbEntity
  8
0
100
AcDbBlockBegin
  2
*D3
 70
     1
 10
0.0
 20
0.0
 30
0.0
  3
*D3
  1

  0
LINE
  5
92C
330
8DE
100
AcDbEntity
  8
BEM
 62
     0
370
    -2
100
AcDbLine
 10
138.6494671121176
 20
295.1220450128559
 30
0.0
 11
138.6494671121176
 21
276.6095265133884
 31
0.0
  0
LINE
  5
92D
330
8DE
100
AcDbEntity
  8
BEM
 62
     0
370
    -2
100
AcDbLine
 10
328.6494671121176
 20
295.1220450128559
 30
0.0
 11
328.6494671121176
 21
276.6095265133884
 31
0.0
  0
LINE
  5
92E
330
8DE
100
AcDbEntity
  8
BEM
 62
     0
370
    -2
100
AcDbLine
 10
145.6494671121175
 20
278.6095265133884
 30
0.0
 11
321.6494671121176
 21
278.6095265133884
 31
0.0
  0
SOLID
  5
92F
330
8DE
100
AcDbEntity
  8
BEM
 62
     0
100
AcDbTrace
 10
145.6494671121175
 20
279.7761931800551
 30
0.0
 11
145.6494671121175
 21
277.4428598467217
 31
0.0
 12
138.6494671121176
 22
278.6095265133884
 32
0.0
 13
138.6494671121176
 23
278.6095265133884
 33
0.0
  0
SOLID
  5
930
330
8DE
100
AcDbEntity
  8
BEM
 62
     0
100
AcDbTrace
 10
321.6494671121176
 20
279.7761931800551
 30
0.0
 11
321.6494671121176
 21
277.4428598467217
 31
0.0
 12
328.6494671121176
 22
278.6095265133884
 32
0.0
 13
328.6494671121176
 23
278.6095265133884
 33
0.0
  0
MTEXT
  5
931
330
8DE
100
AcDbEntity
  8
BEM
 62
     1
100
AcDbMText
 10
233.6494671121176
 20
285.1095265133884
 30
0.0
 40
7.0
 41
0.0
 71
     5
 72
     1
  1
\A1;%%c190
 73
     1
 44
1.0
  0
POINT
  5
932
330
8DE
100
AcDbEntity
  8
DEFPOINTS
 62
     0
100
AcDbPoint
 10
138.6494671121176
 20
297.1220450128559
 30
0.0
  0
POINT
  5
933
330
8DE
100
AcDbEntity
  8
DEFPOINTS
 62
     0
100
AcDbPoint
 10
328.6494671121176
 20
297.1220450128559
 30
0.0
  0
POINT
  5
934
330
8DE
100
AcDbEntity
  8
DEFPOINTS
 62
     0
100
AcDbPoint
 10
328.6494671121176
 20
278.6095265133884
 30
0.0
  0
ENDBLK
  5
8E9
330
8DE
100
AcDbEntity
  8
0
100
AcDbBlockEnd
  0
BLOCK
  5
8F4
330
8EA
100
AcDbEntity
  8
0
100
AcDbBlockBegin
  2
*D4
 70
     1
 10
0.0
 20
0.0
 30
0.0
  3
*D4
  1

  0
LINE
  5
935
330
8EA
100
AcDbEntity
  8
BEM
 62
     0
370
    -2
100
AcDbLine
 10
167.1494671121179
 20
190.1220450128626
 30
0.0
 11
167.1494671121179
 21
158.5512740880356
 31
0.0
  0
LINE
  5
936
330
8EA
100
AcDbEntity
  8
BEM
 62
     0
370
    -2
100
AcDbLine
 10
300.1494671121179
 20
190.1220450128687
 30
0.0
 11
300.1494671121179
 21
158.5512740880356
 31
0.0
  0
LINE
  5
937
330
8EA
100
AcDbEntity
  8
BEM
 62
     0
370
    -2
100
AcDbLine
 10
174.149467112118
 20
160.5512740880356
 30
0.0
 11
293.1494671121179
 21
160.5512740880356
 31
0.0
  0
SOLID
  5
938
330
8EA
100
AcDbEntity
  8
BEM
 62
     0
100
AcDbTrace
 10
174.149467112118
 20
161.7179407547022
 30
0.0
 11
174.149467112118
 21
159.3846074213689
 31
0.0
 12
167.1494671121179
 22
160.5512740880356
 32
0.0
 13
167.1494671121179
 23
160.5512740880356
 33
0.0
  0
SOLID
  5
939
330
8EA
100
AcDbEntity
  8
BEM
 62
     0
100
AcDbTrace
 10
293.1494671121179
 20
161.7179407547022
 30
0.0
 11
293.1494671121179
 21
159.3846074213689
 31
0.0
 12
300.1494671121179
 22
160.5512740880356
 32
0.0
 13
300.1494671121179
 23
160.5512740880356
 33
0.0
  0
MTEXT
  5
93A
330
8EA
100
AcDbEntity
  8
BEM
 62
     1
100
AcDbMText
 10
233.649467112118
 20
167.0512740880356
 30
0.0
 40
7.0
 41
0.0
 71
     5
 72
     1
  1
\A1;%%c133
 73
     1
 44
1.0
  0
POINT
  5
93B
330
8EA
100
AcDbEntity
  8
DEFPOINTS
 62
     0
100
AcDbPoint
 10
167.1494671121179
 20
192.1220450128626
 30
0.0
  0
POINT
  5
93C
330
8EA
100
AcDbEntity
  8
DEFPOINTS
 62
     0
100
AcDbPoint
 10
300.1494671121179
 20
192.1220450128687
 30
0.0
  0
POINT
  5
93D
330
8EA
100
AcDbEntity
  8
DEFPOINTS
 62
     0
100
AcDbPoint
 10
300.1494671121179
 20
160.5512740880356
 30
0.0
  0
ENDBLK
  5
8F5
330
8EA
100
AcDbEntity
  8
0
100
AcDbBlockEnd
  0
BLOCK
  5
900
330
8F6
100
AcDbEntity
  8
0
100
AcDbBlockBegin
  2
*D5
 70
     1
 10
0.0
 20
0.0
 30
0.0
  3
*D5
  1

  0
LINE
  5
93E
330
8F6
100
AcDbEntity
  8
BEM
 62
     0
370
    -2
100
AcDbLine
 10
166.6367743920584
 20
180.1220450128566
 30
0.0
 11
57.38889321095069
 21
180.1220450128566
 31
0.0
  0
LINE
  5
93F
330
8F6
100
AcDbEntity
  8
BEM
 62
     0
370
    -2
100
AcDbLine
 10
73.01342814279678
 20
460.1220450128566
 30
0.0
 11
57.38889321095076
 21
460.1220450128566
 31
0.0
  0
LINE
  5
940
330
8F6
100
AcDbEntity
  8
BEM
 62
     0
370
    -2
100
AcDbLine
 10
59.3888932109507
 20
187.1220450128566
 30
0.0
 11
59.38889321095075
 21
453.1220450128565
 31
0.0
  0
SOLID
  5
941
330
8F6
100
AcDbEntity
  8
BEM
 62
     0
100
AcDbTrace
 10
58.22222654428403
 20
187.1220450128566
 30
0.0
 11
60.55555987761736
 21
187.1220450128566
 31
0.0
 12
59.3888932109507
 22
180.1220450128566
 32
0.0
 13
59.3888932109507
 23
180.1220450128566
 33
0.0
  0
SOLID
  5
942
330
8F6
100
AcDbEntity
  8
BEM
 62
     0
100
AcDbTrace
 10
58.22222654428409
 20
453.1220450128565
 30
0.0
 11
60.55555987761742
 21
453.1220450128565
 31
0.0
 12
59.38889321095075
 22
460.1220450128566
 32
0.0
 13
59.38889321095075
 23
460.1220450128566
 33
0.0
  0
MTEXT
  5
943
330
8F6
100
AcDbEntity
  8
BEM
 62
     1
100
AcDbMText
 10
52.88889321095068
 20
320.1220450128566
 30
0.0
 40
7.0
 41
0.0
 71
     5
 72
     1
  1
\A1;280
 11
0.0000000000000001
 21
1.0
 31
0.0
 73
     1
 44
1.0
  0
POINT
  5
944
330
8F6
100
AcDbEntity
  8
DEFPOINTS
 62
     0
100
AcDbPoint
 10
168.6367743920584
 20
180.1220450128566
 30
0.0
  0
POINT
  5
945
330
8F6
100
AcDbEntity
  8
DEFPOINTS
 62
     0
100
AcDbPoint
 10
75.01342814279678
 20
460.1220450128566
 30
0.0
  0
POINT
  5
946
330
8F6
100
AcDbEntity
  8
DEFPOINTS
 62
     0
100
AcDbPoint
 10
59.38889321095075
 20
460.1220450128566
 30
0.0
  0
ENDBLK
  5
901
330
8F6
100
AcDbEntity
  8
0
100
AcDbBlockEnd
  0
BLOCK
  5
90C
330
902
100
AcDbEntity
  8
0
100
AcDbBlockBegin
  2
*D6
 70
     1
 10
0.0
 20
0.0
 30
0.0
  3
*D6
  1

  0
LINE
  5
947
330
902
100
AcDbEntity
  8
BEM
 62
     0
370
    -2
100
AcDbLine
 10
68.64946711211769
 20
458.2433653564162
 30
0.0
 11
68.64946711211769
 21
528.9545851429748
 31
0.0
  0
LINE
  5
948
330
902
100
AcDbEntity
  8
BEM
 62
     0
370
    -2
100
AcDbLine
 10
398.6494671121175
 20
458.2433653564162
 30
0.0
 11
398.6494671121175
 21
528.9545851429748
 31
0.0
  0
LINE
  5
949
330
902
100
AcDbEntity
  8
BEM
 62
     0
370
    -2
100
AcDbLine
 10
75.64946711211769
 20
526.9545851429747
 30
0.0
 11
391.6494671121175
 21
526.9545851429747
 31
0.0
  0
SOLID
  5
94A
330
902
100
AcDbEntity
  8
BEM
 62
     0
100
AcDbTrace
 10
75.64946711211769
 20
528.1212518096414
 30
0.0
 11
75.64946711211769
 21
525.7879184763082
 31
0.0
 12
68.64946711211769
 22
526.9545851429747
 32
0.0
 13
68.64946711211769
 23
526.9545851429747
 33
0.0
  0
SOLID
  5
94B
330
902
100
AcDbEntity
  8
BEM
 62
     0
100
AcDbTrace
 10
391.6494671121175
 20
528.1212518096414
 30
0.0
 11
391.6494671121175
 21
525.7879184763082
 31
0.0
 12
398.6494671121175
 22
526.9545851429747
 32
0.0
 13
398.6494671121175
 23
526.9545851429747
 33
0.0
  0
MTEXT
  5
94C
330
902
100
AcDbEntity
  8
BEM
 62
     1
100
AcDbMText
 10
233.6494671121176
 20
533.4545851429748
 30
0.0
 40
7.0
 41
0.0
 71
     5
 72
     1
  1
\A1;%%c330
 73
     1
 44
1.0
  0
POINT
  5
94D
330
902
100
AcDbEntity
  8
DEFPOINTS
 62
     0
100
AcDbPoint
 10
68.64946711211769
 20
456.2433653564162
 30
0.0
  0
POINT
  5
94E
330
902
100
AcDbEntity
  8
DEFPOINTS
 62
     0
100
AcDbPoint
 10
398.6494671121175
 20
456.2433653564162
 30
0.0
  0
POINT
  5
94F
330
902
100
AcDbEntity
  8
DEFPOINTS
 62
     0
100
AcDbPoint
 10
398.6494671121175
 20
526.9545851429747
 30
0.0
  0
ENDBLK
  5
90D
330
902
100
AcDbEntity
  8
0
100
AcDbBlockEnd
  0
BLOCK
  5
918
330
90E
100
AcDbEntity
  8
0
100
AcDbBlockBegin
  2
*D7
 70
     1
 10
0.0
 20
0.0
 30
0.0
  3
*D7
  1

  0
LINE
  5
950
330
90E
100
AcDbEntity
  8
BEM
 62
     0
370
    -2
100
AcDbLine
 10
106.6494671121176
 20
492.1220450128565
 30
0.0
 11
106.6494671121176
 21
512.9545851429748
 31
0.0
  0
LINE
  5
951
330
90E
100
AcDbEntity
  8
BEM
 62
     0
370
    -2
100
AcDbLine
 10
360.6494671121177
 20
492.1220450128558
 30
0.0
 11
360.6494671121177
 21
512.9545851429748
 31
0.0
  0
LINE
  5
952
330
90E
100
AcDbEntity
  8
BEM
 62
     0
370
    -2
100
AcDbLine
 10
113.6494671121176
 20
510.9545851429747
 30
0.0
 11
353.6494671121177
 21
510.9545851429747
 31
0.0
  0
SOLID
  5
953
330
90E
100
AcDbEntity
  8
BEM
 62
     0
100
AcDbTrace
 10
113.6494671121176
 20
512.1212518096414
 30
0.0
 11
113.6494671121176
 21
509.7879184763081
 31
0.0
 12
106.6494671121176
 22
510.9545851429747
 32
0.0
 13
106.6494671121176
 23
510.9545851429747
 33
0.0
  0
SOLID
  5
954
330
90E
100
AcDbEntity
  8
BEM
 62
     0
100
AcDbTrace
 10
353.6494671121177
 20
512.1212518096414
 30
0.0
 11
353.6494671121177
 21
509.7879184763081
 31
0.0
 12
360.6494671121177
 22
510.9545851429747
 32
0.0
 13
360.6494671121177
 23
510.9545851429747
 33
0.0
  0
MTEXT
  5
955
330
90E
100
AcDbEntity
  8
BEM
 62
     1
100
AcDbMText
 10
233.6494671121177
 20
517.4545851429748
 30
0.0
 40
7.0
 41
0.0
 71
     5
 72
     1
  1
\A1;%%c254
 73
     1
 44
1.0
  0
POINT
  5
956
330
90E
100
AcDbEntity
  8
DEFPOINTS
 62
     0
100
AcDbPoint
 10
106.6494671121176
 20
490.1220450128564
 30
0.0
  0
POINT
  5
957
330
90E
100
AcDbEntity
  8
DEFPOINTS
 62
     0
100
AcDbPoint
 10
360.6494671121177
 20
490.1220450128558
 30
0.0
  0
POINT
  5
958
330
90E
100
AcDbEntity
  8
DEFPOINTS
 62
     0
100
AcDbPoint
 10
360.6494671121177
 20
510.9545851429747
 30
0.0
  0
ENDBLK
  5
919
330
90E
100
AcDbEntity
  8
0
100
AcDbBlockEnd
  0
ENDSEC
  0
SECTION
  2
ENTITIES
  0
LINE
  5
83
330
1E
100
AcDbEntity
  8
STEMPEL
100
AcDbLine
 10
39.99999999999989
 20
10.0
 30
0.0
 11
410.0
 21
10.0
 31
0.0
  0
LINE
  5
85
330
1E
100
AcDbEntity
  8
STEMPEL
100
AcDbLine
 10
410.0
 20
10.0
 30
0.0
 11
40.0
 21
9.999999999999998
 31
0.0
  0
LINE
  5
86
330
1E
100
AcDbEntity
  8
STEMPEL
100
AcDbLine
 10
410.0
 20
10.0
 30
0.0
 11
410.0
 21
584.0
 31
0.0
  0
LINE
  5
87
330
1E
100
AcDbEntity
  8
STEMPEL
100
AcDbLine
 10
40.0
 20
10.0
 30
0.0
 11
39.99999999999989
 21
584.0
 31
0.0
  0
LINE
  5
88
330
1E
100
AcDbEntity
  8
STEMPEL
100
AcDbLine
 10
410.0
 20
584.0
 30
0.0
 11
39.99999999999987
 21
583.9999999999998
 31
0.0
  0
LINE
  5
89
330
1E
100
AcDbEntity
  8
HILF
100
AcDbLine
 10
0.0
 20
0.0
 30
0.0
 11
-0.0000000000001137
 21
594.0
 31
0.0
  0
LINE
  5
8A
330
1E
100
AcDbEntity
  8
HILF
100
AcDbLine
 10
419.9999999999999
 20
594.0000000000002
 30
0.0
 11
0.0
 21
594.0
 31
0.0
  0
LINE
  5
8B
330
1E
100
AcDbEntity
  8
HILF
100
AcDbLine
 10
420.0
 20
0.0
 30
0.0
 11
0.0
 21
0.0
 31
0.0
  0
LINE
  5
8C
330
1E
100
AcDbEntity
  8
HILF
100
AcDbLine
 10
31.08767135713856
 20
297.0
 30
0.0
 11
0.0000000000001137
 21
297.0
 31
0.0
  0
LINE
  5
8E
330
1E
100
AcDbEntity
  8
HILF
100
AcDbLine
 10
420.0
 20
-0.0000000000001137
 30
0.0
 11
419.9999999999999
 21
594.0
 31
0.0
  0
TEXT
  5
8F
330
1E
100
AcDbEntity
  8
VOLL
100
AcDbText
 10
78.07675471698113
 20
31.02594776470585
 30
0.0
 40
1.8
  1

  7
GREEKS
100
AcDbText
  0
TEXT
  5
118
330
1E
100
AcDbEntity
  8
BEM
100
AcDbText
 10
417.3022923857165
 20
10.16790107998849
 30
0.0
 40
4.0
  1
Diese Zeichnung ist urheberrechtlich geschützt und bleibt unser Eigentum. Sie darf weder ganz noch teilweise verfielfältigt und nicht an Dritte weitergegeben werden.
 50
90.0
 41
0.8
  7
GREEKS
100
AcDbText
  0
TEXT
  5
272
330
1E
100
AcDbEntity
  8
TEXT
100
AcDbText
 10
192.626132208084
 20
90.76363841023022
 30
0.0
 40
4.0
  1
DIN EN1124-3
 41
0.8
  7
GREEKS
 72
     1
 11
209.6166083985602
 21
90.76363841023022
 31
0.0
100
AcDbText
  0
TEXT
  5
273
330
1E
100
AcDbEntity
  8
TEXT
100
AcDbText
 10
194.2858954734051
 20
102.4184168434819
 30
0.0
 40
5.0
  1
Zul. Abw.
 41
0.8
  7
GREEKS
100
AcDbText
  0
TEXT
  5
274
330
1E
100
AcDbEntity
  8
TEXT
100
AcDbText
 10
204.4216048581258
 20
63.0896391972351
 30
0.0
 40
4.0
  1
Koeh
 41
0.8
  7
GREEKS
 72
     1
 11
209.6787477152686
 21
63.0896391972351
 31
0.0
100
AcDbText
  0
TEXT
  5
275
330
1E
100
AcDbEntity
  8
TEXT
100
AcDbText
 10
202.4626584226295
 20
73.30961091915225
 30
0.0
 40
4.0
  1
Name
 41
0.8
  7
GREEKS
100
AcDbText
  0
INSERT
  5
276
330
1E
100
AcDbEntity
  8
STEMPEL
100
AcDbBlockReference
  2
LOGO
 10
150.9955485457794
 20
45.02105276448321
 30
0.0
 41
2.0
 42
2.0
 43
2.0
  0
LINE
  5
277
330
1E
100
AcDbEntity
  8
HILF
100
AcDbLine
 10
146.0000000000001
 20
70.0
 30
0.0
 11
230.0
 21
70.0
 31
0.0
  0
LINE
  5
278
330
1E
100
AcDbEntity
  8
HILF
100
AcDbLine
 10
146.0000000000001
 20
60.0
 30
0.0
 11
230.0
 21
60.0
 31
0.0
  0
LINE
  5
279
330
1E
100
AcDbEntity
  8
HILF
100
AcDbLine
 10
146.0000000000001
 20
50.0
 30
0.0
 11
230.0
 21
50.0
 31
0.0
  0
LINE
  5
27B
330
1E
100
AcDbEntity
  8
STEMPEL
100
AcDbLine
 10
410.0
 20
40.0
 30
0.0
 11
146.0000000000001
 21
40.0
 31
0.0
  0
LINE
  5
27C
330
1E
100
AcDbEntity
  8
STEMPEL
100
AcDbLine
 10
410.0
 20
80.0
 30
0.0
 11
146.0000000000001
 21
79.99999999999994
 31
0.0
  0
LINE
  5
27D
330
1E
100
AcDbEntity
  8
STEMPEL
100
AcDbLine
 10
410.0
 20
110.0
 30
0.0
 11
40.0
 21
110.0
 31
0.0
  0
TEXT
  5
282
330
1E
100
AcDbEntity
  8
TEXT
100
AcDbText
 10
42.32142973901864
 20
112.7871664996321
 30
0.0
 40
5.0
  1
Erstellt mit AUTOCAD 2004
 41
0.8
  7
GREEKS
100
AcDbText
  0
TEXT
  5
283
330
1E
100
AcDbEntity
  8
TEXT
100
AcDbText
 10
67.32496897887824
 20
18.67381894984134
 30
0.0
 40
4.0
  1
Änderung
 41
0.8
  7
GREEKS
100
AcDbText
  0
LINE
  5
284
330
1E
100
AcDbEntity
  8
HILF
100
AcDbLine
 10
40.00000000000011
 20
100.0
 30
0.0
 11
146.0000000000001
 21
100.0
 31
0.0
  0
LINE
  5
285
330
1E
100
AcDbEntity
  8
HILF
100
AcDbLine
 10
40.00000000000011
 20
90.00000000000005
 30
0.0
 11
146.0000000000001
 21
90.00000000000005
 31
0.0
  0
LINE
  5
286
330
1E
100
AcDbEntity
  8
HILF
100
AcDbLine
 10
40.00000000000011
 20
79.99999999999994
 30
0.0
 11
146.0000000000001
 21
79.99999999999994
 31
0.0
  0
LINE
  5
287
330
1E
100
AcDbEntity
  8
STEMPEL
100
AcDbLine
 10
145.9999999999999
 20
30.0
 30
0.0
 11
40.0
 21
30.0
 31
0.0
  0
LINE
  5
288
330
1E
100
AcDbEntity
  8
HILF
100
AcDbLine
 10
40.00000000000011
 20
70.0
 30
0.0
 11
146.0000000000001
 21
70.0
 31
0.0
  0
LINE
  5
289
330
1E
100
AcDbEntity
  8
HILF
100
AcDbLine
 10
40.00000000000011
 20
60.0
 30
0.0
 11
146.0000000000001
 21
60.0
 31
0.0
  0
LINE
  5
28A
330
1E
100
AcDbEntity
  8
HILF
100
AcDbLine
 10
40.00000000000011
 20
50.0
 30
0.0
 11
146.0000000000001
 21
50.0
 31
0.0
  0
LINE
  5
28B
330
1E
100
AcDbEntity
  8
HILF
100
AcDbLine
 10
40.00000000000011
 20
40.0
 30
0.0
 11
146.0000000000001
 21
40.0
 31
0.0
  0
TEXT
  5
28C
330
1E
100
AcDbEntity
  8
TEXT
100
AcDbText
 10
48.26641107045759
 20
13.65465846027189
 30
0.0
 40
4.0
  1
Index
 50
90.0
 41
0.8
  7
GREEKS
100
AcDbText
  0
LINE
  5
28D
330
1E
100
AcDbEntity
  8
VOLL
100
AcDbLine
 10
54.00000000000011
 20
110.0
 30
0.0
 11
54.0
 21
10.0
 31
0.0
  0
TEXT
  5
28E
330
1E
100
AcDbEntity
  8
TEXT
100
AcDbText
 10
109.4723536997203
 20
18.67156269339807
 30
0.0
 40
4.0
  1
Tag
 41
0.8
  7
GREEKS
100
AcDbText
  0
LINE
  5
28F
330
1E
100
AcDbEntity
  8
VOLL
100
AcDbLine
 10
124.0000000000001
 20
109.9999999999999
 30
0.0
 11
124.0
 21
10.0
 31
0.0
  0
LINE
  5
290
330
1E
100
AcDbEntity
  8
VOLL
100
AcDbLine
 10
104.0000000000001
 20
109.9999999999999
 30
0.0
 11
104.0
 21
10.0
 31
0.0
  0
TEXT
  5
291
330
1E
100
AcDbEntity
  8
TEXT
100
AcDbText
 10
128.2201504717681
 20
18.59324216966411
 30
0.0
 40
4.0
  1
Name
 41
0.8
  7
GREEKS
100
AcDbText
  0
LINE
  5
292
330
1E
100
AcDbEntity
  8
STEMPEL
100
AcDbLine
 10
146.0000000000001
 20
109.9999999999999
 30
0.0
 11
146.0
 21
10.0
 31
0.0
  0
TEXT
  5
293
330
1E
100
AcDbEntity
  8
TEXT
100
AcDbText
 10
153.5163572150377
 20
102.4620895087088
 30
0.0
 40
5.0
  1
Maßstab
 41
0.8
  7
GREEKS
100
AcDbText
  0
TEXT
  5
294
330
1E
100
AcDbEntity
  8
TEXT
100
AcDbText
 10
172.331167315365
 20
73.31880501229926
 30
0.0
 40
4.0
  1
Tag
 41
0.8
  7
GREEKS
100
AcDbText
  0
TEXT
  5
295
330
1E
100
AcDbEntity
  8
TEXT
100
AcDbText
 10
171.3132828225218
 20
63.10765040825732
 30
0.0
 40
4.0
  1
01.11.
 41
0.8
  7
GREEKS
 72
     1
 11
177.4085209177599
 21
63.10765040825732
 31
0.0
100
AcDbText
  0
LINE
  5
296
330
1E
100
AcDbEntity
  8
VOLL
100
AcDbLine
 10
164.0000000000001
 20
79.99999999999994
 30
0.0
 11
164.0000000000001
 21
40.0
 31
0.0
  0
TEXT
  5
297
330
1E
100
AcDbEntity
  8
TEXT
100
AcDbText
 10
147.5836127167615
 20
63.62990369617967
 30
0.0
 40
4.0
  1
Gez.
 41
0.8
  7
GREEKS
100
AcDbText
  0
TEXT
  5
298
330
1E
100
AcDbEntity
  8
TEXT
100
AcDbText
 10
147.5515086571672
 20
53.68926291428374
 30
0.0
 40
4.0
  1
Gepr.
 41
0.8
  7
GREEKS
100
AcDbText
  0
TEXT
  5
299
330
1E
100
AcDbEntity
  8
TEXT
100
AcDbText
 10
147.6006777387303
 20
43.5294638964981
 30
0.0
 40
4.0
  1
Norm.
 41
0.8
  7
GREEKS
100
AcDbText
  0
TEXT
  5
29A
330
1E
100
AcDbEntity
  8
TEXT
 62
     1
100
AcDbText
 10
160.5006306481887
 20
88.14901428913959
 30
0.0
 40
7.0
  1
1:2
 41
0.8
  7
GREEKS
100
AcDbText
  0
TEXT
  5
29B
330
1E
100
AcDbEntity
  8
TEXT
100
AcDbText
 10
148.622109822104
 20
73.14025471151666
 30
0.0
 40
4.0
  1
2010
 41
0.8
  7
GREEKS
100
AcDbText
  0
LINE
  5
29C
330
1E
100
AcDbEntity
  8
VOLL
100
AcDbLine
 10
190.0000000000001
 20
109.9999999999998
 30
0.0
 11
190.0
 21
40.0
 31
0.0
  0
TEXT
  5
2D6
330
1E
100
AcDbEntity
  8
TEXT
100
AcDbText
 10
336.178754957634
 20
102.3132034537136
 30
0.0
 40
5.0
  1
Zeichnungs Nr.
 41
0.8
  7
GREEKS
100
AcDbText
  0
TEXT
  5
2D7
330
1E
100
AcDbEntity
  8
TEXT
100
AcDbText
 10
336.7238616296993
 20
73.1811823709997
 30
0.0
 40
5.0
  1
Ersatz für:
 41
0.8
  7
GREEKS
100
AcDbText
  0
TEXT
  5
2D8
330
1E
100
AcDbEntity
  8
TEXT
100
AcDbText
 10
337.2400861497006
 20
52.07416177878599
 30
0.0
 40
5.0
  1
ersetzt durch:
 41
0.8
  7
GREEKS
100
AcDbText
  0
LINE
  5
2D9
330
1E
100
AcDbEntity
  8
HILF
100
AcDbLine
 10
336.7238616296993
 20
83.77983636955827
 30
0.0
 11
404.8588839326728
 21
83.77983636955827
 31
0.0
  0
LINE
  5
2DA
330
1E
100
AcDbEntity
  8
VOLL
100
AcDbLine
 10
332.0
 20
60.0
 30
0.0
 11
410.0
 21
60.0
 31
0.0
  0
LINE
  5
2DB
330
1E
100
AcDbEntity
  8
HILF
100
AcDbLine
 10
234.7736801096947
 20
84.03758247564139
 30
0.0
 11
324.8353916556311
 21
84.03758247564139
 31
0.0
  0
LINE
  5
2DC
330
1E
100
AcDbEntity
  8
HILF
100
AcDbLine
 10
234.7736801096947
 20
70.0
 30
0.0
 11
324.8353916556309
 21
70.0
 31
0.0
  0
LINE
  5
2DD
330
1E
100
AcDbEntity
  8
HILF
100
AcDbLine
 10
234.7736801096947
 20
60.0
 30
0.0
 11
324.8353916556309
 21
60.0
 31
0.0
  0
LINE
  5
2DE
330
1E
100
AcDbEntity
  8
HILF
100
AcDbLine
 10
234.7736801096947
 20
50.0
 30
0.0
 11
324.8353916556309
 21
50.0
 31
0.0
  0
TEXT
  5
2DF
330
1E
100
AcDbEntity
  8
TEXT
100
AcDbText
 10
235.1296391125316
 20
51.64011943042158
 30
0.0
 40
5.0
  1
EDV-Art.Nr. 21982.125X
 41
0.8
  7
GREEKS
100
AcDbText
  0
TEXT
  5
2E0
330
1E
100
AcDbEntity
  8
TEXT
 62
     1
100
AcDbText
 10
234.8934189602656
 20
87.41748789253779
 30
0.0
 40
7.0
  1
Ablaufkörper DN125
 41
0.8
  7
GREEKS
100
AcDbText
  0
LINE
  5
2E1
330
1E
100
AcDbEntity
  8
STEMPEL
100
AcDbLine
 10
230.0
 20
110.0
 30
0.0
 11
230.0
 21
10.0
 31
0.0
  0
TEXT
  5
2E2
330
1E
100
AcDbEntity
  8
TEXT
100
AcDbText
 10
234.877940380901
 20
102.5489328011779
 30
0.0
 40
5.0
  1
Benennung
 41
0.8
  7
GREEKS
100
AcDbText
  0
TEXT
  5
2E3
330
1E
100
AcDbEntity
  8
TEXT
100
AcDbText
 10
234.742238391136
 20
30.8456057019306
 30
0.0
 40
5.0
  1
Bauvorhaben
 41
0.8
  7
GREEKS
100
AcDbText
  0
TEXT
  5
2E4
330
1E
100
AcDbEntity
  8
TEXT
100
AcDbText
 10
234.9837501577827
 20
42.62974153022628
 30
0.0
 40
4.0
  1
21983125W.DWG
 41
0.8
  7
GREEKS
100
AcDbText
  0
LINE
  5
2E5
330
1E
100
AcDbEntity
  8
STEMPEL
100
AcDbLine
 10
332.0
 20
109.9999999999997
 30
0.0
 11
332.0
 21
40.0
 31
0.0
  0
TEXT
  5
2EA
330
1E
100
AcDbEntity
  8
TEXT
 62
     1
100
AcDbText
 10
346.1687312080341
 20
88.14901428913959
 30
0.0
 40
7.0
  1
21983125W
 41
0.8
  7
GREEKS
 72
     1
 11
369.1020645413674
 21
88.14901428913959
 31
0.0
100
AcDbText
  0
LINE
  5
31C
330
1E
100
AcDbEntity
  8
HILF
100
AcDbLine
 10
233.4909699289885
 20
14.89398258028314
 30
0.0
 11
404.8588839326728
 21
14.89398258028314
 31
0.0
  0
TEXT
  5
5BD
330
1E
100
AcDbEntity
  8
TEXT
100
AcDbText
 10
235.1296391125316
 20
71.64011943042158
 30
0.0
 40
5.0
  1
mit Wärmedämmung und Heizung
 41
0.7
  7
GREEKS
100
AcDbText
  0
TEXT
  5
5C5
330
1E
100
AcDbEntity
  8
TEXT
 62
     1
100
AcDbText
 10
248.6070685112174
 20
123.9233593715914
 30
0.0
 40
7.0
  1
Dämmung: Styropor SE WLG 0.35
 41
0.8
  7
GREEKS
 72
     1
 11
321.4070685112174
 21
123.9233593715914
 31
0.0
100
AcDbText
  0
TEXT
  5
5C6
330
1E
100
AcDbEntity
  8
TEXT
 62
     1
100
AcDbText
 10
251.4820966442579
 20
136.1938916486731
 30
0.0
 40
7.0
  1
Werkstoff: 1.4301/1.4571
 41
0.8
  7
GREEKS
 72
     1
 11
304.1487633109245
 21
136.1938916486731
 31
0.0
100
AcDbText
  0
TEXT
  5
7FE
330
1E
100
AcDbEntity
  8
TEXT
 62
     1
100
AcDbText
 10
314.9452124505014
 20
229.8687847392509
 30
0.0
 40
7.0
  1
EDV-Art.Nr. 19853.000X
 41
0.7
  7
GREEKS
100
AcDbText
  0
TEXT
  5
7FF
330
1E
100
AcDbEntity
  8
TEXT
 62
     1
100
AcDbText
 10
314.9452124505014
 20
244.8314905336173
 30
0.0
 40
7.0
  1
Heizbandkabel
 41
0.8
  7
GREEKS
100
AcDbText
  0
LINE
  5
800
330
1E
100
AcDbEntity
  8
TEXT
 62
     2
100
AcDbLine
 10
313.146120456035
 20
240.6863399239056
 30
0.0
 11
406.880962293542
 21
240.6863399239056
 31
0.0
  0
ARC
  5
801
330
1E
100
AcDbEntity
  8
STEMPEL
100
AcDbCircle
 10
164.1494671121173
 20
425.0643103090388
 30
0.0
 40
2.0
100
AcDbArc
 50
90.0
 51
180.0
  0
ARC
  5
802
330
1E
100
AcDbEntity
  8
STEMPEL
100
AcDbCircle
 10
164.1494671121173
 20
419.0643103090389
 30
0.0
 40
2.0
100
AcDbArc
 50
180.0
 51
270.0
  0
ARC
  5
803
330
1E
100
AcDbEntity
  8
STEMPEL
100
AcDbCircle
 10
164.1494671121173
 20
425.0643103090388
 30
0.0
 40
1.0
100
AcDbArc
 50
90.0
 51
180.0
  0
ARC
  5
804
330
1E
100
AcDbEntity
  8
STEMPEL
100
AcDbCircle
 10
164.1494671121173
 20
419.0643103090389
 30
0.0
 40
1.0
100
AcDbArc
 50
180.0
 51
270.0
  0
HATCH
  5
805
330
1E
100
AcDbEntity
  8
SCHRAFF
100
AcDbHatch
 10
0.0
 20
0.0
 30
0.0
210
0.0
220
0.0
230
1.0
  2
NET
 70
     0
 71
     0
 91
        2
 92
        7
 72
     1
 73
     1
 93
        8
 10
162.1494671121173
 20
425.0643103090388
 42
-0.4142135623730618
 10
164.1494671121171
 20
427.0643103090389
 42
0.0
 10
165.1494671121173
 20
427.064310309039
 42
-0.4142135623730951
 10
167.1494671121173
 20
425.0643103090389
 42
0.0
 10
167.1494671121173
 20
419.0643103090388
 42
-0.4142135623730951
 10
165.1494671121173
 20
417.0643103090388
 42
0.0
 10
164.1494671121173
 20
417.0643103090388
 42
-0.4142135623730951
 10
162.1494671121173
 20
419.0643103090389
 42
0.0
 97
        0
 92
       22
 72
     1
 73
     1
 93
        8
 10
163.1494671121173
 20
419.0643103090389
 42
0.4142135623730951
 10
164.1494671121173
 20
418.0643103090388
 42
0.0
 10
165.1494671121173
 20
418.0643103090388
 42
0.4142135623730951
 10
166.1494671121173
 20
419.0643103090388
 42
0.0
 10
166.1494671121173
 20
425.0643103090389
 42
0.4142135623731284
 10
165.1494671121172
 20
426.064310309039
 42
0.0
 10
164.1494671121173
 20
426.0643103090388
 42
0.4142135623730951
 10
163.1494671121173
 20
425.0643103090388
 42
0.0
 97
        0
 75
     0
 76
     1
 52
45.0
 41
10.0
 77
     0
 78
     2
 53
134.9999999999998
 43
457.4252392656352
 44
73.96016077348315
 45
0.8838834764831872
 46
0.8838834764831815
 79
     0
 53
44.99999999999981
 43
457.4252392656352
 44
73.96016077348315
 45
0.8838834764831815
 46
-0.8838834764831872
 79
     0
 47
0.2432155912222071
 98
        2
 10
162.4370367049642
 20
419.3834857016831
 10
162.4370367049642
 20
419.3834857016831
  0
HATCH
  5
806
330
1E
100
AcDbEntity
  8
SCHRAFF
100
AcDbHatch
 10
0.0
 20
0.0
 30
0.0
210
0.0
220
0.0
230
1.0
  2
_USER
 70
     0
 71
     0
 91
        1
 92
        7
 72
     1
 73
     1
 93
        8
 10
163.1494671121173
 20
425.0643103090388
 42
-0.4142135623730951
 10
164.1494671121173
 20
426.0643103090388
 42
0.0
 10
165.1494671121173
 20
426.064310309039
 42
-0.4142135623730951
 10
166.1494671121173
 20
425.0643103090389
 42
0.0
 10
166.1494671121173
 20
419.0643103090388
 42
-0.4142135623730951
 10
165.1494671121173
 20
418.0643103090388
 42
0.0
 10
164.1494671121173
 20
418.0643103090388
 42
-0.4142135623730951
 10
163.1494671121173
 20
419.0643103090389
 42
0.0
 97
        0
 75
     0
 76
     0
 52
135.0
 41
1.0
 77
     0
 78
     1
 53
135.0
 43
0.0
 44
0.0
 45
-0.7071067811865476
 46
-0.7071067811865475
 79
     0
 47
0.1071053300341939
 98
        1
 10
164.5843171003249
 20
421.8403857426156
  0
LINE
  5
807
330
1E
100
AcDbEntity
  8
STEMPEL
  6
Continuous
100
AcDbLine
 10
167.1494671121173
 20
425.0643103090389
 30
0.0
 11
167.1494671121173
 21
419.0643103090388
 31
0.0
  0
LINE
  5
808
330
1E
100
AcDbEntity
  8
STEMPEL
  6
Continuous
100
AcDbLine
 10
166.1494671121173
 20
425.0643103090389
 30
0.0
 11
166.1494671121173
 21
419.0643103090388
 31
0.0
  0
ARC
  5
809
330
1E
100
AcDbEntity
  8
STEMPEL
100
AcDbCircle
 10
165.1494671121173
 20
419.0643103090389
 30
0.0
 40
2.0
100
AcDbArc
 50
270.0
 51
0.0
  0
LINE
  5
80A
330
1E
100
AcDbEntity
  8
STEMPEL
100
AcDbLine
 10
165.1494671121173
 20
417.0643103090388
 30
0.0
 11
164.1494671121173
 21
417.0643103090388
 31
0.0
  0
ARC
  5
80B
330
1E
100
AcDbEntity
  8
STEMPEL
100
AcDbCircle
 10
165.1494671121173
 20
419.0643103090389
 30
0.0
 40
1.0
100
AcDbArc
 50
270.0
 51
0.0
  0
LINE
  5
80C
330
1E
100
AcDbEntity
  8
STEMPEL
100
AcDbLine
 10
165.1494671121173
 20
418.0643103090388
 30
0.0
 11
164.1494671121173
 21
418.0643103090388
 31
0.0
  0
ARC
  5
80D
330
1E
100
AcDbEntity
  8
STEMPEL
100
AcDbCircle
 10
165.1494671121173
 20
425.0643103090389
 30
0.0
 40
2.0
100
AcDbArc
 50
0.0
 51
90.0
  0
LINE
  5
80E
330
1E
100
AcDbEntity
  8
STEMPEL
100
AcDbLine
 10
164.1494671121173
 20
427.0643103090389
 30
0.0
 11
165.1494671121173
 21
427.064310309039
 31
0.0
  0
ARC
  5
80F
330
1E
100
AcDbEntity
  8
STEMPEL
100
AcDbCircle
 10
165.1494671121173
 20
425.0643103090389
 30
0.0
 40
1.0
100
AcDbArc
 50
0.0
 51
90.0
  0
LINE
  5
810
330
1E
100
AcDbEntity
  8
STEMPEL
100
AcDbLine
 10
165.1494671121173
 20
426.064310309039
 30
0.0
 11
164.1494671121173
 21
426.0643103090388
 31
0.0
  0
LINE
  5
811
330
1E
100
AcDbEntity
  8
STEMPEL
  6
Continuous
100
AcDbLine
 10
162.1494671121173
 20
425.0643103090388
 30
0.0
 11
162.1494671121173
 21
419.0643103090389
 31
0.0
  0
LINE
  5
812
330
1E
100
AcDbEntity
  8
STEMPEL
  6
Continuous
100
AcDbLine
 10
163.1494671121173
 20
425.0643103090388
 30
0.0
 11
163.1494671121173
 21
419.0643103090389
 31
0.0
  0
HATCH
  5
813
330
1E
100
AcDbEntity
  8
SCHRAFF
100
AcDbHatch
 10
0.0
 20
0.0
 30
0.0
210
0.0
220
0.0
230
1.0
  2
HONEY
 70
     0
 71
     1
 91
        2
 92
        7
 72
     1
 73
     1
 93
       10
 10
311.1494671121174
 20
317.1220450128552
 42
0.0
 10
310.1494671121181
 20
315.922045012856
 42
0.0
 10
310.149467112118
 20
297.1220450128551
 42
0.0
 10
325.9175623596198
 20
297.1220450128551
 42
0.3870924378343681
 10
328.9044650377976
 20
299.8420228867766
 42
0.0
 10
343.6494671121177
 20
457.1220450128565
 42
0.0
 10
328.6494671121184
 20
457.1220450128566
 42
0.0
 10
322.6494671121176
 20
452.1220450128557
 42
0.0
 10
322.6494671121175
 20
432.1220450128556
 42
0.0
 10
311.1494671121175
 20
387.1220450128547
 42
0.0
 97
       10
330
899
330
853
330
849
330
84A
330
84C
330
84F
330
82F
330
856
330
860
330
85F
 92
        7
 72
     1
 73
     1
 93
       10
 10
156.1494671121175
 20
387.1220450128555
 42
0.0
 10
144.6494671121175
 20
432.1220450128556
 42
0.0
 10
144.6494671121175
 20
452.1220450128558
 42
0.0
 10
138.6494671121166
 20
457.1220450128566
 42
0.0
 10
123.6494671121174
 20
457.1220450128566
 42
0.0
 10
138.3944691864375
 20
299.8420228867766
 42
0.3870924378342832
 10
141.3813718646154
 20
297.1220450128559
 42
0.0
 10
167.1494671121179
 20
297.1220450128559
 42
0.0
 10
167.1494671121179
 20
303.9220450128552
 42
0.0
 10
156.1494671121173
 20
317.1220450128558
 42
0.0
 97
       10
330
846
330
847
330
854
330
8BD
330
866
330
865
330
864
330
86F
330
850
330
848
 75
     0
 76
     1
 52
0.0
 41
35.0
 77
     0
 78
     3
 53
0.0
 43
0.0
 44
0.0
 45
6.5625
 46
3.788861124999999
 79
     2
 49
4.375
 49
-8.75
 53
120.0
 43
0.0
 44
0.0
 45
-6.562499985661285
 46
3.788861149835379
 79
     2
 49
4.374999999999998
 49
-8.749999999999996
 53
60.0
 43
0.0
 44
0.0
 45
0.000000014338714
 46
7.577722274835378
 79
     2
 49
-8.75
 49
4.375
 47
0.4951705886887538
 98
        2
 10
321.755816576472
 20
337.9953686048111
 10
144.9247269830582
 20
361.7635560707558
  0
POLYLINE
  5
814
330
1E
100
AcDbEntity
  8
STEMPEL
100
AcDb2dPolyline
 66
     1
 10
0.0
 20
0.0
 30
0.0
  0
VERTEX
  5
815
330
814
100
AcDbEntity
  8
STEMPEL
100
AcDbVertex
100
AcDb2dVertex
 10
310.1494671121181
 20
297.1220450128551
 30
0.0
  0
VERTEX
  5
816
330
814
100
AcDbEntity
  8
STEMPEL
100
AcDbVertex
100
AcDb2dVertex
 10
310.144011320757
 20
290.2549539700992
 30
0.0
  0
VERTEX
  5
817
330
814
100
AcDbEntity
  8
STEMPEL
100
AcDbVertex
100
AcDb2dVertex
 10
310.2114629953202
 20
285.0012078568775
 30
0.0
  0
VERTEX
  5
818
330
814
100
AcDbEntity
  8
STEMPEL
100
AcDbVertex
100
AcDb2dVertex
 10
310.408886681932
 20
280.9224284569899
 30
0.0
  0
VERTEX
  5
819
330
814
100
AcDbEntity
  8
STEMPEL
100
AcDbVertex
100
AcDb2dVertex
 10
310.7838698707847
 20
277.4913168736278
 30
0.0
  0
VERTEX
  5
81A
330
814
100
AcDbEntity
  8
STEMPEL
100
AcDbVertex
100
AcDb2dVertex
 10
311.4090457279486
 20
274.0714607795735
 30
0.0
  0
VERTEX
  5
81B
330
814
100
AcDbEntity
  8
STEMPEL
100
AcDbVertex
100
AcDb2dVertex
 10
312.3971277423217
 20
270.0369299041644
 30
0.0
  0
VERTEX
  5
81C
330
814
100
AcDbEntity
  8
STEMPEL
100
AcDbVertex
100
AcDb2dVertex
 10
313.8511125968806
 20
264.8754482859388
 30
0.0
  0
VERTEX
  5
81D
330
814
100
AcDbEntity
  8
STEMPEL
100
AcDbVertex
100
AcDb2dVertex
 10
315.8404999188484
 20
258.1524338043254
 30
0.0
  0
SEQEND
  5
81E
330
814
100
AcDbEntity
  8
STEMPEL
  0
LINE
  5
81F
330
1E
100
AcDbEntity
  8
TEXT
 62
     2
100
AcDbLine
 10
313.146120456035
 20
240.6863399239056
 30
0.0
 11
310.2584684692362
 21
258.9110147072152
 31
0.0
  0
LINE
  5
820
330
1E
100
AcDbEntity
  8
MITTEL
100
AcDbLine
 10
318.7171990795743
 20
259.0036693408716
 30
0.0
 11
305.2926029961869
 21
255.0312368369896
 31
0.0
  0
POLYLINE
  5
821
330
1E
100
AcDbEntity
  8
STEMPEL
100
AcDb2dPolyline
 66
     1
 10
0.0
 20
0.0
 30
0.0
 70
     4
 75
     6
  0
VERTEX
  5
822
330
821
100
AcDbEntity
  8
STEMPEL
100
AcDbVertex
100
AcDb2dVertex
 10
300.1494757899598
 20
297.1284008798215
 30
0.0
 70
    16
  0
VERTEX
  5
823
330
821
100
AcDbEntity
  8
STEMPEL
100
AcDbVertex
100
AcDb2dVertex
 10
300.1494757899598
 20
297.1284008798215
 30
0.0
 70
     8
  0
VERTEX
  5
824
330
821
100
AcDbEntity
  8
STEMPEL
100
AcDbVertex
100
AcDb2dVertex
 10
300.8041308935953
 20
290.2067787894868
 30
0.0
 70
     8
  0
VERTEX
  5
825
330
821
100
AcDbEntity
  8
STEMPEL
100
AcDbVertex
100
AcDb2dVertex
 10
301.3701993716793
 20
284.7563955848179
 30
0.0
 70
     8
  0
VERTEX
  5
826
330
821
100
AcDbEntity
  8
STEMPEL
100
AcDbVertex
100
AcDb2dVertex
 10
301.9416635644494
 20
280.2939005411318
 30
0.0
 70
     8
  0
VERTEX
  5
827
330
821
100
AcDbEntity
  8
STEMPEL
100
AcDbVertex
100
AcDb2dVertex
 10
302.6125058121433
 20
276.3359429337453
 30
0.0
 70
     8
  0
VERTEX
  5
828
330
821
100
AcDbEntity
  8
STEMPEL
100
AcDbVertex
100
AcDb2dVertex
 10
303.4767084549989
 20
272.3991720379755
 30
0.0
 70
     8
  0
VERTEX
  5
829
330
821
100
AcDbEntity
  8
STEMPEL
100
AcDbVertex
100
AcDb2dVertex
 10
304.6282538332538
 20
268.0002371291394
 30
0.0
 70
     8
  0
VERTEX
  5
82A
330
821
100
AcDbEntity
  8
STEMPEL
100
AcDbVertex
100
AcDb2dVertex
 10
306.1611242871457
 20
262.6557874825538
 30
0.0
 70
     8
  0
VERTEX
  5
82B
330
821
100
AcDbEntity
  8
STEMPEL
100
AcDbVertex
100
AcDb2dVertex
 10
308.1693021569125
 20
255.8824723735357
 30
0.0
 70
     8
  0
VERTEX
  5
82C
330
821
100
AcDbEntity
  8
STEMPEL
100
AcDbVertex
100
AcDb2dVertex
 10
302.0968780917123
 20
276.2794450361009
 30
0.0
 70
    16
  0
VERTEX
  5
82D
330
821
100
AcDbEntity
  8
STEMPEL
100
AcDbVertex
100
AcDb2dVertex
 10
308.1693021569126
 20
255.8824723735358
 30
0.0
 70
    16
  0
SEQEND
  5
82E
330
821
100
AcDbEntity
  8
STEMPEL
  0
LINE
  5
82F
102
{ACAD_REACTORS
330
813
102
}
330
1E
100
AcDbEntity
  8
STEMPEL
  6
Continuous
100
AcDbLine
 10
310.1494671121181
 20
417.6171283195835
 30
0.0
 11
310.1494671121181
 21
297.1220450128552
 31
0.0
  0
ARC
  5
830
330
1E
100
AcDbEntity
  8
STEMPEL
100
AcDbCircle
 10
299.3356392407148
 20
417.0923195796537
 30
0.0
 40
10.82655519756146
100
AcDbArc
 50
357.2215433564732
 51
63.22048523125464
  0
LINE
  5
831
330
1E
100
AcDbEntity
  8
STEMPEL
  6
Continuous
100
AcDbLine
 10
304.1494671121179
 20
425.0643103090387
 30
0.0
 11
304.1494671121179
 21
419.0643103090386
 31
0.0
  0
LINE
  5
832
330
1E
100
AcDbEntity
  8
STEMPEL
  6
Continuous
100
AcDbLine
 10
305.1494671121179
 20
425.0643103090387
 30
0.0
 11
305.1494671121179
 21
419.0643103090386
 31
0.0
  0
LINE
  5
833
330
1E
100
AcDbEntity
  8
STEMPEL
100
AcDbLine
 10
302.1494671121179
 20
426.0643103090387
 30
0.0
 11
303.1494671121178
 21
426.0643103090386
 31
0.0
  0
ARC
  5
834
330
1E
100
AcDbEntity
  8
STEMPEL
100
AcDbCircle
 10
302.1494671121179
 20
425.0643103090387
 30
0.0
 40
1.0
100
AcDbArc
 50
90.0
 51
180.0
  0
LINE
  5
835
330
1E
100
AcDbEntity
  8
STEMPEL
100
AcDbLine
 10
303.1494671121178
 20
427.0643103090386
 30
0.0
 11
302.1494671121179
 21
427.0643103090387
 31
0.0
  0
ARC
  5
836
330
1E
100
AcDbEntity
  8
STEMPEL
100
AcDbCircle
 10
302.1494671121179
 20
425.0643103090387
 30
0.0
 40
2.0
100
AcDbArc
 50
90.0
 51
180.0
  0
LINE
  5
837
330
1E
100
AcDbEntity
  8
STEMPEL
100
AcDbLine
 10
302.1494671121179
 20
418.0643103090386
 30
0.0
 11
303.1494671121178
 21
418.0643103090386
 31
0.0
  0
ARC
  5
838
330
1E
100
AcDbEntity
  8
STEMPEL
100
AcDbCircle
 10
302.1494671121179
 20
419.0643103090386
 30
0.0
 40
1.0
100
AcDbArc
 50
180.0
 51
270.0
  0
LINE
  5
839
330
1E
100
AcDbEntity
  8
STEMPEL
100
AcDbLine
 10
302.1494671121179
 20
417.0643103090386
 30
0.0
 11
303.1494671121178
 21
417.0643103090386
 31
0.0
  0
ARC
  5
83A
330
1E
100
AcDbEntity
  8
STEMPEL
100
AcDbCircle
 10
302.1494671121179
 20
419.0643103090386
 30
0.0
 40
2.0
100
AcDbArc
 50
180.0
 51
270.0
  0
LINE
  5
83B
330
1E
100
AcDbEntity
  8
STEMPEL
  6
Continuous
100
AcDbLine
 10
301.1494671121178
 20
425.0643103090387
 30
0.0
 11
301.1494671121178
 21
419.0643103090386
 31
0.0
  0
LINE
  5
83C
330
1E
100
AcDbEntity
  8
STEMPEL
  6
Continuous
100
AcDbLine
 10
300.1494671121179
 20
425.0643103090387
 30
0.0
 11
300.1494671121179
 21
419.0643103090386
 31
0.0
  0
HATCH
  5
83D
330
1E
100
AcDbEntity
  8
SCHRAFF
100
AcDbHatch
 10
0.0
 20
0.0
 30
0.0
210
0.0
220
0.0
230
1.0
  2
_USER
 70
     0
 71
     0
 91
        1
 92
        7
 72
     1
 73
     1
 93
        8
 10
304.1494671121179
 20
425.0643103090387
 42
0.4142135623730951
 10
303.1494671121178
 20
426.0643103090386
 42
0.0
 10
302.1494671121179
 20
426.0643103090387
 42
0.4142135623730951
 10
301.1494671121178
 20
425.0643103090387
 42
0.0
 10
301.1494671121178
 20
419.0643103090386
 42
0.4142135623730951
 10
302.1494671121179
 20
418.0643103090386
 42
0.0
 10
303.1494671121178
 20
418.0643103090386
 42
0.4142135623730951
 10
304.1494671121179
 20
419.0643103090386
 42
0.0
 97
        0
 75
     0
 76
     0
 52
135.0
 41
1.0
 77
     0
 78
     1
 53
135.0
 43
42.21954836027606
 44
42.65719633870253
 45
-0.7071067811865476
 46
-0.7071067811865475
 79
     0
 47
0.1071053300341939
 98
        1
 10
302.7146171239103
 20
421.8403857426153
  0
HATCH
  5
83E
330
1E
100
AcDbEntity
  8
SCHRAFF
100
AcDbHatch
 10
0.0
 20
0.0
 30
0.0
210
0.0
220
0.0
230
1.0
  2
NET
 70
     0
 71
     0
 91
        2
 92
        7
 72
     1
 73
     1
 93
        8
 10
305.1494671121179
 20
425.0643103090387
 42
0.4142135623730618
 10
303.1494671121181
 20
427.0643103090386
 42
0.0
 10
302.1494671121179
 20
427.0643103090387
 42
0.4142135623730951
 10
300.1494671121179
 20
425.0643103090387
 42
0.0
 10
300.1494671121179
 20
419.0643103090386
 42
0.4142135623730951
 10
302.1494671121179
 20
417.0643103090386
 42
0.0
 10
303.1494671121178
 20
417.0643103090386
 42
0.4142135623730951
 10
305.1494671121179
 20
419.0643103090386
 42
0.0
 97
        0
 92
       22
 72
     1
 73
     1
 93
        8
 10
304.1494671121179
 20
419.0643103090386
 42
-0.4142135623730951
 10
303.1494671121178
 20
418.0643103090386
 42
0.0
 10
302.1494671121179
 20
418.0643103090386
 42
-0.4142135623730951
 10
301.1494671121178
 20
419.0643103090386
 42
0.0
 10
301.1494671121178
 20
425.0643103090387
 42
-0.4142135623731284
 10
302.149467112118
 20
426.0643103090387
 42
0.0
 10
303.1494671121178
 20
426.0643103090386
 42
-0.4142135623730951
 10
304.1494671121179
 20
425.0643103090387
 42
0.0
 97
        0
 75
     0
 76
     1
 52
45.0
 41
10.0
 77
     0
 78
     2
 53
45.0
 43
9.873694958598832
 44
73.96016077348395
 45
-0.8838834764831842
 46
0.8838834764831844
 79
     0
 53
135.0
 43
9.873694958598832
 44
73.96016077348395
 45
-0.8838834764831844
 46
-0.8838834764831842
 79
     0
 47
0.2432155912222071
 98
        2
 10
304.8618975192709
 20
419.3834857016829
 10
304.8618975192709
 20
419.3834857016829
  0
ARC
  5
83F
330
1E
100
AcDbEntity
  8
STEMPEL
100
AcDbCircle
 10
303.1494671121178
 20
419.0643103090386
 30
0.0
 40
1.0
100
AcDbArc
 50
270.0
 51
0.0
  0
ARC
  5
840
330
1E
100
AcDbEntity
  8
STEMPEL
100
AcDbCircle
 10
303.1494671121178
 20
425.0643103090387
 30
0.0
 40
1.0
100
AcDbArc
 50
0.0
 51
90.0
  0
ARC
  5
841
330
1E
100
AcDbEntity
  8
STEMPEL
100
AcDbCircle
 10
303.1494671121178
 20
419.0643103090386
 30
0.0
 40
2.0
100
AcDbArc
 50
270.0
 51
0.0
  0
ARC
  5
842
330
1E
100
AcDbEntity
  8
STEMPEL
100
AcDbCircle
 10
303.1494671121178
 20
425.0643103090387
 30
0.0
 40
2.0
100
AcDbArc
 50
0.0
 51
90.0
  0
LINE
  5
843
330
1E
100
AcDbEntity
  8
STEMPEL
100
AcDbLine
 10
304.0212661014465
 20
432.1220450128558
 30
0.0
 11
322.6494671121175
 21
432.1220450128558
 31
0.0
  0
LINE
  5
844
330
1E
100
AcDbEntity
  8
STEMPEL
  6
Continuous
100
AcDbLine
 10
310.149467112118
 20
317.122045012855
 30
0.0
 11
311.1494671121174
 21
317.1220450128551
 31
0.0
  0
LINE
  5
845
330
1E
100
AcDbEntity
  8
STEMPEL
100
AcDbLine
 10
167.1494671121178
 20
387.1220450128557
 30
0.0
 11
156.1494671121175
 21
387.1220450128557
 31
0.0
  0
LINE
  5
846
102
{ACAD_REACTORS
330
813
102
}
330
1E
100
AcDbEntity
  8
STEMPEL
100
AcDbLine
 10
144.6494671121175
 20
432.1220450128558
 30
0.0
 11
156.1494671121175
 21
387.1220450128557
 31
0.0
  0
LINE
  5
847
102
{ACAD_REACTORS
330
813
102
}
330
1E
100
AcDbEntity
  8
STEMPEL
100
AcDbLine
 10
144.6494671121175
 20
452.1220450128556
 30
0.0
 11
144.6494671121175
 21
432.1220450128558
 31
0.0
  0
LINE
  5
848
102
{ACAD_REACTORS
330
813
102
}
330
1E
100
AcDbEntity
  8
STEMPEL
100
AcDbLine
 10
156.1494671121175
 20
387.1220450128557
 30
0.0
 11
156.1494671121174
 21
317.1220450128559
 31
0.0
  0
LINE
  5
849
102
{ACAD_REACTORS
330
813
102
}
330
1E
100
AcDbEntity
  8
STEMPEL
100
AcDbLine
 10
322.6494671121176
 20
452.1220450128556
 30
0.0
 11
322.6494671121176
 21
432.1220450128558
 31
0.0
  0
LINE
  5
84A
102
{ACAD_REACTORS
330
813
102
}
330
1E
100
AcDbEntity
  8
STEMPEL
100
AcDbLine
 10
322.6494671121176
 20
432.1220450128558
 30
0.0
 11
311.1494671121176
 21
387.1220450128553
 31
0.0
  0
LINE
  5
84B
330
1E
100
AcDbEntity
  8
STEMPEL
100
AcDbLine
 10
144.6494671121175
 20
432.1220450128558
 30
0.0
 11
163.2776681227887
 21
432.1220450128557
 31
0.0
  0
LINE
  5
84C
102
{ACAD_REACTORS
330
813
102
}
330
1E
100
AcDbEntity
  8
STEMPEL
100
AcDbLine
 10
311.1494671121175
 20
387.1220450128554
 30
0.0
 11
311.1494671121174
 21
317.1220450128551
 31
0.0
  0
LINE
  5
84D
330
1E
100
AcDbEntity
  8
STEMPEL
100
AcDbLine
 10
311.1494671121175
 20
387.1220450128553
 30
0.0
 11
310.1494671121181
 21
387.1220450128554
 31
0.0
  0
LINE
  5
84E
330
1E
100
AcDbEntity
  8
STEMPEL
  6
Continuous
100
AcDbLine
 10
156.1494671121174
 20
317.1220450128559
 30
0.0
 11
167.1494671121179
 21
317.1220450128558
 31
0.0
  0
LINE
  5
84F
102
{ACAD_REACTORS
330
813
102
}
330
1E
100
AcDbEntity
  8
STEMPEL
100
AcDbLine
 10
310.149467112118
 20
315.9220450128558
 30
0.0
 11
311.1494671121174
 21
317.1220450128551
 31
0.0
  0
LINE
  5
850
102
{ACAD_REACTORS
330
813
102
}
330
1E
100
AcDbEntity
  8
STEMPEL
100
AcDbLine
 10
167.1494671121179
 20
303.9220450128552
 30
0.0
 11
156.1494671121174
 21
317.1220450128559
 31
0.0
  0
LINE
  5
851
330
1E
100
AcDbEntity
  8
STEMPEL
100
AcDbLine
 10
318.6435462594122
 20
452.1220450128555
 30
0.0
 11
322.6494671121176
 21
452.1220450128556
 31
0.0
  0
LINE
  5
852
330
1E
100
AcDbEntity
  8
STEMPEL
100
AcDbLine
 10
144.6494671121175
 20
452.1220450128556
 30
0.0
 11
148.655387964823
 21
452.1220450128555
 31
0.0
  0
LINE
  5
853
102
{ACAD_REACTORS
330
813
102
}
330
1E
100
AcDbEntity
  8
STEMPEL
100
AcDbLine
 10
328.6494671121176
 20
457.1220450128558
 30
0.0
 11
322.6494671121176
 21
452.1220450128558
 31
0.0
  0
LINE
  5
854
102
{ACAD_REACTORS
330
813
102
}
330
1E
100
AcDbEntity
  8
STEMPEL
100
AcDbLine
 10
138.6494671121176
 20
457.1220450128558
 30
0.0
 11
144.6494671121175
 21
452.1220450128558
 31
0.0
  0
LINE
  5
855
330
1E
100
AcDbEntity
  8
MITTEL
100
AcDbLine
 10
233.6494671121176
 20
275.9988613879275
 30
0.0
 11
233.6494671121175
 21
175.1220450128566
 31
0.0
  0
LINE
  5
856
102
{ACAD_REACTORS
330
813
102
}
330
1E
100
AcDbEntity
  8
STEMPEL
  6
Continuous
100
AcDbLine
 10
310.1494671121181
 20
297.1220450128551
 30
0.0
 11
325.9175623596198
 21
297.1220450128551
 31
0.0
  0
TEXT
  5
857
330
1E
100
AcDbEntity
  8
TEXT
 62
     1
100
AcDbText
 10
380.6673344517556
 20
279.3857072669711
 30
0.0
 40
7.0
  1
EDV-Art.Nr. 19842.125X
 50
90.0
 41
0.7
  7
GREEKS
100
AcDbText
  0
LINE
  5
858
330
1E
100
AcDbEntity
  8
TEXT
 62
     2
100
AcDbLine
 10
370.8450278764087
 20
277.4930659168407
 30
0.0
 11
370.8450278764087
 21
370.891366684265
 31
0.0
  0
TEXT
  5
859
330
1E
100
AcDbEntity
  8
TEXT
 62
     1
100
AcDbText
 10
367.3504964916854
 20
279.3857072669711
 30
0.0
 40
7.0
  1
Wärmedämmung
 50
90.0
 41
0.8
  7
GREEKS
100
AcDbText
  0
LINE
  5
85A
330
1E
100
AcDbEntity
  8
TEXT
 62
     2
100
AcDbLine
 10
370.8450278764087
 20
370.891366684265
 30
0.0
 11
331.9291443401557
 21
385.6551675086233
 31
0.0
  0
LINE
  5
85B
330
1E
100
AcDbEntity
  8
TEXT
 62
     2
100
AcDbLine
 10
312.3560825759302
 20
201.6180817378702
 30
0.0
 11
299.8349577626805
 21
217.9768416408725
 31
0.0
  0
TEXT
  5
85C
330
1E
100
AcDbEntity
  8
TEXT
 62
     1
100
AcDbText
 10
314.2487239260605
 20
205.1126131225935
 30
0.0
 40
7.0
  1
Ablaufkörper DN125
 41
0.8
  7
GREEKS
100
AcDbText
  0
LINE
  5
85D
330
1E
100
AcDbEntity
  8
TEXT
 62
     2
100
AcDbLine
 10
312.3560825759302
 20
201.6180817378702
 30
0.0
 11
405.7543833433544
 21
201.6180817378702
 31
0.0
  0
TEXT
  5
85E
330
1E
100
AcDbEntity
  8
TEXT
 62
     1
100
AcDbText
 10
314.2487239260605
 20
191.7957751625233
 30
0.0
 40
7.0
  1
EDV-Art.Nr. 21981.125X
 41
0.7
  7
GREEKS
100
AcDbText
  0
LINE
  5
85F
102
{ACAD_REACTORS
330
813
102
}
330
1E
100
AcDbEntity
  8
STEMPEL
  6
Continuous
100
AcDbLine
 10
343.6494671121176
 20
457.1220450128558
 30
0.0
 11
328.9044650377976
 21
299.8420228867766
 31
0.0
  0
ARC
  5
860
102
{ACAD_REACTORS
330
813
102
}
330
1E
100
AcDbEntity
  8
STEMPEL
  6
Continuous
100
AcDbCircle
 10
325.9175623596199
 20
300.1220450128558
 30
0.0
 40
3.0
100
AcDbArc
 50
270.0
 51
354.6441749571445
  0
DIMENSION
  5
861
330
1E
100
AcDbEntity
  8
BEM
100
AcDbDimension
  2
*D1
 10
96.63784926038658
 20
457.1220450128556
 30
0.0
 11
90.13784926038651
 21
377.1220450128558
 31
0.0
 70
    32
 71
     5
 42
159.9999999999998
  3
Standard
100
AcDbAlignedDimension
 13
141.3813718646153
 23
297.1220450128559
 33
0.0
 14
123.6494671121175
 24
457.1220450128556
 34
0.0
 50
90.0
100
AcDbRotatedDimension
1001
ACAD
1000
DSTYLE
1002
{
1070
    40
1040
2.0
1070
    41
1040
3.5
1070
    42
1040
1.0
1070
    43
1040
7.0
1070
    44
1040
1.0
1070
    73
1070
     0
1070
    74
1070
     0
1070
    77
1070
     1
1070
    78
1070
     8
1070
    79
1070
     2
1070
   140
1040
3.5
1070
   141
1040
1.5
1070
   146
1040
0.5142857142857144
1070
   147
1040
1.5
1070
   172
1070
     1
1070
   178
1070
     1
1070
   179
1070
     2
1070
   271
1070
     2
1070
   272
1070
     2
1070
   284
1070
     8
1070
   285
1070
     8
1070
   286
1070
     8
1002
}
  0
DIMENSION
  5
862
330
1E
100
AcDbEntity
  8
BEM
100
AcDbDimension
  2
*D2
 10
343.6494671121175
 20
495.4666566479899
 30
0.0
 11
233.6494671121175
 21
501.9666566479899
 31
0.0
 70
    32
  1
%%c<>
 71
     5
 42
219.9999999999999
  3
Standard
100
AcDbAlignedDimension
 13
123.6494671121175
 23
457.1220450128558
 33
0.0
 14
343.6494671121175
 24
457.1220450128558
 34
0.0
100
AcDbRotatedDimension
1001
ACAD
1000
DSTYLE
1002
{
1070
    40
1040
2.0
1070
    41
1040
3.5
1070
    42
1040
1.0
1070
    43
1040
7.0
1070
    44
1040
1.0
1070
    73
1070
     0
1070
    74
1070
     0
1070
    77
1070
     1
1070
    78
1070
     8
1070
    79
1070
     2
1070
   140
1040
3.5
1070
   141
1040
1.5
1070
   146
1040
0.5142857142857144
1070
   147
1040
1.5
1070
   172
1070
     1
1070
   178
1070
     1
1070
   179
1070
     2
1070
   271
1070
     2
1070
   272
1070
     2
1070
   284
1070
     8
1070
   285
1070
     8
1070
   286
1070
     8
1002
}
  0
DIMENSION
  5
863
330
1E
100
AcDbEntity
  8
BEM
100
AcDbDimension
  2
*D3
 10
328.6494671121176
 20
278.6095265133884
 30
0.0
 11
233.6494671121176
 21
285.1095265133884
 31
0.0
 70
    32
  1
%%c<>
 71
     5
 42
190.0
  3
Standard
100
AcDbAlignedDimension
 13
138.6494671121176
 23
297.1220450128559
 33
0.0
 14
328.6494671121176
 24
297.1220450128559
 34
0.0
100
AcDbRotatedDimension
1001
ACAD
1000
DSTYLE
1002
{
1070
    40
1040
2.0
1070
    41
1040
3.5
1070
    42
1040
1.0
1070
    43
1040
7.0
1070
    44
1040
1.0
1070
    73
1070
     0
1070
    74
1070
     0
1070
    77
1070
     1
1070
    78
1070
     8
1070
    79
1070
     2
1070
   140
1040
3.5
1070
   141
1040
1.5
1070
   146
1040
0.5142857142857144
1070
   147
1040
1.5
1070
   172
1070
     1
1070
   178
1070
     1
1070
   179
1070
     2
1070
   271
1070
     2
1070
   272
1070
     2
1070
   284
1070
     8
1070
   285
1070
     8
1070
   286
1070
     8
1002
}
  0
LINE
  5
864
102
{ACAD_REACTORS
330
813
102
}
330
1E
100
AcDbEntity
  8
STEMPEL
  6
Continuous
100
AcDbLine
 10
141.3813718646153
 20
297.1220450128559
 30
0.0
 11
167.1494671121179
 21
297.1220450128559
 31
0.0
  0
ARC
  5
865
102
{ACAD_REACTORS
330
813
102
}
330
1E
100
AcDbEntity
  8
STEMPEL
  6
Continuous
100
AcDbCircle
 10
141.3813718646153
 20
300.1220450128558
 30
0.0
 40
3.0
100
AcDbArc
 50
185.3558250428554
 51
270.0
  0
LINE
  5
866
102
{ACAD_REACTORS
330
813
102
}
330
1E
100
AcDbEntity
  8
STEMPEL
  6
Continuous
100
AcDbLine
 10
123.6494671121175
 20
457.1220450128558
 30
0.0
 11
138.3944691864375
 21
299.8420228867766
 31
0.0
  0
HATCH
  5
867
330
1E
100
AcDbEntity
  8
SCHRAFF
100
AcDbHatch
 10
0.0
 20
0.0
 30
0.0
210
0.0
220
0.0
230
1.0
  2
_USER
 70
     0
 71
     1
 91
        2
 92
        7
 72
     1
 73
     1
 93
        4
 10
312.859723141318
 20
443.1128146199123
 42
0.0
 10
311.9239994579534
 20
441.6552751904661
 42
0.0
 10
310.6617332850356
 20
442.4656356711825
 42
0.0
 10
309.6155624029557
 20
440.8360570491184
 42
0.8729513670662376
 97
        4
330
88F
330
88D
330
86D
330
88E
 92
        7
 72
     1
 73
     1
 93
        4
 10
157.6833718212795
 20
440.8360570491184
 42
0.0
 10
156.6372009391997
 20
442.4656356711825
 42
0.0
 10
155.3749347662817
 20
441.655275190466
 42
0.0
 10
154.4392110829172
 20
443.1128146199123
 42
0.8729513670662354
 97
        4
330
8A6
330
8A8
330
8A7
330
86A
 75
     0
 76
     0
 52
0.0
 41
0.1
 77
     0
 78
     1
 53
0.0
 43
0.0
 44
0.0
 45
0.0
 46
0.1
 79
     0
 47
0.2742157745736938
 98
        2
 10
310.9986830422477
 20
440.9135723924642
 10
155.4340050248311
 20
440.9135723924642
  0
HATCH
  5
868
330
1E
100
AcDbEntity
  8
SCHRAFF
100
AcDbHatch
 10
0.0
 20
0.0
 30
0.0
210
0.0
220
0.0
230
1.0
  2
_USER
 70
     0
 71
     1
 91
        2
 92
        7
 72
     1
 73
     1
 93
       10
 10
298.649467112118
 20
192.1875364272314
 42
0.0
 10
297.5938733934908
 20
180.1220450128566
 42
0.0
 10
299.0996031498058
 20
180.1220450128566
 42
0.0
 10
300.149467112118
 20
192.1220450128693
 42
0.0
 10
300.149467112118
 20
425.0643103090387
 42
-0.1436568363649712
 10
300.7041793753093
 20
426.9551514307106
 42
0.0
 10
310.6617332850355
 20
442.4656356711825
 42
0.0
 10
309.3994671121175
 20
443.275996151899
 42
0.0
 10
299.4419132023913
 20
427.765511911427
 42
0.1436568363649748
 10
298.6494671121178
 20
425.0643103090387
 42
0.0
 97
       10
330
86C
330
86D
330
88D
330
892
330
86E
330
872
330
878
330
873
330
879
330
871
 92
        7
 72
     1
 73
     1
 93
       10
 10
168.6494671121177
 20
425.0643103090381
 42
0.1436568363649744
 10
167.8570210218443
 20
427.7655119114264
 42
0.0
 10
157.8994671121177
 20
443.2759961518989
 42
0.0
 10
156.6372009391997
 20
442.4656356711825
 42
0.0
 10
166.5947548489263
 20
426.9551514307099
 42
-0.1436568363649702
 10
167.1494671121178
 20
425.0643103090381
 42
0.0
 10
167.1494671121181
 20
192.1220450128563
 42
0.0
 10
168.1993310744291
 20
180.1220450128566
 42
0.0
 10
169.7050608307441
 20
180.1220450128566
 42
0.0
 10
168.649467112118
 20
192.1875364272197
 42
0.0
 97
       10
330
86B
330
8A9
330
8A6
330
86A
330
869
330
86F
330
876
330
873
330
877
330
870
 75
     0
 76
     0
 52
135.0
 41
2.0
 77
     0
 78
     1
 53
135.0
 43
0.0
 44
0.0
 45
-1.414213562373095
 46
-1.414213562373094
 79
     0
 47
0.4493232848184605
 98
        2
 10
299.1926105671078
 20
347.1883780760168
 10
167.9190469123791
 20
336.8539433319284
  0
ARC
  5
869
102
{ACAD_REACTORS
330
868
102
}
330
1E
100
AcDbEntity
  8
STEMPEL
100
AcDbCircle
 10
163.6494671121177
 20
425.0643103090381
 30
0.0
 40
3.5
100
AcDbArc
 50
0.0
 51
32.70000000000014
  0
LINE
  5
86A
102
{ACAD_REACTORS
330
868
330
867
102
}
330
1E
100
AcDbEntity
  8
STEMPEL
100
AcDbLine
 10
156.6372009391997
 20
442.4656356711825
 30
0.0
 11
166.5947548489263
 21
426.9551514307099
 31
0.0
  0
ARC
  5
86B
102
{ACAD_REACTORS
330
868
102
}
330
1E
100
AcDbEntity
  8
STEMPEL
100
AcDbCircle
 10
163.6494671121177
 20
425.0643103090381
 30
0.0
 40
5.0
100
AcDbArc
 50
0.0
 51
32.70000000000014
  0
ARC
  5
86C
102
{ACAD_REACTORS
330
868
102
}
330
1E
100
AcDbEntity
  8
STEMPEL
100
AcDbCircle
 10
303.6494671121179
 20
425.0643103090387
 30
0.0
 40
3.5
100
AcDbArc
 50
147.2999999999998
 51
180.0
  0
LINE
  5
86D
102
{ACAD_REACTORS
330
868
330
867
102
}
330
1E
100
AcDbEntity
  8
STEMPEL
100
AcDbLine
 10
310.6617332850355
 20
442.4656356711824
 30
0.0
 11
300.7041793753093
 21
426.9551514307106
 31
0.0
  0
ARC
  5
86E
102
{ACAD_REACTORS
330
868
102
}
330
1E
100
AcDbEntity
  8
STEMPEL
100
AcDbCircle
 10
303.6494671121179
 20
425.0643103090387
 30
0.0
 40
5.0
100
AcDbArc
 50
147.2999999999998
 51
180.0
  0
LINE
  5
86F
102
{ACAD_REACTORS
330
868
330
813
102
}
330
1E
100
AcDbEntity
  8
STEMPEL
  6
Continuous
100
AcDbLine
 10
167.1494671121178
 20
425.0643103090381
 30
0.0
 11
167.149467112118
 21
192.1220450128567
 31
0.0
  0
LINE
  5
870
102
{ACAD_REACTORS
330
868
102
}
330
1E
100
AcDbEntity
  8
STEMPEL
  6
Continuous
100
AcDbLine
 10
168.6494671121177
 20
425.0643103090381
 30
0.0
 11
168.649467112118
 21
192.1875364272192
 31
0.0
  0
LINE
  5
871
102
{ACAD_REACTORS
330
868
102
}
330
1E
100
AcDbEntity
  8
STEMPEL
  6
Continuous
100
AcDbLine
 10
300.149467112118
 20
425.0643103090387
 30
0.0
 11
300.1494671121179
 21
192.1220450128687
 31
0.0
  0
LINE
  5
872
102
{ACAD_REACTORS
330
868
102
}
330
1E
100
AcDbEntity
  8
STEMPEL
  6
Continuous
100
AcDbLine
 10
298.6494671121178
 20
425.0643103090387
 30
0.0
 11
298.649467112118
 21
192.1875364272313
 31
0.0
  0
LINE
  5
873
102
{ACAD_REACTORS
330
868
102
}
330
1E
100
AcDbEntity
  8
STEMPEL
100
AcDbLine
 10
168.1993310744291
 20
180.1220450128566
 30
0.0
 11
299.0996031498058
 21
180.1220450128566
 31
0.0
  0
DIMENSION
  5
874
330
1E
100
AcDbEntity
  8
BEM
100
AcDbDimension
  2
*D4
 10
300.1494671121179
 20
160.5512740880356
 30
0.0
 11
233.649467112118
 21
167.0512740880356
 31
0.0
 70
    32
  1
%%c<>
 71
     5
 42
132.9999999999999
  3
Standard
100
AcDbAlignedDimension
 13
167.1494671121179
 23
192.1220450128626
 33
0.0
 14
300.1494671121179
 24
192.1220450128687
 34
0.0
100
AcDbRotatedDimension
1001
ACAD
1000
DSTYLE
1002
{
1070
    40
1040
2.0
1070
    41
1040
3.5
1070
    42
1040
1.0
1070
    43
1040
7.0
1070
    44
1040
1.0
1070
    73
1070
     0
1070
    74
1070
     0
1070
    77
1070
     1
1070
    78
1070
     8
1070
    79
1070
     2
1070
   140
1040
3.5
1070
   141
1040
1.5
1070
   146
1040
0.5142857142857144
1070
   147
1040
1.5
1070
   172
1070
     1
1070
   178
1070
     1
1070
   179
1070
     2
1070
   271
1070
     2
1070
   272
1070
     2
1070
   284
1070
     8
1070
   285
1070
     8
1070
   286
1070
     8
1002
}
  0
LINE
  5
875
330
1E
100
AcDbEntity
  8
HILF
100
AcDbLine
 10
170.160926624748
 20
192.1220450128567
 30
0.0
 11
297.1380075994869
 21
192.1220450128567
 31
0.0
  0
LINE
  5
876
102
{ACAD_REACTORS
330
868
102
}
330
1E
100
AcDbEntity
  8
STEMPEL
100
AcDbLine
 10
167.149467112118
 20
192.1220450128567
 30
0.0
 11
168.1993310744291
 21
180.1220450128566
 31
0.0
  0
LINE
  5
877
102
{ACAD_REACTORS
330
868
102
}
330
1E
100
AcDbEntity
  8
STEMPEL
100
AcDbLine
 10
168.649467112118
 20
192.1875364272192
 30
0.0
 11
169.7050608307441
 21
180.1220450128566
 31
0.0
  0
LINE
  5
878
102
{ACAD_REACTORS
330
868
102
}
330
1E
100
AcDbEntity
  8
STEMPEL
100
AcDbLine
 10
298.649467112118
 20
192.1875364272313
 30
0.0
 11
297.5938733934908
 21
180.1220450128566
 31
0.0
  0
LINE
  5
879
102
{ACAD_REACTORS
330
868
102
}
330
1E
100
AcDbEntity
  8
STEMPEL
100
AcDbLine
 10
300.1494671121179
 20
192.1220450128687
 30
0.0
 11
299.0996031498058
 21
180.1220450128566
 31
0.0
  0
LINE
  5
87A
330
1E
100
AcDbEntity
  8
STEMPEL
100
AcDbLine
 10
365.6494671121178
 20
484.1220450128573
 30
0.0
 11
364.6494671121178
 21
485.1220450128573
 31
0.0
  0
LINE
  5
87B
330
1E
100
AcDbEntity
  8
STEMPEL
100
AcDbLine
 10
356.6494671121178
 20
485.1220450128573
 30
0.0
 11
355.6494671121178
 21
484.1220450128573
 31
0.0
  0
LINE
  5
87C
330
1E
100
AcDbEntity
  8
STEMPEL
100
AcDbLine
 10
364.6494671121178
 20
485.1220450128573
 30
0.0
 11
356.6494671121178
 21
485.1220450128573
 31
0.0
  0
LINE
  5
87D
330
1E
100
AcDbEntity
  8
STEMPEL
100
AcDbLine
 10
355.6494671121178
 20
484.1220450128574
 30
0.0
 11
365.6494671121178
 21
484.1220450128574
 31
0.0
  0
LINE
  5
87E
102
{ACAD_REACTORS
330
8C5
102
}
330
1E
100
AcDbEntity
  8
STEMPEL
100
AcDbLine
 10
398.6494671121175
 20
456.2433653564162
 30
0.0
 11
396.5281467685579
 21
454.1220450128564
 31
0.0
  0
LINE
  5
87F
102
{ACAD_REACTORS
330
8C5
102
}
330
1E
100
AcDbEntity
  8
STEMPEL
100
AcDbLine
 10
398.6494671121175
 20
456.2433653564162
 30
0.0
 11
396.5281467685579
 21
458.3646856999759
 31
0.0
  0
ARC
  5
880
102
{ACAD_REACTORS
330
8C5
102
}
330
1E
100
AcDbEntity
  8
STEMPEL
100
AcDbCircle
 10
392.2855060814384
 20
454.1220450128565
 30
0.0
 40
3.0
100
AcDbArc
 50
45.0
 51
90.0
  0
LINE
  5
881
102
{ACAD_REACTORS
330
8C5
102
}
330
1E
100
AcDbEntity
  8
STEMPEL
100
AcDbLine
 10
396.5281467685579
 20
454.1220450128565
 30
0.0
 11
394.4068264249979
 21
456.2433653564162
 31
0.0
  0
ARC
  5
882
102
{ACAD_REACTORS
330
8C5
102
}
330
1E
100
AcDbEntity
  8
STEMPEL
100
AcDbCircle
 10
392.2855060814384
 20
454.1220450128565
 30
0.0
 40
6.0
100
AcDbArc
 50
45.0
 51
90.0
  0
LINE
  5
883
330
1E
100
AcDbEntity
  8
MITTEL
100
AcDbLine
 10
360.6494671121177
 20
490.1220450128558
 30
0.0
 11
360.6494671121177
 21
460.1220450128563
 31
0.0
  0
LINE
  5
884
330
1E
100
AcDbEntity
  8
STEMPEL
100
AcDbLine
 10
365.6494671121178
 20
484.1220450128575
 30
0.0
 11
365.6494671121178
 21
460.1220450128561
 31
0.0
  0
LINE
  5
885
330
1E
100
AcDbEntity
  8
HILF
100
AcDbLine
 10
364.6494671121177
 20
485.1220450128573
 30
0.0
 11
364.6494671121177
 21
460.1220450128561
 31
0.0
  0
LINE
  5
886
330
1E
100
AcDbEntity
  8
HILF
100
AcDbLine
 10
356.6494671121177
 20
485.1220450128572
 30
0.0
 11
356.6494671121177
 21
460.1220450128562
 31
0.0
  0
LINE
  5
887
330
1E
100
AcDbEntity
  8
STEMPEL
100
AcDbLine
 10
355.6494671121178
 20
484.1220450128573
 30
0.0
 11
355.6494671121178
 21
460.1220450128562
 31
0.0
  0
LINE
  5
888
330
1E
100
AcDbEntity
  8
STEMPEL
100
AcDbLine
 10
302.1494671121179
 20
484.1220450128573
 30
0.0
 11
301.1494671121179
 21
485.1220450128573
 31
0.0
  0
LINE
  5
889
330
1E
100
AcDbEntity
  8
STEMPEL
100
AcDbLine
 10
293.1494671121179
 20
485.1220450128573
 30
0.0
 11
292.1494671121179
 21
484.1220450128573
 31
0.0
  0
LINE
  5
88A
330
1E
100
AcDbEntity
  8
STEMPEL
100
AcDbLine
 10
292.1494671121179
 20
484.1220450128574
 30
0.0
 11
302.1494671121179
 21
484.1220450128574
 31
0.0
  0
LINE
  5
88B
330
1E
100
AcDbEntity
  8
STEMPEL
100
AcDbLine
 10
301.1494671121179
 20
485.1220450128573
 30
0.0
 11
293.1494671121179
 21
485.1220450128573
 31
0.0
  0
ARC
  5
88C
102
{ACAD_REACTORS
330
8C5
102
}
330
1E
100
AcDbEntity
  8
STEMPEL
100
AcDbCircle
 10
323.492540150522
 20
454.1220450128565
 30
0.0
 40
3.0
100
AcDbArc
 50
90.0
 51
147.2999999999998
  0
LINE
  5
88D
102
{ACAD_REACTORS
330
8C5
330
868
330
867
102
}
330
1E
100
AcDbEntity
  8
STEMPEL
100
AcDbLine
 10
309.3994671121176
 20
443.2759961518989
 30
0.0
 11
311.9239994579534
 21
441.6552751904661
 31
0.0
  0
ARC
  5
88E
102
{ACAD_REACTORS
330
867
102
}
330
1E
100
AcDbEntity
  8
SCHRAFF
100
AcDbCircle
 10
311.0824886760081
 20
442.1955155109437
 30
0.0
 40
2.0
100
AcDbArc
 50
222.8224878140749
 51
27.29999999999825
  0
LINE
  5
88F
102
{ACAD_REACTORS
330
8C5
330
867
102
}
330
1E
100
AcDbEntity
  8
STEMPEL
100
AcDbLine
 10
320.9680078046862
 20
455.7427659742895
 30
0.0
 11
311.9239994579534
 21
441.6552751904661
 31
0.0
  0
LINE
  5
890
330
1E
100
AcDbEntity
  8
STEMPEL
100
AcDbLine
 10
318.4434754588504
 20
457.3634869357224
 30
0.0
 11
309.3994671121177
 21
443.2759961518989
 31
0.0
  0
ARC
  5
891
102
{ACAD_REACTORS
330
8C5
102
}
330
1E
100
AcDbEntity
  8
STEMPEL
100
AcDbCircle
 10
323.492540150522
 20
454.1220450128565
 30
0.0
 40
6.0
100
AcDbArc
 50
90.0
 51
147.2999999999998
  0
LINE
  5
892
102
{ACAD_REACTORS
330
8C5
330
868
102
}
330
1E
100
AcDbEntity
  8
STEMPEL
100
AcDbLine
 10
318.4434754588502
 20
457.3634869357224
 30
0.0
 11
299.4419132023913
 21
427.765511911427
 31
0.0
  0
LINE
  5
893
330
1E
100
AcDbEntity
  8
MITTEL
100
AcDbLine
 10
233.6494671121176
 20
465.1220450128562
 30
0.0
 11
233.6494671121176
 21
422.8007531640998
 31
0.0
  0
LINE
  5
894
330
1E
100
AcDbEntity
  8
MITTEL
100
AcDbLine
 10
297.1494671121178
 20
490.1220450128559
 30
0.0
 11
297.1494671121178
 21
460.1220450128563
 31
0.0
  0
LINE
  5
895
330
1E
100
AcDbEntity
  8
STEMPEL
100
AcDbLine
 10
292.1494671121179
 20
484.1220450128573
 30
0.0
 11
292.1494671121179
 21
460.1220450128562
 31
0.0
  0
LINE
  5
896
330
1E
100
AcDbEntity
  8
HILF
100
AcDbLine
 10
293.1494671121178
 20
485.1220450128572
 30
0.0
 11
293.1494671121178
 21
460.1220450128562
 31
0.0
  0
LINE
  5
897
330
1E
100
AcDbEntity
  8
HILF
100
AcDbLine
 10
301.1494671121178
 20
485.1220450128573
 30
0.0
 11
301.1494671121178
 21
460.1220450128561
 31
0.0
  0
LINE
  5
898
330
1E
100
AcDbEntity
  8
STEMPEL
100
AcDbLine
 10
302.1494671121179
 20
484.1220450128575
 30
0.0
 11
302.1494671121179
 21
460.1220450128561
 31
0.0
  0
LINE
  5
899
102
{ACAD_REACTORS
330
8C5
330
813
102
}
330
1E
100
AcDbEntity
  8
STEMPEL
100
AcDbLine
 10
392.2855060814384
 20
457.1220450128565
 30
0.0
 11
323.492540150522
 21
457.1220450128564
 31
0.0
  0
LINE
  5
89A
330
1E
100
AcDbEntity
  8
STEMPEL
100
AcDbLine
 10
396.5281467685581
 20
454.1220450128562
 30
0.0
 11
343.3682171121176
 21
454.1220450128562
 31
0.0
  0
LINE
  5
89B
330
1E
100
AcDbEntity
  8
STEMPEL
100
AcDbLine
 10
343.3682171121176
 20
454.122045012856
 30
0.0
 11
396.5281467685576
 21
454.1220450128557
 31
0.0
  0
TEXT
  5
89C
330
1E
100
AcDbEntity
  8
TEXT
 62
     1
100
AcDbText
 10
230.0436552932627
 20
341.9414199599348
 30
0.0
 40
7.0
  1
DN125
 50
90.0
 41
0.8
  7
GREEKS
100
AcDbText
  0
LINE
  5
89D
330
1E
100
AcDbEntity
  8
MITTEL
100
AcDbLine
 10
233.6494671121176
 20
403.750023471223
 30
0.0
 11
233.6494671121176
 21
291.9799251329098
 31
0.0
  0
LINE
  5
89E
330
1E
100
AcDbEntity
  8
STEMPEL
100
AcDbLine
 10
175.1494671121176
 20
484.1220450128573
 30
0.0
 11
174.1494671121176
 21
485.1220450128573
 31
0.0
  0
LINE
  5
89F
330
1E
100
AcDbEntity
  8
STEMPEL
100
AcDbLine
 10
166.1494671121175
 20
485.1220450128573
 30
0.0
 11
165.1494671121175
 21
484.1220450128573
 31
0.0
  0
LINE
  5
8A0
330
1E
100
AcDbEntity
  8
STEMPEL
100
AcDbLine
 10
165.1494671121175
 20
484.1220450128574
 30
0.0
 11
175.1494671121176
 21
484.1220450128574
 31
0.0
  0
LINE
  5
8A1
330
1E
100
AcDbEntity
  8
STEMPEL
100
AcDbLine
 10
174.1494671121176
 20
485.1220450128573
 30
0.0
 11
166.1494671121175
 21
485.1220450128573
 31
0.0
  0
LINE
  5
8A2
330
1E
100
AcDbEntity
  8
STEMPEL
100
AcDbLine
 10
102.6494671121177
 20
485.1220450128573
 30
0.0
 11
101.6494671121177
 21
484.1220450128573
 31
0.0
  0
LINE
  5
8A3
330
1E
100
AcDbEntity
  8
STEMPEL
100
AcDbLine
 10
110.6494671121177
 20
485.1220450128573
 30
0.0
 11
102.6494671121177
 21
485.1220450128573
 31
0.0
  0
LINE
  5
8A4
330
1E
100
AcDbEntity
  8
STEMPEL
100
AcDbLine
 10
101.6494671121177
 20
484.1220450128574
 30
0.0
 11
111.6494671121177
 21
484.1220450128574
 31
0.0
  0
LINE
  5
8A5
330
1E
100
AcDbEntity
  8
STEMPEL
100
AcDbLine
 10
111.6494671121177
 20
484.1220450128573
 30
0.0
 11
110.6494671121177
 21
485.1220450128573
 31
0.0
  0
LINE
  5
8A6
102
{ACAD_REACTORS
330
8C5
330
868
330
867
102
}
330
1E
100
AcDbEntity
  8
STEMPEL
100
AcDbLine
 10
157.8994671121177
 20
443.2759961518989
 30
0.0
 11
155.3749347662817
 21
441.6552751904661
 31
0.0
  0
ARC
  5
8A7
102
{ACAD_REACTORS
330
867
102
}
330
1E
100
AcDbEntity
  8
SCHRAFF
100
AcDbCircle
 10
156.2164455482271
 20
442.1955155109437
 30
0.0
 40
2.0
100
AcDbArc
 50
152.7000000000017
 51
317.177512185925
  0
LINE
  5
8A8
102
{ACAD_REACTORS
330
8C5
330
867
102
}
330
1E
100
AcDbEntity
  8
STEMPEL
100
AcDbLine
 10
146.3309264195491
 20
455.7427659742895
 30
0.0
 11
155.3749347662817
 21
441.6552751904661
 31
0.0
  0
LINE
  5
8A9
102
{ACAD_REACTORS
330
8C5
330
868
102
}
330
1E
100
AcDbEntity
  8
STEMPEL
100
AcDbLine
 10
148.855458765385
 20
457.3634869357224
 30
0.0
 11
167.8570210218443
 21
427.7655119114264
 31
0.0
  0
ARC
  5
8AA
102
{ACAD_REACTORS
330
8C5
102
}
330
1E
100
AcDbEntity
  8
STEMPEL
100
AcDbCircle
 10
143.8063940737131
 20
454.1220450128565
 30
0.0
 40
6.0
100
AcDbArc
 50
32.70000000000014
 51
90.0
  0
ARC
  5
8AB
102
{ACAD_REACTORS
330
8C5
102
}
330
1E
100
AcDbEntity
  8
STEMPEL
100
AcDbCircle
 10
143.8063940737131
 20
454.1220450128565
 30
0.0
 40
3.0
100
AcDbArc
 50
32.70000000000014
 51
90.0
  0
LINE
  5
8AC
330
1E
100
AcDbEntity
  8
MITTEL
100
AcDbLine
 10
106.6494671121176
 20
490.1220450128564
 30
0.0
 11
106.6494671121176
 21
460.1220450128563
 31
0.0
  0
LINE
  5
8AD
330
1E
100
AcDbEntity
  8
HILF
100
AcDbLine
 10
102.6494671121176
 20
485.1220450128572
 30
0.0
 11
102.6494671121176
 21
460.1220450128562
 31
0.0
  0
LINE
  5
8AE
330
1E
100
AcDbEntity
  8
STEMPEL
100
AcDbLine
 10
101.6494671121176
 20
484.1220450128573
 30
0.0
 11
101.6494671121176
 21
460.1220450128562
 31
0.0
  0
LINE
  5
8AF
330
1E
100
AcDbEntity
  8
HILF
100
AcDbLine
 10
110.6494671121176
 20
485.1220450128573
 30
0.0
 11
110.6494671121176
 21
460.1220450128561
 31
0.0
  0
LINE
  5
8B0
330
1E
100
AcDbEntity
  8
STEMPEL
100
AcDbLine
 10
111.6494671121176
 20
484.1220450128575
 30
0.0
 11
111.6494671121176
 21
460.1220450128561
 31
0.0
  0
LINE
  5
8B1
330
1E
100
AcDbEntity
  8
MITTEL
100
AcDbLine
 10
170.1494671121175
 20
490.1220450128563
 30
0.0
 11
170.1494671121175
 21
460.1220450128563
 31
0.0
  0
LINE
  5
8B2
330
1E
100
AcDbEntity
  8
STEMPEL
100
AcDbLine
 10
165.1494671121175
 20
484.1220450128573
 30
0.0
 11
165.1494671121175
 21
460.1220450128562
 31
0.0
  0
LINE
  5
8B3
330
1E
100
AcDbEntity
  8
HILF
100
AcDbLine
 10
166.1494671121175
 20
485.1220450128572
 30
0.0
 11
166.1494671121175
 21
460.1220450128562
 31
0.0
  0
LINE
  5
8B4
330
1E
100
AcDbEntity
  8
HILF
100
AcDbLine
 10
174.1494671121175
 20
485.1220450128573
 30
0.0
 11
174.1494671121175
 21
460.1220450128561
 31
0.0
  0
LINE
  5
8B5
330
1E
100
AcDbEntity
  8
STEMPEL
100
AcDbLine
 10
175.1494671121175
 20
484.1220450128575
 30
0.0
 11
175.1494671121175
 21
460.1220450128561
 31
0.0
  0
LINE
  5
8B6
102
{ACAD_REACTORS
330
8C5
102
}
330
1E
100
AcDbEntity
  8
STEMPEL
100
AcDbLine
 10
70.77078745567724
 20
454.1220450128565
 30
0.0
 11
72.89210779923724
 21
456.2433653564162
 31
0.0
  0
ARC
  5
8B7
102
{ACAD_REACTORS
330
8C5
102
}
330
1E
100
AcDbEntity
  8
STEMPEL
100
AcDbCircle
 10
75.01342814279678
 20
454.1220450128565
 30
0.0
 40
3.0
100
AcDbArc
 50
90.0
 51
135.0
  0
LINE
  5
8B8
102
{ACAD_REACTORS
330
8C5
102
}
330
1E
100
AcDbEntity
  8
STEMPEL
100
AcDbLine
 10
68.64946711211769
 20
456.2433653564162
 30
0.0
 11
70.77078745567724
 21
454.1220450128564
 31
0.0
  0
LINE
  5
8B9
102
{ACAD_REACTORS
330
8C5
102
}
330
1E
100
AcDbEntity
  8
STEMPEL
100
AcDbLine
 10
68.64946711211769
 20
456.2433653564162
 30
0.0
 11
70.77078745567724
 21
458.3646856999759
 31
0.0
  0
ARC
  5
8BA
102
{ACAD_REACTORS
330
8C5
102
}
330
1E
100
AcDbEntity
  8
STEMPEL
100
AcDbCircle
 10
75.01342814279678
 20
454.1220450128565
 30
0.0
 40
6.0
100
AcDbArc
 50
90.0
 51
135.0
  0
LINE
  5
8BB
330
1E
100
AcDbEntity
  8
STEMPEL
100
AcDbLine
 10
70.77078745567701
 20
454.1220450128562
 30
0.0
 11
123.9307171121176
 21
454.1220450128562
 31
0.0
  0
LINE
  5
8BC
330
1E
100
AcDbEntity
  8
STEMPEL
100
AcDbLine
 10
70.77078745567701
 20
454.1220450128565
 30
0.0
 11
123.9307171121176
 21
454.1220450128564
 31
0.0
  0
LINE
  5
8BD
102
{ACAD_REACTORS
330
8C5
330
813
102
}
330
1E
100
AcDbEntity
  8
STEMPEL
100
AcDbLine
 10
75.01342814279678
 20
457.1220450128565
 30
0.0
 11
143.8063940737131
 21
457.1220450128565
 31
0.0
  0
DIMENSION
  5
8BE
330
1E
100
AcDbEntity
  8
BEM
100
AcDbDimension
  2
*D5
 10
59.38889321095075
 20
460.1220450128566
 30
0.0
 11
52.88889321095068
 21
320.1220450128566
 31
0.0
 70
    32
 71
     5
 42
280.0
  3
Standard
100
AcDbAlignedDimension
 13
168.6367743920584
 23
180.1220450128566
 33
0.0
 14
75.01342814279678
 24
460.1220450128566
 34
0.0
 50
90.0
100
AcDbRotatedDimension
1001
ACAD
1000
DSTYLE
1002
{
1070
    40
1040
2.0
1070
    41
1040
3.5
1070
    42
1040
1.0
1070
    43
1040
7.0
1070
    44
1040
1.0
1070
    73
1070
     0
1070
    74
1070
     0
1070
    77
1070
     1
1070
    78
1070
     8
1070
    79
1070
     2
1070
   140
1040
3.5
1070
   141
1040
1.5
1070
   146
1040
0.5142857142857144
1070
   147
1040
1.5
1070
   172
1070
     1
1070
   178
1070
     1
1070
   179
1070
     2
1070
   271
1070
     2
1070
   272
1070
     2
1070
   284
1070
     8
1070
   285
1070
     8
1070
   286
1070
     8
1002
}
  0
LINE
  5
8BF
102
{ACAD_REACTORS
330
8C5
102
}
330
1E
100
AcDbEntity
  8
STEMPEL
100
AcDbLine
 10
75.01342814279678
 20
460.1220450128566
 30
0.0
 11
392.2855060814384
 21
460.1220450128558
 31
0.0
  0
DIMENSION
  5
8C0
330
1E
100
AcDbEntity
  8
BEM
100
AcDbDimension
  2
*D6
 10
398.6494671121175
 20
526.9545851429747
 30
0.0
 11
233.6494671121176
 21
533.4545851429748
 31
0.0
 70
    32
  1
%%c<>
 71
     5
 42
329.9999999999998
  3
Standard
100
AcDbAlignedDimension
 13
68.64946711211769
 23
456.2433653564162
 33
0.0
 14
398.6494671121175
 24
456.2433653564162
 34
0.0
100
AcDbRotatedDimension
1001
ACAD
1000
DSTYLE
1002
{
1070
    40
1040
2.0
1070
    41
1040
3.5
1070
    42
1040
1.0
1070
    43
1040
7.0
1070
    44
1040
1.0
1070
    73
1070
     0
1070
    74
1070
     0
1070
    77
1070
     1
1070
    78
1070
     8
1070
    79
1070
     2
1070
   140
1040
3.5
1070
   141
1040
1.5
1070
   146
1040
0.5142857142857144
1070
   147
1040
1.5
1070
   172
1070
     1
1070
   178
1070
     1
1070
   179
1070
     2
1070
   271
1070
     2
1070
   272
1070
     2
1070
   284
1070
     8
1070
   285
1070
     8
1070
   286
1070
     8
1002
}
  0
LINE
  5
8C1
330
1E
100
AcDbEntity
  8
STEMPEL
100
AcDbLine
 10
168.6367743920584
 20
180.1220450128566
 30
0.0
 11
298.6621598321763
 21
180.1220450128567
 31
0.0
  0
DIMENSION
  5
8C2
330
1E
100
AcDbEntity
  8
BEM
100
AcDbDimension
  2
*D7
 10
360.6494671121177
 20
510.9545851429747
 30
0.0
 11
233.6494671121177
 21
517.4545851429748
 31
0.0
 70
    32
  1
%%c<>
 71
     5
 42
254.0000000000001
  3
Standard
100
AcDbAlignedDimension
 13
106.6494671121176
 23
490.1220450128564
 33
0.0
 14
360.6494671121177
 24
490.1220450128558
 34
0.0
100
AcDbRotatedDimension
1001
ACAD
1000
DSTYLE
1002
{
1070
    40
1040
2.0
1070
    41
1040
3.5
1070
    42
1040
1.0
1070
    43
1040
7.0
1070
    44
1040
1.0
1070
    73
1070
     0
1070
    74
1070
     0
1070
    77
1070
     1
1070
    78
1070
     8
1070
    79
1070
     2
1070
   140
1040
3.5
1070
   141
1040
1.5
1070
   146
1040
0.5142857142857144
1070
   147
1040
1.5
1070
   172
1070
     1
1070
   178
1070
     1
1070
   179
1070
     2
1070
   271
1070
     2
1070
   272
1070
     2
1070
   284
1070
     8
1070
   285
1070
     8
1070
   286
1070
     8
1002
}
  0
LINE
  5
8C3
330
1E
100
AcDbEntity
  8
STEMPEL
100
AcDbLine
 10
157.8994671121177
 20
443.2759961518989
 30
0.0
 11
309.3994671121177
 21
443.2759961518989
 31
0.0
  0
LINE
  5
8C4
330
1E
100
AcDbEntity
  8
HILF
100
AcDbLine
 10
171.0064988879166
 20
425.6930012183451
 30
0.0
 11
296.2924353363186
 21
425.693001218345
 31
0.0
  0
HATCH
  5
8C5
330
1E
100
AcDbEntity
  8
SCHRAFF
100
AcDbHatch
 10
0.0
 20
0.0
 30
0.0
210
0.0
220
0.0
230
1.0
  2
_USER
 70
     0
 71
     1
 91
        2
 92
        7
 72
     1
 73
     1
 93
       12
 10
143.8063940737131
 20
457.1220450128565
 42
-0.2553615373329011
 10
146.3309264195491
 20
455.7427659742895
 42
0.0
 10
155.3749347662817
 20
441.6552751904661
 42
0.0
 10
157.8994671121176
 20
443.2759961518989
 42
0.0
 10
148.855458765385
 20
457.3634869357224
 42
0.2553615373328971
 10
143.8063940737132
 20
460.1220450128564
 42
0.0
 10
75.01342814279678
 20
460.1220450128566
 42
0.198912367379666
 10
70.77078745567724
 20
458.3646856999759
 42
0.0
 10
68.64946711211775
 20
456.2433653564162
 42
0.0
 10
70.77078745567717
 20
454.1220450128565
 42
0.0
 10
72.89210779923724
 20
456.2433653564162
 42
-0.1989123673796555
 10
75.01342814279684
 20
457.1220450128565
 42
0.0
 97
       12
330
8BF
330
8BA
330
8B9
330
8B8
330
8B6
330
8B7
330
8BD
330
8AB
330
8A8
330
8A6
330
8A9
330
8AA
 92
        7
 72
     1
 73
     1
 93
       12
 10
392.2855060814384
 20
457.1220450128565
 42
-0.1989123673796481
 10
394.4068264249979
 20
456.2433653564162
 42
0.0
 10
396.528146768558
 20
454.1220450128565
 42
0.0
 10
398.6494671121175
 20
456.2433653564162
 42
0.0
 10
396.5281467685579
 20
458.3646856999759
 42
0.1989123673796531
 10
392.2855060814384
 20
460.1220450128558
 42
0.0
 10
323.492540150522
 20
460.1220450128559
 42
0.2553615373329152
 10
318.4434754588498
 20
457.3634869357218
 42
0.0
 10
309.3994671121175
 20
443.2759961518989
 42
0.0
 10
311.9239994579534
 20
441.6552751904661
 42
0.0
 10
320.9680078046862
 20
455.7427659742895
 42
-0.2553615373328881
 10
323.492540150522
 20
457.1220450128564
 42
0.0
 97
       12
330
8BF
330
891
330
892
330
88D
330
88F
330
88C
330
899
330
880
330
881
330
87E
330
87F
330
882
 75
     0
 76
     0
 52
45.0
 41
2.0
 77
     0
 78
     1
 53
45.0
 43
0.0
 44
0.0
 45
-1.414213562373094
 46
1.414213562373095
 79
     0
 47
0.3980341147123784
 98
        2
 10
112.0786239753997
 20
458.5935142642115
 10
353.070174698586
 20
458.5935142642115
  0
ENDSEC
  0
SECTION
  2
OBJECTS
  0
DICTIONARY
  5
C
330
0
100
AcDbDictionary
281
     1
  3
ACAD_COLOR
350
DF
  3
ACAD_GROUP
350
D
  3
ACAD_LAYOUT
350
19
  3
ACAD_MATERIAL
350
DE
  3
ACAD_MLINESTYLE
350
16
  3
ACAD_PLOTSETTINGS
350
18
  3
ACAD_PLOTSTYLENAME
350
E
  3
AcDbVariableDictionary
350
EA
  0
DICTIONARY
  5
A0
330
1E
100
AcDbDictionary
280
     1
281
     1
  3
ACAD_LAYOUTSELFREF
360
D4
  0
DICTIONARY
  5
A2
330
1A
100
AcDbDictionary
280
     1
281
     1
  3
ACAD_LAYOUTSELFREF
360
D3
  0
DICTIONARY
  5
DF
102
{ACAD_REACTORS
330
C
102
}
330
C
100
AcDbDictionary
281
     1
  0
DICTIONARY
  5
D
102
{ACAD_REACTORS
330
C
102
}
330
C
100
AcDbDictionary
281
     1
  0
DICTIONARY
  5
19
102
{ACAD_REACTORS
330
C
102
}
330
C
100
AcDbDictionary
281
     1
  3
Layout1
350
1D
  3
Model
350
21
  0
DICTIONARY
  5
DE
102
{ACAD_REACTORS
330
C
102
}
330
C
100
AcDbDictionary
281
     1
  0
DICTIONARY
  5
16
102
{ACAD_REACTORS
330
C
102
}
330
C
100
AcDbDictionary
281
     1
  3
Standard
350
17
  0
DICTIONARY
  5
18
102
{ACAD_REACTORS
330
C
102
}
330
C
100
AcDbDictionary
281
     1
  0
ACDBDICTIONARYWDFLT
  5
E
102
{ACAD_REACTORS
330
C
102
}
330
C
100
AcDbDictionary
281
     1
  3
Normal
350
F
100
AcDbDictionaryWithDefault
340
F
  0
DICTIONARY
  5
EA
102
{ACAD_REACTORS
330
C
102
}
330
C
100
AcDbDictionary
281
     1
  3
DIMASSOC
350
EB
  3
PROJECTNAME
350
EC
  0
XRECORD
  5
D4
102
{ACAD_REACTORS
330
A0
102
}
330
A0
100
AcDbXrecord
280
     1
340
1E
  0
XRECORD
  5
D3
102
{ACAD_REACTORS
330
A2
102
}
330
A2
100
AcDbXrecord
280
     1
340
1A
  0
LAYOUT
  5
1D
102
{ACAD_REACTORS
330
19
102
}
330
19
100
AcDbPlotSettings
  1

  2
\\NT_WORK01\HP LaserJet 5000 PCL 6
  4

  6

 40
0.0
 41
0.0
 42
0.0
 43
0.0
 44
0.0
 45
0.0
 46
0.0
 47
0.0
 48
0.0
 49
0.0
140
0.0
141
0.0
142
1.0
143
1.0
 70
   688
 72
     0
 73
     0
 74
     5
  7

 75
    16
147
1.0
 76
     0
 77
     2
 78
   300
148
0.0
149
0.0
100
AcDbLayout
  1
Layout1
 70
     0
 71
     1
 10
0.0
 20
0.0
 11
12.0
 21
9.0
 12
0.0
 22
0.0
 32
0.0
 14
1.000000000000000E+20
 24
1.000000000000000E+20
 34
1.000000000000000E+20
 15
-1.000000000000000E+20
 25
-1.000000000000000E+20
 35
-1.000000000000000E+20
146
0.0
 13
0.0
 23
0.0
 33
0.0
 16
1.0
 26
0.0
 36
0.0
 17
0.0
 27
1.0
 37
0.0
 76
     0
330
1A
  0
LAYOUT
  5
21
102
{ACAD_REACTORS
330
19
102
}
330
19
100
AcDbPlotSettings
  1

  2
none_device
  4
Letter_(8.50_x_11.00_Inches)
  6

 40
6.349999904632568
 41
6.349999904632568
 42
6.350006103515625
 43
6.350006103515625
 44
215.8999938964844
 45
279.3999938964844
 46
0.0
 47
0.0
 48
0.0
 49
0.0
140
0.0
141
0.0
142
1.0
143
1.0
 70
 11952
 72
     0
 73
     1
 74
     0
  7

 75
     0
147
1.0
 76
     0
 77
     2
 78
   300
148
2209.800000000002
149
0.0
100
AcDbLayout
  1
Model
 70
     1
 71
     0
 10
0.0
 20
0.0
 11
12.0
 21
9.0
 12
0.0
 22
0.0
 32
0.0
 14
0.0
 24
0.0
 34
0.0
 15
0.0
 25
0.0
 35
0.0
146
0.0
 13
0.0
 23
0.0
 33
0.0
 16
1.0
 26
0.0
 36
0.0
 17
0.0
 27
1.0
 37
0.0
 76
     0
330
1E
  0
MLINESTYLE
  5
17
102
{ACAD_REACTORS
330
16
102
}
330
16
100
AcDbMlineStyle
  2
STANDARD
 70
     0
  3

 62
   256
 51
90.0
 52
90.0
 71
     2
 49
0.5
 62
   256
  6
BYLAYER
 49
-0.5
 62
   256
  6
BYLAYER
  0
ACDBPLACEHOLDER
  5
F
102
{ACAD_REACTORS
330
E
102
}
330
E
  0
DICTIONARYVAR
  5
EB
102
{ACAD_REACTORS
330
EA
102
}
330
EA
100
DictionaryVariables
280
     0
  1
1
  0
DICTIONARYVAR
  5
EC
102
{ACAD_REACTORS
330
EA
102
}
330
EA
100
DictionaryVariables
280
     0
  1

  0
ENDSEC
  0
EOF
