  0
SECTION
  2
HEADER
  9
$ACADVER
  1
AC1018
  9
$ACADMAINTVER
 70
     2
  9
$DWGCODEPAGE
  3
ANSI_1252
  9
$INSBASE
 10
0.0
 20
0.0
 30
0.0
  9
$EXTMIN
 10
-0.0000000000001137
 20
-0.0000000000001137
 30
0.0
  9
$EXTMAX
 10
420.0
 20
594.0000000000002
 30
0.0
  9
$LIMMIN
 10
0.0
 20
0.0
  9
$LIMMAX
 10
419.9999999999999
 20
594.0
  9
$ORTHOMODE
 70
     1
  9
$REGENMODE
 70
     1
  9
$FILLMODE
 70
     1
  9
$QTEXTMODE
 70
     0
  9
$MIRRTEXT
 70
     1
  9
$LTSCALE
 40
20.0
  9
$ATTMODE
 70
     1
  9
$TEXTSIZE
 40
3.5
  9
$TRACEWID
 40
0.5
  9
$TEXTSTYLE
  7
STANDARD
  9
$CLAYER
  8
VOLL
  9
$CELTYPE
  6
ByLayer
  9
$CECOLOR
 62
   256
  9
$CELTSCALE
 40
1.0
  9
$DISPSILH
 70
     0
  9
$DIMSCALE
 40
2.0
  9
$DIMASZ
 40
3.5
  9
$DIMEXO
 40
1.0
  9
$DIMDLI
 40
7.0
  9
$DIMRND
 40
0.0
  9
$DIMDLE
 40
0.0
  9
$DIMEXE
 40
1.0
  9
$DIMTP
 40
0.0
  9
$DIMTM
 40
0.0
  9
$DIMTXT
 40
3.5
  9
$DIMCEN
 40
1.5
  9
$DIMTSZ
 40
0.0
  9
$DIMTOL
 70
     0
  9
$DIMLIM
 70
     0
  9
$DIMTIH
 70
     0
  9
$DIMTOH
 70
     0
  9
$DIMSE1
 70
     0
  9
$DIMSE2
 70
     0
  9
$DIMTAD
 70
     1
  9
$DIMZIN
 70
     8
  9
$DIMBLK
  1

  9
$DIMASO
 70
     1
  9
$DIMSHO
 70
     0
  9
$DIMPOST
  1

  9
$DIMAPOST
  1

  9
$DIMALT
 70
     0
  9
$DIMALTD
 70
     2
  9
$DIMALTF
 40
25.4
  9
$DIMLFAC
 40
1.0
  9
$DIMTOFL
 70
     1
  9
$DIMTVP
 40
0.0
  9
$DIMTIX
 70
     0
  9
$DIMSOXD
 70
     0
  9
$DIMSAH
 70
     0
  9
$DIMBLK1
  1

  9
$DIMBLK2
  1

  9
$DIMSTYLE
  2
Standard
  9
$DIMCLRD
 70
     0
  9
$DIMCLRE
 70
     0
  9
$DIMCLRT
 70
     1
  9
$DIMTFAC
 40
0.5142857142857144
  9
$DIMGAP
 40
1.5
  9
$DIMJUST
 70
     0
  9
$DIMSD1
 70
     0
  9
$DIMSD2
 70
     0
  9
$DIMTOLJ
 70
     1
  9
$DIMTZIN
 70
     8
  9
$DIMALTZ
 70
     8
  9
$DIMALTTZ
 70
     8
  9
$DIMUPT
 70
     0
  9
$DIMDEC
 70
     2
  9
$DIMTDEC
 70
     2
  9
$DIMALTU
 70
     2
  9
$DIMALTTD
 70
     2
  9
$DIMTXSTY
  7
STANDARD
  9
$DIMAUNIT
 70
     0
  9
$DIMADEC
 70
     2
  9
$DIMALTRND
 40
0.0
  9
$DIMAZIN
 70
     2
  9
$DIMDSEP
 70
    46
  9
$DIMATFIT
 70
     3
  9
$DIMFRAC
 70
     0
  9
$DIMLDRBLK
  1

  9
$DIMLUNIT
 70
     2
  9
$DIMLWD
 70
    -2
  9
$DIMLWE
 70
    -2
  9
$DIMTMOVE
 70
     0
  9
$LUNITS
 70
     2
  9
$LUPREC
 70
     2
  9
$SKETCHINC
 40
1.0
  9
$FILLETRAD
 40
5.0
  9
$AUNITS
 70
     0
  9
$AUPREC
 70
     0
  9
$MENU
  1
ACAD
  9
$ELEVATION
 40
0.0
  9
$PELEVATION
 40
0.0
  9
$THICKNESS
 40
0.0
  9
$LIMCHECK
 70
     0
  9
$CHAMFERA
 40
0.0
  9
$CHAMFERB
 40
0.0
  9
$CHAMFERC
 40
0.0
  9
$CHAMFERD
 40
0.0
  9
$SKPOLY
 70
     0
  9
$TDCREATE
 40
2455397.823042361
  9
$TDUCREATE
 40
2455397.781375695
  9
$TDUPDATE
 40
2455502.415006505
  9
$TDUUPDATE
 40
2455502.373339838
  9
$TDINDWG
 40
0.0512246181
  9
$TDUSRTIMER
 40
0.0512246181
  9
$USRTIMER
 70
     1
  9
$ANGBASE
 50
0.0
  9
$ANGDIR
 70
     0
  9
$PDMODE
 70
     0
  9
$PDSIZE
 40
0.0
  9
$PLINEWID
 40
0.0
  9
$SPLFRAME
 70
     0
  9
$SPLINETYPE
 70
     6
  9
$SPLINESEGS
 70
     8
  9
$HANDSEED
  5
6E2
  9
$SURFTAB1
 70
     6
  9
$SURFTAB2
 70
     6
  9
$SURFTYPE
 70
     6
  9
$SURFU
 70
     6
  9
$SURFV
 70
     6
  9
$UCSBASE
  2

  9
$UCSNAME
  2

  9
$UCSORG
 10
0.0
 20
0.0
 30
0.0
  9
$UCSXDIR
 10
1.0
 20
0.0
 30
0.0
  9
$UCSYDIR
 10
0.0
 20
1.0
 30
0.0
  9
$UCSORTHOREF
  2

  9
$UCSORTHOVIEW
 70
     0
  9
$UCSORGTOP
 10
0.0
 20
0.0
 30
0.0
  9
$UCSORGBOTTOM
 10
0.0
 20
0.0
 30
0.0
  9
$UCSORGLEFT
 10
0.0
 20
0.0
 30
0.0
  9
$UCSORGRIGHT
 10
0.0
 20
0.0
 30
0.0
  9
$UCSORGFRONT
 10
0.0
 20
0.0
 30
0.0
  9
$UCSORGBACK
 10
0.0
 20
0.0
 30
0.0
  9
$PUCSBASE
  2

  9
$PUCSNAME
  2

  9
$PUCSORG
 10
0.0
 20
0.0
 30
0.0
  9
$PUCSXDIR
 10
1.0
 20
0.0
 30
0.0
  9
$PUCSYDIR
 10
0.0
 20
1.0
 30
0.0
  9
$PUCSORTHOREF
  2

  9
$PUCSORTHOVIEW
 70
     0
  9
$PUCSORGTOP
 10
0.0
 20
0.0
 30
0.0
  9
$PUCSORGBOTTOM
 10
0.0
 20
0.0
 30
0.0
  9
$PUCSORGLEFT
 10
0.0
 20
0.0
 30
0.0
  9
$PUCSORGRIGHT
 10
0.0
 20
0.0
 30
0.0
  9
$PUCSORGFRONT
 10
0.0
 20
0.0
 30
0.0
  9
$PUCSORGBACK
 10
0.0
 20
0.0
 30
0.0
  9
$USERI1
 70
     0
  9
$USERI2
 70
     0
  9
$USERI3
 70
     0
  9
$USERI4
 70
     0
  9
$USERI5
 70
     0
  9
$USERR1
 40
0.0
  9
$USERR2
 40
0.0
  9
$USERR3
 40
0.0
  9
$USERR4
 40
0.0
  9
$USERR5
 40
0.0
  9
$WORLDVIEW
 70
     1
  9
$SHADEDGE
 70
     3
  9
$SHADEDIF
 70
    70
  9
$TILEMODE
 70
     1
  9
$MAXACTVP
 70
    16
  9
$PINSBASE
 10
0.0
 20
0.0
 30
0.0
  9
$PLIMCHECK
 70
     0
  9
$PEXTMIN
 10
1.000000000000000E+20
 20
1.000000000000000E+20
 30
1.000000000000000E+20
  9
$PEXTMAX
 10
-1.000000000000000E+20
 20
-1.000000000000000E+20
 30
-1.000000000000000E+20
  9
$PLIMMIN
 10
0.0
 20
0.0
  9
$PLIMMAX
 10
12.0
 20
9.0
  9
$UNITMODE
 70
     0
  9
$VISRETAIN
 70
     0
  9
$PLINEGEN
 70
     0
  9
$PSLTSCALE
 70
     0
  9
$TREEDEPTH
 70
  3020
  9
$CMLSTYLE
  2
Standard
  9
$CMLJUST
 70
     0
  9
$CMLSCALE
 40
1.0
  9
$PROXYGRAPHICS
 70
     1
  9
$MEASUREMENT
 70
     0
  9
$CELWEIGHT
370
    -1
  9
$ENDCAPS
280
     0
  9
$JOINSTYLE
280
     0
  9
$LWDISPLAY
290
     0
  9
$INSUNITS
 70
     0
  9
$HYPERLINKBASE
  1

  9
$STYLESHEET
  1
monochrome 1.ctb
  9
$XEDIT
290
     1
  9
$CEPSNTYPE
380
     0
  9
$PSTYLEMODE
290
     1
  9
$FINGERPRINTGUID
  2
{D68B0D02-A558-11D7-B632-000102183313}
  9
$VERSIONGUID
  2
{FBE22E5A-3FA9-4DCA-9F91-DCDF163CC337}
  9
$EXTNAMES
290
     1
  9
$PSVPSCALE
 40
0.0
  9
$OLESTARTUP
290
     0
  9
$SORTENTS
280
   127
  9
$INDEXCTL
280
     0
  9
$HIDETEXT
280
     0
  9
$XCLIPFRAME
290
     0
  9
$HALOGAP
280
     0
  9
$OBSCOLOR
 70
   257
  9
$OBSLTYPE
280
     0
  9
$INTERSECTIONDISPLAY
280
     0
  9
$INTERSECTIONCOLOR
 70
   257
  9
$DIMASSOC
280
     1
  9
$PROJECTNAME
  1

  0
ENDSEC
  0
SECTION
  2
CLASSES
  0
CLASS
  1
ACDBDICTIONARYWDFLT
  2
AcDbDictionaryWithDefault
  3
ObjectDBX Classes
 90
        0
 91
        1
280
     0
281
     0
  0
CLASS
  1
DICTIONARYVAR
  2
AcDbDictionaryVar
  3
ObjectDBX Classes
 90
        0
 91
        2
280
     0
281
     0
  0
ENDSEC
  0
SECTION
  2
TABLES
  0
TABLE
  2
VPORT
  5
8
330
0
100
AcDbSymbolTable
 70
     2
  0
VPORT
  5
6E1
330
8
100
AcDbSymbolTableRecord
100
AcDbViewportTableRecord
  2
*Active
 70
     0
 10
0.0
 20
0.0
 11
1.0
 21
1.0
 12
210.0000009778887
 22
297.0000013830141
 13
0.0
 23
0.0
 14
1.0
 24
1.0
 15
10.0
 25
10.0
 16
0.0
 26
0.0
 36
1.0
 17
0.0
 27
0.0
 37
0.0
 40
598.9468433590205
 41
1.336927223719676
 42
50.0
 43
0.0
 44
0.0
 50
0.0
 51
0.0
 71
     0
 72
  1500
 73
     1
 74
     0
 75
     0
 76
     0
 77
     0
 78
     0
281
     0
 65
     1
110
0.0
120
0.0
130
0.0
111
1.0
121
0.0
131
0.0
112
0.0
122
1.0
132
0.0
 79
     0
146
0.0
  0
ENDTAB
  0
TABLE
  2
LTYPE
  5
5
330
0
100
AcDbSymbolTable
 70
     3
  0
LTYPE
  5
13
330
5
100
AcDbSymbolTableRecord
100
AcDbLinetypeTableRecord
  2
ByBlock
 70
     0
  3

 72
    65
 73
     0
 40
0.0
  0
LTYPE
  5
14
330
5
100
AcDbSymbolTableRecord
100
AcDbLinetypeTableRecord
  2
ByLayer
 70
     0
  3

 72
    65
 73
     0
 40
0.0
  0
LTYPE
  5
15
330
5
100
AcDbSymbolTableRecord
100
AcDbLinetypeTableRecord
  2
Continuous
 70
     0
  3
Solid line
 72
    65
 73
     0
 40
0.0
  0
LTYPE
  5
25
330
5
100
AcDbSymbolTableRecord
100
AcDbLinetypeTableRecord
  2
STRICHPUNKT
 70
     0
  3
__ . __ . __ . __ . __ . __ . __ . __ . __ . __
 72
    65
 73
     4
 40
1.0
 49
0.5
 74
     0
 49
-0.25
 74
     0
 49
0.0
 74
     0
 49
-0.25
 74
     0
  0
LTYPE
  5
32
330
5
100
AcDbSymbolTableRecord
100
AcDbLinetypeTableRecord
  2
AUSGEZOGEN
 70
     0
  3
Ausgezogene Linie
 72
    65
 73
     0
 40
0.0
  0
ENDTAB
  0
TABLE
  2
LAYER
  5
2
330
0
100
AcDbSymbolTable
 70
     9
  0
LAYER
  5
10
330
2
100
AcDbSymbolTableRecord
100
AcDbLayerTableRecord
  2
0
 70
     0
 62
     7
  6
Continuous
370
    -3
390
F
  0
LAYER
  5
2A
330
2
100
AcDbSymbolTableRecord
100
AcDbLayerTableRecord
  2
VOLL
 70
     0
 62
     1
  6
Continuous
370
    -3
390
F
  0
LAYER
  5
2B
330
2
100
AcDbSymbolTableRecord
100
AcDbLayerTableRecord
  2
HILF
 70
     0
 62
     2
  6
Continuous
370
    -3
390
F
  0
LAYER
  5
2C
330
2
100
AcDbSymbolTableRecord
100
AcDbLayerTableRecord
  2
MITTEL
 70
     0
 62
     2
  6
STRICHPUNKT
370
    -3
390
F
  0
LAYER
  5
2F
330
2
100
AcDbSymbolTableRecord
100
AcDbLayerTableRecord
  2
BEM
 70
     0
 62
     7
  6
Continuous
370
    -3
390
F
  0
LAYER
  5
30
330
2
100
AcDbSymbolTableRecord
100
AcDbLayerTableRecord
  2
STEMPEL
 70
     0
 62
     3
  6
Continuous
370
    -3
390
F
  0
LAYER
  5
31
330
2
100
AcDbSymbolTableRecord
100
AcDbLayerTableRecord
  2
TEXT
 70
     0
 62
     7
  6
Continuous
370
    -3
390
F
  0
LAYER
  5
1AA
330
2
100
AcDbSymbolTableRecord
100
AcDbLayerTableRecord
  2
DEFPOINTS
 70
     0
 62
     7
  6
AUSGEZOGEN
290
     0
370
    -3
390
F
  0
LAYER
  5
1AB
330
2
100
AcDbSymbolTableRecord
100
AcDbLayerTableRecord
  2
SCHRAFF
 70
     0
 62
     7
  6
AUSGEZOGEN
370
    -3
390
F
  0
ENDTAB
  0
TABLE
  2
STYLE
  5
3
330
0
100
AcDbSymbolTable
 70
     2
  0
STYLE
  5
11
330
3
100
AcDbSymbolTableRecord
100
AcDbTextStyleTableRecord
  2
STANDARD
 70
     0
 40
0.0
 41
0.8
 50
0.0
 71
     0
 42
3.5
  3
simplex.shx
  4

  0
STYLE
  5
24
330
3
100
AcDbSymbolTableRecord
100
AcDbTextStyleTableRecord
  2
GREEKS
 70
     0
 40
0.0
 41
0.8
 50
0.0
 71
     0
 42
2.5
  3
SIMPLEX.shx
  4

  0
ENDTAB
  0
TABLE
  2
VIEW
  5
6
330
0
100
AcDbSymbolTable
 70
     0
  0
ENDTAB
  0
TABLE
  2
UCS
  5
7
330
0
100
AcDbSymbolTable
 70
     0
  0
ENDTAB
  0
TABLE
  2
APPID
  5
9
330
0
100
AcDbSymbolTable
 70
     1
  0
APPID
  5
12
330
9
100
AcDbSymbolTableRecord
100
AcDbRegAppTableRecord
  2
ACAD
 70
     0
  0
ENDTAB
  0
TABLE
  2
DIMSTYLE
  5
A
330
0
100
AcDbSymbolTable
 70
     1
100
AcDbDimStyleTable
 71
     1
340
9D
  0
DIMSTYLE
105
9D
102
{ACAD_REACTORS
330
281
330
271
330
26D
330
45C
330
54D
330
54E
330
54F
102
}
330
A
100
AcDbSymbolTableRecord
100
AcDbDimStyleTableRecord
  2
Standard
 70
     0
340
11
  0
ENDTAB
  0
TABLE
  2
BLOCK_RECORD
  5
1
330
0
100
AcDbSymbolTable
 70
     8
  0
BLOCK_RECORD
  5
1E
102
{ACAD_XDICTIONARY
360
A0
102
}
330
1
100
AcDbSymbolTableRecord
100
AcDbBlockTableRecord
  2
*Model_Space
340
21
  0
BLOCK_RECORD
  5
1A
102
{ACAD_XDICTIONARY
360
A2
102
}
330
1
100
AcDbSymbolTableRecord
100
AcDbBlockTableRecord
  2
*Paper_Space
340
1D
  0
BLOCK_RECORD
  5
22
330
1
100
AcDbSymbolTableRecord
100
AcDbBlockTableRecord
  2
LOGO
340
0
102
{BLKREFS
331
276
102
}
  0
BLOCK_RECORD
  5
32A
330
1
100
AcDbSymbolTableRecord
100
AcDbBlockTableRecord
  2
*D1
340
0
  0
BLOCK_RECORD
  5
344
330
1
100
AcDbSymbolTableRecord
100
AcDbBlockTableRecord
  2
*D2
340
0
  0
BLOCK_RECORD
  5
35E
330
1
100
AcDbSymbolTableRecord
100
AcDbBlockTableRecord
  2
*D3
340
0
  0
BLOCK_RECORD
  5
464
330
1
100
AcDbSymbolTableRecord
100
AcDbBlockTableRecord
  2
*D4
340
0
  0
BLOCK_RECORD
  5
563
330
1
100
AcDbSymbolTableRecord
100
AcDbBlockTableRecord
  2
*D5
340
0
  0
BLOCK_RECORD
  5
56F
330
1
100
AcDbSymbolTableRecord
100
AcDbBlockTableRecord
  2
*D6
340
0
  0
BLOCK_RECORD
  5
57B
330
1
100
AcDbSymbolTableRecord
100
AcDbBlockTableRecord
  2
*D7
340
0
  0
ENDTAB
  0
ENDSEC
  0
SECTION
  2
BLOCKS
  0
BLOCK
  5
35
330
1E
100
AcDbEntity
  8
0
100
AcDbBlockBegin
  2
*Model_Space
 70
     0
 10
0.0
 20
0.0
 30
0.0
  3
*Model_Space
  1

  0
ENDBLK
  5
36
330
1E
100
AcDbEntity
  8
0
100
AcDbBlockEnd
  0
BLOCK
  5
33
330
1A
100
AcDbEntity
 67
     1
  8
0
100
AcDbBlockBegin
  2
*Paper_Space
 70
     0
 10
0.0
 20
0.0
 30
0.0
  3
*Paper_Space
  1

  0
ENDBLK
  5
34
330
1A
100
AcDbEntity
 67
     1
  8
0
100
AcDbBlockEnd
  0
BLOCK
  5
37
330
22
100
AcDbEntity
  8
0
100
AcDbBlockBegin
  2
LOGO
 70
     0
 10
0.0
 20
0.0
 30
0.0
  3
LOGO
  1

  0
ARC
  5
38
330
22
100
AcDbEntity
  8
0
100
AcDbCircle
 10
11.59973089678112
 20
-9.271599258481501
 30
0.0
 40
4.5
100
AcDbArc
 50
270.0
 51
231.0575587310159
  0
LINE
  5
39
330
22
100
AcDbEntity
  8
0
100
AcDbLine
 10
3.599730896781125
 20
-4.771599258481529
 30
0.0
 11
3.599730896781153
 21
-11.77159925848133
 31
0.0
  0
LINE
  5
3A
330
22
100
AcDbEntity
  8
0
100
AcDbLine
 10
2.599730896781125
 20
-4.771599258481529
 30
0.0
 11
2.599730896781153
 21
-11.77159925848133
 31
0.0
  0
CIRCLE
  5
3B
330
22
100
AcDbEntity
  8
0
100
AcDbCircle
 10
11.59973089678112
 20
-9.271599258481501
 30
0.0
 40
3.5
  0
ARC
  5
3C
330
22
100
AcDbEntity
  8
0
100
AcDbCircle
 10
31.59973089678115
 20
-9.271599258481472
 30
0.0
 40
4.5
100
AcDbArc
 50
270.0
 51
231.0575587310182
  0
LINE
  5
3D
330
22
100
AcDbEntity
  8
0
100
AcDbLine
 10
17.59973089678112
 20
-4.771599258481472
 30
0.0
 11
17.59973089678115
 21
-13.77159925848147
 31
0.0
  0
ARC
  5
3E
330
22
100
AcDbEntity
  8
0
100
AcDbCircle
 10
22.59973089678116
 20
-7.271599258481472
 30
0.0
 40
2.5
100
AcDbArc
 50
293.1161887722295
 51
90.0
  0
CIRCLE
  5
3F
330
22
100
AcDbEntity
  8
0
100
AcDbCircle
 10
31.59973089678115
 20
-9.271599258481472
 30
0.0
 40
3.5
  0
ARC
  5
40
330
22
100
AcDbEntity
  8
0
100
AcDbCircle
 10
4.599730896781153
 20
-11.77159925848133
 30
0.0
 40
1.0
100
AcDbArc
 50
180.0
 51
270.0
  0
ARC
  5
41
330
22
100
AcDbEntity
  8
0
100
AcDbCircle
 10
4.599730896781153
 20
-11.77159925848133
 30
0.0
 40
2.0
100
AcDbArc
 50
179.9999999999992
 51
270.0
  0
LINE
  5
42
330
22
100
AcDbEntity
  8
0
100
AcDbLine
 10
11.59973089678115
 20
-13.77159925848144
 30
0.0
 11
4.599730896781153
 21
-13.77159925848147
 31
0.0
  0
LINE
  5
43
330
22
100
AcDbEntity
  8
0
100
AcDbLine
 10
8.771303772034769
 20
-12.77159925848136
 30
0.0
 11
4.599730896781153
 21
-12.77159925848133
 31
0.0
  0
LINE
  5
44
330
22
100
AcDbEntity
  8
0
100
AcDbLine
 10
31.59973089678115
 20
-13.77159925848147
 30
0.0
 11
23.6715276665056
 21
-13.77159925848144
 31
0.0
  0
LINE
  5
45
330
22
100
AcDbEntity
  8
0
100
AcDbLine
 10
23.56565672307022
 20
-9.51278021337896
 30
0.0
 11
24.4388546544846
 21
-12.77159925848144
 31
0.0
  0
LINE
  5
46
330
22
100
AcDbEntity
  8
0
100
AcDbLine
 10
22.59973089678116
 20
-9.771599258481472
 30
0.0
 11
18.59973089678112
 21
-9.771599258481472
 31
0.0
  0
LINE
  5
47
330
22
100
AcDbEntity
  8
0
100
AcDbLine
 10
18.59973089678115
 20
-13.77159925848144
 30
0.0
 11
17.59973089678115
 21
-13.77159925848144
 31
0.0
  0
LINE
  5
48
330
22
100
AcDbEntity
  8
0
100
AcDbLine
 10
18.59973089678115
 20
-9.771599258481472
 30
0.0
 11
18.59973089678115
 21
-13.77159925848144
 31
0.0
  0
LINE
  5
49
330
22
100
AcDbEntity
  8
0
100
AcDbLine
 10
22.59973089678116
 20
-9.771599258481472
 30
0.0
 11
23.67152766650562
 21
-13.77159925848147
 31
0.0
  0
ARC
  5
4A
330
22
100
AcDbEntity
  8
0
100
AcDbCircle
 10
22.59973089678116
 20
-7.271599258481472
 30
0.0
 40
2.5
100
AcDbArc
 50
270.0
 51
270.0000000000007
  0
LINE
  5
4B
330
22
100
AcDbEntity
  8
0
100
AcDbLine
 10
28.77130377203494
 20
-12.77159925848147
 30
0.0
 11
24.43885465448463
 21
-12.77159925848144
 31
0.0
  0
LINE
  5
4C
330
22
100
AcDbEntity
  8
0
100
AcDbLine
 10
3.599730896781125
 20
-4.771599258481472
 30
0.0
 11
2.599730896781125
 21
-4.771599258481472
 31
0.0
  0
LINE
  5
4D
330
22
100
AcDbEntity
  8
0
100
AcDbLine
 10
22.59973089678116
 20
-8.771599258481472
 30
0.0
 11
18.59973089678115
 21
-8.771599258481472
 31
0.0
  0
LINE
  5
4E
330
22
100
AcDbEntity
  8
0
100
AcDbLine
 10
22.59973089678116
 20
-5.771599258481472
 30
0.0
 11
18.59973089678115
 21
-5.771599258481472
 31
0.0
  0
LINE
  5
4F
330
22
100
AcDbEntity
  8
0
100
AcDbLine
 10
22.59973089678116
 20
-4.771599258481472
 30
0.0
 11
17.59973089678115
 21
-4.771599258481472
 31
0.0
  0
LINE
  5
50
330
22
100
AcDbEntity
  8
0
100
AcDbLine
 10
18.59973089678115
 20
-5.771599258481472
 30
0.0
 11
18.59973089678115
 21
-8.771599258481472
 31
0.0
  0
ARC
  5
51
330
22
100
AcDbEntity
  8
0
100
AcDbCircle
 10
22.59973089678116
 20
-7.271599258481472
 30
0.0
 40
1.5
100
AcDbArc
 50
270.0
 51
90.0
  0
ENDBLK
  5
52
330
22
100
AcDbEntity
  8
0
100
AcDbBlockEnd
  0
BLOCK
  5
335
330
32A
100
AcDbEntity
  8
0
100
AcDbBlockBegin
  2
*D1
 70
     1
 10
0.0
 20
0.0
 30
0.0
  3
*D1
  1

  0
LINE
  5
5DC
330
32A
100
AcDbEntity
  8
BEM
 62
     0
370
    -2
100
AcDbLine
 10
106.6494671121176
 20
492.1220450128565
 30
0.0
 11
106.6494671121176
 21
512.9545851429748
 31
0.0
  0
LINE
  5
5DD
330
32A
100
AcDbEntity
  8
BEM
 62
     0
370
    -2
100
AcDbLine
 10
360.6494671121177
 20
492.1220450128558
 30
0.0
 11
360.6494671121177
 21
512.9545851429748
 31
0.0
  0
LINE
  5
5DE
330
32A
100
AcDbEntity
  8
BEM
 62
     0
370
    -2
100
AcDbLine
 10
113.6494671121176
 20
510.9545851429747
 30
0.0
 11
353.6494671121177
 21
510.9545851429747
 31
0.0
  0
SOLID
  5
5DF
330
32A
100
AcDbEntity
  8
BEM
 62
     0
100
AcDbTrace
 10
113.6494671121176
 20
512.1212518096414
 30
0.0
 11
113.6494671121176
 21
509.7879184763081
 31
0.0
 12
106.6494671121176
 22
510.9545851429747
 32
0.0
 13
106.6494671121176
 23
510.9545851429747
 33
0.0
  0
SOLID
  5
5E0
330
32A
100
AcDbEntity
  8
BEM
 62
     0
100
AcDbTrace
 10
353.6494671121177
 20
512.1212518096414
 30
0.0
 11
353.6494671121177
 21
509.7879184763081
 31
0.0
 12
360.6494671121177
 22
510.9545851429747
 32
0.0
 13
360.6494671121177
 23
510.9545851429747
 33
0.0
  0
MTEXT
  5
5E1
330
32A
100
AcDbEntity
  8
BEM
 62
     1
100
AcDbMText
 10
233.6494671121177
 20
517.4545851429748
 30
0.0
 40
7.0
 41
0.0
 71
     5
 72
     1
  1
\A1;%%c254
 73
     1
 44
1.0
  0
POINT
  5
5E2
330
32A
100
AcDbEntity
  8
DEFPOINTS
 62
     0
100
AcDbPoint
 10
106.6494671121176
 20
490.1220450128564
 30
0.0
  0
POINT
  5
5E3
330
32A
100
AcDbEntity
  8
DEFPOINTS
 62
     0
100
AcDbPoint
 10
360.6494671121177
 20
490.1220450128558
 30
0.0
  0
POINT
  5
5E4
330
32A
100
AcDbEntity
  8
DEFPOINTS
 62
     0
100
AcDbPoint
 10
360.6494671121177
 20
510.9545851429747
 30
0.0
  0
ENDBLK
  5
336
330
32A
100
AcDbEntity
  8
0
100
AcDbBlockEnd
  0
BLOCK
  5
34F
330
344
100
AcDbEntity
  8
0
100
AcDbBlockBegin
  2
*D2
 70
     1
 10
0.0
 20
0.0
 30
0.0
  3
*D2
  1

  0
LINE
  5
3ED
330
344
100
AcDbEntity
  8
BEM
 62
     0
370
    -2
100
AcDbLine
 10
68.64946711211769
 20
458.2433653564162
 30
0.0
 11
68.64946711211769
 21
528.9545851429748
 31
0.0
  0
LINE
  5
3EE
330
344
100
AcDbEntity
  8
BEM
 62
     0
370
    -2
100
AcDbLine
 10
398.6494671121175
 20
458.2433653564162
 30
0.0
 11
398.6494671121175
 21
528.9545851429748
 31
0.0
  0
LINE
  5
3EF
330
344
100
AcDbEntity
  8
BEM
 62
     0
370
    -2
100
AcDbLine
 10
75.64946711211769
 20
526.9545851429747
 30
0.0
 11
391.6494671121175
 21
526.9545851429747
 31
0.0
  0
SOLID
  5
3F0
330
344
100
AcDbEntity
  8
BEM
 62
     0
100
AcDbTrace
 10
75.64946711211769
 20
528.1212518096414
 30
0.0
 11
75.64946711211769
 21
525.7879184763082
 31
0.0
 12
68.64946711211769
 22
526.9545851429747
 32
0.0
 13
68.64946711211769
 23
526.9545851429747
 33
0.0
  0
SOLID
  5
3F1
330
344
100
AcDbEntity
  8
BEM
 62
     0
100
AcDbTrace
 10
391.6494671121175
 20
528.1212518096414
 30
0.0
 11
391.6494671121175
 21
525.7879184763082
 31
0.0
 12
398.6494671121175
 22
526.9545851429747
 32
0.0
 13
398.6494671121175
 23
526.9545851429747
 33
0.0
  0
MTEXT
  5
3F2
330
344
100
AcDbEntity
  8
BEM
 62
     1
100
AcDbMText
 10
233.6494671121176
 20
533.4545851429748
 30
0.0
 40
7.0
 41
0.0
 71
     5
 72
     1
  1
\A1;%%c330
 73
     1
 44
1.0
  0
POINT
  5
3F3
330
344
100
AcDbEntity
  8
DEFPOINTS
 62
     0
100
AcDbPoint
 10
68.64946711211769
 20
456.2433653564162
 30
0.0
  0
POINT
  5
3F4
330
344
100
AcDbEntity
  8
DEFPOINTS
 62
     0
100
AcDbPoint
 10
398.6494671121175
 20
456.2433653564162
 30
0.0
  0
POINT
  5
3F5
330
344
100
AcDbEntity
  8
DEFPOINTS
 62
     0
100
AcDbPoint
 10
398.6494671121175
 20
526.9545851429747
 30
0.0
  0
ENDBLK
  5
350
330
344
100
AcDbEntity
  8
0
100
AcDbBlockEnd
  0
BLOCK
  5
369
330
35E
100
AcDbEntity
  8
0
100
AcDbBlockBegin
  2
*D3
 70
     1
 10
0.0
 20
0.0
 30
0.0
  3
*D3
  1

  0
LINE
  5
3D2
330
35E
100
AcDbEntity
  8
BEM
 62
     0
370
    -2
100
AcDbLine
 10
166.6367743920584
 20
180.1220450128566
 30
0.0
 11
57.38889321095069
 21
180.1220450128566
 31
0.0
  0
LINE
  5
3D3
330
35E
100
AcDbEntity
  8
BEM
 62
     0
370
    -2
100
AcDbLine
 10
73.01342814279678
 20
460.1220450128566
 30
0.0
 11
57.38889321095076
 21
460.1220450128566
 31
0.0
  0
LINE
  5
3D4
330
35E
100
AcDbEntity
  8
BEM
 62
     0
370
    -2
100
AcDbLine
 10
59.3888932109507
 20
187.1220450128566
 30
0.0
 11
59.38889321095075
 21
453.1220450128565
 31
0.0
  0
SOLID
  5
3D5
330
35E
100
AcDbEntity
  8
BEM
 62
     0
100
AcDbTrace
 10
58.22222654428403
 20
187.1220450128566
 30
0.0
 11
60.55555987761736
 21
187.1220450128566
 31
0.0
 12
59.3888932109507
 22
180.1220450128566
 32
0.0
 13
59.3888932109507
 23
180.1220450128566
 33
0.0
  0
SOLID
  5
3D6
330
35E
100
AcDbEntity
  8
BEM
 62
     0
100
AcDbTrace
 10
58.22222654428409
 20
453.1220450128565
 30
0.0
 11
60.55555987761742
 21
453.1220450128565
 31
0.0
 12
59.38889321095075
 22
460.1220450128566
 32
0.0
 13
59.38889321095075
 23
460.1220450128566
 33
0.0
  0
MTEXT
  5
3D7
330
35E
100
AcDbEntity
  8
BEM
 62
     1
100
AcDbMText
 10
52.88889321095068
 20
320.1220450128566
 30
0.0
 40
7.0
 41
0.0
 71
     5
 72
     1
  1
\A1;280
 11
0.0000000000000001
 21
1.0
 31
0.0
 73
     1
 44
1.0
  0
POINT
  5
3D8
330
35E
100
AcDbEntity
  8
DEFPOINTS
 62
     0
100
AcDbPoint
 10
168.6367743920584
 20
180.1220450128566
 30
0.0
  0
POINT
  5
3D9
330
35E
100
AcDbEntity
  8
DEFPOINTS
 62
     0
100
AcDbPoint
 10
75.01342814279678
 20
460.1220450128566
 30
0.0
  0
POINT
  5
3DA
330
35E
100
AcDbEntity
  8
DEFPOINTS
 62
     0
100
AcDbPoint
 10
59.38889321095075
 20
460.1220450128566
 30
0.0
  0
ENDBLK
  5
36A
330
35E
100
AcDbEntity
  8
0
100
AcDbBlockEnd
  0
BLOCK
  5
46E
330
464
100
AcDbEntity
  8
0
100
AcDbBlockBegin
  2
*D4
 70
     1
 10
0.0
 20
0.0
 30
0.0
  3
*D4
  1

  0
LINE
  5
47C
330
464
100
AcDbEntity
  8
BEM
 62
     0
370
    -2
100
AcDbLine
 10
167.1494671121179
 20
190.1220450128626
 30
0.0
 11
167.1494671121179
 21
158.5512740880356
 31
0.0
  0
LINE
  5
47D
330
464
100
AcDbEntity
  8
BEM
 62
     0
370
    -2
100
AcDbLine
 10
300.1494671121179
 20
190.1220450128688
 30
0.0
 11
300.1494671121179
 21
158.5512740880356
 31
0.0
  0
LINE
  5
47E
330
464
100
AcDbEntity
  8
BEM
 62
     0
370
    -2
100
AcDbLine
 10
174.149467112118
 20
160.5512740880356
 30
0.0
 11
293.1494671121179
 21
160.5512740880356
 31
0.0
  0
SOLID
  5
47F
330
464
100
AcDbEntity
  8
BEM
 62
     0
100
AcDbTrace
 10
174.149467112118
 20
161.7179407547023
 30
0.0
 11
174.149467112118
 21
159.3846074213689
 31
0.0
 12
167.1494671121179
 22
160.5512740880356
 32
0.0
 13
167.1494671121179
 23
160.5512740880356
 33
0.0
  0
SOLID
  5
480
330
464
100
AcDbEntity
  8
BEM
 62
     0
100
AcDbTrace
 10
293.1494671121179
 20
161.7179407547023
 30
0.0
 11
293.1494671121179
 21
159.3846074213689
 31
0.0
 12
300.1494671121179
 22
160.5512740880356
 32
0.0
 13
300.1494671121179
 23
160.5512740880356
 33
0.0
  0
MTEXT
  5
481
330
464
100
AcDbEntity
  8
BEM
 62
     1
100
AcDbMText
 10
233.649467112118
 20
167.0512740880356
 30
0.0
 40
7.0
 41
0.0
 71
     5
 72
     1
  1
\A1;%%c133
 73
     1
 44
1.0
  0
POINT
  5
482
330
464
100
AcDbEntity
  8
DEFPOINTS
 62
     0
100
AcDbPoint
 10
167.1494671121179
 20
192.1220450128626
 30
0.0
  0
POINT
  5
483
330
464
100
AcDbEntity
  8
DEFPOINTS
 62
     0
100
AcDbPoint
 10
300.1494671121179
 20
192.1220450128688
 30
0.0
  0
POINT
  5
484
330
464
100
AcDbEntity
  8
DEFPOINTS
 62
     0
100
AcDbPoint
 10
300.1494671121179
 20
160.5512740880356
 30
0.0
  0
ENDBLK
  5
46F
330
464
100
AcDbEntity
  8
0
100
AcDbBlockEnd
  0
BLOCK
  5
56D
330
563
100
AcDbEntity
  8
0
100
AcDbBlockBegin
  2
*D5
 70
     1
 10
0.0
 20
0.0
 30
0.0
  3
*D5
  1

  0
LINE
  5
5EA
330
563
100
AcDbEntity
  8
BEM
 62
     0
370
    -2
100
AcDbLine
 10
138.6494671121176
 20
295.1220450128559
 30
0.0
 11
138.6494671121176
 21
276.6095265133884
 31
0.0
  0
LINE
  5
5EB
330
563
100
AcDbEntity
  8
BEM
 62
     0
370
    -2
100
AcDbLine
 10
328.6494671121176
 20
295.1220450128559
 30
0.0
 11
328.6494671121176
 21
276.6095265133884
 31
0.0
  0
LINE
  5
5EC
330
563
100
AcDbEntity
  8
BEM
 62
     0
370
    -2
100
AcDbLine
 10
145.6494671121176
 20
278.6095265133884
 30
0.0
 11
321.6494671121176
 21
278.6095265133884
 31
0.0
  0
SOLID
  5
5ED
330
563
100
AcDbEntity
  8
BEM
 62
     0
100
AcDbTrace
 10
145.6494671121176
 20
279.7761931800551
 30
0.0
 11
145.6494671121176
 21
277.4428598467217
 31
0.0
 12
138.6494671121176
 22
278.6095265133884
 32
0.0
 13
138.6494671121176
 23
278.6095265133884
 33
0.0
  0
SOLID
  5
5EE
330
563
100
AcDbEntity
  8
BEM
 62
     0
100
AcDbTrace
 10
321.6494671121176
 20
279.7761931800551
 30
0.0
 11
321.6494671121176
 21
277.4428598467217
 31
0.0
 12
328.6494671121176
 22
278.6095265133884
 32
0.0
 13
328.6494671121176
 23
278.6095265133884
 33
0.0
  0
MTEXT
  5
5EF
330
563
100
AcDbEntity
  8
BEM
 62
     1
100
AcDbMText
 10
233.6494671121176
 20
285.1095265133884
 30
0.0
 40
7.0
 41
0.0
 71
     5
 72
     1
  1
\A1;%%c190
 73
     1
 44
1.0
  0
POINT
  5
5F0
330
563
100
AcDbEntity
  8
DEFPOINTS
 62
     0
100
AcDbPoint
 10
138.6494671121176
 20
297.1220450128559
 30
0.0
  0
POINT
  5
5F1
330
563
100
AcDbEntity
  8
DEFPOINTS
 62
     0
100
AcDbPoint
 10
328.6494671121176
 20
297.1220450128559
 30
0.0
  0
POINT
  5
5F2
330
563
100
AcDbEntity
  8
DEFPOINTS
 62
     0
100
AcDbPoint
 10
328.6494671121176
 20
278.6095265133884
 30
0.0
  0
ENDBLK
  5
56E
330
563
100
AcDbEntity
  8
0
100
AcDbBlockEnd
  0
BLOCK
  5
579
330
56F
100
AcDbEntity
  8
0
100
AcDbBlockBegin
  2
*D6
 70
     1
 10
0.0
 20
0.0
 30
0.0
  3
*D6
  1

  0
LINE
  5
5A2
330
56F
100
AcDbEntity
  8
BEM
 62
     0
370
    -2
100
AcDbLine
 10
123.6494671121176
 20
459.1220450128558
 30
0.0
 11
123.6494671121176
 21
497.4666566479899
 31
0.0
  0
LINE
  5
5A3
330
56F
100
AcDbEntity
  8
BEM
 62
     0
370
    -2
100
AcDbLine
 10
343.6494671121175
 20
459.1220450128558
 30
0.0
 11
343.6494671121175
 21
497.4666566479899
 31
0.0
  0
LINE
  5
5A4
330
56F
100
AcDbEntity
  8
BEM
 62
     0
370
    -2
100
AcDbLine
 10
130.6494671121176
 20
495.4666566479899
 30
0.0
 11
336.6494671121174
 21
495.4666566479899
 31
0.0
  0
SOLID
  5
5A5
330
56F
100
AcDbEntity
  8
BEM
 62
     0
100
AcDbTrace
 10
130.6494671121176
 20
496.6333233146565
 30
0.0
 11
130.6494671121176
 21
494.2999899813232
 31
0.0
 12
123.6494671121176
 22
495.4666566479899
 32
0.0
 13
123.6494671121176
 23
495.4666566479899
 33
0.0
  0
SOLID
  5
5A6
330
56F
100
AcDbEntity
  8
BEM
 62
     0
100
AcDbTrace
 10
336.6494671121174
 20
496.6333233146565
 30
0.0
 11
336.6494671121174
 21
494.2999899813232
 31
0.0
 12
343.6494671121175
 22
495.4666566479899
 32
0.0
 13
343.6494671121175
 23
495.4666566479899
 33
0.0
  0
MTEXT
  5
5A7
330
56F
100
AcDbEntity
  8
BEM
 62
     1
100
AcDbMText
 10
233.6494671121175
 20
501.9666566479899
 30
0.0
 40
7.0
 41
0.0
 71
     5
 72
     1
  1
\A1;%%c220
 73
     1
 44
1.0
  0
POINT
  5
5A8
330
56F
100
AcDbEntity
  8
DEFPOINTS
 62
     0
100
AcDbPoint
 10
123.6494671121176
 20
457.1220450128558
 30
0.0
  0
POINT
  5
5A9
330
56F
100
AcDbEntity
  8
DEFPOINTS
 62
     0
100
AcDbPoint
 10
343.6494671121175
 20
457.1220450128558
 30
0.0
  0
POINT
  5
5AA
330
56F
100
AcDbEntity
  8
DEFPOINTS
 62
     0
100
AcDbPoint
 10
343.6494671121175
 20
495.4666566479899
 30
0.0
  0
ENDBLK
  5
57A
330
56F
100
AcDbEntity
  8
0
100
AcDbBlockEnd
  0
BLOCK
  5
585
330
57B
100
AcDbEntity
  8
0
100
AcDbBlockBegin
  2
*D7
 70
     1
 10
0.0
 20
0.0
 30
0.0
  3
*D7
  1

  0
LINE
  5
5AB
330
57B
100
AcDbEntity
  8
BEM
 62
     0
370
    -2
100
AcDbLine
 10
139.3813718646153
 20
297.1220450128559
 30
0.0
 11
94.63784926038659
 21
297.1220450128559
 31
0.0
  0
LINE
  5
5AC
330
57B
100
AcDbEntity
  8
BEM
 62
     0
370
    -2
100
AcDbLine
 10
121.6494671121176
 20
457.1220450128556
 30
0.0
 11
94.63784926038661
 21
457.1220450128556
 31
0.0
  0
LINE
  5
5AD
330
57B
100
AcDbEntity
  8
BEM
 62
     0
370
    -2
100
AcDbLine
 10
96.63784926038658
 20
304.1220450128559
 30
0.0
 11
96.63784926038662
 21
450.1220450128557
 31
0.0
  0
SOLID
  5
5AE
330
57B
100
AcDbEntity
  8
BEM
 62
     0
100
AcDbTrace
 10
95.47118259371991
 20
304.1220450128559
 30
0.0
 11
97.80451592705325
 21
304.1220450128559
 31
0.0
 12
96.63784926038658
 22
297.1220450128559
 32
0.0
 13
96.63784926038658
 23
297.1220450128559
 33
0.0
  0
SOLID
  5
5AF
330
57B
100
AcDbEntity
  8
BEM
 62
     0
100
AcDbTrace
 10
95.47118259371995
 20
450.1220450128557
 30
0.0
 11
97.80451592705329
 21
450.1220450128557
 31
0.0
 12
96.63784926038662
 22
457.1220450128556
 32
0.0
 13
96.63784926038662
 23
457.1220450128556
 33
0.0
  0
MTEXT
  5
5B0
330
57B
100
AcDbEntity
  8
BEM
 62
     1
100
AcDbMText
 10
90.13784926038654
 20
377.1220450128558
 30
0.0
 40
7.0
 41
0.0
 71
     5
 72
     1
  1
\A1;160
 11
0.0000000000000001
 21
1.0
 31
0.0
 73
     1
 44
1.0
  0
POINT
  5
5B1
330
57B
100
AcDbEntity
  8
DEFPOINTS
 62
     0
100
AcDbPoint
 10
141.3813718646153
 20
297.1220450128559
 30
0.0
  0
POINT
  5
5B2
330
57B
100
AcDbEntity
  8
DEFPOINTS
 62
     0
100
AcDbPoint
 10
123.6494671121176
 20
457.1220450128556
 30
0.0
  0
POINT
  5
5B3
330
57B
100
AcDbEntity
  8
DEFPOINTS
 62
     0
100
AcDbPoint
 10
96.63784926038662
 20
457.1220450128556
 30
0.0
  0
ENDBLK
  5
586
330
57B
100
AcDbEntity
  8
0
100
AcDbBlockEnd
  0
ENDSEC
  0
SECTION
  2
ENTITIES
  0
LINE
  5
83
330
1E
100
AcDbEntity
  8
STEMPEL
100
AcDbLine
 10
39.99999999999989
 20
10.0
 30
0.0
 11
410.0
 21
10.0
 31
0.0
  0
LINE
  5
85
330
1E
100
AcDbEntity
  8
STEMPEL
100
AcDbLine
 10
410.0
 20
10.0
 30
0.0
 11
40.0
 21
9.999999999999998
 31
0.0
  0
LINE
  5
86
330
1E
100
AcDbEntity
  8
STEMPEL
100
AcDbLine
 10
410.0
 20
10.0
 30
0.0
 11
410.0
 21
584.0
 31
0.0
  0
LINE
  5
87
330
1E
100
AcDbEntity
  8
STEMPEL
100
AcDbLine
 10
40.0
 20
10.0
 30
0.0
 11
39.99999999999989
 21
584.0
 31
0.0
  0
LINE
  5
88
330
1E
100
AcDbEntity
  8
STEMPEL
100
AcDbLine
 10
410.0
 20
584.0
 30
0.0
 11
39.99999999999987
 21
583.9999999999998
 31
0.0
  0
LINE
  5
89
330
1E
100
AcDbEntity
  8
HILF
100
AcDbLine
 10
0.0
 20
0.0
 30
0.0
 11
-0.0000000000001137
 21
594.0
 31
0.0
  0
LINE
  5
8A
330
1E
100
AcDbEntity
  8
HILF
100
AcDbLine
 10
419.9999999999999
 20
594.0000000000002
 30
0.0
 11
0.0
 21
594.0
 31
0.0
  0
LINE
  5
8B
330
1E
100
AcDbEntity
  8
HILF
100
AcDbLine
 10
420.0
 20
0.0
 30
0.0
 11
0.0
 21
0.0
 31
0.0
  0
LINE
  5
8C
330
1E
100
AcDbEntity
  8
HILF
100
AcDbLine
 10
31.08767135713856
 20
297.0
 30
0.0
 11
0.0000000000001137
 21
297.0
 31
0.0
  0
LINE
  5
8E
330
1E
100
AcDbEntity
  8
HILF
100
AcDbLine
 10
420.0
 20
-0.0000000000001137
 30
0.0
 11
419.9999999999999
 21
594.0
 31
0.0
  0
TEXT
  5
8F
330
1E
100
AcDbEntity
  8
VOLL
100
AcDbText
 10
78.07675471698113
 20
31.02594776470585
 30
0.0
 40
1.8
  1

  7
GREEKS
100
AcDbText
  0
TEXT
  5
118
330
1E
100
AcDbEntity
  8
BEM
100
AcDbText
 10
417.3022923857165
 20
10.16790107998849
 30
0.0
 40
4.0
  1
Diese Zeichnung ist urheberrechtlich geschützt und bleibt unser Eigentum. Sie darf weder ganz noch teilweise verfielfältigt und nicht an Dritte weitergegeben werden.
 50
90.0
 41
0.8
  7
GREEKS
100
AcDbText
  0
HATCH
  5
269
330
1E
100
AcDbEntity
  8
SCHRAFF
100
AcDbHatch
 10
0.0
 20
0.0
 30
0.0
210
0.0
220
0.0
230
1.0
  2
_USER
 70
     0
 71
     1
 91
        2
 92
        7
 72
     1
 73
     1
 93
       12
 10
143.8063940737131
 20
457.1220450128565
 42
-0.2553615373329011
 10
146.3309264195491
 20
455.7427659742895
 42
0.0
 10
155.3749347662817
 20
441.6552751904661
 42
0.0
 10
157.8994671121176
 20
443.2759961518989
 42
0.0
 10
148.855458765385
 20
457.3634869357224
 42
0.2553615373328971
 10
143.8063940737132
 20
460.1220450128564
 42
0.0
 10
75.01342814279678
 20
460.1220450128566
 42
0.198912367379666
 10
70.77078745567724
 20
458.3646856999759
 42
0.0
 10
68.64946711211776
 20
456.2433653564162
 42
0.0
 10
70.77078745567717
 20
454.1220450128565
 42
0.0
 10
72.89210779923724
 20
456.2433653564162
 42
-0.1989123673796555
 10
75.01342814279685
 20
457.1220450128565
 42
0.0
 97
       12
330
27A
330
2A7
330
2A8
330
2A9
330
2AB
330
2AA
330
2A4
330
2B7
330
2C1
330
2C3
330
2BD
330
2B8
 92
        7
 72
     1
 73
     1
 93
       12
 10
392.2855060814384
 20
457.1220450128565
 42
-0.1989123673796481
 10
394.4068264249979
 20
456.2433653564162
 42
0.0
 10
396.528146768558
 20
454.1220450128565
 42
0.0
 10
398.6494671121175
 20
456.2433653564162
 42
0.0
 10
396.5281467685579
 20
458.3646856999759
 42
0.1989123673796531
 10
392.2855060814384
 20
460.1220450128558
 42
0.0
 10
323.492540150522
 20
460.1220450128559
 42
0.2553615373329152
 10
318.4434754588498
 20
457.3634869357218
 42
0.0
 10
309.3994671121175
 20
443.2759961518989
 42
0.0
 10
311.9239994579534
 20
441.6552751904661
 42
0.0
 10
320.9680078046862
 20
455.7427659742895
 42
-0.2553615373328881
 10
323.492540150522
 20
457.1220450128564
 42
0.0
 97
       12
330
27A
330
2FE
330
2F8
330
303
330
301
330
304
330
2F0
330
314
330
313
330
316
330
315
330
312
 75
     0
 76
     0
 52
45.0
 41
2.0
 77
     0
 78
     1
 53
45.0
 43
0.0
 44
0.0
 45
-1.414213562373094
 46
1.414213562373095
 79
     0
 47
0.3980341147123784
 98
        2
 10
112.0786239753997
 20
458.5935142642115
 10
353.070174698586
 20
458.5935142642115
  0
LINE
  5
26B
330
1E
100
AcDbEntity
  8
HILF
100
AcDbLine
 10
171.0064988879166
 20
425.6930012183451
 30
0.0
 11
296.2924353363186
 21
425.693001218345
 31
0.0
  0
LINE
  5
26C
330
1E
100
AcDbEntity
  8
STEMPEL
100
AcDbLine
 10
157.8994671121177
 20
443.2759961518989
 30
0.0
 11
309.3994671121177
 21
443.2759961518989
 31
0.0
  0
DIMENSION
  5
26D
330
1E
100
AcDbEntity
  8
BEM
100
AcDbDimension
  2
*D1
 10
360.6494671121177
 20
510.9545851429747
 30
0.0
 11
233.6494671121177
 21
517.4545851429748
 31
0.0
 70
    32
  1
%%c<>
 71
     5
 42
254.0000000000001
  3
Standard
100
AcDbAlignedDimension
 13
106.6494671121176
 23
490.1220450128564
 33
0.0
 14
360.6494671121177
 24
490.1220450128558
 34
0.0
100
AcDbRotatedDimension
1001
ACAD
1000
DSTYLE
1002
{
1070
    40
1040
2.0
1070
    41
1040
3.5
1070
    42
1040
1.0
1070
    43
1040
7.0
1070
    44
1040
1.0
1070
    73
1070
     0
1070
    74
1070
     0
1070
    77
1070
     1
1070
    78
1070
     8
1070
    79
1070
     2
1070
   140
1040
3.5
1070
   141
1040
1.5
1070
   146
1040
0.5142857142857144
1070
   147
1040
1.5
1070
   172
1070
     1
1070
   178
1070
     1
1070
   179
1070
     2
1070
   271
1070
     2
1070
   272
1070
     2
1070
   284
1070
     8
1070
   285
1070
     8
1070
   286
1070
     8
1002
}
  0
LINE
  5
26F
330
1E
100
AcDbEntity
  8
STEMPEL
100
AcDbLine
 10
168.6367743920584
 20
180.1220450128566
 30
0.0
 11
298.6621598321763
 21
180.1220450128567
 31
0.0
  0
DIMENSION
  5
271
330
1E
100
AcDbEntity
  8
BEM
100
AcDbDimension
  2
*D2
 10
398.6494671121175
 20
526.9545851429747
 30
0.0
 11
233.6494671121176
 21
533.4545851429748
 31
0.0
 70
    32
  1
%%c<>
 71
     5
 42
329.9999999999998
  3
Standard
100
AcDbAlignedDimension
 13
68.64946711211769
 23
456.2433653564162
 33
0.0
 14
398.6494671121175
 24
456.2433653564162
 34
0.0
100
AcDbRotatedDimension
1001
ACAD
1000
DSTYLE
1002
{
1070
    40
1040
2.0
1070
    41
1040
3.5
1070
    42
1040
1.0
1070
    43
1040
7.0
1070
    44
1040
1.0
1070
    73
1070
     0
1070
    74
1070
     0
1070
    77
1070
     1
1070
    78
1070
     8
1070
    79
1070
     2
1070
   140
1040
3.5
1070
   141
1040
1.5
1070
   146
1040
0.5142857142857144
1070
   147
1040
1.5
1070
   172
1070
     1
1070
   178
1070
     1
1070
   179
1070
     2
1070
   271
1070
     2
1070
   272
1070
     2
1070
   284
1070
     8
1070
   285
1070
     8
1070
   286
1070
     8
1002
}
  0
TEXT
  5
272
330
1E
100
AcDbEntity
  8
TEXT
100
AcDbText
 10
192.626132208084
 20
90.76363841023022
 30
0.0
 40
4.0
  1
DIN EN1124-3
 41
0.8
  7
GREEKS
 72
     1
 11
209.6166083985602
 21
90.76363841023022
 31
0.0
100
AcDbText
  0
TEXT
  5
273
330
1E
100
AcDbEntity
  8
TEXT
100
AcDbText
 10
194.2858954734051
 20
102.4184168434819
 30
0.0
 40
5.0
  1
Zul. Abw.
 41
0.8
  7
GREEKS
100
AcDbText
  0
TEXT
  5
274
330
1E
100
AcDbEntity
  8
TEXT
100
AcDbText
 10
204.4216048581258
 20
63.0896391972351
 30
0.0
 40
4.0
  1
Koeh
 41
0.8
  7
GREEKS
 72
     1
 11
209.6787477152686
 21
63.0896391972351
 31
0.0
100
AcDbText
  0
TEXT
  5
275
330
1E
100
AcDbEntity
  8
TEXT
100
AcDbText
 10
202.4626584226295
 20
73.30961091915225
 30
0.0
 40
4.0
  1
Name
 41
0.8
  7
GREEKS
100
AcDbText
  0
INSERT
  5
276
330
1E
100
AcDbEntity
  8
STEMPEL
100
AcDbBlockReference
  2
LOGO
 10
150.9955485457794
 20
45.02105276448321
 30
0.0
 41
2.0
 42
2.0
 43
2.0
  0
LINE
  5
277
330
1E
100
AcDbEntity
  8
HILF
100
AcDbLine
 10
146.0000000000001
 20
70.0
 30
0.0
 11
230.0
 21
70.0
 31
0.0
  0
LINE
  5
278
330
1E
100
AcDbEntity
  8
HILF
100
AcDbLine
 10
146.0000000000001
 20
60.0
 30
0.0
 11
230.0
 21
60.0
 31
0.0
  0
LINE
  5
279
330
1E
100
AcDbEntity
  8
HILF
100
AcDbLine
 10
146.0000000000001
 20
50.0
 30
0.0
 11
230.0
 21
50.0
 31
0.0
  0
LINE
  5
27A
102
{ACAD_REACTORS
330
269
102
}
330
1E
100
AcDbEntity
  8
STEMPEL
100
AcDbLine
 10
75.01342814279678
 20
460.1220450128566
 30
0.0
 11
392.2855060814384
 21
460.1220450128558
 31
0.0
  0
LINE
  5
27B
330
1E
100
AcDbEntity
  8
STEMPEL
100
AcDbLine
 10
410.0
 20
40.0
 30
0.0
 11
146.0000000000001
 21
40.0
 31
0.0
  0
LINE
  5
27C
330
1E
100
AcDbEntity
  8
STEMPEL
100
AcDbLine
 10
410.0
 20
80.0
 30
0.0
 11
146.0000000000001
 21
79.99999999999994
 31
0.0
  0
LINE
  5
27D
330
1E
100
AcDbEntity
  8
STEMPEL
100
AcDbLine
 10
410.0
 20
110.0
 30
0.0
 11
40.0
 21
110.0
 31
0.0
  0
DIMENSION
  5
281
330
1E
100
AcDbEntity
  8
BEM
100
AcDbDimension
  2
*D3
 10
59.38889321095075
 20
460.1220450128566
 30
0.0
 11
52.88889321095068
 21
320.1220450128566
 31
0.0
 70
    32
 71
     5
 42
280.0
  3
Standard
100
AcDbAlignedDimension
 13
168.6367743920584
 23
180.1220450128566
 33
0.0
 14
75.01342814279678
 24
460.1220450128566
 34
0.0
 50
90.0
100
AcDbRotatedDimension
1001
ACAD
1000
DSTYLE
1002
{
1070
    40
1040
2.0
1070
    41
1040
3.5
1070
    42
1040
1.0
1070
    43
1040
7.0
1070
    44
1040
1.0
1070
    73
1070
     0
1070
    74
1070
     0
1070
    77
1070
     1
1070
    78
1070
     8
1070
    79
1070
     2
1070
   140
1040
3.5
1070
   141
1040
1.5
1070
   146
1040
0.5142857142857144
1070
   147
1040
1.5
1070
   172
1070
     1
1070
   178
1070
     1
1070
   179
1070
     2
1070
   271
1070
     2
1070
   272
1070
     2
1070
   284
1070
     8
1070
   285
1070
     8
1070
   286
1070
     8
1002
}
  0
TEXT
  5
282
330
1E
100
AcDbEntity
  8
TEXT
100
AcDbText
 10
42.32142973901864
 20
112.7871664996321
 30
0.0
 40
5.0
  1
Erstellt mit AUTOCAD 2004
 41
0.8
  7
GREEKS
100
AcDbText
  0
TEXT
  5
283
330
1E
100
AcDbEntity
  8
TEXT
100
AcDbText
 10
67.32496897887824
 20
18.67381894984134
 30
0.0
 40
4.0
  1
Änderung
 41
0.8
  7
GREEKS
100
AcDbText
  0
LINE
  5
284
330
1E
100
AcDbEntity
  8
HILF
100
AcDbLine
 10
40.00000000000011
 20
100.0
 30
0.0
 11
146.0000000000001
 21
100.0
 31
0.0
  0
LINE
  5
285
330
1E
100
AcDbEntity
  8
HILF
100
AcDbLine
 10
40.00000000000011
 20
90.00000000000005
 30
0.0
 11
146.0000000000001
 21
90.00000000000005
 31
0.0
  0
LINE
  5
286
330
1E
100
AcDbEntity
  8
HILF
100
AcDbLine
 10
40.00000000000011
 20
79.99999999999994
 30
0.0
 11
146.0000000000001
 21
79.99999999999994
 31
0.0
  0
LINE
  5
287
330
1E
100
AcDbEntity
  8
STEMPEL
100
AcDbLine
 10
145.9999999999999
 20
30.0
 30
0.0
 11
40.0
 21
30.0
 31
0.0
  0
LINE
  5
288
330
1E
100
AcDbEntity
  8
HILF
100
AcDbLine
 10
40.00000000000011
 20
70.0
 30
0.0
 11
146.0000000000001
 21
70.0
 31
0.0
  0
LINE
  5
289
330
1E
100
AcDbEntity
  8
HILF
100
AcDbLine
 10
40.00000000000011
 20
60.0
 30
0.0
 11
146.0000000000001
 21
60.0
 31
0.0
  0
LINE
  5
28A
330
1E
100
AcDbEntity
  8
HILF
100
AcDbLine
 10
40.00000000000011
 20
50.0
 30
0.0
 11
146.0000000000001
 21
50.0
 31
0.0
  0
LINE
  5
28B
330
1E
100
AcDbEntity
  8
HILF
100
AcDbLine
 10
40.00000000000011
 20
40.0
 30
0.0
 11
146.0000000000001
 21
40.0
 31
0.0
  0
TEXT
  5
28C
330
1E
100
AcDbEntity
  8
TEXT
100
AcDbText
 10
48.26641107045759
 20
13.65465846027189
 30
0.0
 40
4.0
  1
Index
 50
90.0
 41
0.8
  7
GREEKS
100
AcDbText
  0
LINE
  5
28D
330
1E
100
AcDbEntity
  8
VOLL
100
AcDbLine
 10
54.00000000000011
 20
110.0
 30
0.0
 11
54.0
 21
10.0
 31
0.0
  0
TEXT
  5
28E
330
1E
100
AcDbEntity
  8
TEXT
100
AcDbText
 10
109.4723536997203
 20
18.67156269339807
 30
0.0
 40
4.0
  1
Tag
 41
0.8
  7
GREEKS
100
AcDbText
  0
LINE
  5
28F
330
1E
100
AcDbEntity
  8
VOLL
100
AcDbLine
 10
124.0000000000001
 20
109.9999999999999
 30
0.0
 11
124.0
 21
10.0
 31
0.0
  0
LINE
  5
290
330
1E
100
AcDbEntity
  8
VOLL
100
AcDbLine
 10
104.0000000000001
 20
109.9999999999999
 30
0.0
 11
104.0
 21
10.0
 31
0.0
  0
TEXT
  5
291
330
1E
100
AcDbEntity
  8
TEXT
100
AcDbText
 10
128.2201504717681
 20
18.59324216966411
 30
0.0
 40
4.0
  1
Name
 41
0.8
  7
GREEKS
100
AcDbText
  0
LINE
  5
292
330
1E
100
AcDbEntity
  8
STEMPEL
100
AcDbLine
 10
146.0000000000001
 20
109.9999999999999
 30
0.0
 11
146.0
 21
10.0
 31
0.0
  0
TEXT
  5
293
330
1E
100
AcDbEntity
  8
TEXT
100
AcDbText
 10
153.5163572150377
 20
102.4620895087088
 30
0.0
 40
5.0
  1
Maßstab
 41
0.8
  7
GREEKS
100
AcDbText
  0
TEXT
  5
294
330
1E
100
AcDbEntity
  8
TEXT
100
AcDbText
 10
172.331167315365
 20
73.31880501229926
 30
0.0
 40
4.0
  1
Tag
 41
0.8
  7
GREEKS
100
AcDbText
  0
TEXT
  5
295
330
1E
100
AcDbEntity
  8
TEXT
100
AcDbText
 10
171.3132828225218
 20
63.10765040825732
 30
0.0
 40
4.0
  1
01.11.
 41
0.8
  7
GREEKS
 72
     1
 11
177.4085209177599
 21
63.10765040825732
 31
0.0
100
AcDbText
  0
LINE
  5
296
330
1E
100
AcDbEntity
  8
VOLL
100
AcDbLine
 10
164.0000000000001
 20
79.99999999999994
 30
0.0
 11
164.0000000000001
 21
40.0
 31
0.0
  0
TEXT
  5
297
330
1E
100
AcDbEntity
  8
TEXT
100
AcDbText
 10
147.5836127167615
 20
63.62990369617967
 30
0.0
 40
4.0
  1
Gez.
 41
0.8
  7
GREEKS
100
AcDbText
  0
TEXT
  5
298
330
1E
100
AcDbEntity
  8
TEXT
100
AcDbText
 10
147.5515086571672
 20
53.68926291428374
 30
0.0
 40
4.0
  1
Gepr.
 41
0.8
  7
GREEKS
100
AcDbText
  0
TEXT
  5
299
330
1E
100
AcDbEntity
  8
TEXT
100
AcDbText
 10
147.6006777387303
 20
43.5294638964981
 30
0.0
 40
4.0
  1
Norm.
 41
0.8
  7
GREEKS
100
AcDbText
  0
TEXT
  5
29A
330
1E
100
AcDbEntity
  8
TEXT
 62
     1
100
AcDbText
 10
160.5006306481887
 20
88.14901428913959
 30
0.0
 40
7.0
  1
1:2
 41
0.8
  7
GREEKS
100
AcDbText
  0
TEXT
  5
29B
330
1E
100
AcDbEntity
  8
TEXT
100
AcDbText
 10
148.622109822104
 20
73.14025471151666
 30
0.0
 40
4.0
  1
2010
 41
0.8
  7
GREEKS
100
AcDbText
  0
LINE
  5
29C
330
1E
100
AcDbEntity
  8
VOLL
100
AcDbLine
 10
190.0000000000001
 20
109.9999999999998
 30
0.0
 11
190.0
 21
40.0
 31
0.0
  0
LINE
  5
2A4
102
{ACAD_REACTORS
330
269
330
6D4
102
}
330
1E
100
AcDbEntity
  8
STEMPEL
100
AcDbLine
 10
75.01342814279678
 20
457.1220450128565
 30
0.0
 11
143.8063940737131
 21
457.1220450128565
 31
0.0
  0
LINE
  5
2A5
330
1E
100
AcDbEntity
  8
STEMPEL
100
AcDbLine
 10
70.77078745567701
 20
454.1220450128565
 30
0.0
 11
123.9307171121175
 21
454.1220450128564
 31
0.0
  0
LINE
  5
2A6
330
1E
100
AcDbEntity
  8
STEMPEL
100
AcDbLine
 10
70.77078745567701
 20
454.1220450128562
 30
0.0
 11
123.9307171121175
 21
454.1220450128562
 31
0.0
  0
ARC
  5
2A7
102
{ACAD_REACTORS
330
269
102
}
330
1E
100
AcDbEntity
  8
STEMPEL
100
AcDbCircle
 10
75.01342814279678
 20
454.1220450128565
 30
0.0
 40
6.0
100
AcDbArc
 50
90.0
 51
135.0
  0
LINE
  5
2A8
102
{ACAD_REACTORS
330
269
102
}
330
1E
100
AcDbEntity
  8
STEMPEL
100
AcDbLine
 10
68.64946711211769
 20
456.2433653564162
 30
0.0
 11
70.77078745567724
 21
458.3646856999759
 31
0.0
  0
LINE
  5
2A9
102
{ACAD_REACTORS
330
269
102
}
330
1E
100
AcDbEntity
  8
STEMPEL
100
AcDbLine
 10
68.64946711211769
 20
456.2433653564162
 30
0.0
 11
70.77078745567724
 21
454.1220450128564
 31
0.0
  0
ARC
  5
2AA
102
{ACAD_REACTORS
330
269
102
}
330
1E
100
AcDbEntity
  8
STEMPEL
100
AcDbCircle
 10
75.01342814279678
 20
454.1220450128565
 30
0.0
 40
3.0
100
AcDbArc
 50
90.0
 51
135.0
  0
LINE
  5
2AB
102
{ACAD_REACTORS
330
269
102
}
330
1E
100
AcDbEntity
  8
STEMPEL
100
AcDbLine
 10
70.77078745567724
 20
454.1220450128565
 30
0.0
 11
72.89210779923724
 21
456.2433653564162
 31
0.0
  0
LINE
  5
2AD
330
1E
100
AcDbEntity
  8
STEMPEL
100
AcDbLine
 10
175.1494671121175
 20
484.1220450128575
 30
0.0
 11
175.1494671121175
 21
460.1220450128561
 31
0.0
  0
LINE
  5
2AE
330
1E
100
AcDbEntity
  8
HILF
100
AcDbLine
 10
174.1494671121175
 20
485.1220450128573
 30
0.0
 11
174.1494671121175
 21
460.1220450128561
 31
0.0
  0
LINE
  5
2AF
330
1E
100
AcDbEntity
  8
HILF
100
AcDbLine
 10
166.1494671121175
 20
485.1220450128572
 30
0.0
 11
166.1494671121175
 21
460.1220450128562
 31
0.0
  0
LINE
  5
2B0
330
1E
100
AcDbEntity
  8
STEMPEL
100
AcDbLine
 10
165.1494671121175
 20
484.1220450128573
 30
0.0
 11
165.1494671121175
 21
460.1220450128562
 31
0.0
  0
LINE
  5
2B1
330
1E
100
AcDbEntity
  8
MITTEL
100
AcDbLine
 10
170.1494671121175
 20
490.1220450128563
 30
0.0
 11
170.1494671121175
 21
460.1220450128563
 31
0.0
  0
LINE
  5
2B2
330
1E
100
AcDbEntity
  8
STEMPEL
100
AcDbLine
 10
111.6494671121176
 20
484.1220450128575
 30
0.0
 11
111.6494671121176
 21
460.1220450128561
 31
0.0
  0
LINE
  5
2B3
330
1E
100
AcDbEntity
  8
HILF
100
AcDbLine
 10
110.6494671121176
 20
485.1220450128573
 30
0.0
 11
110.6494671121176
 21
460.1220450128561
 31
0.0
  0
LINE
  5
2B4
330
1E
100
AcDbEntity
  8
STEMPEL
100
AcDbLine
 10
101.6494671121176
 20
484.1220450128573
 30
0.0
 11
101.6494671121176
 21
460.1220450128562
 31
0.0
  0
LINE
  5
2B5
330
1E
100
AcDbEntity
  8
HILF
100
AcDbLine
 10
102.6494671121176
 20
485.1220450128572
 30
0.0
 11
102.6494671121176
 21
460.1220450128562
 31
0.0
  0
LINE
  5
2B6
330
1E
100
AcDbEntity
  8
MITTEL
100
AcDbLine
 10
106.6494671121176
 20
490.1220450128564
 30
0.0
 11
106.6494671121176
 21
460.1220450128563
 31
0.0
  0
ARC
  5
2B7
102
{ACAD_REACTORS
330
269
102
}
330
1E
100
AcDbEntity
  8
STEMPEL
100
AcDbCircle
 10
143.8063940737131
 20
454.1220450128565
 30
0.0
 40
3.0
100
AcDbArc
 50
32.70000000000014
 51
90.0
  0
ARC
  5
2B8
102
{ACAD_REACTORS
330
269
102
}
330
1E
100
AcDbEntity
  8
STEMPEL
100
AcDbCircle
 10
143.8063940737131
 20
454.1220450128565
 30
0.0
 40
6.0
100
AcDbArc
 50
32.70000000000014
 51
90.0
  0
LINE
  5
2BD
102
{ACAD_REACTORS
330
269
330
4AE
102
}
330
1E
100
AcDbEntity
  8
STEMPEL
100
AcDbLine
 10
148.855458765385
 20
457.3634869357224
 30
0.0
 11
167.8570210218443
 21
427.7655119114264
 31
0.0
  0
LINE
  5
2C1
102
{ACAD_REACTORS
330
269
330
4BA
102
}
330
1E
100
AcDbEntity
  8
STEMPEL
100
AcDbLine
 10
146.3309264195491
 20
455.7427659742895
 30
0.0
 11
155.3749347662817
 21
441.6552751904661
 31
0.0
  0
ARC
  5
2C2
102
{ACAD_REACTORS
330
4BA
102
}
330
1E
100
AcDbEntity
  8
SCHRAFF
100
AcDbCircle
 10
156.2164455482271
 20
442.1955155109437
 30
0.0
 40
2.0
100
AcDbArc
 50
152.7000000000017
 51
317.1775121859269
  0
LINE
  5
2C3
102
{ACAD_REACTORS
330
269
330
4AE
330
4BA
102
}
330
1E
100
AcDbEntity
  8
STEMPEL
100
AcDbLine
 10
157.8994671121177
 20
443.2759961518989
 30
0.0
 11
155.3749347662817
 21
441.6552751904661
 31
0.0
  0
LINE
  5
2C8
330
1E
100
AcDbEntity
  8
STEMPEL
100
AcDbLine
 10
111.6494671121177
 20
484.1220450128573
 30
0.0
 11
110.6494671121177
 21
485.1220450128573
 31
0.0
  0
LINE
  5
2C9
330
1E
100
AcDbEntity
  8
STEMPEL
100
AcDbLine
 10
101.6494671121177
 20
484.1220450128574
 30
0.0
 11
111.6494671121177
 21
484.1220450128574
 31
0.0
  0
LINE
  5
2CA
330
1E
100
AcDbEntity
  8
STEMPEL
100
AcDbLine
 10
110.6494671121177
 20
485.1220450128573
 30
0.0
 11
102.6494671121177
 21
485.1220450128573
 31
0.0
  0
LINE
  5
2CB
330
1E
100
AcDbEntity
  8
STEMPEL
100
AcDbLine
 10
102.6494671121177
 20
485.1220450128573
 30
0.0
 11
101.6494671121177
 21
484.1220450128573
 31
0.0
  0
LINE
  5
2CC
330
1E
100
AcDbEntity
  8
STEMPEL
100
AcDbLine
 10
174.1494671121176
 20
485.1220450128573
 30
0.0
 11
166.1494671121175
 21
485.1220450128573
 31
0.0
  0
LINE
  5
2CD
330
1E
100
AcDbEntity
  8
STEMPEL
100
AcDbLine
 10
165.1494671121175
 20
484.1220450128574
 30
0.0
 11
175.1494671121176
 21
484.1220450128574
 31
0.0
  0
LINE
  5
2CE
330
1E
100
AcDbEntity
  8
STEMPEL
100
AcDbLine
 10
166.1494671121175
 20
485.1220450128573
 30
0.0
 11
165.1494671121175
 21
484.1220450128573
 31
0.0
  0
LINE
  5
2CF
330
1E
100
AcDbEntity
  8
STEMPEL
100
AcDbLine
 10
175.1494671121176
 20
484.1220450128573
 30
0.0
 11
174.1494671121176
 21
485.1220450128573
 31
0.0
  0
LINE
  5
2D0
330
1E
100
AcDbEntity
  8
MITTEL
100
AcDbLine
 10
233.6494671121176
 20
465.1220450128563
 30
0.0
 11
233.6494671121176
 21
291.9799251329098
 31
0.0
  0
TEXT
  5
2D6
330
1E
100
AcDbEntity
  8
TEXT
100
AcDbText
 10
336.178754957634
 20
102.3132034537136
 30
0.0
 40
5.0
  1
Zeichnungs Nr.
 41
0.8
  7
GREEKS
100
AcDbText
  0
TEXT
  5
2D7
330
1E
100
AcDbEntity
  8
TEXT
100
AcDbText
 10
336.7238616296993
 20
73.1811823709997
 30
0.0
 40
5.0
  1
Ersatz für:
 41
0.8
  7
GREEKS
100
AcDbText
  0
TEXT
  5
2D8
330
1E
100
AcDbEntity
  8
TEXT
100
AcDbText
 10
337.2400861497006
 20
52.07416177878599
 30
0.0
 40
5.0
  1
ersetzt durch:
 41
0.8
  7
GREEKS
100
AcDbText
  0
LINE
  5
2D9
330
1E
100
AcDbEntity
  8
HILF
100
AcDbLine
 10
336.7238616296993
 20
83.77983636955827
 30
0.0
 11
404.8588839326728
 21
83.77983636955827
 31
0.0
  0
LINE
  5
2DA
330
1E
100
AcDbEntity
  8
VOLL
100
AcDbLine
 10
332.0
 20
60.0
 30
0.0
 11
410.0
 21
60.0
 31
0.0
  0
LINE
  5
2DB
330
1E
100
AcDbEntity
  8
HILF
100
AcDbLine
 10
234.7736801096947
 20
84.03758247564139
 30
0.0
 11
324.8353916556311
 21
84.03758247564139
 31
0.0
  0
LINE
  5
2DC
330
1E
100
AcDbEntity
  8
HILF
100
AcDbLine
 10
234.7736801096947
 20
70.0
 30
0.0
 11
324.8353916556309
 21
70.0
 31
0.0
  0
LINE
  5
2DD
330
1E
100
AcDbEntity
  8
HILF
100
AcDbLine
 10
234.7736801096947
 20
60.0
 30
0.0
 11
324.8353916556309
 21
60.0
 31
0.0
  0
LINE
  5
2DE
330
1E
100
AcDbEntity
  8
HILF
100
AcDbLine
 10
234.7736801096947
 20
50.0
 30
0.0
 11
324.8353916556309
 21
50.0
 31
0.0
  0
TEXT
  5
2DF
330
1E
100
AcDbEntity
  8
TEXT
100
AcDbText
 10
235.1296391125316
 20
51.64011943042158
 30
0.0
 40
5.0
  1
EDV-Art.Nr. 21982.125X
 41
0.8
  7
GREEKS
100
AcDbText
  0
TEXT
  5
2E0
330
1E
100
AcDbEntity
  8
TEXT
 62
     1
100
AcDbText
 10
234.8934189602656
 20
87.41748789253779
 30
0.0
 40
7.0
  1
Ablaufkörper DN125
 41
0.8
  7
GREEKS
100
AcDbText
  0
LINE
  5
2E1
330
1E
100
AcDbEntity
  8
STEMPEL
100
AcDbLine
 10
230.0
 20
110.0
 30
0.0
 11
230.0
 21
10.0
 31
0.0
  0
TEXT
  5
2E2
330
1E
100
AcDbEntity
  8
TEXT
100
AcDbText
 10
234.877940380901
 20
102.5489328011779
 30
0.0
 40
5.0
  1
Benennung
 41
0.8
  7
GREEKS
100
AcDbText
  0
TEXT
  5
2E3
330
1E
100
AcDbEntity
  8
TEXT
100
AcDbText
 10
234.742238391136
 20
30.8456057019306
 30
0.0
 40
5.0
  1
Bauvorhaben
 41
0.8
  7
GREEKS
100
AcDbText
  0
TEXT
  5
2E4
330
1E
100
AcDbEntity
  8
TEXT
100
AcDbText
 10
234.9837501577827
 20
42.62974153022628
 30
0.0
 40
4.0
  1
21982125W.DWG
 41
0.8
  7
GREEKS
100
AcDbText
  0
LINE
  5
2E5
330
1E
100
AcDbEntity
  8
STEMPEL
100
AcDbLine
 10
332.0
 20
109.9999999999997
 30
0.0
 11
332.0
 21
40.0
 31
0.0
  0
TEXT
  5
2E6
330
1E
100
AcDbEntity
  8
TEXT
 62
     1
100
AcDbText
 10
230.0436552932627
 20
341.9414199599348
 30
0.0
 40
7.0
  1
DN125
 50
90.0
 41
0.8
  7
GREEKS
100
AcDbText
  0
TEXT
  5
2EA
330
1E
100
AcDbEntity
  8
TEXT
 62
     1
100
AcDbText
 10
346.1687312080341
 20
88.14901428913959
 30
0.0
 40
7.0
  1
21982125W
 41
0.8
  7
GREEKS
 72
     1
 11
369.1020645413674
 21
88.14901428913959
 31
0.0
100
AcDbText
  0
LINE
  5
2EE
330
1E
100
AcDbEntity
  8
STEMPEL
100
AcDbLine
 10
343.3682171121176
 20
454.122045012856
 30
0.0
 11
396.5281467685576
 21
454.1220450128557
 31
0.0
  0
LINE
  5
2EF
330
1E
100
AcDbEntity
  8
STEMPEL
100
AcDbLine
 10
396.5281467685581
 20
454.1220450128562
 30
0.0
 11
343.3682171121176
 21
454.1220450128562
 31
0.0
  0
LINE
  5
2F0
102
{ACAD_REACTORS
330
269
330
6D4
102
}
330
1E
100
AcDbEntity
  8
STEMPEL
100
AcDbLine
 10
392.2855060814384
 20
457.1220450128565
 30
0.0
 11
323.492540150522
 21
457.1220450128564
 31
0.0
  0
LINE
  5
2F1
330
1E
100
AcDbEntity
  8
STEMPEL
100
AcDbLine
 10
302.1494671121179
 20
484.1220450128575
 30
0.0
 11
302.1494671121179
 21
460.1220450128561
 31
0.0
  0
LINE
  5
2F2
330
1E
100
AcDbEntity
  8
HILF
100
AcDbLine
 10
301.1494671121178
 20
485.1220450128573
 30
0.0
 11
301.1494671121178
 21
460.1220450128561
 31
0.0
  0
LINE
  5
2F3
330
1E
100
AcDbEntity
  8
HILF
100
AcDbLine
 10
293.1494671121178
 20
485.1220450128572
 30
0.0
 11
293.1494671121178
 21
460.1220450128562
 31
0.0
  0
LINE
  5
2F4
330
1E
100
AcDbEntity
  8
STEMPEL
100
AcDbLine
 10
292.1494671121179
 20
484.1220450128573
 30
0.0
 11
292.1494671121179
 21
460.1220450128562
 31
0.0
  0
LINE
  5
2F5
330
1E
100
AcDbEntity
  8
MITTEL
100
AcDbLine
 10
297.1494671121178
 20
490.1220450128559
 30
0.0
 11
297.1494671121178
 21
460.1220450128563
 31
0.0
  0
LINE
  5
2F8
102
{ACAD_REACTORS
330
269
330
4AE
102
}
330
1E
100
AcDbEntity
  8
STEMPEL
100
AcDbLine
 10
318.4434754588502
 20
457.3634869357224
 30
0.0
 11
299.4419132023913
 21
427.765511911427
 31
0.0
  0
ARC
  5
2FE
102
{ACAD_REACTORS
330
269
102
}
330
1E
100
AcDbEntity
  8
STEMPEL
100
AcDbCircle
 10
323.492540150522
 20
454.1220450128565
 30
0.0
 40
6.0
100
AcDbArc
 50
90.0
 51
147.2999999999998
  0
LINE
  5
300
330
1E
100
AcDbEntity
  8
STEMPEL
100
AcDbLine
 10
318.4434754588504
 20
457.3634869357224
 30
0.0
 11
309.3994671121177
 21
443.2759961518989
 31
0.0
  0
LINE
  5
301
102
{ACAD_REACTORS
330
269
330
4BA
102
}
330
1E
100
AcDbEntity
  8
STEMPEL
100
AcDbLine
 10
320.9680078046862
 20
455.7427659742895
 30
0.0
 11
311.9239994579534
 21
441.6552751904661
 31
0.0
  0
ARC
  5
302
102
{ACAD_REACTORS
330
4BA
102
}
330
1E
100
AcDbEntity
  8
SCHRAFF
100
AcDbCircle
 10
311.0824886760081
 20
442.1955155109437
 30
0.0
 40
2.0
100
AcDbArc
 50
222.822487814076
 51
27.29999999999825
  0
LINE
  5
303
102
{ACAD_REACTORS
330
269
330
4AE
330
4BA
102
}
330
1E
100
AcDbEntity
  8
STEMPEL
100
AcDbLine
 10
309.3994671121176
 20
443.2759961518989
 30
0.0
 11
311.9239994579534
 21
441.6552751904661
 31
0.0
  0
ARC
  5
304
102
{ACAD_REACTORS
330
269
102
}
330
1E
100
AcDbEntity
  8
STEMPEL
100
AcDbCircle
 10
323.492540150522
 20
454.1220450128565
 30
0.0
 40
3.0
100
AcDbArc
 50
90.0
 51
147.2999999999998
  0
LINE
  5
305
330
1E
100
AcDbEntity
  8
STEMPEL
100
AcDbLine
 10
301.1494671121179
 20
485.1220450128573
 30
0.0
 11
293.1494671121179
 21
485.1220450128573
 31
0.0
  0
LINE
  5
306
330
1E
100
AcDbEntity
  8
STEMPEL
100
AcDbLine
 10
292.1494671121179
 20
484.1220450128574
 30
0.0
 11
302.1494671121179
 21
484.1220450128574
 31
0.0
  0
LINE
  5
307
330
1E
100
AcDbEntity
  8
STEMPEL
100
AcDbLine
 10
293.1494671121179
 20
485.1220450128573
 30
0.0
 11
292.1494671121179
 21
484.1220450128573
 31
0.0
  0
LINE
  5
308
330
1E
100
AcDbEntity
  8
STEMPEL
100
AcDbLine
 10
302.1494671121179
 20
484.1220450128573
 30
0.0
 11
301.1494671121179
 21
485.1220450128573
 31
0.0
  0
LINE
  5
30A
330
1E
100
AcDbEntity
  8
STEMPEL
100
AcDbLine
 10
355.6494671121178
 20
484.1220450128573
 30
0.0
 11
355.6494671121178
 21
460.1220450128562
 31
0.0
  0
LINE
  5
30B
330
1E
100
AcDbEntity
  8
HILF
100
AcDbLine
 10
356.6494671121177
 20
485.1220450128572
 30
0.0
 11
356.6494671121177
 21
460.1220450128562
 31
0.0
  0
LINE
  5
30C
330
1E
100
AcDbEntity
  8
HILF
100
AcDbLine
 10
364.6494671121177
 20
485.1220450128573
 30
0.0
 11
364.6494671121177
 21
460.1220450128561
 31
0.0
  0
LINE
  5
30D
330
1E
100
AcDbEntity
  8
STEMPEL
100
AcDbLine
 10
365.6494671121178
 20
484.1220450128575
 30
0.0
 11
365.6494671121178
 21
460.1220450128561
 31
0.0
  0
LINE
  5
30E
330
1E
100
AcDbEntity
  8
MITTEL
100
AcDbLine
 10
360.6494671121177
 20
490.1220450128558
 30
0.0
 11
360.6494671121177
 21
460.1220450128563
 31
0.0
  0
ARC
  5
312
102
{ACAD_REACTORS
330
269
102
}
330
1E
100
AcDbEntity
  8
STEMPEL
100
AcDbCircle
 10
392.2855060814384
 20
454.1220450128565
 30
0.0
 40
6.0
100
AcDbArc
 50
45.0
 51
90.0
  0
LINE
  5
313
102
{ACAD_REACTORS
330
269
102
}
330
1E
100
AcDbEntity
  8
STEMPEL
100
AcDbLine
 10
396.5281467685579
 20
454.1220450128565
 30
0.0
 11
394.4068264249979
 21
456.2433653564162
 31
0.0
  0
ARC
  5
314
102
{ACAD_REACTORS
330
269
102
}
330
1E
100
AcDbEntity
  8
STEMPEL
100
AcDbCircle
 10
392.2855060814384
 20
454.1220450128565
 30
0.0
 40
3.0
100
AcDbArc
 50
45.0
 51
90.0
  0
LINE
  5
315
102
{ACAD_REACTORS
330
269
102
}
330
1E
100
AcDbEntity
  8
STEMPEL
100
AcDbLine
 10
398.6494671121175
 20
456.2433653564162
 30
0.0
 11
396.5281467685579
 21
458.3646856999759
 31
0.0
  0
LINE
  5
316
102
{ACAD_REACTORS
330
269
102
}
330
1E
100
AcDbEntity
  8
STEMPEL
100
AcDbLine
 10
398.6494671121175
 20
456.2433653564162
 30
0.0
 11
396.5281467685579
 21
454.1220450128564
 31
0.0
  0
LINE
  5
317
330
1E
100
AcDbEntity
  8
STEMPEL
100
AcDbLine
 10
355.6494671121178
 20
484.1220450128574
 30
0.0
 11
365.6494671121178
 21
484.1220450128574
 31
0.0
  0
LINE
  5
318
330
1E
100
AcDbEntity
  8
STEMPEL
100
AcDbLine
 10
364.6494671121178
 20
485.1220450128573
 30
0.0
 11
356.6494671121178
 21
485.1220450128573
 31
0.0
  0
LINE
  5
319
330
1E
100
AcDbEntity
  8
STEMPEL
100
AcDbLine
 10
356.6494671121178
 20
485.1220450128573
 30
0.0
 11
355.6494671121178
 21
484.1220450128573
 31
0.0
  0
LINE
  5
31A
330
1E
100
AcDbEntity
  8
STEMPEL
100
AcDbLine
 10
365.6494671121178
 20
484.1220450128573
 30
0.0
 11
364.6494671121178
 21
485.1220450128573
 31
0.0
  0
LINE
  5
31C
330
1E
100
AcDbEntity
  8
HILF
100
AcDbLine
 10
233.4909699289885
 20
14.89398258028314
 30
0.0
 11
404.8588839326728
 21
14.89398258028314
 31
0.0
  0
LINE
  5
457
102
{ACAD_REACTORS
330
4AE
102
}
330
1E
100
AcDbEntity
  8
STEMPEL
100
AcDbLine
 10
300.1494671121179
 20
192.1220450128688
 30
0.0
 11
299.0996031498058
 21
180.1220450128566
 31
0.0
  0
LINE
  5
458
102
{ACAD_REACTORS
330
4AE
102
}
330
1E
100
AcDbEntity
  8
STEMPEL
100
AcDbLine
 10
298.649467112118
 20
192.1875364272313
 30
0.0
 11
297.5938733934908
 21
180.1220450128566
 31
0.0
  0
LINE
  5
459
102
{ACAD_REACTORS
330
4AE
102
}
330
1E
100
AcDbEntity
  8
STEMPEL
100
AcDbLine
 10
168.649467112118
 20
192.1875364272193
 30
0.0
 11
169.7050608307441
 21
180.1220450128566
 31
0.0
  0
LINE
  5
45A
102
{ACAD_REACTORS
330
4AE
102
}
330
1E
100
AcDbEntity
  8
STEMPEL
100
AcDbLine
 10
167.149467112118
 20
192.1220450128566
 30
0.0
 11
168.1993310744291
 21
180.1220450128566
 31
0.0
  0
LINE
  5
45B
330
1E
100
AcDbEntity
  8
HILF
100
AcDbLine
 10
170.160926624748
 20
192.1220450128566
 30
0.0
 11
297.1380075994869
 21
192.1220450128567
 31
0.0
  0
DIMENSION
  5
45C
330
1E
100
AcDbEntity
  8
BEM
100
AcDbDimension
  2
*D4
 10
300.1494671121179
 20
160.5512740880356
 30
0.0
 11
233.649467112118
 21
167.0512740880356
 31
0.0
 70
    32
  1
%%c<>
 71
     5
 42
132.9999999999999
  3
Standard
100
AcDbAlignedDimension
 13
167.1494671121179
 23
192.1220450128626
 33
0.0
 14
300.1494671121179
 24
192.1220450128688
 34
0.0
100
AcDbRotatedDimension
1001
ACAD
1000
DSTYLE
1002
{
1070
    40
1040
2.0
1070
    41
1040
3.5
1070
    42
1040
1.0
1070
    43
1040
7.0
1070
    44
1040
1.0
1070
    73
1070
     0
1070
    74
1070
     0
1070
    77
1070
     1
1070
    78
1070
     8
1070
    79
1070
     2
1070
   140
1040
3.5
1070
   141
1040
1.5
1070
   146
1040
0.5142857142857144
1070
   147
1040
1.5
1070
   172
1070
     1
1070
   178
1070
     1
1070
   179
1070
     2
1070
   271
1070
     2
1070
   272
1070
     2
1070
   284
1070
     8
1070
   285
1070
     8
1070
   286
1070
     8
1002
}
  0
LINE
  5
45D
102
{ACAD_REACTORS
330
4AE
102
}
330
1E
100
AcDbEntity
  8
STEMPEL
100
AcDbLine
 10
168.1993310744291
 20
180.1220450128566
 30
0.0
 11
299.0996031498058
 21
180.1220450128566
 31
0.0
  0
LINE
  5
45F
102
{ACAD_REACTORS
330
4AE
102
}
330
1E
100
AcDbEntity
  8
STEMPEL
  6
Continuous
100
AcDbLine
 10
298.6494671121178
 20
425.0643103090387
 30
0.0
 11
298.649467112118
 21
192.1875364272313
 31
0.0
  0
LINE
  5
460
102
{ACAD_REACTORS
330
4AE
330
6D4
102
}
330
1E
100
AcDbEntity
  8
STEMPEL
  6
Continuous
100
AcDbLine
 10
300.149467112118
 20
425.0643103090387
 30
0.0
 11
300.1494671121179
 21
192.1220450128688
 31
0.0
  0
LINE
  5
462
102
{ACAD_REACTORS
330
4AE
102
}
330
1E
100
AcDbEntity
  8
STEMPEL
  6
Continuous
100
AcDbLine
 10
168.6494671121177
 20
425.0643103090381
 30
0.0
 11
168.649467112118
 21
192.1875364272193
 31
0.0
  0
LINE
  5
463
102
{ACAD_REACTORS
330
4AE
330
6D4
102
}
330
1E
100
AcDbEntity
  8
STEMPEL
  6
Continuous
100
AcDbLine
 10
167.1494671121178
 20
425.0643103090381
 30
0.0
 11
167.149467112118
 21
192.1220450128566
 31
0.0
  0
ARC
  5
48E
102
{ACAD_REACTORS
330
4AE
102
}
330
1E
100
AcDbEntity
  8
STEMPEL
100
AcDbCircle
 10
303.6494671121179
 20
425.0643103090387
 30
0.0
 40
5.0
100
AcDbArc
 50
147.2999999999997
 51
180.0
  0
LINE
  5
48F
102
{ACAD_REACTORS
330
269
330
4AE
330
4BA
102
}
330
1E
100
AcDbEntity
  8
STEMPEL
100
AcDbLine
 10
310.6617332850355
 20
442.4656356711824
 30
0.0
 11
300.7041793753093
 21
426.9551514307106
 31
0.0
  0
ARC
  5
490
102
{ACAD_REACTORS
330
4AE
102
}
330
1E
100
AcDbEntity
  8
STEMPEL
100
AcDbCircle
 10
303.6494671121179
 20
425.0643103090387
 30
0.0
 40
3.5
100
AcDbArc
 50
147.2999999999997
 51
180.0
  0
ARC
  5
491
102
{ACAD_REACTORS
330
4AE
102
}
330
1E
100
AcDbEntity
  8
STEMPEL
100
AcDbCircle
 10
163.6494671121177
 20
425.0643103090381
 30
0.0
 40
5.0
100
AcDbArc
 50
0.0000000000000509
 51
32.70000000000031
  0
LINE
  5
492
102
{ACAD_REACTORS
330
269
330
4AE
330
4BA
102
}
330
1E
100
AcDbEntity
  8
STEMPEL
100
AcDbLine
 10
156.6372009391997
 20
442.4656356711825
 30
0.0
 11
166.5947548489263
 21
426.9551514307099
 31
0.0
  0
ARC
  5
493
102
{ACAD_REACTORS
330
4AE
102
}
330
1E
100
AcDbEntity
  8
STEMPEL
100
AcDbCircle
 10
163.6494671121177
 20
425.0643103090381
 30
0.0
 40
3.5
100
AcDbArc
 50
0.0000000000000509
 51
32.70000000000031
  0
HATCH
  5
4AE
330
1E
100
AcDbEntity
  8
SCHRAFF
100
AcDbHatch
 10
0.0
 20
0.0
 30
0.0
210
0.0
220
0.0
230
1.0
  2
_USER
 70
     0
 71
     1
 91
        2
 92
        7
 72
     1
 73
     1
 93
       10
 10
298.649467112118
 20
192.1875364272314
 42
0.0
 10
297.5938733934908
 20
180.1220450128566
 42
0.0
 10
299.0996031498058
 20
180.1220450128566
 42
0.0
 10
300.149467112118
 20
192.1220450128693
 42
0.0
 10
300.149467112118
 20
425.0643103090387
 42
-0.1436568363649712
 10
300.7041793753093
 20
426.9551514307106
 42
0.0
 10
310.6617332850355
 20
442.4656356711825
 42
0.0
 10
309.3994671121175
 20
443.275996151899
 42
0.0
 10
299.4419132023913
 20
427.765511911427
 42
0.1436568363649748
 10
298.6494671121178
 20
425.0643103090387
 42
0.0
 97
       10
330
490
330
48F
330
303
330
2F8
330
48E
330
45F
330
458
330
45D
330
457
330
460
 92
        7
 72
     1
 73
     1
 93
       10
 10
168.6494671121177
 20
425.0643103090381
 42
0.1436568363649744
 10
167.8570210218443
 20
427.7655119114264
 42
0.0
 10
157.8994671121177
 20
443.2759961518989
 42
0.0
 10
156.6372009391997
 20
442.4656356711825
 42
0.0
 10
166.5947548489263
 20
426.9551514307099
 42
-0.1436568363649702
 10
167.1494671121178
 20
425.0643103090381
 42
0.0
 10
167.1494671121181
 20
192.1220450128563
 42
0.0
 10
168.1993310744291
 20
180.1220450128566
 42
0.0
 10
169.7050608307441
 20
180.1220450128566
 42
0.0
 10
168.649467112118
 20
192.1875364272197
 42
0.0
 97
       10
330
491
330
2BD
330
2C3
330
492
330
493
330
463
330
45A
330
45D
330
459
330
462
 75
     0
 76
     0
 52
135.0
 41
2.0
 77
     0
 78
     1
 53
135.0
 43
0.0
 44
0.0
 45
-1.414213562373095
 46
-1.414213562373094
 79
     0
 47
0.4493232848184605
 98
        2
 10
299.1926105671078
 20
347.1883780760168
 10
167.9190469123791
 20
336.8539433319284
  0
HATCH
  5
4BA
330
1E
100
AcDbEntity
  8
SCHRAFF
100
AcDbHatch
 10
0.0
 20
0.0
 30
0.0
210
0.0
220
0.0
230
1.0
  2
_USER
 70
     0
 71
     1
 91
        2
 92
        7
 72
     1
 73
     1
 93
        4
 10
312.859723141318
 20
443.1128146199123
 42
0.0
 10
311.9239994579534
 20
441.6552751904661
 42
0.0
 10
310.6617332850356
 20
442.4656356711825
 42
0.0
 10
309.6155624029557
 20
440.8360570491184
 42
0.8729513670662376
 97
        4
330
301
330
303
330
48F
330
302
 92
        7
 72
     1
 73
     1
 93
        4
 10
157.6833718212795
 20
440.8360570491184
 42
0.0
 10
156.6372009391997
 20
442.4656356711825
 42
0.0
 10
155.3749347662817
 20
441.655275190466
 42
0.0
 10
154.4392110829172
 20
443.1128146199123
 42
0.8729513670662354
 97
        4
330
2C3
330
2C1
330
2C2
330
492
 75
     0
 76
     0
 52
0.0
 41
0.1
 77
     0
 78
     1
 53
0.0
 43
0.0
 44
0.0
 45
0.0
 46
0.1
 79
     0
 47
0.2742157745736938
 98
        2
 10
310.9986830422477
 20
440.9135723924642
 10
155.4340050248311
 20
440.9135723924642
  0
LINE
  5
54A
102
{ACAD_REACTORS
330
6D4
102
}
330
1E
100
AcDbEntity
  8
STEMPEL
  6
Continuous
100
AcDbLine
 10
123.6494671121176
 20
457.1220450128558
 30
0.0
 11
138.3944691864375
 21
299.8420228867766
 31
0.0
  0
ARC
  5
54B
102
{ACAD_REACTORS
330
6D4
102
}
330
1E
100
AcDbEntity
  8
STEMPEL
  6
Continuous
100
AcDbCircle
 10
141.3813718646153
 20
300.1220450128558
 30
0.0
 40
3.0
100
AcDbArc
 50
185.3558250428554
 51
270.0
  0
LINE
  5
54C
102
{ACAD_REACTORS
330
6D4
102
}
330
1E
100
AcDbEntity
  8
STEMPEL
  6
Continuous
100
AcDbLine
 10
141.3813718646153
 20
297.1220450128559
 30
0.0
 11
167.1494671121179
 21
297.1220450128559
 31
0.0
  0
DIMENSION
  5
54D
330
1E
100
AcDbEntity
  8
BEM
100
AcDbDimension
  2
*D5
 10
328.6494671121176
 20
278.6095265133884
 30
0.0
 11
233.6494671121176
 21
285.1095265133884
 31
0.0
 70
    32
  1
%%c<>
 71
     5
 42
190.0
  3
Standard
100
AcDbAlignedDimension
 13
138.6494671121176
 23
297.1220450128559
 33
0.0
 14
328.6494671121176
 24
297.1220450128559
 34
0.0
100
AcDbRotatedDimension
1001
ACAD
1000
DSTYLE
1002
{
1070
    40
1040
2.0
1070
    41
1040
3.5
1070
    42
1040
1.0
1070
    43
1040
7.0
1070
    44
1040
1.0
1070
    73
1070
     0
1070
    74
1070
     0
1070
    77
1070
     1
1070
    78
1070
     8
1070
    79
1070
     2
1070
   140
1040
3.5
1070
   141
1040
1.5
1070
   146
1040
0.5142857142857144
1070
   147
1040
1.5
1070
   172
1070
     1
1070
   178
1070
     1
1070
   179
1070
     2
1070
   271
1070
     2
1070
   272
1070
     2
1070
   284
1070
     8
1070
   285
1070
     8
1070
   286
1070
     8
1002
}
  0
DIMENSION
  5
54E
330
1E
100
AcDbEntity
  8
BEM
100
AcDbDimension
  2
*D6
 10
343.6494671121175
 20
495.4666566479899
 30
0.0
 11
233.6494671121175
 21
501.9666566479899
 31
0.0
 70
    32
  1
%%c<>
 71
     5
 42
219.9999999999999
  3
Standard
100
AcDbAlignedDimension
 13
123.6494671121176
 23
457.1220450128558
 33
0.0
 14
343.6494671121175
 24
457.1220450128558
 34
0.0
100
AcDbRotatedDimension
1001
ACAD
1000
DSTYLE
1002
{
1070
    40
1040
2.0
1070
    41
1040
3.5
1070
    42
1040
1.0
1070
    43
1040
7.0
1070
    44
1040
1.0
1070
    73
1070
     0
1070
    74
1070
     0
1070
    77
1070
     1
1070
    78
1070
     8
1070
    79
1070
     2
1070
   140
1040
3.5
1070
   141
1040
1.5
1070
   146
1040
0.5142857142857144
1070
   147
1040
1.5
1070
   172
1070
     1
1070
   178
1070
     1
1070
   179
1070
     2
1070
   271
1070
     2
1070
   272
1070
     2
1070
   284
1070
     8
1070
   285
1070
     8
1070
   286
1070
     8
1002
}
  0
DIMENSION
  5
54F
330
1E
100
AcDbEntity
  8
BEM
100
AcDbDimension
  2
*D7
 10
96.63784926038662
 20
457.1220450128556
 30
0.0
 11
90.13784926038654
 21
377.1220450128558
 31
0.0
 70
    32
 71
     5
 42
159.9999999999998
  3
Standard
100
AcDbAlignedDimension
 13
141.3813718646153
 23
297.1220450128559
 33
0.0
 14
123.6494671121176
 24
457.1220450128556
 34
0.0
 50
90.0
100
AcDbRotatedDimension
1001
ACAD
1000
DSTYLE
1002
{
1070
    40
1040
2.0
1070
    41
1040
3.5
1070
    42
1040
1.0
1070
    43
1040
7.0
1070
    44
1040
1.0
1070
    73
1070
     0
1070
    74
1070
     0
1070
    77
1070
     1
1070
    78
1070
     8
1070
    79
1070
     2
1070
   140
1040
3.5
1070
   141
1040
1.5
1070
   146
1040
0.5142857142857144
1070
   147
1040
1.5
1070
   172
1070
     1
1070
   178
1070
     1
1070
   179
1070
     2
1070
   271
1070
     2
1070
   272
1070
     2
1070
   284
1070
     8
1070
   285
1070
     8
1070
   286
1070
     8
1002
}
  0
ARC
  5
55D
102
{ACAD_REACTORS
330
6D4
102
}
330
1E
100
AcDbEntity
  8
STEMPEL
  6
Continuous
100
AcDbCircle
 10
325.9175623596199
 20
300.1220450128558
 30
0.0
 40
3.0
100
AcDbArc
 50
270.0
 51
354.6441749571445
  0
LINE
  5
55E
102
{ACAD_REACTORS
330
6D4
102
}
330
1E
100
AcDbEntity
  8
STEMPEL
  6
Continuous
100
AcDbLine
 10
343.6494671121176
 20
457.1220450128558
 30
0.0
 11
328.9044650377976
 21
299.8420228867766
 31
0.0
  0
TEXT
  5
5BD
330
1E
100
AcDbEntity
  8
TEXT
100
AcDbText
 10
235.1296391125316
 20
71.64011943042158
 30
0.0
 40
5.0
  1
mit Wärmedämmung
 41
0.8
  7
GREEKS
100
AcDbText
  0
TEXT
  5
5C5
330
1E
100
AcDbEntity
  8
TEXT
 62
     1
100
AcDbText
 10
248.6070685112174
 20
123.9233593715914
 30
0.0
 40
7.0
  1
Dämmung: Styropor SE WLG 0.35
 41
0.8
  7
GREEKS
 72
     1
 11
321.4070685112174
 21
123.9233593715914
 31
0.0
100
AcDbText
  0
TEXT
  5
5C6
330
1E
100
AcDbEntity
  8
TEXT
 62
     1
100
AcDbText
 10
251.4820966442579
 20
136.1938916486731
 30
0.0
 40
7.0
  1
Werkstoff: 1.4301/1.4571
 41
0.8
  7
GREEKS
 72
     1
 11
304.1487633109245
 21
136.1938916486731
 31
0.0
100
AcDbText
  0
TEXT
  5
5D4
330
1E
100
AcDbEntity
  8
TEXT
 62
     1
100
AcDbText
 10
314.2487239260605
 20
191.7957751625233
 30
0.0
 40
7.0
  1
EDV-Art.Nr. 21981.125X
 41
0.7
  7
GREEKS
100
AcDbText
  0
LINE
  5
5D5
330
1E
100
AcDbEntity
  8
TEXT
 62
     2
100
AcDbLine
 10
312.3560825759302
 20
201.6180817378702
 30
0.0
 11
405.7543833433544
 21
201.6180817378702
 31
0.0
  0
TEXT
  5
5D6
330
1E
100
AcDbEntity
  8
TEXT
 62
     1
100
AcDbText
 10
314.2487239260605
 20
205.1126131225935
 30
0.0
 40
7.0
  1
Ablaufkörper DN125
 41
0.8
  7
GREEKS
100
AcDbText
  0
LINE
  5
5D7
330
1E
100
AcDbEntity
  8
TEXT
 62
     2
100
AcDbLine
 10
312.3560825759302
 20
201.6180817378702
 30
0.0
 11
299.8349577626805
 21
217.9768416408725
 31
0.0
  0
LINE
  5
5D8
330
1E
100
AcDbEntity
  8
TEXT
 62
     2
100
AcDbLine
 10
370.8450278764087
 20
370.891366684265
 30
0.0
 11
331.9291443401557
 21
385.6551675086233
 31
0.0
  0
TEXT
  5
5D9
330
1E
100
AcDbEntity
  8
TEXT
 62
     1
100
AcDbText
 10
367.3504964916854
 20
279.3857072669711
 30
0.0
 40
7.0
  1
Wärmedämmung
 50
90.0
 41
0.8
  7
GREEKS
100
AcDbText
  0
LINE
  5
5DA
330
1E
100
AcDbEntity
  8
TEXT
 62
     2
100
AcDbLine
 10
370.8450278764087
 20
277.4930659168407
 30
0.0
 11
370.8450278764087
 21
370.891366684265
 31
0.0
  0
TEXT
  5
5DB
330
1E
100
AcDbEntity
  8
TEXT
 62
     1
100
AcDbText
 10
380.6673344517556
 20
279.3857072669711
 30
0.0
 40
7.0
  1
EDV-Art.Nr. 19842.125X
 50
90.0
 41
0.7
  7
GREEKS
100
AcDbText
  0
LINE
  5
5E9
102
{ACAD_REACTORS
330
6D4
102
}
330
1E
100
AcDbEntity
  8
STEMPEL
  6
Continuous
100
AcDbLine
 10
300.1494671121179
 20
297.1220450128551
 30
0.0
 11
325.9175623596198
 21
297.1220450128551
 31
0.0
  0
LINE
  5
5F3
330
1E
100
AcDbEntity
  8
MITTEL
100
AcDbLine
 10
233.6494671121176
 20
275.9988613879275
 30
0.0
 11
233.6494671121175
 21
175.1220450128566
 31
0.0
  0
LINE
  5
646
102
{ACAD_REACTORS
330
6D4
102
}
330
1E
100
AcDbEntity
  8
STEMPEL
100
AcDbLine
 10
138.6494671121176
 20
457.1220450128558
 30
0.0
 11
144.6494671121175
 21
452.1220450128558
 31
0.0
  0
LINE
  5
64C
102
{ACAD_REACTORS
330
6D4
102
}
330
1E
100
AcDbEntity
  8
STEMPEL
100
AcDbLine
 10
328.6494671121176
 20
457.1220450128558
 30
0.0
 11
322.6494671121176
 21
452.1220450128558
 31
0.0
  0
LINE
  5
64D
330
1E
100
AcDbEntity
  8
STEMPEL
100
AcDbLine
 10
144.6494671121175
 20
452.1220450128556
 30
0.0
 11
148.655387964823
 21
452.1220450128555
 31
0.0
  0
LINE
  5
656
330
1E
100
AcDbEntity
  8
STEMPEL
100
AcDbLine
 10
318.6435462594122
 20
452.1220450128555
 30
0.0
 11
322.6494671121176
 21
452.1220450128556
 31
0.0
  0
LINE
  5
68E
102
{ACAD_REACTORS
330
6D4
102
}
330
1E
100
AcDbEntity
  8
STEMPEL
100
AcDbLine
 10
167.1494671121179
 20
303.9220450128552
 30
0.0
 11
156.1494671121174
 21
317.1220450128559
 31
0.0
  0
LINE
  5
68F
102
{ACAD_REACTORS
330
6D4
102
}
330
1E
100
AcDbEntity
  8
STEMPEL
100
AcDbLine
 10
300.149467112118
 20
303.922045012856
 30
0.0
 11
311.1494671121174
 21
317.1220450128551
 31
0.0
  0
LINE
  5
690
330
1E
100
AcDbEntity
  8
STEMPEL
  6
Continuous
100
AcDbLine
 10
156.1494671121174
 20
317.1220450128559
 30
0.0
 11
167.1494671121179
 21
317.1220450128558
 31
0.0
  0
LINE
  5
694
330
1E
100
AcDbEntity
  8
STEMPEL
100
AcDbLine
 10
311.1494671121175
 20
387.1220450128553
 30
0.0
 11
300.149467112118
 21
387.1220450128553
 31
0.0
  0
LINE
  5
695
102
{ACAD_REACTORS
330
6D4
102
}
330
1E
100
AcDbEntity
  8
STEMPEL
100
AcDbLine
 10
311.1494671121175
 20
387.1220450128554
 30
0.0
 11
311.1494671121174
 21
317.1220450128551
 31
0.0
  0
LINE
  5
696
330
1E
100
AcDbEntity
  8
STEMPEL
100
AcDbLine
 10
144.6494671121176
 20
432.1220450128558
 30
0.0
 11
163.2776681227887
 21
432.1220450128557
 31
0.0
  0
LINE
  5
697
102
{ACAD_REACTORS
330
6D4
102
}
330
1E
100
AcDbEntity
  8
STEMPEL
100
AcDbLine
 10
322.6494671121176
 20
432.1220450128558
 30
0.0
 11
311.1494671121176
 21
387.1220450128553
 31
0.0
  0
LINE
  5
698
102
{ACAD_REACTORS
330
6D4
102
}
330
1E
100
AcDbEntity
  8
STEMPEL
100
AcDbLine
 10
322.6494671121176
 20
452.1220450128556
 30
0.0
 11
322.6494671121176
 21
432.1220450128558
 31
0.0
  0
LINE
  5
699
102
{ACAD_REACTORS
330
6D4
102
}
330
1E
100
AcDbEntity
  8
STEMPEL
100
AcDbLine
 10
156.1494671121175
 20
387.1220450128557
 30
0.0
 11
156.1494671121174
 21
317.1220450128559
 31
0.0
  0
LINE
  5
69A
102
{ACAD_REACTORS
330
6D4
102
}
330
1E
100
AcDbEntity
  8
STEMPEL
100
AcDbLine
 10
144.6494671121176
 20
452.1220450128556
 30
0.0
 11
144.6494671121176
 21
432.1220450128558
 31
0.0
  0
LINE
  5
69B
102
{ACAD_REACTORS
330
6D4
102
}
330
1E
100
AcDbEntity
  8
STEMPEL
100
AcDbLine
 10
144.6494671121176
 20
432.1220450128558
 30
0.0
 11
156.1494671121175
 21
387.1220450128557
 31
0.0
  0
LINE
  5
69C
330
1E
100
AcDbEntity
  8
STEMPEL
100
AcDbLine
 10
167.1494671121178
 20
387.1220450128557
 30
0.0
 11
156.1494671121175
 21
387.1220450128557
 31
0.0
  0
LINE
  5
69D
330
1E
100
AcDbEntity
  8
STEMPEL
  6
Continuous
100
AcDbLine
 10
300.149467112118
 20
317.1220450128551
 30
0.0
 11
311.1494671121174
 21
317.1220450128551
 31
0.0
  0
LINE
  5
69E
330
1E
100
AcDbEntity
  8
STEMPEL
100
AcDbLine
 10
304.0212661014465
 20
432.1220450128558
 30
0.0
 11
322.6494671121175
 21
432.1220450128558
 31
0.0
  0
HATCH
  5
6D4
330
1E
100
AcDbEntity
  8
SCHRAFF
100
AcDbHatch
 10
0.0
 20
0.0
 30
0.0
210
0.0
220
0.0
230
1.0
  2
HONEY
 70
     0
 71
     1
 91
        2
 92
        7
 72
     1
 73
     1
 93
       10
 10
343.6494671121177
 20
457.1220450128565
 42
0.0
 10
328.6494671121185
 20
457.1220450128565
 42
0.0
 10
322.6494671121177
 20
452.1220450128558
 42
0.0
 10
322.6494671121176
 20
432.1220450128557
 42
0.0
 10
311.1494671121175
 20
387.1220450128547
 42
0.0
 10
311.1494671121174
 20
317.1220450128551
 42
0.0
 10
300.1494671121179
 20
303.9220450128559
 42
0.0
 10
300.1494671121179
 20
297.1220450128551
 42
0.0
 10
325.9175623596198
 20
297.1220450128551
 42
0.3870924378343681
 10
328.9044650377976
 20
299.8420228867766
 42
0.0
 97
       10
330
2F0
330
64C
330
698
330
697
330
695
330
68F
330
460
330
5E9
330
55D
330
55E
 92
        7
 72
     1
 73
     1
 93
       10
 10
156.1494671121175
 20
387.1220450128556
 42
0.0
 10
144.6494671121176
 20
432.1220450128557
 42
0.0
 10
144.6494671121176
 20
452.1220450128558
 42
0.0
 10
138.6494671121166
 20
457.1220450128565
 42
0.0
 10
123.6494671121175
 20
457.1220450128564
 42
0.0
 10
138.3944691864375
 20
299.8420228867766
 42
0.3870924378342832
 10
141.3813718646154
 20
297.1220450128559
 42
0.0
 10
167.1494671121179
 20
297.1220450128559
 42
0.0
 10
167.1494671121179
 20
303.9220450128552
 42
0.0
 10
156.1494671121173
 20
317.1220450128558
 42
0.0
 97
       10
330
69B
330
69A
330
646
330
2A4
330
54A
330
54B
330
54C
330
463
330
68E
330
699
 75
     0
 76
     1
 52
0.0
 41
35.0
 77
     0
 78
     3
 53
0.0
 43
0.0
 44
0.0
 45
6.5625
 46
3.788861124999999
 79
     2
 49
4.375
 49
-8.75
 53
120.0
 43
0.0
 44
0.0
 45
-6.562499985661285
 46
3.788861149835379
 79
     2
 49
4.375
 49
-8.75
 53
60.0
 43
0.0
 44
0.0
 45
0.000000014338714
 46
7.577722274835378
 79
     2
 49
-8.75
 49
4.375
 47
0.805942172729124
 98
        2
 10
324.4795234777557
 20
373.5645175097734
 10
143.8921171368615
 20
375.9823445628561
  0
ENDSEC
  0
SECTION
  2
OBJECTS
  0
DICTIONARY
  5
C
330
0
100
AcDbDictionary
281
     1
  3
ACAD_COLOR
350
DF
  3
ACAD_GROUP
350
D
  3
ACAD_LAYOUT
350
19
  3
ACAD_MATERIAL
350
DE
  3
ACAD_MLINESTYLE
350
16
  3
ACAD_PLOTSETTINGS
350
18
  3
ACAD_PLOTSTYLENAME
350
E
  3
AcDbVariableDictionary
350
EA
  0
DICTIONARY
  5
A0
330
1E
100
AcDbDictionary
280
     1
281
     1
  3
ACAD_LAYOUTSELFREF
360
D4
  0
DICTIONARY
  5
A2
330
1A
100
AcDbDictionary
280
     1
281
     1
  3
ACAD_LAYOUTSELFREF
360
D3
  0
DICTIONARY
  5
DF
102
{ACAD_REACTORS
330
C
102
}
330
C
100
AcDbDictionary
281
     1
  0
DICTIONARY
  5
D
102
{ACAD_REACTORS
330
C
102
}
330
C
100
AcDbDictionary
281
     1
  0
DICTIONARY
  5
19
102
{ACAD_REACTORS
330
C
102
}
330
C
100
AcDbDictionary
281
     1
  3
Layout1
350
1D
  3
Model
350
21
  0
DICTIONARY
  5
DE
102
{ACAD_REACTORS
330
C
102
}
330
C
100
AcDbDictionary
281
     1
  0
DICTIONARY
  5
16
102
{ACAD_REACTORS
330
C
102
}
330
C
100
AcDbDictionary
281
     1
  3
Standard
350
17
  0
DICTIONARY
  5
18
102
{ACAD_REACTORS
330
C
102
}
330
C
100
AcDbDictionary
281
     1
  0
ACDBDICTIONARYWDFLT
  5
E
102
{ACAD_REACTORS
330
C
102
}
330
C
100
AcDbDictionary
281
     1
  3
Normal
350
F
100
AcDbDictionaryWithDefault
340
F
  0
DICTIONARY
  5
EA
102
{ACAD_REACTORS
330
C
102
}
330
C
100
AcDbDictionary
281
     1
  3
DIMASSOC
350
EB
  3
PROJECTNAME
350
EC
  0
XRECORD
  5
D4
102
{ACAD_REACTORS
330
A0
102
}
330
A0
100
AcDbXrecord
280
     1
340
1E
  0
XRECORD
  5
D3
102
{ACAD_REACTORS
330
A2
102
}
330
A2
100
AcDbXrecord
280
     1
340
1A
  0
LAYOUT
  5
1D
102
{ACAD_REACTORS
330
19
102
}
330
19
100
AcDbPlotSettings
  1

  2
\\NT_WORK01\HP LaserJet 5000 PCL 6
  4

  6

 40
0.0
 41
0.0
 42
0.0
 43
0.0
 44
0.0
 45
0.0
 46
0.0
 47
0.0
 48
0.0
 49
0.0
140
0.0
141
0.0
142
1.0
143
1.0
 70
   688
 72
     0
 73
     0
 74
     5
  7

 75
    16
147
1.0
 76
     0
 77
     2
 78
   300
148
0.0
149
0.0
100
AcDbLayout
  1
Layout1
 70
     0
 71
     1
 10
0.0
 20
0.0
 11
12.0
 21
9.0
 12
0.0
 22
0.0
 32
0.0
 14
1.000000000000000E+20
 24
1.000000000000000E+20
 34
1.000000000000000E+20
 15
-1.000000000000000E+20
 25
-1.000000000000000E+20
 35
-1.000000000000000E+20
146
0.0
 13
0.0
 23
0.0
 33
0.0
 16
1.0
 26
0.0
 36
0.0
 17
0.0
 27
1.0
 37
0.0
 76
     0
330
1A
  0
LAYOUT
  5
21
102
{ACAD_REACTORS
330
19
102
}
330
19
100
AcDbPlotSettings
  1

  2
none_device
  4
Letter_(8.50_x_11.00_Inches)
  6

 40
6.349999904632568
 41
6.349999904632568
 42
6.350006103515625
 43
6.350006103515625
 44
215.8999938964844
 45
279.3999938964844
 46
0.0
 47
0.0
 48
0.0
 49
0.0
140
0.0
141
0.0
142
1.0
143
1.0
 70
 11952
 72
     0
 73
     1
 74
     0
  7

 75
     0
147
1.0
 76
     0
 77
     2
 78
   300
148
2209.800000000002
149
0.0
100
AcDbLayout
  1
Model
 70
     1
 71
     0
 10
0.0
 20
0.0
 11
12.0
 21
9.0
 12
0.0
 22
0.0
 32
0.0
 14
0.0
 24
0.0
 34
0.0
 15
0.0
 25
0.0
 35
0.0
146
0.0
 13
0.0
 23
0.0
 33
0.0
 16
1.0
 26
0.0
 36
0.0
 17
0.0
 27
1.0
 37
0.0
 76
     0
330
1E
  0
MLINESTYLE
  5
17
102
{ACAD_REACTORS
330
16
102
}
330
16
100
AcDbMlineStyle
  2
STANDARD
 70
     0
  3

 62
   256
 51
90.0
 52
90.0
 71
     2
 49
0.5
 62
   256
  6
BYLAYER
 49
-0.5
 62
   256
  6
BYLAYER
  0
ACDBPLACEHOLDER
  5
F
102
{ACAD_REACTORS
330
E
102
}
330
E
  0
DICTIONARYVAR
  5
EB
102
{ACAD_REACTORS
330
EA
102
}
330
EA
100
DictionaryVariables
280
     0
  1
1
  0
DICTIONARYVAR
  5
EC
102
{ACAD_REACTORS
330
EA
102
}
330
EA
100
DictionaryVariables
280
     0
  1

  0
ENDSEC
  0
EOF
