  0
SECTION
  2
HEADER
  9
$ACADVER
  1
AC1018
  9
$ACADMAINTVER
 70
     2
  9
$DWGCODEPAGE
  3
ANSI_1252
  9
$INSBASE
 10
0.0
 20
0.0
 30
0.0
  9
$EXTMIN
 10
-0.0320385670876249
 20
-0.0453116877386037
 30
-0.000000000000013
  9
$EXTMAX
 10
420.0000019560163
 20
594.0000027663659
 30
0.0000000000000023
  9
$LIMMIN
 10
0.0
 20
0.0
  9
$LIMMAX
 10
419.9999999999999
 20
594.0
  9
$ORTHOMODE
 70
     1
  9
$REGENMODE
 70
     1
  9
$FILLMODE
 70
     1
  9
$QTEXTMODE
 70
     0
  9
$MIRRTEXT
 70
     1
  9
$LTSCALE
 40
20.0
  9
$ATTMODE
 70
     1
  9
$TEXTSIZE
 40
3.5
  9
$TRACEWID
 40
0.5
  9
$TEXTSTYLE
  7
STANDARD
  9
$CLAYER
  8
SCHRAFF
  9
$CELTYPE
  6
ByLayer
  9
$CECOLOR
 62
   256
  9
$CELTSCALE
 40
1.0
  9
$DISPSILH
 70
     0
  9
$DIMSCALE
 40
2.0
  9
$DIMASZ
 40
3.5
  9
$DIMEXO
 40
1.0
  9
$DIMDLI
 40
7.0
  9
$DIMRND
 40
0.0
  9
$DIMDLE
 40
0.0
  9
$DIMEXE
 40
1.0
  9
$DIMTP
 40
0.0
  9
$DIMTM
 40
0.0
  9
$DIMTXT
 40
3.5
  9
$DIMCEN
 40
1.5
  9
$DIMTSZ
 40
0.0
  9
$DIMTOL
 70
     0
  9
$DIMLIM
 70
     0
  9
$DIMTIH
 70
     0
  9
$DIMTOH
 70
     0
  9
$DIMSE1
 70
     0
  9
$DIMSE2
 70
     0
  9
$DIMTAD
 70
     1
  9
$DIMZIN
 70
     8
  9
$DIMBLK
  1

  9
$DIMASO
 70
     1
  9
$DIMSHO
 70
     0
  9
$DIMPOST
  1

  9
$DIMAPOST
  1

  9
$DIMALT
 70
     0
  9
$DIMALTD
 70
     2
  9
$DIMALTF
 40
25.4
  9
$DIMLFAC
 40
1.0
  9
$DIMTOFL
 70
     1
  9
$DIMTVP
 40
0.0
  9
$DIMTIX
 70
     0
  9
$DIMSOXD
 70
     0
  9
$DIMSAH
 70
     0
  9
$DIMBLK1
  1

  9
$DIMBLK2
  1

  9
$DIMSTYLE
  2
Standard
  9
$DIMCLRD
 70
     0
  9
$DIMCLRE
 70
     0
  9
$DIMCLRT
 70
     1
  9
$DIMTFAC
 40
0.5142857142857144
  9
$DIMGAP
 40
1.5
  9
$DIMJUST
 70
     0
  9
$DIMSD1
 70
     0
  9
$DIMSD2
 70
     0
  9
$DIMTOLJ
 70
     1
  9
$DIMTZIN
 70
     8
  9
$DIMALTZ
 70
     8
  9
$DIMALTTZ
 70
     8
  9
$DIMUPT
 70
     0
  9
$DIMDEC
 70
     2
  9
$DIMTDEC
 70
     2
  9
$DIMALTU
 70
     2
  9
$DIMALTTD
 70
     2
  9
$DIMTXSTY
  7
STANDARD
  9
$DIMAUNIT
 70
     0
  9
$DIMADEC
 70
     2
  9
$DIMALTRND
 40
0.0
  9
$DIMAZIN
 70
     2
  9
$DIMDSEP
 70
    46
  9
$DIMATFIT
 70
     3
  9
$DIMFRAC
 70
     0
  9
$DIMLDRBLK
  1

  9
$DIMLUNIT
 70
     2
  9
$DIMLWD
 70
    -2
  9
$DIMLWE
 70
    -2
  9
$DIMTMOVE
 70
     0
  9
$LUNITS
 70
     2
  9
$LUPREC
 70
     2
  9
$SKETCHINC
 40
1.0
  9
$FILLETRAD
 40
0.0
  9
$AUNITS
 70
     0
  9
$AUPREC
 70
     0
  9
$MENU
  1
ACAD
  9
$ELEVATION
 40
0.0
  9
$PELEVATION
 40
0.0
  9
$THICKNESS
 40
0.0
  9
$LIMCHECK
 70
     0
  9
$CHAMFERA
 40
0.0
  9
$CHAMFERB
 40
0.0
  9
$CHAMFERC
 40
0.0
  9
$CHAMFERD
 40
0.0
  9
$SKPOLY
 70
     0
  9
$TDCREATE
 40
2455397.823042361
  9
$TDUCREATE
 40
2455397.781375695
  9
$TDUPDATE
 40
2455531.537658831
  9
$TDUUPDATE
 40
2455531.495992164
  9
$TDINDWG
 40
0.0351277778
  9
$TDUSRTIMER
 40
0.0351277778
  9
$USRTIMER
 70
     1
  9
$ANGBASE
 50
0.0
  9
$ANGDIR
 70
     0
  9
$PDMODE
 70
     0
  9
$PDSIZE
 40
0.0
  9
$PLINEWID
 40
0.0
  9
$SPLFRAME
 70
     0
  9
$SPLINETYPE
 70
     6
  9
$SPLINESEGS
 70
     8
  9
$HANDSEED
  5
850
  9
$SURFTAB1
 70
     6
  9
$SURFTAB2
 70
     6
  9
$SURFTYPE
 70
     6
  9
$SURFU
 70
     6
  9
$SURFV
 70
     6
  9
$UCSBASE
  2

  9
$UCSNAME
  2

  9
$UCSORG
 10
0.0
 20
0.0
 30
0.0
  9
$UCSXDIR
 10
1.0
 20
0.0
 30
0.0
  9
$UCSYDIR
 10
0.0
 20
1.0
 30
0.0
  9
$UCSORTHOREF
  2

  9
$UCSORTHOVIEW
 70
     0
  9
$UCSORGTOP
 10
0.0
 20
0.0
 30
0.0
  9
$UCSORGBOTTOM
 10
0.0
 20
0.0
 30
0.0
  9
$UCSORGLEFT
 10
0.0
 20
0.0
 30
0.0
  9
$UCSORGRIGHT
 10
0.0
 20
0.0
 30
0.0
  9
$UCSORGFRONT
 10
0.0
 20
0.0
 30
0.0
  9
$UCSORGBACK
 10
0.0
 20
0.0
 30
0.0
  9
$PUCSBASE
  2

  9
$PUCSNAME
  2

  9
$PUCSORG
 10
0.0
 20
0.0
 30
0.0
  9
$PUCSXDIR
 10
1.0
 20
0.0
 30
0.0
  9
$PUCSYDIR
 10
0.0
 20
1.0
 30
0.0
  9
$PUCSORTHOREF
  2

  9
$PUCSORTHOVIEW
 70
     0
  9
$PUCSORGTOP
 10
0.0
 20
0.0
 30
0.0
  9
$PUCSORGBOTTOM
 10
0.0
 20
0.0
 30
0.0
  9
$PUCSORGLEFT
 10
0.0
 20
0.0
 30
0.0
  9
$PUCSORGRIGHT
 10
0.0
 20
0.0
 30
0.0
  9
$PUCSORGFRONT
 10
0.0
 20
0.0
 30
0.0
  9
$PUCSORGBACK
 10
0.0
 20
0.0
 30
0.0
  9
$USERI1
 70
     0
  9
$USERI2
 70
     0
  9
$USERI3
 70
     0
  9
$USERI4
 70
     0
  9
$USERI5
 70
     0
  9
$USERR1
 40
0.0
  9
$USERR2
 40
0.0
  9
$USERR3
 40
0.0
  9
$USERR4
 40
0.0
  9
$USERR5
 40
0.0
  9
$WORLDVIEW
 70
     1
  9
$SHADEDGE
 70
     3
  9
$SHADEDIF
 70
    70
  9
$TILEMODE
 70
     1
  9
$MAXACTVP
 70
    16
  9
$PINSBASE
 10
0.0
 20
0.0
 30
0.0
  9
$PLIMCHECK
 70
     0
  9
$PEXTMIN
 10
1.000000000000000E+20
 20
1.000000000000000E+20
 30
1.000000000000000E+20
  9
$PEXTMAX
 10
-1.000000000000000E+20
 20
-1.000000000000000E+20
 30
-1.000000000000000E+20
  9
$PLIMMIN
 10
0.0
 20
0.0
  9
$PLIMMAX
 10
12.0
 20
9.0
  9
$UNITMODE
 70
     0
  9
$VISRETAIN
 70
     0
  9
$PLINEGEN
 70
     0
  9
$PSLTSCALE
 70
     0
  9
$TREEDEPTH
 70
  3020
  9
$CMLSTYLE
  2
Standard
  9
$CMLJUST
 70
     0
  9
$CMLSCALE
 40
1.0
  9
$PROXYGRAPHICS
 70
     1
  9
$MEASUREMENT
 70
     0
  9
$CELWEIGHT
370
    -1
  9
$ENDCAPS
280
     0
  9
$JOINSTYLE
280
     0
  9
$LWDISPLAY
290
     0
  9
$INSUNITS
 70
     0
  9
$HYPERLINKBASE
  1

  9
$STYLESHEET
  1
monochrome 1.ctb
  9
$XEDIT
290
     1
  9
$CEPSNTYPE
380
     0
  9
$PSTYLEMODE
290
     1
  9
$FINGERPRINTGUID
  2
{D68B0D02-A558-11D7-B632-000102183313}
  9
$VERSIONGUID
  2
{D7A59BD2-A2CF-41BE-A9BA-E3EFA8236B2E}
  9
$EXTNAMES
290
     1
  9
$PSVPSCALE
 40
0.0
  9
$OLESTARTUP
290
     0
  9
$SORTENTS
280
   127
  9
$INDEXCTL
280
     0
  9
$HIDETEXT
280
     0
  9
$XCLIPFRAME
290
     0
  9
$HALOGAP
280
     0
  9
$OBSCOLOR
 70
   257
  9
$OBSLTYPE
280
     0
  9
$INTERSECTIONDISPLAY
280
     0
  9
$INTERSECTIONCOLOR
 70
   257
  9
$DIMASSOC
280
     1
  9
$PROJECTNAME
  1

  0
ENDSEC
  0
SECTION
  2
CLASSES
  0
CLASS
  1
ACDBDICTIONARYWDFLT
  2
AcDbDictionaryWithDefault
  3
ObjectDBX Classes
 90
        0
 91
        1
280
     0
281
     0
  0
CLASS
  1
DICTIONARYVAR
  2
AcDbDictionaryVar
  3
ObjectDBX Classes
 90
        0
 91
        2
280
     0
281
     0
  0
ENDSEC
  0
SECTION
  2
TABLES
  0
TABLE
  2
VPORT
  5
8
330
0
100
AcDbSymbolTable
 70
     2
  0
VPORT
  5
84F
330
8
100
AcDbSymbolTableRecord
100
AcDbViewportTableRecord
  2
*Active
 70
     0
 10
0.0
 20
0.0
 11
1.0
 21
1.0
 12
209.9839816944644
 22
296.9773455393137
 13
0.0
 23
0.0
 14
1.0
 24
1.0
 15
10.0
 25
10.0
 16
0.0
 26
0.0
 36
1.0
 17
0.0
 27
0.0
 37
0.0
 40
598.8424502370449
 41
1.336927223719676
 42
50.0
 43
0.0
 44
0.0
 50
0.0
 51
0.0
 71
     0
 72
  1500
 73
     1
 74
     0
 75
     0
 76
     0
 77
     0
 78
     0
281
     0
 65
     1
110
0.0
120
0.0
130
0.0
111
1.0
121
0.0
131
0.0
112
0.0
122
1.0
132
0.0
 79
     0
146
0.0
  0
ENDTAB
  0
TABLE
  2
LTYPE
  5
5
330
0
100
AcDbSymbolTable
 70
     3
  0
LTYPE
  5
13
330
5
100
AcDbSymbolTableRecord
100
AcDbLinetypeTableRecord
  2
ByBlock
 70
     0
  3

 72
    65
 73
     0
 40
0.0
  0
LTYPE
  5
14
330
5
100
AcDbSymbolTableRecord
100
AcDbLinetypeTableRecord
  2
ByLayer
 70
     0
  3

 72
    65
 73
     0
 40
0.0
  0
LTYPE
  5
15
330
5
100
AcDbSymbolTableRecord
100
AcDbLinetypeTableRecord
  2
Continuous
 70
     0
  3
Solid line
 72
    65
 73
     0
 40
0.0
  0
LTYPE
  5
25
330
5
100
AcDbSymbolTableRecord
100
AcDbLinetypeTableRecord
  2
STRICHPUNKT
 70
     0
  3
__ . __ . __ . __ . __ . __ . __ . __ . __ . __
 72
    65
 73
     4
 40
1.0
 49
0.5
 74
     0
 49
-0.25
 74
     0
 49
0.0
 74
     0
 49
-0.25
 74
     0
  0
LTYPE
  5
32
330
5
100
AcDbSymbolTableRecord
100
AcDbLinetypeTableRecord
  2
AUSGEZOGEN
 70
     0
  3
Ausgezogene Linie
 72
    65
 73
     0
 40
0.0
  0
ENDTAB
  0
TABLE
  2
LAYER
  5
2
330
0
100
AcDbSymbolTable
 70
     9
  0
LAYER
  5
10
330
2
100
AcDbSymbolTableRecord
100
AcDbLayerTableRecord
  2
0
 70
     0
 62
     7
  6
Continuous
370
    -3
390
F
  0
LAYER
  5
2A
330
2
100
AcDbSymbolTableRecord
100
AcDbLayerTableRecord
  2
VOLL
 70
     0
 62
     1
  6
Continuous
370
    -3
390
F
  0
LAYER
  5
2B
330
2
100
AcDbSymbolTableRecord
100
AcDbLayerTableRecord
  2
HILF
 70
     0
 62
     2
  6
Continuous
370
    -3
390
F
  0
LAYER
  5
2C
330
2
100
AcDbSymbolTableRecord
100
AcDbLayerTableRecord
  2
MITTEL
 70
     0
 62
     2
  6
STRICHPUNKT
370
    -3
390
F
  0
LAYER
  5
2F
330
2
100
AcDbSymbolTableRecord
100
AcDbLayerTableRecord
  2
BEM
 70
     0
 62
     7
  6
Continuous
370
    -3
390
F
  0
LAYER
  5
30
330
2
100
AcDbSymbolTableRecord
100
AcDbLayerTableRecord
  2
STEMPEL
 70
     0
 62
     3
  6
Continuous
370
    -3
390
F
  0
LAYER
  5
31
330
2
100
AcDbSymbolTableRecord
100
AcDbLayerTableRecord
  2
TEXT
 70
     0
 62
     7
  6
Continuous
370
    -3
390
F
  0
LAYER
  5
1BD
330
2
100
AcDbSymbolTableRecord
100
AcDbLayerTableRecord
  2
DEFPOINTS
 70
     0
 62
     7
  6
AUSGEZOGEN
290
     0
370
    -3
390
F
  0
LAYER
  5
1BE
330
2
100
AcDbSymbolTableRecord
100
AcDbLayerTableRecord
  2
SCHRAFF
 70
     0
 62
     7
  6
AUSGEZOGEN
370
    -3
390
F
  0
ENDTAB
  0
TABLE
  2
STYLE
  5
3
330
0
100
AcDbSymbolTable
 70
     2
  0
STYLE
  5
11
330
3
100
AcDbSymbolTableRecord
100
AcDbTextStyleTableRecord
  2
STANDARD
 70
     0
 40
0.0
 41
0.8
 50
0.0
 71
     0
 42
3.5
  3
simplex.shx
  4

  0
STYLE
  5
24
330
3
100
AcDbSymbolTableRecord
100
AcDbTextStyleTableRecord
  2
GREEKS
 70
     0
 40
0.0
 41
0.8
 50
0.0
 71
     0
 42
2.5
  3
SIMPLEX.shx
  4

  0
ENDTAB
  0
TABLE
  2
VIEW
  5
6
330
0
100
AcDbSymbolTable
 70
     0
  0
ENDTAB
  0
TABLE
  2
UCS
  5
7
330
0
100
AcDbSymbolTable
 70
     0
  0
ENDTAB
  0
TABLE
  2
APPID
  5
9
330
0
100
AcDbSymbolTable
 70
     1
  0
APPID
  5
12
330
9
100
AcDbSymbolTableRecord
100
AcDbRegAppTableRecord
  2
ACAD
 70
     0
  0
ENDTAB
  0
TABLE
  2
DIMSTYLE
  5
A
330
0
100
AcDbSymbolTable
 70
     1
100
AcDbDimStyleTable
 71
     1
340
9D
  0
DIMSTYLE
105
9D
102
{ACAD_REACTORS
330
6AB
330
69F
330
68D
330
687
330
686
330
685
102
}
330
A
100
AcDbSymbolTableRecord
100
AcDbDimStyleTableRecord
  2
Standard
 70
     0
340
11
  0
ENDTAB
  0
TABLE
  2
BLOCK_RECORD
  5
1
330
0
100
AcDbSymbolTable
 70
     7
  0
BLOCK_RECORD
  5
1E
102
{ACAD_XDICTIONARY
360
A0
102
}
330
1
100
AcDbSymbolTableRecord
100
AcDbBlockTableRecord
  2
*Model_Space
340
21
  0
BLOCK_RECORD
  5
1A
102
{ACAD_XDICTIONARY
360
A2
102
}
330
1
100
AcDbSymbolTableRecord
100
AcDbBlockTableRecord
  2
*Paper_Space
340
1D
  0
BLOCK_RECORD
  5
22
330
1
100
AcDbSymbolTableRecord
100
AcDbBlockTableRecord
  2
LOGO
340
0
102
{BLKREFS
331
9B
102
}
  0
BLOCK_RECORD
  5
6BB
330
1
100
AcDbSymbolTableRecord
100
AcDbBlockTableRecord
  2
*D1
340
0
  0
BLOCK_RECORD
  5
6C8
330
1
100
AcDbSymbolTableRecord
100
AcDbBlockTableRecord
  2
*D2
340
0
  0
BLOCK_RECORD
  5
6D5
330
1
100
AcDbSymbolTableRecord
100
AcDbBlockTableRecord
  2
*D3
340
0
  0
BLOCK_RECORD
  5
6EF
330
1
100
AcDbSymbolTableRecord
100
AcDbBlockTableRecord
  2
*D4
340
0
  0
BLOCK_RECORD
  5
6FD
330
1
100
AcDbSymbolTableRecord
100
AcDbBlockTableRecord
  2
*D5
340
0
  0
BLOCK_RECORD
  5
70A
330
1
100
AcDbSymbolTableRecord
100
AcDbBlockTableRecord
  2
*D6
340
0
  0
ENDTAB
  0
ENDSEC
  0
SECTION
  2
BLOCKS
  0
BLOCK
  5
35
330
1E
100
AcDbEntity
  8
0
100
AcDbBlockBegin
  2
*Model_Space
 70
     0
 10
0.0
 20
0.0
 30
0.0
  3
*Model_Space
  1

  0
ENDBLK
  5
36
330
1E
100
AcDbEntity
  8
0
100
AcDbBlockEnd
  0
BLOCK
  5
33
330
1A
100
AcDbEntity
 67
     1
  8
0
100
AcDbBlockBegin
  2
*Paper_Space
 70
     0
 10
0.0
 20
0.0
 30
0.0
  3
*Paper_Space
  1

  0
ENDBLK
  5
34
330
1A
100
AcDbEntity
 67
     1
  8
0
100
AcDbBlockEnd
  0
BLOCK
  5
37
330
22
100
AcDbEntity
  8
0
100
AcDbBlockBegin
  2
LOGO
 70
     0
 10
0.0
 20
0.0
 30
0.0
  3
LOGO
  1

  0
ARC
  5
38
330
22
100
AcDbEntity
  8
0
100
AcDbCircle
 10
11.59973089678112
 20
-9.271599258481501
 30
0.0
 40
4.5
100
AcDbArc
 50
270.0
 51
231.0575587310159
  0
LINE
  5
39
330
22
100
AcDbEntity
  8
0
100
AcDbLine
 10
3.599730896781125
 20
-4.771599258481529
 30
0.0
 11
3.599730896781153
 21
-11.77159925848133
 31
0.0
  0
LINE
  5
3A
330
22
100
AcDbEntity
  8
0
100
AcDbLine
 10
2.599730896781125
 20
-4.771599258481529
 30
0.0
 11
2.599730896781153
 21
-11.77159925848133
 31
0.0
  0
CIRCLE
  5
3B
330
22
100
AcDbEntity
  8
0
100
AcDbCircle
 10
11.59973089678112
 20
-9.271599258481501
 30
0.0
 40
3.5
  0
ARC
  5
3C
330
22
100
AcDbEntity
  8
0
100
AcDbCircle
 10
31.59973089678115
 20
-9.271599258481472
 30
0.0
 40
4.5
100
AcDbArc
 50
270.0
 51
231.0575587310182
  0
LINE
  5
3D
330
22
100
AcDbEntity
  8
0
100
AcDbLine
 10
17.59973089678112
 20
-4.771599258481472
 30
0.0
 11
17.59973089678115
 21
-13.77159925848147
 31
0.0
  0
ARC
  5
3E
330
22
100
AcDbEntity
  8
0
100
AcDbCircle
 10
22.59973089678116
 20
-7.271599258481472
 30
0.0
 40
2.5
100
AcDbArc
 50
293.1161887722295
 51
90.0
  0
CIRCLE
  5
3F
330
22
100
AcDbEntity
  8
0
100
AcDbCircle
 10
31.59973089678115
 20
-9.271599258481472
 30
0.0
 40
3.5
  0
ARC
  5
40
330
22
100
AcDbEntity
  8
0
100
AcDbCircle
 10
4.599730896781153
 20
-11.77159925848133
 30
0.0
 40
1.0
100
AcDbArc
 50
180.0
 51
270.0
  0
ARC
  5
41
330
22
100
AcDbEntity
  8
0
100
AcDbCircle
 10
4.599730896781153
 20
-11.77159925848133
 30
0.0
 40
2.0
100
AcDbArc
 50
179.9999999999992
 51
270.0
  0
LINE
  5
42
330
22
100
AcDbEntity
  8
0
100
AcDbLine
 10
11.59973089678115
 20
-13.77159925848144
 30
0.0
 11
4.599730896781153
 21
-13.77159925848147
 31
0.0
  0
LINE
  5
43
330
22
100
AcDbEntity
  8
0
100
AcDbLine
 10
8.771303772034769
 20
-12.77159925848136
 30
0.0
 11
4.599730896781153
 21
-12.77159925848133
 31
0.0
  0
LINE
  5
44
330
22
100
AcDbEntity
  8
0
100
AcDbLine
 10
31.59973089678115
 20
-13.77159925848147
 30
0.0
 11
23.6715276665056
 21
-13.77159925848144
 31
0.0
  0
LINE
  5
45
330
22
100
AcDbEntity
  8
0
100
AcDbLine
 10
23.56565672307022
 20
-9.51278021337896
 30
0.0
 11
24.4388546544846
 21
-12.77159925848144
 31
0.0
  0
LINE
  5
46
330
22
100
AcDbEntity
  8
0
100
AcDbLine
 10
22.59973089678116
 20
-9.771599258481472
 30
0.0
 11
18.59973089678112
 21
-9.771599258481472
 31
0.0
  0
LINE
  5
47
330
22
100
AcDbEntity
  8
0
100
AcDbLine
 10
18.59973089678115
 20
-13.77159925848144
 30
0.0
 11
17.59973089678115
 21
-13.77159925848144
 31
0.0
  0
LINE
  5
48
330
22
100
AcDbEntity
  8
0
100
AcDbLine
 10
18.59973089678115
 20
-9.771599258481472
 30
0.0
 11
18.59973089678115
 21
-13.77159925848144
 31
0.0
  0
LINE
  5
49
330
22
100
AcDbEntity
  8
0
100
AcDbLine
 10
22.59973089678116
 20
-9.771599258481472
 30
0.0
 11
23.67152766650562
 21
-13.77159925848147
 31
0.0
  0
ARC
  5
4A
330
22
100
AcDbEntity
  8
0
100
AcDbCircle
 10
22.59973089678116
 20
-7.271599258481472
 30
0.0
 40
2.5
100
AcDbArc
 50
270.0
 51
270.0000000000007
  0
LINE
  5
4B
330
22
100
AcDbEntity
  8
0
100
AcDbLine
 10
28.77130377203494
 20
-12.77159925848147
 30
0.0
 11
24.43885465448463
 21
-12.77159925848144
 31
0.0
  0
LINE
  5
4C
330
22
100
AcDbEntity
  8
0
100
AcDbLine
 10
3.599730896781125
 20
-4.771599258481472
 30
0.0
 11
2.599730896781125
 21
-4.771599258481472
 31
0.0
  0
LINE
  5
4D
330
22
100
AcDbEntity
  8
0
100
AcDbLine
 10
22.59973089678116
 20
-8.771599258481472
 30
0.0
 11
18.59973089678115
 21
-8.771599258481472
 31
0.0
  0
LINE
  5
4E
330
22
100
AcDbEntity
  8
0
100
AcDbLine
 10
22.59973089678116
 20
-5.771599258481472
 30
0.0
 11
18.59973089678115
 21
-5.771599258481472
 31
0.0
  0
LINE
  5
4F
330
22
100
AcDbEntity
  8
0
100
AcDbLine
 10
22.59973089678116
 20
-4.771599258481472
 30
0.0
 11
17.59973089678115
 21
-4.771599258481472
 31
0.0
  0
LINE
  5
50
330
22
100
AcDbEntity
  8
0
100
AcDbLine
 10
18.59973089678115
 20
-5.771599258481472
 30
0.0
 11
18.59973089678115
 21
-8.771599258481472
 31
0.0
  0
ARC
  5
51
330
22
100
AcDbEntity
  8
0
100
AcDbCircle
 10
22.59973089678116
 20
-7.271599258481472
 30
0.0
 40
1.5
100
AcDbArc
 50
270.0
 51
90.0
  0
ENDBLK
  5
52
330
22
100
AcDbEntity
  8
0
100
AcDbBlockEnd
  0
BLOCK
  5
6C6
330
6BB
100
AcDbEntity
  8
0
100
AcDbBlockBegin
  2
*D1
 70
     1
 10
0.0
 20
0.0
 30
0.0
  3
*D1
  1

  0
LINE
  5
7CC
330
6BB
100
AcDbEntity
  8
BEM
 62
     0
370
    -2
100
AcDbLine
 10
192.1319474672277
 20
207.5118497120104
 30
0.0
 11
216.3035203424805
 21
207.5118497120104
 31
0.0
  0
LINE
  5
7CD
330
6BB
100
AcDbEntity
  8
BEM
 62
     0
370
    -2
100
AcDbLine
 10
192.1319474672277
 20
529.511849712011
 30
0.0
 11
216.3035203424806
 21
529.511849712011
 31
0.0
  0
LINE
  5
7CE
330
6BB
100
AcDbEntity
  8
BEM
 62
     0
370
    -2
100
AcDbLine
 10
214.3035203424805
 20
214.5118497120104
 30
0.0
 11
214.3035203424806
 21
522.5118497120111
 31
0.0
  0
SOLID
  5
7CF
330
6BB
100
AcDbEntity
  8
BEM
 62
     0
100
AcDbTrace
 10
213.1368536758138
 20
214.5118497120104
 30
0.0
 11
215.4701870091471
 21
214.5118497120104
 31
0.0
 12
214.3035203424805
 22
207.5118497120104
 32
0.0
 13
214.3035203424805
 23
207.5118497120104
 33
0.0
  0
SOLID
  5
7D0
330
6BB
100
AcDbEntity
  8
BEM
 62
     0
100
AcDbTrace
 10
213.1368536758139
 20
522.5118497120111
 30
0.0
 11
215.4701870091472
 21
522.5118497120111
 31
0.0
 12
214.3035203424806
 22
529.511849712011
 32
0.0
 13
214.3035203424806
 23
529.511849712011
 33
0.0
  0
MTEXT
  5
7D1
330
6BB
100
AcDbEntity
  8
BEM
 62
     1
100
AcDbMText
 10
207.8035203424805
 20
368.5118497120108
 30
0.0
 40
7.0
 41
0.0
 71
     5
 72
     1
  1
\A1;%%c322
 11
0.0000000000000001
 21
1.0
 31
0.0
 73
     1
 44
1.0
  0
POINT
  5
7D2
330
6BB
100
AcDbEntity
  8
DEFPOINTS
 62
     0
100
AcDbPoint
 10
190.1319474672277
 20
207.5118497120104
 30
0.0
  0
POINT
  5
7D3
330
6BB
100
AcDbEntity
  8
DEFPOINTS
 62
     0
100
AcDbPoint
 10
190.1319474672277
 20
529.511849712011
 30
0.0
  0
POINT
  5
7D4
330
6BB
100
AcDbEntity
  8
DEFPOINTS
 62
     0
100
AcDbPoint
 10
214.3035203424806
 20
529.511849712011
 30
0.0
  0
ENDBLK
  5
6C7
330
6BB
100
AcDbEntity
  8
0
100
AcDbBlockEnd
  0
BLOCK
  5
6D3
330
6C8
100
AcDbEntity
  8
0
100
AcDbBlockBegin
  2
*D2
 70
     1
 10
0.0
 20
0.0
 30
0.0
  3
*D2
  1

  0
LINE
  5
7C3
330
6C8
100
AcDbEntity
  8
BEM
 62
     0
370
    -2
100
AcDbLine
 10
189.303520342481
 20
193.5118497120108
 30
0.0
 11
232.3035203424805
 21
193.5118497120108
 31
0.0
  0
LINE
  5
7C4
330
6C8
100
AcDbEntity
  8
BEM
 62
     0
370
    -2
100
AcDbLine
 10
201.3035203424811
 20
543.5118497120106
 30
0.0
 11
232.3035203424806
 21
543.5118497120106
 31
0.0
  0
LINE
  5
7C5
330
6C8
100
AcDbEntity
  8
BEM
 62
     0
370
    -2
100
AcDbLine
 10
230.3035203424805
 20
200.5118497120109
 30
0.0
 11
230.3035203424806
 21
536.5118497120106
 31
0.0
  0
SOLID
  5
7C6
330
6C8
100
AcDbEntity
  8
BEM
 62
     0
100
AcDbTrace
 10
229.1368536758139
 20
200.5118497120109
 30
0.0
 11
231.4701870091472
 21
200.5118497120109
 31
0.0
 12
230.3035203424805
 22
193.5118497120108
 32
0.0
 13
230.3035203424805
 23
193.5118497120108
 33
0.0
  0
SOLID
  5
7C7
330
6C8
100
AcDbEntity
  8
BEM
 62
     0
100
AcDbTrace
 10
229.1368536758139
 20
536.5118497120106
 30
0.0
 11
231.4701870091472
 21
536.5118497120106
 31
0.0
 12
230.3035203424806
 22
543.5118497120106
 32
0.0
 13
230.3035203424806
 23
543.5118497120106
 33
0.0
  0
MTEXT
  5
7C8
330
6C8
100
AcDbEntity
  8
BEM
 62
     1
100
AcDbMText
 10
223.8035203424805
 20
368.5118497120108
 30
0.0
 40
7.0
 41
0.0
 71
     5
 72
     1
  1
\A1;%%c350
 11
0.0000000000000001
 21
1.0
 31
0.0
 73
     1
 44
1.0
  0
POINT
  5
7C9
330
6C8
100
AcDbEntity
  8
DEFPOINTS
 62
     0
100
AcDbPoint
 10
187.3035203424811
 20
193.5118497120108
 30
0.0
  0
POINT
  5
7CA
330
6C8
100
AcDbEntity
  8
DEFPOINTS
 62
     0
100
AcDbPoint
 10
199.3035203424811
 20
543.5118497120106
 30
0.0
  0
POINT
  5
7CB
330
6C8
100
AcDbEntity
  8
DEFPOINTS
 62
     0
100
AcDbPoint
 10
230.3035203424806
 20
543.5118497120106
 30
0.0
  0
ENDBLK
  5
6D4
330
6C8
100
AcDbEntity
  8
0
100
AcDbBlockEnd
  0
BLOCK
  5
6E0
330
6D5
100
AcDbEntity
  8
0
100
AcDbBlockBegin
  2
*D3
 70
     1
 10
0.0
 20
0.0
 30
0.0
  3
*D3
  1

  0
LINE
  5
7BA
330
6D5
100
AcDbEntity
  8
BEM
 62
     0
370
    -2
100
AcDbLine
 10
196.3035203424811
 20
183.5118497120108
 30
0.0
 11
248.3035203424805
 21
183.5118497120108
 31
0.0
  0
LINE
  5
7BB
330
6D5
100
AcDbEntity
  8
BEM
 62
     0
370
    -2
100
AcDbLine
 10
196.3035203424811
 20
553.5118497120106
 30
0.0
 11
248.3035203424805
 21
553.5118497120106
 31
0.0
  0
LINE
  5
7BC
330
6D5
100
AcDbEntity
  8
BEM
 62
     0
370
    -2
100
AcDbLine
 10
246.3035203424805
 20
190.5118497120108
 30
0.0
 11
246.3035203424805
 21
546.5118497120106
 31
0.0
  0
SOLID
  5
7BD
330
6D5
100
AcDbEntity
  8
BEM
 62
     0
100
AcDbTrace
 10
245.1368536758138
 20
190.5118497120108
 30
0.0
 11
247.4701870091471
 21
190.5118497120108
 31
0.0
 12
246.3035203424805
 22
183.5118497120108
 32
0.0
 13
246.3035203424805
 23
183.5118497120108
 33
0.0
  0
SOLID
  5
7BE
330
6D5
100
AcDbEntity
  8
BEM
 62
     0
100
AcDbTrace
 10
245.1368536758139
 20
546.5118497120106
 30
0.0
 11
247.4701870091472
 21
546.5118497120106
 31
0.0
 12
246.3035203424805
 22
553.5118497120106
 32
0.0
 13
246.3035203424805
 23
553.5118497120106
 33
0.0
  0
MTEXT
  5
7BF
330
6D5
100
AcDbEntity
  8
BEM
 62
     1
100
AcDbMText
 10
239.8035203424805
 20
368.5118497120108
 30
0.0
 40
7.0
 41
0.0
 71
     5
 72
     1
  1
\A1;%%c370
 11
0.0000000000000001
 21
1.0
 31
0.0
 73
     1
 44
1.0
  0
POINT
  5
7C0
330
6D5
100
AcDbEntity
  8
DEFPOINTS
 62
     0
100
AcDbPoint
 10
194.3035203424811
 20
183.5118497120108
 30
0.0
  0
POINT
  5
7C1
330
6D5
100
AcDbEntity
  8
DEFPOINTS
 62
     0
100
AcDbPoint
 10
194.3035203424811
 20
553.5118497120106
 30
0.0
  0
POINT
  5
7C2
330
6D5
100
AcDbEntity
  8
DEFPOINTS
 62
     0
100
AcDbPoint
 10
246.3035203424805
 20
553.5118497120106
 30
0.0
  0
ENDBLK
  5
6E1
330
6D5
100
AcDbEntity
  8
0
100
AcDbBlockEnd
  0
BLOCK
  5
6FB
330
6EF
100
AcDbEntity
  8
0
100
AcDbBlockBegin
  2
*D4
 70
     1
 10
0.0
 20
0.0
 30
0.0
  3
*D4
  1

  0
LINE
  5
80A
330
6EF
100
AcDbEntity
  8
BEM
 62
     0
370
    -2
100
AcDbLine
 10
190.3035203424811
 20
190.5118497120106
 30
0.0
 11
151.3390542484144
 21
190.5118497120106
 31
0.0
  0
LINE
  5
80B
330
6EF
100
AcDbEntity
  8
BEM
 62
     0
370
    -2
100
AcDbLine
 10
190.3035203424811
 20
196.5118497120107
 30
0.0
 11
151.3390542484144
 21
196.5118497120107
 31
0.0
  0
LINE
  5
80C
330
6EF
100
AcDbEntity
  8
BEM
 62
     0
370
    -2
100
AcDbLine
 10
153.3390542484144
 20
203.5118497120107
 30
0.0
 11
153.3390542484144
 21
210.5118497120107
 31
0.0
  0
LINE
  5
80D
330
6EF
100
AcDbEntity
  8
BEM
 62
     0
370
    -2
100
AcDbLine
 10
153.3390542484144
 20
183.5118497120106
 30
0.0
 11
153.3390542484144
 21
149.5785163786773
 31
0.0
  0
LINE
  5
80E
330
6EF
100
AcDbEntity
  8
BEM
 62
     0
370
    -2
100
AcDbLine
 10
153.3390542484144
 20
196.5118497120107
 30
0.0
 11
153.3390542484144
 21
190.5118497120106
 31
0.0
  0
SOLID
  5
80F
330
6EF
100
AcDbEntity
  8
BEM
 62
     0
100
AcDbTrace
 10
152.1723875817478
 20
203.5118497120107
 30
0.0
 11
154.5057209150811
 21
203.5118497120107
 31
0.0
 12
153.3390542484144
 22
196.5118497120107
 32
0.0
 13
153.3390542484144
 23
196.5118497120107
 33
0.0
  0
SOLID
  5
810
330
6EF
100
AcDbEntity
  8
BEM
 62
     0
100
AcDbTrace
 10
152.1723875817477
 20
183.5118497120106
 30
0.0
 11
154.5057209150811
 21
183.5118497120106
 31
0.0
 12
153.3390542484144
 22
190.5118497120106
 32
0.0
 13
153.3390542484144
 23
190.5118497120106
 33
0.0
  0
MTEXT
  5
811
330
6EF
100
AcDbEntity
  8
BEM
 62
     1
100
AcDbMText
 10
146.8390542484144
 20
161.7785163786773
 30
0.0
 40
7.0
 41
0.0
 71
     5
 72
     1
  1
\A1;6x%%c6
 11
0.0000000000000001
 21
1.0
 31
0.0
 73
     1
 44
1.0
  0
POINT
  5
812
330
6EF
100
AcDbEntity
  8
DEFPOINTS
 62
     0
100
AcDbPoint
 10
192.3035203424811
 20
190.5118497120106
 30
0.0
  0
POINT
  5
813
330
6EF
100
AcDbEntity
  8
DEFPOINTS
 62
     0
100
AcDbPoint
 10
192.3035203424811
 20
196.5118497120106
 30
0.0
  0
POINT
  5
814
330
6EF
100
AcDbEntity
  8
DEFPOINTS
 62
     0
100
AcDbPoint
 10
153.3390542484144
 20
196.5118497120107
 30
0.0
  0
ENDBLK
  5
6FC
330
6EF
100
AcDbEntity
  8
0
100
AcDbBlockEnd
  0
BLOCK
  5
708
330
6FD
100
AcDbEntity
  8
0
100
AcDbBlockBegin
  2
*D5
 70
     1
 10
0.0
 20
0.0
 30
0.0
  3
*D5
  1

  0
LINE
  5
7D5
330
6FD
100
AcDbEntity
  8
BEM
 62
     0
370
    -2
100
AcDbLine
 10
194.3035203424811
 20
555.5118497120106
 30
0.0
 11
194.3035203424811
 21
566.9875001176287
 31
0.0
  0
LINE
  5
7D6
330
6FD
100
AcDbEntity
  8
BEM
 62
     0
370
    -2
100
AcDbLine
 10
192.3035203424813
 20
555.5118497120106
 30
0.0
 11
192.3035203424813
 21
566.9875001176287
 31
0.0
  0
LINE
  5
7D7
330
6FD
100
AcDbEntity
  8
BEM
 62
     0
370
    -2
100
AcDbLine
 10
201.3035203424811
 20
564.9875001176288
 30
0.0
 11
208.3035203424811
 21
564.9875001176288
 31
0.0
  0
LINE
  5
7D8
330
6FD
100
AcDbEntity
  8
BEM
 62
     0
370
    -2
100
AcDbLine
 10
185.3035203424813
 20
564.9875001176288
 30
0.0
 11
168.5701870091479
 21
564.9875001176288
 31
0.0
  0
LINE
  5
7D9
330
6FD
100
AcDbEntity
  8
BEM
 62
     0
370
    -2
100
AcDbLine
 10
194.3035203424811
 20
564.9875001176288
 30
0.0
 11
192.3035203424813
 21
564.9875001176288
 31
0.0
  0
SOLID
  5
7DA
330
6FD
100
AcDbEntity
  8
BEM
 62
     0
100
AcDbTrace
 10
201.3035203424811
 20
566.1541667842953
 30
0.0
 11
201.3035203424811
 21
563.8208334509621
 31
0.0
 12
194.3035203424811
 22
564.9875001176288
 32
0.0
 13
194.3035203424811
 23
564.9875001176288
 33
0.0
  0
SOLID
  5
7DB
330
6FD
100
AcDbEntity
  8
BEM
 62
     0
100
AcDbTrace
 10
185.3035203424813
 20
566.1541667842953
 30
0.0
 11
185.3035203424813
 21
563.8208334509621
 31
0.0
 12
192.3035203424813
 22
564.9875001176288
 32
0.0
 13
192.3035203424813
 23
564.9875001176288
 33
0.0
  0
MTEXT
  5
7DC
330
6FD
100
AcDbEntity
  8
BEM
 62
     1
100
AcDbMText
 10
173.4368536758146
 20
571.4875001176287
 30
0.0
 40
7.0
 41
0.0
 71
     5
 72
     1
  1
\A1;2
 73
     1
 44
1.0
  0
POINT
  5
7DD
330
6FD
100
AcDbEntity
  8
DEFPOINTS
 62
     0
100
AcDbPoint
 10
194.3035203424811
 20
553.5118497120106
 30
0.0
  0
POINT
  5
7DE
330
6FD
100
AcDbEntity
  8
DEFPOINTS
 62
     0
100
AcDbPoint
 10
192.3035203424813
 20
553.5118497120106
 30
0.0
  0
POINT
  5
7DF
330
6FD
100
AcDbEntity
  8
DEFPOINTS
 62
     0
100
AcDbPoint
 10
192.3035203424813
 20
564.9875001176288
 30
0.0
  0
ENDBLK
  5
709
330
6FD
100
AcDbEntity
  8
0
100
AcDbBlockEnd
  0
BLOCK
  5
715
330
70A
100
AcDbEntity
  8
0
100
AcDbBlockBegin
  2
*D6
 70
     1
 10
0.0
 20
0.0
 30
0.0
  3
*D6
  1

  0
LINE
  5
815
330
70A
100
AcDbEntity
  8
BEM
 62
     0
370
    -2
100
AcDbLine
 10
194.3035203424811
 20
181.5118497120108
 30
0.0
 11
194.3035203424811
 21
128.921965776829
 31
0.0
  0
LINE
  5
816
330
70A
100
AcDbEntity
  8
BEM
 62
     0
370
    -2
100
AcDbLine
 10
189.3390542484144
 20
204.0976361496371
 30
0.0
 11
189.3390542484144
 21
128.921965776829
 31
0.0
  0
LINE
  5
817
330
70A
100
AcDbEntity
  8
BEM
 62
     0
370
    -2
100
AcDbLine
 10
201.3035203424811
 20
130.921965776829
 30
0.0
 11
208.3035203424811
 21
130.921965776829
 31
0.0
  0
LINE
  5
818
330
70A
100
AcDbEntity
  8
BEM
 62
     0
370
    -2
100
AcDbLine
 10
182.3390542484144
 20
130.921965776829
 30
0.0
 11
165.6057209150811
 21
130.921965776829
 31
0.0
  0
LINE
  5
819
330
70A
100
AcDbEntity
  8
BEM
 62
     0
370
    -2
100
AcDbLine
 10
194.3035203424811
 20
130.921965776829
 30
0.0
 11
189.3390542484144
 21
130.921965776829
 31
0.0
  0
SOLID
  5
81A
330
70A
100
AcDbEntity
  8
BEM
 62
     0
100
AcDbTrace
 10
201.3035203424811
 20
132.0886324434956
 30
0.0
 11
201.3035203424811
 21
129.7552991101623
 31
0.0
 12
194.3035203424811
 22
130.921965776829
 32
0.0
 13
194.3035203424811
 23
130.921965776829
 33
0.0
  0
SOLID
  5
81B
330
70A
100
AcDbEntity
  8
BEM
 62
     0
100
AcDbTrace
 10
182.3390542484144
 20
132.0886324434956
 30
0.0
 11
182.3390542484144
 21
129.7552991101623
 31
0.0
 12
189.3390542484144
 22
130.921965776829
 32
0.0
 13
189.3390542484144
 23
130.921965776829
 33
0.0
  0
MTEXT
  5
81C
330
70A
100
AcDbEntity
  8
BEM
 62
     1
100
AcDbMText
 10
170.4723875817477
 20
137.421965776829
 30
0.0
 40
7.0
 41
0.0
 71
     5
 72
     1
  1
\A1;5
 73
     1
 44
1.0
  0
POINT
  5
81D
330
70A
100
AcDbEntity
  8
DEFPOINTS
 62
     0
100
AcDbPoint
 10
194.3035203424811
 20
183.5118497120108
 30
0.0
  0
POINT
  5
81E
330
70A
100
AcDbEntity
  8
DEFPOINTS
 62
     0
100
AcDbPoint
 10
189.3390542484144
 20
206.0976361496371
 30
0.0
  0
POINT
  5
81F
330
70A
100
AcDbEntity
  8
DEFPOINTS
 62
     0
100
AcDbPoint
 10
189.3390542484144
 20
130.921965776829
 30
0.0
  0
ENDBLK
  5
716
330
70A
100
AcDbEntity
  8
0
100
AcDbBlockEnd
  0
ENDSEC
  0
SECTION
  2
ENTITIES
  0
LINE
  5
57
330
1E
100
AcDbEntity
  8
STEMPEL
100
AcDbLine
 10
410.0
 20
110.0
 30
0.0
 11
29.99999999999997
 21
110.0
 31
0.0
  0
LINE
  5
58
330
1E
100
AcDbEntity
  8
STEMPEL
100
AcDbLine
 10
136.0000000000001
 20
109.9999999999999
 30
0.0
 11
136.0
 21
9.999999999999971
 31
0.0
  0
LINE
  5
59
330
1E
100
AcDbEntity
  8
STEMPEL
100
AcDbLine
 10
220.0
 20
110.0
 30
0.0
 11
220.0
 21
9.999999999999971
 31
0.0
  0
LINE
  5
5A
330
1E
100
AcDbEntity
  8
STEMPEL
100
AcDbLine
 10
332.0
 20
109.9999999999997
 30
0.0
 11
332.0
 21
40.0
 31
0.0
  0
LINE
  5
5B
330
1E
100
AcDbEntity
  8
STEMPEL
100
AcDbLine
 10
135.9999999999999
 20
29.99999999999997
 30
0.0
 11
29.99999999999997
 21
29.99999999999997
 31
0.0
  0
LINE
  5
5C
330
1E
100
AcDbEntity
  8
STEMPEL
100
AcDbLine
 10
410.0
 20
40.0
 30
0.0
 11
136.0000000000001
 21
39.99999999999997
 31
0.0
  0
LINE
  5
5D
330
1E
100
AcDbEntity
  8
STEMPEL
100
AcDbLine
 10
410.0
 20
80.0
 30
0.0
 11
136.0000000000001
 21
79.99999999999994
 31
0.0
  0
LINE
  5
5E
330
1E
100
AcDbEntity
  8
VOLL
100
AcDbLine
 10
44.00000000000008
 20
110.0
 30
0.0
 11
43.99999999999997
 21
9.999999999999971
 31
0.0
  0
LINE
  5
5F
330
1E
100
AcDbEntity
  8
VOLL
100
AcDbLine
 10
94.00000000000011
 20
109.9999999999999
 30
0.0
 11
94.0
 21
9.999999999999971
 31
0.0
  0
LINE
  5
60
330
1E
100
AcDbEntity
  8
VOLL
100
AcDbLine
 10
114.0000000000001
 20
109.9999999999999
 30
0.0
 11
114.0
 21
9.999999999999971
 31
0.0
  0
LINE
  5
61
330
1E
100
AcDbEntity
  8
VOLL
100
AcDbLine
 10
154.0000000000001
 20
79.99999999999994
 30
0.0
 11
154.0000000000001
 21
39.99999999999997
 31
0.0
  0
LINE
  5
62
330
1E
100
AcDbEntity
  8
VOLL
100
AcDbLine
 10
180.0000000000001
 20
109.9999999999998
 30
0.0
 11
180.0
 21
39.99999999999997
 31
0.0
  0
LINE
  5
63
330
1E
100
AcDbEntity
  8
HILF
100
AcDbLine
 10
30.00000000000009
 20
100.0
 30
0.0
 11
136.0000000000001
 21
100.0
 31
0.0
  0
LINE
  5
64
330
1E
100
AcDbEntity
  8
HILF
100
AcDbLine
 10
30.00000000000009
 20
90.00000000000005
 30
0.0
 11
136.0000000000001
 21
90.00000000000005
 31
0.0
  0
LINE
  5
65
330
1E
100
AcDbEntity
  8
HILF
100
AcDbLine
 10
30.00000000000009
 20
79.99999999999994
 30
0.0
 11
136.0000000000001
 21
79.99999999999994
 31
0.0
  0
LINE
  5
66
330
1E
100
AcDbEntity
  8
HILF
100
AcDbLine
 10
30.00000000000009
 20
69.99999999999994
 30
0.0
 11
136.0000000000001
 21
69.99999999999994
 31
0.0
  0
LINE
  5
67
330
1E
100
AcDbEntity
  8
HILF
100
AcDbLine
 10
30.00000000000009
 20
59.99999999999997
 30
0.0
 11
136.0000000000001
 21
59.99999999999997
 31
0.0
  0
LINE
  5
68
330
1E
100
AcDbEntity
  8
HILF
100
AcDbLine
 10
30.00000000000009
 20
49.99999999999997
 30
0.0
 11
136.0000000000001
 21
49.99999999999997
 31
0.0
  0
LINE
  5
69
330
1E
100
AcDbEntity
  8
HILF
100
AcDbLine
 10
30.00000000000009
 20
39.99999999999997
 30
0.0
 11
136.0000000000001
 21
39.99999999999997
 31
0.0
  0
LINE
  5
6A
330
1E
100
AcDbEntity
  8
HILF
100
AcDbLine
 10
136.0000000000001
 20
69.99999999999994
 30
0.0
 11
220.0
 21
69.99999999999994
 31
0.0
  0
LINE
  5
6B
330
1E
100
AcDbEntity
  8
HILF
100
AcDbLine
 10
136.0000000000001
 20
59.99999999999997
 30
0.0
 11
220.0
 21
59.99999999999997
 31
0.0
  0
LINE
  5
6C
330
1E
100
AcDbEntity
  8
HILF
100
AcDbLine
 10
136.0000000000001
 20
49.99999999999997
 30
0.0
 11
220.0
 21
49.99999999999997
 31
0.0
  0
LINE
  5
6D
330
1E
100
AcDbEntity
  8
HILF
100
AcDbLine
 10
224.7736801096948
 20
84.03758247564139
 30
0.0
 11
324.8353916556311
 21
84.03758247564139
 31
0.0
  0
LINE
  5
6E
330
1E
100
AcDbEntity
  8
HILF
100
AcDbLine
 10
224.7736801096948
 20
69.99999999999994
 30
0.0
 11
324.835391655631
 21
69.99999999999994
 31
0.0
  0
LINE
  5
6F
330
1E
100
AcDbEntity
  8
HILF
100
AcDbLine
 10
224.7736801096948
 20
59.99999999999997
 30
0.0
 11
324.835391655631
 21
59.99999999999997
 31
0.0
  0
LINE
  5
70
330
1E
100
AcDbEntity
  8
HILF
100
AcDbLine
 10
224.7736801096948
 20
49.99999999999997
 30
0.0
 11
324.835391655631
 21
49.99999999999997
 31
0.0
  0
LINE
  5
71
330
1E
100
AcDbEntity
  8
VOLL
100
AcDbLine
 10
332.0
 20
60.0
 30
0.0
 11
410.0
 21
60.0
 31
0.0
  0
LINE
  5
72
330
1E
100
AcDbEntity
  8
HILF
100
AcDbLine
 10
336.7238616296993
 20
83.77983636955827
 30
0.0
 11
404.8588839326728
 21
83.77983636955827
 31
0.0
  0
LINE
  5
73
330
1E
100
AcDbEntity
  8
HILF
100
AcDbLine
 10
223.4909699289885
 20
14.89398258028314
 30
0.0
 11
404.8588839326728
 21
14.89398258028314
 31
0.0
  0
TEXT
  5
74
330
1E
100
AcDbEntity
  8
TEXT
100
AcDbText
 10
59.34071736793199
 20
18.67381894984132
 30
0.0
 40
4.0
  1
Änderung
 41
0.8
  7
GREEKS
 72
     1
 11
70.08357451078913
 21
18.67381894984132
 31
0.0
100
AcDbText
  0
TEXT
  5
75
330
1E
100
AcDbEntity
  8
TEXT
100
AcDbText
 10
143.5163572150377
 20
102.4620895087088
 30
0.0
 40
5.0
  1
Maßstab
 41
0.8
  7
GREEKS
100
AcDbText
  0
TEXT
  5
76
330
1E
100
AcDbEntity
  8
TEXT
100
AcDbText
 10
184.2858954734051
 20
102.4184168434819
 30
0.0
 40
5.0
  1
Zul. Abw.
 41
0.8
  7
GREEKS
100
AcDbText
  0
TEXT
  5
77
330
1E
100
AcDbEntity
  8
TEXT
100
AcDbText
 10
224.877940380901
 20
102.5489328011779
 30
0.0
 40
5.0
  1
Benennung
 41
0.8
  7
GREEKS
100
AcDbText
  0
TEXT
  5
78
330
1E
100
AcDbEntity
  8
TEXT
100
AcDbText
 10
336.178754957634
 20
102.3132034537136
 30
0.0
 40
5.0
  1
Zeichnungs Nr.
 41
0.8
  7
GREEKS
100
AcDbText
  0
TEXT
  5
79
330
1E
100
AcDbEntity
  8
TEXT
100
AcDbText
 10
224.742238391136
 20
30.84560570193057
 30
0.0
 40
5.0
  1
Bauvorhaben
 41
0.8
  7
GREEKS
100
AcDbText
  0
TEXT
  5
7A
330
1E
100
AcDbEntity
  8
TEXT
100
AcDbText
 10
336.7238616296993
 20
73.1811823709997
 30
0.0
 40
5.0
  1
Ersatz für:
 41
0.8
  7
GREEKS
100
AcDbText
  0
TEXT
  5
7B
330
1E
100
AcDbEntity
  8
TEXT
100
AcDbText
 10
38.26641107045757
 20
13.65465846027192
 30
0.0
 40
4.0
  1
Index
 50
90.0
 41
0.8
  7
GREEKS
100
AcDbText
  0
TEXT
  5
7C
330
1E
100
AcDbEntity
  8
TEXT
100
AcDbText
 10
100.0934676075481
 20
18.6715626933981
 30
0.0
 40
4.0
  1
Tag
 41
0.8
  7
GREEKS
 72
     1
 11
103.8268009408814
 21
18.6715626933981
 31
0.0
100
AcDbText
  0
TEXT
  5
7D
330
1E
100
AcDbEntity
  8
TEXT
100
AcDbText
 10
119.0122744386592
 20
18.59324216966408
 30
0.0
 40
4.0
  1
Name
 41
0.8
  7
GREEKS
 72
     1
 11
125.3360839624688
 21
18.59324216966408
 31
0.0
100
AcDbText
  0
TEXT
  5
7E
330
1E
100
AcDbEntity
  8
TEXT
100
AcDbText
 10
162.3311673153651
 20
73.31880501229926
 30
0.0
 40
4.0
  1
Tag
 41
0.8
  7
GREEKS
100
AcDbText
  0
TEXT
  5
7F
330
1E
100
AcDbEntity
  8
TEXT
100
AcDbText
 10
192.4626584226295
 20
73.30961091915225
 30
0.0
 40
4.0
  1
Name
 41
0.8
  7
GREEKS
100
AcDbText
  0
TEXT
  5
80
330
1E
100
AcDbEntity
  8
TEXT
100
AcDbText
 10
137.5836127167615
 20
63.62990369617964
 30
0.0
 40
4.0
  1
Gez.
 41
0.8
  7
GREEKS
100
AcDbText
  0
TEXT
  5
81
330
1E
100
AcDbEntity
  8
TEXT
100
AcDbText
 10
137.5515086571672
 20
53.68926291428377
 30
0.0
 40
4.0
  1
Gepr.
 41
0.8
  7
GREEKS
100
AcDbText
  0
TEXT
  5
82
330
1E
100
AcDbEntity
  8
TEXT
100
AcDbText
 10
137.6006777387304
 20
43.52946389649807
 30
0.0
 40
4.0
  1
Norm.
 41
0.8
  7
GREEKS
100
AcDbText
  0
LINE
  5
83
330
1E
100
AcDbEntity
  8
STEMPEL
100
AcDbLine
 10
39.99999999999989
 20
10.0
 30
0.0
 11
410.0
 21
10.0
 31
0.0
  0
TEXT
  5
84
330
1E
100
AcDbEntity
  8
TEXT
100
AcDbText
 10
337.2400861497006
 20
52.07416177878602
 30
0.0
 40
5.0
  1
ersetzt durch:
 41
0.8
  7
GREEKS
100
AcDbText
  0
LINE
  5
85
330
1E
100
AcDbEntity
  8
STEMPEL
100
AcDbLine
 10
410.0
 20
10.0
 30
0.0
 11
29.99999999999989
 21
10.0
 31
0.0
  0
LINE
  5
86
330
1E
100
AcDbEntity
  8
STEMPEL
100
AcDbLine
 10
410.0
 20
10.0
 30
0.0
 11
410.0
 21
584.0
 31
0.0
  0
LINE
  5
87
330
1E
100
AcDbEntity
  8
STEMPEL
100
AcDbLine
 10
30.0
 20
10.0
 30
0.0
 11
29.99999999999989
 21
584.0
 31
0.0
  0
LINE
  5
88
330
1E
100
AcDbEntity
  8
STEMPEL
100
AcDbLine
 10
410.0
 20
584.0
 30
0.0
 11
29.99999999999989
 21
584.0
 31
0.0
  0
LINE
  5
89
330
1E
100
AcDbEntity
  8
HILF
100
AcDbLine
 10
0.0
 20
0.0
 30
0.0
 11
-0.0000000000001137
 21
594.0
 31
0.0
  0
LINE
  5
8A
330
1E
100
AcDbEntity
  8
HILF
100
AcDbLine
 10
419.9999999999999
 20
594.0000000000002
 30
0.0
 11
0.0
 21
594.0
 31
0.0
  0
LINE
  5
8B
330
1E
100
AcDbEntity
  8
HILF
100
AcDbLine
 10
420.0
 20
0.0
 30
0.0
 11
0.0
 21
0.0
 31
0.0
  0
LINE
  5
8C
330
1E
100
AcDbEntity
  8
HILF
100
AcDbLine
 10
31.08767135713856
 20
297.0
 30
0.0
 11
0.0000000000001137
 21
297.0
 31
0.0
  0
TEXT
  5
8D
330
1E
100
AcDbEntity
  8
TEXT
100
AcDbText
 10
138.622109822104
 20
73.14025471151666
 30
0.0
 40
4.0
  1
2008
 41
0.8
  7
GREEKS
100
AcDbText
  0
LINE
  5
8E
330
1E
100
AcDbEntity
  8
HILF
100
AcDbLine
 10
420.0
 20
-0.0000000000001137
 30
0.0
 11
419.9999999999999
 21
594.0
 31
0.0
  0
TEXT
  5
8F
330
1E
100
AcDbEntity
  8
VOLL
100
AcDbText
 10
78.07675471698113
 20
31.02594776470585
 30
0.0
 40
1.8
  1

  7
GREEKS
100
AcDbText
  0
TEXT
  5
90
330
1E
100
AcDbEntity
  8
TEXT
100
AcDbText
 10
31.85509950977675
 20
111.6719999999999
 30
0.0
 40
5.0
  1
Erstellt mit AUTOCAD 2004
 41
0.8
  7
GREEKS
100
AcDbText
  0
TEXT
  5
91
330
1E
100
AcDbEntity
  8
TEXT
100
AcDbText
 10
194.4216048581257
 20
63.0896391972351
 30
0.0
 40
4.0
  1
Koeh
 41
0.8
  7
GREEKS
 72
     1
 11
199.6787477152685
 21
63.0896391972351
 31
0.0
100
AcDbText
  0
TEXT
  5
92
330
1E
100
AcDbEntity
  8
TEXT
 62
     1
100
AcDbText
 10
347.6002382460203
 20
88.14901428913959
 30
0.0
 40
7.0
  1
21910125W
 41
0.8
  7
GREEKS
 72
     1
 11
370.0002382460203
 21
88.14901428913959
 31
0.0
100
AcDbText
  0
TEXT
  5
93
330
1E
100
AcDbEntity
  8
TEXT
 62
     1
100
AcDbText
 10
150.5006306481887
 20
88.14901428913959
 30
0.0
 40
7.0
  1
1:2
 41
0.8
  7
GREEKS
100
AcDbText
  0
TEXT
  5
94
330
1E
100
AcDbEntity
  8
TEXT
100
AcDbText
 10
160.7037590129979
 20
63.10765040825732
 30
0.0
 40
4.0
  1
16.06.
 41
0.8
  7
GREEKS
 72
     1
 11
167.4085209177598
 21
63.10765040825732
 31
0.0
100
AcDbText
  0
TEXT
  5
95
330
1E
100
AcDbEntity
  8
TEXT
 62
     1
100
AcDbText
 10
226.8935731057402
 20
87.41748789253779
 30
0.0
 40
7.0
  1
Befestigungsflansch
 41
0.8
  7
GREEKS
100
AcDbText
  0
TEXT
  5
96
330
1E
100
AcDbEntity
  8
TEXT
100
AcDbText
 10
225.1296391125315
 20
71.50334417585288
 30
0.0
 40
5.0
  1
für Flachdachabläufe DN125
 41
0.8
  7
GREEKS
100
AcDbText
  0
TEXT
  5
98
330
1E
100
AcDbEntity
  8
TEXT
100
AcDbText
 10
225.1296391125315
 20
51.64011943042158
 30
0.0
 40
5.0
  1
EDV-Art.Nr. 21910.125X
 41
0.8
  7
GREEKS
100
AcDbText
  0
TEXT
  5
99
330
1E
100
AcDbEntity
  8
TEXT
100
AcDbText
 10
224.9837501577827
 20
42.62974153022632
 30
0.0
 40
4.0
  1
21910125W.DWG
 41
0.8
  7
GREEKS
100
AcDbText
  0
TEXT
  5
9A
330
1E
100
AcDbEntity
  8
TEXT
100
AcDbText
 10
182.4737512557031
 20
90.76363841023022
 30
0.0
 40
4.0
  1
DIN6932-2-m
 41
0.8
  7
GREEKS
 72
     1
 11
199.6166083985602
 21
90.76363841023022
 31
0.0
100
AcDbText
  0
INSERT
  5
9B
330
1E
100
AcDbEntity
  8
STEMPEL
100
AcDbBlockReference
  2
LOGO
 10
140.9955485457794
 20
45.02105276448322
 30
0.0
 41
2.0
 42
2.0
 43
2.0
  0
TEXT
  5
118
330
1E
100
AcDbEntity
  8
BEM
100
AcDbText
 10
417.3022923857165
 20
10.16790107998849
 30
0.0
 40
4.0
  1
Diese Zeichnung ist urheberrechtlich geschützt und bleibt unser Eigentum. Sie darf weder ganz noch teilweise verfielfältigt und nicht an Dritte weitergegeben werden.
 50
90.0
 41
0.8
  7
GREEKS
100
AcDbText
  0
TEXT
  5
211
330
1E
100
AcDbEntity
  8
TEXT
 62
     1
100
AcDbText
 10
229.9967655460953
 20
123.6556630368854
 30
0.0
 40
7.0
  1
Werkstoff: sendzimier verzinktes Blech
 41
0.8
  7
GREEKS
100
AcDbText
  0
MTEXT
  5
42E
330
1E
100
AcDbEntity
  8
BEM
 62
     1
100
AcDbMText
 10
120.6094094876825
 20
535.2728447335677
 30
0.0
 40
7.0
 41
0.0
 71
     9
 72
     1
  1
\A1;
  7
GREEKS
 73
     1
 44
1.0
  0
DIMENSION
  5
685
330
1E
100
AcDbEntity
  8
BEM
100
AcDbDimension
  2
*D1
 10
214.3035203424806
 20
529.511849712011
 30
0.0
 11
207.8035203424805
 21
368.5118497120108
 31
0.0
 70
    32
  1
%%c<>
 71
     5
 42
322.0000000000007
  3
Standard
100
AcDbAlignedDimension
 13
190.1319474672277
 23
207.5118497120104
 33
0.0
 14
190.1319474672277
 24
529.511849712011
 34
0.0
 50
90.0
100
AcDbRotatedDimension
1001
ACAD
1000
DSTYLE
1002
{
1070
    40
1040
2.0
1070
    41
1040
3.5
1070
    42
1040
1.0
1070
    43
1040
7.0
1070
    44
1040
1.0
1070
    73
1070
     0
1070
    74
1070
     0
1070
    77
1070
     1
1070
    78
1070
     8
1070
    79
1070
     2
1070
   140
1040
3.5
1070
   141
1040
1.5
1070
   146
1040
0.5142857142857144
1070
   147
1040
1.5
1070
   172
1070
     1
1070
   178
1070
     1
1070
   179
1070
     2
1070
   271
1070
     2
1070
   272
1070
     2
1070
   284
1070
     8
1070
   285
1070
     8
1070
   286
1070
     8
1002
}
  0
DIMENSION
  5
686
330
1E
100
AcDbEntity
  8
BEM
100
AcDbDimension
  2
*D2
 10
230.3035203424806
 20
543.5118497120106
 30
0.0
 11
223.8035203424805
 21
368.5118497120108
 31
0.0
 70
    32
  1
%%c<>
 71
     5
 42
349.9999999999998
  3
Standard
100
AcDbAlignedDimension
 13
187.3035203424811
 23
193.5118497120108
 33
0.0
 14
199.3035203424811
 24
543.5118497120106
 34
0.0
 50
90.0
100
AcDbRotatedDimension
1001
ACAD
1000
DSTYLE
1002
{
1070
    40
1040
2.0
1070
    41
1040
3.5
1070
    42
1040
1.0
1070
    43
1040
7.0
1070
    44
1040
1.0
1070
    73
1070
     0
1070
    74
1070
     0
1070
    77
1070
     1
1070
    78
1070
     8
1070
    79
1070
     2
1070
   140
1040
3.5
1070
   141
1040
1.5
1070
   146
1040
0.5142857142857144
1070
   147
1040
1.5
1070
   172
1070
     1
1070
   178
1070
     1
1070
   179
1070
     2
1070
   271
1070
     2
1070
   272
1070
     2
1070
   284
1070
     8
1070
   285
1070
     8
1070
   286
1070
     8
1002
}
  0
DIMENSION
  5
687
330
1E
100
AcDbEntity
  8
BEM
100
AcDbDimension
  2
*D3
 10
246.3035203424805
 20
553.5118497120106
 30
0.0
 11
239.8035203424805
 21
368.5118497120108
 31
0.0
 70
    32
  1
%%c<>
 71
     5
 42
369.9999999999997
  3
Standard
100
AcDbAlignedDimension
 13
194.3035203424811
 23
183.5118497120108
 33
0.0
 14
194.3035203424811
 24
553.5118497120106
 34
0.0
 50
90.0
100
AcDbRotatedDimension
1001
ACAD
1000
DSTYLE
1002
{
1070
    40
1040
2.0
1070
    41
1040
3.5
1070
    42
1040
1.0
1070
    43
1040
7.0
1070
    44
1040
1.0
1070
    73
1070
     0
1070
    74
1070
     0
1070
    77
1070
     1
1070
    78
1070
     8
1070
    79
1070
     2
1070
   140
1040
3.5
1070
   141
1040
1.5
1070
   146
1040
0.5142857142857144
1070
   147
1040
1.5
1070
   172
1070
     1
1070
   178
1070
     1
1070
   179
1070
     2
1070
   271
1070
     2
1070
   272
1070
     2
1070
   284
1070
     8
1070
   285
1070
     8
1070
   286
1070
     8
1002
}
  0
LINE
  5
68A
330
1E
100
AcDbEntity
  8
STEMPEL
100
AcDbLine
 10
189.3390542484144
 20
206.0976361496371
 30
0.0
 11
189.3390542484142
 21
530.9260632743842
 31
0.0
  0
LINE
  5
68B
330
1E
100
AcDbEntity
  8
STEMPEL
100
AcDbLine
 10
190.1319474672277
 20
529.511849712011
 30
0.0
 11
190.1319474672277
 21
207.5118497120104
 31
0.0
  0
LINE
  5
68C
102
{ACAD_REACTORS
330
83A
102
}
330
1E
100
AcDbEntity
  8
STEMPEL
100
AcDbLine
 10
194.3035203424811
 20
553.5118497120106
 30
0.0
 11
194.3035203424802
 21
183.5118497120106
 31
0.0
  0
DIMENSION
  5
68D
330
1E
100
AcDbEntity
  8
BEM
100
AcDbDimension
  2
*D4
 10
153.3390542484144
 20
196.5118497120107
 30
0.0
 11
153.3390542484144
 21
161.7785163786773
 31
0.0
 70
   160
  1
6x%%c<>
 71
     5
 42
6.0
  3
Standard
100
AcDbAlignedDimension
 13
192.3035203424811
 23
190.5118497120106
 33
0.0
 14
192.3035203424811
 24
196.5118497120106
 34
0.0
 50
90.0
100
AcDbRotatedDimension
1001
ACAD
1000
DSTYLE
1002
{
1070
    40
1040
2.0
1070
    41
1040
3.5
1070
    42
1040
1.0
1070
    43
1040
7.0
1070
    44
1040
1.0
1070
    73
1070
     0
1070
    74
1070
     0
1070
    77
1070
     1
1070
    78
1070
     8
1070
    79
1070
     2
1070
   140
1040
3.5
1070
   141
1040
1.5
1070
   146
1040
0.5142857142857144
1070
   147
1040
1.5
1070
   172
1070
     1
1070
   178
1070
     1
1070
   179
1070
     2
1070
   271
1070
     2
1070
   272
1070
     2
1070
   284
1070
     8
1070
   285
1070
     8
1070
   286
1070
     8
1002
}
  0
LINE
  5
68E
102
{ACAD_REACTORS
330
83A
102
}
330
1E
100
AcDbEntity
  8
STEMPEL
100
AcDbLine
 10
191.5712872954473
 20
203.2440827590444
 30
0.0
 11
189.7783940766344
 21
205.0369759778573
 31
0.0
  0
ARC
  5
68F
102
{ACAD_REACTORS
330
83A
102
}
330
1E
100
AcDbEntity
  8
STEMPEL
100
AcDbCircle
 10
189.8035203424808
 20
201.476315806078
 30
0.0
 40
4.5
100
AcDbArc
 50
0.0
 51
45.0
  0
LINE
  5
690
102
{ACAD_REACTORS
330
83A
102
}
330
1E
100
AcDbEntity
  8
STEMPEL
100
AcDbLine
 10
192.3035203424811
 20
196.5118497120106
 30
0.0
 11
194.3035203424811
 21
196.5118497120108
 31
0.0
  0
LINE
  5
691
330
1E
100
AcDbEntity
  8
MITTEL
100
AcDbLine
 10
187.3035203424811
 20
193.5118497120108
 30
0.0
 11
199.3035203424811
 21
193.5118497120106
 31
0.0
  0
LINE
  5
692
102
{ACAD_REACTORS
330
83A
102
}
330
1E
100
AcDbEntity
  8
STEMPEL
100
AcDbLine
 10
192.3035203424811
 20
190.5118497120106
 30
0.0
 11
194.3035203424811
 21
190.5118497120108
 31
0.0
  0
LINE
  5
693
102
{ACAD_REACTORS
330
83A
102
}
330
1E
100
AcDbEntity
  8
STEMPEL
100
AcDbLine
 10
192.3035203424811
 20
183.5118497120106
 30
0.0
 11
194.3035203424811
 21
183.5118497120108
 31
0.0
  0
LINE
  5
694
102
{ACAD_REACTORS
330
83A
102
}
330
1E
100
AcDbEntity
  8
STEMPEL
100
AcDbLine
 10
192.3035203424811
 20
183.5118497120106
 30
0.0
 11
192.3035203424811
 21
201.476315806078
 31
0.0
  0
ARC
  5
695
102
{ACAD_REACTORS
330
83A
102
}
330
1E
100
AcDbEntity
  8
STEMPEL
100
AcDbCircle
 10
189.8035203424808
 20
201.476315806078
 30
0.0
 40
2.5
100
AcDbArc
 50
0.0
 51
45.0
  0
LINE
  5
696
330
1E
100
AcDbEntity
  8
STEMPEL
100
AcDbLine
 10
194.3035203424804
 20
205.63317005557
 30
0.0
 11
194.3035203424804
 21
283.1184514298093
 31
0.0
  0
LINE
  5
697
330
1E
100
AcDbEntity
  8
STEMPEL
100
AcDbLine
 10
194.3035203424802
 20
205.63317005557
 30
0.0
 11
194.3035203424804
 21
283.7042378674364
 31
0.0
  0
ARC
  5
698
102
{ACAD_REACTORS
330
83A
102
}
330
1E
100
AcDbEntity
  8
STEMPEL
100
AcDbCircle
 10
190.8390542484142
 20
206.0976361496372
 30
0.0
 40
1.5
100
AcDbArc
 50
135.0000000000069
 51
225.0
  0
LINE
  5
699
102
{ACAD_REACTORS
330
83A
102
}
330
1E
100
AcDbEntity
  8
STEMPEL
100
AcDbLine
 10
192.9855008578206
 20
204.6582963214173
 30
0.0
 11
190.1319474672277
 21
207.5118497120104
 31
0.0
  0
LINE
  5
69A
102
{ACAD_REACTORS
330
83A
102
}
330
1E
100
AcDbEntity
  8
STEMPEL
100
AcDbLine
 10
189.7783940766344
 20
207.1582963214169
 30
0.0
 11
190.1319474672277
 21
207.5118497120104
 31
0.0
  0
LINE
  5
69B
330
1E
100
AcDbEntity
  8
MITTEL
100
AcDbLine
 10
184.3390542484142
 20
368.5118497120106
 30
0.0
 11
199.3035203424806
 21
368.5118497120106
 31
0.0
  0
MTEXT
  5
69D
330
1E
100
AcDbEntity
  8
BEM
 62
     1
100
AcDbMText
 10
120.6094094876825
 20
535.2728447335677
 30
0.0
 40
7.0
 41
0.0
 71
     9
 72
     1
  1
\A1;
  7
GREEKS
 73
     1
 44
1.0
  0
DIMENSION
  5
69F
330
1E
100
AcDbEntity
  8
BEM
100
AcDbDimension
  2
*D5
 10
192.3035203424813
 20
564.9875001176288
 30
0.0
 11
173.4368536758146
 21
571.4875001176287
 31
0.0
 70
    32
 71
     5
 42
1.999999999999772
  3
Standard
100
AcDbAlignedDimension
 13
194.3035203424811
 23
553.5118497120106
 33
0.0
 14
192.3035203424813
 24
553.5118497120106
 34
0.0
100
AcDbRotatedDimension
1001
ACAD
1000
DSTYLE
1002
{
1070
    40
1040
2.0
1070
    41
1040
3.5
1070
    42
1040
1.0
1070
    43
1040
7.0
1070
    44
1040
1.0
1070
    73
1070
     0
1070
    74
1070
     0
1070
    77
1070
     1
1070
    78
1070
     8
1070
    79
1070
     2
1070
   140
1040
3.5
1070
   141
1040
1.5
1070
   146
1040
0.5142857142857144
1070
   147
1040
1.5
1070
   172
1070
     1
1070
   178
1070
     1
1070
   179
1070
     2
1070
   271
1070
     2
1070
   272
1070
     2
1070
   284
1070
     8
1070
   285
1070
     8
1070
   286
1070
     8
1002
}
  0
ARC
  5
6A0
102
{ACAD_REACTORS
330
83A
102
}
330
1E
100
AcDbEntity
  8
STEMPEL
100
AcDbCircle
 10
189.8035203424808
 20
535.5473836179434
 30
0.0
 40
4.5
100
AcDbArc
 50
315.0
 51
0.0
  0
LINE
  5
6A1
102
{ACAD_REACTORS
330
83A
102
}
330
1E
100
AcDbEntity
  8
STEMPEL
100
AcDbLine
 10
192.3035203424813
 20
546.5118497120106
 30
0.0
 11
194.3035203424811
 21
546.5118497120106
 31
0.0
  0
LINE
  5
6A2
330
1E
100
AcDbEntity
  8
MITTEL
100
AcDbLine
 10
187.3035203424813
 20
543.5118497120106
 30
0.0
 11
199.3035203424811
 21
543.5118497120106
 31
0.0
  0
LINE
  5
6A3
102
{ACAD_REACTORS
330
83A
102
}
330
1E
100
AcDbEntity
  8
STEMPEL
100
AcDbLine
 10
192.3035203424813
 20
540.5118497120106
 30
0.0
 11
194.3035203424811
 21
540.5118497120106
 31
0.0
  0
LINE
  5
6A4
102
{ACAD_REACTORS
330
83A
102
}
330
1E
100
AcDbEntity
  8
STEMPEL
100
AcDbLine
 10
192.3035203424813
 20
553.5118497120106
 30
0.0
 11
194.3035203424811
 21
553.5118497120106
 31
0.0
  0
LINE
  5
6A5
102
{ACAD_REACTORS
330
83A
102
}
330
1E
100
AcDbEntity
  8
STEMPEL
100
AcDbLine
 10
192.3035203424813
 20
553.5118497120106
 30
0.0
 11
192.3035203424811
 21
535.5473836179434
 31
0.0
  0
ARC
  5
6A6
102
{ACAD_REACTORS
330
83A
102
}
330
1E
100
AcDbEntity
  8
STEMPEL
100
AcDbCircle
 10
190.8390542484142
 20
530.9260632743842
 30
0.0
 40
1.5
100
AcDbArc
 50
135.0
 51
224.9999999999931
  0
LINE
  5
6A7
102
{ACAD_REACTORS
330
83A
102
}
330
1E
100
AcDbEntity
  8
STEMPEL
100
AcDbLine
 10
189.7783940766344
 20
529.8654031026044
 30
0.0
 11
190.1319474672279
 21
529.5118497120109
 31
0.0
  0
ARC
  5
6A8
102
{ACAD_REACTORS
330
83A
102
}
330
1E
100
AcDbEntity
  8
STEMPEL
100
AcDbCircle
 10
189.8035203424808
 20
535.5473836179434
 30
0.0
 40
2.5
100
AcDbArc
 50
315.0
 51
0.0
  0
LINE
  5
6A9
102
{ACAD_REACTORS
330
83A
102
}
330
1E
100
AcDbEntity
  8
STEMPEL
100
AcDbLine
 10
192.9855008578206
 20
532.3654031026039
 30
0.0
 11
190.1319474672277
 21
529.511849712011
 31
0.0
  0
LINE
  5
6AA
102
{ACAD_REACTORS
330
83A
102
}
330
1E
100
AcDbEntity
  8
STEMPEL
100
AcDbLine
 10
191.5712872954475
 20
533.7796166649771
 30
0.0
 11
189.7783940766344
 21
531.9867234461639
 31
0.0
  0
DIMENSION
  5
6AB
330
1E
100
AcDbEntity
  8
BEM
100
AcDbDimension
  2
*D6
 10
189.3390542484144
 20
130.921965776829
 30
0.0
 11
170.4723875817477
 21
137.421965776829
 31
0.0
 70
    32
  1
5
 71
     5
 42
4.964466094066665
  3
Standard
100
AcDbAlignedDimension
 13
194.3035203424811
 23
183.5118497120108
 33
0.0
 14
189.3390542484144
 24
206.0976361496371
 34
0.0
 50
180.0
100
AcDbRotatedDimension
1001
ACAD
1000
DSTYLE
1002
{
1070
    40
1040
2.0
1070
    41
1040
3.5
1070
    42
1040
1.0
1070
    43
1040
7.0
1070
    44
1040
1.0
1070
    73
1070
     0
1070
    74
1070
     0
1070
    77
1070
     1
1070
    78
1070
     8
1070
    79
1070
     2
1070
   140
1040
3.5
1070
   141
1040
1.5
1070
   146
1040
0.5142857142857144
1070
   147
1040
1.5
1070
   172
1070
     1
1070
   178
1070
     1
1070
   179
1070
     2
1070
   271
1070
     2
1070
   272
1070
     2
1070
   284
1070
     8
1070
   285
1070
     8
1070
   286
1070
     8
1002
}
  0
HATCH
  5
83A
330
1E
100
AcDbEntity
  8
SCHRAFF
100
AcDbHatch
 10
0.0
 20
0.0
 30
0.0
210
0.0
220
0.0
230
1.0
  2
_USER
 70
     0
 71
     1
 91
        4
 92
        7
 72
     0
 73
     1
 93
        4
 10
194.3035203424811
 20
553.5118497120106
 10
192.3035203424813
 20
553.5118497120105
 10
192.3035203424812
 20
546.5118497120106
 10
194.303520342481
 20
546.5118497120105
 97
        4
330
6A4
330
6A5
330
6A1
330
68C
 92
        7
 72
     1
 73
     1
 93
        9
 10
194.303520342481
 20
535.5473836179434
 42
0.0
 10
194.303520342481
 20
540.5118497120106
 42
0.0
 10
192.3035203424811
 20
540.5118497120107
 42
0.0
 10
192.3035203424811
 20
535.5473836179434
 42
-0.1989123673796352
 10
191.5712872954477
 20
533.7796166649773
 42
0.0
 10
189.7783940766344
 20
531.9867234461639
 42
0.4142135623730912
 10
189.7783940766344
 20
529.8654031026044
 42
0.0
 10
190.1319474672277
 20
529.5118497120112
 42
0.0
 10
192.9855008578206
 20
532.3654031026039
 42
0.1989123673796611
 97
        9
330
68C
330
6A3
330
6A5
330
6A8
330
6AA
330
6A6
330
6A7
330
6A9
330
6A0
 92
        7
 72
     0
 73
     1
 93
        4
 10
194.3035203424801
 20
190.5118497120109
 10
192.3035203424811
 20
190.5118497120106
 10
192.303520342481
 20
183.5118497120106
 10
194.3035203424802
 20
183.5118497120109
 97
        4
330
692
330
694
330
693
330
68C
 92
        7
 72
     1
 73
     1
 93
        9
 10
192.9855008578205
 20
204.6582963214174
 42
0.0
 10
190.1319474672277
 20
207.5118497120104
 42
0.0
 10
189.7783940766344
 20
207.1582963214169
 42
0.4142135623730677
 10
189.7783940766344
 20
205.0369759778573
 42
0.0
 10
191.5712872954473
 20
203.2440827590444
 42
-0.1989123673796742
 10
192.3035203424811
 20
201.476315806078
 42
0.0
 10
192.3035203424811
 20
196.5118497120107
 42
0.0
 10
194.3035203424802
 20
196.5118497120108
 42
0.0
 10
194.3035203424802
 20
201.476315806078
 42
0.198912367379635
 97
        9
330
699
330
69A
330
698
330
68E
330
695
330
694
330
690
330
68C
330
68F
 75
     0
 76
     0
 52
45.0
 41
2.0
 77
     0
 78
     1
 53
45.0
 43
0.0
 44
0.0
 45
-1.414213562373094
 46
1.414213562373095
 79
     0
 47
0.6574564424192037
 98
        4
 10
193.0876980264966
 20
547.6689702413425
 10
193.0876980264966
 20
534.5198408360768
 10
193.7455498788199
 20
188.0402950464061
 10
193.0876980264966
 20
202.5043369731213
  0
ENDSEC
  0
SECTION
  2
OBJECTS
  0
DICTIONARY
  5
C
330
0
100
AcDbDictionary
281
     1
  3
ACAD_COLOR
350
DF
  3
ACAD_GROUP
350
D
  3
ACAD_LAYOUT
350
19
  3
ACAD_MATERIAL
350
DE
  3
ACAD_MLINESTYLE
350
16
  3
ACAD_PLOTSETTINGS
350
18
  3
ACAD_PLOTSTYLENAME
350
E
  3
AcDbVariableDictionary
350
EA
  0
DICTIONARY
  5
A0
330
1E
100
AcDbDictionary
280
     1
281
     1
  3
ACAD_LAYOUTSELFREF
360
D4
  0
DICTIONARY
  5
A2
330
1A
100
AcDbDictionary
280
     1
281
     1
  3
ACAD_LAYOUTSELFREF
360
D3
  0
DICTIONARY
  5
DF
102
{ACAD_REACTORS
330
C
102
}
330
C
100
AcDbDictionary
281
     1
  0
DICTIONARY
  5
D
102
{ACAD_REACTORS
330
C
102
}
330
C
100
AcDbDictionary
281
     1
  0
DICTIONARY
  5
19
102
{ACAD_REACTORS
330
C
102
}
330
C
100
AcDbDictionary
281
     1
  3
Layout1
350
1D
  3
Model
350
21
  0
DICTIONARY
  5
DE
102
{ACAD_REACTORS
330
C
102
}
330
C
100
AcDbDictionary
281
     1
  0
DICTIONARY
  5
16
102
{ACAD_REACTORS
330
C
102
}
330
C
100
AcDbDictionary
281
     1
  3
Standard
350
17
  0
DICTIONARY
  5
18
102
{ACAD_REACTORS
330
C
102
}
330
C
100
AcDbDictionary
281
     1
  0
ACDBDICTIONARYWDFLT
  5
E
102
{ACAD_REACTORS
330
C
102
}
330
C
100
AcDbDictionary
281
     1
  3
Normal
350
F
100
AcDbDictionaryWithDefault
340
F
  0
DICTIONARY
  5
EA
102
{ACAD_REACTORS
330
C
102
}
330
C
100
AcDbDictionary
281
     1
  3
DIMASSOC
350
EB
  3
PROJECTNAME
350
EC
  0
XRECORD
  5
D4
102
{ACAD_REACTORS
330
A0
102
}
330
A0
100
AcDbXrecord
280
     1
340
1E
  0
XRECORD
  5
D3
102
{ACAD_REACTORS
330
A2
102
}
330
A2
100
AcDbXrecord
280
     1
340
1A
  0
LAYOUT
  5
1D
102
{ACAD_REACTORS
330
19
102
}
330
19
100
AcDbPlotSettings
  1

  2
\\NT_WORK01\HP LaserJet 5000 PCL 6
  4

  6

 40
0.0
 41
0.0
 42
0.0
 43
0.0
 44
0.0
 45
0.0
 46
0.0
 47
0.0
 48
0.0
 49
0.0
140
0.0
141
0.0
142
1.0
143
1.0
 70
   688
 72
     0
 73
     0
 74
     5
  7

 75
    16
147
1.0
 76
     0
 77
     2
 78
   300
148
0.0
149
0.0
100
AcDbLayout
  1
Layout1
 70
     0
 71
     1
 10
0.0
 20
0.0
 11
12.0
 21
9.0
 12
0.0
 22
0.0
 32
0.0
 14
1.000000000000000E+20
 24
1.000000000000000E+20
 34
1.000000000000000E+20
 15
-1.000000000000000E+20
 25
-1.000000000000000E+20
 35
-1.000000000000000E+20
146
0.0
 13
0.0
 23
0.0
 33
0.0
 16
1.0
 26
0.0
 36
0.0
 17
0.0
 27
1.0
 37
0.0
 76
     0
330
1A
  0
LAYOUT
  5
21
102
{ACAD_REACTORS
330
19
102
}
330
19
100
AcDbPlotSettings
  1

  2
none_device
  4
Letter_(8.50_x_11.00_Inches)
  6

 40
6.349999904632568
 41
6.349999904632568
 42
6.350006103515625
 43
6.350006103515625
 44
215.8999938964844
 45
279.3999938964844
 46
0.0
 47
0.0
 48
0.0
 49
0.0
140
0.0
141
0.0
142
1.0
143
1.0
 70
 11952
 72
     0
 73
     1
 74
     0
  7

 75
     0
147
1.0
 76
     0
 77
     2
 78
   300
148
2271.705982971075
149
62.07454131190164
100
AcDbLayout
  1
Model
 70
     1
 71
     0
 10
0.0
 20
0.0
 11
12.0
 21
9.0
 12
0.0
 22
0.0
 32
0.0
 14
0.0
 24
0.0
 34
0.0
 15
0.0
 25
0.0
 35
0.0
146
0.0
 13
0.0
 23
0.0
 33
0.0
 16
1.0
 26
0.0
 36
0.0
 17
0.0
 27
1.0
 37
0.0
 76
     0
330
1E
  0
MLINESTYLE
  5
17
102
{ACAD_REACTORS
330
16
102
}
330
16
100
AcDbMlineStyle
  2
STANDARD
 70
     0
  3

 62
   256
 51
90.0
 52
90.0
 71
     2
 49
0.5
 62
   256
  6
BYLAYER
 49
-0.5
 62
   256
  6
BYLAYER
  0
ACDBPLACEHOLDER
  5
F
102
{ACAD_REACTORS
330
E
102
}
330
E
  0
DICTIONARYVAR
  5
EB
102
{ACAD_REACTORS
330
EA
102
}
330
EA
100
DictionaryVariables
280
     0
  1
1
  0
DICTIONARYVAR
  5
EC
102
{ACAD_REACTORS
330
EA
102
}
330
EA
100
DictionaryVariables
280
     0
  1

  0
ENDSEC
  0
EOF
