  0
SECTION
  2
HEADER
  9
$ACADVER
  1
AC1018
  9
$ACADMAINTVER
 70
     2
  9
$DWGCODEPAGE
  3
ANSI_1252
  9
$INSBASE
 10
0.0
 20
0.0
 30
0.0
  9
$EXTMIN
 10
-0.02563359212877
 20
-0.0362532231533805
 30
-0.0000000349181948
  9
$EXTMAX
 10
420.0256375038029
 20
594.0362587553789
 30
0.0000000814935746
  9
$LIMMIN
 10
0.0
 20
0.0
  9
$LIMMAX
 10
419.9999999999999
 20
594.0
  9
$ORTHOMODE
 70
     1
  9
$REGENMODE
 70
     1
  9
$FILLMODE
 70
     1
  9
$QTEXTMODE
 70
     0
  9
$MIRRTEXT
 70
     1
  9
$LTSCALE
 40
20.0
  9
$ATTMODE
 70
     1
  9
$TEXTSIZE
 40
3.5
  9
$TRACEWID
 40
0.5
  9
$TEXTSTYLE
  7
STANDARD
  9
$CLAYER
  8
STEMPEL
  9
$CELTYPE
  6
ByLayer
  9
$CECOLOR
 62
   256
  9
$CELTSCALE
 40
1.0
  9
$DISPSILH
 70
     0
  9
$DIMSCALE
 40
2.0
  9
$DIMASZ
 40
3.5
  9
$DIMEXO
 40
1.0
  9
$DIMDLI
 40
7.0
  9
$DIMRND
 40
0.0
  9
$DIMDLE
 40
0.0
  9
$DIMEXE
 40
1.0
  9
$DIMTP
 40
0.0
  9
$DIMTM
 40
0.0
  9
$DIMTXT
 40
3.5
  9
$DIMCEN
 40
1.5
  9
$DIMTSZ
 40
0.0
  9
$DIMTOL
 70
     0
  9
$DIMLIM
 70
     0
  9
$DIMTIH
 70
     0
  9
$DIMTOH
 70
     0
  9
$DIMSE1
 70
     0
  9
$DIMSE2
 70
     0
  9
$DIMTAD
 70
     1
  9
$DIMZIN
 70
     8
  9
$DIMBLK
  1

  9
$DIMASO
 70
     1
  9
$DIMSHO
 70
     0
  9
$DIMPOST
  1

  9
$DIMAPOST
  1

  9
$DIMALT
 70
     0
  9
$DIMALTD
 70
     2
  9
$DIMALTF
 40
25.4
  9
$DIMLFAC
 40
1.0
  9
$DIMTOFL
 70
     1
  9
$DIMTVP
 40
0.0
  9
$DIMTIX
 70
     0
  9
$DIMSOXD
 70
     0
  9
$DIMSAH
 70
     0
  9
$DIMBLK1
  1

  9
$DIMBLK2
  1

  9
$DIMSTYLE
  2
Standard
  9
$DIMCLRD
 70
     0
  9
$DIMCLRE
 70
     0
  9
$DIMCLRT
 70
     1
  9
$DIMTFAC
 40
0.5142857142857144
  9
$DIMGAP
 40
1.5
  9
$DIMJUST
 70
     0
  9
$DIMSD1
 70
     0
  9
$DIMSD2
 70
     0
  9
$DIMTOLJ
 70
     1
  9
$DIMTZIN
 70
     8
  9
$DIMALTZ
 70
     8
  9
$DIMALTTZ
 70
     8
  9
$DIMUPT
 70
     0
  9
$DIMDEC
 70
     2
  9
$DIMTDEC
 70
     2
  9
$DIMALTU
 70
     2
  9
$DIMALTTD
 70
     2
  9
$DIMTXSTY
  7
STANDARD
  9
$DIMAUNIT
 70
     0
  9
$DIMADEC
 70
     2
  9
$DIMALTRND
 40
0.0
  9
$DIMAZIN
 70
     2
  9
$DIMDSEP
 70
    46
  9
$DIMATFIT
 70
     3
  9
$DIMFRAC
 70
     0
  9
$DIMLDRBLK
  1

  9
$DIMLUNIT
 70
     2
  9
$DIMLWD
 70
    -2
  9
$DIMLWE
 70
    -2
  9
$DIMTMOVE
 70
     0
  9
$LUNITS
 70
     2
  9
$LUPREC
 70
     2
  9
$SKETCHINC
 40
1.0
  9
$FILLETRAD
 40
0.0
  9
$AUNITS
 70
     0
  9
$AUPREC
 70
     0
  9
$MENU
  1
ACAD
  9
$ELEVATION
 40
0.0
  9
$PELEVATION
 40
0.0
  9
$THICKNESS
 40
0.0
  9
$LIMCHECK
 70
     0
  9
$CHAMFERA
 40
0.0
  9
$CHAMFERB
 40
0.0
  9
$CHAMFERC
 40
0.0
  9
$CHAMFERD
 40
0.0
  9
$SKPOLY
 70
     0
  9
$TDCREATE
 40
2455397.823042361
  9
$TDUCREATE
 40
2455397.781375695
  9
$TDUPDATE
 40
2455531.538663171
  9
$TDUUPDATE
 40
2455531.496996505
  9
$TDINDWG
 40
0.0336746181
  9
$TDUSRTIMER
 40
0.0336746181
  9
$USRTIMER
 70
     1
  9
$ANGBASE
 50
0.0
  9
$ANGDIR
 70
     0
  9
$PDMODE
 70
     0
  9
$PDSIZE
 40
0.0
  9
$PLINEWID
 40
0.0
  9
$SPLFRAME
 70
     0
  9
$SPLINETYPE
 70
     6
  9
$SPLINESEGS
 70
     8
  9
$HANDSEED
  5
606
  9
$SURFTAB1
 70
     6
  9
$SURFTAB2
 70
     6
  9
$SURFTYPE
 70
     6
  9
$SURFU
 70
     6
  9
$SURFV
 70
     6
  9
$UCSBASE
  2

  9
$UCSNAME
  2

  9
$UCSORG
 10
0.0
 20
0.0
 30
0.0
  9
$UCSXDIR
 10
1.0
 20
0.0
 30
0.0
  9
$UCSYDIR
 10
0.0
 20
1.0
 30
0.0
  9
$UCSORTHOREF
  2

  9
$UCSORTHOVIEW
 70
     0
  9
$UCSORGTOP
 10
0.0
 20
0.0
 30
0.0
  9
$UCSORGBOTTOM
 10
0.0
 20
0.0
 30
0.0
  9
$UCSORGLEFT
 10
0.0
 20
0.0
 30
0.0
  9
$UCSORGRIGHT
 10
0.0
 20
0.0
 30
0.0
  9
$UCSORGFRONT
 10
0.0
 20
0.0
 30
0.0
  9
$UCSORGBACK
 10
0.0
 20
0.0
 30
0.0
  9
$PUCSBASE
  2

  9
$PUCSNAME
  2

  9
$PUCSORG
 10
0.0
 20
0.0
 30
0.0
  9
$PUCSXDIR
 10
1.0
 20
0.0
 30
0.0
  9
$PUCSYDIR
 10
0.0
 20
1.0
 30
0.0
  9
$PUCSORTHOREF
  2

  9
$PUCSORTHOVIEW
 70
     0
  9
$PUCSORGTOP
 10
0.0
 20
0.0
 30
0.0
  9
$PUCSORGBOTTOM
 10
0.0
 20
0.0
 30
0.0
  9
$PUCSORGLEFT
 10
0.0
 20
0.0
 30
0.0
  9
$PUCSORGRIGHT
 10
0.0
 20
0.0
 30
0.0
  9
$PUCSORGFRONT
 10
0.0
 20
0.0
 30
0.0
  9
$PUCSORGBACK
 10
0.0
 20
0.0
 30
0.0
  9
$USERI1
 70
     0
  9
$USERI2
 70
     0
  9
$USERI3
 70
     0
  9
$USERI4
 70
     0
  9
$USERI5
 70
     0
  9
$USERR1
 40
0.0
  9
$USERR2
 40
0.0
  9
$USERR3
 40
0.0
  9
$USERR4
 40
0.0
  9
$USERR5
 40
0.0
  9
$WORLDVIEW
 70
     1
  9
$SHADEDGE
 70
     3
  9
$SHADEDIF
 70
    70
  9
$TILEMODE
 70
     1
  9
$MAXACTVP
 70
    16
  9
$PINSBASE
 10
0.0
 20
0.0
 30
0.0
  9
$PLIMCHECK
 70
     0
  9
$PEXTMIN
 10
1.000000000000000E+20
 20
1.000000000000000E+20
 30
1.000000000000000E+20
  9
$PEXTMAX
 10
-1.000000000000000E+20
 20
-1.000000000000000E+20
 30
-1.000000000000000E+20
  9
$PLIMMIN
 10
0.0
 20
0.0
  9
$PLIMMAX
 10
12.0
 20
9.0
  9
$UNITMODE
 70
     0
  9
$VISRETAIN
 70
     0
  9
$PLINEGEN
 70
     0
  9
$PSLTSCALE
 70
     0
  9
$TREEDEPTH
 70
  3020
  9
$CMLSTYLE
  2
Standard
  9
$CMLJUST
 70
     0
  9
$CMLSCALE
 40
1.0
  9
$PROXYGRAPHICS
 70
     1
  9
$MEASUREMENT
 70
     0
  9
$CELWEIGHT
370
    -1
  9
$ENDCAPS
280
     0
  9
$JOINSTYLE
280
     0
  9
$LWDISPLAY
290
     0
  9
$INSUNITS
 70
     0
  9
$HYPERLINKBASE
  1

  9
$STYLESHEET
  1
monochrome 1.ctb
  9
$XEDIT
290
     1
  9
$CEPSNTYPE
380
     0
  9
$PSTYLEMODE
290
     1
  9
$FINGERPRINTGUID
  2
{D68B0D02-A558-11D7-B632-000102183313}
  9
$VERSIONGUID
  2
{CC6274E8-8592-4CC6-AC87-16BC1D1F1C6B}
  9
$EXTNAMES
290
     1
  9
$PSVPSCALE
 40
0.0
  9
$OLESTARTUP
290
     0
  9
$SORTENTS
280
   127
  9
$INDEXCTL
280
     0
  9
$HIDETEXT
280
     0
  9
$XCLIPFRAME
290
     0
  9
$HALOGAP
280
     0
  9
$OBSCOLOR
 70
   257
  9
$OBSLTYPE
280
     0
  9
$INTERSECTIONDISPLAY
280
     0
  9
$INTERSECTIONCOLOR
 70
   257
  9
$DIMASSOC
280
     1
  9
$PROJECTNAME
  1

  0
ENDSEC
  0
SECTION
  2
CLASSES
  0
CLASS
  1
ACDBDICTIONARYWDFLT
  2
AcDbDictionaryWithDefault
  3
ObjectDBX Classes
 90
        0
 91
        1
280
     0
281
     0
  0
CLASS
  1
DICTIONARYVAR
  2
AcDbDictionaryVar
  3
ObjectDBX Classes
 90
        0
 91
        2
280
     0
281
     0
  0
ENDSEC
  0
SECTION
  2
TABLES
  0
TABLE
  2
VPORT
  5
8
330
0
100
AcDbSymbolTable
 70
     2
  0
VPORT
  5
605
330
8
100
AcDbSymbolTableRecord
100
AcDbViewportTableRecord
  2
*Active
 70
     0
 10
0.0
 20
0.0
 11
1.0
 21
1.0
 12
210.0000019558371
 22
297.0000027661128
 13
0.0
 23
0.0
 14
1.0
 24
1.0
 15
10.0
 25
10.0
 16
0.0
 26
0.0
 36
1.0
 17
0.0
 27
0.0
 37
0.0
 40
598.8698673915487
 41
1.336927223719676
 42
50.0
 43
0.0
 44
0.0
 50
0.0
 51
0.0
 71
     0
 72
  1500
 73
     1
 74
     0
 75
     0
 76
     0
 77
     0
 78
     0
281
     0
 65
     1
110
0.0
120
0.0
130
0.0
111
1.0
121
0.0
131
0.0
112
0.0
122
1.0
132
0.0
 79
     0
146
0.0
  0
ENDTAB
  0
TABLE
  2
LTYPE
  5
5
330
0
100
AcDbSymbolTable
 70
     3
  0
LTYPE
  5
13
330
5
100
AcDbSymbolTableRecord
100
AcDbLinetypeTableRecord
  2
ByBlock
 70
     0
  3

 72
    65
 73
     0
 40
0.0
  0
LTYPE
  5
14
330
5
100
AcDbSymbolTableRecord
100
AcDbLinetypeTableRecord
  2
ByLayer
 70
     0
  3

 72
    65
 73
     0
 40
0.0
  0
LTYPE
  5
15
330
5
100
AcDbSymbolTableRecord
100
AcDbLinetypeTableRecord
  2
Continuous
 70
     0
  3
Solid line
 72
    65
 73
     0
 40
0.0
  0
LTYPE
  5
25
330
5
100
AcDbSymbolTableRecord
100
AcDbLinetypeTableRecord
  2
STRICHPUNKT
 70
     0
  3
__ . __ . __ . __ . __ . __ . __ . __ . __ . __
 72
    65
 73
     4
 40
1.0
 49
0.5
 74
     0
 49
-0.25
 74
     0
 49
0.0
 74
     0
 49
-0.25
 74
     0
  0
LTYPE
  5
32
330
5
100
AcDbSymbolTableRecord
100
AcDbLinetypeTableRecord
  2
AUSGEZOGEN
 70
     0
  3
Ausgezogene Linie
 72
    65
 73
     0
 40
0.0
  0
ENDTAB
  0
TABLE
  2
LAYER
  5
2
330
0
100
AcDbSymbolTable
 70
     9
  0
LAYER
  5
10
330
2
100
AcDbSymbolTableRecord
100
AcDbLayerTableRecord
  2
0
 70
     0
 62
     7
  6
Continuous
370
    -3
390
F
  0
LAYER
  5
2A
330
2
100
AcDbSymbolTableRecord
100
AcDbLayerTableRecord
  2
VOLL
 70
     0
 62
     1
  6
Continuous
370
    -3
390
F
  0
LAYER
  5
2B
330
2
100
AcDbSymbolTableRecord
100
AcDbLayerTableRecord
  2
HILF
 70
     0
 62
     2
  6
Continuous
370
    -3
390
F
  0
LAYER
  5
2C
330
2
100
AcDbSymbolTableRecord
100
AcDbLayerTableRecord
  2
MITTEL
 70
     0
 62
     2
  6
STRICHPUNKT
370
    -3
390
F
  0
LAYER
  5
2F
330
2
100
AcDbSymbolTableRecord
100
AcDbLayerTableRecord
  2
BEM
 70
     0
 62
     7
  6
Continuous
370
    -3
390
F
  0
LAYER
  5
30
330
2
100
AcDbSymbolTableRecord
100
AcDbLayerTableRecord
  2
STEMPEL
 70
     0
 62
     3
  6
Continuous
370
    -3
390
F
  0
LAYER
  5
31
330
2
100
AcDbSymbolTableRecord
100
AcDbLayerTableRecord
  2
TEXT
 70
     0
 62
     7
  6
Continuous
370
    -3
390
F
  0
LAYER
  5
1BD
330
2
100
AcDbSymbolTableRecord
100
AcDbLayerTableRecord
  2
DEFPOINTS
 70
     0
 62
     7
  6
AUSGEZOGEN
290
     0
370
    -3
390
F
  0
LAYER
  5
1BE
330
2
100
AcDbSymbolTableRecord
100
AcDbLayerTableRecord
  2
SCHRAFF
 70
     0
 62
     7
  6
AUSGEZOGEN
370
    -3
390
F
  0
ENDTAB
  0
TABLE
  2
STYLE
  5
3
330
0
100
AcDbSymbolTable
 70
     2
  0
STYLE
  5
11
330
3
100
AcDbSymbolTableRecord
100
AcDbTextStyleTableRecord
  2
STANDARD
 70
     0
 40
0.0
 41
0.8
 50
0.0
 71
     0
 42
3.5
  3
simplex.shx
  4

  0
STYLE
  5
24
330
3
100
AcDbSymbolTableRecord
100
AcDbTextStyleTableRecord
  2
GREEKS
 70
     0
 40
0.0
 41
0.8
 50
0.0
 71
     0
 42
2.5
  3
SIMPLEX.shx
  4

  0
ENDTAB
  0
TABLE
  2
VIEW
  5
6
330
0
100
AcDbSymbolTable
 70
     0
  0
ENDTAB
  0
TABLE
  2
UCS
  5
7
330
0
100
AcDbSymbolTable
 70
     0
  0
ENDTAB
  0
TABLE
  2
APPID
  5
9
330
0
100
AcDbSymbolTable
 70
     1
  0
APPID
  5
12
330
9
100
AcDbSymbolTableRecord
100
AcDbRegAppTableRecord
  2
ACAD
 70
     0
  0
ENDTAB
  0
TABLE
  2
DIMSTYLE
  5
A
330
0
100
AcDbSymbolTable
 70
     1
100
AcDbDimStyleTable
 71
     1
340
9D
  0
DIMSTYLE
105
9D
102
{ACAD_REACTORS
330
43C
330
43B
330
43A
330
433
330
431
330
42F
102
}
330
A
100
AcDbSymbolTableRecord
100
AcDbDimStyleTableRecord
  2
Standard
 70
     0
340
11
  0
ENDTAB
  0
TABLE
  2
BLOCK_RECORD
  5
1
330
0
100
AcDbSymbolTable
 70
     7
  0
BLOCK_RECORD
  5
1E
102
{ACAD_XDICTIONARY
360
A0
102
}
330
1
100
AcDbSymbolTableRecord
100
AcDbBlockTableRecord
  2
*Model_Space
340
21
  0
BLOCK_RECORD
  5
1A
102
{ACAD_XDICTIONARY
360
A2
102
}
330
1
100
AcDbSymbolTableRecord
100
AcDbBlockTableRecord
  2
*Paper_Space
340
1D
  0
BLOCK_RECORD
  5
22
330
1
100
AcDbSymbolTableRecord
100
AcDbBlockTableRecord
  2
LOGO
340
0
102
{BLKREFS
331
9B
102
}
  0
BLOCK_RECORD
  5
453
330
1
100
AcDbSymbolTableRecord
100
AcDbBlockTableRecord
  2
*D1
340
0
  0
BLOCK_RECORD
  5
460
330
1
100
AcDbSymbolTableRecord
100
AcDbBlockTableRecord
  2
*D2
340
0
  0
BLOCK_RECORD
  5
47A
330
1
100
AcDbSymbolTableRecord
100
AcDbBlockTableRecord
  2
*D3
340
0
  0
BLOCK_RECORD
  5
497
330
1
100
AcDbSymbolTableRecord
100
AcDbBlockTableRecord
  2
*D4
340
0
  0
BLOCK_RECORD
  5
4A4
330
1
100
AcDbSymbolTableRecord
100
AcDbBlockTableRecord
  2
*D5
340
0
  0
BLOCK_RECORD
  5
4B1
330
1
100
AcDbSymbolTableRecord
100
AcDbBlockTableRecord
  2
*D6
340
0
  0
ENDTAB
  0
ENDSEC
  0
SECTION
  2
BLOCKS
  0
BLOCK
  5
35
330
1E
100
AcDbEntity
  8
0
100
AcDbBlockBegin
  2
*Model_Space
 70
     0
 10
0.0
 20
0.0
 30
0.0
  3
*Model_Space
  1

  0
ENDBLK
  5
36
330
1E
100
AcDbEntity
  8
0
100
AcDbBlockEnd
  0
BLOCK
  5
33
330
1A
100
AcDbEntity
 67
     1
  8
0
100
AcDbBlockBegin
  2
*Paper_Space
 70
     0
 10
0.0
 20
0.0
 30
0.0
  3
*Paper_Space
  1

  0
ENDBLK
  5
34
330
1A
100
AcDbEntity
 67
     1
  8
0
100
AcDbBlockEnd
  0
BLOCK
  5
37
330
22
100
AcDbEntity
  8
0
100
AcDbBlockBegin
  2
LOGO
 70
     0
 10
0.0
 20
0.0
 30
0.0
  3
LOGO
  1

  0
ARC
  5
38
330
22
100
AcDbEntity
  8
0
100
AcDbCircle
 10
11.59973089678112
 20
-9.271599258481501
 30
0.0
 40
4.5
100
AcDbArc
 50
270.0
 51
231.0575587310159
  0
LINE
  5
39
330
22
100
AcDbEntity
  8
0
100
AcDbLine
 10
3.599730896781125
 20
-4.771599258481529
 30
0.0
 11
3.599730896781153
 21
-11.77159925848133
 31
0.0
  0
LINE
  5
3A
330
22
100
AcDbEntity
  8
0
100
AcDbLine
 10
2.599730896781125
 20
-4.771599258481529
 30
0.0
 11
2.599730896781153
 21
-11.77159925848133
 31
0.0
  0
CIRCLE
  5
3B
330
22
100
AcDbEntity
  8
0
100
AcDbCircle
 10
11.59973089678112
 20
-9.271599258481501
 30
0.0
 40
3.5
  0
ARC
  5
3C
330
22
100
AcDbEntity
  8
0
100
AcDbCircle
 10
31.59973089678115
 20
-9.271599258481472
 30
0.0
 40
4.5
100
AcDbArc
 50
270.0
 51
231.0575587310182
  0
LINE
  5
3D
330
22
100
AcDbEntity
  8
0
100
AcDbLine
 10
17.59973089678112
 20
-4.771599258481472
 30
0.0
 11
17.59973089678115
 21
-13.77159925848147
 31
0.0
  0
ARC
  5
3E
330
22
100
AcDbEntity
  8
0
100
AcDbCircle
 10
22.59973089678116
 20
-7.271599258481472
 30
0.0
 40
2.5
100
AcDbArc
 50
293.1161887722295
 51
90.0
  0
CIRCLE
  5
3F
330
22
100
AcDbEntity
  8
0
100
AcDbCircle
 10
31.59973089678115
 20
-9.271599258481472
 30
0.0
 40
3.5
  0
ARC
  5
40
330
22
100
AcDbEntity
  8
0
100
AcDbCircle
 10
4.599730896781153
 20
-11.77159925848133
 30
0.0
 40
1.0
100
AcDbArc
 50
180.0
 51
270.0
  0
ARC
  5
41
330
22
100
AcDbEntity
  8
0
100
AcDbCircle
 10
4.599730896781153
 20
-11.77159925848133
 30
0.0
 40
2.0
100
AcDbArc
 50
179.9999999999992
 51
270.0
  0
LINE
  5
42
330
22
100
AcDbEntity
  8
0
100
AcDbLine
 10
11.59973089678115
 20
-13.77159925848144
 30
0.0
 11
4.599730896781153
 21
-13.77159925848147
 31
0.0
  0
LINE
  5
43
330
22
100
AcDbEntity
  8
0
100
AcDbLine
 10
8.771303772034769
 20
-12.77159925848136
 30
0.0
 11
4.599730896781153
 21
-12.77159925848133
 31
0.0
  0
LINE
  5
44
330
22
100
AcDbEntity
  8
0
100
AcDbLine
 10
31.59973089678115
 20
-13.77159925848147
 30
0.0
 11
23.6715276665056
 21
-13.77159925848144
 31
0.0
  0
LINE
  5
45
330
22
100
AcDbEntity
  8
0
100
AcDbLine
 10
23.56565672307022
 20
-9.51278021337896
 30
0.0
 11
24.4388546544846
 21
-12.77159925848144
 31
0.0
  0
LINE
  5
46
330
22
100
AcDbEntity
  8
0
100
AcDbLine
 10
22.59973089678116
 20
-9.771599258481472
 30
0.0
 11
18.59973089678112
 21
-9.771599258481472
 31
0.0
  0
LINE
  5
47
330
22
100
AcDbEntity
  8
0
100
AcDbLine
 10
18.59973089678115
 20
-13.77159925848144
 30
0.0
 11
17.59973089678115
 21
-13.77159925848144
 31
0.0
  0
LINE
  5
48
330
22
100
AcDbEntity
  8
0
100
AcDbLine
 10
18.59973089678115
 20
-9.771599258481472
 30
0.0
 11
18.59973089678115
 21
-13.77159925848144
 31
0.0
  0
LINE
  5
49
330
22
100
AcDbEntity
  8
0
100
AcDbLine
 10
22.59973089678116
 20
-9.771599258481472
 30
0.0
 11
23.67152766650562
 21
-13.77159925848147
 31
0.0
  0
ARC
  5
4A
330
22
100
AcDbEntity
  8
0
100
AcDbCircle
 10
22.59973089678116
 20
-7.271599258481472
 30
0.0
 40
2.5
100
AcDbArc
 50
270.0
 51
270.0000000000007
  0
LINE
  5
4B
330
22
100
AcDbEntity
  8
0
100
AcDbLine
 10
28.77130377203494
 20
-12.77159925848147
 30
0.0
 11
24.43885465448463
 21
-12.77159925848144
 31
0.0
  0
LINE
  5
4C
330
22
100
AcDbEntity
  8
0
100
AcDbLine
 10
3.599730896781125
 20
-4.771599258481472
 30
0.0
 11
2.599730896781125
 21
-4.771599258481472
 31
0.0
  0
LINE
  5
4D
330
22
100
AcDbEntity
  8
0
100
AcDbLine
 10
22.59973089678116
 20
-8.771599258481472
 30
0.0
 11
18.59973089678115
 21
-8.771599258481472
 31
0.0
  0
LINE
  5
4E
330
22
100
AcDbEntity
  8
0
100
AcDbLine
 10
22.59973089678116
 20
-5.771599258481472
 30
0.0
 11
18.59973089678115
 21
-5.771599258481472
 31
0.0
  0
LINE
  5
4F
330
22
100
AcDbEntity
  8
0
100
AcDbLine
 10
22.59973089678116
 20
-4.771599258481472
 30
0.0
 11
17.59973089678115
 21
-4.771599258481472
 31
0.0
  0
LINE
  5
50
330
22
100
AcDbEntity
  8
0
100
AcDbLine
 10
18.59973089678115
 20
-5.771599258481472
 30
0.0
 11
18.59973089678115
 21
-8.771599258481472
 31
0.0
  0
ARC
  5
51
330
22
100
AcDbEntity
  8
0
100
AcDbCircle
 10
22.59973089678116
 20
-7.271599258481472
 30
0.0
 40
1.5
100
AcDbArc
 50
270.0
 51
90.0
  0
ENDBLK
  5
52
330
22
100
AcDbEntity
  8
0
100
AcDbBlockEnd
  0
BLOCK
  5
45E
330
453
100
AcDbEntity
  8
0
100
AcDbBlockBegin
  2
*D1
 70
     1
 10
0.0
 20
0.0
 30
0.0
  3
*D1
  1

  0
LINE
  5
556
330
453
100
AcDbEntity
  8
BEM
 62
     0
370
    -2
100
AcDbLine
 10
217.8510783718071
 20
546.7478090502149
 30
0.0
 11
217.8510783718071
 21
561.0394927247432
 31
0.0
  0
LINE
  5
557
330
453
100
AcDbEntity
  8
BEM
 62
     0
370
    -2
100
AcDbLine
 10
215.8510783718075
 20
546.7478090502151
 30
0.0
 11
215.8510783718075
 21
561.0394927247432
 31
0.0
  0
LINE
  5
558
330
453
100
AcDbEntity
  8
BEM
 62
     0
370
    -2
100
AcDbLine
 10
224.851078371807
 20
559.0394927247432
 30
0.0
 11
231.851078371807
 21
559.0394927247432
 31
0.0
  0
LINE
  5
559
330
453
100
AcDbEntity
  8
BEM
 62
     0
370
    -2
100
AcDbLine
 10
208.8510783718075
 20
559.0394927247432
 30
0.0
 11
192.1177450384742
 21
559.0394927247432
 31
0.0
  0
LINE
  5
55A
330
453
100
AcDbEntity
  8
BEM
 62
     0
370
    -2
100
AcDbLine
 10
217.8510783718071
 20
559.0394927247432
 30
0.0
 11
215.8510783718075
 21
559.0394927247432
 31
0.0
  0
SOLID
  5
55B
330
453
100
AcDbEntity
  8
BEM
 62
     0
100
AcDbTrace
 10
224.851078371807
 20
560.2061593914099
 30
0.0
 11
224.851078371807
 21
557.8728260580766
 31
0.0
 12
217.8510783718071
 22
559.0394927247432
 32
0.0
 13
217.8510783718071
 23
559.0394927247432
 33
0.0
  0
SOLID
  5
55C
330
453
100
AcDbEntity
  8
BEM
 62
     0
100
AcDbTrace
 10
208.8510783718075
 20
560.2061593914099
 30
0.0
 11
208.8510783718075
 21
557.8728260580766
 31
0.0
 12
215.8510783718075
 22
559.0394927247432
 32
0.0
 13
215.8510783718075
 23
559.0394927247432
 33
0.0
  0
MTEXT
  5
55D
330
453
100
AcDbEntity
  8
BEM
 62
     1
100
AcDbMText
 10
196.9844117051408
 20
565.5394927247432
 30
0.0
 40
7.0
 41
0.0
 71
     5
 72
     1
  1
\A1;2
 73
     1
 44
1.0
  0
POINT
  5
55E
330
453
100
AcDbEntity
  8
DEFPOINTS
 62
     0
100
AcDbPoint
 10
217.8510783718071
 20
544.747809050215
 30
0.0
  0
POINT
  5
55F
330
453
100
AcDbEntity
  8
DEFPOINTS
 62
     0
100
AcDbPoint
 10
215.8510783718075
 20
544.747809050215
 30
0.0
  0
POINT
  5
560
330
453
100
AcDbEntity
  8
DEFPOINTS
 62
     0
100
AcDbPoint
 10
215.8510783718075
 20
559.0394927247432
 30
0.0
  0
ENDBLK
  5
45F
330
453
100
AcDbEntity
  8
0
100
AcDbBlockEnd
  0
BLOCK
  5
46B
330
460
100
AcDbEntity
  8
0
100
AcDbBlockBegin
  2
*D2
 70
     1
 10
0.0
 20
0.0
 30
0.0
  3
*D2
  1

  0
LINE
  5
5D1
330
460
100
AcDbEntity
  8
BEM
 62
     0
370
    -2
100
AcDbLine
 10
217.8510783718071
 20
202.7478090502147
 30
0.0
 11
217.8510783718071
 21
145.7289470748512
 31
0.0
  0
LINE
  5
5D2
330
460
100
AcDbEntity
  8
BEM
 62
     0
370
    -2
100
AcDbLine
 10
212.8866122777401
 20
225.3335954878414
 30
0.0
 11
212.8866122777401
 21
145.7289470748512
 31
0.0
  0
LINE
  5
5D3
330
460
100
AcDbEntity
  8
BEM
 62
     0
370
    -2
100
AcDbLine
 10
224.851078371807
 20
147.7289470748512
 30
0.0
 11
231.851078371807
 21
147.7289470748512
 31
0.0
  0
LINE
  5
5D4
330
460
100
AcDbEntity
  8
BEM
 62
     0
370
    -2
100
AcDbLine
 10
205.8866122777402
 20
147.7289470748512
 30
0.0
 11
189.1532789444068
 21
147.7289470748512
 31
0.0
  0
LINE
  5
5D5
330
460
100
AcDbEntity
  8
BEM
 62
     0
370
    -2
100
AcDbLine
 10
217.8510783718071
 20
147.7289470748512
 30
0.0
 11
212.8866122777401
 21
147.7289470748512
 31
0.0
  0
SOLID
  5
5D6
330
460
100
AcDbEntity
  8
BEM
 62
     0
100
AcDbTrace
 10
224.851078371807
 20
148.8956137415179
 30
0.0
 11
224.851078371807
 21
146.5622804081846
 31
0.0
 12
217.8510783718071
 22
147.7289470748512
 32
0.0
 13
217.8510783718071
 23
147.7289470748512
 33
0.0
  0
SOLID
  5
5D7
330
460
100
AcDbEntity
  8
BEM
 62
     0
100
AcDbTrace
 10
205.8866122777402
 20
148.8956137415179
 30
0.0
 11
205.8866122777402
 21
146.5622804081846
 31
0.0
 12
212.8866122777401
 22
147.7289470748512
 32
0.0
 13
212.8866122777401
 23
147.7289470748512
 33
0.0
  0
MTEXT
  5
5D8
330
460
100
AcDbEntity
  8
BEM
 62
     1
100
AcDbMText
 10
194.0199456110734
 20
154.2289470748512
 30
0.0
 40
7.0
 41
0.0
 71
     5
 72
     1
  1
\A1;5
 73
     1
 44
1.0
  0
POINT
  5
5D9
330
460
100
AcDbEntity
  8
DEFPOINTS
 62
     0
100
AcDbPoint
 10
217.8510783718071
 20
204.7478090502147
 30
0.0
  0
POINT
  5
5DA
330
460
100
AcDbEntity
  8
DEFPOINTS
 62
     0
100
AcDbPoint
 10
212.8866122777401
 20
227.3335954878414
 30
0.0
  0
POINT
  5
5DB
330
460
100
AcDbEntity
  8
DEFPOINTS
 62
     0
100
AcDbPoint
 10
212.8866122777401
 20
147.7289470748512
 30
0.0
  0
ENDBLK
  5
46C
330
460
100
AcDbEntity
  8
0
100
AcDbBlockEnd
  0
BLOCK
  5
486
330
47A
100
AcDbEntity
  8
0
100
AcDbBlockBegin
  2
*D3
 70
     1
 10
0.0
 20
0.0
 30
0.0
  3
*D3
  1

  0
LINE
  5
5DC
330
47A
100
AcDbEntity
  8
BEM
 62
     0
370
    -2
100
AcDbLine
 10
213.8510783718075
 20
211.7478090502145
 30
0.0
 11
174.8866122777402
 21
211.7478090502145
 31
0.0
  0
LINE
  5
5DD
330
47A
100
AcDbEntity
  8
BEM
 62
     0
370
    -2
100
AcDbLine
 10
213.8510783718071
 20
217.7478090502145
 30
0.0
 11
174.8866122777402
 21
217.7478090502146
 31
0.0
  0
LINE
  5
5DE
330
47A
100
AcDbEntity
  8
BEM
 62
     0
370
    -2
100
AcDbLine
 10
176.8866122777402
 20
224.7478090502145
 30
0.0
 11
176.8866122777402
 21
231.7478090502146
 31
0.0
  0
LINE
  5
5DF
330
47A
100
AcDbEntity
  8
BEM
 62
     0
370
    -2
100
AcDbLine
 10
176.8866122777402
 20
204.7478090502146
 30
0.0
 11
176.8866122777401
 21
170.8144757168811
 31
0.0
  0
LINE
  5
5E0
330
47A
100
AcDbEntity
  8
BEM
 62
     0
370
    -2
100
AcDbLine
 10
176.8866122777402
 20
217.7478090502146
 30
0.0
 11
176.8866122777402
 21
211.7478090502145
 31
0.0
  0
SOLID
  5
5E1
330
47A
100
AcDbEntity
  8
BEM
 62
     0
100
AcDbTrace
 10
175.7199456110735
 20
224.7478090502145
 30
0.0
 11
178.0532789444068
 21
224.7478090502145
 31
0.0
 12
176.8866122777402
 22
217.7478090502146
 32
0.0
 13
176.8866122777402
 23
217.7478090502146
 33
0.0
  0
SOLID
  5
5E2
330
47A
100
AcDbEntity
  8
BEM
 62
     0
100
AcDbTrace
 10
175.7199456110735
 20
204.7478090502146
 30
0.0
 11
178.0532789444068
 21
204.7478090502146
 31
0.0
 12
176.8866122777402
 22
211.7478090502145
 32
0.0
 13
176.8866122777402
 23
211.7478090502145
 33
0.0
  0
MTEXT
  5
5E3
330
47A
100
AcDbEntity
  8
BEM
 62
     1
100
AcDbMText
 10
170.3866122777401
 20
183.0144757168812
 30
0.0
 40
7.0
 41
0.0
 71
     5
 72
     1
  1
\A1;6x%%c6
 11
0.0000000000000001
 21
1.0
 31
0.0
 73
     1
 44
1.0
  0
POINT
  5
5E4
330
47A
100
AcDbEntity
  8
DEFPOINTS
 62
     0
100
AcDbPoint
 10
215.8510783718075
 20
211.7478090502145
 30
0.0
  0
POINT
  5
5E5
330
47A
100
AcDbEntity
  8
DEFPOINTS
 62
     0
100
AcDbPoint
 10
215.8510783718071
 20
217.7478090502145
 30
0.0
  0
POINT
  5
5E6
330
47A
100
AcDbEntity
  8
DEFPOINTS
 62
     0
100
AcDbPoint
 10
176.8866122777402
 20
217.7478090502146
 30
0.0
  0
ENDBLK
  5
487
330
47A
100
AcDbEntity
  8
0
100
AcDbBlockEnd
  0
BLOCK
  5
4A2
330
497
100
AcDbEntity
  8
0
100
AcDbBlockBegin
  2
*D4
 70
     1
 10
0.0
 20
0.0
 30
0.0
  3
*D4
  1

  0
LINE
  5
59D
330
497
100
AcDbEntity
  8
BEM
 62
     0
370
    -2
100
AcDbLine
 10
215.6795054965537
 20
228.7478090502145
 30
0.0
 11
239.8510783718067
 21
228.7478090502145
 31
0.0
  0
LINE
  5
59E
330
497
100
AcDbEntity
  8
BEM
 62
     0
370
    -2
100
AcDbLine
 10
215.6795054965535
 20
520.7478090502148
 30
0.0
 11
239.8510783718068
 21
520.7478090502148
 31
0.0
  0
LINE
  5
59F
330
497
100
AcDbEntity
  8
BEM
 62
     0
370
    -2
100
AcDbLine
 10
237.8510783718067
 20
235.7478090502145
 30
0.0
 11
237.8510783718068
 21
513.7478090502147
 31
0.0
  0
SOLID
  5
5A0
330
497
100
AcDbEntity
  8
BEM
 62
     0
100
AcDbTrace
 10
236.68441170514
 20
235.7478090502145
 30
0.0
 11
239.0177450384733
 21
235.7478090502145
 31
0.0
 12
237.8510783718067
 22
228.7478090502145
 32
0.0
 13
237.8510783718067
 23
228.7478090502145
 33
0.0
  0
SOLID
  5
5A1
330
497
100
AcDbEntity
  8
BEM
 62
     0
100
AcDbTrace
 10
236.6844117051401
 20
513.7478090502147
 30
0.0
 11
239.0177450384734
 21
513.7478090502147
 31
0.0
 12
237.8510783718068
 22
520.7478090502148
 32
0.0
 13
237.8510783718068
 23
520.7478090502148
 33
0.0
  0
MTEXT
  5
5A2
330
497
100
AcDbEntity
  8
BEM
 62
     1
100
AcDbMText
 10
231.3510783718067
 20
374.7478090502146
 30
0.0
 40
7.0
 41
0.0
 71
     5
 72
     1
  1
\A1;%%c292
 11
0.0000000000000001
 21
1.0
 31
0.0
 73
     1
 44
1.0
  0
POINT
  5
5A3
330
497
100
AcDbEntity
  8
DEFPOINTS
 62
     0
100
AcDbPoint
 10
213.6795054965537
 20
228.7478090502145
 30
0.0
  0
POINT
  5
5A4
330
497
100
AcDbEntity
  8
DEFPOINTS
 62
     0
100
AcDbPoint
 10
213.6795054965535
 20
520.7478090502148
 30
0.0
  0
POINT
  5
5A5
330
497
100
AcDbEntity
  8
DEFPOINTS
 62
     0
100
AcDbPoint
 10
237.8510783718068
 20
520.7478090502148
 30
0.0
  0
ENDBLK
  5
4A3
330
497
100
AcDbEntity
  8
0
100
AcDbBlockEnd
  0
BLOCK
  5
4AF
330
4A4
100
AcDbEntity
  8
0
100
AcDbBlockBegin
  2
*D5
 70
     1
 10
0.0
 20
0.0
 30
0.0
  3
*D5
  1

  0
LINE
  5
594
330
4A4
100
AcDbEntity
  8
BEM
 62
     0
370
    -2
100
AcDbLine
 10
219.8510783718061
 20
204.7478090502145
 30
0.0
 11
271.8510783718068
 21
204.7478090502145
 31
0.0
  0
LINE
  5
595
330
4A4
100
AcDbEntity
  8
BEM
 62
     0
370
    -2
100
AcDbLine
 10
219.8510783718075
 20
544.747809050215
 30
0.0
 11
271.8510783718069
 21
544.7478090502149
 31
0.0
  0
LINE
  5
596
330
4A4
100
AcDbEntity
  8
BEM
 62
     0
370
    -2
100
AcDbLine
 10
269.8510783718068
 20
211.7478090502145
 30
0.0
 11
269.8510783718069
 21
537.7478090502148
 31
0.0
  0
SOLID
  5
597
330
4A4
100
AcDbEntity
  8
BEM
 62
     0
100
AcDbTrace
 10
268.6844117051401
 20
211.7478090502145
 30
0.0
 11
271.0177450384735
 21
211.7478090502145
 31
0.0
 12
269.8510783718068
 22
204.7478090502145
 32
0.0
 13
269.8510783718068
 23
204.7478090502145
 33
0.0
  0
SOLID
  5
598
330
4A4
100
AcDbEntity
  8
BEM
 62
     0
100
AcDbTrace
 10
268.6844117051402
 20
537.7478090502148
 30
0.0
 11
271.0177450384736
 21
537.7478090502148
 31
0.0
 12
269.8510783718069
 22
544.7478090502149
 32
0.0
 13
269.8510783718069
 23
544.7478090502149
 33
0.0
  0
MTEXT
  5
599
330
4A4
100
AcDbEntity
  8
BEM
 62
     1
100
AcDbMText
 10
263.3510783718068
 20
374.7478090502148
 30
0.0
 40
7.0
 41
0.0
 71
     5
 72
     1
  1
\A1;%%c340
 11
0.0000000000000001
 21
1.0
 31
0.0
 73
     1
 44
1.0
  0
POINT
  5
59A
330
4A4
100
AcDbEntity
  8
DEFPOINTS
 62
     0
100
AcDbPoint
 10
217.8510783718061
 20
204.7478090502145
 30
0.0
  0
POINT
  5
59B
330
4A4
100
AcDbEntity
  8
DEFPOINTS
 62
     0
100
AcDbPoint
 10
217.8510783718075
 20
544.747809050215
 30
0.0
  0
POINT
  5
59C
330
4A4
100
AcDbEntity
  8
DEFPOINTS
 62
     0
100
AcDbPoint
 10
269.8510783718069
 20
544.7478090502149
 30
0.0
  0
ENDBLK
  5
4B0
330
4A4
100
AcDbEntity
  8
0
100
AcDbBlockEnd
  0
BLOCK
  5
4BC
330
4B1
100
AcDbEntity
  8
0
100
AcDbBlockBegin
  2
*D6
 70
     1
 10
0.0
 20
0.0
 30
0.0
  3
*D6
  1

  0
LINE
  5
58B
330
4B1
100
AcDbEntity
  8
BEM
 62
     0
370
    -2
100
AcDbLine
 10
224.851078371807
 20
214.7478090502145
 30
0.0
 11
255.8510783718067
 21
214.7478090502145
 31
0.0
  0
LINE
  5
58C
330
4B1
100
AcDbEntity
  8
BEM
 62
     0
370
    -2
100
AcDbLine
 10
224.851078371807
 20
534.7478090502147
 30
0.0
 11
255.8510783718067
 21
534.7478090502147
 31
0.0
  0
LINE
  5
58D
330
4B1
100
AcDbEntity
  8
BEM
 62
     0
370
    -2
100
AcDbLine
 10
253.8510783718067
 20
221.7478090502145
 30
0.0
 11
253.8510783718067
 21
527.7478090502147
 31
0.0
  0
SOLID
  5
58E
330
4B1
100
AcDbEntity
  8
BEM
 62
     0
100
AcDbTrace
 10
252.68441170514
 20
221.7478090502145
 30
0.0
 11
255.0177450384734
 21
221.7478090502145
 31
0.0
 12
253.8510783718067
 22
214.7478090502145
 32
0.0
 13
253.8510783718067
 23
214.7478090502145
 33
0.0
  0
SOLID
  5
58F
330
4B1
100
AcDbEntity
  8
BEM
 62
     0
100
AcDbTrace
 10
252.6844117051401
 20
527.7478090502147
 30
0.0
 11
255.0177450384734
 21
527.7478090502147
 31
0.0
 12
253.8510783718067
 22
534.7478090502147
 32
0.0
 13
253.8510783718067
 23
534.7478090502147
 33
0.0
  0
MTEXT
  5
590
330
4B1
100
AcDbEntity
  8
BEM
 62
     1
100
AcDbMText
 10
247.3510783718066
 20
374.7478090502146
 30
0.0
 40
7.0
 41
0.0
 71
     5
 72
     1
  1
\A1;%%c320
 11
0.0000000000000001
 21
1.0
 31
0.0
 73
     1
 44
1.0
  0
POINT
  5
591
330
4B1
100
AcDbEntity
  8
DEFPOINTS
 62
     0
100
AcDbPoint
 10
222.851078371807
 20
214.7478090502145
 30
0.0
  0
POINT
  5
592
330
4B1
100
AcDbEntity
  8
DEFPOINTS
 62
     0
100
AcDbPoint
 10
222.851078371807
 20
534.7478090502147
 30
0.0
  0
POINT
  5
593
330
4B1
100
AcDbEntity
  8
DEFPOINTS
 62
     0
100
AcDbPoint
 10
253.8510783718067
 20
534.7478090502147
 30
0.0
  0
ENDBLK
  5
4BD
330
4B1
100
AcDbEntity
  8
0
100
AcDbBlockEnd
  0
ENDSEC
  0
SECTION
  2
ENTITIES
  0
LINE
  5
57
330
1E
100
AcDbEntity
  8
STEMPEL
100
AcDbLine
 10
410.0
 20
110.0
 30
0.0
 11
29.99999999999997
 21
110.0
 31
0.0
  0
LINE
  5
58
330
1E
100
AcDbEntity
  8
STEMPEL
100
AcDbLine
 10
136.0000000000001
 20
109.9999999999999
 30
0.0
 11
136.0
 21
9.999999999999971
 31
0.0
  0
LINE
  5
59
330
1E
100
AcDbEntity
  8
STEMPEL
100
AcDbLine
 10
220.0
 20
110.0
 30
0.0
 11
220.0
 21
9.999999999999971
 31
0.0
  0
LINE
  5
5A
330
1E
100
AcDbEntity
  8
STEMPEL
100
AcDbLine
 10
332.0
 20
109.9999999999997
 30
0.0
 11
332.0
 21
40.0
 31
0.0
  0
LINE
  5
5B
330
1E
100
AcDbEntity
  8
STEMPEL
100
AcDbLine
 10
135.9999999999999
 20
29.99999999999997
 30
0.0
 11
29.99999999999997
 21
29.99999999999997
 31
0.0
  0
LINE
  5
5C
330
1E
100
AcDbEntity
  8
STEMPEL
100
AcDbLine
 10
410.0
 20
40.0
 30
0.0
 11
136.0000000000001
 21
39.99999999999997
 31
0.0
  0
LINE
  5
5D
330
1E
100
AcDbEntity
  8
STEMPEL
100
AcDbLine
 10
410.0
 20
80.0
 30
0.0
 11
136.0000000000001
 21
79.99999999999994
 31
0.0
  0
LINE
  5
5E
330
1E
100
AcDbEntity
  8
VOLL
100
AcDbLine
 10
44.00000000000008
 20
110.0
 30
0.0
 11
43.99999999999997
 21
9.999999999999971
 31
0.0
  0
LINE
  5
5F
330
1E
100
AcDbEntity
  8
VOLL
100
AcDbLine
 10
94.00000000000011
 20
109.9999999999999
 30
0.0
 11
94.0
 21
9.999999999999971
 31
0.0
  0
LINE
  5
60
330
1E
100
AcDbEntity
  8
VOLL
100
AcDbLine
 10
114.0000000000001
 20
109.9999999999999
 30
0.0
 11
114.0
 21
9.999999999999971
 31
0.0
  0
LINE
  5
61
330
1E
100
AcDbEntity
  8
VOLL
100
AcDbLine
 10
154.0000000000001
 20
79.99999999999994
 30
0.0
 11
154.0000000000001
 21
39.99999999999997
 31
0.0
  0
LINE
  5
62
330
1E
100
AcDbEntity
  8
VOLL
100
AcDbLine
 10
180.0000000000001
 20
109.9999999999998
 30
0.0
 11
180.0
 21
39.99999999999997
 31
0.0
  0
LINE
  5
63
330
1E
100
AcDbEntity
  8
HILF
100
AcDbLine
 10
30.00000000000009
 20
100.0
 30
0.0
 11
136.0000000000001
 21
100.0
 31
0.0
  0
LINE
  5
64
330
1E
100
AcDbEntity
  8
HILF
100
AcDbLine
 10
30.00000000000009
 20
90.00000000000005
 30
0.0
 11
136.0000000000001
 21
90.00000000000005
 31
0.0
  0
LINE
  5
65
330
1E
100
AcDbEntity
  8
HILF
100
AcDbLine
 10
30.00000000000009
 20
79.99999999999994
 30
0.0
 11
136.0000000000001
 21
79.99999999999994
 31
0.0
  0
LINE
  5
66
330
1E
100
AcDbEntity
  8
HILF
100
AcDbLine
 10
30.00000000000009
 20
69.99999999999994
 30
0.0
 11
136.0000000000001
 21
69.99999999999994
 31
0.0
  0
LINE
  5
67
330
1E
100
AcDbEntity
  8
HILF
100
AcDbLine
 10
30.00000000000009
 20
59.99999999999997
 30
0.0
 11
136.0000000000001
 21
59.99999999999997
 31
0.0
  0
LINE
  5
68
330
1E
100
AcDbEntity
  8
HILF
100
AcDbLine
 10
30.00000000000009
 20
49.99999999999997
 30
0.0
 11
136.0000000000001
 21
49.99999999999997
 31
0.0
  0
LINE
  5
69
330
1E
100
AcDbEntity
  8
HILF
100
AcDbLine
 10
30.00000000000009
 20
39.99999999999997
 30
0.0
 11
136.0000000000001
 21
39.99999999999997
 31
0.0
  0
LINE
  5
6A
330
1E
100
AcDbEntity
  8
HILF
100
AcDbLine
 10
136.0000000000001
 20
69.99999999999994
 30
0.0
 11
220.0
 21
69.99999999999994
 31
0.0
  0
LINE
  5
6B
330
1E
100
AcDbEntity
  8
HILF
100
AcDbLine
 10
136.0000000000001
 20
59.99999999999997
 30
0.0
 11
220.0
 21
59.99999999999997
 31
0.0
  0
LINE
  5
6C
330
1E
100
AcDbEntity
  8
HILF
100
AcDbLine
 10
136.0000000000001
 20
49.99999999999997
 30
0.0
 11
220.0
 21
49.99999999999997
 31
0.0
  0
LINE
  5
6D
330
1E
100
AcDbEntity
  8
HILF
100
AcDbLine
 10
224.7736801096948
 20
84.03758247564139
 30
0.0
 11
324.8353916556311
 21
84.03758247564139
 31
0.0
  0
LINE
  5
6E
330
1E
100
AcDbEntity
  8
HILF
100
AcDbLine
 10
224.7736801096948
 20
69.99999999999994
 30
0.0
 11
324.835391655631
 21
69.99999999999994
 31
0.0
  0
LINE
  5
6F
330
1E
100
AcDbEntity
  8
HILF
100
AcDbLine
 10
224.7736801096948
 20
59.99999999999997
 30
0.0
 11
324.835391655631
 21
59.99999999999997
 31
0.0
  0
LINE
  5
70
330
1E
100
AcDbEntity
  8
HILF
100
AcDbLine
 10
224.7736801096948
 20
49.99999999999997
 30
0.0
 11
324.835391655631
 21
49.99999999999997
 31
0.0
  0
LINE
  5
71
330
1E
100
AcDbEntity
  8
VOLL
100
AcDbLine
 10
332.0
 20
60.0
 30
0.0
 11
410.0
 21
60.0
 31
0.0
  0
LINE
  5
72
330
1E
100
AcDbEntity
  8
HILF
100
AcDbLine
 10
336.7238616296993
 20
83.77983636955827
 30
0.0
 11
404.8588839326728
 21
83.77983636955827
 31
0.0
  0
LINE
  5
73
330
1E
100
AcDbEntity
  8
HILF
100
AcDbLine
 10
223.4909699289885
 20
14.89398258028314
 30
0.0
 11
404.8588839326728
 21
14.89398258028314
 31
0.0
  0
TEXT
  5
74
330
1E
100
AcDbEntity
  8
TEXT
100
AcDbText
 10
59.34071736793199
 20
18.67381894984132
 30
0.0
 40
4.0
  1
Änderung
 41
0.8
  7
GREEKS
 72
     1
 11
70.08357451078913
 21
18.67381894984132
 31
0.0
100
AcDbText
  0
TEXT
  5
75
330
1E
100
AcDbEntity
  8
TEXT
100
AcDbText
 10
143.5163572150377
 20
102.4620895087088
 30
0.0
 40
5.0
  1
Maßstab
 41
0.8
  7
GREEKS
100
AcDbText
  0
TEXT
  5
76
330
1E
100
AcDbEntity
  8
TEXT
100
AcDbText
 10
184.2858954734051
 20
102.4184168434819
 30
0.0
 40
5.0
  1
Zul. Abw.
 41
0.8
  7
GREEKS
100
AcDbText
  0
TEXT
  5
77
330
1E
100
AcDbEntity
  8
TEXT
100
AcDbText
 10
224.877940380901
 20
102.5489328011779
 30
0.0
 40
5.0
  1
Benennung
 41
0.8
  7
GREEKS
100
AcDbText
  0
TEXT
  5
78
330
1E
100
AcDbEntity
  8
TEXT
100
AcDbText
 10
336.178754957634
 20
102.3132034537136
 30
0.0
 40
5.0
  1
Zeichnungs Nr.
 41
0.8
  7
GREEKS
100
AcDbText
  0
TEXT
  5
79
330
1E
100
AcDbEntity
  8
TEXT
100
AcDbText
 10
224.742238391136
 20
30.84560570193057
 30
0.0
 40
5.0
  1
Bauvorhaben
 41
0.8
  7
GREEKS
100
AcDbText
  0
TEXT
  5
7A
330
1E
100
AcDbEntity
  8
TEXT
100
AcDbText
 10
336.7238616296993
 20
73.1811823709997
 30
0.0
 40
5.0
  1
Ersatz für:
 41
0.8
  7
GREEKS
100
AcDbText
  0
TEXT
  5
7B
330
1E
100
AcDbEntity
  8
TEXT
100
AcDbText
 10
38.26641107045757
 20
13.65465846027192
 30
0.0
 40
4.0
  1
Index
 50
90.0
 41
0.8
  7
GREEKS
100
AcDbText
  0
TEXT
  5
7C
330
1E
100
AcDbEntity
  8
TEXT
100
AcDbText
 10
100.0934676075481
 20
18.6715626933981
 30
0.0
 40
4.0
  1
Tag
 41
0.8
  7
GREEKS
 72
     1
 11
103.8268009408814
 21
18.6715626933981
 31
0.0
100
AcDbText
  0
TEXT
  5
7D
330
1E
100
AcDbEntity
  8
TEXT
100
AcDbText
 10
119.0122744386592
 20
18.59324216966408
 30
0.0
 40
4.0
  1
Name
 41
0.8
  7
GREEKS
 72
     1
 11
125.3360839624688
 21
18.59324216966408
 31
0.0
100
AcDbText
  0
TEXT
  5
7E
330
1E
100
AcDbEntity
  8
TEXT
100
AcDbText
 10
162.3311673153651
 20
73.31880501229926
 30
0.0
 40
4.0
  1
Tag
 41
0.8
  7
GREEKS
100
AcDbText
  0
TEXT
  5
7F
330
1E
100
AcDbEntity
  8
TEXT
100
AcDbText
 10
192.4626584226295
 20
73.30961091915225
 30
0.0
 40
4.0
  1
Name
 41
0.8
  7
GREEKS
100
AcDbText
  0
TEXT
  5
80
330
1E
100
AcDbEntity
  8
TEXT
100
AcDbText
 10
137.5836127167615
 20
63.62990369617964
 30
0.0
 40
4.0
  1
Gez.
 41
0.8
  7
GREEKS
100
AcDbText
  0
TEXT
  5
81
330
1E
100
AcDbEntity
  8
TEXT
100
AcDbText
 10
137.5515086571672
 20
53.68926291428377
 30
0.0
 40
4.0
  1
Gepr.
 41
0.8
  7
GREEKS
100
AcDbText
  0
TEXT
  5
82
330
1E
100
AcDbEntity
  8
TEXT
100
AcDbText
 10
137.6006777387304
 20
43.52946389649807
 30
0.0
 40
4.0
  1
Norm.
 41
0.8
  7
GREEKS
100
AcDbText
  0
LINE
  5
83
330
1E
100
AcDbEntity
  8
STEMPEL
100
AcDbLine
 10
39.99999999999989
 20
10.0
 30
0.0
 11
410.0
 21
10.0
 31
0.0
  0
TEXT
  5
84
330
1E
100
AcDbEntity
  8
TEXT
100
AcDbText
 10
337.2400861497006
 20
52.07416177878602
 30
0.0
 40
5.0
  1
ersetzt durch:
 41
0.8
  7
GREEKS
100
AcDbText
  0
LINE
  5
85
330
1E
100
AcDbEntity
  8
STEMPEL
100
AcDbLine
 10
410.0
 20
10.0
 30
0.0
 11
29.99999999999989
 21
10.0
 31
0.0
  0
LINE
  5
86
330
1E
100
AcDbEntity
  8
STEMPEL
100
AcDbLine
 10
410.0
 20
10.0
 30
0.0
 11
410.0
 21
584.0
 31
0.0
  0
LINE
  5
87
330
1E
100
AcDbEntity
  8
STEMPEL
100
AcDbLine
 10
30.0
 20
10.0
 30
0.0
 11
29.99999999999989
 21
584.0
 31
0.0
  0
LINE
  5
88
330
1E
100
AcDbEntity
  8
STEMPEL
100
AcDbLine
 10
410.0
 20
584.0
 30
0.0
 11
29.99999999999989
 21
584.0
 31
0.0
  0
LINE
  5
89
330
1E
100
AcDbEntity
  8
HILF
100
AcDbLine
 10
0.0
 20
0.0
 30
0.0
 11
-0.0000000000001137
 21
594.0
 31
0.0
  0
LINE
  5
8A
330
1E
100
AcDbEntity
  8
HILF
100
AcDbLine
 10
419.9999999999999
 20
594.0000000000002
 30
0.0
 11
0.0
 21
594.0
 31
0.0
  0
LINE
  5
8B
330
1E
100
AcDbEntity
  8
HILF
100
AcDbLine
 10
420.0
 20
0.0
 30
0.0
 11
0.0
 21
0.0
 31
0.0
  0
LINE
  5
8C
330
1E
100
AcDbEntity
  8
HILF
100
AcDbLine
 10
31.08767135713856
 20
297.0
 30
0.0
 11
0.0000000000001137
 21
297.0
 31
0.0
  0
TEXT
  5
8D
330
1E
100
AcDbEntity
  8
TEXT
100
AcDbText
 10
138.622109822104
 20
73.14025471151666
 30
0.0
 40
4.0
  1
2008
 41
0.8
  7
GREEKS
100
AcDbText
  0
LINE
  5
8E
330
1E
100
AcDbEntity
  8
HILF
100
AcDbLine
 10
420.0
 20
-0.0000000000001137
 30
0.0
 11
419.9999999999999
 21
594.0
 31
0.0
  0
TEXT
  5
8F
330
1E
100
AcDbEntity
  8
VOLL
100
AcDbText
 10
78.07675471698113
 20
31.02594776470585
 30
0.0
 40
1.8
  1

  7
GREEKS
100
AcDbText
  0
TEXT
  5
90
330
1E
100
AcDbEntity
  8
TEXT
100
AcDbText
 10
31.85509950977675
 20
111.6719999999999
 30
0.0
 40
5.0
  1
Erstellt mit AUTOCAD 2004
 41
0.8
  7
GREEKS
100
AcDbText
  0
TEXT
  5
91
330
1E
100
AcDbEntity
  8
TEXT
100
AcDbText
 10
194.4216048581257
 20
63.0896391972351
 30
0.0
 40
4.0
  1
Koeh
 41
0.8
  7
GREEKS
 72
     1
 11
199.6787477152685
 21
63.0896391972351
 31
0.0
100
AcDbText
  0
TEXT
  5
92
330
1E
100
AcDbEntity
  8
TEXT
 62
     1
100
AcDbText
 10
347.6002382460204
 20
88.14901428913959
 30
0.0
 40
7.0
  1
21910100W
 41
0.8
  7
GREEKS
 72
     1
 11
370.0002382460203
 21
88.14901428913959
 31
0.0
100
AcDbText
  0
TEXT
  5
93
330
1E
100
AcDbEntity
  8
TEXT
 62
     1
100
AcDbText
 10
150.5006306481887
 20
88.14901428913959
 30
0.0
 40
7.0
  1
1:2
 41
0.8
  7
GREEKS
100
AcDbText
  0
TEXT
  5
94
330
1E
100
AcDbEntity
  8
TEXT
100
AcDbText
 10
160.7037590129979
 20
63.10765040825732
 30
0.0
 40
4.0
  1
16.06.
 41
0.8
  7
GREEKS
 72
     1
 11
167.4085209177598
 21
63.10765040825732
 31
0.0
100
AcDbText
  0
TEXT
  5
95
330
1E
100
AcDbEntity
  8
TEXT
 62
     1
100
AcDbText
 10
226.8935731057402
 20
87.41748789253779
 30
0.0
 40
7.0
  1
Befestigungsflansch
 41
0.8
  7
GREEKS
100
AcDbText
  0
TEXT
  5
96
330
1E
100
AcDbEntity
  8
TEXT
100
AcDbText
 10
225.1296391125315
 20
71.50334417585288
 30
0.0
 40
5.0
  1
für Flachdachabläufe DN100
 41
0.8
  7
GREEKS
100
AcDbText
  0
TEXT
  5
98
330
1E
100
AcDbEntity
  8
TEXT
100
AcDbText
 10
225.1296391125315
 20
51.64011943042158
 30
0.0
 40
5.0
  1
EDV-art.Nr. 21910.100X
 41
0.8
  7
GREEKS
100
AcDbText
  0
TEXT
  5
99
330
1E
100
AcDbEntity
  8
TEXT
100
AcDbText
 10
224.9837501577827
 20
42.62974153022632
 30
0.0
 40
4.0
  1
21910100w.DWG
 41
0.8
  7
GREEKS
100
AcDbText
  0
TEXT
  5
9A
330
1E
100
AcDbEntity
  8
TEXT
100
AcDbText
 10
182.4737512557031
 20
90.76363841023022
 30
0.0
 40
4.0
  1
DIN6932-2-m
 41
0.8
  7
GREEKS
 72
     1
 11
199.6166083985602
 21
90.76363841023022
 31
0.0
100
AcDbText
  0
INSERT
  5
9B
330
1E
100
AcDbEntity
  8
STEMPEL
100
AcDbBlockReference
  2
LOGO
 10
140.9955485457794
 20
45.02105276448322
 30
0.0
 41
2.0
 42
2.0
 43
2.0
  0
TEXT
  5
118
330
1E
100
AcDbEntity
  8
BEM
100
AcDbText
 10
417.3022923857165
 20
10.16790107998849
 30
0.0
 40
4.0
  1
Diese Zeichnung ist urheberrechtlich geschützt und bleibt unser Eigentum. Sie darf weder ganz noch teilweise verfielfältigt und nicht an Dritte weitergegeben werden.
 50
90.0
 41
0.8
  7
GREEKS
100
AcDbText
  0
TEXT
  5
211
330
1E
100
AcDbEntity
  8
TEXT
 62
     1
100
AcDbText
 10
229.9967655460953
 20
123.6556630368854
 30
0.0
 40
7.0
  1
Werkstoff: sendzimier verzinktes Blech
 41
0.8
  7
GREEKS
100
AcDbText
  0
MTEXT
  5
42E
330
1E
100
AcDbEntity
  8
BEM
 62
     1
100
AcDbMText
 10
120.6094094876825
 20
535.2728447335677
 30
0.0
 40
7.0
 41
0.0
 71
     9
 72
     1
  1
\A1;
  7
GREEKS
 73
     1
 44
1.0
  0
DIMENSION
  5
42F
330
1E
100
AcDbEntity
  8
BEM
100
AcDbDimension
  2
*D1
 10
215.8510783718075
 20
559.0394927247432
 30
0.0
 11
196.9844117051408
 21
565.5394927247432
 31
0.0
 70
    32
 71
     5
 42
1.999999999999516
  3
Standard
100
AcDbAlignedDimension
 13
217.8510783718071
 23
544.747809050215
 33
0.0
 14
215.8510783718075
 24
544.747809050215
 34
0.0
100
AcDbRotatedDimension
1001
ACAD
1000
DSTYLE
1002
{
1070
    40
1040
2.0
1070
    41
1040
3.5
1070
    42
1040
1.0
1070
    43
1040
7.0
1070
    44
1040
1.0
1070
    73
1070
     0
1070
    74
1070
     0
1070
    77
1070
     1
1070
    78
1070
     8
1070
    79
1070
     2
1070
   140
1040
3.5
1070
   141
1040
1.5
1070
   146
1040
0.5142857142857144
1070
   147
1040
1.5
1070
   172
1070
     1
1070
   178
1070
     1
1070
   179
1070
     2
1070
   271
1070
     2
1070
   272
1070
     2
1070
   284
1070
     8
1070
   285
1070
     8
1070
   286
1070
     8
1002
}
  0
LINE
  5
430
330
1E
100
AcDbEntity
  8
MITTEL
100
AcDbLine
 10
207.8866122777404
 20
374.7478090502148
 30
0.0
 11
222.8510783718066
 21
374.7478090502148
 31
0.0
  0
DIMENSION
  5
431
330
1E
100
AcDbEntity
  8
BEM
100
AcDbDimension
  2
*D2
 10
212.8866122777401
 20
147.7289470748512
 30
0.0
 11
194.0199456110734
 21
154.2289470748512
 31
0.0
 70
    32
  1
5
 71
     5
 42
4.964466094066892
  3
Standard
100
AcDbAlignedDimension
 13
217.8510783718071
 23
204.7478090502147
 33
0.0
 14
212.8866122777401
 24
227.3335954878414
 34
0.0
 50
180.0
100
AcDbRotatedDimension
1001
ACAD
1000
DSTYLE
1002
{
1070
    40
1040
2.0
1070
    41
1040
3.5
1070
    42
1040
1.0
1070
    43
1040
7.0
1070
    44
1040
1.0
1070
    73
1070
     0
1070
    74
1070
     0
1070
    77
1070
     1
1070
    78
1070
     8
1070
    79
1070
     2
1070
   140
1040
3.5
1070
   141
1040
1.5
1070
   146
1040
0.5142857142857144
1070
   147
1040
1.5
1070
   172
1070
     1
1070
   178
1070
     1
1070
   179
1070
     2
1070
   271
1070
     2
1070
   272
1070
     2
1070
   284
1070
     8
1070
   285
1070
     8
1070
   286
1070
     8
1002
}
  0
DIMENSION
  5
433
330
1E
100
AcDbEntity
  8
BEM
100
AcDbDimension
  2
*D3
 10
176.8866122777402
 20
217.7478090502146
 30
0.0
 11
176.8866122777401
 21
183.0144757168812
 31
0.0
 70
   160
  1
6x%%c<>
 71
     5
 42
6.0
  3
Standard
100
AcDbAlignedDimension
 13
215.8510783718075
 23
211.7478090502145
 33
0.0
 14
215.8510783718071
 24
217.7478090502145
 34
0.0
 50
90.0
100
AcDbRotatedDimension
1001
ACAD
1000
DSTYLE
1002
{
1070
    40
1040
2.0
1070
    41
1040
3.5
1070
    42
1040
1.0
1070
    43
1040
7.0
1070
    44
1040
1.0
1070
    73
1070
     0
1070
    74
1070
     0
1070
    77
1070
     1
1070
    78
1070
     8
1070
    79
1070
     2
1070
   140
1040
3.5
1070
   141
1040
1.5
1070
   146
1040
0.5142857142857144
1070
   147
1040
1.5
1070
   172
1070
     1
1070
   178
1070
     1
1070
   179
1070
     2
1070
   271
1070
     2
1070
   272
1070
     2
1070
   284
1070
     8
1070
   285
1070
     8
1070
   286
1070
     8
1002
}
  0
LINE
  5
436
330
1E
100
AcDbEntity
  8
STEMPEL
100
AcDbLine
 10
212.8866122777401
 20
227.3335954878414
 30
0.0
 11
212.8866122777404
 21
522.1620226125878
 31
0.0
  0
LINE
  5
437
330
1E
100
AcDbEntity
  8
STEMPEL
100
AcDbLine
 10
213.6795054965537
 20
520.7478090502148
 30
0.0
 11
213.6795054965537
 21
228.7478090502145
 31
0.0
  0
LINE
  5
438
102
{ACAD_REACTORS
330
5C8
102
}
330
1E
100
AcDbEntity
  8
STEMPEL
100
AcDbLine
 10
217.8510783718071
 20
544.747809050215
 30
0.0
 11
217.8510783718061
 21
204.7478090502145
 31
0.0
  0
DIMENSION
  5
43A
330
1E
100
AcDbEntity
  8
BEM
100
AcDbDimension
  2
*D4
 10
237.8510783718068
 20
520.7478090502148
 30
0.0
 11
231.3510783718067
 21
374.7478090502146
 31
0.0
 70
    32
  1
%%c<>
 71
     5
 42
292.0000000000002
  3
Standard
100
AcDbAlignedDimension
 13
213.6795054965537
 23
228.7478090502145
 33
0.0
 14
213.6795054965535
 24
520.7478090502148
 34
0.0
 50
90.0
100
AcDbRotatedDimension
1001
ACAD
1000
DSTYLE
1002
{
1070
    40
1040
2.0
1070
    41
1040
3.5
1070
    42
1040
1.0
1070
    43
1040
7.0
1070
    44
1040
1.0
1070
    73
1070
     0
1070
    74
1070
     0
1070
    77
1070
     1
1070
    78
1070
     8
1070
    79
1070
     2
1070
   140
1040
3.5
1070
   141
1040
1.5
1070
   146
1040
0.5142857142857144
1070
   147
1040
1.5
1070
   172
1070
     1
1070
   178
1070
     1
1070
   179
1070
     2
1070
   271
1070
     2
1070
   272
1070
     2
1070
   284
1070
     8
1070
   285
1070
     8
1070
   286
1070
     8
1002
}
  0
DIMENSION
  5
43B
330
1E
100
AcDbEntity
  8
BEM
100
AcDbDimension
  2
*D5
 10
269.8510783718069
 20
544.7478090502149
 30
0.0
 11
263.3510783718068
 21
374.7478090502148
 31
0.0
 70
    32
  1
%%c<>
 71
     5
 42
340.0000000000004
  3
Standard
100
AcDbAlignedDimension
 13
217.8510783718061
 23
204.7478090502145
 33
0.0
 14
217.8510783718075
 24
544.747809050215
 34
0.0
 50
90.0
100
AcDbRotatedDimension
1001
ACAD
1000
DSTYLE
1002
{
1070
    40
1040
2.0
1070
    41
1040
3.5
1070
    42
1040
1.0
1070
    43
1040
7.0
1070
    44
1040
1.0
1070
    73
1070
     0
1070
    74
1070
     0
1070
    77
1070
     1
1070
    78
1070
     8
1070
    79
1070
     2
1070
   140
1040
3.5
1070
   141
1040
1.5
1070
   146
1040
0.5142857142857144
1070
   147
1040
1.5
1070
   172
1070
     1
1070
   178
1070
     1
1070
   179
1070
     2
1070
   271
1070
     2
1070
   272
1070
     2
1070
   284
1070
     8
1070
   285
1070
     8
1070
   286
1070
     8
1002
}
  0
DIMENSION
  5
43C
330
1E
100
AcDbEntity
  8
BEM
100
AcDbDimension
  2
*D6
 10
253.8510783718067
 20
534.7478090502147
 30
0.0
 11
247.3510783718066
 21
374.7478090502146
 31
0.0
 70
    32
  1
%%c<>
 71
     5
 42
320.0000000000002
  3
Standard
100
AcDbAlignedDimension
 13
222.851078371807
 23
214.7478090502145
 33
0.0
 14
222.851078371807
 24
534.7478090502147
 34
0.0
 50
90.0
100
AcDbRotatedDimension
1001
ACAD
1000
DSTYLE
1002
{
1070
    40
1040
2.0
1070
    41
1040
3.5
1070
    42
1040
1.0
1070
    43
1040
7.0
1070
    44
1040
1.0
1070
    73
1070
     0
1070
    74
1070
     0
1070
    77
1070
     1
1070
    78
1070
     8
1070
    79
1070
     2
1070
   140
1040
3.5
1070
   141
1040
1.5
1070
   146
1040
0.5142857142857144
1070
   147
1040
1.5
1070
   172
1070
     1
1070
   178
1070
     1
1070
   179
1070
     2
1070
   271
1070
     2
1070
   272
1070
     2
1070
   284
1070
     8
1070
   285
1070
     8
1070
   286
1070
     8
1002
}
  0
ARC
  5
43D
102
{ACAD_REACTORS
330
5C8
102
}
330
1E
100
AcDbEntity
  8
STEMPEL
100
AcDbCircle
 10
214.3866122777402
 20
227.3335954878414
 30
0.0
 40
1.5
100
AcDbArc
 50
135.0000000000069
 51
225.0
  0
LINE
  5
43E
102
{ACAD_REACTORS
330
5C8
102
}
330
1E
100
AcDbEntity
  8
STEMPEL
100
AcDbLine
 10
216.5330588871466
 20
225.8942556596214
 30
0.0
 11
213.6795054965537
 21
228.7478090502143
 31
0.0
  0
LINE
  5
43F
330
1E
100
AcDbEntity
  8
MITTEL
100
AcDbLine
 10
210.8510783718075
 20
214.7478090502147
 30
0.0
 11
222.851078371807
 21
214.7478090502145
 31
0.0
  0
LINE
  5
440
102
{ACAD_REACTORS
330
5C8
102
}
330
1E
100
AcDbEntity
  8
STEMPEL
100
AcDbLine
 10
215.8510783718075
 20
204.7478090502145
 30
0.0
 11
215.8510783718071
 21
222.7122751442819
 31
0.0
  0
LINE
  5
441
102
{ACAD_REACTORS
330
5C8
102
}
330
1E
100
AcDbEntity
  8
STEMPEL
100
AcDbLine
 10
215.8510783718075
 20
211.7478090502145
 30
0.0
 11
217.8510783718071
 21
211.7478090502148
 31
0.0
  0
LINE
  5
442
102
{ACAD_REACTORS
330
5C8
102
}
330
1E
100
AcDbEntity
  8
STEMPEL
100
AcDbLine
 10
215.8510783718075
 20
204.7478090502145
 30
0.0
 11
217.8510783718071
 21
204.7478090502147
 31
0.0
  0
LINE
  5
443
102
{ACAD_REACTORS
330
5C8
102
}
330
1E
100
AcDbEntity
  8
STEMPEL
100
AcDbLine
 10
215.1188453247737
 20
224.4800420972481
 30
0.0
 11
213.3259521059604
 21
226.2729353160614
 31
0.0
  0
ARC
  5
444
102
{ACAD_REACTORS
330
5C8
102
}
330
1E
100
AcDbEntity
  8
STEMPEL
100
AcDbCircle
 10
213.351078371807
 20
222.7122751442819
 30
0.0
 40
2.5
100
AcDbArc
 50
0.0
 51
45.0
  0
ARC
  5
445
102
{ACAD_REACTORS
330
5C8
102
}
330
1E
100
AcDbEntity
  8
STEMPEL
100
AcDbCircle
 10
213.351078371807
 20
222.7122751442819
 30
0.0
 40
4.5
100
AcDbArc
 50
0.0
 51
45.0
  0
LINE
  5
446
102
{ACAD_REACTORS
330
5C8
102
}
330
1E
100
AcDbEntity
  8
STEMPEL
100
AcDbLine
 10
215.8510783718075
 20
217.7478090502145
 30
0.0
 11
217.8510783718071
 21
217.7478090502148
 31
0.0
  0
LINE
  5
447
102
{ACAD_REACTORS
330
5C8
102
}
330
1E
100
AcDbEntity
  8
STEMPEL
100
AcDbLine
 10
213.3259521059604
 20
228.394255659621
 30
0.0
 11
213.6795054965537
 21
228.7478090502143
 31
0.0
  0
LINE
  5
448
102
{ACAD_REACTORS
330
5C8
102
}
330
1E
100
AcDbEntity
  8
STEMPEL
100
AcDbLine
 10
215.8510783718075
 20
544.7478090502147
 30
0.0
 11
215.8510783718071
 21
526.7833429561473
 31
0.0
  0
LINE
  5
449
102
{ACAD_REACTORS
330
5C8
102
}
330
1E
100
AcDbEntity
  8
STEMPEL
100
AcDbLine
 10
215.1188453247737
 20
525.0155760031809
 30
0.0
 11
213.3259521059604
 21
523.2226827843676
 31
0.0
  0
LINE
  5
44A
102
{ACAD_REACTORS
330
5C8
102
}
330
1E
100
AcDbEntity
  8
STEMPEL
100
AcDbLine
 10
216.5330588871466
 20
523.601362440808
 30
0.0
 11
213.6795054965537
 21
520.7478090502148
 31
0.0
  0
ARC
  5
44B
102
{ACAD_REACTORS
330
5C8
102
}
330
1E
100
AcDbEntity
  8
STEMPEL
100
AcDbCircle
 10
214.3866122777402
 20
522.1620226125878
 30
0.0
 40
1.5
100
AcDbArc
 50
135.0
 51
224.9999999999931
  0
LINE
  5
44C
102
{ACAD_REACTORS
330
5C8
102
}
330
1E
100
AcDbEntity
  8
STEMPEL
100
AcDbLine
 10
213.3259521059604
 20
521.1013624408081
 30
0.0
 11
213.6795054965537
 21
520.7478090502145
 31
0.0
  0
ARC
  5
44D
102
{ACAD_REACTORS
330
5C8
102
}
330
1E
100
AcDbEntity
  8
STEMPEL
100
AcDbCircle
 10
213.351078371807
 20
526.7833429561473
 30
0.0
 40
4.5
100
AcDbArc
 50
315.0
 51
0.0
  0
ARC
  5
44E
102
{ACAD_REACTORS
330
5C8
102
}
330
1E
100
AcDbEntity
  8
STEMPEL
100
AcDbCircle
 10
213.351078371807
 20
526.7833429561473
 30
0.0
 40
2.5
100
AcDbArc
 50
315.0
 51
0.0
  0
LINE
  5
44F
330
1E
100
AcDbEntity
  8
MITTEL
100
AcDbLine
 10
210.8510783718075
 20
534.7478090502145
 30
0.0
 11
222.851078371807
 21
534.7478090502147
 31
0.0
  0
LINE
  5
450
102
{ACAD_REACTORS
330
5C8
102
}
330
1E
100
AcDbEntity
  8
STEMPEL
100
AcDbLine
 10
215.8510783718075
 20
531.7478090502147
 30
0.0
 11
217.8510783718071
 21
531.7478090502145
 31
0.0
  0
LINE
  5
451
102
{ACAD_REACTORS
330
5C8
102
}
330
1E
100
AcDbEntity
  8
STEMPEL
100
AcDbLine
 10
215.8510783718075
 20
537.7478090502147
 30
0.0
 11
217.8510783718071
 21
537.7478090502145
 31
0.0
  0
LINE
  5
452
102
{ACAD_REACTORS
330
5C8
102
}
330
1E
100
AcDbEntity
  8
STEMPEL
100
AcDbLine
 10
215.8510783718075
 20
544.7478090502147
 30
0.0
 11
217.8510783718071
 21
544.7478090502145
 31
0.0
  0
HATCH
  5
5C8
330
1E
100
AcDbEntity
  8
SCHRAFF
100
AcDbHatch
 10
0.0
 20
0.0
 30
0.0
210
0.0
220
0.0
230
1.0
  2
_USER
 70
     0
 71
     1
 91
        4
 92
        7
 72
     0
 73
     1
 93
        4
 10
215.8510783718073
 20
537.7478090502147
 10
217.8510783718071
 20
537.7478090502146
 10
217.8510783718071
 20
544.7478090502146
 10
215.8510783718075
 20
544.7478090502149
 97
        4
330
452
330
448
330
451
330
438
 92
        7
 72
     1
 73
     1
 93
        9
 10
215.1188453247736
 20
525.0155760031808
 42
0.0
 10
213.3259521059604
 20
523.2226827843676
 42
0.4142135623729971
 10
213.32595210596
 20
521.1013624408084
 42
0.0
 10
213.6795054965535
 20
520.7478090502146
 42
0.0
 10
216.5330588871466
 20
523.601362440808
 42
0.198912367379648
 10
217.851078371807
 20
526.7833429561473
 42
0.0
 10
217.851078371807
 20
531.7478090502146
 42
0.0
 10
215.8510783718071
 20
531.7478090502147
 42
0.0
 10
215.8510783718071
 20
526.7833429561473
 42
-0.1989123673796718
 97
        9
330
438
330
450
330
448
330
44E
330
449
330
44B
330
44C
330
44A
330
44D
 92
        7
 72
     0
 73
     1
 93
        4
 10
215.8510783718075
 20
204.7478090502146
 10
217.8510783718062
 20
204.7478090502147
 10
217.8510783718063
 20
211.7478090502148
 10
215.8510783718073
 20
211.7478090502146
 97
        4
330
441
330
440
330
442
330
438
 92
        7
 72
     1
 73
     1
 93
        9
 10
217.8510783718062
 20
222.7122751442819
 42
0.1989123673797117
 10
216.5330588871457
 20
225.8942556596223
 42
0.0
 10
213.6795054965537
 20
228.7478090502143
 42
0.0
 10
213.3259521059604
 20
228.394255659621
 42
0.4142135623730678
 10
213.3259521059604
 20
226.2729353160614
 42
0.0
 10
215.1188453247737
 20
224.4800420972481
 42
-0.198912367379631
 10
215.8510783718071
 20
222.7122751442819
 42
0.0
 10
215.8510783718072
 20
217.7478090502146
 42
0.0
 10
217.8510783718062
 20
217.7478090502148
 42
0.0
 97
        9
330
445
330
43E
330
447
330
43D
330
443
330
444
330
440
330
446
330
438
 75
     0
 76
     0
 52
45.0
 41
2.0
 77
     0
 78
     1
 53
45.0
 43
0.0
 44
0.0
 45
-1.414213562373094
 46
1.414213562373095
 79
     0
 47
0.6283502970279461
 98
        4
 10
216.5211434497037
 20
540.3316527083916
 10
216.5211434497037
 20
526.5079463531114
 10
216.5211434497037
 20
207.9343446225832
 10
217.1498725687134
 20
221.7580509778634
  0
ENDSEC
  0
SECTION
  2
OBJECTS
  0
DICTIONARY
  5
C
330
0
100
AcDbDictionary
281
     1
  3
ACAD_COLOR
350
DF
  3
ACAD_GROUP
350
D
  3
ACAD_LAYOUT
350
19
  3
ACAD_MATERIAL
350
DE
  3
ACAD_MLINESTYLE
350
16
  3
ACAD_PLOTSETTINGS
350
18
  3
ACAD_PLOTSTYLENAME
350
E
  3
AcDbVariableDictionary
350
EA
  0
DICTIONARY
  5
A0
330
1E
100
AcDbDictionary
280
     1
281
     1
  3
ACAD_LAYOUTSELFREF
360
D4
  0
DICTIONARY
  5
A2
330
1A
100
AcDbDictionary
280
     1
281
     1
  3
ACAD_LAYOUTSELFREF
360
D3
  0
DICTIONARY
  5
DF
102
{ACAD_REACTORS
330
C
102
}
330
C
100
AcDbDictionary
281
     1
  0
DICTIONARY
  5
D
102
{ACAD_REACTORS
330
C
102
}
330
C
100
AcDbDictionary
281
     1
  0
DICTIONARY
  5
19
102
{ACAD_REACTORS
330
C
102
}
330
C
100
AcDbDictionary
281
     1
  3
Layout1
350
1D
  3
Model
350
21
  0
DICTIONARY
  5
DE
102
{ACAD_REACTORS
330
C
102
}
330
C
100
AcDbDictionary
281
     1
  0
DICTIONARY
  5
16
102
{ACAD_REACTORS
330
C
102
}
330
C
100
AcDbDictionary
281
     1
  3
Standard
350
17
  0
DICTIONARY
  5
18
102
{ACAD_REACTORS
330
C
102
}
330
C
100
AcDbDictionary
281
     1
  0
ACDBDICTIONARYWDFLT
  5
E
102
{ACAD_REACTORS
330
C
102
}
330
C
100
AcDbDictionary
281
     1
  3
Normal
350
F
100
AcDbDictionaryWithDefault
340
F
  0
DICTIONARY
  5
EA
102
{ACAD_REACTORS
330
C
102
}
330
C
100
AcDbDictionary
281
     1
  3
DIMASSOC
350
EB
  3
PROJECTNAME
350
EC
  0
XRECORD
  5
D4
102
{ACAD_REACTORS
330
A0
102
}
330
A0
100
AcDbXrecord
280
     1
340
1E
  0
XRECORD
  5
D3
102
{ACAD_REACTORS
330
A2
102
}
330
A2
100
AcDbXrecord
280
     1
340
1A
  0
LAYOUT
  5
1D
102
{ACAD_REACTORS
330
19
102
}
330
19
100
AcDbPlotSettings
  1

  2
\\NT_WORK01\HP LaserJet 5000 PCL 6
  4

  6

 40
0.0
 41
0.0
 42
0.0
 43
0.0
 44
0.0
 45
0.0
 46
0.0
 47
0.0
 48
0.0
 49
0.0
140
0.0
141
0.0
142
1.0
143
1.0
 70
   688
 72
     0
 73
     0
 74
     5
  7

 75
    16
147
1.0
 76
     0
 77
     2
 78
   300
148
0.0
149
0.0
100
AcDbLayout
  1
Layout1
 70
     0
 71
     1
 10
0.0
 20
0.0
 11
12.0
 21
9.0
 12
0.0
 22
0.0
 32
0.0
 14
1.000000000000000E+20
 24
1.000000000000000E+20
 34
1.000000000000000E+20
 15
-1.000000000000000E+20
 25
-1.000000000000000E+20
 35
-1.000000000000000E+20
146
0.0
 13
0.0
 23
0.0
 33
0.0
 16
1.0
 26
0.0
 36
0.0
 17
0.0
 27
1.0
 37
0.0
 76
     0
330
1A
  0
LAYOUT
  5
21
102
{ACAD_REACTORS
330
19
102
}
330
19
100
AcDbPlotSettings
  1

  2
none_device
  4
Letter_(8.50_x_11.00_Inches)
  6

 40
6.349999904632568
 41
6.349999904632568
 42
6.350006103515625
 43
6.350006103515625
 44
215.8999938964844
 45
279.3999938964844
 46
0.0
 47
0.0
 48
0.0
 49
0.0
140
0.0
141
0.0
142
1.0
143
1.0
 70
 11952
 72
     0
 73
     1
 74
     0
  7

 75
     0
147
1.0
 76
     0
 77
     2
 78
   300
148
2271.647266194407
149
61.84724561340366
100
AcDbLayout
  1
Model
 70
     1
 71
     0
 10
0.0
 20
0.0
 11
12.0
 21
9.0
 12
0.0
 22
0.0
 32
0.0
 14
0.0
 24
0.0
 34
0.0
 15
0.0
 25
0.0
 35
0.0
146
0.0
 13
0.0
 23
0.0
 33
0.0
 16
1.0
 26
0.0
 36
0.0
 17
0.0
 27
1.0
 37
0.0
 76
     0
330
1E
  0
MLINESTYLE
  5
17
102
{ACAD_REACTORS
330
16
102
}
330
16
100
AcDbMlineStyle
  2
STANDARD
 70
     0
  3

 62
   256
 51
90.0
 52
90.0
 71
     2
 49
0.5
 62
   256
  6
BYLAYER
 49
-0.5
 62
   256
  6
BYLAYER
  0
ACDBPLACEHOLDER
  5
F
102
{ACAD_REACTORS
330
E
102
}
330
E
  0
DICTIONARYVAR
  5
EB
102
{ACAD_REACTORS
330
EA
102
}
330
EA
100
DictionaryVariables
280
     0
  1
1
  0
DICTIONARYVAR
  5
EC
102
{ACAD_REACTORS
330
EA
102
}
330
EA
100
DictionaryVariables
280
     0
  1

  0
ENDSEC
  0
EOF
