  0
SECTION
  2
HEADER
  9
$ACADVER
  1
AC1018
  9
$ACADMAINTVER
 70
     2
  9
$DWGCODEPAGE
  3
ANSI_1252
  9
$INSBASE
 10
0.0
 20
0.0
 30
0.0
  9
$EXTMIN
 10
-0.0128164049388033
 20
-0.0181260584133725
 30
-0.0015258207003583
  9
$EXTMAX
 10
420.012818360716
 20
594.0181288244416
 30
0.0000000349246037
  9
$LIMMIN
 10
0.0
 20
0.0
  9
$LIMMAX
 10
419.9999999999999
 20
594.0000000000002
  9
$ORTHOMODE
 70
     1
  9
$REGENMODE
 70
     1
  9
$FILLMODE
 70
     1
  9
$QTEXTMODE
 70
     0
  9
$MIRRTEXT
 70
     1
  9
$LTSCALE
 40
20.0
  9
$ATTMODE
 70
     1
  9
$TEXTSIZE
 40
2.5
  9
$TRACEWID
 40
0.5
  9
$TEXTSTYLE
  7
GREEKS
  9
$CLAYER
  8
SCHRAFF
  9
$CELTYPE
  6
BYLAYER
  9
$CECOLOR
 62
   256
  9
$CELTSCALE
 40
1.0
  9
$DISPSILH
 70
     0
  9
$DIMSCALE
 40
2.0
  9
$DIMASZ
 40
3.5
  9
$DIMEXO
 40
1.0
  9
$DIMDLI
 40
8.0
  9
$DIMRND
 40
0.0
  9
$DIMDLE
 40
0.0
  9
$DIMEXE
 40
1.5
  9
$DIMTP
 40
2.0
  9
$DIMTM
 40
2.0
  9
$DIMTXT
 40
3.5
  9
$DIMCEN
 40
1.5
  9
$DIMTSZ
 40
0.0
  9
$DIMTOL
 70
     0
  9
$DIMLIM
 70
     0
  9
$DIMTIH
 70
     0
  9
$DIMTOH
 70
     0
  9
$DIMSE1
 70
     0
  9
$DIMSE2
 70
     0
  9
$DIMTAD
 70
     1
  9
$DIMZIN
 70
     8
  9
$DIMBLK
  1

  9
$DIMASO
 70
     1
  9
$DIMSHO
 70
     0
  9
$DIMPOST
  1

  9
$DIMAPOST
  1

  9
$DIMALT
 70
     0
  9
$DIMALTD
 70
     2
  9
$DIMALTF
 40
25.4
  9
$DIMLFAC
 40
1.0
  9
$DIMTOFL
 70
     1
  9
$DIMTVP
 40
0.0
  9
$DIMTIX
 70
     0
  9
$DIMSOXD
 70
     0
  9
$DIMSAH
 70
     0
  9
$DIMBLK1
  1

  9
$DIMBLK2
  1

  9
$DIMSTYLE
  2
STANDARD
  9
$DIMCLRD
 70
     0
  9
$DIMCLRE
 70
     0
  9
$DIMCLRT
 70
     1
  9
$DIMTFAC
 40
1.0
  9
$DIMGAP
 40
1.5
  9
$DIMJUST
 70
     0
  9
$DIMSD1
 70
     0
  9
$DIMSD2
 70
     0
  9
$DIMTOLJ
 70
     1
  9
$DIMTZIN
 70
     8
  9
$DIMALTZ
 70
     8
  9
$DIMALTTZ
 70
     8
  9
$DIMUPT
 70
     0
  9
$DIMDEC
 70
     1
  9
$DIMTDEC
 70
     2
  9
$DIMALTU
 70
     2
  9
$DIMALTTD
 70
     2
  9
$DIMTXSTY
  7
GREEKS
  9
$DIMAUNIT
 70
     0
  9
$DIMADEC
 70
     0
  9
$DIMALTRND
 40
0.0
  9
$DIMAZIN
 70
     0
  9
$DIMDSEP
 70
    46
  9
$DIMATFIT
 70
     0
  9
$DIMFRAC
 70
     0
  9
$DIMLDRBLK
  1

  9
$DIMLUNIT
 70
     2
  9
$DIMLWD
 70
    -2
  9
$DIMLWE
 70
    -2
  9
$DIMTMOVE
 70
     0
  9
$LUNITS
 70
     2
  9
$LUPREC
 70
     2
  9
$SKETCHINC
 40
1.0
  9
$FILLETRAD
 40
0.0
  9
$AUNITS
 70
     0
  9
$AUPREC
 70
     0
  9
$MENU
  1
ACAD
  9
$ELEVATION
 40
0.0
  9
$PELEVATION
 40
0.0
  9
$THICKNESS
 40
0.0
  9
$LIMCHECK
 70
     0
  9
$CHAMFERA
 40
0.0
  9
$CHAMFERB
 40
0.0
  9
$CHAMFERC
 40
0.0
  9
$CHAMFERD
 40
0.0
  9
$SKPOLY
 70
     0
  9
$TDCREATE
 40
2452389.674061226
  9
$TDUCREATE
 40
2452389.590727894
  9
$TDUPDATE
 40
2455649.600126215
  9
$TDUUPDATE
 40
2455649.516792882
  9
$TDINDWG
 40
1.4725538542
  9
$TDUSRTIMER
 40
1.4725538542
  9
$USRTIMER
 70
     1
  9
$ANGBASE
 50
0.0
  9
$ANGDIR
 70
     0
  9
$PDMODE
 70
     0
  9
$PDSIZE
 40
0.0
  9
$PLINEWID
 40
0.0
  9
$SPLFRAME
 70
     0
  9
$SPLINETYPE
 70
     6
  9
$SPLINESEGS
 70
     8
  9
$HANDSEED
  5
1D94
  9
$SURFTAB1
 70
     6
  9
$SURFTAB2
 70
     6
  9
$SURFTYPE
 70
     6
  9
$SURFU
 70
     6
  9
$SURFV
 70
     6
  9
$UCSBASE
  2

  9
$UCSNAME
  2

  9
$UCSORG
 10
0.0
 20
0.0
 30
0.0
  9
$UCSXDIR
 10
1.0
 20
0.0
 30
0.0
  9
$UCSYDIR
 10
0.0
 20
1.0
 30
0.0
  9
$UCSORTHOREF
  2

  9
$UCSORTHOVIEW
 70
     0
  9
$UCSORGTOP
 10
0.0
 20
0.0
 30
0.0
  9
$UCSORGBOTTOM
 10
0.0
 20
0.0
 30
0.0
  9
$UCSORGLEFT
 10
0.0
 20
0.0
 30
0.0
  9
$UCSORGRIGHT
 10
0.0
 20
0.0
 30
0.0
  9
$UCSORGFRONT
 10
0.0
 20
0.0
 30
0.0
  9
$UCSORGBACK
 10
0.0
 20
0.0
 30
0.0
  9
$PUCSBASE
  2

  9
$PUCSNAME
  2

  9
$PUCSORG
 10
0.0
 20
0.0
 30
0.0
  9
$PUCSXDIR
 10
1.0
 20
0.0
 30
0.0
  9
$PUCSYDIR
 10
0.0
 20
1.0
 30
0.0
  9
$PUCSORTHOREF
  2

  9
$PUCSORTHOVIEW
 70
     0
  9
$PUCSORGTOP
 10
0.0
 20
0.0
 30
0.0
  9
$PUCSORGBOTTOM
 10
0.0
 20
0.0
 30
0.0
  9
$PUCSORGLEFT
 10
0.0
 20
0.0
 30
0.0
  9
$PUCSORGRIGHT
 10
0.0
 20
0.0
 30
0.0
  9
$PUCSORGFRONT
 10
0.0
 20
0.0
 30
0.0
  9
$PUCSORGBACK
 10
0.0
 20
0.0
 30
0.0
  9
$USERI1
 70
     0
  9
$USERI2
 70
     0
  9
$USERI3
 70
     0
  9
$USERI4
 70
     0
  9
$USERI5
 70
     0
  9
$USERR1
 40
0.0
  9
$USERR2
 40
0.0
  9
$USERR3
 40
0.0
  9
$USERR4
 40
0.0
  9
$USERR5
 40
0.0
  9
$WORLDVIEW
 70
     1
  9
$SHADEDGE
 70
     3
  9
$SHADEDIF
 70
    70
  9
$TILEMODE
 70
     1
  9
$MAXACTVP
 70
    16
  9
$PINSBASE
 10
2.245140564963854
 20
50.00000000000001
 30
-1.032422173993944
  9
$PLIMCHECK
 70
     0
  9
$PEXTMIN
 10
1.000000000000000E+20
 20
1.000000000000000E+20
 30
1.000000000000000E+20
  9
$PEXTMAX
 10
-1.000000000000000E+20
 20
-1.000000000000000E+20
 30
-1.000000000000000E+20
  9
$PLIMMIN
 10
0.0
 20
0.0
  9
$PLIMMAX
 10
12.0
 20
9.0
  9
$UNITMODE
 70
     0
  9
$VISRETAIN
 70
     0
  9
$PLINEGEN
 70
     0
  9
$PSLTSCALE
 70
     0
  9
$TREEDEPTH
 70
  3020
  9
$CMLSTYLE
  2
STANDARD
  9
$CMLJUST
 70
     0
  9
$CMLSCALE
 40
1.0
  9
$PROXYGRAPHICS
 70
     1
  9
$MEASUREMENT
 70
     0
  9
$CELWEIGHT
370
    -1
  9
$ENDCAPS
280
     0
  9
$JOINSTYLE
280
     0
  9
$LWDISPLAY
290
     0
  9
$INSUNITS
 70
     0
  9
$HYPERLINKBASE
  1

  9
$STYLESHEET
  1
monochrome 1.ctb
  9
$XEDIT
290
     1
  9
$CEPSNTYPE
380
     0
  9
$PSTYLEMODE
290
     1
  9
$FINGERPRINTGUID
  2
{68457F4B-03E9-4735-8395-1C9740B72853}
  9
$VERSIONGUID
  2
{00909D3F-70E7-4924-BA7E-2A7FBF3A830D}
  9
$EXTNAMES
290
     1
  9
$PSVPSCALE
 40
0.0
  9
$OLESTARTUP
290
     0
  9
$SORTENTS
280
    96
  9
$INDEXCTL
280
     0
  9
$HIDETEXT
280
     0
  9
$XCLIPFRAME
290
     0
  9
$HALOGAP
280
     0
  9
$OBSCOLOR
 70
   257
  9
$OBSLTYPE
280
     0
  9
$INTERSECTIONDISPLAY
280
     0
  9
$INTERSECTIONCOLOR
 70
   257
  9
$DIMASSOC
280
     1
  9
$PROJECTNAME
  1

  0
ENDSEC
  0
SECTION
  2
CLASSES
  0
CLASS
  1
DICTIONARYVAR
  2
AcDbDictionaryVar
  3
ObjectDBX Classes
 90
        0
 91
        3
280
     0
281
     0
  0
CLASS
  1
ACDBDICTIONARYWDFLT
  2
AcDbDictionaryWithDefault
  3
ObjectDBX Classes
 90
        0
 91
        1
280
     1
281
     0
  0
ENDSEC
  0
SECTION
  2
TABLES
  0
TABLE
  2
VPORT
  5
16
330
0
100
AcDbSymbolTable
 70
     3
  0
VPORT
  5
1D93
330
16
100
AcDbSymbolTableRecord
100
AcDbViewportTableRecord
  2
*Active
 70
     0
 10
0.0
 20
0.0
 11
1.0
 21
1.0
 12
210.0
 22
297.0
 13
0.0
 23
0.0
 14
1.0
 24
1.0
 15
20.0
 25
20.0
 16
0.0
 26
0.0
 36
1.0
 17
0.0
 27
0.0
 37
0.0
 40
594.0
 41
1.334231805929919
 42
50.0
 43
0.0
 44
0.0
 50
0.0
 51
0.0
 71
     0
 72
  1500
 73
     1
 74
     0
 75
     0
 76
     0
 77
     0
 78
     0
281
     0
 65
     1
110
0.0
120
0.0
130
0.0
111
1.0
121
0.0
131
0.0
112
0.0
122
1.0
132
0.0
 79
     0
146
0.0
  0
ENDTAB
  0
TABLE
  2
LTYPE
  5
11
330
0
100
AcDbSymbolTable
 70
     3
  0
LTYPE
  5
12
330
11
100
AcDbSymbolTableRecord
100
AcDbLinetypeTableRecord
  2
BYBLOCK
 70
     0
  3

 72
    65
 73
     0
 40
0.0
  0
LTYPE
  5
13
330
11
100
AcDbSymbolTableRecord
100
AcDbLinetypeTableRecord
  2
BYLAYER
 70
     0
  3

 72
    65
 73
     0
 40
0.0
  0
LTYPE
  5
7
330
11
100
AcDbSymbolTableRecord
100
AcDbLinetypeTableRecord
  2
AUSGEZOGEN
 70
     0
  3
Ausgezogene Linie
 72
    65
 73
     0
 40
0.0
  0
LTYPE
  5
102
330
11
100
AcDbSymbolTableRecord
100
AcDbLinetypeTableRecord
  2
STRICHPUNKT
 70
     0
  3
__ . __ . __ . __ . __ . __ . __ . __ . __ . __
 72
    65
 73
     4
 40
1.0
 49
0.5
 74
     0
 49
-0.25
 74
     0
 49
0.0
 74
     0
 49
-0.25
 74
     0
  0
LTYPE
  5
742
330
11
100
AcDbSymbolTableRecord
100
AcDbLinetypeTableRecord
  2
Continuous
 70
     0
  3
Solid line
 72
    65
 73
     0
 40
0.0
  0
ENDTAB
  0
TABLE
  2
LAYER
  5
E
330
0
100
AcDbSymbolTable
 70
     9
  0
LAYER
  5
6
330
E
100
AcDbSymbolTableRecord
100
AcDbLayerTableRecord
  2
0
 70
     0
 62
     7
  6
AUSGEZOGEN
370
    -3
390
5BB
  0
LAYER
  5
CE
330
E
100
AcDbSymbolTableRecord
100
AcDbLayerTableRecord
  2
VOLL
 70
     0
 62
     1
  6
AUSGEZOGEN
370
    -3
390
5BB
  0
LAYER
  5
36
330
E
100
AcDbSymbolTableRecord
100
AcDbLayerTableRecord
  2
HILF
 70
     0
 62
     2
  6
AUSGEZOGEN
370
    -3
390
5BB
  0
LAYER
  5
101
330
E
100
AcDbSymbolTableRecord
100
AcDbLayerTableRecord
  2
MITTEL
 70
     0
 62
     2
  6
STRICHPUNKT
370
    -3
390
5BB
  0
LAYER
  5
25
330
E
100
AcDbSymbolTableRecord
100
AcDbLayerTableRecord
  2
BEM
 70
     0
 62
     7
  6
AUSGEZOGEN
370
    -3
390
5BB
  0
LAYER
  5
39
330
E
100
AcDbSymbolTableRecord
100
AcDbLayerTableRecord
  2
STEMPEL
 70
     0
 62
     3
  6
AUSGEZOGEN
370
    -3
390
5BB
  0
LAYER
  5
2E
330
E
100
AcDbSymbolTableRecord
100
AcDbLayerTableRecord
  2
DEFPOINTS
 70
     0
 62
     7
  6
AUSGEZOGEN
290
     0
370
    -3
390
5BB
  0
LAYER
  5
1F
330
E
100
AcDbSymbolTableRecord
100
AcDbLayerTableRecord
  2
SCHRAFF
 70
     0
 62
     7
  6
AUSGEZOGEN
370
    -3
390
5BB
  0
LAYER
  5
D3E
330
E
100
AcDbSymbolTableRecord
100
AcDbLayerTableRecord
  2
TEXT
 70
     0
 62
     7
  6
Continuous
370
    -3
390
5BB
  0
ENDTAB
  0
TABLE
  2
STYLE
  5
F
330
0
100
AcDbSymbolTable
 70
     2
  0
STYLE
  5
10
330
F
100
AcDbSymbolTableRecord
100
AcDbTextStyleTableRecord
  2
STANDARD
 70
     0
 40
0.0
 41
0.8
 50
0.0
 71
     0
 42
3.5
  3
simplex.shx
  4

  0
STYLE
  5
20
330
F
100
AcDbSymbolTableRecord
100
AcDbTextStyleTableRecord
  2
GREEKS
 70
     0
 40
0.0
 41
0.8
 50
0.0
 71
     0
 42
2.5
  3
SIMPLEX.shx
  4

  0
ENDTAB
  0
TABLE
  2
VIEW
  5
14
330
0
100
AcDbSymbolTable
 70
     0
  0
ENDTAB
  0
TABLE
  2
UCS
  5
15
330
0
100
AcDbSymbolTable
 70
     0
  0
ENDTAB
  0
TABLE
  2
APPID
  5
18
330
0
100
AcDbSymbolTable
 70
     1
  0
APPID
  5
19
330
18
100
AcDbSymbolTableRecord
100
AcDbRegAppTableRecord
  2
ACAD
 70
     0
  0
ENDTAB
  0
TABLE
  2
DIMSTYLE
  5
1A
330
0
100
AcDbSymbolTable
 70
     1
100
AcDbDimStyleTable
 71
     1
340
22
  0
DIMSTYLE
105
22
102
{ACAD_REACTORS
330
19B8
330
1C79
330
1C86
102
}
330
1A
100
AcDbSymbolTableRecord
100
AcDbDimStyleTableRecord
  2
STANDARD
 70
     0
 40
2.0
 41
3.5
 42
1.0
 43
8.0
 44
1.5
 47
2.0
 48
2.0
 73
     0
 74
     0
 77
     1
 78
     8
140
3.5
141
1.5
147
1.5
172
     1
178
     1
271
     1
272
     2
284
     8
285
     8
286
     8
289
     0
340
20
  0
ENDTAB
  0
TABLE
  2
BLOCK_RECORD
  5
1
330
0
100
AcDbSymbolTable
 70
     4
  0
BLOCK_RECORD
  5
2
102
{ACAD_XDICTIONARY
360
3
102
}
330
1
100
AcDbSymbolTableRecord
100
AcDbBlockTableRecord
  2
*MODEL_SPACE
340
5C0
  0
BLOCK_RECORD
  5
9
102
{ACAD_XDICTIONARY
360
A
102
}
330
1
100
AcDbSymbolTableRecord
100
AcDbBlockTableRecord
  2
*PAPER_SPACE
340
5C1
  0
BLOCK_RECORD
  5
5B
330
1
100
AcDbSymbolTableRecord
100
AcDbBlockTableRecord
  2
LOGO
340
0
102
{BLKREFS
331
10B6
102
}
  0
BLOCK_RECORD
  5
19B9
330
1
100
AcDbSymbolTableRecord
100
AcDbBlockTableRecord
  2
*D1
340
0
  0
BLOCK_RECORD
  5
1C7A
330
1
100
AcDbSymbolTableRecord
100
AcDbBlockTableRecord
  2
*D2
340
0
  0
BLOCK_RECORD
  5
1C87
330
1
100
AcDbSymbolTableRecord
100
AcDbBlockTableRecord
  2
*D3
340
0
  0
ENDTAB
  0
ENDSEC
  0
SECTION
  2
BLOCKS
  0
BLOCK
  5
5
330
2
100
AcDbEntity
  8
0
100
AcDbBlockBegin
  2
*MODEL_SPACE
 70
     0
 10
0.0
 20
0.0
 30
0.0
  3
*MODEL_SPACE
  1

  0
ENDBLK
  5
8
330
2
100
AcDbEntity
  8
0
100
AcDbBlockEnd
  0
BLOCK
  5
C
330
9
100
AcDbEntity
 67
     1
  8
0
100
AcDbBlockBegin
  2
*PAPER_SPACE
 70
     0
 10
0.0
 20
0.0
 30
0.0
  3
*PAPER_SPACE
  1

  0
ENDBLK
  5
D
330
9
100
AcDbEntity
 67
     1
  8
0
100
AcDbBlockEnd
  0
BLOCK
  5
76
330
5B
100
AcDbEntity
  8
0
100
AcDbBlockBegin
  2
LOGO
 70
     0
 10
0.0
 20
0.0
 30
0.0
  3
LOGO
  1

  0
ARC
  5
5C
330
5B
100
AcDbEntity
  8
0
100
AcDbCircle
 10
11.59973089678112
 20
-9.271599258481501
 30
0.0
 40
4.5
100
AcDbArc
 50
270.0
 51
231.0575587310159
  0
LINE
  5
5D
330
5B
100
AcDbEntity
  8
0
100
AcDbLine
 10
3.599730896781125
 20
-4.771599258481529
 30
0.0
 11
3.599730896781153
 21
-11.77159925848133
 31
0.0
  0
LINE
  5
5E
330
5B
100
AcDbEntity
  8
0
100
AcDbLine
 10
2.599730896781125
 20
-4.771599258481529
 30
0.0
 11
2.599730896781153
 21
-11.77159925848133
 31
0.0
  0
CIRCLE
  5
5F
330
5B
100
AcDbEntity
  8
0
100
AcDbCircle
 10
11.59973089678112
 20
-9.271599258481501
 30
0.0
 40
3.5
  0
ARC
  5
60
330
5B
100
AcDbEntity
  8
0
100
AcDbCircle
 10
31.59973089678115
 20
-9.271599258481472
 30
0.0
 40
4.5
100
AcDbArc
 50
270.0
 51
231.0575587310182
  0
LINE
  5
61
330
5B
100
AcDbEntity
  8
0
100
AcDbLine
 10
17.59973089678112
 20
-4.771599258481472
 30
0.0
 11
17.59973089678115
 21
-13.77159925848147
 31
0.0
  0
ARC
  5
62
330
5B
100
AcDbEntity
  8
0
100
AcDbCircle
 10
22.59973089678116
 20
-7.271599258481472
 30
0.0
 40
2.5
100
AcDbArc
 50
293.1161887722295
 51
90.0
  0
CIRCLE
  5
63
330
5B
100
AcDbEntity
  8
0
100
AcDbCircle
 10
31.59973089678115
 20
-9.271599258481472
 30
0.0
 40
3.5
  0
ARC
  5
64
330
5B
100
AcDbEntity
  8
0
100
AcDbCircle
 10
4.599730896781153
 20
-11.77159925848133
 30
0.0
 40
1.0
100
AcDbArc
 50
180.0
 51
270.0
  0
ARC
  5
65
330
5B
100
AcDbEntity
  8
0
100
AcDbCircle
 10
4.599730896781153
 20
-11.77159925848133
 30
0.0
 40
2.0
100
AcDbArc
 50
179.9999999999992
 51
270.0
  0
LINE
  5
66
330
5B
100
AcDbEntity
  8
0
100
AcDbLine
 10
11.59973089678115
 20
-13.77159925848144
 30
0.0
 11
4.599730896781153
 21
-13.77159925848147
 31
0.0
  0
LINE
  5
67
330
5B
100
AcDbEntity
  8
0
100
AcDbLine
 10
8.771303772034769
 20
-12.77159925848136
 30
0.0
 11
4.599730896781153
 21
-12.77159925848133
 31
0.0
  0
LINE
  5
68
330
5B
100
AcDbEntity
  8
0
100
AcDbLine
 10
31.59973089678115
 20
-13.77159925848147
 30
0.0
 11
23.6715276665056
 21
-13.77159925848144
 31
0.0
  0
LINE
  5
69
330
5B
100
AcDbEntity
  8
0
100
AcDbLine
 10
23.56565672307022
 20
-9.51278021337896
 30
0.0
 11
24.4388546544846
 21
-12.77159925848144
 31
0.0
  0
LINE
  5
6A
330
5B
100
AcDbEntity
  8
0
100
AcDbLine
 10
22.59973089678116
 20
-9.771599258481472
 30
0.0
 11
18.59973089678112
 21
-9.771599258481472
 31
0.0
  0
LINE
  5
6B
330
5B
100
AcDbEntity
  8
0
100
AcDbLine
 10
18.59973089678115
 20
-13.77159925848144
 30
0.0
 11
17.59973089678115
 21
-13.77159925848144
 31
0.0
  0
LINE
  5
6C
330
5B
100
AcDbEntity
  8
0
100
AcDbLine
 10
18.59973089678115
 20
-9.771599258481472
 30
0.0
 11
18.59973089678115
 21
-13.77159925848144
 31
0.0
  0
LINE
  5
6D
330
5B
100
AcDbEntity
  8
0
100
AcDbLine
 10
22.59973089678116
 20
-9.771599258481472
 30
0.0
 11
23.67152766650562
 21
-13.77159925848147
 31
0.0
  0
ARC
  5
6E
330
5B
100
AcDbEntity
  8
0
100
AcDbCircle
 10
22.59973089678116
 20
-7.271599258481472
 30
0.0
 40
2.5
100
AcDbArc
 50
270.0
 51
270.0000000000007
  0
LINE
  5
6F
330
5B
100
AcDbEntity
  8
0
100
AcDbLine
 10
28.77130377203494
 20
-12.77159925848147
 30
0.0
 11
24.43885465448463
 21
-12.77159925848144
 31
0.0
  0
LINE
  5
70
330
5B
100
AcDbEntity
  8
0
100
AcDbLine
 10
3.599730896781125
 20
-4.771599258481472
 30
0.0
 11
2.599730896781125
 21
-4.771599258481472
 31
0.0
  0
LINE
  5
71
330
5B
100
AcDbEntity
  8
0
100
AcDbLine
 10
22.59973089678116
 20
-8.771599258481472
 30
0.0
 11
18.59973089678115
 21
-8.771599258481472
 31
0.0
  0
LINE
  5
72
330
5B
100
AcDbEntity
  8
0
100
AcDbLine
 10
22.59973089678116
 20
-5.771599258481472
 30
0.0
 11
18.59973089678115
 21
-5.771599258481472
 31
0.0
  0
LINE
  5
73
330
5B
100
AcDbEntity
  8
0
100
AcDbLine
 10
22.59973089678116
 20
-4.771599258481472
 30
0.0
 11
17.59973089678115
 21
-4.771599258481472
 31
0.0
  0
LINE
  5
74
330
5B
100
AcDbEntity
  8
0
100
AcDbLine
 10
18.59973089678115
 20
-5.771599258481472
 30
0.0
 11
18.59973089678115
 21
-8.771599258481472
 31
0.0
  0
ARC
  5
75
330
5B
100
AcDbEntity
  8
0
100
AcDbCircle
 10
22.59973089678116
 20
-7.271599258481472
 30
0.0
 40
1.5
100
AcDbArc
 50
270.0
 51
90.0
  0
ENDBLK
  5
77
330
5B
100
AcDbEntity
  8
0
100
AcDbBlockEnd
  0
BLOCK
  5
19C3
330
19B9
100
AcDbEntity
  8
0
100
AcDbBlockBegin
  2
*D1
 70
     1
 10
0.0
 20
0.0
 30
0.0
  3
*D1
  1

  0
LINE
  5
19CE
330
19B9
100
AcDbEntity
  8
BEM
 62
     0
370
    -2
100
AcDbLine
 10
271.7083492015301
 20
180.8526228653231
 30
0.0
 11
271.7083492015301
 21
153.9836005452844
 31
0.0
  0
LINE
  5
19CF
330
19B9
100
AcDbEntity
  8
BEM
 62
     0
370
    -2
100
AcDbLine
 10
170.1083492015301
 20
180.8526228653203
 30
0.0
 11
170.1083492015301
 21
153.9836005452844
 31
0.0
  0
LINE
  5
19D0
330
19B9
100
AcDbEntity
  8
BEM
 62
     0
370
    -2
100
AcDbLine
 10
264.70834920153
 20
156.9836005452844
 30
0.0
 11
177.1083492015301
 21
156.9836005452844
 31
0.0
  0
SOLID
  5
19D1
330
19B9
100
AcDbEntity
  8
BEM
 62
     0
100
AcDbTrace
 10
264.70834920153
 20
158.150267211951
 30
0.0
 11
264.70834920153
 21
155.8169338786177
 31
0.0
 12
271.7083492015301
 22
156.9836005452844
 32
0.0
 13
271.7083492015301
 23
156.9836005452844
 33
0.0
  0
SOLID
  5
19D2
330
19B9
100
AcDbEntity
  8
BEM
 62
     0
100
AcDbTrace
 10
177.1083492015301
 20
158.150267211951
 30
0.0
 11
177.1083492015301
 21
155.8169338786177
 31
0.0
 12
170.1083492015301
 22
156.9836005452844
 32
0.0
 13
170.1083492015301
 23
156.9836005452844
 33
0.0
  0
MTEXT
  5
19D3
330
19B9
100
AcDbEntity
  8
BEM
 62
     1
100
AcDbMText
 10
220.9083492015301
 20
163.4836005452844
 30
0.0
 40
7.0
 41
0.0
 71
     5
 72
     1
  1
\A1;%%c101.6
  7
GREEKS
 73
     1
 44
1.0
  0
POINT
  5
19D4
330
19B9
100
AcDbEntity
  8
DEFPOINTS
 62
     0
100
AcDbPoint
 10
271.7083492015301
 20
182.8526228653231
 30
0.0
  0
POINT
  5
19D5
330
19B9
100
AcDbEntity
  8
DEFPOINTS
 62
     0
100
AcDbPoint
 10
170.1083492015301
 20
182.8526228653203
 30
0.0
  0
POINT
  5
19D6
330
19B9
100
AcDbEntity
  8
DEFPOINTS
 62
     0
100
AcDbPoint
 10
170.1083492015301
 20
156.9836005452844
 30
0.0
  0
ENDBLK
  5
19C4
330
19B9
100
AcDbEntity
  8
0
100
AcDbBlockEnd
  0
BLOCK
  5
1C84
330
1C7A
100
AcDbEntity
  8
0
100
AcDbBlockBegin
  2
*D2
 70
     1
 10
0.0
 20
0.0
 30
0.0
  3
*D2
  1

  0
LINE
  5
1C7B
330
1C7A
100
AcDbEntity
  8
BEM
 62
     0
370
    -2
100
AcDbLine
 10
168.8082585097373
 20
174.8526228653232
 30
0.0
 11
55.56299806584178
 21
174.8526228653232
 31
0.0
  0
LINE
  5
1C7C
330
1C7A
100
AcDbEntity
  8
BEM
 62
     0
370
    -2
100
AcDbLine
 10
68.90834920152997
 20
444.8526228653234
 30
0.0
 11
55.56299806584184
 21
444.8526228653234
 31
0.0
  0
LINE
  5
1C7D
330
1C7A
100
AcDbEntity
  8
BEM
 62
     0
370
    -2
100
AcDbLine
 10
58.56299806584178
 20
181.8526228653232
 30
0.0
 11
58.56299806584184
 21
437.8526228653234
 31
0.0
  0
SOLID
  5
1C7E
330
1C7A
100
AcDbEntity
  8
BEM
 62
     0
100
AcDbTrace
 10
57.39633139917511
 20
181.8526228653232
 30
0.0
 11
59.72966473250845
 21
181.8526228653232
 31
0.0
 12
58.56299806584178
 22
174.8526228653232
 32
0.0
 13
58.56299806584178
 23
174.8526228653232
 33
0.0
  0
SOLID
  5
1C7F
330
1C7A
100
AcDbEntity
  8
BEM
 62
     0
100
AcDbTrace
 10
57.39633139917518
 20
437.8526228653234
 30
0.0
 11
59.7296647325085
 21
437.8526228653234
 31
0.0
 12
58.56299806584184
 22
444.8526228653234
 32
0.0
 13
58.56299806584184
 23
444.8526228653234
 33
0.0
  0
MTEXT
  5
1C80
330
1C7A
100
AcDbEntity
  8
BEM
 62
     1
100
AcDbMText
 10
52.06299806584176
 20
309.8526228653233
 30
0.0
 40
7.0
 41
0.0
 71
     5
 72
     1
  1
\A1;270
  7
GREEKS
 11
0.0000000000000001
 21
1.0
 31
0.0
 73
     1
 44
1.0
  0
POINT
  5
1C81
330
1C7A
100
AcDbEntity
  8
DEFPOINTS
 62
     0
100
AcDbPoint
 10
170.8082585097373
 20
174.8526228653232
 30
0.0
  0
POINT
  5
1C82
330
1C7A
100
AcDbEntity
  8
DEFPOINTS
 62
     0
100
AcDbPoint
 10
70.90834920152997
 20
444.8526228653234
 30
0.0
  0
POINT
  5
1C83
330
1C7A
100
AcDbEntity
  8
DEFPOINTS
 62
     0
100
AcDbPoint
 10
58.56299806584184
 20
444.8526228653234
 30
0.0
  0
ENDBLK
  5
1C85
330
1C7A
100
AcDbEntity
  8
0
100
AcDbBlockEnd
  0
BLOCK
  5
1C91
330
1C87
100
AcDbEntity
  8
0
100
AcDbBlockBegin
  2
*D3
 70
     1
 10
0.0
 20
0.0
 30
0.0
  3
*D3
  1

  0
LINE
  5
1CE3
330
1C87
100
AcDbEntity
  8
BEM
 62
     0
370
    -2
100
AcDbLine
 10
370.90834920153
 20
448.8526228653233
 30
0.0
 11
370.90834920153
 21
490.5391012228585
 31
0.0
  0
LINE
  5
1CE4
330
1C87
100
AcDbEntity
  8
BEM
 62
     0
370
    -2
100
AcDbLine
 10
70.90834920152997
 20
449.8526228653234
 30
0.0
 11
70.90834920152997
 21
490.5391012228585
 31
0.0
  0
LINE
  5
1CE5
330
1C87
100
AcDbEntity
  8
BEM
 62
     0
370
    -2
100
AcDbLine
 10
363.90834920153
 20
487.5391012228585
 30
0.0
 11
77.90834920152997
 21
487.5391012228585
 31
0.0
  0
SOLID
  5
1CE6
330
1C87
100
AcDbEntity
  8
BEM
 62
     0
100
AcDbTrace
 10
363.90834920153
 20
488.7057678895252
 30
0.0
 11
363.90834920153
 21
486.3724345561919
 31
0.0
 12
370.90834920153
 22
487.5391012228585
 32
0.0
 13
370.90834920153
 23
487.5391012228585
 33
0.0
  0
SOLID
  5
1CE7
330
1C87
100
AcDbEntity
  8
BEM
 62
     0
100
AcDbTrace
 10
77.90834920152997
 20
488.7057678895252
 30
0.0
 11
77.90834920152997
 21
486.3724345561919
 31
0.0
 12
70.90834920152997
 22
487.5391012228585
 32
0.0
 13
70.90834920152997
 23
487.5391012228585
 33
0.0
  0
MTEXT
  5
1CE8
330
1C87
100
AcDbEntity
  8
BEM
 62
     1
100
AcDbMText
 10
220.90834920153
 20
494.0391012228586
 30
0.0
 40
7.0
 41
0.0
 71
     5
 72
     1
  1
\A1;%%c300
  7
GREEKS
 73
     1
 44
1.0
  0
POINT
  5
1CE9
330
1C87
100
AcDbEntity
  8
DEFPOINTS
 62
     0
100
AcDbPoint
 10
370.90834920153
 20
446.8526228653233
 30
0.0
  0
POINT
  5
1CEA
330
1C87
100
AcDbEntity
  8
DEFPOINTS
 62
     0
100
AcDbPoint
 10
70.90834920152997
 20
447.8526228653233
 30
0.0
  0
POINT
  5
1CEB
330
1C87
100
AcDbEntity
  8
DEFPOINTS
 62
     0
100
AcDbPoint
 10
70.90834920152997
 20
487.5391012228585
 30
0.0
  0
ENDBLK
  5
1C92
330
1C87
100
AcDbEntity
  8
0
100
AcDbBlockEnd
  0
ENDSEC
  0
SECTION
  2
ENTITIES
  0
LINE
  5
10A6
330
2
100
AcDbEntity
  8
STEMPEL
100
AcDbLine
 10
49.99999999999989
 20
10.0
 30
0.0
 11
410.0
 21
10.0
 31
0.0
  0
LINE
  5
10A7
330
2
100
AcDbEntity
  8
STEMPEL
100
AcDbLine
 10
410.0
 20
10.0
 30
0.0
 11
39.99999999999989
 21
10.0
 31
0.0
  0
LINE
  5
10A8
330
2
100
AcDbEntity
  8
STEMPEL
100
AcDbLine
 10
410.0
 20
10.0
 30
0.0
 11
410.0
 21
584.0
 31
0.0
  0
LINE
  5
10A9
330
2
100
AcDbEntity
  8
STEMPEL
100
AcDbLine
 10
40.0
 20
10.0
 30
0.0
 11
39.99999999999989
 21
584.0
 31
0.0
  0
LINE
  5
10AA
330
2
100
AcDbEntity
  8
STEMPEL
100
AcDbLine
 10
410.0
 20
584.0
 30
0.0
 11
39.99999999999989
 21
584.0
 31
0.0
  0
LINE
  5
10AB
330
2
100
AcDbEntity
  8
HILF
100
AcDbLine
 10
0.0
 20
0.0
 30
0.0
 11
-0.0000000000001137
 21
594.0
 31
0.0
  0
LINE
  5
10AC
330
2
100
AcDbEntity
  8
HILF
100
AcDbLine
 10
419.9999999999999
 20
594.0000000000002
 30
0.0
 11
0.0
 21
594.0
 31
0.0
  0
LINE
  5
10AD
330
2
100
AcDbEntity
  8
HILF
100
AcDbLine
 10
420.0
 20
0.0
 30
0.0
 11
0.0
 21
0.0
 31
0.0
  0
LINE
  5
10AE
330
2
100
AcDbEntity
  8
HILF
100
AcDbLine
 10
31.08767135713856
 20
297.0
 30
0.0
 11
0.0000000000001137
 21
297.0
 31
0.0
  0
LINE
  5
10AF
330
2
100
AcDbEntity
  8
HILF
100
AcDbLine
 10
420.0
 20
-0.0000000000001137
 30
0.0
 11
419.9999999999999
 21
594.0
 31
0.0
  0
TEXT
  5
10B0
330
2
100
AcDbEntity
  8
VOLL
100
AcDbText
 10
622.9741474529065
 20
35.6955048462093
 30
0.0
 40
1.8
  1

  7
GREEKS
100
AcDbText
  0
TEXT
  5
10B1
330
2
100
AcDbEntity
  8
BEM
100
AcDbText
 10
417.3022923857165
 20
10.16790107998849
 30
0.0
 40
4.0
  1
Diese Zeichnung ist urheberrechtlich geschützt und bleibt unser Eigentum. Sie darf weder ganz noch teilweise verfielfältigt und nicht an Dritte weitergegeben werden.
 50
90.0
 41
0.8
  7
GREEKS
100
AcDbText
  0
TEXT
  5
10B2
330
2
100
AcDbEntity
  8
TEXT
100
AcDbText
 10
202.4626584226295
 20
73.30961091915225
 30
0.0
 40
4.0
  1
Name
 41
0.8
  7
GREEKS
100
AcDbText
  0
TEXT
  5
10B3
330
2
100
AcDbEntity
  8
TEXT
100
AcDbText
 10
192.626132208084
 20
90.76363841023022
 30
0.0
 40
4.0
  1
DIN EN1124-3
 41
0.8
  7
GREEKS
 72
     1
 11
209.6166083985602
 21
90.76363841023022
 31
0.0
100
AcDbText
  0
TEXT
  5
10B4
330
2
100
AcDbEntity
  8
TEXT
100
AcDbText
 10
194.2858954734051
 20
102.4184168434819
 30
0.0
 40
5.0
  1
Zul. Abw.
 41
0.8
  7
GREEKS
100
AcDbText
  0
TEXT
  5
10B5
330
2
100
AcDbEntity
  8
TEXT
100
AcDbText
 10
204.4216048581258
 20
63.0896391972351
 30
0.0
 40
4.0
  1
Koeh
 41
0.8
  7
GREEKS
 72
     1
 11
209.6787477152686
 21
63.0896391972351
 31
0.0
100
AcDbText
  0
INSERT
  5
10B6
330
2
100
AcDbEntity
  8
STEMPEL
100
AcDbBlockReference
  2
LOGO
 10
150.9955485457794
 20
45.02105276448321
 30
0.0
 41
2.0
 42
2.0
 43
2.0
  0
LINE
  5
10B7
330
2
100
AcDbEntity
  8
HILF
100
AcDbLine
 10
146.0000000000001
 20
49.99999999999994
 30
0.0
 11
230.0
 21
49.99999999999994
 31
0.0
  0
LINE
  5
10B8
330
2
100
AcDbEntity
  8
HILF
100
AcDbLine
 10
146.0000000000001
 20
59.99999999999994
 30
0.0
 11
230.0
 21
59.99999999999994
 31
0.0
  0
LINE
  5
10B9
330
2
100
AcDbEntity
  8
HILF
100
AcDbLine
 10
146.0000000000001
 20
69.99999999999994
 30
0.0
 11
230.0
 21
69.99999999999994
 31
0.0
  0
TEXT
  5
10BA
330
2
100
AcDbEntity
  8
TEXT
100
AcDbText
 10
41.85509950977677
 20
111.6719999999999
 30
0.0
 40
5.0
  1
Erstellt mit AUTOCAD 2004
 41
0.8
  7
GREEKS
100
AcDbText
  0
LINE
  5
10BB
330
2
100
AcDbEntity
  8
HILF
100
AcDbLine
 10
40.00000000000011
 20
39.99999999999995
 30
0.0
 11
146.0000000000001
 21
39.99999999999995
 31
0.0
  0
LINE
  5
10BC
330
2
100
AcDbEntity
  8
HILF
100
AcDbLine
 10
40.00000000000011
 20
49.99999999999994
 30
0.0
 11
146.0000000000001
 21
49.99999999999994
 31
0.0
  0
LINE
  5
10BD
330
2
100
AcDbEntity
  8
HILF
100
AcDbLine
 10
40.00000000000011
 20
59.99999999999994
 30
0.0
 11
146.0000000000001
 21
59.99999999999994
 31
0.0
  0
LINE
  5
10BE
330
2
100
AcDbEntity
  8
HILF
100
AcDbLine
 10
40.00000000000011
 20
69.99999999999994
 30
0.0
 11
146.0000000000001
 21
69.99999999999994
 31
0.0
  0
LINE
  5
10BF
330
2
100
AcDbEntity
  8
HILF
100
AcDbLine
 10
40.00000000000011
 20
79.99999999999994
 30
0.0
 11
146.0000000000001
 21
79.99999999999994
 31
0.0
  0
LINE
  5
10C0
330
2
100
AcDbEntity
  8
HILF
100
AcDbLine
 10
40.00000000000011
 20
90.00000000000005
 30
0.0
 11
146.0000000000001
 21
90.00000000000005
 31
0.0
  0
LINE
  5
10C1
330
2
100
AcDbEntity
  8
HILF
100
AcDbLine
 10
40.00000000000011
 20
100.0
 30
0.0
 11
146.0000000000001
 21
100.0
 31
0.0
  0
LINE
  5
10C2
330
2
100
AcDbEntity
  8
STEMPEL
100
AcDbLine
 10
145.9999999999999
 20
29.99999999999995
 30
0.0
 11
40.0
 21
29.99999999999995
 31
0.0
  0
TEXT
  5
10C3
330
2
100
AcDbEntity
  8
TEXT
100
AcDbText
 10
67.03397139500542
 20
18.73071873647887
 30
0.0
 40
4.0
  1
Änderung
 41
0.8
 72
     1
 11
77.77682853786257
 21
18.73071873647887
 31
0.0
100
AcDbText
  0
TEXT
  5
10C4
330
2
100
AcDbEntity
  8
TEXT
100
AcDbText
 10
48.26641107045759
 20
13.65465846027194
 30
0.0
 40
4.0
  1
Index
 50
90.0
 41
0.8
  7
GREEKS
100
AcDbText
  0
TEXT
  5
10C5
330
2
100
AcDbEntity
  8
TEXT
100
AcDbText
 10
110.0277613605411
 20
18.73071873647887
 30
0.0
 40
4.0
  1
Tag
 41
0.8
 72
     1
 11
113.7610946938745
 21
18.73071873647887
 31
0.0
100
AcDbText
  0
TEXT
  5
10C6
330
2
100
AcDbEntity
  8
TEXT
100
AcDbText
 10
128.4903193979907
 20
18.73071873647887
 30
0.0
 40
4.0
  1
Name
 41
0.8
 72
     1
 11
134.8141289218002
 21
18.73071873647887
 31
0.0
100
AcDbText
  0
TEXT
  5
10C7
330
2
100
AcDbEntity
  8
TEXT
100
AcDbText
 10
171.0085209177599
 20
63.10765040825732
 30
0.0
 40
4.0
  1
28.11.
 41
0.8
  7
GREEKS
 72
     1
 11
177.4085209177599
 21
63.10765040825732
 31
0.0
100
AcDbText
  0
TEXT
  5
10C8
330
2
100
AcDbEntity
  8
TEXT
100
AcDbText
 10
172.331167315365
 20
73.31880501229926
 30
0.0
 40
4.0
  1
Tag
 41
0.8
  7
GREEKS
100
AcDbText
  0
TEXT
  5
10C9
330
2
100
AcDbEntity
  8
TEXT
100
AcDbText
 10
156.9757006082181
 20
102.4620895087088
 30
0.0
 40
5.0
  1
Maßstab
 41
0.8
  7
GREEKS
100
AcDbText
  0
TEXT
  5
10CA
330
2
100
AcDbEntity
  8
TEXT
100
AcDbText
 10
147.5836127167615
 20
63.62990369617961
 30
0.0
 40
4.0
  1
Gez.
 41
0.8
  7
GREEKS
100
AcDbText
  0
LINE
  5
10CB
330
2
100
AcDbEntity
  8
VOLL
100
AcDbLine
 10
164.0000000000001
 20
79.99999999999994
 30
0.0
 11
164.0000000000001
 21
39.99999999999995
 31
0.0
  0
TEXT
  5
10CC
330
2
100
AcDbEntity
  8
TEXT
100
AcDbText
 10
147.5515086571672
 20
53.6892629142838
 30
0.0
 40
4.0
  1
Gepr.
 41
0.8
  7
GREEKS
100
AcDbText
  0
TEXT
  5
10CD
330
2
100
AcDbEntity
  8
TEXT
100
AcDbText
 10
147.6006777387303
 20
43.52946389649804
 30
0.0
 40
4.0
  1
Norm.
 41
0.8
  7
GREEKS
100
AcDbText
  0
TEXT
  5
10CE
330
2
100
AcDbEntity
  8
TEXT
100
AcDbText
 10
148.622109822104
 20
73.14025471151666
 30
0.0
 40
4.0
  1
2006
 41
0.8
  7
GREEKS
100
AcDbText
  0
TEXT
  5
10CF
330
2
100
AcDbEntity
  8
TEXT
 62
     1
100
AcDbText
 10
163.9599740413691
 20
87.50728169225954
 30
0.0
 40
7.0
  1
1:2
 41
0.8
  7
GREEKS
100
AcDbText
  0
LINE
  5
10D0
330
2
100
AcDbEntity
  8
VOLL
100
AcDbLine
 10
190.0000000000001
 20
109.9999999999998
 30
0.0
 11
190.0
 21
39.99999999999995
 31
0.0
  0
TEXT
  5
10D2
330
2
100
AcDbEntity
  8
TEXT
100
AcDbText
 10
336.7238616296993
 20
73.1811823709997
 30
0.0
 40
5.0
  1
Ersatz für:
 41
0.8
  7
GREEKS
100
AcDbText
  0
TEXT
  5
10D3
330
2
100
AcDbEntity
  8
TEXT
100
AcDbText
 10
337.2400861497006
 20
52.07416177878605
 30
0.0
 40
5.0
  1
ersetzt durch:
 41
0.8
  7
GREEKS
100
AcDbText
  0
TEXT
  5
10D4
330
2
100
AcDbEntity
  8
TEXT
100
AcDbText
 10
336.178754957634
 20
102.3132034537136
 30
0.0
 40
5.0
  1
Zeichnungs Nr.
 41
0.8
  7
GREEKS
100
AcDbText
  0
LINE
  5
10D5
330
2
100
AcDbEntity
  8
HILF
100
AcDbLine
 10
336.7238616296993
 20
83.77983636955827
 30
0.0
 11
404.8588839326728
 21
83.77983636955827
 31
0.0
  0
LINE
  5
10D6
330
2
100
AcDbEntity
  8
HILF
100
AcDbLine
 10
233.4909699289885
 20
14.89398258028314
 30
0.0
 11
404.8588839326728
 21
14.89398258028314
 31
0.0
  0
TEXT
  5
10D7
330
2
100
AcDbEntity
  8
TEXT
 62
     1
100
AcDbText
 10
235.1296391125314
 20
87.41748789253779
 30
0.0
 40
7.0
  1
Drainlet Rohrdurchführung
 41
0.65
  7
GREEKS
100
AcDbText
  0
LINE
  5
10D8
330
2
100
AcDbEntity
  8
HILF
100
AcDbLine
 10
234.7736801096947
 20
49.99999999999994
 30
0.0
 11
324.8353916556309
 21
49.99999999999994
 31
0.0
  0
LINE
  5
10D9
330
2
100
AcDbEntity
  8
HILF
100
AcDbLine
 10
234.7736801096947
 20
59.99999999999994
 30
0.0
 11
324.8353916556309
 21
59.99999999999994
 31
0.0
  0
LINE
  5
10DA
330
2
100
AcDbEntity
  8
HILF
100
AcDbLine
 10
234.7736801096947
 20
69.99999999999994
 30
0.0
 11
324.8353916556309
 21
69.99999999999994
 31
0.0
  0
LINE
  5
10DB
330
2
100
AcDbEntity
  8
HILF
100
AcDbLine
 10
234.7736801096947
 20
84.03758247564139
 30
0.0
 11
324.8353916556311
 21
84.03758247564139
 31
0.0
  0
TEXT
  5
10DC
330
2
100
AcDbEntity
  8
TEXT
100
AcDbText
 10
235.1296391125316
 20
51.64011943042158
 30
0.0
 40
5.0
  1
EDV-Art.Nr. 21908.100X
 41
0.8
  7
GREEKS
100
AcDbText
  0
TEXT
  5
10DD
330
2
100
AcDbEntity
  8
TEXT
100
AcDbText
 10
234.742238391136
 20
30.84560570193054
 30
0.0
 40
5.0
  1
Bauvorhaben
 41
0.8
  7
GREEKS
100
AcDbText
  0
TEXT
  5
10DE
330
2
100
AcDbEntity
  8
TEXT
100
AcDbText
 10
234.9837501577827
 20
42.62974153022634
 30
0.0
 40
4.0
  1
21908100W.DWG
 41
0.8
  7
GREEKS
100
AcDbText
  0
TEXT
  5
10DF
330
2
100
AcDbEntity
  8
TEXT
100
AcDbText
 10
234.877940380901
 20
102.5489328011779
 30
0.0
 40
5.0
  1
Benennung
 41
0.8
  7
GREEKS
100
AcDbText
  0
LINE
  5
10E0
330
2
100
AcDbEntity
  8
STEMPEL
100
AcDbLine
 10
332.0
 20
109.9999999999997
 30
0.0
 11
332.0
 21
40.0
 31
0.0
  0
TEXT
  5
10E2
330
2
100
AcDbEntity
  8
TEXT
 62
     1
100
AcDbText
 10
346.7853443466426
 20
88.14901428913959
 30
0.0
 40
7.0
  1
21908100W
 41
0.8
  7
GREEKS
 72
     1
 11
369.7186776799759
 21
88.14901428913959
 31
0.0
100
AcDbText
  0
LINE
  5
10E3
330
2
100
AcDbEntity
  8
STEMPEL
100
AcDbLine
 10
410.0
 20
80.0
 30
0.0
 11
146.0000000000001
 21
79.99999999999994
 31
0.0
  0
LINE
  5
10E4
330
2
100
AcDbEntity
  8
STEMPEL
100
AcDbLine
 10
410.0
 20
40.0
 30
0.0
 11
146.0000000000001
 21
39.99999999999995
 31
0.0
  0
LINE
  5
10E5
330
2
100
AcDbEntity
  8
STEMPEL
100
AcDbLine
 10
410.0
 20
110.0
 30
0.0
 11
40.0
 21
110.0
 31
0.0
  0
LINE
  5
10E6
330
2
100
AcDbEntity
  8
VOLL
100
AcDbLine
 10
124.0000000000001
 20
109.9999999999999
 30
0.0
 11
124.0
 21
9.999999999999943
 31
0.0
  0
LINE
  5
10E7
330
2
100
AcDbEntity
  8
VOLL
100
AcDbLine
 10
104.0000000000001
 20
109.9999999999999
 30
0.0
 11
104.0
 21
9.999999999999943
 31
0.0
  0
LINE
  5
10E8
330
2
100
AcDbEntity
  8
STEMPEL
100
AcDbLine
 10
146.0000000000001
 20
109.9999999999999
 30
0.0
 11
146.0
 21
9.999999999999943
 31
0.0
  0
LINE
  5
10E9
330
2
100
AcDbEntity
  8
VOLL
100
AcDbLine
 10
332.0
 20
60.0
 30
0.0
 11
410.0
 21
60.0
 31
0.0
  0
LINE
  5
10EA
330
2
100
AcDbEntity
  8
STEMPEL
100
AcDbLine
 10
230.0
 20
110.0
 30
0.0
 11
230.0
 21
9.999999999999943
 31
0.0
  0
HATCH
  5
10EB
330
2
100
AcDbEntity
  8
SCHRAFF
100
AcDbHatch
 10
0.0
 20
0.0
 30
0.0
210
0.0
220
0.0
230
1.0
  2
_USER
 70
     0
 71
     0
 91
        2
 92
        7
 72
     1
 73
     1
 93
       12
 10
295.2012424203429
 20
444.8526228653227
 42
0.198912367379667
 10
291.66570851441
 20
443.3881567712555
 42
0.0
 10
279.7083492015296
 20
431.4307974583759
 42
0.0
 10
281.829669545089
 20
429.3094771148163
 42
0.0
 10
293.7870288579701
 20
441.2668364276962
 42
-0.1989123673796441
 10
295.2012424203432
 20
441.8526228653229
 42
0.0
 10
364.3728152955973
 20
441.8526228653224
 42
-0.1989123673796583
 10
365.0799220767839
 20
441.5597296465089
 42
0.0
 10
368.7870288579703
 20
437.8526228653223
 42
0.0
 10
370.9083492015299
 20
439.9739432088821
 42
0.0
 10
367.2012424203434
 20
443.6810499900687
 42
0.1989123673796583
 10
364.3728152955972
 20
444.8526228653225
 42
0.0
 97
        0
 92
        7
 72
     1
 73
     1
 93
       12
 10
77.44388310746251
 20
444.8526228653234
 42
0.1989123673796583
 10
74.6154559827163
 20
443.6810499900696
 42
0.0
 10
70.90834920152985
 20
439.9739432088832
 42
0.0
 10
73.02966954508974
 20
437.8526228653235
 42
0.0
 10
76.73677632627596
 20
441.5597296465101
 42
-0.1989123673796589
 10
77.44388310746251
 20
441.8526228653235
 42
0.0
 10
146.6154559827169
 20
441.8526228653234
 42
-0.198912367379615
 10
148.0296695450896
 20
441.2668364276964
 42
0.0
 10
159.9870288579708
 20
429.3094771148162
 42
0.0
 10
162.1083492015302
 20
431.4307974583757
 42
0.0
 10
150.1509898886494
 20
443.388156771256
 42
0.1989123673796492
 10
146.6154559827167
 20
444.8526228653232
 42
0.0
 97
        0
 75
     0
 76
     0
 52
45.0
 41
2.0
 77
     0
 78
     1
 53
45.0
 43
0.0
 44
0.0
 45
-1.414213562373094
 46
1.414213562373095
 79
     0
 47
0.4756770542966898
 98
        2
 10
319.6028817153611
 20
443.4135002375184
 10
141.5693561284802
 20
443.4135002375184
  0
LINE
  5
10F0
330
2
100
AcDbEntity
  8
HILF
100
AcDbLine
 10
172.5129330065818
 20
182.8526228653232
 30
0.0
 11
269.3037653964781
 21
182.8526228653229
 31
0.0
  0
LINE
  5
10F1
330
2
100
AcDbEntity
  8
STEMPEL
100
AcDbLine
 10
170.8082585097373
 20
174.8526228653232
 30
0.0
 11
271.0084398933226
 21
174.8526228653228
 31
0.0
  0
LINE
  5
10FC
330
2
100
AcDbEntity
  8
STEMPEL
100
AcDbLine
 10
73.02966954508974
 20
437.8526228653235
 30
0.0
 11
151.4438831074632
 21
437.8526228653233
 31
0.0
  0
LINE
  5
10FE
330
2
100
AcDbEntity
  8
STEMPEL
100
AcDbLine
 10
77.44388310746251
 20
441.8526228653235
 30
0.0
 11
146.6154559827169
 21
441.8526228653234
 31
0.0
  0
LINE
  5
10FF
330
2
100
AcDbEntity
  8
STEMPEL
100
AcDbLine
 10
77.44388310746251
 20
444.8526228653234
 30
0.0
 11
164.0269985187335
 21
444.8526228653231
 31
0.0
  0
ARC
  5
1103
330
2
100
AcDbEntity
  8
STEMPEL
100
AcDbCircle
 10
77.44388310746251
 20
440.8526228653234
 30
0.0
 40
4.0
100
AcDbArc
 50
90.0
 51
135.0000000000001
  0
LINE
  5
1104
330
2
100
AcDbEntity
  8
STEMPEL
100
AcDbLine
 10
73.02966954508963
 20
437.8526228653235
 30
0.0
 11
76.73677632627596
 21
441.5597296465101
 31
0.0
  0
LINE
  5
1105
330
2
100
AcDbEntity
  8
STEMPEL
100
AcDbLine
 10
70.90834920152997
 20
439.9739432088833
 30
0.0
 11
73.02966954508963
 21
437.8526228653235
 31
0.0
  0
LINE
  5
1106
330
2
100
AcDbEntity
  8
STEMPEL
100
AcDbLine
 10
70.90834920152997
 20
439.9739432088833
 30
0.0
 11
74.6154559827163
 21
443.6810499900696
 31
0.0
  0
ARC
  5
1107
330
2
100
AcDbEntity
  8
STEMPEL
100
AcDbCircle
 10
77.44388310746251
 20
440.8526228653236
 30
0.0
 40
1.0
100
AcDbArc
 50
90.0
 51
135.0000000000002
  0
LINE
  5
1108
330
2
100
AcDbEntity
  8
STEMPEL
100
AcDbLine
 10
112.9083492015299
 20
469.8526228653234
 30
0.0
 11
104.90834920153
 21
469.8526228653234
 31
0.0
  0
LINE
  5
1109
330
2
100
AcDbEntity
  8
STEMPEL
100
AcDbLine
 10
103.90834920153
 20
468.8526228653235
 30
0.0
 11
113.9083492015299
 21
468.8526228653235
 31
0.0
  0
LINE
  5
110A
330
2
100
AcDbEntity
  8
HILF
100
AcDbLine
 10
104.90834920153
 20
469.8526228653234
 30
0.0
 11
104.90834920153
 21
466.3526228653234
 31
0.0
  0
LINE
  5
110B
330
2
100
AcDbEntity
  8
STEMPEL
100
AcDbLine
 10
103.90834920153
 20
468.8526228653233
 30
0.0
 11
103.90834920153
 21
466.3526228653234
 31
0.0
  0
LINE
  5
110C
330
2
100
AcDbEntity
  8
MITTEL
100
AcDbLine
 10
108.90834920153
 20
474.3431171523079
 30
0.0
 11
108.90834920153
 21
444.8526228653234
 31
0.0
  0
LINE
  5
110D
330
2
100
AcDbEntity
  8
STEMPEL
100
AcDbLine
 10
104.90834920153
 20
469.8526228653234
 30
0.0
 11
103.90834920153
 21
468.8526228653233
 31
0.0
  0
LINE
  5
110E
330
2
100
AcDbEntity
  8
HILF
100
AcDbLine
 10
112.9083492015299
 20
469.8526228653234
 30
0.0
 11
112.9083492015299
 21
466.3526228653235
 31
0.0
  0
LINE
  5
110F
330
2
100
AcDbEntity
  8
STEMPEL
100
AcDbLine
 10
113.9083492015299
 20
468.8526228653233
 30
0.0
 11
113.9083492015299
 21
466.3526228653234
 31
0.0
  0
LINE
  5
1110
330
2
100
AcDbEntity
  8
STEMPEL
100
AcDbLine
 10
113.9083492015299
 20
468.8526228653233
 30
0.0
 11
112.9083492015299
 21
469.8526228653234
 31
0.0
  0
TEXT
  5
1117
330
2
100
AcDbEntity
  8
TEXT
 62
     1
100
AcDbText
 10
213.6698216492557
 20
343.7256557402792
 30
0.0
 40
7.0
  1
DN100
 50
90.0
 41
0.8
  7
GREEKS
 72
     1
 11
213.6698216492557
 21
356.1256557402792
 31
0.0
100
AcDbText
  0
LINE
  5
111A
330
2
100
AcDbEntity
  8
STEMPEL
100
AcDbLine
 10
150.1509898886494
 20
443.388156771256
 30
0.0
 11
162.1083492015303
 21
431.4307974583758
 31
0.0
  0
LINE
  5
111B
102
{ACAD_REACTORS
330
19EC
102
}
330
2
100
AcDbEntity
  8
STEMPEL
100
AcDbLine
 10
148.0296695450898
 20
441.2668364276962
 30
0.0
 11
159.9870288579708
 21
429.3094771148162
 31
0.0
  0
ARC
  5
111F
102
{ACAD_REACTORS
330
19EC
102
}
330
2
100
AcDbEntity
  8
SCHRAFF
100
AcDbCircle
 10
163.2373314238118
 20
429.1307974583765
 30
0.0
 40
4.0
100
AcDbArc
 50
167.8875059179503
 51
266.7182772059517
  0
LINE
  5
1120
102
{ACAD_REACTORS
330
19EC
102
}
330
2
100
AcDbEntity
  8
STEMPEL
  6
STRICHPUNKT
100
AcDbLine
 10
162.1083492015304
 20
431.4307974583758
 30
0.0
 11
159.9870288579709
 21
429.3094771148162
 31
0.0
  0
LINE
  5
1127
330
2
100
AcDbEntity
  8
STEMPEL
100
AcDbLine
 10
160.9083492015301
 20
469.8526228653232
 30
0.0
 11
159.9083492015301
 21
468.8526228653232
 31
0.0
  0
LINE
  5
1128
330
2
100
AcDbEntity
  8
STEMPEL
100
AcDbLine
 10
159.9083492015302
 20
468.8526228653233
 30
0.0
 11
169.9083492015299
 21
468.8526228653233
 31
0.0
  0
LINE
  5
1129
330
2
100
AcDbEntity
  8
STEMPEL
100
AcDbLine
 10
159.9083492015301
 20
468.8526228653232
 30
0.0
 11
159.9083492015301
 21
466.3526228653235
 31
0.0
  0
ARC
  5
112A
330
2
100
AcDbEntity
  8
STEMPEL
100
AcDbCircle
 10
146.6154559827169
 20
439.8526228653231
 30
0.0
 40
5.0
100
AcDbArc
 50
45.00000000000036
 51
90.0
  0
ARC
  5
112B
330
2
100
AcDbEntity
  8
STEMPEL
100
AcDbCircle
 10
146.6154559827169
 20
439.8526228653231
 30
0.0
 40
2.0
100
AcDbArc
 50
45.00000000000036
 51
90.0
  0
LINE
  5
112C
330
2
100
AcDbEntity
  8
MITTEL
100
AcDbLine
 10
164.9083492015301
 20
474.3431171523078
 30
0.0
 11
164.9083492015301
 21
444.8526228653232
 31
0.0
  0
LINE
  5
112D
330
2
100
AcDbEntity
  8
STEMPEL
100
AcDbLine
 10
169.9083492015301
 20
468.8526228653231
 30
0.0
 11
169.9083492015301
 21
466.3526228653234
 31
0.0
  0
LINE
  5
112E
330
2
100
AcDbEntity
  8
HILF
100
AcDbLine
 10
168.9083492015301
 20
469.8526228653231
 30
0.0
 11
168.90834920153
 21
466.3526228653235
 31
0.0
  0
LINE
  5
112F
330
2
100
AcDbEntity
  8
HILF
100
AcDbLine
 10
160.9083492015301
 20
469.8526228653232
 30
0.0
 11
160.9083492015301
 21
466.3526228653234
 31
0.0
  0
LINE
  5
1132
330
2
100
AcDbEntity
  8
STEMPEL
100
AcDbLine
 10
169.9083492015301
 20
468.8526228653231
 30
0.0
 11
168.9083492015301
 21
469.8526228653231
 31
0.0
  0
LINE
  5
1133
330
2
100
AcDbEntity
  8
STEMPEL
100
AcDbLine
 10
168.9083492015301
 20
469.8526228653231
 30
0.0
 11
160.9083492015301
 21
469.8526228653232
 31
0.0
  0
LINE
  5
1135
330
2
100
AcDbEntity
  8
MITTEL
100
AcDbLine
 10
220.90834920153
 20
459.8526228653238
 30
0.0
 11
220.90834920153
 21
169.852622865323
 31
0.0
  0
TEXT
  5
1138
330
2
100
AcDbEntity
  8
TEXT
 62
     1
100
AcDbText
 10
282.3229318525079
 20
155.7729961534306
 30
0.0
 40
7.0
  1
Rohrende leicht eingezogen
 41
0.8
  7
GREEKS
100
AcDbText
  0
LINE
  5
1139
330
2
100
AcDbEntity
  8
STEMPEL
100
AcDbLine
 10
271.7083492015301
 20
182.8526228653231
 30
0.0
 11
271.0084398933226
 21
174.8526228653228
 31
0.0
  0
LINE
  5
113B
330
2
100
AcDbEntity
  8
STEMPEL
100
AcDbLine
 10
290.3728152955962
 20
437.8526228653226
 30
0.0
 11
368.7870288579704
 21
437.8526228653224
 31
0.0
  0
LINE
  5
113D
330
2
100
AcDbEntity
  8
STEMPEL
100
AcDbLine
 10
277.7896998843266
 20
444.8526228653227
 30
0.0
 11
364.3728152955972
 21
444.8526228653225
 31
0.0
  0
LINE
  5
113E
330
2
100
AcDbEntity
  8
STEMPEL
100
AcDbLine
 10
295.2012424203431
 20
441.8526228653229
 30
0.0
 11
364.3728152955973
 21
441.8526228653224
 31
0.0
  0
LINE
  5
1141
330
2
100
AcDbEntity
  8
STEMPEL
100
AcDbLine
 10
229.82834920153
 20
469.8526228653233
 30
0.0
 11
237.82834920153
 21
469.8526228653234
 31
0.0
  0
LINE
  5
1142
330
2
100
AcDbEntity
  8
STEMPEL
100
AcDbLine
 10
238.8283492015299
 20
468.8526228653235
 30
0.0
 11
228.8283492015301
 21
468.8526228653235
 31
0.0
  0
LINE
  5
114B
330
2
100
AcDbEntity
  8
STEMPEL
100
AcDbLine
 10
228.8283492015299
 20
468.8526228653233
 30
0.0
 11
228.8283492015299
 21
466.3526228653236
 31
0.0
  0
LINE
  5
114C
330
2
100
AcDbEntity
  8
HILF
100
AcDbLine
 10
229.82834920153
 20
469.8526228653233
 30
0.0
 11
229.8283492015299
 21
466.3526228653235
 31
0.0
  0
LINE
  5
114D
330
2
100
AcDbEntity
  8
STEMPEL
100
AcDbLine
 10
228.8283492015299
 20
468.8526228653233
 30
0.0
 11
229.82834920153
 21
469.8526228653233
 31
0.0
  0
LINE
  5
114F
102
{ACAD_REACTORS
330
19EC
102
}
330
2
100
AcDbEntity
  8
STEMPEL
100
AcDbLine
 10
293.7870288579701
 20
441.2668364276962
 30
0.0
 11
281.829669545089
 21
429.3094771148162
 31
0.0
  0
LINE
  5
1150
330
2
100
AcDbEntity
  8
STEMPEL
100
AcDbLine
 10
291.6657085144105
 20
443.388156771256
 30
0.0
 11
279.7083492015296
 21
431.4307974583758
 31
0.0
  0
ARC
  5
1155
102
{ACAD_REACTORS
330
19EC
102
}
330
2
100
AcDbEntity
  8
SCHRAFF
100
AcDbCircle
 10
278.8220774299036
 20
429.1307974583765
 30
0.0
 40
4.0
100
AcDbArc
 50
269.8033572274548
 51
14.99432363714724
  0
LINE
  5
1159
102
{ACAD_REACTORS
330
19EC
102
}
330
2
100
AcDbEntity
  8
STEMPEL
  6
STRICHPUNKT
100
AcDbLine
 10
279.7083492015296
 20
431.4307974583759
 30
0.0
 11
281.8296695450891
 21
429.3094771148162
 31
0.0
  0
ARC
  5
115A
330
2
100
AcDbEntity
  8
STEMPEL
100
AcDbCircle
 10
295.2012424203431
 20
439.8526228653231
 30
0.0
 40
5.0
100
AcDbArc
 50
90.0
 51
134.9999999999996
  0
LINE
  5
115B
330
2
100
AcDbEntity
  8
STEMPEL
100
AcDbLine
 10
238.8283492015299
 20
468.8526228653234
 30
0.0
 11
238.8283492015299
 21
466.3526228653235
 31
0.0
  0
LINE
  5
115C
330
2
100
AcDbEntity
  8
HILF
100
AcDbLine
 10
237.82834920153
 20
469.8526228653234
 30
0.0
 11
237.82834920153
 21
466.3526228653235
 31
0.0
  0
LINE
  5
115D
330
2
100
AcDbEntity
  8
MITTEL
100
AcDbLine
 10
233.82834920153
 20
474.343117152308
 30
0.0
 11
233.82834920153
 21
444.8526228653234
 31
0.0
  0
LINE
  5
115F
330
2
100
AcDbEntity
  8
STEMPEL
100
AcDbLine
 10
237.82834920153
 20
469.8526228653234
 30
0.0
 11
238.8283492015299
 21
468.8526228653234
 31
0.0
  0
ARC
  5
1160
330
2
100
AcDbEntity
  8
STEMPEL
100
AcDbCircle
 10
295.2012424203431
 20
439.8526228653231
 30
0.0
 40
2.0
100
AcDbArc
 50
90.0
 51
134.9999999999996
  0
LINE
  5
1161
330
2
100
AcDbEntity
  8
STEMPEL
100
AcDbLine
 10
329.3783492015299
 20
468.8526228653234
 30
0.0
 11
329.37834920153
 21
466.3526228653237
 31
0.0
  0
LINE
  5
1162
330
2
100
AcDbEntity
  8
STEMPEL
100
AcDbLine
 10
319.3783492015299
 20
468.8526228653234
 30
0.0
 11
319.3783492015299
 21
466.3526228653235
 31
0.0
  0
LINE
  5
1163
102
{ACAD_REACTORS
330
1CFF
102
}
330
2
100
AcDbEntity
  8
MITTEL
100
AcDbLine
 10
324.37834920153
 20
474.343117152308
 30
0.0
 11
324.37834920153
 21
444.8526228653234
 31
0.0
  0
LINE
  5
1164
330
2
100
AcDbEntity
  8
HILF
100
AcDbLine
 10
320.37834920153
 20
469.8526228653234
 30
0.0
 11
320.37834920153
 21
466.3526228653236
 31
0.0
  0
LINE
  5
1165
330
2
100
AcDbEntity
  8
HILF
100
AcDbLine
 10
328.3783492015299
 20
469.8526228653234
 30
0.0
 11
328.3783492015299
 21
466.3526228653236
 31
0.0
  0
LINE
  5
1166
330
2
100
AcDbEntity
  8
STEMPEL
100
AcDbLine
 10
320.37834920153
 20
469.8526228653234
 30
0.0
 11
328.3783492015299
 21
469.8526228653234
 31
0.0
  0
LINE
  5
1167
330
2
100
AcDbEntity
  8
STEMPEL
100
AcDbLine
 10
329.3783492015299
 20
468.8526228653235
 30
0.0
 11
319.3783492015299
 21
468.8526228653235
 31
0.0
  0
LINE
  5
1168
330
2
100
AcDbEntity
  8
STEMPEL
100
AcDbLine
 10
319.3783492015299
 20
468.8526228653234
 30
0.0
 11
320.37834920153
 21
469.8526228653234
 31
0.0
  0
LINE
  5
1169
330
2
100
AcDbEntity
  8
STEMPEL
100
AcDbLine
 10
328.3783492015299
 20
469.8526228653234
 30
0.0
 11
329.3783492015299
 21
468.8526228653234
 31
0.0
  0
ARC
  5
116B
330
2
100
AcDbEntity
  8
STEMPEL
100
AcDbCircle
 10
364.3728152955972
 20
440.8526228653225
 30
0.0
 40
4.0
100
AcDbArc
 50
44.99999999999992
 51
90.0
  0
LINE
  5
116C
330
2
100
AcDbEntity
  8
STEMPEL
100
AcDbLine
 10
368.7870288579704
 20
437.8526228653224
 30
0.0
 11
365.0799220767839
 21
441.5597296465089
 31
0.0
  0
ARC
  5
116D
330
2
100
AcDbEntity
  8
STEMPEL
100
AcDbCircle
 10
364.3728152955973
 20
440.8526228653224
 30
0.0
 40
1.0
100
AcDbArc
 50
44.99999999999992
 51
90.0
  0
LINE
  5
116E
330
2
100
AcDbEntity
  8
STEMPEL
100
AcDbLine
 10
370.90834920153
 20
439.9739432088821
 30
0.0
 11
368.7870288579704
 21
437.8526228653224
 31
0.0
  0
LINE
  5
116F
330
2
100
AcDbEntity
  8
STEMPEL
100
AcDbLine
 10
370.90834920153
 20
439.9739432088821
 30
0.0
 11
367.2012424203434
 21
443.6810499900687
 31
0.0
  0
TEXT
  5
124B
330
2
100
AcDbEntity
  8
TEXT
100
AcDbText
 10
235.1296391125316
 20
71.64011943042152
 30
0.0
 40
5.0
  1
Grundeinheit DN100
 41
0.8
  7
GREEKS
100
AcDbText
  0
TEXT
  5
124C
330
2
100
AcDbEntity
  8
TEXT
100
AcDbText
 10
235.1296391125316
 20
61.64011943042158
 30
0.0
 40
5.0
  1
für Rohrdurchführung
 41
0.8
  7
GREEKS
100
AcDbText
  0
ARC
  5
194F
330
2
100
AcDbEntity
  8
STEMPEL
100
AcDbCircle
 10
154.20834920153
 20
400.3494223346421
 30
0.0
 40
14.0
100
AcDbArc
 50
0.0
 51
26.88804761772463
  0
ARC
  5
1950
330
2
100
AcDbEntity
  8
STEMPEL
100
AcDbCircle
 10
187.20834920153
 20
417.0826228653235
 30
0.0
 40
23.0
100
AcDbArc
 50
180.0
 51
206.8880476177246
  0
ARC
  5
1951
330
2
100
AcDbEntity
  8
STEMPEL
100
AcDbCircle
 10
187.20834920153
 20
435.6563119476731
 30
0.0
 40
23.0
100
AcDbArc
 50
147.9760040253812
 51
180.0
  0
LINE
  5
1952
330
2
100
AcDbEntity
  8
STEMPEL
100
AcDbLine
 10
164.20834920153
 20
435.6563119476731
 30
0.0
 11
164.20834920153
 21
417.0826228653235
 31
0.0
  0
ARC
  5
1953
330
2
100
AcDbEntity
  8
STEMPEL
100
AcDbCircle
 10
162.1083492015301
 20
373.3094961886834
 30
0.0
 40
8.0
100
AcDbArc
 50
0.0
 51
30.85958109062227
  0
LINE
  5
1954
330
2
100
AcDbEntity
  8
STEMPEL
100
AcDbLine
 10
168.20834920153
 20
400.349422334642
 30
0.0
 11
168.20834920153
 21
384.6245304352067
 31
0.0
  0
LINE
  5
1955
330
2
100
AcDbEntity
  8
STEMPEL
100
AcDbLine
 10
170.1083492015301
 20
373.2090789600719
 30
0.0
 11
170.1083492015301
 21
182.8526228653203
 31
0.0
  0
LINE
  5
1956
330
2
100
AcDbEntity
  8
STEMPEL
100
AcDbLine
 10
171.30834920153
 20
373.2090789600719
 30
0.0
 11
171.3083492015307
 21
182.852622865313
 31
0.0
  0
ARC
  5
1957
330
2
100
AcDbEntity
  8
STEMPEL
100
AcDbCircle
 10
162.1083492015301
 20
373.3094961886834
 30
0.0
 40
9.199999999999999
100
AcDbArc
 50
0.0
 51
30.64293176293956
  0
ARC
  5
1958
330
2
100
AcDbEntity
  8
STEMPEL
100
AcDbCircle
 10
181.20834920153
 20
384.6245304352067
 30
0.0
 40
13.0
100
AcDbArc
 50
180.0
 51
210.6429317629395
  0
ARC
  5
1959
330
2
100
AcDbEntity
  8
STEMPEL
100
AcDbCircle
 10
181.20834920153
 20
384.6245304352067
 30
0.0
 40
14.2
100
AcDbArc
 50
180.0
 51
210.6429317629395
  0
LINE
  5
195A
330
2
100
AcDbEntity
  8
STEMPEL
100
AcDbLine
 10
167.0083492015301
 20
400.349422334642
 30
0.0
 11
167.00834920153
 21
384.6245304352067
 31
0.0
  0
ARC
  5
195B
330
2
100
AcDbEntity
  8
STEMPEL
100
AcDbCircle
 10
154.20834920153
 20
400.3494223346421
 30
0.0
 40
12.8
100
AcDbArc
 50
0.0
 51
26.88804761772463
  0
ARC
  5
195C
330
2
100
AcDbEntity
  8
STEMPEL
100
AcDbCircle
 10
187.20834920153
 20
417.0826228653235
 30
0.0
 40
24.2
100
AcDbArc
 50
180.0
 51
206.8880476177246
  0
LINE
  5
195D
102
{ACAD_REACTORS
330
19EC
102
}
330
2
100
AcDbEntity
  8
STEMPEL
100
AcDbLine
 10
163.0083492015301
 20
435.6563119476731
 30
0.0
 11
163.0083492015301
 21
417.0826228653235
 31
0.0
  0
ARC
  5
195E
330
2
100
AcDbEntity
  8
STEMPEL
100
AcDbCircle
 10
187.20834920153
 20
435.6563119476731
 30
0.0
 40
24.2
100
AcDbArc
 50
149.7363480579017
 51
180.0
  0
ARC
  5
195F
330
2
100
AcDbEntity
  8
STEMPEL
100
AcDbCircle
 10
254.60834920153
 20
435.6563119476732
 30
0.0
 40
24.2
100
AcDbArc
 50
0.0
 51
30.26365194209824
  0
LINE
  5
1960
102
{ACAD_REACTORS
330
19EC
102
}
330
2
100
AcDbEntity
  8
STEMPEL
100
AcDbLine
 10
278.8083492015299
 20
435.6563119476732
 30
0.0
 11
278.8083492015301
 21
417.0826228653236
 31
0.0
  0
ARC
  5
1961
330
2
100
AcDbEntity
  8
STEMPEL
100
AcDbCircle
 10
254.60834920153
 20
417.0826228653236
 30
0.0
 40
24.2
100
AcDbArc
 50
333.1119523822754
 51
0.0
  0
ARC
  5
1962
330
2
100
AcDbEntity
  8
STEMPEL
100
AcDbCircle
 10
287.60834920153
 20
400.3494223346421
 30
0.0
 40
12.8
100
AcDbArc
 50
153.1119523822753
 51
180.0
  0
LINE
  5
1963
330
2
100
AcDbEntity
  8
STEMPEL
100
AcDbLine
 10
274.8083492015301
 20
400.3494223346421
 30
0.0
 11
274.8083492015301
 21
384.6245304352068
 31
0.0
  0
ARC
  5
1964
330
2
100
AcDbEntity
  8
STEMPEL
100
AcDbCircle
 10
260.60834920153
 20
384.6245304352068
 30
0.0
 40
14.2
100
AcDbArc
 50
329.3570682370604
 51
0.0
  0
ARC
  5
1965
330
2
100
AcDbEntity
  8
STEMPEL
100
AcDbCircle
 10
260.60834920153
 20
384.6245304352068
 30
0.0
 40
13.0
100
AcDbArc
 50
329.3570682370604
 51
0.0
  0
ARC
  5
1966
330
2
100
AcDbEntity
  8
STEMPEL
100
AcDbCircle
 10
279.70834920153
 20
373.3094961886834
 30
0.0
 40
9.199999999999999
100
AcDbArc
 50
149.3570682370604
 51
180.0
  0
LINE
  5
1967
330
2
100
AcDbEntity
  8
STEMPEL
100
AcDbLine
 10
270.5083492015301
 20
373.209078960072
 30
0.0
 11
270.5083492015301
 21
182.8526228653228
 31
0.0
  0
LINE
  5
1968
330
2
100
AcDbEntity
  8
STEMPEL
100
AcDbLine
 10
271.7083492015301
 20
373.209078960072
 30
0.0
 11
271.7083492015301
 21
182.8526228653231
 31
0.0
  0
LINE
  5
1969
330
2
100
AcDbEntity
  8
STEMPEL
100
AcDbLine
 10
273.60834920153
 20
400.3494223346421
 30
0.0
 11
273.60834920153
 21
384.6245304352068
 31
0.0
  0
ARC
  5
196A
330
2
100
AcDbEntity
  8
STEMPEL
100
AcDbCircle
 10
279.70834920153
 20
373.3094961886834
 30
0.0
 40
8.0
100
AcDbArc
 50
149.1404189093777
 51
180.0
  0
LINE
  5
196B
330
2
100
AcDbEntity
  8
STEMPEL
100
AcDbLine
 10
277.60834920153
 20
435.6563119476732
 30
0.0
 11
277.60834920153
 21
417.0826228653236
 31
0.0
  0
ARC
  5
196C
330
2
100
AcDbEntity
  8
STEMPEL
100
AcDbCircle
 10
254.60834920153
 20
435.6563119476732
 30
0.0
 40
23.0
100
AcDbArc
 50
0.0
 51
32.02399597461875
  0
ARC
  5
196D
330
2
100
AcDbEntity
  8
STEMPEL
100
AcDbCircle
 10
254.60834920153
 20
417.0826228653236
 30
0.0
 40
23.0
100
AcDbArc
 50
333.1119523822754
 51
0.0
  0
ARC
  5
196E
330
2
100
AcDbEntity
  8
STEMPEL
100
AcDbCircle
 10
287.60834920153
 20
400.3494223346421
 30
0.0
 40
14.0
100
AcDbArc
 50
153.1119523822753
 51
180.0
  0
LINE
  5
1970
330
2
100
AcDbEntity
  8
STEMPEL
100
AcDbLine
 10
278.9579210939424
 20
447.8526228653234
 30
0.0
 11
274.1083492015301
 21
447.8526228653235
 31
0.0
  0
LINE
  5
1972
330
2
100
AcDbEntity
  8
HILF
100
AcDbLine
 10
272.7025186717077
 20
403.3253618864839
 30
0.0
 11
169.1141797313524
 21
403.3253618864839
 31
0.0
  0
LINE
  5
1973
330
2
100
AcDbEntity
  8
HILF
100
AcDbLine
 10
271.7959106664575
 20
380.8724019101601
 30
0.0
 11
170.0207877366025
 21
380.8724019101601
 31
0.0
  0
LINE
  5
1974
330
2
100
AcDbEntity
  8
HILF
100
AcDbLine
 10
269.5284836365362
 20
375.4379550392726
 30
0.0
 11
172.288214766524
 21
375.4379550392726
 31
0.0
  0
LINE
  5
1977
330
2
100
AcDbEntity
  8
STEMPEL
100
AcDbLine
 10
270.5083492015301
 20
182.8526228653229
 30
0.0
 11
269.8084398933227
 21
174.8526228653226
 31
0.0
  0
LINE
  5
1989
330
2
100
AcDbEntity
  8
STEMPEL
100
AcDbLine
 10
171.3083492015307
 20
182.852622865313
 30
0.0
 11
172.0082585097373
 21
174.8526228653226
 31
0.0
  0
LINE
  5
198A
330
2
100
AcDbEntity
  8
STEMPEL
100
AcDbLine
 10
170.1083492015301
 20
182.8526228653203
 30
0.0
 11
170.8082585097373
 21
174.8526228653232
 31
0.0
  0
DIMENSION
  5
19B8
330
2
100
AcDbEntity
  8
BEM
100
AcDbDimension
  2
*D1
 10
170.1083492015301
 20
156.9836005452844
 30
0.0
 11
220.9083492015301
 21
163.4836005452844
 31
0.0
 70
    32
  1
%%c<>
 71
     5
 42
101.5999999999999
  3
STANDARD
100
AcDbAlignedDimension
 13
271.7083492015301
 23
182.8526228653231
 33
0.0
 14
170.1083492015301
 24
182.8526228653203
 34
0.0
100
AcDbRotatedDimension
  0
LINE
  5
19D7
102
{ACAD_REACTORS
330
19EC
102
}
330
2
100
AcDbEntity
  8
STEMPEL
100
AcDbLine
 10
279.7083492015296
 20
431.4307974583759
 30
0.0
 11
278.8083492015299
 21
431.4307974583759
 31
0.0
  0
LINE
  5
19D8
102
{ACAD_REACTORS
330
19EC
102
}
330
2
100
AcDbEntity
  8
STEMPEL
100
AcDbLine
 10
281.8296695450891
 20
429.3094771148163
 30
0.0
 11
278.8083492015299
 21
429.3094771148163
 31
0.0
  0
LINE
  5
19D9
102
{ACAD_REACTORS
330
19EC
102
}
330
2
100
AcDbEntity
  8
STEMPEL
100
AcDbLine
 10
162.1083492015303
 20
431.4307974583758
 30
0.0
 11
163.0083492015301
 21
431.4307974583758
 31
0.0
  0
LINE
  5
19DA
102
{ACAD_REACTORS
330
19EC
102
}
330
2
100
AcDbEntity
  8
STEMPEL
100
AcDbLine
 10
159.9870288579708
 20
429.3094771148161
 30
0.0
 11
163.0083492015301
 21
429.3094771148162
 31
0.0
  0
HATCH
  5
19EC
330
2
100
AcDbEntity
  8
SCHRAFF
100
AcDbHatch
 10
0.0
 20
0.0
 30
0.0
210
0.0
220
0.0
230
1.0
  2
_USER
 70
     0
 71
     1
 91
        4
 92
        7
 72
     0
 73
     1
 93
        4
 10
281.8296695450891
 20
429.3094771148163
 10
279.7083492015296
 20
431.4307974583759
 10
278.8083492015299
 20
431.4307974583759
 10
278.8083492015299
 20
429.3094771148163
 97
        4
330
19D7
330
1960
330
19D8
330
1159
 92
        7
 72
     1
 73
     1
 93
        4
 10
278.8083492015299
 20
425.1308210164776
 42
0.4941817398852672
 10
282.6858832821741
 20
430.1656908519011
 42
0.0
 10
281.8296695450891
 20
429.3094771148163
 42
0.0
 10
278.8083492015299
 20
429.3094771148163
 42
0.0
 97
        4
330
114F
330
19D8
330
1960
330
1155
 92
        7
 72
     0
 73
     1
 93
        4
 10
163.0083492015301
 20
429.3094771148163
 10
163.0083492015301
 20
431.4307974583757
 10
162.1083492015303
 20
431.4307974583758
 10
159.9870288579708
 20
429.3094771148162
 97
        4
330
19D9
330
1120
330
19DA
330
195D
 92
        7
 72
     1
 73
     1
 93
        4
 10
163.0083492015301
 20
429.3094771148162
 42
0.0
 10
159.9870288579709
 20
429.3094771148161
 42
0.0
 10
159.3263814098666
 20
429.9701245629204
 42
0.4601112896735137
 10
163.0083492015301
 20
425.1373569439981
 42
0.0
 97
        4
330
19DA
330
111B
330
111F
330
195D
 75
     0
 76
     0
 52
0.0
 41
0.1
 77
     0
 78
     1
 53
0.0
 43
0.0
 44
0.0
 45
0.0
 46
0.1
 79
     0
 47
0.205068391414626
 98
        4
 10
279.6774803931135
 20
429.7439136757368
 10
280.293044952074
 20
427.6932295825454
 10
161.8992195125033
 20
429.7439136757368
 10
161.8992195125033
 20
427.8982975468095
  0
HATCH
  5
1A1B
330
2
100
AcDbEntity
  8
SCHRAFF
100
AcDbHatch
 10
0.0
 20
0.0
 30
0.0
210
0.0
220
0.0
230
1.0
  2
_USER
 70
     0
 71
     0
 91
        2
 92
        7
 72
     1
 73
     1
 93
       20
 10
271.7083492015301
 20
373.3094961886834
 42
-0.1345075013956276
 10
272.8254663186472
 20
377.3869860072504
 42
0.1345075013956306
 10
274.8083492015301
 20
384.6245304352068
 42
0.0
 10
274.8083492015301
 20
400.3494223346421
 42
-0.1178625008509379
 10
276.1921329853138
 20
406.1382052209321
 42
0.1178625008509344
 10
278.8083492015301
 20
417.0826228653236
 42
0.0
 10
278.8083492015299
 20
435.6563119476732
 42
0.1328230131450168
 10
275.5102629895067
 20
447.8526228653234
 42
0.0
 10
274.1083492015301
 20
447.8526228653234
 42
-0.1406476065140127
 10
277.60834920153
 20
435.6563119476731
 42
0.0
 10
277.60834920153
 20
417.0826228653236
 42
-0.1178625008509388
 10
275.1218627150434
 20
406.6809036165214
 42
0.1178625008509323
 10
273.60834920153
 20
400.349422334642
 42
0.0
 10
273.60834920153
 20
384.6245304352068
 42
-0.134507501395641
 10
271.7930338862144
 20
377.998609480035
 42
0.1345075013956141
 10
270.5083492015301
 20
373.3094961886834
 42
0.0
 10
270.5083492015301
 20
182.8526228653225
 42
0.0
 10
269.8084398933227
 20
174.8526228653228
 42
0.0
 10
271.0084398933227
 20
174.8526228653228
 42
0.0
 10
271.7083492015301
 20
182.8526228653236
 42
0.0
 97
        0
 92
        7
 72
     1
 73
     1
 93
       20
 10
171.30834920153
 20
373.3094961886834
 42
0.1345075013956294
 10
170.0236645168454
 20
377.9986094800355
 42
-0.1345075013956275
 10
168.20834920153
 20
384.6245304352067
 42
0.0
 10
168.20834920153
 20
400.349422334642
 42
0.1178625008509359
 10
166.6948356880165
 20
406.6809036165215
 42
-0.1178625008509353
 10
164.20834920153
 20
417.0826228653235
 42
0.0
 10
164.20834920153
 20
435.6563119476731
 42
-0.1406476065140157
 10
167.7083492015301
 20
447.8526228653236
 42
0.0
 10
166.3064354135535
 20
447.8526228653236
 42
0.1328230131450203
 10
163.0083492015301
 20
435.6563119476732
 42
0.0
 10
163.0083492015301
 20
417.0826228653235
 42
0.117862500850936
 10
165.6245654177463
 20
406.1382052209318
 42
-0.1178625008509358
 10
167.0083492015301
 20
400.349422334642
 42
0.0
 10
167.00834920153
 20
384.6245304352067
 42
0.1345075013956296
 10
168.9912320844129
 20
377.3869860072504
 42
-0.1345075013956338
 10
170.1083492015301
 20
373.3094961886832
 42
0.0
 10
170.1083492015301
 20
182.8526228653202
 42
0.0
 10
170.8082585097373
 20
174.8526228653231
 42
0.0
 10
172.0082585097373
 20
174.8526228653231
 42
0.0
 10
171.3083492015307
 20
182.8526228653131
 42
0.0
 97
        0
 75
     0
 76
     0
 52
135.0
 41
2.0
 77
     0
 78
     1
 53
135.0
 43
0.0
 44
0.0
 45
-1.414213562373095
 46
-1.414213562373094
 79
     0
 47
0.4888398071550299
 98
        2
 10
271.1123441234586
 20
362.2254537082315
 10
170.8414383130798
 20
340.7165018557823
  0
LINE
  5
1A1F
330
2
100
AcDbEntity
  8
VOLL
100
AcDbLine
 10
55.0
 20
10.0
 30
0.0
 11
54.99999999999998
 21
110.0
 31
0.0
  0
LINE
  5
1A3D
102
{ACAD_REACTORS
330
1CFF
102
}
330
2
100
AcDbEntity
  8
STEMPEL
100
AcDbLine
 10
70.90834920152997
 20
444.8526228653234
 30
0.0
 11
164.8238039636676
 21
444.8526228653234
 31
0.0
  0
LINE
  5
1A3F
102
{ACAD_REACTORS
330
1CFF
102
}
330
2
100
AcDbEntity
  8
STEMPEL
100
AcDbLine
 10
70.90834920152997
 20
444.8526228653234
 30
0.0
 11
70.90834920152997
 21
447.8526228653234
 31
0.0
  0
LINE
  5
1A40
102
{ACAD_REACTORS
330
1CFF
102
}
330
2
100
AcDbEntity
  8
STEMPEL
100
AcDbLine
 10
100.90834920153
 20
444.8526228653232
 30
0.0
 11
100.9083492015299
 21
447.8526228653234
 31
0.0
  0
LINE
  5
1A42
102
{ACAD_REACTORS
330
1CFF
102
}
330
2
100
AcDbEntity
  8
STEMPEL
100
AcDbLine
 10
116.9083492015299
 20
444.8526228653232
 30
0.0
 11
116.90834920153
 21
447.8526228653234
 31
0.0
  0
LINE
  5
1A43
102
{ACAD_REACTORS
330
1CFF
102
}
330
2
100
AcDbEntity
  8
STEMPEL
100
AcDbLine
 10
140.9083492015299
 20
444.8526228653234
 30
0.0
 11
140.90834920153
 21
447.8526228653234
 31
0.0
  0
LINE
  5
1A45
102
{ACAD_REACTORS
330
1CFF
102
}
330
2
100
AcDbEntity
  8
STEMPEL
100
AcDbLine
 10
300.90834920153
 20
444.8526228653234
 30
0.0
 11
300.90834920153
 21
447.8526228653234
 31
0.0
  0
LINE
  5
1A49
102
{ACAD_REACTORS
330
1CFF
102
}
330
2
100
AcDbEntity
  8
STEMPEL
100
AcDbLine
 10
370.90834920153
 20
444.8526228653234
 30
0.0
 11
370.90834920153
 21
447.8526228653233
 31
0.0
  0
LINE
  5
1A5D
330
2
100
AcDbEntity
  8
STEMPEL
100
AcDbLine
 10
159.9083492015301
 20
450.3526228653234
 30
0.0
 11
159.9083492015301
 21
447.8526228653233
 31
0.0
  0
LINE
  5
1A5E
330
2
100
AcDbEntity
  8
HILF
100
AcDbLine
 10
160.9083492015301
 20
450.3526228653234
 30
0.0
 11
160.90834920153
 21
447.8526228653233
 31
0.0
  0
LINE
  5
1A61
102
{ACAD_REACTORS
330
1CFF
102
}
330
2
100
AcDbEntity
  8
STEMPEL
100
AcDbLine
 10
276.9928944393924
 20
444.8526228653234
 30
0.0
 11
370.90834920153
 21
444.8526228653234
 31
0.0
  0
LINE
  5
1B05
330
2
100
AcDbEntity
  8
STEMPEL
100
AcDbLine
 10
175.1083492015299
 20
429.3526228653238
 30
0.0
 11
266.70834920153
 21
429.3526228653238
 31
0.0
  0
LINE
  5
1B06
330
2
100
AcDbEntity
  8
STEMPEL
100
AcDbLine
 10
173.1083492015299
 20
427.8526228653238
 30
0.0
 11
268.70834920153
 21
427.8526228653238
 31
0.0
  0
LINE
  5
1B07
330
2
100
AcDbEntity
  8
STEMPEL
100
AcDbLine
 10
170.10834920153
 20
448.6526228653238
 30
0.0
 11
271.70834920153
 21
448.6526228653238
 31
0.0
  0
LINE
  5
1B08
330
2
100
AcDbEntity
  8
STEMPEL
100
AcDbLine
 10
167.2960737264886
 20
454.8526228653238
 30
0.0
 11
274.5206246765715
 21
454.8526228653238
 31
0.0
  0
ARC
  5
1B09
330
2
100
AcDbEntity
  8
STEMPEL
100
AcDbCircle
 10
167.2960737264886
 20
453.3526228653238
 30
0.0
 40
1.5
100
AcDbArc
 50
15.00000000000116
 51
148.1457059206461
  0
POINT
  5
1B0A
330
2
100
AcDbEntity
  8
DEFPOINTS
  6
ByBlock
 62
     0
100
AcDbPoint
 10
170.10834920153
 20
448.6526228653238
 30
0.0
  0
LINE
  5
1B0B
330
2
100
AcDbEntity
  8
STEMPEL
100
AcDbLine
 10
170.10834920153
 20
448.6526228653238
 30
0.0
 11
168.7449624659222
 21
453.7408514329776
 31
0.0
  0
LINE
  5
1B0C
330
2
100
AcDbEntity
  8
STEMPEL
100
AcDbLine
 10
163.4607773509042
 20
450.0221873127785
 30
0.0
 11
166.0219842825039
 21
454.1442642542915
 31
0.0
  0
POINT
  5
1B0F
330
2
100
AcDbEntity
  8
DEFPOINTS
  6
ByBlock
 62
     0
100
AcDbPoint
 10
162.8583492015299
 20
447.8526228653237
 30
0.0
  0
LINE
  5
1B10
330
2
100
AcDbEntity
  8
STEMPEL
100
AcDbLine
 10
162.8583492015299
 20
447.9111436088644
 30
0.0
 11
162.8583492015299
 21
447.8526228653237
 31
0.0
  0
ARC
  5
1B13
330
2
100
AcDbEntity
  8
STEMPEL
100
AcDbCircle
 10
166.8583492015299
 20
447.9111436088644
 30
0.0
 40
4.0
100
AcDbArc
 50
148.1457059206461
 51
180.0
  0
LINE
  5
1B15
330
2
100
AcDbEntity
  8
STEMPEL
100
AcDbLine
 10
175.1083492015299
 20
429.3526228653238
 30
0.0
 11
175.1083492015299
 21
427.8526228653238
 31
0.0
  0
LINE
  5
1B17
330
2
100
AcDbEntity
  8
STEMPEL
100
AcDbLine
 10
165.6044307399197
 20
429.8526228653238
 30
0.0
 11
166.0087642779494
 21
431.8526228653238
 31
0.0
  0
LINE
  5
1B18
330
2
100
AcDbEntity
  8
STEMPEL
100
AcDbLine
 10
168.209369715964
 20
431.8526228653238
 30
0.0
 11
166.0087642779494
 21
431.8526228653238
 31
0.0
  0
ARC
  5
1B19
330
2
100
AcDbEntity
  8
STEMPEL
100
AcDbCircle
 10
175.1083492015299
 20
434.3526228653238
 30
0.0
 40
5.0
100
AcDbArc
 50
180.0
 51
270.0
  0
ARC
  5
1B1A
330
2
100
AcDbEntity
  8
STEMPEL
100
AcDbCircle
 10
173.1083492015299
 20
432.8526228653238
 30
0.0
 40
5.0
100
AcDbArc
 50
191.5369590328149
 51
270.0
  0
LINE
  5
1B1B
330
2
100
AcDbEntity
  8
STEMPEL
100
AcDbLine
 10
169.1083492015299
 20
429.8526228653238
 30
0.0
 11
164.20834920153
 21
429.8526228653238
 31
0.0
  0
LINE
  5
1B1E
330
2
100
AcDbEntity
  8
STEMPEL
100
AcDbLine
 10
170.10834920153
 20
448.6526228653238
 30
0.0
 11
170.10834920153
 21
434.3526228653238
 31
0.0
  0
LINE
  5
1B21
330
2
100
AcDbEntity
  8
STEMPEL
100
AcDbLine
 10
167.7083492015301
 20
447.8526228653237
 30
0.0
 11
162.8583492015299
 21
447.8526228653236
 31
0.0
  0
ARC
  5
1B25
330
2
100
AcDbEntity
  8
STEMPEL
100
AcDbCircle
 10
268.70834920153
 20
432.8526228653238
 30
0.0
 40
5.0
100
AcDbArc
 50
270.0
 51
348.4630409671851
  0
LINE
  5
1B26
330
2
100
AcDbEntity
  8
STEMPEL
100
AcDbLine
 10
276.2122676631403
 20
429.8526228653238
 30
0.0
 11
275.8079341251105
 21
431.8526228653238
 31
0.0
  0
LINE
  5
1B27
330
2
100
AcDbEntity
  8
STEMPEL
100
AcDbLine
 10
273.607328687096
 20
431.8526228653238
 30
0.0
 11
275.8079341251105
 21
431.8526228653238
 31
0.0
  0
LINE
  5
1B28
330
2
100
AcDbEntity
  8
STEMPEL
100
AcDbLine
 10
266.70834920153
 20
429.3526228653238
 30
0.0
 11
266.70834920153
 21
427.8526228653238
 31
0.0
  0
ARC
  5
1B29
330
2
100
AcDbEntity
  8
STEMPEL
100
AcDbCircle
 10
266.70834920153
 20
434.3526228653238
 30
0.0
 40
5.0
100
AcDbArc
 50
270.0
 51
0.000000000000007
  0
LINE
  5
1B2A
330
2
100
AcDbEntity
  8
STEMPEL
100
AcDbLine
 10
271.70834920153
 20
448.6526228653238
 30
0.0
 11
271.70834920153
 21
434.3526228653238
 31
0.0
  0
LINE
  5
1B2B
330
2
100
AcDbEntity
  8
STEMPEL
100
AcDbLine
 10
271.70834920153
 20
448.6526228653238
 30
0.0
 11
273.0717359371378
 21
453.7408514329776
 31
0.0
  0
ARC
  5
1B2C
330
2
100
AcDbEntity
  8
STEMPEL
100
AcDbCircle
 10
274.5206246765714
 20
453.3526228653238
 30
0.0
 40
1.5
100
AcDbArc
 50
31.85429407935391
 51
164.9999999999988
  0
LINE
  5
1B2D
330
2
100
AcDbEntity
  8
STEMPEL
100
AcDbLine
 10
278.3559210521557
 20
450.0221873127785
 30
0.0
 11
275.794714120556
 21
454.1442642542915
 31
0.0
  0
ARC
  5
1B2E
330
2
100
AcDbEntity
  8
STEMPEL
100
AcDbCircle
 10
274.95834920153
 20
447.9111436088644
 30
0.0
 40
4.0
100
AcDbArc
 50
359.161722188978
 51
31.85429407935391
  0
LINE
  5
1B31
330
2
100
AcDbEntity
  8
STEMPEL
100
AcDbLine
 10
272.70834920153
 20
429.8526228653238
 30
0.0
 11
277.6083492015299
 21
429.8526228653238
 31
0.0
  0
HATCH
  5
1B58
330
2
100
AcDbEntity
  8
SCHRAFF
100
AcDbHatch
 10
0.0
 20
0.0
 30
0.0
210
0.0
220
0.0
230
1.0
  2
NET
 70
     0
 71
     0
 91
        4
 92
        7
 72
     1
 73
     1
 93
       15
 10
271.70834920153
 20
448.6526228653238
 42
0.0
 10
271.70834920153
 20
434.3526228653238
 42
-0.4142135623730951
 10
266.70834920153
 20
429.3526228653238
 42
0.0
 10
266.70834920153
 20
427.8526228653238
 42
0.0
 10
268.70834920153
 20
427.8526228653238
 42
0.3563939586926008
 10
273.6073286870964
 20
431.8526228653238
 42
0.0
 10
275.8079341251105
 20
431.8526228653238
 42
0.0
 10
276.2122676631402
 20
429.8526228653237
 42
0.0
 10
277.60834920153
 20
429.8526228653238
 42
0.0
 10
277.60834920153
 20
435.6563119476732
 42
0.1406476065140121
 10
274.1083492015301
 20
447.8526228653235
 42
0.0
 10
276.9083492015298
 20
447.8526228653234
 42
0.0
 10
276.9083492015298
 20
452.3519492984377
 42
0.0
 10
275.794714120556
 20
454.1442642542915
 42
0.6565381519876386
 10
273.0717359371378
 20
453.7408514329776
 42
0.0
 97
        0
 92
        7
 72
     1
 73
     1
 93
        4
 10
276.9083492015298
 20
447.8526228653234
 42
0.0
 10
278.9579210939424
 20
447.8526228653234
 42
0.1436237563963452
 10
278.3559210521557
 20
450.0221873127785
 42
0.0
 10
276.9083492015298
 20
452.3519492984378
 42
0.0
 97
        0
 92
        7
 72
     1
 73
     1
 93
       15
 10
168.7449624659222
 20
453.7408514329776
 42
0.6565381519876218
 10
166.0219842825039
 20
454.1442642542915
 42
0.0
 10
164.9083492015301
 20
452.3519492984379
 42
0.0
 10
164.9083492015301
 20
447.8526228653237
 42
0.0
 10
167.7083492015301
 20
447.8526228653237
 42
0.1406476065140157
 10
164.20834920153
 20
435.6563119476732
 42
0.0
 10
164.20834920153
 20
429.8526228653237
 42
0.0
 10
165.6044307399197
 20
429.8526228653237
 42
0.0
 10
166.0087642779494
 20
431.8526228653238
 42
0.0
 10
168.209369715964
 20
431.8526228653238
 42
0.3563939586926008
 10
173.1083492015303
 20
427.8526228653238
 42
0.0
 10
175.1083492015299
 20
427.8526228653238
 42
0.0
 10
175.1083492015299
 20
429.3526228653238
 42
-0.4142135623730951
 10
170.10834920153
 20
434.3526228653238
 42
0.0
 10
170.10834920153
 20
448.6526228653238
 42
0.0
 97
        0
 92
        7
 72
     1
 73
     1
 93
        4
 10
162.8587773091175
 20
447.8526228653236
 42
0.0
 10
164.9083492015301
 20
447.8526228653237
 42
0.0
 10
164.9083492015301
 20
452.3519492984379
 42
0.0
 10
163.4607773509042
 20
450.0221873127785
 42
0.1436237563963254
 97
        0
 75
     0
 76
     1
 52
45.0
 41
15.0
 77
     0
 78
     2
 53
45.0
 43
0.0
 44
0.0
 45
-1.325825214724776
 46
1.325825214724776
 79
     0
 53
135.0
 43
0.0
 44
0.0
 45
-1.325825214724776
 46
-1.325825214724776
 79
     0
 47
0.1756267636463511
 98
        4
 10
273.1326109197355
 20
449.3335922054573
 10
277.3501242762179
 20
449.3335922054573
 10
169.1006189832244
 20
450.7386061620048
 10
164.0044567489296
 20
449.3335922054573
  0
LINE
  5
1B94
330
2
100
AcDbEntity
  8
STEMPEL
100
AcDbLine
 10
339.4083492015301
 20
464.3526228653238
 30
0.0
 11
339.4083492015301
 21
467.3526228653239
 31
0.0
  0
LINE
  5
1B95
330
2
100
AcDbEntity
  8
STEMPEL
100
AcDbLine
 10
346.4083492015301
 20
464.3526228653238
 30
0.0
 11
346.4083492015301
 21
467.3526228653239
 31
0.0
  0
LINE
  5
1B96
330
2
100
AcDbEntity
  8
HILF
100
AcDbLine
 10
339.90834920153
 20
450.3526228653237
 30
0.0
 11
339.90834920153
 21
470.3526228653238
 31
0.0
  0
LINE
  5
1B97
330
2
100
AcDbEntity
  8
HILF
100
AcDbLine
 10
345.90834920153
 20
450.3526228653237
 30
0.0
 11
345.90834920153
 21
470.3526228653238
 31
0.0
  0
LINE
  5
1B98
330
2
100
AcDbEntity
  8
STEMPEL
100
AcDbLine
 10
344.90834920153
 20
450.3526228653237
 30
0.0
 11
344.90834920153
 21
470.3526228653238
 31
0.0
  0
LINE
  5
1B99
330
2
100
AcDbEntity
  8
STEMPEL
100
AcDbLine
 10
340.90834920153
 20
450.3526228653237
 30
0.0
 11
340.90834920153
 21
470.3526228653238
 31
0.0
  0
LINE
  5
1B9A
330
2
100
AcDbEntity
  8
STEMPEL
100
AcDbLine
 10
339.4083492015301
 20
453.3526228653238
 30
0.0
 11
339.4083492015301
 21
456.3526228653238
 31
0.0
  0
LINE
  5
1B9B
330
2
100
AcDbEntity
  8
STEMPEL
100
AcDbLine
 10
339.4083492015301
 20
453.3526228653239
 30
0.0
 11
338.9083492015301
 21
453.3526228653239
 31
0.0
  0
LINE
  5
1B9C
330
2
100
AcDbEntity
  8
STEMPEL
100
AcDbLine
 10
338.9083492015301
 20
450.3526228653239
 30
0.0
 11
338.9083492015301
 21
453.3526228653239
 31
0.0
  0
LINE
  5
1B9D
330
2
100
AcDbEntity
  8
STEMPEL
100
AcDbLine
 10
339.4083492015301
 20
464.3526228653238
 30
0.0
 11
338.90834920153
 21
464.3526228653238
 31
0.0
  0
LINE
  5
1B9E
330
2
100
AcDbEntity
  8
STEMPEL
100
AcDbLine
 10
339.4083492015301
 20
456.3526228653238
 30
0.0
 11
338.9083492015301
 21
456.3526228653238
 31
0.0
  0
LINE
  5
1B9F
330
2
100
AcDbEntity
  8
STEMPEL
100
AcDbLine
 10
338.9083492015301
 20
456.3526228653237
 30
0.0
 11
338.9083492015299
 21
464.3526228653238
 31
0.0
  0
LINE
  5
1BA0
330
2
100
AcDbEntity
  8
STEMPEL
100
AcDbLine
 10
346.4083492015301
 20
453.3526228653239
 30
0.0
 11
346.4083492015301
 21
456.352622865324
 31
0.0
  0
LINE
  5
1BA1
330
2
100
AcDbEntity
  8
STEMPEL
100
AcDbLine
 10
346.9083492015301
 20
453.3526228653239
 30
0.0
 11
346.40834920153
 21
453.3526228653239
 31
0.0
  0
LINE
  5
1BA2
330
2
100
AcDbEntity
  8
STEMPEL
100
AcDbLine
 10
346.9083492015301
 20
450.3526228653239
 30
0.0
 11
346.9083492015301
 21
453.3526228653239
 31
0.0
  0
LINE
  5
1BA3
330
2
100
AcDbEntity
  8
STEMPEL
100
AcDbLine
 10
346.90834920153
 20
464.3526228653238
 30
0.0
 11
346.4083492015301
 21
464.3526228653238
 31
0.0
  0
LINE
  5
1BA4
330
2
100
AcDbEntity
  8
STEMPEL
100
AcDbLine
 10
346.9083492015301
 20
456.352622865324
 30
0.0
 11
346.4083492015301
 21
456.3526228653239
 31
0.0
  0
LINE
  5
1BA5
330
2
100
AcDbEntity
  8
STEMPEL
100
AcDbLine
 10
346.9083492015301
 20
456.3526228653239
 30
0.0
 11
346.9083492015299
 21
464.3526228653238
 31
0.0
  0
LINE
  5
1BA6
330
2
100
AcDbEntity
  8
STEMPEL
100
AcDbLine
 10
339.4083492015301
 20
467.3526228653238
 30
0.0
 11
338.90834920153
 21
467.3526228653238
 31
0.0
  0
LINE
  5
1BA7
330
2
100
AcDbEntity
  8
STEMPEL
100
AcDbLine
 10
338.9083492015299
 20
467.3526228653237
 30
0.0
 11
338.90834920153
 21
470.3526228653238
 31
0.0
  0
LINE
  5
1BA8
330
2
100
AcDbEntity
  8
STEMPEL
100
AcDbLine
 10
346.90834920153
 20
467.3526228653238
 30
0.0
 11
346.4083492015301
 21
467.3526228653238
 31
0.0
  0
LINE
  5
1BA9
330
2
100
AcDbEntity
  8
STEMPEL
100
AcDbLine
 10
346.9083492015299
 20
467.3526228653238
 30
0.0
 11
346.90834920153
 21
470.3526228653238
 31
0.0
  0
HATCH
  5
1BAA
330
2
100
AcDbEntity
  8
SCHRAFF
100
AcDbHatch
 10
0.0
 20
0.0
 30
0.0
210
0.0
220
0.0
230
1.0
  2
_USER
 70
     0
 71
     0
 91
        4
 92
        7
 72
     0
 73
     1
 93
       12
 10
339.90834920153
 20
470.3526228653238
 10
338.90834920153
 20
470.3526228653238
 10
338.9083492015299
 20
467.3526228653238
 10
339.4083492015301
 20
467.3526228653238
 10
339.4083492015301
 20
464.3526228653238
 10
338.9083492015299
 20
464.3526228653238
 10
338.9083492015301
 20
456.3526228653238
 10
339.4083492015301
 20
456.3526228653238
 10
339.40834920153
 20
453.3526228653239
 10
338.9083492015301
 20
453.3526228653239
 10
338.9083492015301
 20
450.3526228653234
 10
339.90834920153
 20
450.3526228653234
 97
        0
 92
        7
 72
     0
 73
     1
 93
        5
 10
340.90834920153
 20
470.3526228653238
 10
339.90834920153
 20
470.3526228653237
 10
339.90834920153
 20
450.3526228653233
 10
340.1342694359316
 20
450.3526228653233
 10
340.90834920153
 20
452.6162683192575
 97
        0
 92
        7
 72
     0
 73
     1
 93
        4
 10
345.90834920153
 20
470.3526228653239
 10
344.90834920153
 20
470.3526228653239
 10
344.90834920153
 20
450.3526228653233
 10
345.90834920153
 20
450.3526228653234
 97
        0
 92
        7
 72
     0
 73
     1
 93
       12
 10
346.90834920153
 20
470.3526228653238
 10
345.9083492015299
 20
470.3526228653237
 10
345.90834920153
 20
450.3526228653233
 10
346.90834920153
 20
450.3526228653233
 10
346.9083492015301
 20
453.3526228653239
 10
346.4083492015301
 20
453.3526228653239
 10
346.4083492015301
 20
456.3526228653239
 10
346.9083492015301
 20
456.352622865324
 10
346.9083492015299
 20
464.3526228653238
 10
346.40834920153
 20
464.3526228653238
 10
346.4083492015301
 20
467.3526228653238
 10
346.90834920153
 20
467.3526228653238
 97
        0
 75
     0
 76
     0
 52
135.0
 41
1.0
 77
     0
 78
     1
 53
135.0
 43
-4.091650798469913
 44
-52.67091275326231
 45
-0.7071067811865476
 46
-0.7071067811865475
 79
     0
 47
0.0527561546155446
 98
        4
 10
339.5703009405937
 20
468.7534535592725
 10
340.6261401733244
 20
468.7534535592725
 10
345.6941635935694
 20
469.0172339438951
 10
346.5388345345845
 20
468.9644770371115
  0
HATCH
  5
1BAB
330
2
100
AcDbEntity
  8
SCHRAFF
100
AcDbHatch
 10
0.0
 20
0.0
 30
0.0
210
0.0
220
0.0
230
1.0
  2
_USER
 70
     0
 71
     0
 91
        4
 92
        7
 72
     1
 73
     1
 93
        4
 10
101.90834920153
 20
456.3526228653232
 42
0.0
 10
78.90834920152997
 20
456.3526228653233
 42
1.0
 10
78.90834920152997
 20
450.3526228653234
 42
0.0
 10
101.9083492015299
 20
450.3526228653234
 42
0.0
 97
        0
 92
        7
 72
     1
 73
     1
 93
        4
 10
138.90834920153
 20
456.3526228653233
 42
0.0
 10
115.90834920153
 20
456.3526228653233
 42
0.0
 10
115.9083492015299
 20
450.3526228653234
 42
0.0
 10
138.90834920153
 20
450.3526228653234
 42
1.0
 97
        0
 92
        7
 72
     1
 73
     1
 93
       11
 10
338.9083492015301
 20
453.3526228653239
 42
0.0
 10
339.4083492015301
 20
453.3526228653238
 42
0.0
 10
339.4083492015301
 20
456.3526228653238
 42
0.0
 10
338.9083492015301
 20
456.3526228653238
 42
0.0
 10
338.9083492015299
 20
462.6559275521481
 42
0.0
 10
335.3239564209459
 20
465.5177637037476
 42
0.0
 10
335.2497304527386
 20
461.2653608331372
 42
-0.4091108014277157
 10
330.2504919769567
 20
456.3526228653236
 42
0.0
 10
302.9083492015301
 20
456.3526228653236
 42
1.0
 10
302.9083492015301
 20
450.3526228653234
 42
0.0
 10
338.9083492015301
 20
450.3526228653234
 42
0.0
 97
        0
 92
        7
 72
     1
 73
     1
 93
       15
 10
362.90834920153
 20
456.3526228653233
 42
0.0
 10
355.5662064261036
 20
456.3526228653235
 42
-0.40911080142771
 10
350.5669679503216
 20
461.265360833137
 42
0.0
 10
350.40834920153
 20
470.3526228653235
 42
0.0
 10
346.90834920153
 20
470.3526228653235
 42
0.0
 10
346.9083492015297
 20
467.3526228653237
 42
0.0
 10
346.4083492015301
 20
467.3526228653237
 42
0.0
 10
346.4083492015301
 20
464.3526228653238
 42
0.0
 10
346.9083492015299
 20
464.3526228653238
 42
0.0
 10
346.9083492015301
 20
456.352622865324
 42
0.0
 10
346.4083492015301
 20
456.352622865324
 42
0.0
 10
346.4083492015301
 20
453.3526228653239
 42
0.0
 10
346.9083492015301
 20
453.3526228653238
 42
0.0
 10
346.9083492015301
 20
450.3526228653234
 42
0.0
 10
362.90834920153
 20
450.3526228653234
 42
1.0
 97
        0
 75
     0
 76
     0
 52
45.0
 41
4.0
 77
     0
 78
     1
 53
45.0
 43
-4.09165079846997
 44
-80.98294250941171
 45
-2.828427124746189
 46
2.82842712474619
 79
     0
 47
0.3785204768001131
 98
        4
 10
86.2610927991489
 20
453.2132881988848
 10
133.2280793195257
 20
453.9703281044219
 10
316.1720715223148
 20
453.2132881988848
 10
362.0027591605228
 20
452.8347668478466
  0
ARC
  5
1BAC
330
2
100
AcDbEntity
  8
STEMPEL
100
AcDbCircle
 10
362.90834920153
 20
453.3526228653234
 30
0.0
 40
3.0
100
AcDbArc
 50
270.0
 51
90.0
  0
LINE
  5
1BAD
330
2
100
AcDbEntity
  8
STEMPEL
100
AcDbLine
 10
355.5662064261036
 20
456.3526228653235
 30
0.0
 11
362.90834920153
 21
456.3526228653233
 31
0.0
  0
LINE
  5
1BAE
330
2
100
AcDbEntity
  8
STEMPEL
100
AcDbLine
 10
350.5669679503216
 20
461.265360833137
 30
0.0
 11
350.4083492015301
 21
470.3526228653235
 31
0.0
  0
ARC
  5
1BAF
330
2
100
AcDbEntity
  8
STEMPEL
100
AcDbCircle
 10
355.5662064261036
 20
461.3526228653235
 30
0.0
 40
5.0
100
AcDbArc
 50
181.0000000000017
 51
270.0
  0
LINE
  5
1BB1
330
2
100
AcDbEntity
  8
STEMPEL
100
AcDbLine
 10
335.2497304527386
 20
461.2653608331372
 30
0.0
 11
335.4083492015301
 21
470.3526228653234
 31
0.0
  0
ARC
  5
1BB2
330
2
100
AcDbEntity
  8
STEMPEL
100
AcDbCircle
 10
330.2504919769567
 20
461.3526228653236
 30
0.0
 40
5.0
100
AcDbArc
 50
270.0
 51
358.9999999999982
  0
ARC
  5
1BB3
330
2
100
AcDbEntity
  8
STEMPEL
100
AcDbCircle
 10
302.9083492015301
 20
453.3526228653236
 30
0.0
 40
3.0
100
AcDbArc
 50
90.0
 51
270.0
  0
LINE
  5
1BB4
330
2
100
AcDbEntity
  8
STEMPEL
100
AcDbLine
 10
212.6427724994752
 20
461.265360833137
 30
0.0
 11
212.4841537506836
 21
470.3526228653234
 31
0.0
  0
ARC
  5
1BB5
330
2
100
AcDbEntity
  8
STEMPEL
100
AcDbCircle
 10
217.6420109752571
 20
461.3526228653234
 30
0.0
 40
5.0
100
AcDbArc
 50
181.0000000000017
 51
270.0
  0
LINE
  5
1BB7
330
2
100
AcDbEntity
  8
STEMPEL
100
AcDbLine
 10
335.4083492015301
 20
470.3526228653234
 30
0.0
 11
350.4083492015301
 21
470.3526228653235
 31
0.0
  0
LINE
  5
1BB8
330
2
100
AcDbEntity
  8
STEMPEL
100
AcDbLine
 10
197.3255350018922
 20
461.2653608331371
 30
0.0
 11
197.4841537506836
 21
470.3526228653234
 31
0.0
  0
ARC
  5
1BB9
330
2
100
AcDbEntity
  8
STEMPEL
100
AcDbCircle
 10
192.3262965261102
 20
461.3526228653236
 30
0.0
 40
5.0
100
AcDbArc
 50
270.0
 51
358.9999999999982
  0
LINE
  5
1BBB
330
2
100
AcDbEntity
  8
STEMPEL
100
AcDbLine
 10
115.9083492015299
 20
450.3526228653234
 30
0.0
 11
115.90834920153
 21
456.3526228653235
 31
0.0
  0
LINE
  5
1BBE
330
2
100
AcDbEntity
  8
STEMPEL
100
AcDbLine
 10
101.90834920153
 20
450.3526228653234
 30
0.0
 11
101.90834920153
 21
456.3526228653235
 31
0.0
  0
ARC
  5
1BBF
330
2
100
AcDbEntity
  8
STEMPEL
100
AcDbCircle
 10
78.90834920152997
 20
453.3526228653234
 30
0.0
 40
3.0
100
AcDbArc
 50
90.0
 51
270.0
  0
ARC
  5
1BC0
330
2
100
AcDbEntity
  8
STEMPEL
100
AcDbCircle
 10
138.90834920153
 20
453.3526228653234
 30
0.0
 40
3.0
100
AcDbArc
 50
270.0
 51
90.0
  0
LINE
  5
1BC1
330
2
100
AcDbEntity
  8
STEMPEL
100
AcDbLine
 10
78.90834920152997
 20
450.3526228653234
 30
0.0
 11
103.90834920153
 21
450.3526228653234
 31
0.0
  0
LINE
  5
1BC2
330
2
100
AcDbEntity
  8
STEMPEL
100
AcDbLine
 10
78.90834920152997
 20
456.3526228653233
 30
0.0
 11
330.2504919769567
 21
456.3526228653236
 31
0.0
  0
LINE
  5
1BC3
330
2
100
AcDbEntity
  8
STEMPEL
100
AcDbLine
 10
197.4841537506836
 20
470.3526228653234
 30
0.0
 11
212.4841537506836
 21
470.3526228653234
 31
0.0
  0
LINE
  5
1BCB
330
2
100
AcDbEntity
  8
STEMPEL
100
AcDbLine
 10
329.3783492015299
 20
450.3526228653234
 30
0.0
 11
329.3783492015298
 21
447.8526228653233
 31
0.0
  0
LINE
  5
1BCC
330
2
100
AcDbEntity
  8
HILF
100
AcDbLine
 10
328.3783492015299
 20
450.3526228653234
 30
0.0
 11
328.3783492015299
 21
447.8526228653233
 31
0.0
  0
LINE
  5
1BCD
330
2
100
AcDbEntity
  8
HILF
100
AcDbLine
 10
320.3783492015299
 20
450.3526228653234
 30
0.0
 11
320.3783492015299
 21
447.8526228653233
 31
0.0
  0
LINE
  5
1BCE
330
2
100
AcDbEntity
  8
STEMPEL
100
AcDbLine
 10
319.3783492015299
 20
450.3526228653234
 30
0.0
 11
319.3783492015299
 21
447.8526228653233
 31
0.0
  0
LINE
  5
1BCF
330
2
100
AcDbEntity
  8
STEMPEL
100
AcDbLine
 10
278.1506085750639
 20
450.3526228653234
 30
0.0
 11
362.90834920153
 21
450.3526228653234
 31
0.0
  0
LINE
  5
1BD0
330
2
100
AcDbEntity
  8
STEMPEL
100
AcDbLine
 10
113.9083492015299
 20
450.3526228653233
 30
0.0
 11
163.666089827996
 21
450.3526228653234
 31
0.0
  0
LINE
  5
1BD1
330
2
100
AcDbEntity
  8
STEMPEL
100
AcDbLine
 10
113.9083492015299
 20
450.3526228653234
 30
0.0
 11
163.6660898279959
 21
450.3526228653234
 31
0.0
  0
DIMENSION
  5
1C79
330
2
100
AcDbEntity
  8
BEM
100
AcDbDimension
  2
*D2
 10
58.56299806584184
 20
444.8526228653234
 30
0.0
 11
52.06299806584176
 21
309.8526228653233
 31
0.0
 70
    32
 71
     5
 42
270.0000000000002
  3
STANDARD
100
AcDbAlignedDimension
 13
170.8082585097373
 23
174.8526228653232
 33
0.0
 14
70.90834920152997
 24
444.8526228653234
 34
0.0
 50
90.0
100
AcDbRotatedDimension
  0
DIMENSION
  5
1C86
330
2
100
AcDbEntity
  8
BEM
100
AcDbDimension
  2
*D3
 10
70.90834920152997
 20
487.5391012228585
 30
0.0
 11
220.90834920153
 21
494.0391012228586
 31
0.0
 70
    32
  1
%%c<>
 71
     5
 42
300.0
  3
STANDARD
100
AcDbAlignedDimension
 13
370.90834920153
 23
446.8526228653233
 33
0.0
 14
70.90834920152997
 24
447.8526228653233
 34
0.0
100
AcDbRotatedDimension
  0
TEXT
  5
1CB2
330
2
100
AcDbEntity
  8
TEXT
 62
     1
100
AcDbText
 10
110.7220553144268
 20
521.8094475653267
 30
0.0
 40
7.0
  1
EDV-Art.Nr. 21905.100X
 41
0.8
100
AcDbText
  0
TEXT
  5
1CB3
330
2
100
AcDbEntity
  8
TEXT
 62
     1
100
AcDbText
 10
110.36609631159
 20
535.3474608703752
 30
0.0
 40
7.0
  1
Losflansch DN100
 41
0.8
100
AcDbText
  0
LINE
  5
1CB4
330
2
100
AcDbEntity
  8
TEXT
 62
     2
100
AcDbLine
 10
107.9770986360774
 20
531.2513389315649
 30
0.0
 11
214.1489156916811
 21
531.2513389315649
 31
0.0
  0
LINE
  5
1CB5
330
2
100
AcDbEntity
  8
TEXT
 62
     2
100
AcDbLine
 10
107.9770986360774
 20
531.2513389315649
 30
0.0
 11
97.39719227436795
 21
490.4135851162609
 31
0.0
  0
LINE
  5
1CB6
330
2
100
AcDbEntity
  8
TEXT
 62
     2
100
AcDbLine
 10
309.665753172688
 20
384.7031256403594
 30
0.0
 11
394.9501372257821
 21
384.7031256403594
 31
0.0
  0
TEXT
  5
1CB7
330
2
100
AcDbEntity
  8
TEXT
 62
     1
100
AcDbText
 10
312.3570229164895
 20
374.1516528273642
 30
0.0
 40
7.0
  1
EDV-Art.Nr. 00911.100X
 41
0.65
100
AcDbText
  0
TEXT
  5
1CB8
330
2
100
AcDbEntity
  8
TEXT
 62
     1
100
AcDbText
 10
312.0010639136528
 20
387.6896661324125
 30
0.0
 40
7.0
  1
Dichtelement DN100
 41
0.7
100
AcDbText
  0
TEXT
  5
1CB9
330
2
100
AcDbEntity
  8
TEXT
 62
     1
100
AcDbText
 10
322.8596794541456
 20
418.155657248874
 30
0.0
 40
7.0
  1
Kompressionsdichtung
 41
0.7
100
AcDbText
  0
TEXT
  5
1CBA
330
2
100
AcDbEntity
  8
TEXT
 62
     1
100
AcDbText
 10
323.2156384569823
 20
404.6176439438256
 30
0.0
 40
7.0
  1
EDV-Art.Nr. 21810.125X
 41
0.65
100
AcDbText
  0
LINE
  5
1CBB
330
2
100
AcDbEntity
  8
TEXT
 62
     2
100
AcDbLine
 10
321.5355030945304
 20
415.1691167568209
 30
0.0
 11
406.8198871476245
 21
415.1691167568209
 31
0.0
  0
LINE
  5
1CBC
330
2
100
AcDbEntity
  8
TEXT
 62
     2
100
AcDbLine
 10
309.665753172688
 20
384.7031256403594
 30
0.0
 11
275.4640184436945
 21
435.1790485361239
 31
0.0
  0
LINE
  5
1CBE
330
2
100
AcDbEntity
  8
TEXT
 62
     2
100
AcDbLine
 10
321.5355030945304
 20
415.1691167568209
 30
0.0
 11
307.4318290195922
 21
446.0305223781914
 31
0.0
  0
TEXT
  5
1CBF
330
2
100
AcDbEntity
  8
TEXT
 62
     1
100
AcDbText
 10
292.6075550034772
 20
223.1412537523885
 30
0.0
 40
7.0
  1
EDV-Art.Nr. 21968.100X
 41
0.8
100
AcDbText
  0
TEXT
  5
1CC0
330
2
100
AcDbEntity
  8
TEXT
 62
     1
100
AcDbText
 10
292.2515960006405
 20
236.6792670574368
 30
0.0
 40
7.0
  1
Ablaufkörper mit Muffe DN100
 41
0.7
100
AcDbText
  0
LINE
  5
1CC1
330
2
100
AcDbEntity
  8
TEXT
 62
     2
100
AcDbLine
 10
285.5257693002952
 20
233.6927265653837
 30
0.0
 11
407.3292022089961
 21
233.6927265653837
 31
0.0
  0
LINE
  5
1CC2
330
2
100
AcDbEntity
  8
TEXT
 62
     2
100
AcDbLine
 10
285.5257693002952
 20
233.6927265653837
 30
0.0
 11
270.8916502940886
 21
246.9990225215003
 31
0.0
  0
LINE
  5
1CC6
330
2
100
AcDbEntity
  8
TEXT
 62
     2
100
AcDbLine
 10
96.00207935840607
 20
485.0285395535895
 30
0.0
 11
88.22494166252198
 21
455.0092913907055
 31
0.0
  0
LINE
  5
1CD0
330
2
100
AcDbEntity
  8
HILF
100
AcDbLine
 10
104.90834920153
 20
456.3526228653235
 30
0.0
 11
104.90834920153
 21
444.8526228653234
 31
0.0
  0
LINE
  5
1CD1
330
2
100
AcDbEntity
  8
STEMPEL
100
AcDbLine
 10
103.90834920153
 20
456.3526228653234
 30
0.0
 11
103.90834920153
 21
444.8526228653234
 31
0.0
  0
LINE
  5
1CD2
330
2
100
AcDbEntity
  8
HILF
100
AcDbLine
 10
112.9083492015299
 20
456.3526228653235
 30
0.0
 11
112.9083492015299
 21
444.8526228653234
 31
0.0
  0
LINE
  5
1CD3
330
2
100
AcDbEntity
  8
STEMPEL
100
AcDbLine
 10
113.9083492015299
 20
456.3526228653234
 30
0.0
 11
113.9083492015299
 21
444.8526228653234
 31
0.0
  0
LINE
  5
1CD8
102
{ACAD_REACTORS
330
1CFF
102
}
330
2
100
AcDbEntity
  8
STEMPEL
100
AcDbLine
 10
70.90834920152997
 20
447.8526228653233
 30
0.0
 11
103.9083492015299
 21
447.8526228653233
 31
0.0
  0
LINE
  5
1CD9
102
{ACAD_REACTORS
330
1CFF
102
}
330
2
100
AcDbEntity
  8
STEMPEL
100
AcDbLine
 10
113.9083492015299
 20
447.8526228653233
 30
0.0
 11
164.8238039636676
 21
447.8526228653233
 31
0.0
  0
LINE
  5
1CEC
102
{ACAD_REACTORS
330
1CFF
102
}
330
2
100
AcDbEntity
  8
STEMPEL
100
AcDbLine
 10
276.9928944393924
 20
447.8526228653234
 30
0.0
 11
370.90834920153
 21
447.8526228653233
 31
0.0
  0
HATCH
  5
1CFF
330
2
100
AcDbEntity
  8
SCHRAFF
100
AcDbHatch
 10
0.0
 20
0.0
 30
0.0
210
0.0
220
0.0
230
1.0
  2
NET
 70
     0
 71
     1
 91
        4
 92
        7
 72
     0
 73
     1
 93
        4
 10
370.90834920153
 20
447.8526228653234
 10
324.37834920153
 20
447.8526228653235
 10
324.37834920153
 20
444.8526228653234
 10
370.9083492015301
 20
444.8526228653234
 97
        4
330
1CEC
330
1163
330
1A61
330
1A49
 92
        7
 72
     0
 73
     1
 93
        4
 10
324.37834920153
 20
447.8526228653234
 10
300.90834920153
 20
447.8526228653233
 10
300.90834920153
 20
444.8526228653234
 10
324.37834920153
 20
444.8526228653234
 97
        4
330
1CEC
330
1A45
330
1A61
330
1163
 92
        7
 72
     0
 73
     1
 93
        4
 10
140.9083492015299
 20
447.8526228653233
 10
116.90834920153
 20
447.8526228653233
 10
116.90834920153
 20
444.8526228653233
 10
140.9083492015299
 20
444.8526228653233
 97
        4
330
1CD9
330
1A42
330
1A3D
330
1A43
 92
        7
 72
     0
 73
     1
 93
        4
 10
100.9083492015299
 20
447.8526228653233
 10
70.90834920152997
 20
447.8526228653233
 10
70.90834920152997
 20
444.8526228653234
 10
100.90834920153
 20
444.8526228653235
 97
        4
330
1CD8
330
1A3F
330
1A3D
330
1A40
 75
     0
 76
     1
 52
45.0
 41
15.0
 77
     0
 78
     2
 53
45.0
 43
0.0
 44
0.0
 45
-1.325825214724776
 46
1.325825214724776
 79
     0
 53
135.0
 43
0.0
 44
0.0
 45
-1.325825214724776
 46
-1.325825214724776
 79
     0
 47
0.3165351234593374
 98
        4
 10
339.8755141510164
 20
446.3593437043536
 10
313.2775422077934
 20
446.6758787422379
 10
134.6911578203867
 20
446.6758787422379
 10
92.89434510176262
 20
446.3593437043536
  0
TEXT
  5
1D1C
330
2
100
AcDbEntity
  8
VOLL
100
AcDbText
 10
174.5025220707361
 20
432.5133888465219
 30
0.0
 40
1.8
  1

  7
GREEKS
100
AcDbText
  0
ARC
  5
1D32
330
2
100
AcDbEntity
  8
STEMPEL
100
AcDbCircle
 10
108.90834920153
 20
436.0417337328684
 30
0.0
 40
30.31088913245485
100
AcDbArc
 50
81.78678929826221
 51
98.2132107017378
  0
ARC
  5
1D33
330
2
100
AcDbEntity
  8
HILF
100
AcDbCircle
 10
108.90834920153
 20
436.4541618176621
 30
0.0
 40
22.41111549782308
100
AcDbArc
 50
78.85962783890537
 51
101.1403721610946
  0
LINE
  5
1D34
330
2
100
AcDbEntity
  8
STEMPEL
100
AcDbLine
 10
101.40834920153
 20
466.3526228653234
 30
0.0
 11
116.4083492015299
 21
466.3526228653234
 31
0.0
  0
LINE
  5
1D35
330
2
100
AcDbEntity
  8
STEMPEL
100
AcDbLine
 10
119.3148643090242
 20
457.8073923309128
 30
0.0
 11
98.50183409403573
 21
457.8073923309128
 31
0.0
  0
LINE
  5
1D36
330
2
100
AcDbEntity
  8
STEMPEL
100
AcDbLine
 10
119.0583492015299
 20
456.3526228653233
 30
0.0
 11
98.75834920152998
 21
456.3526228653233
 31
0.0
  0
LINE
  5
1D37
330
2
100
AcDbEntity
  8
STEMPEL
100
AcDbLine
 10
100.2480951636856
 20
458.4429793815232
 30
0.0
 11
98.50183409403573
 21
457.8073923309128
 31
0.0
  0
ARC
  5
1D38
330
2
100
AcDbEntity
  8
STEMPEL
100
AcDbCircle
 10
98.75834920152998
 20
457.1026228653233
 30
0.0
 40
0.7500000000000013
100
AcDbArc
 50
109.9999999999995
 51
269.9999991462263
  0
ARC
  5
1D39
330
2
100
AcDbEntity
  8
STEMPEL
100
AcDbCircle
 10
102.4131586731467
 20
458.6583171575389
 30
0.0
 40
7.694305707784447
100
AcDbArc
 50
73.65710669401501
 51
106.342893305985
  0
ARC
  5
1D3A
330
2
100
AcDbEntity
  8
HILF
100
AcDbCircle
 10
102.4131586731467
 20
453.1041367157937
 30
0.0
 40
5.761140599691502
100
AcDbArc
 50
67.92594526326206
 51
112.0740547367379
  0
LINE
  5
1D3B
330
2
100
AcDbEntity
  8
STEMPEL
100
AcDbLine
 10
100.2480951636856
 20
458.4429793815232
 30
0.0
 11
100.2480951636856
 21
466.041733732868
 31
0.0
  0
LINE
  5
1D3C
330
2
100
AcDbEntity
  8
STEMPEL
100
AcDbLine
 10
101.40834920153
 20
466.3526228653234
 30
0.0
 11
100.2480951636856
 21
466.041733732868
 31
0.0
  0
LINE
  5
1D3D
330
2
100
AcDbEntity
  8
STEMPEL
100
AcDbLine
 10
104.5782221826078
 20
458.4429793815232
 30
0.0
 11
104.5782221826078
 21
466.041733732868
 31
0.0
  0
LINE
  5
1D3E
330
2
100
AcDbEntity
  8
STEMPEL
100
AcDbLine
 10
119.3148643090242
 20
457.8073923309128
 30
0.0
 11
117.5686032393743
 21
458.4429793815232
 31
0.0
  0
POINT
  5
1D3F
330
2
100
AcDbEntity
  8
0
100
AcDbPoint
 10
108.90834920153
 20
456.3526228653233
 30
0.0
210
0.0000000000000001
220
1.0
230
0.0
  0
ARC
  5
1D40
330
2
100
AcDbEntity
  8
STEMPEL
100
AcDbCircle
 10
119.0583492015299
 20
457.1026228653233
 30
0.0
 40
0.750000000000001
100
AcDbArc
 50
269.9999991462263
 51
70.00000000000047
  0
ARC
  5
1D41
330
2
100
AcDbEntity
  8
STEMPEL
100
AcDbCircle
 10
115.4035397299132
 20
458.6583171575389
 30
0.0
 40
7.694305707784447
100
AcDbArc
 50
73.65710669401501
 51
106.342893305985
  0
ARC
  5
1D42
330
2
100
AcDbEntity
  8
HILF
100
AcDbCircle
 10
115.4035397299132
 20
453.1041367157937
 30
0.0
 40
5.761140599691502
100
AcDbArc
 50
67.92594526326206
 51
112.0740547367379
  0
LINE
  5
1D43
330
2
100
AcDbEntity
  8
STEMPEL
100
AcDbLine
 10
113.2384762204521
 20
458.4429793815232
 30
0.0
 11
113.2384762204521
 21
466.041733732868
 31
0.0
  0
LINE
  5
1D44
330
2
100
AcDbEntity
  8
STEMPEL
100
AcDbLine
 10
117.5686032393743
 20
458.4429793815232
 30
0.0
 11
117.5686032393743
 21
466.041733732868
 31
0.0
  0
LINE
  5
1D45
330
2
100
AcDbEntity
  8
STEMPEL
100
AcDbLine
 10
117.5686032393743
 20
466.041733732868
 30
0.0
 11
116.4083492015299
 21
466.3526228653234
 31
0.0
  0
ARC
  5
1D46
330
2
100
AcDbEntity
  8
STEMPEL
100
AcDbCircle
 10
164.9083492015301
 20
436.0417337328685
 30
0.0
 40
30.31088913245485
100
AcDbArc
 50
81.78678929826221
 51
98.2132107017378
  0
ARC
  5
1D47
330
2
100
AcDbEntity
  8
HILF
100
AcDbCircle
 10
164.9083492015301
 20
436.4541618176622
 30
0.0
 40
22.41111549782308
100
AcDbArc
 50
78.85962783890537
 51
101.1403721610946
  0
LINE
  5
1D48
330
2
100
AcDbEntity
  8
STEMPEL
100
AcDbLine
 10
157.4083492015301
 20
466.3526228653234
 30
0.0
 11
172.4083492015301
 21
466.3526228653234
 31
0.0
  0
LINE
  5
1D49
330
2
100
AcDbEntity
  8
STEMPEL
100
AcDbLine
 10
175.3148643090243
 20
457.8073923309128
 30
0.0
 11
154.5018340940358
 21
457.8073923309128
 31
0.0
  0
LINE
  5
1D4A
330
2
100
AcDbEntity
  8
STEMPEL
100
AcDbLine
 10
175.0583492015301
 20
456.3526228653234
 30
0.0
 11
154.7583492015301
 21
456.3526228653234
 31
0.0
  0
LINE
  5
1D4B
330
2
100
AcDbEntity
  8
STEMPEL
100
AcDbLine
 10
156.2480951636857
 20
458.4429793815233
 30
0.0
 11
154.5018340940358
 21
457.8073923309128
 31
0.0
  0
ARC
  5
1D4C
330
2
100
AcDbEntity
  8
STEMPEL
100
AcDbCircle
 10
154.7583492015301
 20
457.1026228653234
 30
0.0
 40
0.7500000000000013
100
AcDbArc
 50
109.9999999999995
 51
269.9999991462263
  0
ARC
  5
1D4D
330
2
100
AcDbEntity
  8
STEMPEL
100
AcDbCircle
 10
158.4131586731468
 20
458.658317157539
 30
0.0
 40
7.694305707784447
100
AcDbArc
 50
73.65710669401501
 51
106.342893305985
  0
ARC
  5
1D4E
330
2
100
AcDbEntity
  8
HILF
100
AcDbCircle
 10
158.4131586731468
 20
453.1041367157937
 30
0.0
 40
5.761140599691502
100
AcDbArc
 50
67.92594526326206
 51
112.0740547367379
  0
LINE
  5
1D4F
330
2
100
AcDbEntity
  8
STEMPEL
100
AcDbLine
 10
156.2480951636857
 20
458.4429793815233
 30
0.0
 11
156.2480951636857
 21
466.041733732868
 31
0.0
  0
LINE
  5
1D50
330
2
100
AcDbEntity
  8
STEMPEL
100
AcDbLine
 10
157.4083492015301
 20
466.3526228653234
 30
0.0
 11
156.2480951636857
 21
466.041733732868
 31
0.0
  0
LINE
  5
1D51
330
2
100
AcDbEntity
  8
STEMPEL
100
AcDbLine
 10
160.5782221826079
 20
458.4429793815233
 30
0.0
 11
160.5782221826079
 21
466.041733732868
 31
0.0
  0
LINE
  5
1D52
330
2
100
AcDbEntity
  8
STEMPEL
100
AcDbLine
 10
175.3148643090243
 20
457.8073923309128
 30
0.0
 11
173.5686032393745
 21
458.4429793815233
 31
0.0
  0
POINT
  5
1D53
330
2
100
AcDbEntity
  8
0
100
AcDbPoint
 10
164.9083492015301
 20
456.3526228653234
 30
0.0
210
0.0000000000000001
220
1.0
230
0.0
  0
ARC
  5
1D54
330
2
100
AcDbEntity
  8
STEMPEL
100
AcDbCircle
 10
175.0583492015301
 20
457.1026228653234
 30
0.0
 40
0.750000000000001
100
AcDbArc
 50
269.9999991462263
 51
70.00000000000047
  0
ARC
  5
1D55
330
2
100
AcDbEntity
  8
STEMPEL
100
AcDbCircle
 10
171.4035397299134
 20
458.658317157539
 30
0.0
 40
7.694305707784447
100
AcDbArc
 50
73.65710669401501
 51
106.342893305985
  0
ARC
  5
1D56
330
2
100
AcDbEntity
  8
HILF
100
AcDbCircle
 10
171.4035397299134
 20
453.1041367157937
 30
0.0
 40
5.761140599691502
100
AcDbArc
 50
67.92594526326206
 51
112.0740547367379
  0
LINE
  5
1D57
330
2
100
AcDbEntity
  8
STEMPEL
100
AcDbLine
 10
169.2384762204523
 20
458.4429793815233
 30
0.0
 11
169.2384762204523
 21
466.041733732868
 31
0.0
  0
LINE
  5
1D58
330
2
100
AcDbEntity
  8
STEMPEL
100
AcDbLine
 10
173.5686032393745
 20
458.4429793815233
 30
0.0
 11
173.5686032393745
 21
466.041733732868
 31
0.0
  0
LINE
  5
1D59
330
2
100
AcDbEntity
  8
STEMPEL
100
AcDbLine
 10
173.5686032393745
 20
466.041733732868
 30
0.0
 11
172.4083492015301
 21
466.3526228653234
 31
0.0
  0
ARC
  5
1D5A
330
2
100
AcDbEntity
  8
STEMPEL
100
AcDbCircle
 10
233.82834920153
 20
436.0417337328686
 30
0.0
 40
30.31088913245485
100
AcDbArc
 50
81.78678929826221
 51
98.2132107017378
  0
ARC
  5
1D5B
330
2
100
AcDbEntity
  8
HILF
100
AcDbCircle
 10
233.82834920153
 20
436.4541618176622
 30
0.0
 40
22.41111549782308
100
AcDbArc
 50
78.85962783890537
 51
101.1403721610946
  0
LINE
  5
1D5C
330
2
100
AcDbEntity
  8
STEMPEL
100
AcDbLine
 10
226.32834920153
 20
466.3526228653235
 30
0.0
 11
241.32834920153
 21
466.3526228653235
 31
0.0
  0
LINE
  5
1D5D
330
2
100
AcDbEntity
  8
STEMPEL
100
AcDbLine
 10
244.2348643090243
 20
457.8073923309129
 30
0.0
 11
223.4218340940357
 21
457.8073923309129
 31
0.0
  0
LINE
  5
1D5E
330
2
100
AcDbEntity
  8
STEMPEL
100
AcDbLine
 10
243.97834920153
 20
456.3526228653235
 30
0.0
 11
223.67834920153
 21
456.3526228653235
 31
0.0
  0
LINE
  5
1D5F
330
2
100
AcDbEntity
  8
STEMPEL
100
AcDbLine
 10
225.1680951636856
 20
458.4429793815233
 30
0.0
 11
223.4218340940357
 21
457.8073923309129
 31
0.0
  0
ARC
  5
1D60
330
2
100
AcDbEntity
  8
STEMPEL
100
AcDbCircle
 10
223.67834920153
 20
457.1026228653234
 30
0.0
 40
0.7500000000000013
100
AcDbArc
 50
109.9999999999995
 51
269.9999991462263
  0
ARC
  5
1D61
330
2
100
AcDbEntity
  8
STEMPEL
100
AcDbCircle
 10
227.3331586731467
 20
458.658317157539
 30
0.0
 40
7.694305707784447
100
AcDbArc
 50
73.65710669401501
 51
106.342893305985
  0
ARC
  5
1D62
330
2
100
AcDbEntity
  8
HILF
100
AcDbCircle
 10
227.3331586731467
 20
453.1041367157938
 30
0.0
 40
5.761140599691502
100
AcDbArc
 50
67.92594526326206
 51
112.0740547367379
  0
LINE
  5
1D63
330
2
100
AcDbEntity
  8
STEMPEL
100
AcDbLine
 10
225.1680951636856
 20
458.4429793815233
 30
0.0
 11
225.1680951636856
 21
466.0417337328681
 31
0.0
  0
LINE
  5
1D64
330
2
100
AcDbEntity
  8
STEMPEL
100
AcDbLine
 10
226.32834920153
 20
466.3526228653235
 30
0.0
 11
225.1680951636856
 21
466.0417337328681
 31
0.0
  0
LINE
  5
1D65
330
2
100
AcDbEntity
  8
STEMPEL
100
AcDbLine
 10
229.4982221826078
 20
458.4429793815233
 30
0.0
 11
229.4982221826078
 21
466.0417337328681
 31
0.0
  0
LINE
  5
1D66
330
2
100
AcDbEntity
  8
STEMPEL
100
AcDbLine
 10
244.2348643090243
 20
457.8073923309129
 30
0.0
 11
242.4886032393744
 21
458.4429793815233
 31
0.0
  0
POINT
  5
1D67
330
2
100
AcDbEntity
  8
0
100
AcDbPoint
 10
233.82834920153
 20
456.3526228653235
 30
0.0
210
0.0000000000000001
220
1.0
230
0.0
  0
ARC
  5
1D68
330
2
100
AcDbEntity
  8
STEMPEL
100
AcDbCircle
 10
243.97834920153
 20
457.1026228653234
 30
0.0
 40
0.750000000000001
100
AcDbArc
 50
269.9999991462263
 51
70.00000000000047
  0
ARC
  5
1D69
330
2
100
AcDbEntity
  8
STEMPEL
100
AcDbCircle
 10
240.3235397299133
 20
458.658317157539
 30
0.0
 40
7.694305707784447
100
AcDbArc
 50
73.65710669401501
 51
106.342893305985
  0
ARC
  5
1D6A
330
2
100
AcDbEntity
  8
HILF
100
AcDbCircle
 10
240.3235397299133
 20
453.1041367157938
 30
0.0
 40
5.761140599691502
100
AcDbArc
 50
67.92594526326206
 51
112.0740547367379
  0
LINE
  5
1D6B
330
2
100
AcDbEntity
  8
STEMPEL
100
AcDbLine
 10
238.1584762204522
 20
458.4429793815233
 30
0.0
 11
238.1584762204522
 21
466.0417337328681
 31
0.0
  0
LINE
  5
1D6C
330
2
100
AcDbEntity
  8
STEMPEL
100
AcDbLine
 10
242.4886032393744
 20
458.4429793815233
 30
0.0
 11
242.4886032393744
 21
466.0417337328681
 31
0.0
  0
LINE
  5
1D6D
330
2
100
AcDbEntity
  8
STEMPEL
100
AcDbLine
 10
242.4886032393744
 20
466.0417337328681
 30
0.0
 11
241.32834920153
 21
466.3526228653235
 31
0.0
  0
ARC
  5
1D6E
330
2
100
AcDbEntity
  8
STEMPEL
100
AcDbCircle
 10
324.37834920153
 20
436.0417337328687
 30
0.0
 40
30.31088913245485
100
AcDbArc
 50
81.78678929826221
 51
98.2132107017378
  0
ARC
  5
1D6F
330
2
100
AcDbEntity
  8
HILF
100
AcDbCircle
 10
324.37834920153
 20
436.4541618176623
 30
0.0
 40
22.41111549782308
100
AcDbArc
 50
78.85962783890537
 51
101.1403721610946
  0
LINE
  5
1D70
330
2
100
AcDbEntity
  8
STEMPEL
100
AcDbLine
 10
316.87834920153
 20
466.3526228653235
 30
0.0
 11
331.8783492015299
 21
466.3526228653235
 31
0.0
  0
LINE
  5
1D71
330
2
100
AcDbEntity
  8
STEMPEL
100
AcDbLine
 10
333.7763025869985
 20
457.807392330913
 30
0.0
 11
313.9718340940357
 21
457.807392330913
 31
0.0
  0
LINE
  5
1D73
330
2
100
AcDbEntity
  8
STEMPEL
100
AcDbLine
 10
315.7180951636856
 20
458.4429793815234
 30
0.0
 11
313.9718340940357
 21
457.807392330913
 31
0.0
  0
ARC
  5
1D74
330
2
100
AcDbEntity
  8
STEMPEL
100
AcDbCircle
 10
314.2283492015299
 20
457.1026228653236
 30
0.0
 40
0.7500000000000013
100
AcDbArc
 50
109.9999999999995
 51
269.9999991462263
  0
ARC
  5
1D75
330
2
100
AcDbEntity
  8
STEMPEL
100
AcDbCircle
 10
317.8831586731467
 20
458.6583171575391
 30
0.0
 40
7.694305707784447
100
AcDbArc
 50
73.65710669401501
 51
106.342893305985
  0
ARC
  5
1D76
330
2
100
AcDbEntity
  8
HILF
100
AcDbCircle
 10
317.8831586731467
 20
453.1041367157939
 30
0.0
 40
5.761140599691502
100
AcDbArc
 50
67.92594526326206
 51
112.0740547367379
  0
LINE
  5
1D77
330
2
100
AcDbEntity
  8
STEMPEL
100
AcDbLine
 10
315.7180951636856
 20
458.4429793815234
 30
0.0
 11
315.7180951636856
 21
466.0417337328682
 31
0.0
  0
LINE
  5
1D78
330
2
100
AcDbEntity
  8
STEMPEL
100
AcDbLine
 10
316.87834920153
 20
466.3526228653235
 30
0.0
 11
315.7180951636856
 21
466.0417337328682
 31
0.0
  0
LINE
  5
1D79
330
2
100
AcDbEntity
  8
STEMPEL
100
AcDbLine
 10
320.0482221826078
 20
458.4429793815234
 30
0.0
 11
320.0482221826078
 21
466.0417337328682
 31
0.0
  0
LINE
  5
1D7A
330
2
100
AcDbEntity
  8
STEMPEL
100
AcDbLine
 10
334.0319376533225
 20
458.081435222174
 30
0.0
 11
333.0386032393743
 21
458.4429793815234
 31
0.0
  0
POINT
  5
1D7B
330
2
100
AcDbEntity
  8
0
100
AcDbPoint
 10
324.37834920153
 20
456.3526228653236
 30
0.0
210
0.0000000000000001
220
1.0
230
0.0
  0
ARC
  5
1D7D
330
2
100
AcDbEntity
  8
STEMPEL
100
AcDbCircle
 10
330.8735397299132
 20
458.6583171575391
 30
0.0
 40
7.694305707784447
100
AcDbArc
 50
73.65710669401501
 51
106.342893305985
  0
ARC
  5
1D7E
330
2
100
AcDbEntity
  8
HILF
100
AcDbCircle
 10
330.8735397299132
 20
453.1041367157939
 30
0.0
 40
5.761140599691502
100
AcDbArc
 50
67.92594526326206
 51
112.0740547367379
  0
LINE
  5
1D7F
330
2
100
AcDbEntity
  8
STEMPEL
100
AcDbLine
 10
328.7084762204522
 20
458.4429793815234
 30
0.0
 11
328.7084762204522
 21
466.0417337328682
 31
0.0
  0
LINE
  5
1D80
330
2
100
AcDbEntity
  8
STEMPEL
100
AcDbLine
 10
333.0386032393743
 20
458.4429793815234
 30
0.0
 11
333.0386032393743
 21
466.0417337328682
 31
0.0
  0
LINE
  5
1D81
330
2
100
AcDbEntity
  8
STEMPEL
100
AcDbLine
 10
333.0386032393743
 20
466.0417337328682
 30
0.0
 11
331.8783492015299
 21
466.3526228653235
 31
0.0
  0
ENDSEC
  0
SECTION
  2
OBJECTS
  0
DICTIONARY
  5
1E
330
0
100
AcDbDictionary
281
     1
  3
ACAD_COLOR
350
5BD
  3
ACAD_GROUP
350
1C
  3
ACAD_LAYOUT
350
5BE
  3
ACAD_MATERIAL
350
5BC
  3
ACAD_MLINESTYLE
350
1D
  3
ACAD_PLOTSETTINGS
350
5BF
  3
ACAD_PLOTSTYLENAME
350
5BA
  3
ACDBVARIABLEDICTIONARY
350
545
  0
DICTIONARY
  5
3
330
2
100
AcDbDictionary
280
     1
281
     1
  3
ACAD_LAYOUTSELFREF
360
4
  0
DICTIONARY
  5
A
330
9
100
AcDbDictionary
280
     1
281
     1
  3
ACAD_LAYOUTSELFREF
360
B
  0
DICTIONARY
  5
5BD
102
{ACAD_REACTORS
330
1E
102
}
330
1E
100
AcDbDictionary
281
     1
  0
DICTIONARY
  5
1C
102
{ACAD_REACTORS
330
1E
102
}
330
1E
100
AcDbDictionary
281
     1
  0
DICTIONARY
  5
5BE
102
{ACAD_REACTORS
330
1E
102
}
330
1E
100
AcDbDictionary
281
     1
  3
Layout1
350
5C1
  3
Model
350
5C0
  0
DICTIONARY
  5
5BC
102
{ACAD_REACTORS
330
1E
102
}
330
1E
100
AcDbDictionary
281
     1
  0
DICTIONARY
  5
1D
102
{ACAD_REACTORS
330
1E
102
}
330
1E
100
AcDbDictionary
281
     1
  3
STANDARD
350
21
  0
DICTIONARY
  5
5BF
102
{ACAD_REACTORS
330
1E
102
}
330
1E
100
AcDbDictionary
281
     1
  0
ACDBDICTIONARYWDFLT
  5
5BA
102
{ACAD_REACTORS
330
1E
102
}
330
1E
100
AcDbDictionary
281
     1
  3
Normal
350
5BB
100
AcDbDictionaryWithDefault
340
5BB
  0
DICTIONARY
  5
545
102
{ACAD_REACTORS
330
1E
102
}
330
1E
100
AcDbDictionary
281
     1
  3
DIMASSOC
350
B28
  3
PROJECTNAME
350
B29
  3
SORTENTS
350
546
  0
XRECORD
  5
4
102
{ACAD_REACTORS
330
3
102
}
330
3
100
AcDbXrecord
280
     1
340
2
  0
XRECORD
  5
B
102
{ACAD_REACTORS
330
A
102
}
330
A
100
AcDbXrecord
280
     1
340
9
  0
LAYOUT
  5
5C1
102
{ACAD_REACTORS
330
5BE
102
}
330
5BE
100
AcDbPlotSettings
  1

  2
RICOH Aficio 2027 PCL 6
  4

  6

 40
0.0
 41
0.0
 42
0.0
 43
0.0
 44
0.0
 45
0.0
 46
0.0
 47
0.0
 48
0.0
 49
0.0
140
0.0
141
0.0
142
1.0
143
1.0
 70
   688
 72
     0
 73
     0
 74
     5
  7
monochrome1.ctb
 75
    16
147
1.0
 76
     0
 77
     2
 78
   300
148
0.0
149
0.0
100
AcDbLayout
  1
Layout1
 70
     0
 71
     1
 10
0.0
 20
0.0
 11
12.0
 21
9.0
 12
2.245140564963854
 22
50.00000000000001
 32
-1.032422173993944
 14
1.000000000000000E+20
 24
1.000000000000000E+20
 34
1.000000000000000E+20
 15
-1.000000000000000E+20
 25
-1.000000000000000E+20
 35
-1.000000000000000E+20
146
0.0
 13
0.0
 23
0.0
 33
0.0
 16
1.0
 26
0.0
 36
0.0
 17
0.0
 27
1.0
 37
0.0
 76
     0
330
9
  0
LAYOUT
  5
5C0
102
{ACAD_REACTORS
330
5BE
102
}
330
5BE
100
AcDbPlotSettings
  1

  2
RICOH Aficio 2027 PCL 6
  4
A4
  6

 40
5.027083
 41
5.027084999999999
 42
5.027084
 43
5.027069
 44
209.973328
 45
296.925995
 46
0.0
 47
2.06
 48
1143.007452
 49
420.250739
140
1563.007452
141
717.2507389999999
142
1.0
143
2.100849152723284
 70
 11956
 72
     1
 73
     0
 74
     2
  7
monochrome1.ctb
 75
     0
147
0.4759980023809526
 76
     1
 77
     2
 78
   300
148
0.0
149
0.0
100
AcDbLayout
  1
Model
 70
     1
 71
     0
 10
0.0
 20
0.0
 11
12.0
 21
9.0
 12
0.0
 22
0.0
 32
0.0
 14
0.0
 24
0.0
 34
0.0
 15
0.0
 25
0.0
 35
0.0
146
0.0
 13
0.0
 23
0.0
 33
0.0
 16
1.0
 26
0.0
 36
0.0
 17
0.0
 27
1.0
 37
0.0
 76
     0
330
2
  0
MLINESTYLE
  5
21
102
{ACAD_REACTORS
330
1D
102
}
330
1D
100
AcDbMlineStyle
  2
STANDARD
 70
     0
  3

 62
   256
 51
90.0
 52
90.0
 71
     2
 49
0.5
 62
   256
  6
BYLAYER
 49
-0.5
 62
   256
  6
BYLAYER
  0
ACDBPLACEHOLDER
  5
5BB
102
{ACAD_REACTORS
330
5BA
102
}
330
5BA
  0
DICTIONARYVAR
  5
B28
102
{ACAD_REACTORS
330
545
102
}
330
545
100
DictionaryVariables
280
     0
  1
1
  0
DICTIONARYVAR
  5
B29
102
{ACAD_REACTORS
330
545
102
}
330
545
100
DictionaryVariables
280
     0
  1

  0
DICTIONARYVAR
  5
546
102
{ACAD_REACTORS
330
545
102
}
330
545
100
DictionaryVariables
280
     0
  1
96
  0
ENDSEC
  0
EOF
