  0
SECTION
  2
HEADER
  9
$ACADVER
  1
AC1018
  9
$ACADMAINTVER
 70
     2
  9
$DWGCODEPAGE
  3
ANSI_1252
  9
$INSBASE
 10
0.0
 20
0.0
 30
0.0
  9
$EXTMIN
 10
-0.0000000000001137
 20
-0.0000000000001137
 30
0.0
  9
$EXTMAX
 10
420.0
 20
594.0000000000002
 30
0.0
  9
$LIMMIN
 10
0.0
 20
0.0
  9
$LIMMAX
 10
419.9999999999999
 20
594.0
  9
$ORTHOMODE
 70
     1
  9
$REGENMODE
 70
     1
  9
$FILLMODE
 70
     1
  9
$QTEXTMODE
 70
     0
  9
$MIRRTEXT
 70
     1
  9
$LTSCALE
 40
20.0
  9
$ATTMODE
 70
     1
  9
$TEXTSIZE
 40
3.5
  9
$TRACEWID
 40
0.5
  9
$TEXTSTYLE
  7
STANDARD
  9
$CLAYER
  8
VOLL
  9
$CELTYPE
  6
ByLayer
  9
$CECOLOR
 62
   256
  9
$CELTSCALE
 40
1.0
  9
$DISPSILH
 70
     0
  9
$DIMSCALE
 40
2.0
  9
$DIMASZ
 40
3.5
  9
$DIMEXO
 40
1.0
  9
$DIMDLI
 40
7.0
  9
$DIMRND
 40
0.0
  9
$DIMDLE
 40
0.0
  9
$DIMEXE
 40
1.0
  9
$DIMTP
 40
0.0
  9
$DIMTM
 40
0.0
  9
$DIMTXT
 40
3.5
  9
$DIMCEN
 40
1.5
  9
$DIMTSZ
 40
0.0
  9
$DIMTOL
 70
     0
  9
$DIMLIM
 70
     0
  9
$DIMTIH
 70
     0
  9
$DIMTOH
 70
     0
  9
$DIMSE1
 70
     0
  9
$DIMSE2
 70
     0
  9
$DIMTAD
 70
     1
  9
$DIMZIN
 70
     8
  9
$DIMBLK
  1

  9
$DIMASO
 70
     1
  9
$DIMSHO
 70
     0
  9
$DIMPOST
  1

  9
$DIMAPOST
  1

  9
$DIMALT
 70
     0
  9
$DIMALTD
 70
     2
  9
$DIMALTF
 40
25.4
  9
$DIMLFAC
 40
1.0
  9
$DIMTOFL
 70
     1
  9
$DIMTVP
 40
0.0
  9
$DIMTIX
 70
     0
  9
$DIMSOXD
 70
     0
  9
$DIMSAH
 70
     0
  9
$DIMBLK1
  1

  9
$DIMBLK2
  1

  9
$DIMSTYLE
  2
Standard
  9
$DIMCLRD
 70
     0
  9
$DIMCLRE
 70
     0
  9
$DIMCLRT
 70
     1
  9
$DIMTFAC
 40
0.5
  9
$DIMGAP
 40
1.5
  9
$DIMJUST
 70
     0
  9
$DIMSD1
 70
     0
  9
$DIMSD2
 70
     0
  9
$DIMTOLJ
 70
     1
  9
$DIMTZIN
 70
     8
  9
$DIMALTZ
 70
     8
  9
$DIMALTTZ
 70
     8
  9
$DIMUPT
 70
     0
  9
$DIMDEC
 70
     2
  9
$DIMTDEC
 70
     2
  9
$DIMALTU
 70
     2
  9
$DIMALTTD
 70
     2
  9
$DIMTXSTY
  7
STANDARD
  9
$DIMAUNIT
 70
     0
  9
$DIMADEC
 70
     2
  9
$DIMALTRND
 40
0.0
  9
$DIMAZIN
 70
     2
  9
$DIMDSEP
 70
    46
  9
$DIMATFIT
 70
     3
  9
$DIMFRAC
 70
     0
  9
$DIMLDRBLK
  1

  9
$DIMLUNIT
 70
     2
  9
$DIMLWD
 70
    -2
  9
$DIMLWE
 70
    -2
  9
$DIMTMOVE
 70
     0
  9
$LUNITS
 70
     2
  9
$LUPREC
 70
     2
  9
$SKETCHINC
 40
1.0
  9
$FILLETRAD
 40
0.0
  9
$AUNITS
 70
     0
  9
$AUPREC
 70
     0
  9
$MENU
  1
ACAD
  9
$ELEVATION
 40
0.0
  9
$PELEVATION
 40
0.0
  9
$THICKNESS
 40
0.0
  9
$LIMCHECK
 70
     0
  9
$CHAMFERA
 40
0.0
  9
$CHAMFERB
 40
0.0
  9
$CHAMFERC
 40
0.0
  9
$CHAMFERD
 40
0.0
  9
$SKPOLY
 70
     0
  9
$TDCREATE
 40
2455397.823042361
  9
$TDUCREATE
 40
2455397.781375695
  9
$TDUPDATE
 40
2455593.607220787
  9
$TDUUPDATE
 40
2455593.565554121
  9
$TDINDWG
 40
0.0393779514
  9
$TDUSRTIMER
 40
0.0393779514
  9
$USRTIMER
 70
     1
  9
$ANGBASE
 50
0.0
  9
$ANGDIR
 70
     0
  9
$PDMODE
 70
     0
  9
$PDSIZE
 40
0.0
  9
$PLINEWID
 40
0.0
  9
$SPLFRAME
 70
     0
  9
$SPLINETYPE
 70
     6
  9
$SPLINESEGS
 70
     8
  9
$HANDSEED
  5
86F
  9
$SURFTAB1
 70
     6
  9
$SURFTAB2
 70
     6
  9
$SURFTYPE
 70
     6
  9
$SURFU
 70
     6
  9
$SURFV
 70
     6
  9
$UCSBASE
  2

  9
$UCSNAME
  2

  9
$UCSORG
 10
0.0
 20
0.0
 30
0.0
  9
$UCSXDIR
 10
1.0
 20
0.0
 30
0.0
  9
$UCSYDIR
 10
0.0
 20
1.0
 30
0.0
  9
$UCSORTHOREF
  2

  9
$UCSORTHOVIEW
 70
     0
  9
$UCSORGTOP
 10
0.0
 20
0.0
 30
0.0
  9
$UCSORGBOTTOM
 10
0.0
 20
0.0
 30
0.0
  9
$UCSORGLEFT
 10
0.0
 20
0.0
 30
0.0
  9
$UCSORGRIGHT
 10
0.0
 20
0.0
 30
0.0
  9
$UCSORGFRONT
 10
0.0
 20
0.0
 30
0.0
  9
$UCSORGBACK
 10
0.0
 20
0.0
 30
0.0
  9
$PUCSBASE
  2

  9
$PUCSNAME
  2

  9
$PUCSORG
 10
0.0
 20
0.0
 30
0.0
  9
$PUCSXDIR
 10
1.0
 20
0.0
 30
0.0
  9
$PUCSYDIR
 10
0.0
 20
1.0
 30
0.0
  9
$PUCSORTHOREF
  2

  9
$PUCSORTHOVIEW
 70
     0
  9
$PUCSORGTOP
 10
0.0
 20
0.0
 30
0.0
  9
$PUCSORGBOTTOM
 10
0.0
 20
0.0
 30
0.0
  9
$PUCSORGLEFT
 10
0.0
 20
0.0
 30
0.0
  9
$PUCSORGRIGHT
 10
0.0
 20
0.0
 30
0.0
  9
$PUCSORGFRONT
 10
0.0
 20
0.0
 30
0.0
  9
$PUCSORGBACK
 10
0.0
 20
0.0
 30
0.0
  9
$USERI1
 70
     0
  9
$USERI2
 70
     0
  9
$USERI3
 70
     0
  9
$USERI4
 70
     0
  9
$USERI5
 70
     0
  9
$USERR1
 40
0.0
  9
$USERR2
 40
0.0
  9
$USERR3
 40
0.0
  9
$USERR4
 40
0.0
  9
$USERR5
 40
0.0
  9
$WORLDVIEW
 70
     1
  9
$SHADEDGE
 70
     3
  9
$SHADEDIF
 70
    70
  9
$TILEMODE
 70
     1
  9
$MAXACTVP
 70
    16
  9
$PINSBASE
 10
0.0
 20
0.0
 30
0.0
  9
$PLIMCHECK
 70
     0
  9
$PEXTMIN
 10
1.000000000000000E+20
 20
1.000000000000000E+20
 30
1.000000000000000E+20
  9
$PEXTMAX
 10
-1.000000000000000E+20
 20
-1.000000000000000E+20
 30
-1.000000000000000E+20
  9
$PLIMMIN
 10
0.0
 20
0.0
  9
$PLIMMAX
 10
12.0
 20
9.0
  9
$UNITMODE
 70
     0
  9
$VISRETAIN
 70
     0
  9
$PLINEGEN
 70
     0
  9
$PSLTSCALE
 70
     0
  9
$TREEDEPTH
 70
  3020
  9
$CMLSTYLE
  2
Standard
  9
$CMLJUST
 70
     0
  9
$CMLSCALE
 40
1.0
  9
$PROXYGRAPHICS
 70
     1
  9
$MEASUREMENT
 70
     0
  9
$CELWEIGHT
370
    -1
  9
$ENDCAPS
280
     0
  9
$JOINSTYLE
280
     0
  9
$LWDISPLAY
290
     0
  9
$INSUNITS
 70
     0
  9
$HYPERLINKBASE
  1

  9
$STYLESHEET
  1

  9
$XEDIT
290
     1
  9
$CEPSNTYPE
380
     0
  9
$PSTYLEMODE
290
     1
  9
$FINGERPRINTGUID
  2
{D68B0D02-A558-11D7-B632-000102183313}
  9
$VERSIONGUID
  2
{A015C4AE-84A4-4BB8-9067-F1097AADE8CD}
  9
$EXTNAMES
290
     1
  9
$PSVPSCALE
 40
0.0
  9
$OLESTARTUP
290
     0
  9
$SORTENTS
280
   127
  9
$INDEXCTL
280
     0
  9
$HIDETEXT
280
     0
  9
$XCLIPFRAME
290
     0
  9
$HALOGAP
280
     0
  9
$OBSCOLOR
 70
   257
  9
$OBSLTYPE
280
     0
  9
$INTERSECTIONDISPLAY
280
     0
  9
$INTERSECTIONCOLOR
 70
   257
  9
$DIMASSOC
280
     1
  9
$PROJECTNAME
  1

  0
ENDSEC
  0
SECTION
  2
CLASSES
  0
CLASS
  1
ACDBDICTIONARYWDFLT
  2
AcDbDictionaryWithDefault
  3
ObjectDBX Classes
 90
        0
 91
        1
280
     0
281
     0
  0
CLASS
  1
DICTIONARYVAR
  2
AcDbDictionaryVar
  3
ObjectDBX Classes
 90
        0
 91
        2
280
     0
281
     0
  0
ENDSEC
  0
SECTION
  2
TABLES
  0
TABLE
  2
VPORT
  5
8
330
0
100
AcDbSymbolTable
 70
     2
  0
VPORT
  5
86E
330
8
100
AcDbSymbolTableRecord
100
AcDbViewportTableRecord
  2
*Active
 70
     0
 10
0.0
 20
0.0
 11
1.0
 21
1.0
 12
210.0
 22
297.0
 13
0.0
 23
0.0
 14
1.0
 24
1.0
 15
10.0
 25
10.0
 16
0.0
 26
0.0
 36
1.0
 17
0.0
 27
0.0
 37
0.0
 40
594.18004911509
 41
1.336927223719676
 42
50.0
 43
0.0
 44
0.0
 50
0.0
 51
0.0
 71
     0
 72
  1500
 73
     1
 74
     0
 75
     0
 76
     0
 77
     0
 78
     0
281
     0
 65
     1
110
0.0
120
0.0
130
0.0
111
1.0
121
0.0
131
0.0
112
0.0
122
1.0
132
0.0
 79
     0
146
0.0
  0
ENDTAB
  0
TABLE
  2
LTYPE
  5
5
330
0
100
AcDbSymbolTable
 70
     3
  0
LTYPE
  5
13
330
5
100
AcDbSymbolTableRecord
100
AcDbLinetypeTableRecord
  2
ByBlock
 70
     0
  3

 72
    65
 73
     0
 40
0.0
  0
LTYPE
  5
14
330
5
100
AcDbSymbolTableRecord
100
AcDbLinetypeTableRecord
  2
ByLayer
 70
     0
  3

 72
    65
 73
     0
 40
0.0
  0
LTYPE
  5
15
330
5
100
AcDbSymbolTableRecord
100
AcDbLinetypeTableRecord
  2
Continuous
 70
     0
  3
Solid line
 72
    65
 73
     0
 40
0.0
  0
LTYPE
  5
25
330
5
100
AcDbSymbolTableRecord
100
AcDbLinetypeTableRecord
  2
STRICHPUNKT
 70
     0
  3
__ . __ . __ . __ . __ . __ . __ . __ . __ . __
 72
    65
 73
     4
 40
1.0
 49
0.5
 74
     0
 49
-0.25
 74
     0
 49
0.0
 74
     0
 49
-0.25
 74
     0
  0
LTYPE
  5
32
330
5
100
AcDbSymbolTableRecord
100
AcDbLinetypeTableRecord
  2
AUSGEZOGEN
 70
     0
  3
Ausgezogene Linie
 72
    65
 73
     0
 40
0.0
  0
ENDTAB
  0
TABLE
  2
LAYER
  5
2
330
0
100
AcDbSymbolTable
 70
     9
  0
LAYER
  5
10
330
2
100
AcDbSymbolTableRecord
100
AcDbLayerTableRecord
  2
0
 70
     0
 62
     7
  6
Continuous
370
    -3
390
F
  0
LAYER
  5
2A
330
2
100
AcDbSymbolTableRecord
100
AcDbLayerTableRecord
  2
VOLL
 70
     0
 62
     1
  6
Continuous
370
    -3
390
F
  0
LAYER
  5
2B
330
2
100
AcDbSymbolTableRecord
100
AcDbLayerTableRecord
  2
HILF
 70
     0
 62
     2
  6
Continuous
370
    -3
390
F
  0
LAYER
  5
2C
330
2
100
AcDbSymbolTableRecord
100
AcDbLayerTableRecord
  2
MITTEL
 70
     0
 62
     2
  6
STRICHPUNKT
370
    -3
390
F
  0
LAYER
  5
2F
330
2
100
AcDbSymbolTableRecord
100
AcDbLayerTableRecord
  2
BEM
 70
     0
 62
     7
  6
Continuous
370
    -3
390
F
  0
LAYER
  5
30
330
2
100
AcDbSymbolTableRecord
100
AcDbLayerTableRecord
  2
STEMPEL
 70
     0
 62
     3
  6
Continuous
370
    -3
390
F
  0
LAYER
  5
31
330
2
100
AcDbSymbolTableRecord
100
AcDbLayerTableRecord
  2
TEXT
 70
     0
 62
     7
  6
Continuous
370
    -3
390
F
  0
LAYER
  5
137
330
2
100
AcDbSymbolTableRecord
100
AcDbLayerTableRecord
  2
SCHRAFF
 70
     0
 62
     7
  6
AUSGEZOGEN
370
    -3
390
F
  0
LAYER
  5
31D
330
2
100
AcDbSymbolTableRecord
100
AcDbLayerTableRecord
  2
DEFPOINTS
 70
     0
 62
     7
  6
AUSGEZOGEN
290
     0
370
    -3
390
F
  0
ENDTAB
  0
TABLE
  2
STYLE
  5
3
330
0
100
AcDbSymbolTable
 70
     2
  0
STYLE
  5
11
330
3
100
AcDbSymbolTableRecord
100
AcDbTextStyleTableRecord
  2
STANDARD
 70
     0
 40
0.0
 41
0.8
 50
0.0
 71
     0
 42
3.5
  3
simplex.shx
  4

  0
STYLE
  5
24
330
3
100
AcDbSymbolTableRecord
100
AcDbTextStyleTableRecord
  2
GREEKS
 70
     0
 40
0.0
 41
0.8
 50
0.0
 71
     0
 42
2.5
  3
SIMPLEX.shx
  4

  0
ENDTAB
  0
TABLE
  2
VIEW
  5
6
330
0
100
AcDbSymbolTable
 70
     0
  0
ENDTAB
  0
TABLE
  2
UCS
  5
7
330
0
100
AcDbSymbolTable
 70
     0
  0
ENDTAB
  0
TABLE
  2
APPID
  5
9
330
0
100
AcDbSymbolTable
 70
     1
  0
APPID
  5
12
330
9
100
AcDbSymbolTableRecord
100
AcDbRegAppTableRecord
  2
ACAD
 70
     0
  0
ENDTAB
  0
TABLE
  2
DIMSTYLE
  5
A
330
0
100
AcDbSymbolTable
 70
     1
100
AcDbDimStyleTable
 71
     1
340
9D
  0
DIMSTYLE
105
9D
102
{ACAD_REACTORS
330
505
330
51E
330
521
330
795
330
797
330
79C
102
}
330
A
100
AcDbSymbolTableRecord
100
AcDbDimStyleTableRecord
  2
Standard
 70
     0
340
11
  0
ENDTAB
  0
TABLE
  2
BLOCK_RECORD
  5
1
330
0
100
AcDbSymbolTable
 70
     7
  0
BLOCK_RECORD
  5
1E
102
{ACAD_XDICTIONARY
360
A0
102
}
330
1
100
AcDbSymbolTableRecord
100
AcDbBlockTableRecord
  2
*Model_Space
340
21
  0
BLOCK_RECORD
  5
1A
102
{ACAD_XDICTIONARY
360
A2
102
}
330
1
100
AcDbSymbolTableRecord
100
AcDbBlockTableRecord
  2
*Paper_Space
340
1D
  0
BLOCK_RECORD
  5
22
330
1
100
AcDbSymbolTableRecord
100
AcDbBlockTableRecord
  2
LOGO
340
0
102
{BLKREFS
331
9B
102
}
  0
BLOCK_RECORD
  5
5F8
330
1
100
AcDbSymbolTableRecord
100
AcDbBlockTableRecord
  2
*D1
340
0
  0
BLOCK_RECORD
  5
604
330
1
100
AcDbSymbolTableRecord
100
AcDbBlockTableRecord
  2
*D2
340
0
  0
BLOCK_RECORD
  5
610
330
1
100
AcDbSymbolTableRecord
100
AcDbBlockTableRecord
  2
*D3
340
0
  0
BLOCK_RECORD
  5
7A4
330
1
100
AcDbSymbolTableRecord
100
AcDbBlockTableRecord
  2
*D4
340
0
  0
BLOCK_RECORD
  5
7B0
330
1
100
AcDbSymbolTableRecord
100
AcDbBlockTableRecord
  2
*D5
340
0
  0
BLOCK_RECORD
  5
7BC
330
1
100
AcDbSymbolTableRecord
100
AcDbBlockTableRecord
  2
*D6
340
0
  0
ENDTAB
  0
ENDSEC
  0
SECTION
  2
BLOCKS
  0
BLOCK
  5
35
330
1E
100
AcDbEntity
  8
0
100
AcDbBlockBegin
  2
*Model_Space
 70
     0
 10
0.0
 20
0.0
 30
0.0
  3
*Model_Space
  1

  0
ENDBLK
  5
36
330
1E
100
AcDbEntity
  8
0
100
AcDbBlockEnd
  0
BLOCK
  5
33
330
1A
100
AcDbEntity
 67
     1
  8
0
100
AcDbBlockBegin
  2
*Paper_Space
 70
     0
 10
0.0
 20
0.0
 30
0.0
  3
*Paper_Space
  1

  0
ENDBLK
  5
34
330
1A
100
AcDbEntity
 67
     1
  8
0
100
AcDbBlockEnd
  0
BLOCK
  5
37
330
22
100
AcDbEntity
  8
0
100
AcDbBlockBegin
  2
LOGO
 70
     0
 10
0.0
 20
0.0
 30
0.0
  3
LOGO
  1

  0
ARC
  5
38
330
22
100
AcDbEntity
  8
0
100
AcDbCircle
 10
11.59973089678112
 20
-9.271599258481501
 30
0.0
 40
4.5
100
AcDbArc
 50
270.0
 51
231.0575587310159
  0
LINE
  5
39
330
22
100
AcDbEntity
  8
0
100
AcDbLine
 10
3.599730896781125
 20
-4.771599258481529
 30
0.0
 11
3.599730896781153
 21
-11.77159925848133
 31
0.0
  0
LINE
  5
3A
330
22
100
AcDbEntity
  8
0
100
AcDbLine
 10
2.599730896781125
 20
-4.771599258481529
 30
0.0
 11
2.599730896781153
 21
-11.77159925848133
 31
0.0
  0
CIRCLE
  5
3B
330
22
100
AcDbEntity
  8
0
100
AcDbCircle
 10
11.59973089678112
 20
-9.271599258481501
 30
0.0
 40
3.5
  0
ARC
  5
3C
330
22
100
AcDbEntity
  8
0
100
AcDbCircle
 10
31.59973089678115
 20
-9.271599258481472
 30
0.0
 40
4.5
100
AcDbArc
 50
270.0
 51
231.0575587310182
  0
LINE
  5
3D
330
22
100
AcDbEntity
  8
0
100
AcDbLine
 10
17.59973089678112
 20
-4.771599258481472
 30
0.0
 11
17.59973089678115
 21
-13.77159925848147
 31
0.0
  0
ARC
  5
3E
330
22
100
AcDbEntity
  8
0
100
AcDbCircle
 10
22.59973089678116
 20
-7.271599258481472
 30
0.0
 40
2.5
100
AcDbArc
 50
293.1161887722295
 51
90.0
  0
CIRCLE
  5
3F
330
22
100
AcDbEntity
  8
0
100
AcDbCircle
 10
31.59973089678115
 20
-9.271599258481472
 30
0.0
 40
3.5
  0
ARC
  5
40
330
22
100
AcDbEntity
  8
0
100
AcDbCircle
 10
4.599730896781153
 20
-11.77159925848133
 30
0.0
 40
1.0
100
AcDbArc
 50
180.0
 51
270.0
  0
ARC
  5
41
330
22
100
AcDbEntity
  8
0
100
AcDbCircle
 10
4.599730896781153
 20
-11.77159925848133
 30
0.0
 40
2.0
100
AcDbArc
 50
179.9999999999992
 51
270.0
  0
LINE
  5
42
330
22
100
AcDbEntity
  8
0
100
AcDbLine
 10
11.59973089678115
 20
-13.77159925848144
 30
0.0
 11
4.599730896781153
 21
-13.77159925848147
 31
0.0
  0
LINE
  5
43
330
22
100
AcDbEntity
  8
0
100
AcDbLine
 10
8.771303772034769
 20
-12.77159925848136
 30
0.0
 11
4.599730896781153
 21
-12.77159925848133
 31
0.0
  0
LINE
  5
44
330
22
100
AcDbEntity
  8
0
100
AcDbLine
 10
31.59973089678115
 20
-13.77159925848147
 30
0.0
 11
23.6715276665056
 21
-13.77159925848144
 31
0.0
  0
LINE
  5
45
330
22
100
AcDbEntity
  8
0
100
AcDbLine
 10
23.56565672307022
 20
-9.51278021337896
 30
0.0
 11
24.4388546544846
 21
-12.77159925848144
 31
0.0
  0
LINE
  5
46
330
22
100
AcDbEntity
  8
0
100
AcDbLine
 10
22.59973089678116
 20
-9.771599258481472
 30
0.0
 11
18.59973089678112
 21
-9.771599258481472
 31
0.0
  0
LINE
  5
47
330
22
100
AcDbEntity
  8
0
100
AcDbLine
 10
18.59973089678115
 20
-13.77159925848144
 30
0.0
 11
17.59973089678115
 21
-13.77159925848144
 31
0.0
  0
LINE
  5
48
330
22
100
AcDbEntity
  8
0
100
AcDbLine
 10
18.59973089678115
 20
-9.771599258481472
 30
0.0
 11
18.59973089678115
 21
-13.77159925848144
 31
0.0
  0
LINE
  5
49
330
22
100
AcDbEntity
  8
0
100
AcDbLine
 10
22.59973089678116
 20
-9.771599258481472
 30
0.0
 11
23.67152766650562
 21
-13.77159925848147
 31
0.0
  0
ARC
  5
4A
330
22
100
AcDbEntity
  8
0
100
AcDbCircle
 10
22.59973089678116
 20
-7.271599258481472
 30
0.0
 40
2.5
100
AcDbArc
 50
270.0
 51
270.0000000000007
  0
LINE
  5
4B
330
22
100
AcDbEntity
  8
0
100
AcDbLine
 10
28.77130377203494
 20
-12.77159925848147
 30
0.0
 11
24.43885465448463
 21
-12.77159925848144
 31
0.0
  0
LINE
  5
4C
330
22
100
AcDbEntity
  8
0
100
AcDbLine
 10
3.599730896781125
 20
-4.771599258481472
 30
0.0
 11
2.599730896781125
 21
-4.771599258481472
 31
0.0
  0
LINE
  5
4D
330
22
100
AcDbEntity
  8
0
100
AcDbLine
 10
22.59973089678116
 20
-8.771599258481472
 30
0.0
 11
18.59973089678115
 21
-8.771599258481472
 31
0.0
  0
LINE
  5
4E
330
22
100
AcDbEntity
  8
0
100
AcDbLine
 10
22.59973089678116
 20
-5.771599258481472
 30
0.0
 11
18.59973089678115
 21
-5.771599258481472
 31
0.0
  0
LINE
  5
4F
330
22
100
AcDbEntity
  8
0
100
AcDbLine
 10
22.59973089678116
 20
-4.771599258481472
 30
0.0
 11
17.59973089678115
 21
-4.771599258481472
 31
0.0
  0
LINE
  5
50
330
22
100
AcDbEntity
  8
0
100
AcDbLine
 10
18.59973089678115
 20
-5.771599258481472
 30
0.0
 11
18.59973089678115
 21
-8.771599258481472
 31
0.0
  0
ARC
  5
51
330
22
100
AcDbEntity
  8
0
100
AcDbCircle
 10
22.59973089678116
 20
-7.271599258481472
 30
0.0
 40
1.5
100
AcDbArc
 50
270.0
 51
90.0
  0
ENDBLK
  5
52
330
22
100
AcDbEntity
  8
0
100
AcDbBlockEnd
  0
BLOCK
  5
602
330
5F8
100
AcDbEntity
  8
0
100
AcDbBlockBegin
  2
*D1
 70
     1
 10
0.0
 20
0.0
 30
0.0
  3
*D1
  1

  0
LINE
  5
83F
330
5F8
100
AcDbEntity
  8
BEM
 62
     0
370
    -2
100
AcDbLine
 10
336.3469064643145
 20
454.18970451695
 30
0.0
 11
336.3469064643145
 21
510.298312533717
 31
0.0
  0
LINE
  5
840
330
5F8
100
AcDbEntity
  8
BEM
 62
     0
370
    -2
100
AcDbLine
 10
91.34690646431408
 20
454.18970451695
 30
0.0
 11
91.34690646431408
 21
510.298312533717
 31
0.0
  0
LINE
  5
841
330
5F8
100
AcDbEntity
  8
BEM
 62
     0
370
    -2
100
AcDbLine
 10
329.3469064643145
 20
508.2983125337171
 30
0.0
 11
98.34690646431409
 21
508.2983125337171
 31
0.0
  0
SOLID
  5
842
330
5F8
100
AcDbEntity
  8
BEM
 62
     0
100
AcDbTrace
 10
329.3469064643145
 20
509.4649792003838
 30
0.0
 11
329.3469064643145
 21
507.1316458670503
 31
0.0
 12
336.3469064643145
 22
508.2983125337171
 32
0.0
 13
336.3469064643145
 23
508.2983125337171
 33
0.0
  0
SOLID
  5
843
330
5F8
100
AcDbEntity
  8
BEM
 62
     0
100
AcDbTrace
 10
98.34690646431409
 20
509.4649792003838
 30
0.0
 11
98.34690646431409
 21
507.1316458670503
 31
0.0
 12
91.34690646431408
 22
508.2983125337171
 32
0.0
 13
91.34690646431408
 23
508.2983125337171
 33
0.0
  0
MTEXT
  5
844
330
5F8
100
AcDbEntity
  8
BEM
 62
     1
100
AcDbMText
 10
213.8469064643143
 20
514.798312533717
 30
0.0
 40
7.0
 41
0.0
 71
     5
 72
     1
  1
\A1;%%c245
 73
     1
 44
1.0
  0
POINT
  5
845
330
5F8
100
AcDbEntity
  8
DEFPOINTS
 62
     0
100
AcDbPoint
 10
336.3469064643145
 20
452.1897045169501
 30
0.0
  0
POINT
  5
846
330
5F8
100
AcDbEntity
  8
DEFPOINTS
 62
     0
100
AcDbPoint
 10
91.34690646431408
 20
452.1897045169501
 30
0.0
  0
POINT
  5
847
330
5F8
100
AcDbEntity
  8
DEFPOINTS
 62
     0
100
AcDbPoint
 10
91.34690646431408
 20
508.2983125337171
 30
0.0
  0
ENDBLK
  5
603
330
5F8
100
AcDbEntity
  8
0
100
AcDbBlockEnd
  0
BLOCK
  5
60E
330
604
100
AcDbEntity
  8
0
100
AcDbBlockBegin
  2
*D2
 70
     1
 10
0.0
 20
0.0
 30
0.0
  3
*D2
  1

  0
LINE
  5
72F
330
604
100
AcDbEntity
  8
BEM
 62
     0
370
    -2
100
AcDbLine
 10
177.3469064643147
 20
199.0635529308083
 30
0.0
 11
177.3469064643147
 21
174.2939158164916
 31
0.0
  0
LINE
  5
730
330
604
100
AcDbEntity
  8
BEM
 62
     0
370
    -2
100
AcDbLine
 10
250.3469064643148
 20
199.0635529308082
 30
0.0
 11
250.3469064643148
 21
174.2939158164916
 31
0.0
  0
LINE
  5
731
330
604
100
AcDbEntity
  8
BEM
 62
     0
370
    -2
100
AcDbLine
 10
184.3469064643148
 20
176.2939158164916
 30
0.0
 11
243.3469064643148
 21
176.2939158164916
 31
0.0
  0
SOLID
  5
732
330
604
100
AcDbEntity
  8
BEM
 62
     0
100
AcDbTrace
 10
184.3469064643148
 20
177.4605824831583
 30
0.0
 11
184.3469064643148
 21
175.127249149825
 31
0.0
 12
177.3469064643147
 22
176.2939158164916
 32
0.0
 13
177.3469064643147
 23
176.2939158164916
 33
0.0
  0
SOLID
  5
733
330
604
100
AcDbEntity
  8
BEM
 62
     0
100
AcDbTrace
 10
243.3469064643148
 20
177.4605824831583
 30
0.0
 11
243.3469064643148
 21
175.127249149825
 31
0.0
 12
250.3469064643148
 22
176.2939158164916
 32
0.0
 13
250.3469064643148
 23
176.2939158164916
 33
0.0
  0
MTEXT
  5
734
330
604
100
AcDbEntity
  8
BEM
 62
     1
100
AcDbMText
 10
213.8469064643148
 20
182.7939158164916
 30
0.0
 40
7.0
 41
0.0
 71
     5
 72
     1
  1
\A1;%%c73
 73
     1
 44
1.0
  0
POINT
  5
735
330
604
100
AcDbEntity
  8
DEFPOINTS
 62
     0
100
AcDbPoint
 10
177.3469064643147
 20
201.0635529308083
 30
0.0
  0
POINT
  5
736
330
604
100
AcDbEntity
  8
DEFPOINTS
 62
     0
100
AcDbPoint
 10
250.3469064643148
 20
201.0635529308082
 30
0.0
  0
POINT
  5
737
330
604
100
AcDbEntity
  8
DEFPOINTS
 62
     0
100
AcDbPoint
 10
250.3469064643148
 20
176.2939158164916
 30
0.0
  0
ENDBLK
  5
60F
330
604
100
AcDbEntity
  8
0
100
AcDbBlockEnd
  0
BLOCK
  5
61A
330
610
100
AcDbEntity
  8
0
100
AcDbBlockBegin
  2
*D3
 70
     1
 10
0.0
 20
0.0
 30
0.0
  3
*D3
  1

  0
LINE
  5
7E3
330
610
100
AcDbEntity
  8
BEM
 62
     0
370
    -2
100
AcDbLine
 10
175.8718076647435
 20
196.1277497914433
 30
0.0
 11
52.34812755950855
 21
196.1277497914433
 31
0.0
  0
LINE
  5
7E4
330
610
100
AcDbEntity
  8
BEM
 62
     0
370
    -2
100
AcDbLine
 10
89.34690646431414
 20
456.1290443451707
 30
0.0
 11
52.34812755950861
 21
456.1290443451707
 31
0.0
  0
LINE
  5
7E5
330
610
100
AcDbEntity
  8
BEM
 62
     0
370
    -2
100
AcDbLine
 10
54.34812755950855
 20
203.1277497914433
 30
0.0
 11
54.34812755950861
 21
449.1290443451707
 31
0.0
  0
SOLID
  5
7E6
330
610
100
AcDbEntity
  8
BEM
 62
     0
100
AcDbTrace
 10
53.18146089284189
 20
203.1277497914433
 30
0.0
 11
55.51479422617521
 21
203.1277497914433
 31
0.0
 12
54.34812755950855
 22
196.1277497914433
 32
0.0
 13
54.34812755950855
 23
196.1277497914433
 33
0.0
  0
SOLID
  5
7E7
330
610
100
AcDbEntity
  8
BEM
 62
     0
100
AcDbTrace
 10
53.18146089284194
 20
449.1290443451707
 30
0.0
 11
55.51479422617528
 21
449.1290443451707
 31
0.0
 12
54.34812755950861
 22
456.1290443451707
 32
0.0
 13
54.34812755950861
 23
456.1290443451707
 33
0.0
  0
MTEXT
  5
7E8
330
610
100
AcDbEntity
  8
BEM
 62
     1
100
AcDbMText
 10
47.84812755950853
 20
326.128397068307
 30
0.0
 40
7.0
 41
0.0
 71
     5
 72
     1
  1
\A1;260
 11
0.0000000000000001
 21
1.0
 31
0.0
 73
     1
 44
1.0
  0
POINT
  5
7E9
330
610
100
AcDbEntity
  8
DEFPOINTS
 62
     0
100
AcDbPoint
 10
177.8718076647435
 20
196.1277497914433
 30
0.0
  0
POINT
  5
7EA
330
610
100
AcDbEntity
  8
DEFPOINTS
 62
     0
100
AcDbPoint
 10
91.34690646431414
 20
456.1290443451707
 30
0.0
  0
POINT
  5
7EB
330
610
100
AcDbEntity
  8
DEFPOINTS
 62
     0
100
AcDbPoint
 10
54.34812755950861
 20
456.1290443451707
 30
0.0
  0
ENDBLK
  5
61B
330
610
100
AcDbEntity
  8
0
100
AcDbBlockEnd
  0
BLOCK
  5
7AE
330
7A4
100
AcDbEntity
  8
0
100
AcDbBlockBegin
  2
*D4
 70
     1
 10
0.0
 20
0.0
 30
0.0
  3
*D4
  1

  0
LINE
  5
836
330
7A4
100
AcDbEntity
  8
BEM
 62
     0
370
    -2
100
AcDbLine
 10
138.8469064643144
 20
456.1290443451703
 30
0.0
 11
138.8469064643144
 21
496.2877380796917
 31
0.0
  0
LINE
  5
837
330
7A4
100
AcDbEntity
  8
BEM
 62
     0
370
    -2
100
AcDbLine
 10
288.8469064643147
 20
456.1290443451706
 30
0.0
 11
288.8469064643147
 21
496.2877380796917
 31
0.0
  0
LINE
  5
838
330
7A4
100
AcDbEntity
  8
BEM
 62
     0
370
    -2
100
AcDbLine
 10
145.8469064643144
 20
494.2877380796917
 30
0.0
 11
281.8469064643147
 21
494.2877380796917
 31
0.0
  0
SOLID
  5
839
330
7A4
100
AcDbEntity
  8
BEM
 62
     0
100
AcDbTrace
 10
145.8469064643144
 20
495.4544047463584
 30
0.0
 11
145.8469064643144
 21
493.1210714130251
 31
0.0
 12
138.8469064643144
 22
494.2877380796917
 32
0.0
 13
138.8469064643144
 23
494.2877380796917
 33
0.0
  0
SOLID
  5
83A
330
7A4
100
AcDbEntity
  8
BEM
 62
     0
100
AcDbTrace
 10
281.8469064643147
 20
495.4544047463584
 30
0.0
 11
281.8469064643147
 21
493.1210714130251
 31
0.0
 12
288.8469064643147
 22
494.2877380796917
 32
0.0
 13
288.8469064643147
 23
494.2877380796917
 33
0.0
  0
MTEXT
  5
83B
330
7A4
100
AcDbEntity
  8
BEM
 62
     1
100
AcDbMText
 10
213.8469064643146
 20
500.7877380796917
 30
0.0
 40
7.0
 41
0.0
 71
     5
 72
     1
  1
\A1;%%c150
  7
GREEKS
 73
     1
 44
1.0
  0
POINT
  5
83C
330
7A4
100
AcDbEntity
  8
DEFPOINTS
 62
     0
100
AcDbPoint
 10
138.8469064643144
 20
454.1290443451702
 30
0.0
  0
POINT
  5
83D
330
7A4
100
AcDbEntity
  8
DEFPOINTS
 62
     0
100
AcDbPoint
 10
288.8469064643147
 20
454.1290443451706
 30
0.0
  0
POINT
  5
83E
330
7A4
100
AcDbEntity
  8
DEFPOINTS
 62
     0
100
AcDbPoint
 10
288.8469064643147
 20
494.2877380796917
 30
0.0
  0
ENDBLK
  5
7AF
330
7A4
100
AcDbEntity
  8
0
100
AcDbBlockEnd
  0
BLOCK
  5
7BA
330
7B0
100
AcDbEntity
  8
0
100
AcDbBlockBegin
  2
*D5
 70
     1
 10
0.0
 20
0.0
 30
0.0
  3
*D5
  1

  0
LINE
  5
82C
330
7B0
100
AcDbEntity
  8
BEM
 62
     0
370
    -2
100
AcDbLine
 10
148.8493618297927
 20
292.1290443451703
 30
0.0
 11
148.8493618297927
 21
271.6255740026821
 31
0.0
  0
LINE
  5
82D
330
7B0
100
AcDbEntity
  8
BEM
 62
     0
370
    -2
100
AcDbLine
 10
278.844451098836
 20
292.1290443451686
 30
0.0
 11
278.844451098836
 21
271.6255740026821
 31
0.0
  0
LINE
  5
82E
330
7B0
100
AcDbEntity
  8
BEM
 62
     0
370
    -2
100
AcDbLine
 10
155.8493618297927
 20
273.6255740026821
 30
0.0
 11
271.844451098836
 21
273.6255740026821
 31
0.0
  0
SOLID
  5
82F
330
7B0
100
AcDbEntity
  8
BEM
 62
     0
100
AcDbTrace
 10
155.8493618297927
 20
274.7922406693488
 30
0.0
 11
155.8493618297927
 21
272.4589073360154
 31
0.0
 12
148.8493618297927
 22
273.6255740026821
 32
0.0
 13
148.8493618297927
 23
273.6255740026821
 33
0.0
  0
SOLID
  5
830
330
7B0
100
AcDbEntity
  8
BEM
 62
     0
100
AcDbTrace
 10
271.844451098836
 20
274.7922406693488
 30
0.0
 11
271.844451098836
 21
272.4589073360154
 31
0.0
 12
278.844451098836
 22
273.6255740026821
 32
0.0
 13
278.844451098836
 23
273.6255740026821
 33
0.0
  0
MTEXT
  5
831
330
7B0
100
AcDbEntity
  8
BEM
 62
     1
100
AcDbMText
 10
213.8469064643144
 20
280.1255740026821
 30
0.0
 40
7.0
 41
0.0
 71
     5
 72
     1
  1
\A1;%%c130
  7
GREEKS
 73
     1
 44
1.0
  0
POINT
  5
832
330
7B0
100
AcDbEntity
  8
DEFPOINTS
 62
     0
100
AcDbPoint
 10
148.8493618297927
 20
294.1290443451703
 30
0.0
  0
POINT
  5
833
330
7B0
100
AcDbEntity
  8
DEFPOINTS
 62
     0
100
AcDbPoint
 10
278.844451098836
 20
294.1290443451686
 30
0.0
  0
POINT
  5
834
330
7B0
100
AcDbEntity
  8
DEFPOINTS
 62
     0
100
AcDbPoint
 10
278.844451098836
 20
273.6255740026821
 30
0.0
  0
ENDBLK
  5
7BB
330
7B0
100
AcDbEntity
  8
0
100
AcDbBlockEnd
  0
BLOCK
  5
7C6
330
7BC
100
AcDbEntity
  8
0
100
AcDbBlockBegin
  2
*D6
 70
     1
 10
0.0
 20
0.0
 30
0.0
  3
*D6
  1

  0
LINE
  5
81A
330
7BC
100
AcDbEntity
  8
BEM
 62
     0
370
    -2
100
AcDbLine
 10
95.56442088558629
 20
454.129044345171
 30
0.0
 11
66.5178161341623
 21
454.129044345171
 31
0.0
  0
LINE
  5
81B
330
7BC
100
AcDbEntity
  8
BEM
 62
     0
370
    -2
100
AcDbLine
 10
146.8493618297927
 20
294.1290443451703
 30
0.0
 11
66.51781613416227
 21
294.1290443451704
 31
0.0
  0
LINE
  5
81C
330
7BC
100
AcDbEntity
  8
BEM
 62
     0
370
    -2
100
AcDbLine
 10
68.5178161341623
 20
447.1290443451709
 30
0.0
 11
68.51781613416227
 21
301.1290443451704
 31
0.0
  0
SOLID
  5
81D
330
7BC
100
AcDbEntity
  8
BEM
 62
     0
100
AcDbTrace
 10
67.35114946749563
 20
447.1290443451709
 30
0.0
 11
69.68448280082897
 21
447.1290443451709
 31
0.0
 12
68.5178161341623
 22
454.129044345171
 32
0.0
 13
68.5178161341623
 23
454.129044345171
 33
0.0
  0
SOLID
  5
81E
330
7BC
100
AcDbEntity
  8
BEM
 62
     0
100
AcDbTrace
 10
67.3511494674956
 20
301.1290443451704
 30
0.0
 11
69.68448280082895
 21
301.1290443451704
 31
0.0
 12
68.51781613416227
 22
294.1290443451704
 32
0.0
 13
68.51781613416227
 23
294.1290443451704
 33
0.0
  0
MTEXT
  5
81F
330
7BC
100
AcDbEntity
  8
BEM
 62
     1
100
AcDbMText
 10
62.01781613416223
 20
374.1290443451707
 30
0.0
 40
7.0
 41
0.0
 71
     5
 72
     1
  1
\A1;160
  7
GREEKS
 11
0.0000000000000001
 21
1.0
 31
0.0
 73
     1
 44
1.0
  0
POINT
  5
820
330
7BC
100
AcDbEntity
  8
DEFPOINTS
 62
     0
100
AcDbPoint
 10
97.56442088558628
 20
454.129044345171
 30
0.0
  0
POINT
  5
821
330
7BC
100
AcDbEntity
  8
DEFPOINTS
 62
     0
100
AcDbPoint
 10
148.8493618297927
 20
294.1290443451703
 30
0.0
  0
POINT
  5
822
330
7BC
100
AcDbEntity
  8
DEFPOINTS
 62
     0
100
AcDbPoint
 10
68.51781613416227
 20
294.1290443451704
 30
0.0
  0
ENDBLK
  5
7C7
330
7BC
100
AcDbEntity
  8
0
100
AcDbBlockEnd
  0
ENDSEC
  0
SECTION
  2
ENTITIES
  0
LINE
  5
57
330
1E
100
AcDbEntity
  8
STEMPEL
100
AcDbLine
 10
410.0
 20
110.0
 30
0.0
 11
39.99999999999997
 21
110.0
 31
0.0
  0
LINE
  5
58
330
1E
100
AcDbEntity
  8
STEMPEL
100
AcDbLine
 10
141.0000000000001
 20
109.9999999999999
 30
0.0
 11
141.0
 21
9.999999999999971
 31
0.0
  0
LINE
  5
59
330
1E
100
AcDbEntity
  8
STEMPEL
100
AcDbLine
 10
225.0
 20
110.0
 30
0.0
 11
225.0
 21
9.999999999999971
 31
0.0
  0
LINE
  5
5A
330
1E
100
AcDbEntity
  8
STEMPEL
100
AcDbLine
 10
332.0
 20
109.9999999999997
 30
0.0
 11
332.0
 21
40.0
 31
0.0
  0
LINE
  5
5B
330
1E
100
AcDbEntity
  8
STEMPEL
100
AcDbLine
 10
140.9999999999999
 20
29.99999999999997
 30
0.0
 11
39.99999999999997
 21
29.99999999999997
 31
0.0
  0
LINE
  5
5C
330
1E
100
AcDbEntity
  8
STEMPEL
100
AcDbLine
 10
410.0
 20
40.0
 30
0.0
 11
141.0000000000001
 21
39.99999999999997
 31
0.0
  0
LINE
  5
5D
330
1E
100
AcDbEntity
  8
STEMPEL
100
AcDbLine
 10
410.0
 20
80.0
 30
0.0
 11
141.0000000000001
 21
79.99999999999994
 31
0.0
  0
LINE
  5
5E
330
1E
100
AcDbEntity
  8
VOLL
100
AcDbLine
 10
54.00000000000009
 20
110.0
 30
0.0
 11
53.99999999999997
 21
9.999999999999971
 31
0.0
  0
LINE
  5
5F
330
1E
100
AcDbEntity
  8
VOLL
100
AcDbLine
 10
99.00000000000012
 20
109.9999999999999
 30
0.0
 11
99.0
 21
9.999999999999971
 31
0.0
  0
LINE
  5
60
330
1E
100
AcDbEntity
  8
VOLL
100
AcDbLine
 10
119.0000000000001
 20
109.9999999999999
 30
0.0
 11
119.0
 21
9.999999999999971
 31
0.0
  0
LINE
  5
61
330
1E
100
AcDbEntity
  8
VOLL
100
AcDbLine
 10
159.0000000000001
 20
79.99999999999994
 30
0.0
 11
159.0000000000001
 21
39.99999999999997
 31
0.0
  0
LINE
  5
62
330
1E
100
AcDbEntity
  8
VOLL
100
AcDbLine
 10
185.0000000000001
 20
109.9999999999998
 30
0.0
 11
185.0
 21
39.99999999999997
 31
0.0
  0
LINE
  5
63
330
1E
100
AcDbEntity
  8
HILF
100
AcDbLine
 10
40.00000000000008
 20
100.0
 30
0.0
 11
141.0000000000001
 21
100.0
 31
0.0
  0
LINE
  5
64
330
1E
100
AcDbEntity
  8
HILF
100
AcDbLine
 10
40.00000000000008
 20
90.00000000000005
 30
0.0
 11
141.0000000000001
 21
90.00000000000005
 31
0.0
  0
LINE
  5
65
330
1E
100
AcDbEntity
  8
HILF
100
AcDbLine
 10
40.00000000000008
 20
79.99999999999994
 30
0.0
 11
141.0000000000001
 21
79.99999999999994
 31
0.0
  0
LINE
  5
66
330
1E
100
AcDbEntity
  8
HILF
100
AcDbLine
 10
40.00000000000008
 20
69.99999999999994
 30
0.0
 11
141.0000000000001
 21
69.99999999999994
 31
0.0
  0
LINE
  5
67
330
1E
100
AcDbEntity
  8
HILF
100
AcDbLine
 10
40.00000000000008
 20
59.99999999999997
 30
0.0
 11
141.0000000000001
 21
59.99999999999997
 31
0.0
  0
LINE
  5
68
330
1E
100
AcDbEntity
  8
HILF
100
AcDbLine
 10
40.00000000000008
 20
49.99999999999997
 30
0.0
 11
141.0000000000001
 21
49.99999999999997
 31
0.0
  0
LINE
  5
69
330
1E
100
AcDbEntity
  8
HILF
100
AcDbLine
 10
40.00000000000008
 20
39.99999999999997
 30
0.0
 11
141.0000000000001
 21
39.99999999999997
 31
0.0
  0
LINE
  5
6A
330
1E
100
AcDbEntity
  8
HILF
100
AcDbLine
 10
141.0000000000001
 20
69.99999999999994
 30
0.0
 11
225.0
 21
69.99999999999994
 31
0.0
  0
LINE
  5
6B
330
1E
100
AcDbEntity
  8
HILF
100
AcDbLine
 10
141.0000000000001
 20
59.99999999999997
 30
0.0
 11
225.0
 21
59.99999999999997
 31
0.0
  0
LINE
  5
6C
330
1E
100
AcDbEntity
  8
HILF
100
AcDbLine
 10
141.0000000000001
 20
49.99999999999997
 30
0.0
 11
225.0
 21
49.99999999999997
 31
0.0
  0
LINE
  5
6D
330
1E
100
AcDbEntity
  8
HILF
100
AcDbLine
 10
229.7736801096947
 20
84.03758247564139
 30
0.0
 11
324.8353916556311
 21
84.03758247564139
 31
0.0
  0
LINE
  5
6E
330
1E
100
AcDbEntity
  8
HILF
100
AcDbLine
 10
229.7736801096947
 20
69.99999999999994
 30
0.0
 11
324.835391655631
 21
69.99999999999994
 31
0.0
  0
LINE
  5
6F
330
1E
100
AcDbEntity
  8
HILF
100
AcDbLine
 10
229.7736801096947
 20
59.99999999999997
 30
0.0
 11
324.835391655631
 21
59.99999999999997
 31
0.0
  0
LINE
  5
70
330
1E
100
AcDbEntity
  8
HILF
100
AcDbLine
 10
229.7736801096947
 20
49.99999999999997
 30
0.0
 11
324.835391655631
 21
49.99999999999997
 31
0.0
  0
LINE
  5
71
330
1E
100
AcDbEntity
  8
VOLL
100
AcDbLine
 10
332.0
 20
60.0
 30
0.0
 11
410.0
 21
60.0
 31
0.0
  0
LINE
  5
72
330
1E
100
AcDbEntity
  8
HILF
100
AcDbLine
 10
336.7238616296993
 20
83.77983636955827
 30
0.0
 11
404.8588839326728
 21
83.77983636955827
 31
0.0
  0
LINE
  5
73
330
1E
100
AcDbEntity
  8
HILF
100
AcDbLine
 10
228.4909699289885
 20
14.89398258028314
 30
0.0
 11
404.8588839326728
 21
14.89398258028314
 31
0.0
  0
TEXT
  5
74
330
1E
100
AcDbEntity
  8
TEXT
100
AcDbText
 10
63.86165979631819
 20
18.67381894984132
 30
0.0
 40
4.0
  1
Änderung
 41
0.8
  7
GREEKS
 72
     1
 11
74.60451693917534
 21
18.67381894984132
 31
0.0
100
AcDbText
  0
TEXT
  5
75
330
1E
100
AcDbEntity
  8
TEXT
100
AcDbText
 10
148.5163572150377
 20
102.4620895087088
 30
0.0
 40
5.0
  1
Maßstab
 41
0.8
  7
GREEKS
100
AcDbText
  0
TEXT
  5
76
330
1E
100
AcDbEntity
  8
TEXT
100
AcDbText
 10
189.2858954734051
 20
102.4184168434819
 30
0.0
 40
5.0
  1
Zul. Abw.
 41
0.8
  7
GREEKS
100
AcDbText
  0
TEXT
  5
77
330
1E
100
AcDbEntity
  8
TEXT
100
AcDbText
 10
229.877940380901
 20
102.5489328011779
 30
0.0
 40
5.0
  1
Benennung
 41
0.8
  7
GREEKS
100
AcDbText
  0
TEXT
  5
78
330
1E
100
AcDbEntity
  8
TEXT
100
AcDbText
 10
336.178754957634
 20
102.3132034537136
 30
0.0
 40
5.0
  1
Zeichnungs Nr.
 41
0.8
  7
GREEKS
100
AcDbText
  0
TEXT
  5
79
330
1E
100
AcDbEntity
  8
TEXT
100
AcDbText
 10
229.742238391136
 20
30.84560570193057
 30
0.0
 40
5.0
  1
Bauvorhaben
 41
0.8
  7
GREEKS
100
AcDbText
  0
TEXT
  5
7A
330
1E
100
AcDbEntity
  8
TEXT
100
AcDbText
 10
336.7238616296993
 20
73.1811823709997
 30
0.0
 40
5.0
  1
Ersatz für:
 41
0.8
  7
GREEKS
100
AcDbText
  0
TEXT
  5
7B
330
1E
100
AcDbEntity
  8
TEXT
100
AcDbText
 10
48.26641107045756
 20
13.65465846027192
 30
0.0
 40
4.0
  1
Index
 50
90.0
 41
0.8
  7
GREEKS
100
AcDbText
  0
TEXT
  5
7C
330
1E
100
AcDbEntity
  8
TEXT
100
AcDbText
 10
105.0934676075481
 20
18.6715626933981
 30
0.0
 40
4.0
  1
Tag
 41
0.8
  7
GREEKS
 72
     1
 11
108.8268009408814
 21
18.6715626933981
 31
0.0
100
AcDbText
  0
TEXT
  5
7D
330
1E
100
AcDbEntity
  8
TEXT
100
AcDbText
 10
124.0122744386592
 20
18.59324216966408
 30
0.0
 40
4.0
  1
Name
 41
0.8
  7
GREEKS
 72
     1
 11
130.3360839624688
 21
18.59324216966408
 31
0.0
100
AcDbText
  0
TEXT
  5
7E
330
1E
100
AcDbEntity
  8
TEXT
100
AcDbText
 10
167.331167315365
 20
73.31880501229926
 30
0.0
 40
4.0
  1
Tag
 41
0.8
  7
GREEKS
100
AcDbText
  0
TEXT
  5
7F
330
1E
100
AcDbEntity
  8
TEXT
100
AcDbText
 10
197.4626584226295
 20
73.30961091915225
 30
0.0
 40
4.0
  1
Name
 41
0.8
  7
GREEKS
100
AcDbText
  0
TEXT
  5
80
330
1E
100
AcDbEntity
  8
TEXT
100
AcDbText
 10
142.5836127167615
 20
63.62990369617964
 30
0.0
 40
4.0
  1
Gez.
 41
0.8
  7
GREEKS
100
AcDbText
  0
TEXT
  5
81
330
1E
100
AcDbEntity
  8
TEXT
100
AcDbText
 10
142.5515086571672
 20
53.68926291428377
 30
0.0
 40
4.0
  1
Gepr.
 41
0.8
  7
GREEKS
100
AcDbText
  0
TEXT
  5
82
330
1E
100
AcDbEntity
  8
TEXT
100
AcDbText
 10
142.6006777387303
 20
43.52946389649807
 30
0.0
 40
4.0
  1
Norm.
 41
0.8
  7
GREEKS
100
AcDbText
  0
LINE
  5
83
330
1E
100
AcDbEntity
  8
STEMPEL
100
AcDbLine
 10
49.99999999999989
 20
10.0
 30
0.0
 11
410.0
 21
10.0
 31
0.0
  0
TEXT
  5
84
330
1E
100
AcDbEntity
  8
TEXT
100
AcDbText
 10
337.2400861497006
 20
52.07416177878602
 30
0.0
 40
5.0
  1
ersetzt durch:
 41
0.8
  7
GREEKS
100
AcDbText
  0
LINE
  5
85
330
1E
100
AcDbEntity
  8
STEMPEL
100
AcDbLine
 10
410.0
 20
10.0
 30
0.0
 11
39.99999999999989
 21
10.0
 31
0.0
  0
LINE
  5
86
330
1E
100
AcDbEntity
  8
STEMPEL
100
AcDbLine
 10
410.0
 20
10.0
 30
0.0
 11
410.0
 21
584.0
 31
0.0
  0
LINE
  5
87
330
1E
100
AcDbEntity
  8
STEMPEL
100
AcDbLine
 10
40.0
 20
10.0
 30
0.0
 11
39.99999999999989
 21
584.0
 31
0.0
  0
LINE
  5
88
330
1E
100
AcDbEntity
  8
STEMPEL
100
AcDbLine
 10
410.0
 20
584.0
 30
0.0
 11
39.99999999999989
 21
584.0
 31
0.0
  0
LINE
  5
89
330
1E
100
AcDbEntity
  8
HILF
100
AcDbLine
 10
0.0
 20
0.0
 30
0.0
 11
-0.0000000000001137
 21
594.0
 31
0.0
  0
LINE
  5
8A
330
1E
100
AcDbEntity
  8
HILF
100
AcDbLine
 10
419.9999999999999
 20
594.0000000000002
 30
0.0
 11
0.0
 21
594.0
 31
0.0
  0
LINE
  5
8B
330
1E
100
AcDbEntity
  8
HILF
100
AcDbLine
 10
420.0
 20
0.0
 30
0.0
 11
0.0
 21
0.0
 31
0.0
  0
LINE
  5
8C
330
1E
100
AcDbEntity
  8
HILF
100
AcDbLine
 10
31.08767135713856
 20
297.0
 30
0.0
 11
0.0000000000001137
 21
297.0
 31
0.0
  0
TEXT
  5
8D
330
1E
100
AcDbEntity
  8
TEXT
100
AcDbText
 10
143.622109822104
 20
73.14025471151666
 30
0.0
 40
4.0
  1
2011
 41
0.8
  7
GREEKS
100
AcDbText
  0
LINE
  5
8E
330
1E
100
AcDbEntity
  8
HILF
100
AcDbLine
 10
420.0
 20
-0.0000000000001137
 30
0.0
 11
419.9999999999999
 21
594.0
 31
0.0
  0
TEXT
  5
8F
330
1E
100
AcDbEntity
  8
VOLL
100
AcDbText
 10
78.07675471698113
 20
31.02594776470585
 30
0.0
 40
1.8
  1

  7
GREEKS
100
AcDbText
  0
TEXT
  5
90
330
1E
100
AcDbEntity
  8
TEXT
100
AcDbText
 10
41.85509950977674
 20
111.6719999999999
 30
0.0
 40
5.0
  1
Erstellt mit AUTOCAD 2004
 41
0.8
  7
GREEKS
100
AcDbText
  0
TEXT
  5
93
330
1E
100
AcDbEntity
  8
TEXT
 62
     1
100
AcDbText
 10
155.5006306481887
 20
88.14901428913959
 30
0.0
 40
7.0
  1
1:2
 41
0.8
  7
GREEKS
100
AcDbText
  0
INSERT
  5
9B
330
1E
100
AcDbEntity
  8
STEMPEL
100
AcDbBlockReference
  2
LOGO
 10
145.9955485457794
 20
45.02105276448322
 30
0.0
 41
2.0
 42
2.0
 43
2.0
  0
TEXT
  5
118
330
1E
100
AcDbEntity
  8
BEM
100
AcDbText
 10
417.3022923857165
 20
10.16790107998849
 30
0.0
 40
4.0
  1
Diese Zeichnung ist urheberrechtlich geschützt und bleibt unser Eigentum. Sie darf weder ganz noch teilweise verfielfältigt und nicht an Dritte weitergegeben werden.
 50
90.0
 41
0.8
  7
GREEKS
100
AcDbText
  0
TEXT
  5
3A8
330
1E
100
AcDbEntity
  8
TEXT
100
AcDbText
 10
166.0085209177599
 20
63.10765040825732
 30
0.0
 40
4.0
  1
31.01.
 41
0.8
  7
GREEKS
 72
     1
 11
172.4085209177599
 21
63.10765040825732
 31
0.0
100
AcDbText
  0
TEXT
  5
3A9
330
1E
100
AcDbEntity
  8
TEXT
100
AcDbText
 10
199.4216048581257
 20
63.0896391972351
 30
0.0
 40
4.0
  1
Koeh
 41
0.8
  7
GREEKS
 72
     1
 11
204.6787477152686
 21
63.0896391972351
 31
0.0
100
AcDbText
  0
TEXT
  5
3AA
330
1E
100
AcDbEntity
  8
TEXT
100
AcDbText
 10
187.626132208084
 20
90.76363841023022
 30
0.0
 40
4.0
  1
DIN EN1124-3
 41
0.8
  7
GREEKS
 72
     1
 11
204.6166083985602
 21
90.76363841023022
 31
0.0
100
AcDbText
  0
TEXT
  5
3AB
330
1E
100
AcDbEntity
  8
TEXT
 62
     1
100
AcDbText
 10
229.7736801096947
 20
87.41748789253779
 30
0.0
 40
7.0
  1
Grundeinheit DN70
 41
0.8
  7
GREEKS
100
AcDbText
  0
TEXT
  5
3AD
330
1E
100
AcDbEntity
  8
TEXT
100
AcDbText
 10
230.1296391125315
 20
51.5033441758529
 30
0.0
 40
5.0
  1
EDV-Art.Nr. 21902.070X
 41
0.8
  7
GREEKS
100
AcDbText
  0
TEXT
  5
3AE
330
1E
100
AcDbEntity
  8
TEXT
100
AcDbText
 10
229.9837501577826
 20
42.62974153022632
 30
0.0
 40
4.0
  1
21902070W.DWG
 41
0.8
  7
GREEKS
100
AcDbText
  0
TEXT
  5
3B0
330
1E
100
AcDbEntity
  8
TEXT
 62
     1
100
AcDbText
 10
347.0742235297263
 20
87.41748789253779
 30
0.0
 40
7.0
  1
21902070W
 41
0.8
  7
GREEKS
 72
     1
 11
370.540890196393
 21
87.41748789253779
 31
0.0
100
AcDbText
  0
DIMENSION
  5
505
330
1E
100
AcDbEntity
  8
BEM
100
AcDbDimension
  2
*D1
 10
91.34690646431408
 20
508.2983125337171
 30
0.0
 11
213.8469064643143
 21
514.798312533717
 31
0.0
 70
    32
  1
%%c<>
 71
     5
 42
245.0000000000005
  3
Standard
100
AcDbAlignedDimension
 13
336.3469064643145
 23
452.1897045169501
 33
0.0
 14
91.34690646431408
 24
452.1897045169501
 34
0.0
100
AcDbRotatedDimension
1001
ACAD
1000
DSTYLE
1002
{
1070
    40
1040
2.0
1070
    41
1040
3.5
1070
    42
1040
1.0
1070
    43
1040
7.0
1070
    44
1040
1.0
1070
    47
1040
2.0
1070
    48
1040
2.0
1070
    73
1070
     0
1070
    74
1070
     0
1070
    77
1070
     1
1070
    78
1070
     8
1070
    79
1070
     2
1070
   140
1040
3.5
1070
   141
1040
1.5
1070
   146
1040
0.5
1070
   147
1040
1.5
1070
   172
1070
     1
1070
   178
1070
     1
1070
   179
1070
     2
1070
   279
1070
     0
1002
}
  0
TEXT
  5
50D
330
1E
100
AcDbEntity
  8
TEXT
 62
     1
100
AcDbText
 10
70.76266924498236
 20
527.810941260559
 30
0.0
 40
7.0
  1
EDV-Art.Nr. 21905.070X
 41
0.8
100
AcDbText
  0
LINE
  5
50E
330
1E
100
AcDbEntity
  8
TEXT
 62
     2
100
AcDbLine
 10
176.1058753444854
 20
537.1034380683581
 30
0.0
 11
62.78528682916203
 21
537.1034380683581
 31
0.0
  0
HATCH
  5
50F
330
1E
100
AcDbEntity
  8
SCHRAFF
100
AcDbHatch
 10
0.0
 20
0.0
 30
0.0
210
0.0
220
0.0
230
1.0
  2
_USER
 70
     0
 71
     0
 91
        5
 92
        7
 72
     1
 73
     1
 93
       12
 10
83.8469064643138
 20
482.1290443451675
 42
0.0
 10
87.84690646431357
 20
482.129044345168
 42
0.0
 10
87.84690646431391
 20
479.1290443451689
 42
0.0
 10
88.34690646431369
 20
479.1290443451688
 42
0.0
 10
88.34690646431374
 20
476.1290443451688
 42
0.0
 10
87.84690646431398
 20
476.1290443451689
 42
0.0
 10
87.84690646431398
 20
468.1290443451691
 42
0.0
 10
88.34690646431397
 20
468.1290443451689
 42
0.0
 10
88.34690646431397
 20
465.1290443451689
 42
0.0
 10
87.84690646431398
 20
465.1290443451689
 42
0.0
 10
87.84690646431414
 20
462.1839483823908
 42
-0.3763797779543461
 10
83.58660365482904
 20
467.2163063773541
 42
0.0
 97
        0
 92
        7
 72
     1
 73
     1
 93
       11
 10
95.84690646431402
 20
475.6260578443809
 42
0.0
 10
99.89880208351321
 20
479.1559463124319
 42
0.0
 10
100.0055252131053
 20
473.041782312982
 42
0.4091108014277268
 10
105.0047636888874
 20
468.1290443451683
 42
0.0
 10
148.346906464314
 20
468.1290443451696
 42
-1.0
 10
148.3469064643141
 20
462.1290443451691
 42
0.0
 10
95.84690646431415
 20
462.129044345168
 42
0.0
 10
95.84690646431409
 20
465.1290443451691
 42
0.0
 10
95.34690646431409
 20
465.129044345169
 42
0.0
 10
95.34690646431398
 20
468.1290443451691
 42
0.0
 10
95.84690646431397
 20
468.1290443451691
 42
0.0
 97
        0
 92
        7
 72
     0
 73
     1
 93
        8
 10
95.84690646431381
 20
475.6260578443811
 10
95.84690646431397
 20
476.1290443451689
 10
95.34690646431375
 20
476.1290443451691
 10
95.3469064643137
 20
479.1290443451689
 10
95.84690646431392
 20
479.1290443451689
 10
95.84690646431358
 20
482.129044345169
 10
99.84690646431381
 20
482.1290443451695
 10
99.89880208351308
 20
479.1559463124317
 97
        0
 92
        7
 72
     1
 73
     1
 93
        4
 10
297.3469064643144
 20
468.1290443451738
 42
0.0
 10
297.3469064643148
 20
462.1290443451725
 42
0.0
 10
279.3469064643142
 20
462.1290443451719
 42
-1.0
 10
279.346906464314
 20
468.1290443451731
 42
0.0
 97
        0
 92
        7
 72
     1
 73
     1
 93
        4
 10
325.8469064643142
 20
468.1290443451744
 42
-1.0
 10
325.8469064643143
 20
462.129044345173
 42
0.0
 10
310.3469064643146
 20
462.1290443451726
 42
0.0
 10
310.3469064643143
 20
468.1290443451739
 42
0.0
 97
        0
 75
     0
 76
     0
 52
45.0
 41
5.0
 77
     0
 78
     1
 53
135.0000000000016
 43
415.2752961325566
 44
-47.56022689939732
 45
3.535533905932636
 46
3.535533905932838
 79
     0
 47
0.4273487917069632
 98
        5
 10
85.34486986826284
 20
470.323981280042
 10
97.74706250798466
 20
469.0419351824511
 10
98.17472225666444
 20
479.7256540606621
 10
287.628906185929
 20
465.1957954913997
 10
317.137570492853
 20
466.0504928897946
  0
LINE
  5
510
330
1E
100
AcDbEntity
  8
STEMPEL
100
AcDbLine
 10
325.8469064643142
 20
468.1290443451744
 30
0.0
 11
105.0047636888874
 21
468.1290443451683
 31
0.0
  0
LINE
  5
511
102
{ACAD_REACTORS
330
865
102
}
330
1E
100
AcDbEntity
  8
STEMPEL
100
AcDbLine
 10
91.34690646431414
 20
459.1290443451707
 30
0.0
 11
298.8469064643144
 21
459.1290443451706
 31
0.0
  0
LINE
  5
513
330
1E
100
AcDbEntity
  8
STEMPEL
100
AcDbLine
 10
88.58584213061083
 20
462.1290443451706
 30
0.0
 11
298.8469064643143
 21
462.1290443451705
 31
0.0
  0
HATCH
  5
514
330
1E
100
AcDbEntity
  8
SCHRAFF
100
AcDbHatch
 10
0.0
 20
0.0
 30
0.0
210
0.0
220
0.0
230
1.0
  2
_USER
 70
     0
 71
     1
 91
        2
 92
        7
 72
     1
 73
     1
 93
       10
 10
250.3469064643168
 20
433.4366561897459
 42
-0.1989123673795745
 10
251.8113725583798
 20
436.9721900956788
 42
0.0
 10
257.4075666360938
 20
442.5683841733921
 42
0.0
 10
256.3469064643145
 20
443.6290443451719
 42
0.0
 10
250.7507123866002
 20
438.0328502674583
 42
0.1989123673796049
 10
248.8469064643169
 20
433.4366561897454
 42
0.0
 10
248.8469064643145
 20
201.1290443451767
 42
0.0
 10
248.4094631466842
 20
196.1290443451708
 42
0.0
 10
249.9151929029993
 20
196.1290443451708
 42
0.0
 10
250.3469064643145
 20
201.0635529308173
 42
0.0
 97
       10
330
5AA
330
5B5
330
5B6
330
5B4
330
5A9
330
586
330
58C
330
51F
330
58B
330
585
 92
        7
 72
     1
 73
     1
 93
       10
 10
178.8469064643164
 20
433.4366561897456
 42
0.1989123673796779
 10
176.9431005420287
 20
438.0328502674585
 42
0.0
 10
171.3346401791105
 20
443.6413106303759
 42
0.0
 10
170.2739800073307
 20
442.5806504585961
 42
0.0
 10
175.8824403702489
 20
436.9721900956788
 42
-0.1989123673796759
 10
177.3469064643163
 20
433.4366561897458
 42
0.0
 10
177.3469064643147
 20
201.0635529308081
 42
0.0
 10
177.7786200256294
 20
196.1290443451708
 42
0.0
 10
179.2843497819442
 20
196.1290443451708
 42
0.0
 10
178.8469064643145
 20
201.1290443451705
 42
0.0
 97
       10
330
573
330
565
330
576
330
575
330
574
330
522
330
524
330
51F
330
525
330
523
 75
     0
 76
     0
 52
135.0
 41
2.0
 77
     0
 78
     1
 53
135.0
 43
-9.091844467600367
 44
0.0
 45
-1.414213562373095
 46
-1.414213562373094
 79
     0
 47
0.5486474276378085
 98
        2
 10
249.9263239333054
 20
349.4506950561165
 10
178.5499161293009
 20
363.1668818800754
  0
HATCH
  5
515
330
1E
100
AcDbEntity
  8
SCHRAFF
100
AcDbHatch
 10
0.0
 20
0.0
 30
0.0
210
0.0
220
0.0
230
1.0
  2
_USER
 70
     0
 71
     0
 91
        5
 92
        7
 72
     1
 73
     1
 93
        8
 10
303.8469064643146
 20
456.1290443451705
 42
0.0
 10
272.1606149632989
 20
456.1290443451706
 42
0.1989123673796403
 10
266.503760713807
 20
453.7858985946632
 42
0.0
 10
256.3469064643144
 20
443.6290443451719
 42
0.0
 10
257.7611200266874
 20
442.2148307827986
 42
0.0
 10
267.9179742761801
 20
452.3716850322901
 42
-0.1989123673796358
 10
272.1606149632989
 20
454.1290443451705
 42
0.0
 10
303.8469064643146
 20
454.1290443451707
 42
0.0
 97
        0
 92
        7
 72
     0
 73
     1
 93
        4
 10
318.4262714977042
 20
456.1290443451705
 10
303.8469064643146
 20
456.1290443451705
 10
303.8469064643146
 20
454.1290443451707
 10
317.6429921530253
 20
454.1290443451709
 97
        0
 92
        7
 72
     1
 73
     1
 93
        8
 10
330.1293920430424
 20
456.1290443451705
 42
0.0
 10
318.4262714977041
 20
456.1290443451704
 42
0.0
 10
317.6429921530253
 20
454.1290443451709
 42
0.0
 10
330.1293920430424
 20
454.129044345171
 42
-0.1989123673797046
 10
332.6042657771954
 20
453.1039180793231
 42
0.0
 10
334.9326929019417
 20
450.7754909545767
 42
0.0
 10
336.3469064643145
 20
452.1897045169501
 42
0.0
 10
334.0184793395686
 20
454.5181316416963
 42
0.1989123673796779
 97
        0
 92
        7
 72
     1
 73
     1
 93
        8
 10
155.5331979653296
 20
456.1290443451706
 42
0.0
 10
123.8469064643144
 20
456.1290443451707
 42
0.0
 10
123.8469064643144
 20
454.1290443451708
 42
0.0
 10
155.5331979653297
 20
454.1290443451705
 42
-0.1989123673796432
 10
159.7758386524487
 20
452.3716850322901
 42
0.0
 10
169.9204266167373
 20
442.2270970680026
 42
0.0
 10
171.3346401791105
 20
443.641310630376
 42
0.0
 10
161.1900522148219
 20
453.7858985946631
 42
0.1989123673796519
 97
        0
 92
        7
 72
     1
 73
     1
 93
        8
 10
123.8469064643144
 20
456.1290443451707
 42
0.0
 10
97.56442088558674
 20
456.1290443451707
 42
0.1989123673797045
 10
93.67533358906007
 20
454.5181316416963
 42
0.0
 10
91.3469064643141
 20
452.18970451695
 42
0.0
 10
92.76112002668694
 20
450.7754909545767
 42
0.0
 10
95.08954715143318
 20
453.1039180793231
 42
-0.198912367379677
 10
97.56442088558593
 20
454.129044345171
 42
0.0
 10
123.8469064643144
 20
454.1290443451707
 42
0.0
 97
        0
 75
     0
 76
     0
 52
45.0
 41
2.0
 77
     0
 78
     1
 53
45.0
 43
-9.091844467600367
 44
0.0
 45
-1.414213562373094
 46
1.414213562373095
 79
     0
 47
0.3473152716033439
 98
        5
 10
277.0108014124535
 20
455.4822243830686
 10
307.2493615681365
 20
454.7875943688498
 10
321.8472868782105
 20
454.7875943688498
 10
145.9770370989808
 20
455.4822243830686
 10
115.0433363432303
 20
454.7875943688498
  0
HATCH
  5
516
330
1E
100
AcDbEntity
  8
SCHRAFF
100
AcDbHatch
 10
0.0
 20
0.0
 30
0.0
210
0.0
220
0.0
230
1.0
  2
_U
 70
     0
 71
     0
 91
        2
 92
        7
 72
     1
 73
     1
 93
        4
 10
170.2739800073307
 20
442.5806504585961
 42
0.0
 10
169.9204266167372
 20
442.2270970680026
 42
0.0
 10
168.4016833007824
 20
443.7458403839571
 42
0.5760313318603869
 10
173.0223142700349
 20
439.8323161958924
 42
0.0
 97
        0
 92
        7
 72
     1
 73
     1
 93
        4
 10
259.2921296278466
 20
443.7458403839575
 42
0.0
 10
257.7611200266872
 20
442.2148307827984
 42
0.0
 10
257.4075666360938
 20
442.5683841733919
 42
0.0
 10
254.6714986585939
 20
439.8323161958925
 42
0.5760313318604339
 97
        0
 75
     0
 76
     0
 52
0.0
 41
0.1
 77
     0
 78
     1
 53
0.0
 43
-9.091844467600367
 44
0.0
 45
0.0
 46
0.1
 79
     0
 47
0.1173469678841337
 98
        2
 10
170.4242495341652
 20
440.9302203162305
 10
257.2130455315794
 20
440.8128732537163
  0
TEXT
  5
517
330
1E
100
AcDbEntity
  8
TEXT
 62
     1
100
AcDbText
 10
202.1439782189043
 20
324.0815441127077
 30
0.0
 40
7.0
  1
DN70
 50
90.0
 41
0.8
  7
GREEKS
100
AcDbText
  0
LINE
  5
518
330
1E
100
AcDbEntity
  8
HILF
100
AcDbLine
 10
179.9503682254201
 20
435.9240985001187
 30
0.0
 11
247.7434447032087
 21
435.9240985001187
 31
0.0
  0
LINE
  5
519
330
1E
100
AcDbEntity
  8
STEMPEL
100
AcDbLine
 10
171.8469064643144
 20
443.1290443451719
 30
0.0
 11
255.8469064643143
 21
443.1290443451719
 31
0.0
  0
LINE
  5
51A
330
1E
100
AcDbEntity
  8
STEMPEL
100
AcDbLine
 10
197.0969064643145
 20
480.1290443451708
 30
0.0
 11
207.0969064643143
 21
480.1290443451708
 31
0.0
  0
LINE
  5
51B
330
1E
100
AcDbEntity
  8
STEMPEL
100
AcDbLine
 10
206.0969064643145
 20
481.1290443451707
 30
0.0
 11
198.0969064643145
 21
481.1290443451707
 31
0.0
  0
LINE
  5
51C
330
1E
100
AcDbEntity
  8
HILF
100
AcDbLine
 10
247.341176707999
 20
201.1290443451708
 30
0.0
 11
180.3526362206296
 21
201.1290443451708
 31
0.0
  0
LINE
  5
51D
330
1E
100
AcDbEntity
  8
STEMPEL
100
AcDbLine
 10
249.8220052638851
 20
196.1277497914433
 30
0.0
 11
177.8718076647435
 21
196.1277497914433
 31
0.0
  0
DIMENSION
  5
51E
330
1E
100
AcDbEntity
  8
BEM
100
AcDbDimension
  2
*D2
 10
250.3469064643148
 20
176.2939158164916
 30
0.0
 11
213.8469064643148
 21
182.7939158164916
 31
0.0
 70
    32
  1
%%c<>
 71
     5
 42
73.0
  3
Standard
100
AcDbAlignedDimension
 13
177.3469064643147
 23
201.0635529308083
 33
0.0
 14
250.3469064643148
 24
201.0635529308082
 34
0.0
100
AcDbRotatedDimension
1001
ACAD
1000
DSTYLE
1002
{
1070
    40
1040
2.0
1070
    41
1040
3.5
1070
    42
1040
1.0
1070
    43
1040
7.0
1070
    44
1040
1.0
1070
    47
1040
2.0
1070
    48
1040
2.0
1070
    73
1070
     0
1070
    74
1070
     0
1070
    77
1070
     1
1070
    78
1070
     8
1070
    79
1070
     2
1070
   140
1040
3.5
1070
   141
1040
1.5
1070
   146
1040
0.5
1070
   147
1040
1.5
1070
   172
1070
     1
1070
   178
1070
     1
1070
   179
1070
     2
1070
   279
1070
     0
1002
}
  0
LINE
  5
51F
102
{ACAD_REACTORS
330
514
102
}
330
1E
100
AcDbEntity
  8
STEMPEL
100
AcDbLine
 10
249.9151929029992
 20
196.1290443451708
 30
0.0
 11
177.7786200256294
 21
196.1290443451708
 31
0.0
  0
LINE
  5
520
102
{ACAD_REACTORS
330
865
102
}
330
1E
100
AcDbEntity
  8
STEMPEL
100
AcDbLine
 10
91.34690646431414
 20
456.1290443451707
 30
0.0
 11
336.3469064643143
 21
456.1290443451706
 31
0.0
  0
DIMENSION
  5
521
330
1E
100
AcDbEntity
  8
BEM
100
AcDbDimension
  2
*D3
 10
54.34812755950861
 20
456.1290443451707
 30
0.0
 11
47.84812755950853
 21
326.128397068307
 31
0.0
 70
    32
 71
     5
 42
260.0012945537275
  3
Standard
100
AcDbAlignedDimension
 13
177.8718076647435
 23
196.1277497914433
 33
0.0
 14
91.34690646431414
 24
456.1290443451707
 34
0.0
 50
90.0
100
AcDbRotatedDimension
1001
ACAD
1000
DSTYLE
1002
{
1070
    40
1040
2.0
1070
    41
1040
3.5
1070
    42
1040
1.0
1070
    43
1040
7.0
1070
    44
1040
1.0
1070
    73
1070
     0
1070
    74
1070
     0
1070
    77
1070
     1
1070
    78
1070
     8
1070
    79
1070
     2
1070
   140
1040
3.5
1070
   141
1040
1.5
1070
   146
1040
0.5
1070
   147
1040
1.5
1070
   172
1070
     1
1070
   178
1070
     1
1070
   179
1070
     2
1070
   271
1070
     2
1070
   272
1070
     2
1070
   284
1070
     8
1070
   285
1070
     8
1070
   286
1070
     8
1002
}
  0
LINE
  5
522
102
{ACAD_REACTORS
330
514
330
810
102
}
330
1E
100
AcDbEntity
  8
STEMPEL
  6
Continuous
100
AcDbLine
 10
177.3469064643163
 20
433.4366561897456
 30
0.0
 11
177.3469064643147
 21
201.0635529308083
 31
0.0
  0
LINE
  5
523
102
{ACAD_REACTORS
330
514
102
}
330
1E
100
AcDbEntity
  8
STEMPEL
  6
Continuous
100
AcDbLine
 10
178.8469064643164
 20
433.4366561897456
 30
0.0
 11
178.8469064643145
 21
201.1290443451708
 31
0.0
  0
LINE
  5
524
102
{ACAD_REACTORS
330
514
102
}
330
1E
100
AcDbEntity
  8
STEMPEL
100
AcDbLine
 10
177.3469064643147
 20
201.0635529308083
 30
0.0
 11
177.7786200256294
 21
196.1290443451708
 31
0.0
  0
LINE
  5
525
102
{ACAD_REACTORS
330
514
102
}
330
1E
100
AcDbEntity
  8
STEMPEL
100
AcDbLine
 10
178.8469064643145
 20
201.1290443451708
 30
0.0
 11
179.2843497819442
 21
196.1290443451708
 31
0.0
  0
LINE
  5
528
330
1E
100
AcDbEntity
  8
MITTEL
100
AcDbLine
 10
91.84690646431347
 20
487.1290443451685
 30
0.0
 11
91.84690646431404
 21
466.772271212573
 31
0.0
  0
LINE
  5
529
102
{ACAD_REACTORS
330
865
102
}
330
1E
100
AcDbEntity
  8
MITTEL
100
AcDbLine
 10
130.6969064643142
 20
486.1290443451707
 30
0.0
 11
130.6969064643142
 21
451.1290443451703
 31
0.0
  0
LINE
  5
52A
330
1E
100
AcDbEntity
  8
STEMPEL
100
AcDbLine
 10
135.6969064643145
 20
480.1290443451708
 30
0.0
 11
134.6969064643145
 21
481.1290443451707
 31
0.0
  0
LINE
  5
52B
330
1E
100
AcDbEntity
  8
STEMPEL
100
AcDbLine
 10
125.6969064643145
 20
480.1290443451708
 30
0.0
 11
135.6969064643142
 21
480.1290443451708
 31
0.0
  0
LINE
  5
530
102
{ACAD_REACTORS
330
810
102
}
330
1E
100
AcDbEntity
  8
STEMPEL
100
AcDbLine
 10
97.56442088558628
 20
454.129044345171
 30
0.0
 11
155.5331979653297
 21
454.1290443451705
 31
0.0
  0
LINE
  5
531
330
1E
100
AcDbEntity
  8
STEMPEL
100
AcDbLine
 10
139.0565035512265
 20
450.7754909545767
 30
0.0
 11
92.76112002668719
 21
450.7754909545767
 31
0.0
  0
ARC
  5
532
330
1E
100
AcDbEntity
  8
STEMPEL
100
AcDbCircle
 10
105.4442071562496
 20
473.1290443451695
 30
0.0
 40
5.0
100
AcDbArc
 50
181.0000000000017
 51
270.0000000000017
  0
ARC
  5
533
330
1E
100
AcDbEntity
  8
STEMPEL
100
AcDbCircle
 10
105.0047636888873
 20
473.1290443451683
 30
0.0
 40
5.0
100
AcDbArc
 50
181.0000000000017
 51
270.0000000000017
  0
LINE
  5
534
330
1E
100
AcDbEntity
  8
STEMPEL
100
AcDbLine
 10
100.286349931676
 20
482.1290443451695
 30
0.0
 11
83.8469064643138
 21
482.1290443451675
 31
0.0
  0
ARC
  5
535
330
1E
100
AcDbEntity
  8
STEMPEL
100
AcDbCircle
 10
88.58584213061083
 20
467.1290443451679
 30
0.0
 40
5.0
100
AcDbArc
 50
179.0000000000047
 51
270.0000000000017
  0
LINE
  5
536
330
1E
100
AcDbEntity
  8
STEMPEL
100
AcDbLine
 10
83.8469064643138
 20
482.1290443451675
 30
0.0
 11
83.58660365482904
 21
467.2163063773541
 31
0.0
  0
LINE
  5
537
330
1E
100
AcDbEntity
  8
STEMPEL
100
AcDbLine
 10
92.76112002668719
 20
450.7754909545769
 30
0.0
 11
95.08954715143318
 21
453.1039180793231
 31
0.0
  0
ARC
  5
538
330
1E
100
AcDbEntity
  8
STEMPEL
100
AcDbCircle
 10
97.56442088558628
 20
450.6290443451702
 30
0.0
 40
5.499999999999851
100
AcDbArc
 50
90.0
 51
134.9999999999997
  0
LINE
  5
539
102
{ACAD_REACTORS
330
865
102
}
330
1E
100
AcDbEntity
  8
STEMPEL
100
AcDbLine
 10
91.34690646431414
 20
456.1290443451706
 30
0.0
 11
91.34690646431414
 21
459.1290443451706
 31
0.0
  0
LINE
  5
53A
330
1E
100
AcDbEntity
  8
STEMPEL
100
AcDbLine
 10
91.34690646431408
 20
452.1897045169501
 30
0.0
 11
92.76112002668696
 21
450.7754909545767
 31
0.0
  0
LINE
  5
53B
330
1E
100
AcDbEntity
  8
STEMPEL
100
AcDbLine
 10
91.34690646431408
 20
452.1897045169501
 30
0.0
 11
93.67533358906007
 21
454.5181316416963
 31
0.0
  0
ARC
  5
53C
330
1E
100
AcDbEntity
  8
STEMPEL
100
AcDbCircle
 10
97.56442088558628
 20
450.6290443451702
 30
0.0
 40
3.499999999999851
100
AcDbArc
 50
90.0
 51
134.9999999999997
  0
HATCH
  5
53D
330
1E
100
AcDbEntity
  8
SCHRAFF
100
AcDbHatch
 10
0.0
 20
0.0
 30
0.0
210
0.0
220
0.0
230
1.0
  2
_USER
 70
     0
 71
     0
 91
        4
 92
        7
 72
     0
 73
     1
 93
       12
 10
94.84690646431358
 20
482.1290443451689
 10
95.84690646431358
 20
482.129044345169
 10
95.84690646431392
 20
479.129044345169
 10
95.3469064643137
 20
479.129044345169
 10
95.34690646431375
 20
476.1290443451691
 10
95.84690646431397
 20
476.1290443451691
 10
95.84690646431397
 20
468.1290443451691
 10
95.34690646431398
 20
468.1290443451691
 10
95.34690646431409
 20
465.1290443451691
 10
95.84690646431409
 20
465.1290443451691
 10
95.84690646431415
 20
462.1290443451687
 10
94.84690646431415
 20
462.1290443451685
 97
        0
 92
        7
 72
     0
 73
     1
 93
        5
 10
93.84690646431357
 20
482.1290443451689
 10
94.84690646431358
 20
482.1290443451688
 10
94.84690646431415
 20
462.1290443451684
 10
94.62098622991248
 20
462.1290443451684
 10
93.84690646431408
 20
464.3926897991026
 97
        0
 92
        7
 72
     0
 73
     1
 93
        4
 10
88.84690646431357
 20
482.1290443451689
 10
89.84690646431358
 20
482.1290443451689
 10
89.84690646431415
 20
462.1290443451682
 10
88.84690646431414
 20
462.1290443451683
 97
        0
 92
        7
 72
     0
 73
     1
 93
       12
 10
87.84690646431357
 20
482.1290443451688
 10
88.8469064643138
 20
482.1290443451687
 10
88.84690646431414
 20
462.1290443451682
 10
87.84690646431414
 20
462.1290443451682
 10
87.84690646431409
 20
465.1290443451689
 10
88.34690646431409
 20
465.1290443451689
 10
88.34690646431397
 20
468.1290443451689
 10
87.84690646431398
 20
468.1290443451691
 10
87.84690646431398
 20
476.1290443451688
 10
88.34690646431374
 20
476.1290443451688
 10
88.34690646431369
 20
479.1290443451688
 10
87.8469064643137
 20
479.1290443451688
 97
        0
 75
     0
 76
     0
 52
135.0
 41
1.0
 77
     0
 78
     1
 53
45.00000000000163
 43
438.8469064643284
 44
-40.89449127340742
 45
0.7071067811865677
 46
-0.7071067811865274
 79
     0
 47
0.0527561546155446
 98
        4
 10
95.18495472525001
 20
480.5298750391176
 10
94.1291154925193
 20
480.5298750391176
 10
89.06109207227428
 20
480.7936554237401
 10
88.21642113125927
 20
480.7408985169566
  0
LINE
  5
53E
330
1E
100
AcDbEntity
  8
STEMPEL
100
AcDbLine
 10
87.84690646431398
 20
468.1290443451689
 30
0.0
 11
87.84690646431398
 21
476.1290443451688
 31
0.0
  0
LINE
  5
53F
330
1E
100
AcDbEntity
  8
STEMPEL
100
AcDbLine
 10
93.84690646431414
 20
462.1290443451688
 30
0.0
 11
93.84690646431357
 21
482.1290443451689
 31
0.0
  0
LINE
  5
540
330
1E
100
AcDbEntity
  8
STEMPEL
100
AcDbLine
 10
89.84690646431415
 20
462.1290443451687
 30
0.0
 11
89.84690646431358
 21
482.1290443451688
 31
0.0
  0
LINE
  5
541
330
1E
100
AcDbEntity
  8
HILF
100
AcDbLine
 10
88.84690646431414
 20
462.1290443451687
 30
0.0
 11
88.84690646431357
 21
482.1290443451688
 31
0.0
  0
LINE
  5
542
330
1E
100
AcDbEntity
  8
STEMPEL
100
AcDbLine
 10
87.84690646431398
 20
468.1290443451691
 30
0.0
 11
88.34690646431397
 21
468.1290443451689
 31
0.0
  0
LINE
  5
543
330
1E
100
AcDbEntity
  8
STEMPEL
100
AcDbLine
 10
87.84690646431414
 20
462.1290443451688
 30
0.0
 11
87.84690646431409
 21
465.1290443451689
 31
0.0
  0
LINE
  5
544
330
1E
100
AcDbEntity
  8
STEMPEL
100
AcDbLine
 10
87.84690646431409
 20
465.1290443451689
 30
0.0
 11
88.34690646431409
 21
465.1290443451689
 31
0.0
  0
LINE
  5
545
330
1E
100
AcDbEntity
  8
STEMPEL
100
AcDbLine
 10
88.34690646431409
 20
465.1290443451689
 30
0.0
 11
88.34690646431397
 21
468.1290443451691
 31
0.0
  0
LINE
  5
547
330
1E
100
AcDbEntity
  8
STEMPEL
100
AcDbLine
 10
87.84690646431391
 20
479.1290443451688
 30
0.0
 11
87.84690646431357
 21
482.1290443451688
 31
0.0
  0
LINE
  5
548
330
1E
100
AcDbEntity
  8
STEMPEL
100
AcDbLine
 10
87.8469064643137
 20
479.1290443451688
 30
0.0
 11
88.34690646431369
 21
479.1290443451688
 31
0.0
  0
LINE
  5
549
330
1E
100
AcDbEntity
  8
STEMPEL
100
AcDbLine
 10
87.84690646431375
 20
476.1290443451688
 30
0.0
 11
88.34690646431374
 21
476.1290443451688
 31
0.0
  0
LINE
  5
54A
330
1E
100
AcDbEntity
  8
STEMPEL
100
AcDbLine
 10
88.34690646431374
 20
476.1290443451688
 30
0.0
 11
88.34690646431369
 21
479.1290443451689
 31
0.0
  0
LINE
  5
54B
330
1E
100
AcDbEntity
  8
STEMPEL
100
AcDbLine
 10
95.84690646431397
 20
468.1290443451689
 30
0.0
 11
95.84690646431397
 21
476.1290443451691
 31
0.0
  0
LINE
  5
54C
330
1E
100
AcDbEntity
  8
HILF
100
AcDbLine
 10
94.84690646431415
 20
462.1290443451688
 30
0.0
 11
94.84690646431358
 21
482.1290443451689
 31
0.0
  0
LINE
  5
54D
330
1E
100
AcDbEntity
  8
STEMPEL
100
AcDbLine
 10
95.34690646431398
 20
468.1290443451691
 30
0.0
 11
95.84690646431397
 21
468.1290443451691
 31
0.0
  0
LINE
  5
54E
330
1E
100
AcDbEntity
  8
STEMPEL
100
AcDbLine
 10
95.84690646431415
 20
462.1290443451691
 30
0.0
 11
95.84690646431409
 21
465.1290443451691
 31
0.0
  0
LINE
  5
54F
330
1E
100
AcDbEntity
  8
STEMPEL
100
AcDbLine
 10
95.34690646431409
 20
465.1290443451691
 30
0.0
 11
95.84690646431409
 21
465.1290443451691
 31
0.0
  0
LINE
  5
550
330
1E
100
AcDbEntity
  8
STEMPEL
100
AcDbLine
 10
95.34690646431409
 20
465.129044345169
 30
0.0
 11
95.34690646431398
 21
468.1290443451691
 31
0.0
  0
LINE
  5
551
330
1E
100
AcDbEntity
  8
STEMPEL
100
AcDbLine
 10
95.84690646431392
 20
479.1290443451689
 30
0.0
 11
95.84690646431358
 21
482.129044345169
 31
0.0
  0
LINE
  5
552
330
1E
100
AcDbEntity
  8
STEMPEL
100
AcDbLine
 10
95.3469064643137
 20
479.129044345169
 30
0.0
 11
95.84690646431369
 21
479.129044345169
 31
0.0
  0
LINE
  5
553
330
1E
100
AcDbEntity
  8
STEMPEL
100
AcDbLine
 10
95.34690646431375
 20
476.1290443451691
 30
0.0
 11
95.84690646431374
 21
476.1290443451691
 31
0.0
  0
LINE
  5
554
330
1E
100
AcDbEntity
  8
STEMPEL
100
AcDbLine
 10
95.34690646431375
 20
476.1290443451691
 30
0.0
 11
95.3469064643137
 21
479.1290443451692
 31
0.0
  0
LINE
  5
555
330
1E
100
AcDbEntity
  8
STEMPEL
100
AcDbLine
 10
100.286349931676
 20
482.1290443451691
 30
0.0
 11
100.4449686804676
 21
473.0417823129831
 31
0.0
  0
LINE
  5
556
330
1E
100
AcDbEntity
  8
STEMPEL
100
AcDbLine
 10
99.84690646431381
 20
482.129044345168
 30
0.0
 11
100.0055252131053
 21
473.041782312982
 31
0.0
  0
LINE
  5
557
330
1E
100
AcDbEntity
  8
HILF
100
AcDbLine
 10
134.6969064643143
 20
462.1290443451705
 30
0.0
 11
134.6969064643143
 21
459.1290443451706
 31
0.0
  0
LINE
  5
558
330
1E
100
AcDbEntity
  8
STEMPEL
100
AcDbLine
 10
125.6969064643142
 20
462.1290443451705
 30
0.0
 11
125.6969064643142
 21
459.1290443451708
 31
0.0
  0
LINE
  5
559
330
1E
100
AcDbEntity
  8
HILF
100
AcDbLine
 10
126.6969064643142
 20
462.1290443451705
 30
0.0
 11
126.6969064643142
 21
459.1290443451707
 31
0.0
  0
LINE
  5
55A
330
1E
100
AcDbEntity
  8
STEMPEL
100
AcDbLine
 10
134.6969064643145
 20
481.1290443451707
 30
0.0
 11
126.6969064643145
 21
481.1290443451707
 31
0.0
  0
LINE
  5
55F
330
1E
100
AcDbEntity
  8
STEMPEL
100
AcDbLine
 10
126.6969064643145
 20
481.1290443451707
 30
0.0
 11
125.6969064643145
 21
480.1290443451708
 31
0.0
  0
LINE
  5
561
330
1E
100
AcDbEntity
  8
HILF
100
AcDbLine
 10
126.6969064643145
 20
481.1290443451707
 30
0.0
 11
126.6969064643145
 21
478.129044345169
 31
0.0
  0
LINE
  5
562
330
1E
100
AcDbEntity
  8
STEMPEL
100
AcDbLine
 10
125.6969064643145
 20
480.1290443451708
 30
0.0
 11
125.6969064643144
 21
478.1290443451689
 31
0.0
  0
LINE
  5
563
330
1E
100
AcDbEntity
  8
HILF
100
AcDbLine
 10
134.6969064643145
 20
481.1290443451707
 30
0.0
 11
134.6969064643145
 21
478.129044345169
 31
0.0
  0
ARC
  5
564
330
1E
100
AcDbEntity
  8
SCHRAFF
100
AcDbCircle
 10
171.8469064643146
 20
443.1290443451719
 30
0.0
 40
3.5
100
AcDbArc
 50
169.8499045790552
 51
289.6230664748541
  0
LINE
  5
565
102
{ACAD_REACTORS
330
514
102
}
330
1E
100
AcDbEntity
  8
STEMPEL
100
AcDbLine
 10
161.1900522148219
 20
453.7858985946631
 30
0.0
 11
176.9431005420287
 21
438.0328502674585
 31
0.0
  0
LINE
  5
566
330
1E
100
AcDbEntity
  8
STEMPEL
100
AcDbLine
 10
159.7758386524487
 20
452.3716850322901
 30
0.0
 11
169.9204266167373
 21
442.2270970680026
 31
0.0
  0
LINE
  5
567
330
1E
100
AcDbEntity
  8
STEMPEL
100
AcDbLine
 10
135.6969064643144
 20
462.1290443451705
 30
0.0
 11
135.6969064643143
 21
459.1290443451706
 31
0.0
  0
LINE
  5
568
102
{ACAD_REACTORS
330
865
102
}
330
1E
100
AcDbEntity
  8
STEMPEL
100
AcDbLine
 10
151.3469064643141
 20
456.1290443451706
 30
0.0
 11
151.3469064643141
 21
459.1290443451706
 31
0.0
  0
LINE
  5
56D
330
1E
100
AcDbEntity
  8
STEMPEL
100
AcDbLine
 10
135.6969064643145
 20
480.1290443451708
 30
0.0
 11
135.6969064643144
 21
478.1290443451689
 31
0.0
  0
ARC
  5
56F
330
1E
100
AcDbEntity
  8
STEMPEL
100
AcDbCircle
 10
148.3469064643141
 20
465.1290443451694
 30
0.0
 40
3.0
100
AcDbArc
 50
270.0000000000017
 51
90.00000000000161
  0
ARC
  5
571
330
1E
100
AcDbEntity
  8
STEMPEL
100
AcDbCircle
 10
155.5331979653297
 20
448.1290443451705
 30
0.0
 40
8.0
100
AcDbArc
 50
45.00000000000115
 51
90.0
  0
ARC
  5
572
330
1E
100
AcDbEntity
  8
STEMPEL
100
AcDbCircle
 10
155.5331979653297
 20
448.1290443451705
 30
0.0
 40
6.0
100
AcDbArc
 50
45.00000000000115
 51
90.0
  0
ARC
  5
573
102
{ACAD_REACTORS
330
514
102
}
330
1E
100
AcDbEntity
  8
STEMPEL
100
AcDbCircle
 10
172.3469064643165
 20
433.4366561897456
 30
0.0
 40
6.5
100
AcDbArc
 50
0.0
 51
45.00000000000143
  0
ARC
  5
574
102
{ACAD_REACTORS
330
514
102
}
330
1E
100
AcDbEntity
  8
STEMPEL
100
AcDbCircle
 10
172.3469064643163
 20
433.4366561897456
 30
0.0
 40
5.0
100
AcDbArc
 50
0.0
 51
45.00000000000143
  0
LINE
  5
575
102
{ACAD_REACTORS
330
514
102
}
330
1E
100
AcDbEntity
  8
STEMPEL
100
AcDbLine
 10
170.2739800073307
 20
442.5806504585962
 30
0.0
 11
175.8824403702489
 21
436.9721900956788
 31
0.0
  0
LINE
  5
576
102
{ACAD_REACTORS
330
514
102
}
330
1E
100
AcDbEntity
  8
STEMPEL
100
AcDbLine
 10
171.3346401791103
 20
443.6413106303757
 30
0.0
 11
169.9204266167372
 21
442.2270970680026
 31
0.0
  0
LINE
  5
577
330
1E
100
AcDbEntity
  8
STEMPEL
100
AcDbLine
 10
197.0969064643144
 20
462.1290443451705
 30
0.0
 11
197.0969064643145
 21
459.1290443451706
 31
0.0
  0
LINE
  5
578
330
1E
100
AcDbEntity
  8
HILF
100
AcDbLine
 10
198.0969064643144
 20
462.1290443451705
 30
0.0
 11
198.0969064643145
 21
459.1290443451707
 31
0.0
  0
LINE
  5
57E
330
1E
100
AcDbEntity
  8
STEMPEL
100
AcDbLine
 10
198.0969064643145
 20
481.1290443451707
 30
0.0
 11
197.0969064643145
 21
480.1290443451708
 31
0.0
  0
LINE
  5
57F
330
1E
100
AcDbEntity
  8
STEMPEL
100
AcDbLine
 10
197.0969064643145
 20
480.1290443451708
 30
0.0
 11
197.0969064643144
 21
478.129044345171
 31
0.0
  0
LINE
  5
580
330
1E
100
AcDbEntity
  8
HILF
100
AcDbLine
 10
198.0969064643145
 20
481.1290443451707
 30
0.0
 11
198.0969064643145
 21
478.129044345171
 31
0.0
  0
TEXT
  5
581
330
1E
100
AcDbEntity
  8
TEXT
 62
     1
100
AcDbText
 10
70.76266924498236
 20
540.5872722292685
 30
0.0
 40
7.0
  1
Losflansch DN70
 41
0.8
100
AcDbText
  0
LINE
  5
582
330
1E
100
AcDbEntity
  8
TEXT
 62
     2
100
AcDbLine
 10
62.78528682916203
 20
537.1034380683581
 30
0.0
 11
85.75906496637117
 21
476.4345885880395
 31
0.0
  0
LINE
  5
584
330
1E
100
AcDbEntity
  8
MITTEL
100
AcDbLine
 10
213.8469064643143
 20
473.1290443451713
 30
0.0
 11
213.8469064643143
 21
286.9201415117495
 31
0.0
  0
LINE
  5
585
102
{ACAD_REACTORS
330
514
330
810
102
}
330
1E
100
AcDbEntity
  8
STEMPEL
  6
Continuous
100
AcDbLine
 10
250.3469064643168
 20
433.4366561897459
 30
0.0
 11
250.3469064643145
 21
201.0635529308175
 31
0.0
  0
LINE
  5
586
102
{ACAD_REACTORS
330
514
102
}
330
1E
100
AcDbEntity
  8
STEMPEL
  6
Continuous
100
AcDbLine
 10
248.8469064643169
 20
433.4366561897456
 30
0.0
 11
248.8469064643145
 21
201.1290443451769
 31
0.0
  0
LINE
  5
587
330
1E
100
AcDbEntity
  8
TEXT
 62
     2
100
AcDbLine
 10
383.2749436304521
 20
215.9744056489335
 30
0.0
 11
277.336379055319
 21
215.9744056489335
 31
0.0
  0
TEXT
  5
588
330
1E
100
AcDbEntity
  8
TEXT
 62
     1
100
AcDbText
 10
277.9317349340733
 20
219.4582398098439
 30
0.0
 40
7.0
  1
Ablaufkörper DN70
 41
0.8
100
AcDbText
  0
TEXT
  5
589
330
1E
100
AcDbEntity
  8
TEXT
 62
     1
100
AcDbText
 10
277.9317349340733
 20
206.6819088411344
 30
0.0
 40
7.0
  1
EDV-Art.Nr. 21981.070X
 41
0.8
100
AcDbText
  0
LINE
  5
58A
330
1E
100
AcDbEntity
  8
TEXT
 62
     2
100
AcDbLine
 10
277.336379055319
 20
215.9744056489335
 30
0.0
 11
249.582334515816
 21
228.6174468649324
 31
0.0
  0
LINE
  5
58B
102
{ACAD_REACTORS
330
514
102
}
330
1E
100
AcDbEntity
  8
STEMPEL
100
AcDbLine
 10
250.3469064643145
 20
201.0635529308175
 30
0.0
 11
249.9151929029992
 21
196.1290443451708
 31
0.0
  0
LINE
  5
58C
102
{ACAD_REACTORS
330
514
102
}
330
1E
100
AcDbEntity
  8
STEMPEL
100
AcDbLine
 10
248.8469064643145
 20
201.1290443451769
 30
0.0
 11
248.4094631466842
 21
196.1290443451708
 31
0.0
  0
LINE
  5
58D
330
1E
100
AcDbEntity
  8
STEMPEL
100
AcDbLine
 10
308.8469064643143
 20
462.1290443451705
 30
0.0
 11
325.8469064643135
 21
462.1290443451705
 31
0.0
  0
TEXT
  5
58E
330
1E
100
AcDbEntity
  8
TEXT
 62
     1
100
AcDbText
 10
302.0246928643558
 20
407.229577594951
 30
0.0
 40
7.0
  1
EDV-Art.Nr. 21920.070X
 41
0.8
100
AcDbText
  0
LINE
  5
58F
330
1E
100
AcDbEntity
  8
TEXT
 62
     2
100
AcDbLine
 10
405.2824041856792
 20
416.5220744027501
 30
0.0
 11
299.3438396105462
 21
416.5220744027501
 31
0.0
  0
LINE
  5
591
102
{ACAD_REACTORS
330
865
102
}
330
1E
100
AcDbEntity
  8
STEMPEL
100
AcDbLine
 10
308.8469064643144
 20
459.1290443451706
 30
0.0
 11
336.3469064643143
 21
459.1290443451706
 31
0.0
  0
TEXT
  5
592
330
1E
100
AcDbEntity
  8
TEXT
 62
     1
100
AcDbText
 10
302.0246928643558
 20
420.0059085636605
 30
0.0
 40
7.0
  1
Kompressionsdichtung
 41
0.8
100
AcDbText
  0
ARC
  5
593
330
1E
100
AcDbEntity
  8
STEMPEL
100
AcDbCircle
 10
330.1293920430424
 20
450.6290443451702
 30
0.0
 40
3.499999999999851
100
AcDbArc
 50
45.00000000000029
 51
90.0
  0
ARC
  5
594
330
1E
100
AcDbEntity
  8
STEMPEL
100
AcDbCircle
 10
330.1293920430424
 20
450.6290443451702
 30
0.0
 40
5.499999999999851
100
AcDbArc
 50
45.00000000000029
 51
90.0
  0
LINE
  5
595
330
1E
100
AcDbEntity
  8
STEMPEL
100
AcDbLine
 10
288.6373093774024
 20
450.7754909545767
 30
0.0
 11
334.9326929019414
 21
450.7754909545767
 31
0.0
  0
LINE
  5
596
330
1E
100
AcDbEntity
  8
MITTEL
100
AcDbLine
 10
310.6360139798438
 20
487.1290443451743
 30
0.0
 11
310.6360139798442
 21
473.3121337844218
 31
0.0
  0
LINE
  5
597
330
1E
100
AcDbEntity
  8
MITTEL
100
AcDbLine
 10
202.0969064643142
 20
486.1290443451707
 30
0.0
 11
202.0969064643142
 21
451.1290443451703
 31
0.0
  0
LINE
  5
598
330
1E
100
AcDbEntity
  8
MITTEL
100
AcDbLine
 10
258.8469064643145
 20
486.1290443451707
 30
0.0
 11
258.8469064643145
 21
451.1290443451703
 31
0.0
  0
LINE
  5
599
330
1E
100
AcDbEntity
  8
MITTEL
100
AcDbLine
 10
303.8469064643143
 20
486.1290443451705
 30
0.0
 11
303.8469064643146
 21
451.1290443451703
 31
0.0
  0
LINE
  5
59D
330
1E
100
AcDbEntity
  8
STEMPEL
100
AcDbLine
 10
267.9179742761801
 20
452.3716850322901
 30
0.0
 11
257.7611200266873
 21
442.2148307827986
 31
0.0
  0
ARC
  5
59E
330
1E
100
AcDbEntity
  8
STEMPEL
100
AcDbCircle
 10
272.1606149632989
 20
448.1290443451705
 30
0.0
 40
8.0
100
AcDbArc
 50
90.0
 51
134.9999999999988
  0
LINE
  5
59F
330
1E
100
AcDbEntity
  8
HILF
100
AcDbLine
 10
206.0969064643145
 20
462.1290443451705
 30
0.0
 11
206.0969064643145
 21
459.1290443451707
 31
0.0
  0
LINE
  5
5A0
330
1E
100
AcDbEntity
  8
STEMPEL
100
AcDbLine
 10
207.0969064643145
 20
462.1290443451705
 30
0.0
 11
207.0969064643145
 21
459.1290443451706
 31
0.0
  0
LINE
  5
5A4
330
1E
100
AcDbEntity
  8
STEMPEL
100
AcDbLine
 10
207.0969064643145
 20
480.1290443451708
 30
0.0
 11
206.0969064643145
 21
481.1290443451707
 31
0.0
  0
LINE
  5
5A5
330
1E
100
AcDbEntity
  8
HILF
100
AcDbLine
 10
206.0969064643145
 20
481.1290443451707
 30
0.0
 11
206.0969064643145
 21
478.129044345171
 31
0.0
  0
LINE
  5
5A6
330
1E
100
AcDbEntity
  8
STEMPEL
100
AcDbLine
 10
207.0969064643145
 20
480.1290443451708
 30
0.0
 11
207.0969064643145
 21
478.129044345171
 31
0.0
  0
ARC
  5
5A9
102
{ACAD_REACTORS
330
514
102
}
330
1E
100
AcDbEntity
  8
STEMPEL
100
AcDbCircle
 10
255.3469064643123
 20
433.4366561897456
 30
0.0
 40
6.5
100
AcDbArc
 50
134.9999999999985
 51
180.0
  0
ARC
  5
5AA
102
{ACAD_REACTORS
330
514
102
}
330
1E
100
AcDbEntity
  8
STEMPEL
100
AcDbCircle
 10
255.3469064643123
 20
433.4366561897456
 30
0.0
 40
5.0
100
AcDbArc
 50
134.9999999999985
 51
180.0
  0
LINE
  5
5AF
330
1E
100
AcDbEntity
  8
STEMPEL
100
AcDbLine
 10
253.8469064643146
 20
462.1290443451705
 30
0.0
 11
253.8469064643146
 21
459.1290443451708
 31
0.0
  0
LINE
  5
5B0
330
1E
100
AcDbEntity
  8
HILF
100
AcDbLine
 10
254.8469064643145
 20
462.1290443451705
 30
0.0
 11
254.8469064643145
 21
459.1290443451707
 31
0.0
  0
LINE
  5
5B1
330
1E
100
AcDbEntity
  8
HILF
100
AcDbLine
 10
262.8469064643145
 20
462.1290443451705
 30
0.0
 11
262.8469064643145
 21
459.1290443451707
 31
0.0
  0
LINE
  5
5B2
330
1E
100
AcDbEntity
  8
STEMPEL
100
AcDbLine
 10
263.8469064643146
 20
462.1290443451705
 30
0.0
 11
263.8469064643146
 21
459.1290443451707
 31
0.0
  0
ARC
  5
5B3
330
1E
100
AcDbEntity
  8
SCHRAFF
100
AcDbCircle
 10
255.8469064643144
 20
443.1290443451719
 30
0.0
 40
3.5
100
AcDbArc
 50
250.3769335251431
 51
10.15009542095131
  0
LINE
  5
5B4
102
{ACAD_REACTORS
330
514
102
}
330
1E
100
AcDbEntity
  8
STEMPEL
100
AcDbLine
 10
266.5037607138069
 20
453.7858985946631
 30
0.0
 11
250.7507123866002
 21
438.0328502674583
 31
0.0
  0
LINE
  5
5B5
102
{ACAD_REACTORS
330
514
102
}
330
1E
100
AcDbEntity
  8
STEMPEL
100
AcDbLine
 10
257.4075666360938
 20
442.5683841733921
 30
0.0
 11
251.8113725583798
 21
436.9721900956788
 31
0.0
  0
LINE
  5
5B6
102
{ACAD_REACTORS
330
514
102
}
330
1E
100
AcDbEntity
  8
STEMPEL
100
AcDbLine
 10
256.3469064643143
 20
443.6290443451719
 30
0.0
 11
257.7611200266874
 21
442.2148307827986
 31
0.0
  0
LINE
  5
5BA
330
1E
100
AcDbEntity
  8
STEMPEL
100
AcDbLine
 10
262.8469064643145
 20
481.1290443451707
 30
0.0
 11
254.8469064643145
 21
481.1290443451707
 31
0.0
  0
LINE
  5
5BB
330
1E
100
AcDbEntity
  8
STEMPEL
100
AcDbLine
 10
253.8469064643146
 20
480.1290443451708
 30
0.0
 11
263.8469064643143
 21
480.1290443451708
 31
0.0
  0
LINE
  5
5BC
330
1E
100
AcDbEntity
  8
STEMPEL
100
AcDbLine
 10
254.8469064643145
 20
481.1290443451707
 30
0.0
 11
253.8469064643146
 21
480.1290443451708
 31
0.0
  0
LINE
  5
5BE
330
1E
100
AcDbEntity
  8
STEMPEL
100
AcDbLine
 10
253.8469064643146
 20
480.1290443451708
 30
0.0
 11
253.8469064643146
 21
478.1290443451726
 31
0.0
  0
LINE
  5
5BF
330
1E
100
AcDbEntity
  8
HILF
100
AcDbLine
 10
254.8469064643145
 20
481.1290443451707
 30
0.0
 11
254.8469064643145
 21
478.1290443451726
 31
0.0
  0
LINE
  5
5C1
330
1E
100
AcDbEntity
  8
STEMPEL
100
AcDbLine
 10
263.8469064643146
 20
480.1290443451708
 30
0.0
 11
262.8469064643145
 21
481.1290443451707
 31
0.0
  0
LINE
  5
5C2
330
1E
100
AcDbEntity
  8
STEMPEL
100
AcDbLine
 10
263.8469064643146
 20
480.1290443451705
 30
0.0
 11
263.8469064643146
 21
478.1290443451725
 31
0.0
  0
LINE
  5
5C3
330
1E
100
AcDbEntity
  8
HILF
100
AcDbLine
 10
262.8469064643145
 20
481.1290443451707
 30
0.0
 11
262.8469064643145
 21
478.1290443451726
 31
0.0
  0
LINE
  5
5C8
330
1E
100
AcDbEntity
  8
STEMPEL
100
AcDbLine
 10
299.8469064643143
 20
481.1290443451712
 30
0.0
 11
298.8469064643143
 21
480.1290443451712
 31
0.0
  0
LINE
  5
5C9
330
1E
100
AcDbEntity
  8
STEMPEL
100
AcDbLine
 10
298.8469064643143
 20
480.1290443451712
 30
0.0
 11
308.8469064643143
 21
480.1290443451712
 31
0.0
  0
LINE
  5
5CA
102
{ACAD_REACTORS
330
810
102
}
330
1E
100
AcDbEntity
  8
STEMPEL
100
AcDbLine
 10
330.1293920430424
 20
454.129044345171
 30
0.0
 11
272.1606149632989
 21
454.1290443451705
 31
0.0
  0
LINE
  5
5CB
330
1E
100
AcDbEntity
  8
TEXT
 62
     2
100
AcDbLine
 10
299.3438396105462
 20
416.5220744027501
 30
0.0
 11
278.2335548820656
 21
457.2057789768332
 31
0.0
  0
ARC
  5
5CD
330
1E
100
AcDbEntity
  8
STEMPEL
100
AcDbCircle
 10
272.1606149632989
 20
448.1290443451705
 30
0.0
 40
6.0
100
AcDbArc
 50
90.0
 51
134.9999999999988
  0
LINE
  5
5CE
102
{ACAD_REACTORS
330
865
102
}
330
1E
100
AcDbEntity
  8
STEMPEL
100
AcDbLine
 10
276.3469064643143
 20
456.1290443451706
 30
0.0
 11
276.3469064643143
 21
459.1290443451706
 31
0.0
  0
ARC
  5
5D1
330
1E
100
AcDbEntity
  8
STEMPEL
100
AcDbCircle
 10
279.3469064643141
 20
465.1290443451734
 30
0.0
 40
3.0
100
AcDbArc
 50
90.00000000000161
 51
270.0000000000017
  0
LINE
  5
5D3
330
1E
100
AcDbEntity
  8
STEMPEL
100
AcDbLine
 10
298.8469064643143
 20
468.1290443451736
 30
0.0
 11
298.8469064643143
 21
456.1290443451712
 31
0.0
  0
LINE
  5
5D4
102
{ACAD_REACTORS
330
865
102
}
330
1E
100
AcDbEntity
  8
STEMPEL
100
AcDbLine
 10
297.3469064643142
 20
456.1290443451705
 30
0.0
 11
297.3469064643142
 21
459.1290443451705
 31
0.0
  0
LINE
  5
5D7
330
1E
100
AcDbEntity
  8
STEMPEL
100
AcDbLine
 10
297.3469064643144
 20
468.129044345174
 30
0.0
 11
297.3469064643147
 21
462.1290443451722
 31
0.0
  0
LINE
  5
5DC
330
1E
100
AcDbEntity
  8
STEMPEL
100
AcDbLine
 10
298.8469064643143
 20
480.1290443451712
 30
0.0
 11
298.8469064643143
 21
478.1290443451737
 31
0.0
  0
LINE
  5
5DD
330
1E
100
AcDbEntity
  8
STEMPEL
100
AcDbLine
 10
321.6574599201813
 20
482.1290443451755
 30
0.0
 11
299.4267159882745
 21
482.1290443451732
 31
0.0
  0
LINE
  5
5DE
330
1E
100
AcDbEntity
  8
STEMPEL
100
AcDbLine
 10
308.8469064643143
 20
468.1290443451739
 30
0.0
 11
308.8469064643143
 21
456.1290443451712
 31
0.0
  0
LINE
  5
5DF
330
1E
100
AcDbEntity
  8
HILF
100
AcDbLine
 10
307.8469064643143
 20
468.1290443451739
 30
0.0
 11
307.8469064643143
 21
456.1290443451712
 31
0.0
  0
LINE
  5
5E0
330
1E
100
AcDbEntity
  8
HILF
100
AcDbLine
 10
299.8469064643144
 20
468.1290443451736
 30
0.0
 11
299.8469064643143
 21
456.1290443451712
 31
0.0
  0
LINE
  5
5E1
102
{ACAD_REACTORS
330
865
102
}
330
1E
100
AcDbEntity
  8
STEMPEL
100
AcDbLine
 10
310.3469064643143
 20
456.1290443451705
 30
0.0
 11
310.3469064643143
 21
459.1290443451705
 31
0.0
  0
LINE
  5
5E2
330
1E
100
AcDbEntity
  8
STEMPEL
100
AcDbLine
 10
307.8469064643143
 20
481.1290443451712
 30
0.0
 11
299.8469064643143
 21
481.1290443451712
 31
0.0
  0
LINE
  5
5E3
330
1E
100
AcDbEntity
  8
STEMPEL
100
AcDbLine
 10
299.4267159882745
 20
482.1290443451732
 30
0.0
 11
299.4014860816465
 21
480.6836239625035
 31
0.0
  0
LINE
  5
5E4
330
1E
100
AcDbEntity
  8
HILF
100
AcDbLine
 10
299.8469064643143
 20
481.1290443451712
 30
0.0
 11
299.8469064643143
 21
478.1290443451738
 31
0.0
  0
LINE
  5
5E6
330
1E
100
AcDbEntity
  8
STEMPEL
100
AcDbLine
 10
310.3469064643142
 20
468.1290443451744
 30
0.0
 11
310.3469064643146
 21
462.1290443451724
 31
0.0
  0
LINE
  5
5EB
330
1E
100
AcDbEntity
  8
STEMPEL
100
AcDbLine
 10
308.8132946637277
 20
482.1290443451744
 30
0.0
 11
308.8132946637277
 21
480.1626561457577
 31
0.0
  0
LINE
  5
5EC
330
1E
100
AcDbEntity
  8
STEMPEL
100
AcDbLine
 10
308.8469064643143
 20
480.1290443451712
 30
0.0
 11
307.8469064643143
 21
481.1290443451712
 31
0.0
  0
LINE
  5
5ED
330
1E
100
AcDbEntity
  8
STEMPEL
100
AcDbLine
 10
308.8469064643143
 20
480.1290443451712
 30
0.0
 11
308.8469064643144
 21
478.1290443451738
 31
0.0
  0
LINE
  5
5EE
330
1E
100
AcDbEntity
  8
HILF
100
AcDbLine
 10
307.8469064643143
 20
481.1290443451712
 30
0.0
 11
307.8469064643143
 21
478.1290443451738
 31
0.0
  0
LWPOLYLINE
  5
5F0
330
1E
100
AcDbEntity
  8
STEMPEL
100
AcDbPolyline
 90
       10
 70
   128
 43
0.0
 10
323.4506487876423
 20
468.1290443451744
 10
323.1668086652665
 20
468.2036798737676
 10
322.8915928813791
 20
468.4253186967787
 10
322.6333637283075
 20
468.787226430725
 10
322.3999673681977
 20
469.2784066922447
 10
322.1984954313472
 20
469.8839352176407
 10
322.0350695406076
 20
470.5854133290812
 10
321.9146553089714
 20
471.3615269691151
 10
321.8409114619344
 20
472.1886943175221
 10
321.8160786689728
 20
473.0417823129881
  0
LINE
  5
5F1
330
1E
100
AcDbEntity
  8
STEMPEL
100
AcDbLine
 10
321.6574599201813
 20
482.1290443451755
 30
0.0
 11
321.8160786689728
 21
473.0417823129895
 31
0.0
  0
ARC
  5
5F2
330
1E
100
AcDbEntity
  8
STEMPEL
100
AcDbCircle
 10
325.8469064643135
 20
465.1290443451737
 30
0.0
 40
3.000000000000682
100
AcDbArc
 50
270.0000000000147
 51
89.99999999998861
  0
LINE
  5
5F3
330
1E
100
AcDbEntity
  8
STEMPEL
100
AcDbLine
 10
336.3469064643145
 20
452.1897045169501
 30
0.0
 11
334.9326929019416
 21
450.7754909545767
 31
0.0
  0
LINE
  5
5F4
330
1E
100
AcDbEntity
  8
STEMPEL
100
AcDbLine
 10
336.3469064643145
 20
452.1897045169501
 30
0.0
 11
334.0184793395686
 21
454.5181316416963
 31
0.0
  0
LINE
  5
5F5
330
1E
100
AcDbEntity
  8
STEMPEL
100
AcDbLine
 10
334.9326929019414
 20
450.7754909545769
 30
0.0
 11
332.6042657771954
 21
453.1039180793231
 31
0.0
  0
LINE
  5
5F6
102
{ACAD_REACTORS
330
865
102
}
330
1E
100
AcDbEntity
  8
STEMPEL
100
AcDbLine
 10
336.3469064643143
 20
456.1290443451706
 30
0.0
 11
336.3469064643143
 21
459.1290443451706
 31
0.0
  0
ARC
  5
678
330
1E
100
AcDbEntity
  8
STEMPEL
100
AcDbCircle
 10
130.6969064643142
 20
447.8181552127142
 30
0.0
 40
30.31088913245485
100
AcDbArc
 50
81.78678929826221
 51
98.2132107017378
  0
ARC
  5
679
330
1E
100
AcDbEntity
  8
STEMPEL
100
AcDbCircle
 10
124.2017159359309
 20
470.4347386373846
 30
0.0
 40
7.694305707784447
100
AcDbArc
 50
73.65710669401501
 51
106.342893305985
  0
ARC
  5
67A
330
1E
100
AcDbEntity
  8
STEMPEL
100
AcDbCircle
 10
137.1920969926975
 20
470.4347386373846
 30
0.0
 40
7.694305707784447
100
AcDbArc
 50
73.65710669401501
 51
106.342893305985
  0
ARC
  5
67B
330
1E
100
AcDbEntity
  8
HILF
100
AcDbCircle
 10
130.6969064643142
 20
448.2305832975078
 30
0.0
 40
22.41111549782308
100
AcDbArc
 50
78.85962783890615
 51
101.1403721610938
  0
ARC
  5
67C
330
1E
100
AcDbEntity
  8
HILF
100
AcDbCircle
 10
137.1920969926975
 20
464.8805581956394
 30
0.0
 40
5.761140599691502
100
AcDbArc
 50
67.92594526326206
 51
112.0740547367379
  0
ARC
  5
67D
330
1E
100
AcDbEntity
  8
HILF
100
AcDbCircle
 10
124.2017159359309
 20
464.8805581956394
 30
0.0
 40
5.761140599691502
100
AcDbArc
 50
67.92594526326206
 51
112.0740547367379
  0
POINT
  5
67E
330
1E
100
AcDbEntity
  8
0
100
AcDbPoint
 10
130.6969064643142
 20
468.1290443451691
 30
0.0
210
0.0000000000000001
220
1.0
230
0.0
  0
LINE
  5
67F
330
1E
100
AcDbEntity
  8
STEMPEL
100
AcDbLine
 10
123.1969064643143
 20
478.129044345169
 30
0.0
 11
138.1969064643142
 21
478.129044345169
 31
0.0
  0
LINE
  5
680
330
1E
100
AcDbEntity
  8
STEMPEL
100
AcDbLine
 10
139.3571605021586
 20
470.2194008613688
 30
0.0
 11
139.3571605021586
 21
477.8181552127136
 31
0.0
  0
LINE
  5
681
330
1E
100
AcDbEntity
  8
STEMPEL
100
AcDbLine
 10
135.0270334832364
 20
470.2194008613688
 30
0.0
 11
135.0270334832364
 21
477.8181552127136
 31
0.0
  0
LINE
  5
682
330
1E
100
AcDbEntity
  8
STEMPEL
100
AcDbLine
 10
126.366779445392
 20
470.2194008613688
 30
0.0
 11
126.366779445392
 21
477.8181552127136
 31
0.0
  0
LINE
  5
683
330
1E
100
AcDbEntity
  8
STEMPEL
100
AcDbLine
 10
141.1034215718085
 20
469.5838138107585
 30
0.0
 11
120.29039135682
 21
469.5838138107585
 31
0.0
  0
LINE
  5
684
330
1E
100
AcDbEntity
  8
STEMPEL
100
AcDbLine
 10
140.8469064643142
 20
468.1290443451691
 30
0.0
 11
120.5469064643142
 21
468.1290443451691
 31
0.0
  0
LINE
  5
685
330
1E
100
AcDbEntity
  8
STEMPEL
100
AcDbLine
 10
122.0366524264698
 20
470.2194008613688
 30
0.0
 11
122.0366524264698
 21
477.8181552127136
 31
0.0
  0
LINE
  5
686
330
1E
100
AcDbEntity
  8
STEMPEL
100
AcDbLine
 10
123.1969064643143
 20
478.129044345169
 30
0.0
 11
122.0366524264698
 21
477.8181552127136
 31
0.0
  0
LINE
  5
687
330
1E
100
AcDbEntity
  8
STEMPEL
100
AcDbLine
 10
139.3571605021586
 20
477.8181552127136
 30
0.0
 11
138.1969064643142
 21
478.129044345169
 31
0.0
  0
LINE
  5
688
330
1E
100
AcDbEntity
  8
STEMPEL
100
AcDbLine
 10
141.1034215718085
 20
469.5838138107585
 30
0.0
 11
139.3571605021586
 21
470.2194008613688
 31
0.0
  0
LINE
  5
689
330
1E
100
AcDbEntity
  8
STEMPEL
100
AcDbLine
 10
122.0366524264698
 20
470.2194008613688
 30
0.0
 11
120.29039135682
 21
469.5838138107585
 31
0.0
  0
ARC
  5
68A
330
1E
100
AcDbEntity
  8
STEMPEL
100
AcDbCircle
 10
120.5469064643142
 20
468.879044345169
 30
0.0
 40
0.7500000000000013
100
AcDbArc
 50
109.9999999999995
 51
269.9999991462263
  0
ARC
  5
68B
330
1E
100
AcDbEntity
  8
STEMPEL
100
AcDbCircle
 10
140.8469064643142
 20
468.879044345169
 30
0.0
 40
0.750000000000001
100
AcDbArc
 50
269.9999991462263
 51
70.00000000000047
  0
ARC
  5
6A5
330
1E
100
AcDbEntity
  8
STEMPEL
100
AcDbCircle
 10
202.0969064643142
 20
447.8181552127161
 30
0.0
 40
30.31088913245485
100
AcDbArc
 50
81.78678929826221
 51
98.2132107017378
  0
ARC
  5
6A6
330
1E
100
AcDbEntity
  8
STEMPEL
100
AcDbCircle
 10
195.6017159359309
 20
470.4347386373866
 30
0.0
 40
7.694305707784447
100
AcDbArc
 50
73.65710669401501
 51
106.342893305985
  0
ARC
  5
6A7
330
1E
100
AcDbEntity
  8
STEMPEL
100
AcDbCircle
 10
208.5920969926975
 20
470.4347386373866
 30
0.0
 40
7.694305707784447
100
AcDbArc
 50
73.65710669401501
 51
106.342893305985
  0
ARC
  5
6A8
330
1E
100
AcDbEntity
  8
HILF
100
AcDbCircle
 10
202.0969064643142
 20
448.2305832975098
 30
0.0
 40
22.41111549782308
100
AcDbArc
 50
78.85962783890615
 51
101.1403721610938
  0
ARC
  5
6A9
330
1E
100
AcDbEntity
  8
HILF
100
AcDbCircle
 10
208.5920969926975
 20
464.8805581956414
 30
0.0
 40
5.761140599691502
100
AcDbArc
 50
67.92594526326206
 51
112.0740547367379
  0
ARC
  5
6AA
330
1E
100
AcDbEntity
  8
HILF
100
AcDbCircle
 10
195.6017159359309
 20
464.8805581956414
 30
0.0
 40
5.761140599691502
100
AcDbArc
 50
67.92594526326206
 51
112.0740547367379
  0
POINT
  5
6AB
330
1E
100
AcDbEntity
  8
0
100
AcDbPoint
 10
202.0969064643142
 20
468.129044345171
 30
0.0
210
0.0000000000000001
220
1.0
230
0.0
  0
LINE
  5
6AC
330
1E
100
AcDbEntity
  8
STEMPEL
100
AcDbLine
 10
194.5969064643143
 20
478.129044345171
 30
0.0
 11
209.5969064643142
 21
478.129044345171
 31
0.0
  0
LINE
  5
6AD
330
1E
100
AcDbEntity
  8
STEMPEL
100
AcDbLine
 10
210.7571605021587
 20
470.2194008613709
 30
0.0
 11
210.7571605021587
 21
477.8181552127157
 31
0.0
  0
LINE
  5
6AE
330
1E
100
AcDbEntity
  8
STEMPEL
100
AcDbLine
 10
206.4270334832364
 20
470.2194008613709
 30
0.0
 11
206.4270334832364
 21
477.8181552127157
 31
0.0
  0
LINE
  5
6AF
330
1E
100
AcDbEntity
  8
STEMPEL
100
AcDbLine
 10
197.766779445392
 20
470.2194008613709
 30
0.0
 11
197.766779445392
 21
477.8181552127157
 31
0.0
  0
LINE
  5
6B0
330
1E
100
AcDbEntity
  8
STEMPEL
100
AcDbLine
 10
212.5034215718085
 20
469.5838138107604
 30
0.0
 11
191.69039135682
 21
469.5838138107604
 31
0.0
  0
LINE
  5
6B1
330
1E
100
AcDbEntity
  8
STEMPEL
100
AcDbLine
 10
212.2469064643142
 20
468.129044345171
 30
0.0
 11
191.9469064643142
 21
468.129044345171
 31
0.0
  0
LINE
  5
6B2
330
1E
100
AcDbEntity
  8
STEMPEL
100
AcDbLine
 10
193.4366524264698
 20
470.2194008613709
 30
0.0
 11
193.4366524264698
 21
477.8181552127157
 31
0.0
  0
LINE
  5
6B3
330
1E
100
AcDbEntity
  8
STEMPEL
100
AcDbLine
 10
194.5969064643143
 20
478.129044345171
 30
0.0
 11
193.4366524264698
 21
477.8181552127157
 31
0.0
  0
LINE
  5
6B4
330
1E
100
AcDbEntity
  8
STEMPEL
100
AcDbLine
 10
210.7571605021587
 20
477.8181552127157
 30
0.0
 11
209.5969064643142
 21
478.129044345171
 31
0.0
  0
LINE
  5
6B5
330
1E
100
AcDbEntity
  8
STEMPEL
100
AcDbLine
 10
212.5034215718085
 20
469.5838138107604
 30
0.0
 11
210.7571605021586
 21
470.2194008613709
 31
0.0
  0
LINE
  5
6B6
330
1E
100
AcDbEntity
  8
STEMPEL
100
AcDbLine
 10
193.4366524264699
 20
470.2194008613709
 30
0.0
 11
191.69039135682
 21
469.5838138107604
 31
0.0
  0
ARC
  5
6B7
330
1E
100
AcDbEntity
  8
STEMPEL
100
AcDbCircle
 10
191.9469064643142
 20
468.879044345171
 30
0.0
 40
0.7500000000000013
100
AcDbArc
 50
109.9999999999995
 51
269.9999991462263
  0
ARC
  5
6B8
330
1E
100
AcDbEntity
  8
STEMPEL
100
AcDbCircle
 10
212.2469064643142
 20
468.879044345171
 30
0.0
 40
0.750000000000001
100
AcDbArc
 50
269.9999991462263
 51
70.00000000000047
  0
ARC
  5
6D2
330
1E
100
AcDbEntity
  8
STEMPEL
100
AcDbCircle
 10
258.8469064643145
 20
447.8181552127177
 30
0.0
 40
30.31088913245485
100
AcDbArc
 50
81.78678929826059
 51
98.2132107017394
  0
ARC
  5
6D3
330
1E
100
AcDbEntity
  8
STEMPEL
100
AcDbCircle
 10
252.3517159359313
 20
470.4347386373881
 30
0.0
 40
7.694305707784447
100
AcDbArc
 50
73.65710669401345
 51
106.3428933059834
  0
ARC
  5
6D4
330
1E
100
AcDbEntity
  8
STEMPEL
100
AcDbCircle
 10
265.3420969926978
 20
470.4347386373881
 30
0.0
 40
7.694305707784447
100
AcDbArc
 50
73.65710669401345
 51
106.3428933059834
  0
ARC
  5
6D5
330
1E
100
AcDbEntity
  8
HILF
100
AcDbCircle
 10
258.8469064643145
 20
448.2305832975113
 30
0.0
 40
22.41111549782308
100
AcDbArc
 50
78.85962783890455
 51
101.1403721610954
  0
ARC
  5
6D6
330
1E
100
AcDbEntity
  8
HILF
100
AcDbCircle
 10
265.3420969926979
 20
464.880558195643
 30
0.0
 40
5.761140599691502
100
AcDbArc
 50
67.92594526326054
 51
112.0740547367394
  0
ARC
  5
6D7
330
1E
100
AcDbEntity
  8
HILF
100
AcDbCircle
 10
252.3517159359312
 20
464.880558195643
 30
0.0
 40
5.761140599691502
100
AcDbArc
 50
67.92594526326054
 51
112.0740547367394
  0
POINT
  5
6D8
330
1E
100
AcDbEntity
  8
0
100
AcDbPoint
 10
258.8469064643145
 20
468.1290443451725
 30
0.0
210
0.0000000000000001
220
1.0
230
0.0
  0
LINE
  5
6D9
330
1E
100
AcDbEntity
  8
STEMPEL
100
AcDbLine
 10
251.3469064643146
 20
478.1290443451726
 30
0.0
 11
266.3469064643146
 21
478.1290443451726
 31
0.0
  0
LINE
  5
6DA
330
1E
100
AcDbEntity
  8
STEMPEL
100
AcDbLine
 10
267.5071605021589
 20
470.2194008613724
 30
0.0
 11
267.5071605021589
 21
477.8181552127172
 31
0.0
  0
LINE
  5
6DB
330
1E
100
AcDbEntity
  8
STEMPEL
100
AcDbLine
 10
263.1770334832367
 20
470.2194008613724
 30
0.0
 11
263.1770334832367
 21
477.8181552127172
 31
0.0
  0
LINE
  5
6DC
330
1E
100
AcDbEntity
  8
STEMPEL
100
AcDbLine
 10
254.5167794453923
 20
470.2194008613724
 30
0.0
 11
254.5167794453923
 21
477.8181552127172
 31
0.0
  0
LINE
  5
6DD
330
1E
100
AcDbEntity
  8
STEMPEL
100
AcDbLine
 10
269.2534215718088
 20
469.583813810762
 30
0.0
 11
248.4403913568203
 21
469.583813810762
 31
0.0
  0
LINE
  5
6DE
330
1E
100
AcDbEntity
  8
STEMPEL
100
AcDbLine
 10
268.9969064643145
 20
468.1290443451725
 30
0.0
 11
248.6969064643146
 21
468.1290443451725
 31
0.0
  0
LINE
  5
6DF
330
1E
100
AcDbEntity
  8
STEMPEL
100
AcDbLine
 10
250.1866524264702
 20
470.2194008613724
 30
0.0
 11
250.1866524264702
 21
477.8181552127172
 31
0.0
  0
LINE
  5
6E0
330
1E
100
AcDbEntity
  8
STEMPEL
100
AcDbLine
 10
251.3469064643146
 20
478.1290443451726
 30
0.0
 11
250.1866524264702
 21
477.8181552127172
 31
0.0
  0
LINE
  5
6E1
330
1E
100
AcDbEntity
  8
STEMPEL
100
AcDbLine
 10
267.5071605021589
 20
477.8181552127172
 30
0.0
 11
266.3469064643146
 21
478.1290443451726
 31
0.0
  0
LINE
  5
6E2
330
1E
100
AcDbEntity
  8
STEMPEL
100
AcDbLine
 10
269.2534215718088
 20
469.583813810762
 30
0.0
 11
267.5071605021589
 21
470.2194008613724
 31
0.0
  0
LINE
  5
6E3
330
1E
100
AcDbEntity
  8
STEMPEL
100
AcDbLine
 10
250.1866524264702
 20
470.2194008613724
 30
0.0
 11
248.4403913568203
 21
469.583813810762
 31
0.0
  0
ARC
  5
6E4
330
1E
100
AcDbEntity
  8
STEMPEL
100
AcDbCircle
 10
248.6969064643146
 20
468.8790443451726
 30
0.0
 40
0.7500000000000013
100
AcDbArc
 50
109.9999999999995
 51
269.9999991462263
  0
ARC
  5
6E5
330
1E
100
AcDbEntity
  8
STEMPEL
100
AcDbCircle
 10
268.9969064643145
 20
468.8790443451726
 30
0.0
 40
0.750000000000001
100
AcDbArc
 50
269.9999991462263
 51
70.00000000000047
  0
ARC
  5
6FF
330
1E
100
AcDbEntity
  8
STEMPEL
100
AcDbCircle
 10
303.8469064643144
 20
447.8181552127189
 30
0.0
 40
30.31088913245485
100
AcDbArc
 50
81.78678929826059
 51
98.2132107017394
  0
ARC
  5
700
330
1E
100
AcDbEntity
  8
STEMPEL
100
AcDbCircle
 10
297.3517159359312
 20
470.4347386373893
 30
0.0
 40
7.694305707784447
100
AcDbArc
 50
73.65710669401345
 51
106.3428933059834
  0
ARC
  5
701
330
1E
100
AcDbEntity
  8
STEMPEL
100
AcDbCircle
 10
310.3420969926977
 20
470.4347386373893
 30
0.0
 40
7.694305707784447
100
AcDbArc
 50
73.65710669401345
 51
106.3428933059834
  0
ARC
  5
702
330
1E
100
AcDbEntity
  8
HILF
100
AcDbCircle
 10
303.8469064643144
 20
448.2305832975125
 30
0.0
 40
22.41111549782308
100
AcDbArc
 50
78.85962783890455
 51
101.1403721610954
  0
ARC
  5
703
330
1E
100
AcDbEntity
  8
HILF
100
AcDbCircle
 10
310.3420969926978
 20
464.8805581956441
 30
0.0
 40
5.761140599691502
100
AcDbArc
 50
67.92594526326054
 51
112.0740547367394
  0
ARC
  5
704
330
1E
100
AcDbEntity
  8
HILF
100
AcDbCircle
 10
297.3517159359311
 20
464.8805581956441
 30
0.0
 40
5.761140599691502
100
AcDbArc
 50
67.92594526326054
 51
112.0740547367394
  0
POINT
  5
705
330
1E
100
AcDbEntity
  8
0
100
AcDbPoint
 10
303.8469064643144
 20
468.1290443451738
 30
0.0
210
0.0000000000000001
220
1.0
230
0.0
  0
LINE
  5
706
330
1E
100
AcDbEntity
  8
STEMPEL
100
AcDbLine
 10
296.3469064643144
 20
478.1290443451737
 30
0.0
 11
311.3469064643144
 21
478.1290443451737
 31
0.0
  0
LINE
  5
707
330
1E
100
AcDbEntity
  8
STEMPEL
100
AcDbLine
 10
312.5071605021588
 20
470.2194008613736
 30
0.0
 11
312.5071605021588
 21
477.8181552127183
 31
0.0
  0
LINE
  5
708
330
1E
100
AcDbEntity
  8
STEMPEL
100
AcDbLine
 10
308.1770334832366
 20
470.2194008613736
 30
0.0
 11
308.1770334832366
 21
477.8181552127183
 31
0.0
  0
LINE
  5
709
330
1E
100
AcDbEntity
  8
STEMPEL
100
AcDbLine
 10
299.5167794453922
 20
470.2194008613736
 30
0.0
 11
299.5167794453922
 21
477.8181552127183
 31
0.0
  0
LINE
  5
70A
330
1E
100
AcDbEntity
  8
STEMPEL
100
AcDbLine
 10
314.2534215718087
 20
469.5838138107632
 30
0.0
 11
293.4403913568202
 21
469.5838138107632
 31
0.0
  0
LINE
  5
70B
330
1E
100
AcDbEntity
  8
STEMPEL
100
AcDbLine
 10
313.9969064643144
 20
468.1290443451738
 30
0.0
 11
293.6969064643145
 21
468.1290443451738
 31
0.0
  0
LINE
  5
70C
330
1E
100
AcDbEntity
  8
STEMPEL
100
AcDbLine
 10
295.1866524264701
 20
470.2194008613736
 30
0.0
 11
295.1866524264701
 21
477.8181552127183
 31
0.0
  0
LINE
  5
70D
330
1E
100
AcDbEntity
  8
STEMPEL
100
AcDbLine
 10
296.3469064643144
 20
478.1290443451737
 30
0.0
 11
295.1866524264701
 21
477.8181552127183
 31
0.0
  0
LINE
  5
70E
330
1E
100
AcDbEntity
  8
STEMPEL
100
AcDbLine
 10
312.5071605021588
 20
477.8181552127183
 30
0.0
 11
311.3469064643144
 21
478.1290443451737
 31
0.0
  0
LINE
  5
70F
330
1E
100
AcDbEntity
  8
STEMPEL
100
AcDbLine
 10
314.2534215718087
 20
469.5838138107632
 30
0.0
 11
312.5071605021588
 21
470.2194008613736
 31
0.0
  0
LINE
  5
710
330
1E
100
AcDbEntity
  8
STEMPEL
100
AcDbLine
 10
295.1866524264701
 20
470.2194008613736
 30
0.0
 11
293.4403913568202
 21
469.5838138107632
 31
0.0
  0
ARC
  5
711
330
1E
100
AcDbEntity
  8
STEMPEL
100
AcDbCircle
 10
293.6969064643145
 20
468.8790443451737
 30
0.0
 40
0.7500000000000013
100
AcDbArc
 50
109.9999999999995
 51
269.9999991462263
  0
ARC
  5
712
330
1E
100
AcDbEntity
  8
STEMPEL
100
AcDbCircle
 10
313.9969064643144
 20
468.8790443451737
 30
0.0
 40
0.750000000000001
100
AcDbArc
 50
269.9999991462263
 51
70.00000000000047
  0
LINE
  5
722
330
1E
100
AcDbEntity
  8
TEXT
 62
     2
100
AcDbLine
 10
407.5330064215241
 20
340.8139736673337
 30
0.0
 11
301.594441846391
 21
340.8139736673337
 31
0.0
  0
TEXT
  5
723
330
1E
100
AcDbEntity
  8
TEXT
 62
     1
100
AcDbText
 10
302.1897977251454
 20
344.2978078282441
 30
0.0
 40
7.0
  1
Wärmedämmung DN70
 41
0.8
100
AcDbText
  0
TEXT
  5
724
330
1E
100
AcDbEntity
  8
TEXT
 62
     1
100
AcDbText
 10
302.1897977251454
 20
331.5214768595346
 30
0.0
 40
7.0
  1
EDV-Art.Nr. 19842.070X
 41
0.8
100
AcDbText
  0
LINE
  5
725
330
1E
100
AcDbEntity
  8
TEXT
 62
     2
100
AcDbLine
 10
301.594441846391
 20
340.8139736673337
 30
0.0
 11
272.5271299544779
 21
361.5567708698048
 31
0.0
  0
ARC
  5
788
102
{ACAD_REACTORS
330
810
102
}
330
1E
100
AcDbEntity
  8
STEMPEL
100
AcDbCircle
 10
151.6652601284172
 20
297.1290443451703
 30
0.0
 40
3.0
100
AcDbArc
 50
183.5763343749981
 51
270.0
  0
ARC
  5
789
102
{ACAD_REACTORS
330
810
102
}
330
1E
100
AcDbEntity
  8
STEMPEL
100
AcDbCircle
 10
276.0285528002116
 20
297.1290443451687
 30
0.0
 40
3.0
100
AcDbArc
 50
270.0
 51
356.4236656250018
  0
LINE
  5
78A
102
{ACAD_REACTORS
330
810
102
}
330
1E
100
AcDbEntity
  8
STEMPEL
100
AcDbLine
 10
256.3469064643147
 20
296.1290443451688
 30
0.0
 11
256.3469064643147
 21
294.1290443451688
 31
0.0
  0
LINE
  5
78B
102
{ACAD_REACTORS
330
810
102
}
330
1E
100
AcDbEntity
  8
STEMPEL
100
AcDbLine
 10
171.3469064643147
 20
296.12904434517
 30
0.0
 11
171.3469064643147
 21
294.1290443451701
 31
0.0
  0
LINE
  5
78C
102
{ACAD_REACTORS
330
810
102
}
330
1E
100
AcDbEntity
  8
STEMPEL
100
AcDbLine
 10
256.3469064643148
 20
296.1290443451689
 30
0.0
 11
250.3469064643154
 21
296.1290443451691
 31
0.0
  0
LINE
  5
78D
102
{ACAD_REACTORS
330
810
102
}
330
1E
100
AcDbEntity
  8
STEMPEL
100
AcDbLine
 10
166.3469064643142
 20
384.1290443451703
 30
0.0
 11
160.3469064643144
 21
390.1290443451701
 31
0.0
  0
LINE
  5
78E
102
{ACAD_REACTORS
330
810
102
}
330
1E
100
AcDbEntity
  8
STEMPEL
100
AcDbLine
 10
166.3469064643142
 20
384.1290443451703
 30
0.0
 11
166.3469064643147
 21
318.1290443451684
 31
0.0
  0
LINE
  5
78F
102
{ACAD_REACTORS
330
810
102
}
330
1E
100
AcDbEntity
  8
STEMPEL
100
AcDbLine
 10
177.3469064643154
 20
303.169044345169
 30
0.0
 11
166.3469064643147
 21
318.1290443451684
 31
0.0
  0
LINE
  5
790
102
{ACAD_REACTORS
330
810
102
}
330
1E
100
AcDbEntity
  8
STEMPEL
100
AcDbLine
 10
261.3469064643145
 20
384.1290443451706
 30
0.0
 11
267.3469064643143
 21
390.1290443451704
 31
0.0
  0
LINE
  5
791
330
1E
100
AcDbEntity
  8
STEMPEL
100
AcDbLine
 10
261.3469064643145
 20
384.1290443451706
 30
0.0
 11
250.3469064643163
 21
384.1290443451705
 31
0.0
  0
LINE
  5
792
330
1E
100
AcDbEntity
  8
STEMPEL
100
AcDbLine
 10
261.3469064643145
 20
318.1290443451687
 30
0.0
 11
250.3469064643157
 21
318.1290443451688
 31
0.0
  0
LINE
  5
793
102
{ACAD_REACTORS
330
810
102
}
330
1E
100
AcDbEntity
  8
STEMPEL
100
AcDbLine
 10
250.3469064643156
 20
303.1690443451715
 30
0.0
 11
261.3469064643145
 21
318.1290443451687
 31
0.0
  0
LINE
  5
794
102
{ACAD_REACTORS
330
810
102
}
330
1E
100
AcDbEntity
  8
STEMPEL
100
AcDbLine
 10
261.3469064643145
 20
384.1290443451706
 30
0.0
 11
261.3469064643145
 21
318.1290443451687
 31
0.0
  0
DIMENSION
  5
795
330
1E
100
AcDbEntity
  8
BEM
100
AcDbDimension
  2
*D4
 10
288.8469064643147
 20
494.2877380796917
 30
0.0
 11
213.8469064643146
 21
500.7877380796917
 31
0.0
 70
    32
  1
%%c<>
 71
     5
 42
150.0000000000002
  3
Standard
100
AcDbAlignedDimension
 13
138.8469064643144
 23
454.1290443451702
 33
0.0
 14
288.8469064643147
 24
454.1290443451706
 34
0.0
100
AcDbRotatedDimension
1001
ACAD
1000
DSTYLE
1002
{
1070
    40
1040
2.0
1070
    41
1040
3.5
1070
    42
1040
1.0
1070
    43
1040
7.0
1070
    44
1040
1.0
1070
    73
1070
     0
1070
    74
1070
     0
1070
    77
1070
     1
1070
    78
1070
     8
1070
    79
1070
     2
1070
   140
1040
3.5
1070
   141
1040
1.5
1070
   146
1040
0.5
1070
   147
1040
1.5
1070
   172
1070
     1
1070
   178
1070
     1
1070
   179
1070
     2
1070
   271
1070
     2
1070
   272
1070
     2
1070
   284
1070
     8
1070
   285
1070
     8
1070
   286
1070
     8
1070
   340
1005
24
1002
}
  0
LINE
  5
796
102
{ACAD_REACTORS
330
810
102
}
330
1E
100
AcDbEntity
  8
STEMPEL
100
AcDbLine
 10
276.0285528002116
 20
294.1290443451687
 30
0.0
 11
250.3469064643154
 21
294.1290443451691
 31
0.0
  0
DIMENSION
  5
797
330
1E
100
AcDbEntity
  8
BEM
100
AcDbDimension
  2
*D5
 10
278.844451098836
 20
273.6255740026821
 30
0.0
 11
213.8469064643144
 21
280.1255740026821
 31
0.0
 70
    32
  1
%%c<>
 71
     5
 42
129.9950892690433
  3
Standard
100
AcDbAlignedDimension
 13
148.8493618297927
 23
294.1290443451703
 33
0.0
 14
278.844451098836
 24
294.1290443451686
 34
0.0
100
AcDbRotatedDimension
1001
ACAD
1000
DSTYLE
1002
{
1070
    40
1040
2.0
1070
    41
1040
3.5
1070
    42
1040
1.0
1070
    43
1040
7.0
1070
    44
1040
1.0
1070
    73
1070
     0
1070
    74
1070
     0
1070
    77
1070
     1
1070
    78
1070
     8
1070
    79
1070
     2
1070
   140
1040
3.5
1070
   141
1040
1.5
1070
   146
1040
0.5
1070
   147
1040
1.5
1070
   172
1070
     1
1070
   178
1070
     1
1070
   179
1070
     2
1070
   271
1070
     2
1070
   272
1070
     2
1070
   284
1070
     8
1070
   285
1070
     8
1070
   286
1070
     8
1070
   340
1005
24
1002
}
  0
LINE
  5
798
330
1E
100
AcDbEntity
  8
STEMPEL
100
AcDbLine
 10
267.3469064643147
 20
444.1290443451705
 30
0.0
 11
259.6753335890596
 21
444.1290443451705
 31
0.0
  0
LINE
  5
799
330
1E
100
AcDbEntity
  8
STEMPEL
100
AcDbLine
 10
267.346906464314
 20
390.1290443451704
 30
0.0
 11
250.3469064643164
 21
390.1290443451704
 31
0.0
  0
LINE
  5
79B
102
{ACAD_REACTORS
330
810
102
}
330
1E
100
AcDbEntity
  8
STEMPEL
100
AcDbLine
 10
138.8469064643144
 20
454.1290443451702
 30
0.0
 11
148.6711023929686
 21
296.9419094867048
 31
0.0
  0
DIMENSION
  5
79C
330
1E
100
AcDbEntity
  8
BEM
100
AcDbDimension
  2
*D6
 10
68.51781613416227
 20
294.1290443451704
 30
0.0
 11
62.01781613416223
 21
374.1290443451707
 31
0.0
 70
    32
 71
     5
 42
160.0000000000006
  3
Standard
100
AcDbAlignedDimension
 13
97.56442088558628
 23
454.129044345171
 33
0.0
 14
148.8493618297927
 24
294.1290443451703
 34
0.0
 50
90.0
100
AcDbRotatedDimension
1001
ACAD
1000
DSTYLE
1002
{
1070
    40
1040
2.0
1070
    41
1040
3.5
1070
    42
1040
1.0
1070
    43
1040
7.0
1070
    44
1040
1.0
1070
    73
1070
     0
1070
    74
1070
     0
1070
    77
1070
     1
1070
    78
1070
     8
1070
    79
1070
     2
1070
   140
1040
3.5
1070
   141
1040
1.5
1070
   146
1040
0.5
1070
   147
1040
1.5
1070
   172
1070
     1
1070
   178
1070
     1
1070
   179
1070
     2
1070
   271
1070
     2
1070
   272
1070
     2
1070
   284
1070
     8
1070
   285
1070
     8
1070
   286
1070
     8
1070
   340
1005
24
1002
}
  0
LINE
  5
79E
102
{ACAD_REACTORS
330
810
102
}
330
1E
100
AcDbEntity
  8
STEMPEL
100
AcDbLine
 10
160.3469064643147
 20
390.1290443451702
 30
0.0
 11
160.3469064643144
 21
444.1290443451704
 31
0.0
  0
LINE
  5
79F
102
{ACAD_REACTORS
330
810
102
}
330
1E
100
AcDbEntity
  8
STEMPEL
100
AcDbLine
 10
148.8469064643144
 20
454.1290443451704
 30
0.0
 11
160.3469064643144
 21
444.1290443451704
 31
0.0
  0
LINE
  5
7A0
102
{ACAD_REACTORS
330
810
102
}
330
1E
100
AcDbEntity
  8
STEMPEL
100
AcDbLine
 10
288.8469064643145
 20
454.1290443451702
 30
0.0
 11
279.0227105356603
 21
296.9419094867031
 31
0.0
  0
LINE
  5
7A2
102
{ACAD_REACTORS
330
810
102
}
330
1E
100
AcDbEntity
  8
STEMPEL
100
AcDbLine
 10
278.8469064643145
 20
454.1290443451704
 30
0.0
 11
267.3469064643145
 21
444.1290443451704
 31
0.0
  0
LINE
  5
7A3
102
{ACAD_REACTORS
330
810
102
}
330
1E
100
AcDbEntity
  8
STEMPEL
100
AcDbLine
 10
267.3469064643143
 20
390.1290443451702
 30
0.0
 11
267.3469064643145
 21
444.1290443451704
 31
0.0
  0
LINE
  5
7EC
330
1E
100
AcDbEntity
  8
STEMPEL
100
AcDbLine
 10
168.0184793395694
 20
444.1290443451705
 30
0.0
 11
160.3469064643144
 21
444.1290443451704
 31
0.0
  0
LINE
  5
7ED
330
1E
100
AcDbEntity
  8
STEMPEL
100
AcDbLine
 10
177.346906464316
 20
390.1290443451703
 30
0.0
 11
160.3469064643147
 21
390.1290443451702
 31
0.0
  0
LINE
  5
7EE
330
1E
100
AcDbEntity
  8
STEMPEL
100
AcDbLine
 10
177.346906464316
 20
384.1290443451705
 30
0.0
 11
166.3469064643142
 21
384.1290443451705
 31
0.0
  0
LINE
  5
7EF
330
1E
100
AcDbEntity
  8
STEMPEL
100
AcDbLine
 10
177.3469064643155
 20
318.12904434517
 30
0.0
 11
166.3469064643147
 21
318.1290443451702
 31
0.0
  0
LINE
  5
7F0
102
{ACAD_REACTORS
330
810
102
}
330
1E
100
AcDbEntity
  8
STEMPEL
100
AcDbLine
 10
177.3469064643154
 20
294.12904434517
 30
0.0
 11
151.6652601284172
 21
294.1290443451703
 31
0.0
  0
LINE
  5
7F1
102
{ACAD_REACTORS
330
810
102
}
330
1E
100
AcDbEntity
  8
STEMPEL
100
AcDbLine
 10
177.3469064643154
 20
296.12904434517
 30
0.0
 11
171.3469064643147
 21
296.12904434517
 31
0.0
  0
HATCH
  5
810
330
1E
100
AcDbEntity
  8
SCHRAFF
100
AcDbHatch
 10
0.0
 20
0.0
 30
0.0
210
0.0
220
0.0
230
1.0
  2
HONEY
 70
     0
 71
     1
 91
        2
 92
        7
 72
     1
 73
     1
 93
       12
 10
267.3469064643143
 20
390.1290443451704
 42
0.0
 10
261.3469064643145
 20
384.1290443451706
 42
0.0
 10
261.3469064643146
 20
318.1290443451688
 42
0.0
 10
250.3469064643156
 20
303.1690443451715
 42
0.0
 10
250.3469064643155
 20
296.1290443451691
 42
0.0
 10
256.3469064643147
 20
296.1290443451689
 42
0.0
 10
256.3469064643147
 20
294.129044345169
 42
0.0
 10
276.0285528002116
 20
294.1290443451687
 42
0.3960474615044538
 10
279.0227105356603
 20
296.9419094867031
 42
0.0
 10
288.8469064643144
 20
454.1290443451706
 42
0.0
 10
278.8469064643146
 20
454.1290443451704
 42
0.0
 10
267.3469064643144
 20
444.1290443451704
 42
0.0
 97
       12
330
5CA
330
7A2
330
7A3
330
790
330
794
330
793
330
585
330
78C
330
78A
330
796
330
789
330
7A0
 92
        7
 72
     1
 73
     1
 93
       12
 10
160.3469064643144
 20
444.1290443451704
 42
0.0
 10
148.8469064643143
 20
454.1290443451706
 42
0.0
 10
138.8469064643144
 20
454.1290443451707
 42
0.0
 10
148.6711023929686
 20
296.9419094867048
 42
0.3960474615044457
 10
151.6652601284172
 20
294.1290443451703
 42
0.0
 10
171.3469064643147
 20
294.12904434517
 42
0.0
 10
171.3469064643147
 20
296.12904434517
 42
0.0
 10
177.3469064643154
 20
296.12904434517
 42
0.0
 10
177.3469064643154
 20
303.1690443451691
 42
0.0
 10
166.3469064643147
 20
318.1290443451685
 42
0.0
 10
166.3469064643142
 20
384.1290443451704
 42
0.0
 10
160.3469064643147
 20
390.1290443451699
 42
0.0
 97
       12
330
79F
330
530
330
79B
330
788
330
7F0
330
78B
330
7F1
330
522
330
78F
330
78E
330
78D
330
79E
 75
     0
 76
     1
 52
0.0
 41
30.0
 77
     0
 78
     3
 53
0.0
 43
0.0
 44
0.0
 45
5.625
 46
3.247595249999999
 79
     2
 49
3.75
 49
-7.5
 53
120.0
 43
0.0
 44
0.0
 45
-5.624999987709673
 46
3.247595271287468
 79
     2
 49
3.75
 49
-7.5
 53
60.0
 43
0.0
 44
0.0
 45
0.0000000122903263
 46
6.495190521287468
 79
     2
 49
-7.5
 49
3.75
 47
0.5076314737323907
 98
        2
 10
272.8329178553013
 20
419.2221059972514
 10
150.9600259959297
 20
421.7602634958234
  0
LINE
  5
835
330
1E
100
AcDbEntity
  8
MITTEL
100
AcDbLine
 10
213.8469064643143
 20
270.2813505511888
 30
0.0
 11
213.8469064643143
 21
191.1290443451708
 31
0.0
  0
TEXT
  5
84C
330
1E
100
AcDbEntity
  8
TEXT
100
AcDbText
 10
230.1296391125315
 20
71.50334417585288
 30
0.0
 40
5.0
  1
mit Wärmedämmung
 41
0.8
  7
GREEKS
100
AcDbText
  0
HATCH
  5
865
330
1E
100
AcDbEntity
  8
SCHRAFF
100
AcDbHatch
 10
0.0
 20
0.0
 30
0.0
210
0.0
220
0.0
230
1.0
  2
NET
 70
     0
 71
     1
 91
        4
 92
        7
 72
     0
 73
     1
 93
        4
 10
310.3469064643143
 20
459.1290443451707
 10
310.3469064643142
 20
456.1290443451705
 10
336.3469064643143
 20
456.1290443451705
 10
336.3469064643143
 20
459.1290443451706
 97
        4
330
591
330
5E1
330
520
330
5F6
 92
        7
 72
     0
 73
     1
 93
        4
 10
297.3469064643142
 20
456.1290443451706
 10
297.3469064643142
 20
459.1290443451705
 10
276.3469064643143
 20
459.1290443451706
 10
276.3469064643143
 20
456.1290443451707
 97
        4
330
511
330
5CE
330
520
330
5D4
 92
        7
 72
     0
 73
     1
 93
        4
 10
130.6969064643142
 20
459.1290443451704
 10
130.6969064643142
 20
456.1290443451706
 10
151.3469064643141
 20
456.1290443451708
 10
151.3469064643141
 20
459.1290443451706
 97
        4
330
511
330
529
330
520
330
568
 92
        7
 72
     0
 73
     1
 93
        4
 10
91.34690646431414
 20
459.1290443451708
 10
91.34690646431414
 20
456.1290443451707
 10
130.6969064643143
 20
456.1290443451708
 10
130.6969064643143
 20
459.1290443451706
 97
        4
330
511
330
539
330
520
330
529
 75
     0
 76
     1
 52
45.0
 41
15.0
 77
     0
 78
     2
 53
45.0
 43
0.0
 44
0.0
 45
-1.325825214724776
 46
1.325825214724776
 79
     0
 53
135.0
 43
0.0
 44
0.0
 45
-1.325825214724776
 46
-1.325825214724776
 79
     0
 47
0.2686719925031026
 98
        4
 10
317.1021195646468
 20
457.8001909371135
 10
291.3008557835105
 20
457.2628461295244
 10
135.6869877804388
 20
457.8001909371135
 10
129.2366724213875
 20
458.0688619578093
  0
ENDSEC
  0
SECTION
  2
OBJECTS
  0
DICTIONARY
  5
C
330
0
100
AcDbDictionary
281
     1
  3
ACAD_COLOR
350
DF
  3
ACAD_GROUP
350
D
  3
ACAD_LAYOUT
350
19
  3
ACAD_MATERIAL
350
DE
  3
ACAD_MLINESTYLE
350
16
  3
ACAD_PLOTSETTINGS
350
18
  3
ACAD_PLOTSTYLENAME
350
E
  3
AcDbVariableDictionary
350
EA
  0
DICTIONARY
  5
A0
330
1E
100
AcDbDictionary
280
     1
281
     1
  3
ACAD_LAYOUTSELFREF
360
D4
  0
DICTIONARY
  5
A2
330
1A
100
AcDbDictionary
280
     1
281
     1
  3
ACAD_LAYOUTSELFREF
360
D3
  0
DICTIONARY
  5
DF
102
{ACAD_REACTORS
330
C
102
}
330
C
100
AcDbDictionary
281
     1
  0
DICTIONARY
  5
D
102
{ACAD_REACTORS
330
C
102
}
330
C
100
AcDbDictionary
281
     1
  0
DICTIONARY
  5
19
102
{ACAD_REACTORS
330
C
102
}
330
C
100
AcDbDictionary
281
     1
  3
Layout1
350
1D
  3
Model
350
21
  0
DICTIONARY
  5
DE
102
{ACAD_REACTORS
330
C
102
}
330
C
100
AcDbDictionary
281
     1
  0
DICTIONARY
  5
16
102
{ACAD_REACTORS
330
C
102
}
330
C
100
AcDbDictionary
281
     1
  3
Standard
350
17
  0
DICTIONARY
  5
18
102
{ACAD_REACTORS
330
C
102
}
330
C
100
AcDbDictionary
281
     1
  0
ACDBDICTIONARYWDFLT
  5
E
102
{ACAD_REACTORS
330
C
102
}
330
C
100
AcDbDictionary
281
     1
  3
Normal
350
F
100
AcDbDictionaryWithDefault
340
F
  0
DICTIONARY
  5
EA
102
{ACAD_REACTORS
330
C
102
}
330
C
100
AcDbDictionary
281
     1
  3
DIMASSOC
350
EB
  3
PROJECTNAME
350
EC
  0
XRECORD
  5
D4
102
{ACAD_REACTORS
330
A0
102
}
330
A0
100
AcDbXrecord
280
     1
340
1E
  0
XRECORD
  5
D3
102
{ACAD_REACTORS
330
A2
102
}
330
A2
100
AcDbXrecord
280
     1
340
1A
  0
LAYOUT
  5
1D
102
{ACAD_REACTORS
330
19
102
}
330
19
100
AcDbPlotSettings
  1

  2
\\NT_WORK01\HP LaserJet 5000 PCL 6
  4

  6

 40
0.0
 41
0.0
 42
0.0
 43
0.0
 44
0.0
 45
0.0
 46
0.0
 47
0.0
 48
0.0
 49
0.0
140
0.0
141
0.0
142
1.0
143
1.0
 70
   688
 72
     0
 73
     0
 74
     5
  7

 75
    16
147
1.0
 76
     0
 77
     2
 78
   300
148
0.0
149
0.0
100
AcDbLayout
  1
Layout1
 70
     0
 71
     1
 10
0.0
 20
0.0
 11
12.0
 21
9.0
 12
0.0
 22
0.0
 32
0.0
 14
1.000000000000000E+20
 24
1.000000000000000E+20
 34
1.000000000000000E+20
 15
-1.000000000000000E+20
 25
-1.000000000000000E+20
 35
-1.000000000000000E+20
146
0.0
 13
0.0
 23
0.0
 33
0.0
 16
1.0
 26
0.0
 36
0.0
 17
0.0
 27
1.0
 37
0.0
 76
     0
330
1A
  0
LAYOUT
  5
21
102
{ACAD_REACTORS
330
19
102
}
330
19
100
AcDbPlotSettings
  1

  2
\\NT_WORK01\HP LaserJet 5000 PCL 6
  4

  6

 40
0.0
 41
0.0
 42
0.0
 43
0.0
 44
0.0
 45
0.0
 46
0.0
 47
0.0
 48
0.0
 49
0.0
140
0.0
141
0.0
142
1.0
143
1.0
 70
  1712
 72
     0
 73
     0
 74
     0
  7

 75
     0
147
1.0
 76
     0
 77
     2
 78
   300
148
0.0
149
0.0
100
AcDbLayout
  1
Model
 70
     1
 71
     0
 10
0.0
 20
0.0
 11
12.0
 21
9.0
 12
0.0
 22
0.0
 32
0.0
 14
0.0
 24
0.0
 34
0.0
 15
0.0
 25
0.0
 35
0.0
146
0.0
 13
0.0
 23
0.0
 33
0.0
 16
1.0
 26
0.0
 36
0.0
 17
0.0
 27
1.0
 37
0.0
 76
     0
330
1E
  0
MLINESTYLE
  5
17
102
{ACAD_REACTORS
330
16
102
}
330
16
100
AcDbMlineStyle
  2
STANDARD
 70
     0
  3

 62
   256
 51
90.0
 52
90.0
 71
     2
 49
0.5
 62
   256
  6
BYLAYER
 49
-0.5
 62
   256
  6
BYLAYER
  0
ACDBPLACEHOLDER
  5
F
102
{ACAD_REACTORS
330
E
102
}
330
E
  0
DICTIONARYVAR
  5
EB
102
{ACAD_REACTORS
330
EA
102
}
330
EA
100
DictionaryVariables
280
     0
  1
1
  0
DICTIONARYVAR
  5
EC
102
{ACAD_REACTORS
330
EA
102
}
330
EA
100
DictionaryVariables
280
     0
  1

  0
ENDSEC
  0
EOF
