  0
SECTION
  2
HEADER
  9
$ACADVER
  1
AC1018
  9
$ACADMAINTVER
 70
   104
  9
$DWGCODEPAGE
  3
ANSI_1252
  9
$LASTSAVEDBY
  1
w.koehlhoff
  9
$INSBASE
 10
0.0
 20
0.0
 30
0.0
  9
$EXTMIN
 10
-0.0192146320376878
 20
-0.0271749795965661
 30
-0.000000000000013
  9
$EXTMAX
 10
420.0192317462092
 20
594.027199183924
 30
0.0000000000000023
  9
$LIMMIN
 10
0.0
 20
0.0
  9
$LIMMAX
 10
419.9999999999999
 20
594.0
  9
$ORTHOMODE
 70
     1
  9
$REGENMODE
 70
     1
  9
$FILLMODE
 70
     1
  9
$QTEXTMODE
 70
     0
  9
$MIRRTEXT
 70
     1
  9
$LTSCALE
 40
20.0
  9
$ATTMODE
 70
     1
  9
$TEXTSIZE
 40
3.5
  9
$TRACEWID
 40
0.5
  9
$TEXTSTYLE
  7
STANDARD
  9
$CLAYER
  8
VOLL
  9
$CELTYPE
  6
ByLayer
  9
$CECOLOR
 62
   256
  9
$CELTSCALE
 40
1.0
  9
$DISPSILH
 70
     0
  9
$DIMSCALE
 40
2.0
  9
$DIMASZ
 40
3.5
  9
$DIMEXO
 40
1.0
  9
$DIMDLI
 40
7.0
  9
$DIMRND
 40
0.0
  9
$DIMDLE
 40
0.0
  9
$DIMEXE
 40
1.0
  9
$DIMTP
 40
0.0
  9
$DIMTM
 40
0.0
  9
$DIMTXT
 40
3.5
  9
$DIMCEN
 40
1.5
  9
$DIMTSZ
 40
0.0
  9
$DIMTOL
 70
     0
  9
$DIMLIM
 70
     0
  9
$DIMTIH
 70
     0
  9
$DIMTOH
 70
     0
  9
$DIMSE1
 70
     0
  9
$DIMSE2
 70
     0
  9
$DIMTAD
 70
     1
  9
$DIMZIN
 70
     8
  9
$DIMBLK
  1

  9
$DIMASO
 70
     1
  9
$DIMSHO
 70
     0
  9
$DIMPOST
  1

  9
$DIMAPOST
  1

  9
$DIMALT
 70
     0
  9
$DIMALTD
 70
     2
  9
$DIMALTF
 40
25.4
  9
$DIMLFAC
 40
1.0
  9
$DIMTOFL
 70
     1
  9
$DIMTVP
 40
0.0
  9
$DIMTIX
 70
     0
  9
$DIMSOXD
 70
     0
  9
$DIMSAH
 70
     0
  9
$DIMBLK1
  1

  9
$DIMBLK2
  1

  9
$DIMSTYLE
  2
Standard
  9
$DIMCLRD
 70
     0
  9
$DIMCLRE
 70
     0
  9
$DIMCLRT
 70
     1
  9
$DIMTFAC
 40
0.5
  9
$DIMGAP
 40
1.5
  9
$DIMJUST
 70
     0
  9
$DIMSD1
 70
     0
  9
$DIMSD2
 70
     0
  9
$DIMTOLJ
 70
     1
  9
$DIMTZIN
 70
     8
  9
$DIMALTZ
 70
     8
  9
$DIMALTTZ
 70
     8
  9
$DIMUPT
 70
     0
  9
$DIMDEC
 70
     2
  9
$DIMTDEC
 70
     2
  9
$DIMALTU
 70
     2
  9
$DIMALTTD
 70
     2
  9
$DIMTXSTY
  7
STANDARD
  9
$DIMAUNIT
 70
     0
  9
$DIMADEC
 70
     2
  9
$DIMALTRND
 40
0.0
  9
$DIMAZIN
 70
     2
  9
$DIMDSEP
 70
    46
  9
$DIMATFIT
 70
     3
  9
$DIMFRAC
 70
     0
  9
$DIMLDRBLK
  1

  9
$DIMLUNIT
 70
     2
  9
$DIMLWD
 70
    -2
  9
$DIMLWE
 70
    -2
  9
$DIMTMOVE
 70
     0
  9
$LUNITS
 70
     2
  9
$LUPREC
 70
     2
  9
$SKETCHINC
 40
1.0
  9
$FILLETRAD
 40
0.0
  9
$AUNITS
 70
     0
  9
$AUPREC
 70
     0
  9
$MENU
  1
ACAD
  9
$ELEVATION
 40
0.0
  9
$PELEVATION
 40
0.0
  9
$THICKNESS
 40
0.0
  9
$LIMCHECK
 70
     0
  9
$CHAMFERA
 40
0.0
  9
$CHAMFERB
 40
0.0
  9
$CHAMFERC
 40
0.0
  9
$CHAMFERD
 40
0.0
  9
$SKPOLY
 70
     0
  9
$TDCREATE
 40
2455397.823042361
  9
$TDUCREATE
 40
2455397.781375695
  9
$TDUPDATE
 40
2456674.542517755
  9
$TDUUPDATE
 40
2456674.500851088
  9
$TDINDWG
 40
0.0519632523
  9
$TDUSRTIMER
 40
0.0519632523
  9
$USRTIMER
 70
     1
  9
$ANGBASE
 50
0.0
  9
$ANGDIR
 70
     0
  9
$PDMODE
 70
     0
  9
$PDSIZE
 40
0.0
  9
$PLINEWID
 40
0.0
  9
$SPLFRAME
 70
     0
  9
$SPLINETYPE
 70
     6
  9
$SPLINESEGS
 70
     8
  9
$HANDSEED
  5
CD3
  9
$SURFTAB1
 70
     6
  9
$SURFTAB2
 70
     6
  9
$SURFTYPE
 70
     6
  9
$SURFU
 70
     6
  9
$SURFV
 70
     6
  9
$UCSBASE
  2

  9
$UCSNAME
  2

  9
$UCSORG
 10
0.0
 20
0.0
 30
0.0
  9
$UCSXDIR
 10
1.0
 20
0.0
 30
0.0
  9
$UCSYDIR
 10
0.0
 20
1.0
 30
0.0
  9
$UCSORTHOREF
  2

  9
$UCSORTHOVIEW
 70
     0
  9
$UCSORGTOP
 10
0.0
 20
0.0
 30
0.0
  9
$UCSORGBOTTOM
 10
0.0
 20
0.0
 30
0.0
  9
$UCSORGLEFT
 10
0.0
 20
0.0
 30
0.0
  9
$UCSORGRIGHT
 10
0.0
 20
0.0
 30
0.0
  9
$UCSORGFRONT
 10
0.0
 20
0.0
 30
0.0
  9
$UCSORGBACK
 10
0.0
 20
0.0
 30
0.0
  9
$PUCSBASE
  2

  9
$PUCSNAME
  2

  9
$PUCSORG
 10
0.0
 20
0.0
 30
0.0
  9
$PUCSXDIR
 10
1.0
 20
0.0
 30
0.0
  9
$PUCSYDIR
 10
0.0
 20
1.0
 30
0.0
  9
$PUCSORTHOREF
  2

  9
$PUCSORTHOVIEW
 70
     0
  9
$PUCSORGTOP
 10
0.0
 20
0.0
 30
0.0
  9
$PUCSORGBOTTOM
 10
0.0
 20
0.0
 30
0.0
  9
$PUCSORGLEFT
 10
0.0
 20
0.0
 30
0.0
  9
$PUCSORGRIGHT
 10
0.0
 20
0.0
 30
0.0
  9
$PUCSORGFRONT
 10
0.0
 20
0.0
 30
0.0
  9
$PUCSORGBACK
 10
0.0
 20
0.0
 30
0.0
  9
$USERI1
 70
     0
  9
$USERI2
 70
     0
  9
$USERI3
 70
     0
  9
$USERI4
 70
     0
  9
$USERI5
 70
     0
  9
$USERR1
 40
0.0
  9
$USERR2
 40
0.0
  9
$USERR3
 40
0.0
  9
$USERR4
 40
0.0
  9
$USERR5
 40
0.0
  9
$WORLDVIEW
 70
     1
  9
$SHADEDGE
 70
     3
  9
$SHADEDIF
 70
    70
  9
$TILEMODE
 70
     1
  9
$MAXACTVP
 70
    16
  9
$PINSBASE
 10
0.0
 20
0.0
 30
0.0
  9
$PLIMCHECK
 70
     0
  9
$PEXTMIN
 10
1.000000000000000E+20
 20
1.000000000000000E+20
 30
1.000000000000000E+20
  9
$PEXTMAX
 10
-1.000000000000000E+20
 20
-1.000000000000000E+20
 30
-1.000000000000000E+20
  9
$PLIMMIN
 10
0.0
 20
0.0
  9
$PLIMMAX
 10
12.0
 20
9.0
  9
$UNITMODE
 70
     0
  9
$VISRETAIN
 70
     0
  9
$PLINEGEN
 70
     0
  9
$PSLTSCALE
 70
     0
  9
$TREEDEPTH
 70
  3020
  9
$CMLSTYLE
  2
Standard
  9
$CMLJUST
 70
     0
  9
$CMLSCALE
 40
1.0
  9
$PROXYGRAPHICS
 70
     1
  9
$MEASUREMENT
 70
     0
  9
$CELWEIGHT
370
    -1
  9
$ENDCAPS
280
     0
  9
$JOINSTYLE
280
     0
  9
$LWDISPLAY
290
     0
  9
$INSUNITS
 70
     0
  9
$HYPERLINKBASE
  1

  9
$STYLESHEET
  1
monochrome1.ctb
  9
$XEDIT
290
     1
  9
$CEPSNTYPE
380
     0
  9
$PSTYLEMODE
290
     1
  9
$FINGERPRINTGUID
  2
{D68B0D02-A558-11D7-B632-000102183313}
  9
$VERSIONGUID
  2
{33566487-DCB1-4D79-BB89-B2485094DA75}
  9
$EXTNAMES
290
     1
  9
$PSVPSCALE
 40
0.0
  9
$OLESTARTUP
290
     0
  9
$SORTENTS
280
   127
  9
$INDEXCTL
280
     0
  9
$HIDETEXT
280
     0
  9
$XCLIPFRAME
290
     0
  9
$HALOGAP
280
     0
  9
$OBSCOLOR
 70
   257
  9
$OBSLTYPE
280
     0
  9
$INTERSECTIONDISPLAY
280
     0
  9
$INTERSECTIONCOLOR
 70
   257
  9
$DIMASSOC
280
     1
  9
$PROJECTNAME
  1

  0
ENDSEC
  0
SECTION
  2
CLASSES
  0
CLASS
  1
ACDBDICTIONARYWDFLT
  2
AcDbDictionaryWithDefault
  3
ObjectDBX Classes
 90
        0
 91
        1
280
     0
281
     0
  0
CLASS
  1
DICTIONARYVAR
  2
AcDbDictionaryVar
  3
ObjectDBX Classes
 90
        0
 91
        7
280
     0
281
     0
  0
CLASS
  1
MATERIAL
  2
AcDbMaterial
  3
ObjectDBX Classes
 90
     1153
 91
        3
280
     0
281
     0
  0
CLASS
  1
VISUALSTYLE
  2
AcDbVisualStyle
  3
ObjectDBX Classes
 90
     4095
 91
       24
280
     0
281
     0
  0
CLASS
  1
TABLESTYLE
  2
AcDbTableStyle
  3
ObjectDBX Classes
 90
     4095
 91
        1
280
     0
281
     0
  0
CLASS
  1
SCALE
  2
AcDbScale
  3
ObjectDBX Classes
 90
     1153
 91
       17
280
     0
281
     0
  0
CLASS
  1
MLEADERSTYLE
  2
AcDbMLeaderStyle
  3
ACDB_MLEADERSTYLE_CLASS
 90
     4095
 91
        1
280
     0
281
     0
  0
CLASS
  1
ACDBSECTIONVIEWSTYLE
  2
AcDbSectionViewStyle
  3
ObjectDBX Classes
 90
     1025
 91
        1
280
     0
281
     0
  0
CLASS
  1
ACDBDETAILVIEWSTYLE
  2
AcDbDetailViewStyle
  3
ObjectDBX Classes
 90
     1025
 91
        1
280
     0
281
     0
  0
CLASS
  1
SORTENTSTABLE
  2
AcDbSortentsTable
  3
ObjectDBX Classes
 90
        0
 91
        1
280
     0
281
     0
  0
CLASS
  1
CELLSTYLEMAP
  2
AcDbCellStyleMap
  3
ObjectDBX Classes
 90
     1152
 91
        3
280
     0
281
     0
  0
ENDSEC
  0
SECTION
  2
TABLES
  0
TABLE
  2
VPORT
  5
8
102
{ACAD_XDICTIONARY
360
832
102
}
330
0
100
AcDbSymbolTable
 70
     1
  0
VPORT
  5
72E
330
8
100
AcDbSymbolTableRecord
100
AcDbViewportTableRecord
  2
*Active
 70
     0
 10
0.0
 20
0.0
 11
1.0
 21
1.0
 12
210.0000085570858
 22
297.0000121021637
 13
0.0
 23
0.0
 14
1.0
 24
1.0
 15
10.0
 25
10.0
 16
0.0
 26
0.0
 36
1.0
 17
0.0
 27
0.0
 37
0.0
 40
598.0637400183925
 41
1.70045045045045
 42
50.0
 43
0.0
 44
0.0
 50
0.0
 51
0.0
 71
     0
 72
  1500
 73
     1
 74
     0
 75
     0
 76
     0
 77
     0
 78
     0
281
     0
 65
     1
110
0.0
120
0.0
130
0.0
111
1.0
121
0.0
131
0.0
112
0.0
122
1.0
132
0.0
 79
     0
146
0.0
1001
ACAD_NAV_VCDISPLAY
1070
     3
  0
ENDTAB
  0
TABLE
  2
LTYPE
  5
5
330
0
100
AcDbSymbolTable
 70
     5
  0
LTYPE
  5
13
330
5
100
AcDbSymbolTableRecord
100
AcDbLinetypeTableRecord
  2
ByBlock
 70
     0
  3

 72
    65
 73
     0
 40
0.0
  0
LTYPE
  5
14
330
5
100
AcDbSymbolTableRecord
100
AcDbLinetypeTableRecord
  2
ByLayer
 70
     0
  3

 72
    65
 73
     0
 40
0.0
  0
LTYPE
  5
15
330
5
100
AcDbSymbolTableRecord
100
AcDbLinetypeTableRecord
  2
Continuous
 70
     0
  3
Solid line
 72
    65
 73
     0
 40
0.0
  0
LTYPE
  5
25
330
5
100
AcDbSymbolTableRecord
100
AcDbLinetypeTableRecord
  2
STRICHPUNKT
 70
     0
  3
__ . __ . __ . __ . __ . __ . __ . __ . __ . __
 72
    65
 73
     4
 40
1.0
 49
0.5
 74
     0
 49
-0.25
 74
     0
 49
0.0
 74
     0
 49
-0.25
 74
     0
  0
LTYPE
  5
32
330
5
100
AcDbSymbolTableRecord
100
AcDbLinetypeTableRecord
  2
AUSGEZOGEN
 70
     0
  3
Ausgezogene Linie
 72
    65
 73
     0
 40
0.0
  0
LTYPE
  5
778
330
5
100
AcDbSymbolTableRecord
100
AcDbLinetypeTableRecord
  2
PHANTOM2
 70
     0
  3
Phantom (.5x) ___ _ _ ___ _ _ ___ _ _ ___ _ _
 72
    65
 73
     6
 40
1.25
 49
0.625
 74
     0
 49
-0.125
 74
     0
 49
0.125
 74
     0
 49
-0.125
 74
     0
 49
0.125
 74
     0
 49
-0.125
 74
     0
  0
ENDTAB
  0
TABLE
  2
LAYER
  5
2
102
{ACAD_XDICTIONARY
360
783
102
}
330
0
100
AcDbSymbolTable
 70
     9
  0
LAYER
  5
10
102
{ACAD_XDICTIONARY
360
81F
102
}
330
2
100
AcDbSymbolTableRecord
100
AcDbLayerTableRecord
  2
0
 70
     0
 62
     7
  6
Continuous
370
    -3
390
F
  0
LAYER
  5
2A
102
{ACAD_XDICTIONARY
360
821
102
}
330
2
100
AcDbSymbolTableRecord
100
AcDbLayerTableRecord
  2
VOLL
 70
     0
 62
     1
  6
Continuous
370
    -3
390
F
  0
LAYER
  5
2B
102
{ACAD_XDICTIONARY
360
823
102
}
330
2
100
AcDbSymbolTableRecord
100
AcDbLayerTableRecord
  2
HILF
 70
     0
 62
     2
  6
Continuous
370
    -3
390
F
  0
LAYER
  5
2C
102
{ACAD_XDICTIONARY
360
825
102
}
330
2
100
AcDbSymbolTableRecord
100
AcDbLayerTableRecord
  2
MITTEL
 70
     0
 62
     2
  6
STRICHPUNKT
370
    -3
390
F
  0
LAYER
  5
2F
102
{ACAD_XDICTIONARY
360
827
102
}
330
2
100
AcDbSymbolTableRecord
100
AcDbLayerTableRecord
  2
BEM
 70
     0
 62
     7
  6
Continuous
370
    -3
390
F
  0
LAYER
  5
30
102
{ACAD_XDICTIONARY
360
829
102
}
330
2
100
AcDbSymbolTableRecord
100
AcDbLayerTableRecord
  2
STEMPEL
 70
     0
 62
     3
  6
Continuous
370
    -3
390
F
  0
LAYER
  5
31
102
{ACAD_XDICTIONARY
360
82B
102
}
330
2
100
AcDbSymbolTableRecord
100
AcDbLayerTableRecord
  2
TEXT
 70
     0
 62
     7
  6
Continuous
370
    -3
390
F
  0
LAYER
  5
137
102
{ACAD_XDICTIONARY
360
82D
102
}
330
2
100
AcDbSymbolTableRecord
100
AcDbLayerTableRecord
  2
SCHRAFF
 70
     0
 62
     7
  6
AUSGEZOGEN
370
    -3
390
F
  0
LAYER
  5
31D
330
2
100
AcDbSymbolTableRecord
100
AcDbLayerTableRecord
  2
DEFPOINTS
 70
     0
 62
     7
  6
AUSGEZOGEN
290
     0
370
    -3
390
F
  0
ENDTAB
  0
TABLE
  2
STYLE
  5
3
330
0
100
AcDbSymbolTable
 70
     3
  0
STYLE
  5
11
330
3
100
AcDbSymbolTableRecord
100
AcDbTextStyleTableRecord
  2
STANDARD
 70
     0
 40
0.0
 41
0.8
 50
0.0
 71
     0
 42
3.5
  3
simplex.shx
  4

  0
STYLE
  5
24
330
3
100
AcDbSymbolTableRecord
100
AcDbTextStyleTableRecord
  2
GREEKS
 70
     0
 40
0.0
 41
0.8
 50
0.0
 71
     0
 42
2.5
  3
SIMPLEX.shx
  4

  0
ENDTAB
  0
TABLE
  2
VIEW
  5
6
330
0
100
AcDbSymbolTable
 70
     0
  0
ENDTAB
  0
TABLE
  2
UCS
  5
7
330
0
100
AcDbSymbolTable
 70
     0
  0
ENDTAB
  0
TABLE
  2
APPID
  5
9
330
0
100
AcDbSymbolTable
 70
     8
  0
APPID
  5
12
330
9
100
AcDbSymbolTableRecord
100
AcDbRegAppTableRecord
  2
ACAD
 70
     0
  0
APPID
  5
77F
330
9
100
AcDbSymbolTableRecord
100
AcDbRegAppTableRecord
  2
ACAD_NAV_VCDISPLAY
 70
     0
  0
APPID
  5
780
330
9
100
AcDbSymbolTableRecord
100
AcDbRegAppTableRecord
  2
GradientColor1ACI
 70
     0
  0
APPID
  5
781
330
9
100
AcDbSymbolTableRecord
100
AcDbRegAppTableRecord
  2
GradientColor2ACI
 70
     0
  0
APPID
  5
782
330
9
100
AcDbSymbolTableRecord
100
AcDbRegAppTableRecord
  2
ACAD_PSEXT
 70
     0
  0
APPID
  5
7EB
330
9
100
AcDbSymbolTableRecord
100
AcDbRegAppTableRecord
  2
ACAD_EXEMPT_FROM_CAD_STANDARDS
 70
     0
  0
APPID
  5
803
330
9
100
AcDbSymbolTableRecord
100
AcDbRegAppTableRecord
  2
AcadAnnoMonitorAlertIconDisabled
 70
     0
  0
APPID
  5
868
330
9
100
AcDbSymbolTableRecord
100
AcDbRegAppTableRecord
  2
ACAD_MLEADERVER
 70
     0
  0
ENDTAB
  0
TABLE
  2
DIMSTYLE
  5
A
330
0
100
AcDbSymbolTable
 70
     2
100
AcDbDimStyleTable
 71
     1
340
9D
  0
DIMSTYLE
105
9D
102
{ACAD_REACTORS
330
505
330
93A
330
93C
330
940
330
A04
330
A29
102
}
330
A
100
AcDbSymbolTableRecord
100
AcDbDimStyleTableRecord
  2
Standard
 70
     0
340
11
  0
ENDTAB
  0
TABLE
  2
BLOCK_RECORD
  5
1
330
0
100
AcDbSymbolTable
 70
     8
  0
BLOCK_RECORD
  5
1E
102
{ACAD_XDICTIONARY
360
A0
102
}
330
1
100
AcDbSymbolTableRecord
100
AcDbBlockTableRecord
  2
*Model_Space
340
21
  0
BLOCK_RECORD
  5
1A
102
{ACAD_XDICTIONARY
360
A2
102
}
330
1
100
AcDbSymbolTableRecord
100
AcDbBlockTableRecord
  2
*Paper_Space
340
1D
  0
BLOCK_RECORD
  5
22
330
1
100
AcDbSymbolTableRecord
100
AcDbBlockTableRecord
  2
LOGO
340
0
102
{BLKREFS
331
9B
102
}
  0
BLOCK_RECORD
  5
5F8
330
1
100
AcDbSymbolTableRecord
100
AcDbBlockTableRecord
  2
*D1
340
0
  0
BLOCK_RECORD
  5
9A7
330
1
100
AcDbSymbolTableRecord
100
AcDbBlockTableRecord
  2
*D2
340
0
  0
BLOCK_RECORD
  5
9B3
330
1
100
AcDbSymbolTableRecord
100
AcDbBlockTableRecord
  2
*D3
340
0
  0
BLOCK_RECORD
  5
9BF
330
1
100
AcDbSymbolTableRecord
100
AcDbBlockTableRecord
  2
*D4
340
0
  0
BLOCK_RECORD
  5
A0B
330
1
100
AcDbSymbolTableRecord
100
AcDbBlockTableRecord
  2
*D5
340
0
  0
BLOCK_RECORD
  5
A2A
330
1
100
AcDbSymbolTableRecord
100
AcDbBlockTableRecord
  2
*D6
340
0
  0
ENDTAB
  0
ENDSEC
  0
SECTION
  2
BLOCKS
  0
BLOCK
  5
35
330
1E
100
AcDbEntity
  8
0
100
AcDbBlockBegin
  2
*Model_Space
 70
     0
 10
0.0
 20
0.0
 30
0.0
  3
*Model_Space
  1

  0
ENDBLK
  5
36
330
1E
100
AcDbEntity
  8
0
100
AcDbBlockEnd
  0
BLOCK
  5
33
330
1A
100
AcDbEntity
 67
     1
  8
0
100
AcDbBlockBegin
  2
*Paper_Space
 70
     0
 10
0.0
 20
0.0
 30
0.0
  3
*Paper_Space
  1

  0
ENDBLK
  5
34
330
1A
100
AcDbEntity
 67
     1
  8
0
100
AcDbBlockEnd
  0
BLOCK
  5
37
330
22
100
AcDbEntity
  8
0
100
AcDbBlockBegin
  2
LOGO
 70
     0
 10
0.0
 20
0.0
 30
0.0
  3
LOGO
  1

  0
ARC
  5
38
330
22
100
AcDbEntity
  8
0
100
AcDbCircle
 10
11.59973089678112
 20
-9.271599258481501
 30
0.0
 40
4.5
100
AcDbArc
 50
270.0
 51
231.0575587310159
  0
LINE
  5
39
330
22
100
AcDbEntity
  8
0
100
AcDbLine
 10
3.599730896781125
 20
-4.771599258481529
 30
0.0
 11
3.599730896781153
 21
-11.77159925848133
 31
0.0
  0
LINE
  5
3A
330
22
100
AcDbEntity
  8
0
100
AcDbLine
 10
2.599730896781125
 20
-4.771599258481529
 30
0.0
 11
2.599730896781153
 21
-11.77159925848133
 31
0.0
  0
CIRCLE
  5
3B
330
22
100
AcDbEntity
  8
0
100
AcDbCircle
 10
11.59973089678112
 20
-9.271599258481501
 30
0.0
 40
3.5
  0
ARC
  5
3C
330
22
100
AcDbEntity
  8
0
100
AcDbCircle
 10
31.59973089678115
 20
-9.271599258481472
 30
0.0
 40
4.5
100
AcDbArc
 50
270.0
 51
231.0575587310182
  0
LINE
  5
3D
330
22
100
AcDbEntity
  8
0
100
AcDbLine
 10
17.59973089678112
 20
-4.771599258481472
 30
0.0
 11
17.59973089678115
 21
-13.77159925848147
 31
0.0
  0
ARC
  5
3E
330
22
100
AcDbEntity
  8
0
100
AcDbCircle
 10
22.59973089678116
 20
-7.271599258481472
 30
0.0
 40
2.5
100
AcDbArc
 50
293.1161887722295
 51
90.0
  0
CIRCLE
  5
3F
330
22
100
AcDbEntity
  8
0
100
AcDbCircle
 10
31.59973089678115
 20
-9.271599258481472
 30
0.0
 40
3.5
  0
ARC
  5
40
330
22
100
AcDbEntity
  8
0
100
AcDbCircle
 10
4.599730896781153
 20
-11.77159925848133
 30
0.0
 40
1.0
100
AcDbArc
 50
180.0
 51
270.0
  0
ARC
  5
41
330
22
100
AcDbEntity
  8
0
100
AcDbCircle
 10
4.599730896781153
 20
-11.77159925848133
 30
0.0
 40
2.0
100
AcDbArc
 50
179.9999999999992
 51
270.0
  0
LINE
  5
42
330
22
100
AcDbEntity
  8
0
100
AcDbLine
 10
11.59973089678115
 20
-13.77159925848144
 30
0.0
 11
4.599730896781153
 21
-13.77159925848147
 31
0.0
  0
LINE
  5
43
330
22
100
AcDbEntity
  8
0
100
AcDbLine
 10
8.771303772034769
 20
-12.77159925848136
 30
0.0
 11
4.599730896781153
 21
-12.77159925848133
 31
0.0
  0
LINE
  5
44
330
22
100
AcDbEntity
  8
0
100
AcDbLine
 10
31.59973089678115
 20
-13.77159925848147
 30
0.0
 11
23.6715276665056
 21
-13.77159925848144
 31
0.0
  0
LINE
  5
45
330
22
100
AcDbEntity
  8
0
100
AcDbLine
 10
23.56565672307022
 20
-9.51278021337896
 30
0.0
 11
24.4388546544846
 21
-12.77159925848144
 31
0.0
  0
LINE
  5
46
330
22
100
AcDbEntity
  8
0
100
AcDbLine
 10
22.59973089678116
 20
-9.771599258481472
 30
0.0
 11
18.59973089678112
 21
-9.771599258481472
 31
0.0
  0
LINE
  5
47
330
22
100
AcDbEntity
  8
0
100
AcDbLine
 10
18.59973089678115
 20
-13.77159925848144
 30
0.0
 11
17.59973089678115
 21
-13.77159925848144
 31
0.0
  0
LINE
  5
48
330
22
100
AcDbEntity
  8
0
100
AcDbLine
 10
18.59973089678115
 20
-9.771599258481472
 30
0.0
 11
18.59973089678115
 21
-13.77159925848144
 31
0.0
  0
LINE
  5
49
330
22
100
AcDbEntity
  8
0
100
AcDbLine
 10
22.59973089678116
 20
-9.771599258481472
 30
0.0
 11
23.67152766650562
 21
-13.77159925848147
 31
0.0
  0
ARC
  5
4A
330
22
100
AcDbEntity
  8
0
100
AcDbCircle
 10
22.59973089678116
 20
-7.271599258481472
 30
0.0
 40
2.5
100
AcDbArc
 50
270.0
 51
270.0000000000007
  0
LINE
  5
4B
330
22
100
AcDbEntity
  8
0
100
AcDbLine
 10
28.77130377203494
 20
-12.77159925848147
 30
0.0
 11
24.43885465448463
 21
-12.77159925848144
 31
0.0
  0
LINE
  5
4C
330
22
100
AcDbEntity
  8
0
100
AcDbLine
 10
3.599730896781125
 20
-4.771599258481472
 30
0.0
 11
2.599730896781125
 21
-4.771599258481472
 31
0.0
  0
LINE
  5
4D
330
22
100
AcDbEntity
  8
0
100
AcDbLine
 10
22.59973089678116
 20
-8.771599258481472
 30
0.0
 11
18.59973089678115
 21
-8.771599258481472
 31
0.0
  0
LINE
  5
4E
330
22
100
AcDbEntity
  8
0
100
AcDbLine
 10
22.59973089678116
 20
-5.771599258481472
 30
0.0
 11
18.59973089678115
 21
-5.771599258481472
 31
0.0
  0
LINE
  5
4F
330
22
100
AcDbEntity
  8
0
100
AcDbLine
 10
22.59973089678116
 20
-4.771599258481472
 30
0.0
 11
17.59973089678115
 21
-4.771599258481472
 31
0.0
  0
LINE
  5
50
330
22
100
AcDbEntity
  8
0
100
AcDbLine
 10
18.59973089678115
 20
-5.771599258481472
 30
0.0
 11
18.59973089678115
 21
-8.771599258481472
 31
0.0
  0
ARC
  5
51
330
22
100
AcDbEntity
  8
0
100
AcDbCircle
 10
22.59973089678116
 20
-7.271599258481472
 30
0.0
 40
1.5
100
AcDbArc
 50
270.0
 51
90.0
  0
ENDBLK
  5
52
330
22
100
AcDbEntity
  8
0
100
AcDbBlockEnd
  0
BLOCK
  5
602
330
5F8
100
AcDbEntity
  8
0
100
AcDbBlockBegin
  2
*D1
 70
     1
 10
0.0
 20
0.0
 30
0.0
  3
*D1
  1

  0
LINE
  5
A51
330
5F8
100
AcDbEntity
  8
BEM
 62
     0
440
 16777216
370
    -2
100
AcDbLine
 10
323.2171207490933
 20
444.0936439751194
 30
0.0
 11
323.2171207490933
 21
486.2841557709125
 31
0.0
  0
LINE
  5
A52
330
5F8
100
AcDbEntity
  8
BEM
 62
     0
440
 16777216
370
    -2
100
AcDbLine
 10
78.21712074909282
 20
444.0936439751194
 30
0.0
 11
78.21712074909282
 21
486.2841557709125
 31
0.0
  0
LINE
  5
A53
330
5F8
100
AcDbEntity
  8
BEM
 62
     0
440
 16777216
370
    -2
100
AcDbLine
 10
316.2171207490933
 20
484.2841557709125
 30
0.0
 11
85.21712074909283
 21
484.2841557709125
 31
0.0
  0
SOLID
  5
A54
330
5F8
100
AcDbEntity
  8
BEM
 62
     0
440
 16777216
100
AcDbTrace
 10
316.2171207490933
 20
485.4508224375792
 30
0.0
 11
316.2171207490933
 21
483.1174891042458
 31
0.0
 12
323.2171207490933
 22
484.2841557709125
 32
0.0
 13
323.2171207490933
 23
484.2841557709125
 33
0.0
  0
SOLID
  5
A55
330
5F8
100
AcDbEntity
  8
BEM
 62
     0
440
 16777216
100
AcDbTrace
 10
85.21712074909283
 20
485.4508224375792
 30
0.0
 11
85.21712074909283
 21
483.1174891042458
 31
0.0
 12
78.21712074909282
 22
484.2841557709125
 32
0.0
 13
78.21712074909282
 23
484.2841557709125
 33
0.0
  0
MTEXT
  5
A56
330
5F8
100
AcDbEntity
  8
BEM
 62
     1
440
 16777216
100
AcDbMText
 10
200.7171207490931
 20
490.7841557709125
 30
0.0
 40
7.0
 41
0.0
 71
     5
 72
     1
  1
\A1;%%c245
 73
     1
 44
1.0
  0
POINT
  5
A57
330
5F8
100
AcDbEntity
  8
DEFPOINTS
 62
     0
440
 16777216
100
AcDbPoint
 10
323.2171207490933
 20
442.0936439751194
 30
0.0
  0
POINT
  5
A58
330
5F8
100
AcDbEntity
  8
DEFPOINTS
 62
     0
440
 16777216
100
AcDbPoint
 10
78.21712074909282
 20
442.0936439751194
 30
0.0
  0
POINT
  5
A59
330
5F8
100
AcDbEntity
  8
DEFPOINTS
 62
     0
440
 16777216
100
AcDbPoint
 10
78.21712074909282
 20
484.2841557709125
 30
0.0
  0
ENDBLK
  5
603
330
5F8
100
AcDbEntity
  8
0
100
AcDbBlockEnd
  0
BLOCK
  5
9A8
330
9A7
100
AcDbEntity
  8
0
100
AcDbBlockBegin
  2
*D2
 70
     1
 10
0.0
 20
0.0
 30
0.0
  3
*D2
  1

  0
LINE
  5
A5A
330
9A7
100
AcDbEntity
  8
BEM
 62
     0
440
 16777216
370
    -2
100
AcDbLine
 10
125.7171207490932
 20
442.0329838033397
 30
0.0
 11
125.7171207490932
 21
397.3368481048197
 31
0.0
  0
LINE
  5
A5B
330
9A7
100
AcDbEntity
  8
BEM
 62
     0
440
 16777216
370
    -2
100
AcDbLine
 10
275.7171207490935
 20
442.03298380334
 30
0.0
 11
275.7171207490935
 21
397.3368481048197
 31
0.0
  0
LINE
  5
A5C
330
9A7
100
AcDbEntity
  8
BEM
 62
     0
440
 16777216
370
    -2
100
AcDbLine
 10
132.7171207490932
 20
399.3368481048197
 30
0.0
 11
268.7171207490935
 21
399.3368481048197
 31
0.0
  0
SOLID
  5
A5D
330
9A7
100
AcDbEntity
  8
BEM
 62
     0
440
 16777216
100
AcDbTrace
 10
132.7171207490932
 20
400.5035147714862
 30
0.0
 11
132.7171207490932
 21
398.170181438153
 31
0.0
 12
125.7171207490932
 22
399.3368481048197
 32
0.0
 13
125.7171207490932
 23
399.3368481048197
 33
0.0
  0
SOLID
  5
A5E
330
9A7
100
AcDbEntity
  8
BEM
 62
     0
440
 16777216
100
AcDbTrace
 10
268.7171207490935
 20
400.5035147714862
 30
0.0
 11
268.7171207490935
 21
398.170181438153
 31
0.0
 12
275.7171207490935
 22
399.3368481048197
 32
0.0
 13
275.7171207490935
 23
399.3368481048197
 33
0.0
  0
MTEXT
  5
A5F
330
9A7
100
AcDbEntity
  8
BEM
 62
     1
440
 16777216
100
AcDbMText
 10
200.7171207490934
 20
405.8368481048196
 30
0.0
 40
7.0
 41
0.0
 71
     5
 72
     1
  1
\A1;%%c150
  7
GREEKS
 73
     1
 44
1.0
  0
POINT
  5
A60
330
9A7
100
AcDbEntity
  8
DEFPOINTS
 62
     0
440
 16777216
100
AcDbPoint
 10
125.7171207490932
 20
444.0329838033396
 30
0.0
  0
POINT
  5
A61
330
9A7
100
AcDbEntity
  8
DEFPOINTS
 62
     0
440
 16777216
100
AcDbPoint
 10
275.7171207490935
 20
444.03298380334
 30
0.0
  0
POINT
  5
A62
330
9A7
100
AcDbEntity
  8
DEFPOINTS
 62
     0
440
 16777216
100
AcDbPoint
 10
275.7171207490935
 20
399.3368481048197
 30
0.0
  0
ENDBLK
  5
9A9
330
9A7
100
AcDbEntity
  8
0
100
AcDbBlockEnd
  0
BLOCK
  5
9B4
330
9B3
100
AcDbEntity
  8
0
100
AcDbBlockBegin
  2
*D3
 70
     1
 10
0.0
 20
0.0
 30
0.0
  3
*D3
  1

  0
LINE
  5
A63
330
9B3
100
AcDbEntity
  8
BEM
 62
     0
440
 16777216
370
    -2
100
AcDbLine
 10
135.7195761145714
 20
282.0329838033397
 30
0.0
 11
135.7195761145714
 21
264.0877624179557
 31
0.0
  0
LINE
  5
A64
330
9B3
100
AcDbEntity
  8
BEM
 62
     0
440
 16777216
370
    -2
100
AcDbLine
 10
265.7146653836148
 20
282.032983803338
 30
0.0
 11
265.7146653836148
 21
264.0877624179557
 31
0.0
  0
LINE
  5
A65
330
9B3
100
AcDbEntity
  8
BEM
 62
     0
440
 16777216
370
    -2
100
AcDbLine
 10
142.7195761145714
 20
266.0877624179557
 30
0.0
 11
258.7146653836148
 21
266.0877624179557
 31
0.0
  0
SOLID
  5
A66
330
9B3
100
AcDbEntity
  8
BEM
 62
     0
440
 16777216
100
AcDbTrace
 10
142.7195761145714
 20
267.2544290846224
 30
0.0
 11
142.7195761145714
 21
264.921095751289
 31
0.0
 12
135.7195761145714
 22
266.0877624179557
 32
0.0
 13
135.7195761145714
 23
266.0877624179557
 33
0.0
  0
SOLID
  5
A67
330
9B3
100
AcDbEntity
  8
BEM
 62
     0
440
 16777216
100
AcDbTrace
 10
258.7146653836148
 20
267.2544290846224
 30
0.0
 11
258.7146653836148
 21
264.921095751289
 31
0.0
 12
265.7146653836148
 22
266.0877624179557
 32
0.0
 13
265.7146653836148
 23
266.0877624179557
 33
0.0
  0
MTEXT
  5
A68
330
9B3
100
AcDbEntity
  8
BEM
 62
     1
440
 16777216
100
AcDbMText
 10
200.7171207490932
 20
272.5877624179557
 30
0.0
 40
7.0
 41
0.0
 71
     5
 72
     1
  1
\A1;%%c130
  7
GREEKS
 73
     1
 44
1.0
  0
POINT
  5
A69
330
9B3
100
AcDbEntity
  8
DEFPOINTS
 62
     0
440
 16777216
100
AcDbPoint
 10
135.7195761145714
 20
284.0329838033397
 30
0.0
  0
POINT
  5
A6A
330
9B3
100
AcDbEntity
  8
DEFPOINTS
 62
     0
440
 16777216
100
AcDbPoint
 10
265.7146653836148
 20
284.032983803338
 30
0.0
  0
POINT
  5
A6B
330
9B3
100
AcDbEntity
  8
DEFPOINTS
 62
     0
440
 16777216
100
AcDbPoint
 10
265.7146653836148
 20
266.0877624179557
 30
0.0
  0
ENDBLK
  5
9B5
330
9B3
100
AcDbEntity
  8
0
100
AcDbBlockEnd
  0
BLOCK
  5
9C0
330
9BF
100
AcDbEntity
  8
0
100
AcDbBlockBegin
  2
*D4
 70
     1
 10
0.0
 20
0.0
 30
0.0
  3
*D4
  1

  0
LINE
  5
A6C
330
9BF
100
AcDbEntity
  8
BEM
 62
     0
440
 16777216
370
    -2
100
AcDbLine
 10
82.434635170365
 20
444.0329838033403
 30
0.0
 11
67.57533729075523
 21
444.0329838033403
 31
0.0
  0
LINE
  5
A6D
330
9BF
100
AcDbEntity
  8
BEM
 62
     0
440
 16777216
370
    -2
100
AcDbLine
 10
133.7195761145714
 20
284.0329838033397
 30
0.0
 11
67.57533729075518
 21
284.0329838033397
 31
0.0
  0
LINE
  5
A6E
330
9BF
100
AcDbEntity
  8
BEM
 62
     0
440
 16777216
370
    -2
100
AcDbLine
 10
69.57533729075523
 20
437.0329838033403
 30
0.0
 11
69.5753372907552
 21
291.0329838033397
 31
0.0
  0
SOLID
  5
A6F
330
9BF
100
AcDbEntity
  8
BEM
 62
     0
440
 16777216
100
AcDbTrace
 10
68.40867062408856
 20
437.0329838033403
 30
0.0
 11
70.7420039574219
 21
437.0329838033403
 31
0.0
 12
69.57533729075523
 22
444.0329838033403
 32
0.0
 13
69.57533729075523
 23
444.0329838033403
 33
0.0
  0
SOLID
  5
A70
330
9BF
100
AcDbEntity
  8
BEM
 62
     0
440
 16777216
100
AcDbTrace
 10
68.40867062408853
 20
291.0329838033397
 30
0.0
 11
70.74200395742187
 21
291.0329838033397
 31
0.0
 12
69.57533729075518
 22
284.0329838033397
 32
0.0
 13
69.57533729075518
 23
284.0329838033397
 33
0.0
  0
MTEXT
  5
A71
330
9BF
100
AcDbEntity
  8
BEM
 62
     1
440
 16777216
100
AcDbMText
 10
63.07533729075515
 20
364.03298380334
 30
0.0
 40
7.0
 41
0.0
 71
     5
 72
     1
  1
\A1;160
  7
GREEKS
 11
0.0000000000000001
 21
1.0
 31
0.0
 73
     1
 44
1.0
  0
POINT
  5
A72
330
9BF
100
AcDbEntity
  8
DEFPOINTS
 62
     0
440
 16777216
100
AcDbPoint
 10
84.434635170365
 20
444.0329838033403
 30
0.0
  0
POINT
  5
A73
330
9BF
100
AcDbEntity
  8
DEFPOINTS
 62
     0
440
 16777216
100
AcDbPoint
 10
135.7195761145714
 20
284.0329838033397
 30
0.0
  0
POINT
  5
A74
330
9BF
100
AcDbEntity
  8
DEFPOINTS
 62
     0
440
 16777216
100
AcDbPoint
 10
69.57533729075518
 20
284.0329838033397
 30
0.0
  0
ENDBLK
  5
9C1
330
9BF
100
AcDbEntity
  8
0
100
AcDbBlockEnd
  0
BLOCK
  5
A0C
330
A0B
100
AcDbEntity
  8
0
100
AcDbBlockBegin
  2
*D5
 70
     1
 10
0.0
 20
0.0
 30
0.0
  3
*D5
  1

  0
LINE
  5
A75
330
A0B
100
AcDbEntity
  8
BEM
 62
     0
440
 16777216
370
    -2
100
AcDbLine
 10
174.2171207490935
 20
188.9674923889777
 30
0.0
 11
174.2171207490935
 21
163.8929203674545
 31
0.0
  0
LINE
  5
A76
330
A0B
100
AcDbEntity
  8
BEM
 62
     0
440
 16777216
370
    -2
100
AcDbLine
 10
227.2171207490933
 20
188.9674923889869
 30
0.0
 11
227.2171207490933
 21
163.8929203674545
 31
0.0
  0
LINE
  5
A77
330
A0B
100
AcDbEntity
  8
BEM
 62
     0
440
 16777216
370
    -2
100
AcDbLine
 10
181.2171207490935
 20
165.8929203674546
 30
0.0
 11
220.2171207490933
 21
165.8929203674546
 31
0.0
  0
SOLID
  5
A78
330
A0B
100
AcDbEntity
  8
BEM
 62
     0
440
 16777216
100
AcDbTrace
 10
181.2171207490935
 20
167.0595870341212
 30
0.0
 11
181.2171207490935
 21
164.7262537007879
 31
0.0
 12
174.2171207490935
 22
165.8929203674546
 32
0.0
 13
174.2171207490935
 23
165.8929203674546
 33
0.0
  0
SOLID
  5
A79
330
A0B
100
AcDbEntity
  8
BEM
 62
     0
440
 16777216
100
AcDbTrace
 10
220.2171207490933
 20
167.0595870341212
 30
0.0
 11
220.2171207490933
 21
164.7262537007879
 31
0.0
 12
227.2171207490933
 22
165.8929203674546
 32
0.0
 13
227.2171207490933
 23
165.8929203674546
 33
0.0
  0
MTEXT
  5
A7A
330
A0B
100
AcDbEntity
  8
BEM
 62
     1
440
 16777216
100
AcDbMText
 10
200.7171207490934
 20
172.3929203674545
 30
0.0
 40
7.0
 41
0.0
 71
     5
 72
     1
  1
\A1;%%C53
 73
     1
 44
1.0
  0
POINT
  5
A7B
330
A0B
100
AcDbEntity
  8
DEFPOINTS
 62
     0
440
 16777216
100
AcDbPoint
 10
174.2171207490935
 20
190.9674923889777
 30
0.0
  0
POINT
  5
A7C
330
A0B
100
AcDbEntity
  8
DEFPOINTS
 62
     0
440
 16777216
100
AcDbPoint
 10
227.2171207490933
 20
190.9674923889869
 30
0.0
  0
POINT
  5
A7D
330
A0B
100
AcDbEntity
  8
DEFPOINTS
 62
     0
440
 16777216
100
AcDbPoint
 10
227.2171207490933
 20
165.8929203674546
 30
0.0
  0
ENDBLK
  5
A0D
330
A0B
100
AcDbEntity
  8
0
100
AcDbBlockEnd
  0
BLOCK
  5
A2B
330
A2A
100
AcDbEntity
  8
0
100
AcDbBlockBegin
  2
*D6
 70
     1
 10
0.0
 20
0.0
 30
0.0
  3
*D6
  1

  0
LINE
  5
A7E
330
A2A
100
AcDbEntity
  8
BEM
 62
     0
440
 16777216
370
    -2
100
AcDbLine
 10
172.6488343104078
 20
186.0329838033402
 30
0.0
 11
52.28091553069994
 21
186.0329838033402
 31
0.0
  0
LINE
  5
A7F
330
A2A
100
AcDbEntity
  8
BEM
 62
     0
440
 16777216
370
    -2
100
AcDbLine
 10
76.21712074909289
 20
446.03298380334
 30
0.0
 11
52.2809155307
 21
446.03298380334
 31
0.0
  0
LINE
  5
A80
330
A2A
100
AcDbEntity
  8
BEM
 62
     0
440
 16777216
370
    -2
100
AcDbLine
 10
54.28091553069994
 20
193.0329838033402
 30
0.0
 11
54.2809155307
 21
439.03298380334
 31
0.0
  0
SOLID
  5
A81
330
A2A
100
AcDbEntity
  8
BEM
 62
     0
440
 16777216
100
AcDbTrace
 10
53.11424886403328
 20
193.0329838033402
 30
0.0
 11
55.4475821973666
 21
193.0329838033402
 31
0.0
 12
54.28091553069994
 22
186.0329838033402
 32
0.0
 13
54.28091553069994
 23
186.0329838033402
 33
0.0
  0
SOLID
  5
A82
330
A2A
100
AcDbEntity
  8
BEM
 62
     0
440
 16777216
100
AcDbTrace
 10
53.11424886403333
 20
439.03298380334
 30
0.0
 11
55.44758219736666
 21
439.03298380334
 31
0.0
 12
54.2809155307
 22
446.03298380334
 32
0.0
 13
54.2809155307
 23
446.03298380334
 33
0.0
  0
MTEXT
  5
A83
330
A2A
100
AcDbEntity
  8
BEM
 62
     1
440
 16777216
100
AcDbMText
 10
47.78091553069992
 20
316.0329838033401
 30
0.0
 40
7.0
 41
0.0
 71
     5
 72
     1
  1
\A1;260
 11
0.0000000000000001
 21
1.0
 31
0.0
 73
     1
 44
1.0
  0
POINT
  5
A84
330
A2A
100
AcDbEntity
  8
DEFPOINTS
 62
     0
440
 16777216
100
AcDbPoint
 10
174.6488343104078
 20
186.0329838033402
 30
0.0
  0
POINT
  5
A85
330
A2A
100
AcDbEntity
  8
DEFPOINTS
 62
     0
440
 16777216
100
AcDbPoint
 10
78.21712074909289
 20
446.03298380334
 30
0.0
  0
POINT
  5
A86
330
A2A
100
AcDbEntity
  8
DEFPOINTS
 62
     0
440
 16777216
100
AcDbPoint
 10
54.2809155307
 20
446.03298380334
 30
0.0
  0
ENDBLK
  5
A2C
330
A2A
100
AcDbEntity
  8
0
100
AcDbBlockEnd
  0
ENDSEC
  0
SECTION
  2
ENTITIES
  0
LINE
  5
57
330
1E
100
AcDbEntity
  8
STEMPEL
100
AcDbLine
 10
410.0
 20
110.0
 30
0.0
 11
39.99999999999997
 21
110.0
 31
0.0
  0
LINE
  5
58
330
1E
100
AcDbEntity
  8
STEMPEL
100
AcDbLine
 10
141.0000000000001
 20
109.9999999999999
 30
0.0
 11
141.0
 21
9.999999999999971
 31
0.0
  0
LINE
  5
59
330
1E
100
AcDbEntity
  8
STEMPEL
100
AcDbLine
 10
225.0
 20
110.0
 30
0.0
 11
225.0
 21
9.999999999999971
 31
0.0
  0
LINE
  5
5A
330
1E
100
AcDbEntity
  8
STEMPEL
100
AcDbLine
 10
332.0
 20
109.9999999999997
 30
0.0
 11
332.0
 21
40.0
 31
0.0
  0
LINE
  5
5B
330
1E
100
AcDbEntity
  8
STEMPEL
100
AcDbLine
 10
140.9999999999999
 20
29.99999999999997
 30
0.0
 11
39.99999999999997
 21
29.99999999999997
 31
0.0
  0
LINE
  5
5C
330
1E
100
AcDbEntity
  8
STEMPEL
100
AcDbLine
 10
410.0
 20
40.0
 30
0.0
 11
141.0000000000001
 21
39.99999999999997
 31
0.0
  0
LINE
  5
5D
330
1E
100
AcDbEntity
  8
STEMPEL
100
AcDbLine
 10
410.0
 20
80.0
 30
0.0
 11
141.0000000000001
 21
79.99999999999994
 31
0.0
  0
LINE
  5
5E
330
1E
100
AcDbEntity
  8
VOLL
100
AcDbLine
 10
54.00000000000009
 20
110.0
 30
0.0
 11
53.99999999999997
 21
9.999999999999971
 31
0.0
  0
LINE
  5
5F
330
1E
100
AcDbEntity
  8
VOLL
100
AcDbLine
 10
99.00000000000012
 20
109.9999999999999
 30
0.0
 11
99.0
 21
9.999999999999971
 31
0.0
  0
LINE
  5
60
330
1E
100
AcDbEntity
  8
VOLL
100
AcDbLine
 10
119.0000000000001
 20
109.9999999999999
 30
0.0
 11
119.0
 21
9.999999999999971
 31
0.0
  0
LINE
  5
61
330
1E
100
AcDbEntity
  8
VOLL
100
AcDbLine
 10
159.0000000000001
 20
79.99999999999994
 30
0.0
 11
159.0000000000001
 21
39.99999999999997
 31
0.0
  0
LINE
  5
62
330
1E
100
AcDbEntity
  8
VOLL
100
AcDbLine
 10
185.0000000000001
 20
109.9999999999998
 30
0.0
 11
185.0
 21
39.99999999999997
 31
0.0
  0
LINE
  5
63
330
1E
100
AcDbEntity
  8
HILF
100
AcDbLine
 10
40.00000000000008
 20
100.0
 30
0.0
 11
141.0000000000001
 21
100.0
 31
0.0
  0
LINE
  5
64
330
1E
100
AcDbEntity
  8
HILF
100
AcDbLine
 10
40.00000000000008
 20
90.00000000000005
 30
0.0
 11
141.0000000000001
 21
90.00000000000005
 31
0.0
  0
LINE
  5
65
330
1E
100
AcDbEntity
  8
HILF
100
AcDbLine
 10
40.00000000000008
 20
79.99999999999994
 30
0.0
 11
141.0000000000001
 21
79.99999999999994
 31
0.0
  0
LINE
  5
66
330
1E
100
AcDbEntity
  8
HILF
100
AcDbLine
 10
40.00000000000008
 20
69.99999999999994
 30
0.0
 11
141.0000000000001
 21
69.99999999999994
 31
0.0
  0
LINE
  5
67
330
1E
100
AcDbEntity
  8
HILF
100
AcDbLine
 10
40.00000000000008
 20
59.99999999999997
 30
0.0
 11
141.0000000000001
 21
59.99999999999997
 31
0.0
  0
LINE
  5
68
330
1E
100
AcDbEntity
  8
HILF
100
AcDbLine
 10
40.00000000000008
 20
49.99999999999997
 30
0.0
 11
141.0000000000001
 21
49.99999999999997
 31
0.0
  0
LINE
  5
69
330
1E
100
AcDbEntity
  8
HILF
100
AcDbLine
 10
40.00000000000008
 20
39.99999999999997
 30
0.0
 11
141.0000000000001
 21
39.99999999999997
 31
0.0
  0
LINE
  5
6A
330
1E
100
AcDbEntity
  8
HILF
100
AcDbLine
 10
141.0000000000001
 20
69.99999999999994
 30
0.0
 11
225.0
 21
69.99999999999994
 31
0.0
  0
LINE
  5
6B
330
1E
100
AcDbEntity
  8
HILF
100
AcDbLine
 10
141.0000000000001
 20
59.99999999999997
 30
0.0
 11
225.0
 21
59.99999999999997
 31
0.0
  0
LINE
  5
6C
330
1E
100
AcDbEntity
  8
HILF
100
AcDbLine
 10
141.0000000000001
 20
49.99999999999997
 30
0.0
 11
225.0
 21
49.99999999999997
 31
0.0
  0
LINE
  5
6D
330
1E
100
AcDbEntity
  8
HILF
100
AcDbLine
 10
229.7736801096947
 20
84.03758247564139
 30
0.0
 11
324.8353916556311
 21
84.03758247564139
 31
0.0
  0
LINE
  5
6E
330
1E
100
AcDbEntity
  8
HILF
100
AcDbLine
 10
229.7736801096947
 20
69.99999999999994
 30
0.0
 11
324.835391655631
 21
69.99999999999994
 31
0.0
  0
LINE
  5
6F
330
1E
100
AcDbEntity
  8
HILF
100
AcDbLine
 10
229.7736801096947
 20
59.99999999999997
 30
0.0
 11
324.835391655631
 21
59.99999999999997
 31
0.0
  0
LINE
  5
70
330
1E
100
AcDbEntity
  8
HILF
100
AcDbLine
 10
229.7736801096947
 20
49.99999999999997
 30
0.0
 11
324.835391655631
 21
49.99999999999997
 31
0.0
  0
LINE
  5
71
330
1E
100
AcDbEntity
  8
VOLL
100
AcDbLine
 10
332.0
 20
60.0
 30
0.0
 11
410.0
 21
60.0
 31
0.0
  0
LINE
  5
72
330
1E
100
AcDbEntity
  8
HILF
100
AcDbLine
 10
336.7238616296993
 20
83.77983636955827
 30
0.0
 11
404.8588839326728
 21
83.77983636955827
 31
0.0
  0
LINE
  5
73
330
1E
100
AcDbEntity
  8
HILF
100
AcDbLine
 10
228.4909699289885
 20
14.89398258028314
 30
0.0
 11
404.8588839326728
 21
14.89398258028314
 31
0.0
  0
TEXT
  5
74
330
1E
100
AcDbEntity
  8
TEXT
100
AcDbText
 10
63.86165979631819
 20
18.67381894984132
 30
0.0
 40
4.0
  1
Änderung
 41
0.8
  7
GREEKS
 72
     1
 11
74.60451693917534
 21
18.67381894984132
 31
0.0
100
AcDbText
  0
TEXT
  5
75
330
1E
100
AcDbEntity
  8
TEXT
100
AcDbText
 10
148.5163572150377
 20
102.4620895087088
 30
0.0
 40
5.0
  1
Maßstab
 41
0.8
  7
GREEKS
100
AcDbText
  0
TEXT
  5
76
330
1E
100
AcDbEntity
  8
TEXT
100
AcDbText
 10
189.2858954734051
 20
102.4184168434819
 30
0.0
 40
5.0
  1
Zul. Abw.
 41
0.8
  7
GREEKS
100
AcDbText
  0
TEXT
  5
77
330
1E
100
AcDbEntity
  8
TEXT
100
AcDbText
 10
229.877940380901
 20
102.5489328011779
 30
0.0
 40
5.0
  1
Benennung
 41
0.8
  7
GREEKS
100
AcDbText
  0
TEXT
  5
78
330
1E
100
AcDbEntity
  8
TEXT
100
AcDbText
 10
336.178754957634
 20
102.3132034537136
 30
0.0
 40
5.0
  1
Zeichnungs Nr.
 41
0.8
  7
GREEKS
100
AcDbText
  0
TEXT
  5
79
330
1E
100
AcDbEntity
  8
TEXT
100
AcDbText
 10
229.742238391136
 20
30.84560570193057
 30
0.0
 40
5.0
  1
Bauvorhaben
 41
0.8
  7
GREEKS
100
AcDbText
  0
TEXT
  5
7A
330
1E
100
AcDbEntity
  8
TEXT
100
AcDbText
 10
336.7238616296993
 20
73.1811823709997
 30
0.0
 40
5.0
  1
Ersatz für:
 41
0.8
  7
GREEKS
100
AcDbText
  0
TEXT
  5
7B
330
1E
100
AcDbEntity
  8
TEXT
100
AcDbText
 10
48.26641107045756
 20
13.65465846027192
 30
0.0
 40
4.0
  1
Index
 50
90.0
 41
0.8
  7
GREEKS
100
AcDbText
  0
TEXT
  5
7C
330
1E
100
AcDbEntity
  8
TEXT
100
AcDbText
 10
105.0934676075481
 20
18.6715626933981
 30
0.0
 40
4.0
  1
Tag
 41
0.8
  7
GREEKS
 72
     1
 11
108.8268009408814
 21
18.6715626933981
 31
0.0
100
AcDbText
  0
TEXT
  5
7D
330
1E
100
AcDbEntity
  8
TEXT
100
AcDbText
 10
124.0122744386592
 20
18.59324216966408
 30
0.0
 40
4.0
  1
Name
 41
0.8
  7
GREEKS
 72
     1
 11
130.3360839624688
 21
18.59324216966408
 31
0.0
100
AcDbText
  0
TEXT
  5
7E
330
1E
100
AcDbEntity
  8
TEXT
100
AcDbText
 10
167.331167315365
 20
73.31880501229926
 30
0.0
 40
4.0
  1
Tag
 41
0.8
  7
GREEKS
100
AcDbText
  0
TEXT
  5
7F
330
1E
100
AcDbEntity
  8
TEXT
100
AcDbText
 10
197.4626584226295
 20
73.30961091915225
 30
0.0
 40
4.0
  1
Name
 41
0.8
  7
GREEKS
100
AcDbText
  0
TEXT
  5
80
330
1E
100
AcDbEntity
  8
TEXT
100
AcDbText
 10
142.5836127167615
 20
63.62990369617964
 30
0.0
 40
4.0
  1
Gez.
 41
0.8
  7
GREEKS
100
AcDbText
  0
TEXT
  5
81
330
1E
100
AcDbEntity
  8
TEXT
100
AcDbText
 10
142.5515086571672
 20
53.68926291428377
 30
0.0
 40
4.0
  1
Gepr.
 41
0.8
  7
GREEKS
100
AcDbText
  0
TEXT
  5
82
330
1E
100
AcDbEntity
  8
TEXT
100
AcDbText
 10
142.6006777387303
 20
43.52946389649807
 30
0.0
 40
4.0
  1
Norm.
 41
0.8
  7
GREEKS
100
AcDbText
  0
LINE
  5
83
330
1E
100
AcDbEntity
  8
STEMPEL
100
AcDbLine
 10
49.99999999999989
 20
10.0
 30
0.0
 11
410.0
 21
10.0
 31
0.0
  0
TEXT
  5
84
330
1E
100
AcDbEntity
  8
TEXT
100
AcDbText
 10
337.2400861497006
 20
52.07416177878602
 30
0.0
 40
5.0
  1
ersetzt durch:
 41
0.8
  7
GREEKS
100
AcDbText
  0
LINE
  5
85
330
1E
100
AcDbEntity
  8
STEMPEL
100
AcDbLine
 10
410.0
 20
10.0
 30
0.0
 11
39.99999999999989
 21
10.0
 31
0.0
  0
LINE
  5
86
330
1E
100
AcDbEntity
  8
STEMPEL
100
AcDbLine
 10
410.0
 20
10.0
 30
0.0
 11
410.0
 21
584.0
 31
0.0
  0
LINE
  5
87
330
1E
100
AcDbEntity
  8
STEMPEL
100
AcDbLine
 10
40.0
 20
10.0
 30
0.0
 11
39.99999999999989
 21
584.0
 31
0.0
  0
LINE
  5
88
330
1E
100
AcDbEntity
  8
STEMPEL
100
AcDbLine
 10
410.0
 20
584.0
 30
0.0
 11
39.99999999999989
 21
584.0
 31
0.0
  0
LINE
  5
89
330
1E
100
AcDbEntity
  8
HILF
100
AcDbLine
 10
0.0
 20
0.0
 30
0.0
 11
-0.0000000000001137
 21
594.0
 31
0.0
  0
LINE
  5
8A
330
1E
100
AcDbEntity
  8
HILF
100
AcDbLine
 10
419.9999999999999
 20
594.0000000000002
 30
0.0
 11
0.0
 21
594.0
 31
0.0
  0
LINE
  5
8B
330
1E
100
AcDbEntity
  8
HILF
100
AcDbLine
 10
420.0
 20
0.0
 30
0.0
 11
0.0
 21
0.0
 31
0.0
  0
LINE
  5
8C
330
1E
100
AcDbEntity
  8
HILF
100
AcDbLine
 10
31.08767135713856
 20
297.0
 30
0.0
 11
0.0000000000001137
 21
297.0
 31
0.0
  0
TEXT
  5
8D
330
1E
100
AcDbEntity
  8
TEXT
100
AcDbText
 10
143.622109822104
 20
73.14025471151666
 30
0.0
 40
4.0
  1
2014
 41
0.8
  7
GREEKS
100
AcDbText
  0
LINE
  5
8E
330
1E
100
AcDbEntity
  8
HILF
100
AcDbLine
 10
420.0
 20
-0.0000000000001137
 30
0.0
 11
419.9999999999999
 21
594.0
 31
0.0
  0
TEXT
  5
8F
330
1E
100
AcDbEntity
  8
VOLL
100
AcDbText
 10
78.07675471698113
 20
31.02594776470585
 30
0.0
 40
1.8
  1

  7
GREEKS
100
AcDbText
  0
TEXT
  5
90
330
1E
100
AcDbEntity
  8
TEXT
100
AcDbText
 10
41.85509950977674
 20
111.6719999999999
 30
0.0
 40
5.0
  1
Erstellt mit AUTOCAD 2004
 41
0.8
  7
GREEKS
100
AcDbText
  0
TEXT
  5
93
330
1E
100
AcDbEntity
  8
TEXT
 62
     1
100
AcDbText
 10
155.5006306481887
 20
88.14901428913959
 30
0.0
 40
7.0
  1
1:2
 41
0.8
  7
GREEKS
100
AcDbText
  0
INSERT
  5
9B
330
1E
100
AcDbEntity
  8
STEMPEL
100
AcDbBlockReference
  2
LOGO
 10
145.9955485457794
 20
45.02105276448322
 30
0.0
 41
2.0
 42
2.0
 43
2.0
  0
TEXT
  5
118
330
1E
100
AcDbEntity
  8
BEM
100
AcDbText
 10
417.3022923857165
 20
10.16790107998849
 30
0.0
 40
4.0
  1
Diese Zeichnung ist urheberrechtlich geschützt und bleibt unser Eigentum. Sie darf weder ganz noch teilweise verfielfältigt und nicht an Dritte weitergegeben werden.
 50
90.0
 41
0.8
  7
GREEKS
100
AcDbText
  0
TEXT
  5
3A8
330
1E
100
AcDbEntity
  8
TEXT
100
AcDbText
 10
166.0085209177599
 20
63.10765040825732
 30
0.0
 40
4.0
  1
16.01.
 41
0.8
  7
GREEKS
 72
     1
 11
172.4085209177599
 21
63.10765040825732
 31
0.0
100
AcDbText
  0
TEXT
  5
3A9
330
1E
100
AcDbEntity
  8
TEXT
100
AcDbText
 10
199.4216048581257
 20
63.0896391972351
 30
0.0
 40
4.0
  1
Koeh
 41
0.8
  7
GREEKS
 72
     1
 11
204.6787477152686
 21
63.0896391972351
 31
0.0
100
AcDbText
  0
TEXT
  5
3AA
330
1E
100
AcDbEntity
  8
TEXT
100
AcDbText
 10
187.626132208084
 20
90.76363841023022
 30
0.0
 40
4.0
  1
DIN EN1124-3
 41
0.8
  7
GREEKS
 72
     1
 11
204.6166083985602
 21
90.76363841023022
 31
0.0
100
AcDbText
  0
TEXT
  5
3AB
330
1E
100
AcDbEntity
  8
TEXT
 62
     1
100
AcDbText
 10
229.7736801096947
 20
87.41748789253779
 30
0.0
 40
7.0
  1
Grundeinheit DN50
 41
0.8
  7
GREEKS
100
AcDbText
  0
TEXT
  5
3AD
330
1E
100
AcDbEntity
  8
TEXT
100
AcDbText
 10
230.1296391125315
 20
51.5033441758529
 30
0.0
 40
5.0
  1
EDV-Art.Nr. 21902.050X
 41
0.8
  7
GREEKS
100
AcDbText
  0
TEXT
  5
3AE
330
1E
100
AcDbEntity
  8
TEXT
100
AcDbText
 10
229.9837501577826
 20
42.62974153022632
 30
0.0
 40
4.0
  1
21902050W.DWG
 41
0.8
  7
GREEKS
100
AcDbText
  0
TEXT
  5
3B0
330
1E
100
AcDbEntity
  8
TEXT
 62
     1
100
AcDbText
 10
347.0742235297263
 20
87.41748789253779
 30
0.0
 40
7.0
  1
21902050W
 41
0.8
  7
GREEKS
 72
     1
 11
370.540890196393
 21
87.41748789253779
 31
0.0
100
AcDbText
  0
DIMENSION
  5
505
330
1E
100
AcDbEntity
  8
BEM
100
AcDbDimension
  2
*D1
 10
78.21712074909282
 20
484.2841557709125
 30
0.0
 11
200.7171207490931
 21
490.7841557709125
 31
0.0
 70
    32
  1
%%c<>
 71
     5
 42
245.0000000000005
  3
Standard
100
AcDbAlignedDimension
 13
323.2171207490933
 23
442.0936439751194
 33
0.0
 14
78.21712074909282
 24
442.0936439751194
 34
0.0
100
AcDbRotatedDimension
1001
ACAD
1000
DSTYLE
1002
{
1070
    40
1040
2.0
1070
    41
1040
3.5
1070
    42
1040
1.0
1070
    43
1040
7.0
1070
    44
1040
1.0
1070
    47
1040
2.0
1070
    48
1040
2.0
1070
    73
1070
     0
1070
    74
1070
     0
1070
    77
1070
     1
1070
    78
1070
     8
1070
    79
1070
     2
1070
   140
1040
3.5
1070
   141
1040
1.5
1070
   146
1040
0.5
1070
   147
1040
1.5
1070
   172
1070
     1
1070
   178
1070
     1
1070
   179
1070
     2
1070
   279
1070
     0
1002
}
  0
HATCH
  5
50F
330
1E
100
AcDbEntity
  8
SCHRAFF
100
AcDbHatch
 10
0.0
 20
0.0
 30
0.0
210
0.0
220
0.0
230
1.0
  2
_USER
 70
     0
 71
     0
 91
        5
 92
        7
 72
     1
 73
     1
 93
       12
 10
70.71712074909254
 20
472.0329838033369
 42
0.0
 10
74.71712074909231
 20
472.0329838033373
 42
0.0
 10
74.71712074909266
 20
469.0329838033383
 42
0.0
 10
75.21712074909243
 20
469.0329838033382
 42
0.0
 10
75.21712074909249
 20
466.0329838033382
 42
0.0
 10
74.71712074909271
 20
466.0329838033383
 42
0.0
 10
74.71712074909271
 20
458.0329838033384
 42
0.0
 10
75.21712074909271
 20
458.0329838033383
 42
0.0
 10
75.21712074909271
 20
455.0329838033383
 42
0.0
 10
74.71712074909271
 20
455.0329838033383
 42
0.0
 10
74.71712074909288
 20
452.0878878405602
 42
-0.3763797779543461
 10
70.45681793960778
 20
457.1202458355235
 42
0.0
 97
        0
 92
        7
 72
     1
 73
     1
 93
       11
 10
82.71712074909277
 20
465.5299973025503
 42
0.0
 10
86.76901636829194
 20
469.0598857706013
 42
0.0
 10
86.87573949788406
 20
462.9457217711514
 42
0.4091108014277268
 10
91.87497797366621
 20
458.0329838033377
 42
0.0
 10
135.2171207490927
 20
458.032983803339
 42
-1.0
 10
135.2171207490929
 20
452.0329838033385
 42
0.0
 10
82.71712074909288
 20
452.0329838033374
 42
0.0
 10
82.71712074909283
 20
455.0329838033385
 42
0.0
 10
82.21712074909282
 20
455.0329838033384
 42
0.0
 10
82.21712074909271
 20
458.0329838033384
 42
0.0
 10
82.71712074909272
 20
458.0329838033384
 42
0.0
 97
        0
 92
        7
 72
     0
 73
     1
 93
        8
 10
82.71712074909254
 20
465.5299973025504
 10
82.71712074909272
 20
466.0329838033383
 10
82.21712074909248
 20
466.0329838033383
 10
82.21712074909243
 20
469.0329838033383
 10
82.71712074909265
 20
469.0329838033383
 10
82.71712074909231
 20
472.0329838033384
 10
86.71712074909255
 20
472.0329838033388
 10
86.76901636829184
 20
469.0598857706011
 97
        0
 92
        7
 72
     1
 73
     1
 93
        4
 10
284.2171207490931
 20
458.0329838033431
 42
0.0
 10
284.2171207490935
 20
452.0329838033418
 42
0.0
 10
266.217120749093
 20
452.0329838033413
 42
-1.0
 10
266.2171207490927
 20
458.0329838033425
 42
0.0
 97
        0
 92
        7
 72
     1
 73
     1
 93
        4
 10
312.7171207490929
 20
458.0329838033438
 42
-1.0
 10
312.7171207490931
 20
452.0329838033424
 42
0.0
 10
297.2171207490934
 20
452.0329838033419
 42
0.0
 10
297.217120749093
 20
458.0329838033433
 42
0.0
 97
        0
 75
     0
 76
     0
 52
45.0
 41
5.0
 77
     0
 78
     1
 53
135.0000000000016
 43
402.1455104173353
 44
-57.65628744122796
 45
3.535533905932636
 46
3.535533905932838
 79
     0
 47
0.4273487917069632
 98
        5
 10
72.21508415304157
 20
460.2279207382114
 10
84.61727679276339
 20
458.9458746406204
 10
85.04493654144317
 20
469.6295935188315
 10
274.4991204707078
 20
455.099734949569
 10
304.0077847776317
 20
455.954432347964
  0
LINE
  5
510
330
1E
100
AcDbEntity
  8
STEMPEL
100
AcDbLine
 10
312.7171207490929
 20
458.0329838033438
 30
0.0
 11
91.87497797366621
 21
458.0329838033377
 31
0.0
  0
LINE
  5
511
102
{ACAD_REACTORS
330
72D
102
}
330
1E
100
AcDbEntity
  8
STEMPEL
100
AcDbLine
 10
78.21712074909289
 20
449.03298380334
 30
0.0
 11
285.7171207490931
 21
449.03298380334
 31
0.0
  0
LINE
  5
513
330
1E
100
AcDbEntity
  8
STEMPEL
100
AcDbLine
 10
75.45605641538958
 20
452.03298380334
 30
0.0
 11
285.717120749093
 21
452.0329838033399
 31
0.0
  0
LINE
  5
51A
330
1E
100
AcDbEntity
  8
STEMPEL
100
AcDbLine
 10
183.9671207490932
 20
470.0329838033401
 30
0.0
 11
193.967120749093
 21
470.0329838033401
 31
0.0
  0
LINE
  5
51B
330
1E
100
AcDbEntity
  8
STEMPEL
100
AcDbLine
 10
192.9671207490932
 20
471.0329838033401
 30
0.0
 11
184.9671207490932
 21
471.0329838033401
 31
0.0
  0
LINE
  5
520
102
{ACAD_REACTORS
330
72D
102
}
330
1E
100
AcDbEntity
  8
STEMPEL
100
AcDbLine
 10
78.21712074909289
 20
446.0329838033401
 30
0.0
 11
323.217120749093
 21
446.0329838033399
 31
0.0
  0
LINE
  5
528
330
1E
100
AcDbEntity
  8
MITTEL
100
AcDbLine
 10
78.7171207490922
 20
477.0329838033378
 30
0.0
 11
78.71712074909277
 21
456.6762106707423
 31
0.0
  0
LINE
  5
529
102
{ACAD_REACTORS
330
72D
102
}
330
1E
100
AcDbEntity
  8
MITTEL
100
AcDbLine
 10
117.567120749093
 20
476.0329838033401
 30
0.0
 11
117.567120749093
 21
441.0329838033397
 31
0.0
  0
LINE
  5
52A
330
1E
100
AcDbEntity
  8
STEMPEL
100
AcDbLine
 10
122.5671207490932
 20
470.0329838033401
 30
0.0
 11
121.5671207490932
 21
471.0329838033401
 31
0.0
  0
LINE
  5
52B
330
1E
100
AcDbEntity
  8
STEMPEL
100
AcDbLine
 10
112.5671207490932
 20
470.0329838033401
 30
0.0
 11
122.567120749093
 21
470.0329838033401
 31
0.0
  0
ARC
  5
532
330
1E
100
AcDbEntity
  8
STEMPEL
100
AcDbCircle
 10
92.31442144102834
 20
463.0329838033389
 30
0.0
 40
5.0
100
AcDbArc
 50
181.0000000000017
 51
270.0000000000017
  0
ARC
  5
533
330
1E
100
AcDbEntity
  8
STEMPEL
100
AcDbCircle
 10
91.87497797366608
 20
463.0329838033377
 30
0.0
 40
5.0
100
AcDbArc
 50
181.0000000000017
 51
270.0000000000017
  0
LINE
  5
534
330
1E
100
AcDbEntity
  8
STEMPEL
100
AcDbLine
 10
87.1565642164548
 20
472.0329838033388
 30
0.0
 11
70.71712074909254
 21
472.0329838033369
 31
0.0
  0
ARC
  5
535
330
1E
100
AcDbEntity
  8
STEMPEL
100
AcDbCircle
 10
75.45605641538958
 20
457.0329838033372
 30
0.0
 40
5.0
100
AcDbArc
 50
179.0000000000047
 51
270.0000000000017
  0
LINE
  5
536
330
1E
100
AcDbEntity
  8
STEMPEL
100
AcDbLine
 10
70.71712074909254
 20
472.0329838033369
 30
0.0
 11
70.45681793960778
 21
457.1202458355235
 31
0.0
  0
LINE
  5
539
102
{ACAD_REACTORS
330
72D
102
}
330
1E
100
AcDbEntity
  8
STEMPEL
100
AcDbLine
 10
78.21712074909289
 20
446.03298380334
 30
0.0
 11
78.21712074909289
 21
449.03298380334
 31
0.0
  0
HATCH
  5
53D
330
1E
100
AcDbEntity
  8
SCHRAFF
100
AcDbHatch
 10
0.0
 20
0.0
 30
0.0
210
0.0
220
0.0
230
1.0
  2
_USER
 70
     0
 71
     0
 91
        4
 92
        7
 72
     0
 73
     1
 93
       12
 10
81.71712074909232
 20
472.0329838033383
 10
82.71712074909231
 20
472.0329838033384
 10
82.71712074909265
 20
469.0329838033384
 10
82.21712074909243
 20
469.0329838033384
 10
82.21712074909248
 20
466.0329838033383
 10
82.71712074909272
 20
466.0329838033383
 10
82.71712074909272
 20
458.0329838033384
 10
82.21712074909271
 20
458.0329838033384
 10
82.21712074909282
 20
455.0329838033385
 10
82.71712074909283
 20
455.0329838033385
 10
82.71712074909288
 20
452.032983803338
 10
81.71712074909288
 20
452.0329838033378
 97
        0
 92
        7
 72
     0
 73
     1
 93
        5
 10
80.71712074909232
 20
472.0329838033383
 10
81.71712074909232
 20
472.0329838033381
 10
81.71712074909288
 20
452.0329838033378
 10
81.49120051469123
 20
452.0329838033378
 10
80.71712074909283
 20
454.296629257272
 97
        0
 92
        7
 72
     0
 73
     1
 93
        4
 10
75.71712074909232
 20
472.0329838033383
 10
76.71712074909232
 20
472.0329838033383
 10
76.71712074909288
 20
452.0329838033376
 10
75.71712074909289
 20
452.0329838033377
 97
        0
 92
        7
 72
     0
 73
     1
 93
       12
 10
74.71712074909231
 20
472.0329838033381
 10
75.71712074909254
 20
472.032983803338
 10
75.71712074909289
 20
452.0329838033376
 10
74.71712074909288
 20
452.0329838033375
 10
74.71712074909283
 20
455.0329838033383
 10
75.21712074909283
 20
455.0329838033383
 10
75.21712074909271
 20
458.0329838033383
 10
74.71712074909271
 20
458.0329838033384
 10
74.71712074909271
 20
466.0329838033382
 10
75.21712074909249
 20
466.0329838033382
 10
75.21712074909243
 20
469.0329838033382
 10
74.71712074909243
 20
469.0329838033382
 97
        0
 75
     0
 76
     0
 52
135.0
 41
1.0
 77
     0
 78
     1
 53
45.00000000000163
 43
425.7171207491071
 44
-50.99055181523806
 45
0.7071067811865677
 46
-0.7071067811865274
 79
     0
 47
0.0527561546155446
 98
        4
 10
82.05516901002875
 20
470.433814497287
 10
80.99932977729805
 20
470.433814497287
 10
75.93130635705302
 20
470.6975948819095
 10
75.08663541603801
 20
470.6448379751259
  0
LINE
  5
53E
330
1E
100
AcDbEntity
  8
STEMPEL
100
AcDbLine
 10
74.71712074909271
 20
458.0329838033383
 30
0.0
 11
74.71712074909271
 21
466.0329838033382
 31
0.0
  0
LINE
  5
53F
330
1E
100
AcDbEntity
  8
STEMPEL
100
AcDbLine
 10
80.71712074909289
 20
452.0329838033382
 30
0.0
 11
80.71712074909232
 21
472.0329838033383
 31
0.0
  0
LINE
  5
540
330
1E
100
AcDbEntity
  8
STEMPEL
100
AcDbLine
 10
76.71712074909288
 20
452.032983803338
 30
0.0
 11
76.71712074909232
 21
472.0329838033381
 31
0.0
  0
LINE
  5
541
330
1E
100
AcDbEntity
  8
HILF
100
AcDbLine
 10
75.71712074909289
 20
452.032983803338
 30
0.0
 11
75.71712074909232
 21
472.0329838033381
 31
0.0
  0
LINE
  5
542
330
1E
100
AcDbEntity
  8
STEMPEL
100
AcDbLine
 10
74.71712074909271
 20
458.0329838033384
 30
0.0
 11
75.21712074909271
 21
458.0329838033383
 31
0.0
  0
LINE
  5
543
330
1E
100
AcDbEntity
  8
STEMPEL
100
AcDbLine
 10
74.71712074909288
 20
452.0329838033382
 30
0.0
 11
74.71712074909283
 21
455.0329838033383
 31
0.0
  0
LINE
  5
544
330
1E
100
AcDbEntity
  8
STEMPEL
100
AcDbLine
 10
74.71712074909283
 20
455.0329838033383
 30
0.0
 11
75.21712074909283
 21
455.0329838033383
 31
0.0
  0
LINE
  5
545
330
1E
100
AcDbEntity
  8
STEMPEL
100
AcDbLine
 10
75.21712074909283
 20
455.0329838033383
 30
0.0
 11
75.21712074909271
 21
458.0329838033384
 31
0.0
  0
LINE
  5
547
330
1E
100
AcDbEntity
  8
STEMPEL
100
AcDbLine
 10
74.71712074909266
 20
469.0329838033382
 30
0.0
 11
74.71712074909231
 21
472.0329838033381
 31
0.0
  0
LINE
  5
548
330
1E
100
AcDbEntity
  8
STEMPEL
100
AcDbLine
 10
74.71712074909243
 20
469.0329838033382
 30
0.0
 11
75.21712074909243
 21
469.0329838033382
 31
0.0
  0
LINE
  5
549
330
1E
100
AcDbEntity
  8
STEMPEL
100
AcDbLine
 10
74.71712074909248
 20
466.0329838033382
 30
0.0
 11
75.21712074909249
 21
466.0329838033382
 31
0.0
  0
LINE
  5
54A
330
1E
100
AcDbEntity
  8
STEMPEL
100
AcDbLine
 10
75.21712074909249
 20
466.0329838033382
 30
0.0
 11
75.21712074909243
 21
469.0329838033383
 31
0.0
  0
LINE
  5
54B
330
1E
100
AcDbEntity
  8
STEMPEL
100
AcDbLine
 10
82.71712074909272
 20
458.0329838033383
 30
0.0
 11
82.71712074909272
 21
466.0329838033383
 31
0.0
  0
LINE
  5
54C
330
1E
100
AcDbEntity
  8
HILF
100
AcDbLine
 10
81.71712074909288
 20
452.0329838033382
 30
0.0
 11
81.71712074909232
 21
472.0329838033383
 31
0.0
  0
LINE
  5
54D
330
1E
100
AcDbEntity
  8
STEMPEL
100
AcDbLine
 10
82.21712074909271
 20
458.0329838033384
 30
0.0
 11
82.71712074909272
 21
458.0329838033384
 31
0.0
  0
LINE
  5
54E
330
1E
100
AcDbEntity
  8
STEMPEL
100
AcDbLine
 10
82.71712074909288
 20
452.0329838033385
 30
0.0
 11
82.71712074909283
 21
455.0329838033385
 31
0.0
  0
LINE
  5
54F
330
1E
100
AcDbEntity
  8
STEMPEL
100
AcDbLine
 10
82.21712074909282
 20
455.0329838033385
 30
0.0
 11
82.71712074909283
 21
455.0329838033385
 31
0.0
  0
LINE
  5
550
330
1E
100
AcDbEntity
  8
STEMPEL
100
AcDbLine
 10
82.21712074909282
 20
455.0329838033384
 30
0.0
 11
82.21712074909271
 21
458.0329838033384
 31
0.0
  0
LINE
  5
551
330
1E
100
AcDbEntity
  8
STEMPEL
100
AcDbLine
 10
82.71712074909265
 20
469.0329838033383
 30
0.0
 11
82.71712074909231
 21
472.0329838033384
 31
0.0
  0
LINE
  5
552
330
1E
100
AcDbEntity
  8
STEMPEL
100
AcDbLine
 10
82.21712074909243
 20
469.0329838033384
 30
0.0
 11
82.71712074909244
 21
469.0329838033384
 31
0.0
  0
LINE
  5
553
330
1E
100
AcDbEntity
  8
STEMPEL
100
AcDbLine
 10
82.21712074909248
 20
466.0329838033383
 30
0.0
 11
82.71712074909249
 21
466.0329838033383
 31
0.0
  0
LINE
  5
554
330
1E
100
AcDbEntity
  8
STEMPEL
100
AcDbLine
 10
82.21712074909248
 20
466.0329838033383
 30
0.0
 11
82.21712074909243
 21
469.0329838033385
 31
0.0
  0
LINE
  5
555
330
1E
100
AcDbEntity
  8
STEMPEL
100
AcDbLine
 10
87.1565642164548
 20
472.0329838033385
 30
0.0
 11
87.31518296524631
 21
462.9457217711524
 31
0.0
  0
LINE
  5
556
330
1E
100
AcDbEntity
  8
STEMPEL
100
AcDbLine
 10
86.71712074909255
 20
472.0329838033373
 30
0.0
 11
86.87573949788406
 21
462.9457217711514
 31
0.0
  0
LINE
  5
557
330
1E
100
AcDbEntity
  8
HILF
100
AcDbLine
 10
121.567120749093
 20
452.0329838033399
 30
0.0
 11
121.567120749093
 21
449.03298380334
 31
0.0
  0
LINE
  5
558
330
1E
100
AcDbEntity
  8
STEMPEL
100
AcDbLine
 10
112.5671207490929
 20
452.0329838033399
 30
0.0
 11
112.567120749093
 21
449.0329838033401
 31
0.0
  0
LINE
  5
559
330
1E
100
AcDbEntity
  8
HILF
100
AcDbLine
 10
113.5671207490929
 20
452.0329838033399
 30
0.0
 11
113.567120749093
 21
449.03298380334
 31
0.0
  0
LINE
  5
55A
330
1E
100
AcDbEntity
  8
STEMPEL
100
AcDbLine
 10
121.5671207490932
 20
471.0329838033401
 30
0.0
 11
113.5671207490932
 21
471.0329838033401
 31
0.0
  0
LINE
  5
55F
330
1E
100
AcDbEntity
  8
STEMPEL
100
AcDbLine
 10
113.5671207490932
 20
471.0329838033401
 30
0.0
 11
112.5671207490932
 21
470.0329838033401
 31
0.0
  0
LINE
  5
561
330
1E
100
AcDbEntity
  8
HILF
100
AcDbLine
 10
113.5671207490932
 20
471.0329838033401
 30
0.0
 11
113.5671207490932
 21
468.0329838033384
 31
0.0
  0
LINE
  5
562
330
1E
100
AcDbEntity
  8
STEMPEL
100
AcDbLine
 10
112.5671207490932
 20
470.0329838033401
 30
0.0
 11
112.5671207490931
 21
468.0329838033383
 31
0.0
  0
LINE
  5
563
330
1E
100
AcDbEntity
  8
HILF
100
AcDbLine
 10
121.5671207490932
 20
471.0329838033401
 30
0.0
 11
121.5671207490932
 21
468.0329838033384
 31
0.0
  0
LINE
  5
567
330
1E
100
AcDbEntity
  8
STEMPEL
100
AcDbLine
 10
122.5671207490931
 20
452.0329838033399
 30
0.0
 11
122.5671207490931
 21
449.03298380334
 31
0.0
  0
LINE
  5
568
102
{ACAD_REACTORS
330
72D
102
}
330
1E
100
AcDbEntity
  8
STEMPEL
100
AcDbLine
 10
138.2171207490929
 20
446.03298380334
 30
0.0
 11
138.2171207490929
 21
449.03298380334
 31
0.0
  0
LINE
  5
56D
330
1E
100
AcDbEntity
  8
STEMPEL
100
AcDbLine
 10
122.5671207490932
 20
470.0329838033401
 30
0.0
 11
122.5671207490932
 21
468.0329838033383
 31
0.0
  0
ARC
  5
56F
330
1E
100
AcDbEntity
  8
STEMPEL
100
AcDbCircle
 10
135.2171207490928
 20
455.0329838033388
 30
0.0
 40
3.0
100
AcDbArc
 50
270.0000000000017
 51
90.00000000000161
  0
LINE
  5
577
330
1E
100
AcDbEntity
  8
STEMPEL
100
AcDbLine
 10
183.9671207490932
 20
452.0329838033399
 30
0.0
 11
183.9671207490932
 21
449.03298380334
 31
0.0
  0
LINE
  5
578
330
1E
100
AcDbEntity
  8
HILF
100
AcDbLine
 10
184.9671207490932
 20
452.0329838033399
 30
0.0
 11
184.9671207490932
 21
449.03298380334
 31
0.0
  0
LINE
  5
57E
330
1E
100
AcDbEntity
  8
STEMPEL
100
AcDbLine
 10
184.9671207490932
 20
471.0329838033401
 30
0.0
 11
183.9671207490932
 21
470.0329838033401
 31
0.0
  0
LINE
  5
57F
330
1E
100
AcDbEntity
  8
STEMPEL
100
AcDbLine
 10
183.9671207490932
 20
470.0329838033401
 30
0.0
 11
183.9671207490932
 21
468.0329838033403
 31
0.0
  0
LINE
  5
580
330
1E
100
AcDbEntity
  8
HILF
100
AcDbLine
 10
184.9671207490932
 20
471.0329838033401
 30
0.0
 11
184.9671207490932
 21
468.0329838033403
 31
0.0
  0
LINE
  5
584
330
1E
100
AcDbEntity
  8
MITTEL
100
AcDbLine
 10
200.717120749093
 20
463.0329838033406
 30
0.0
 11
200.717120749093
 21
411.8882737659248
 31
0.0
  0
LINE
  5
58D
330
1E
100
AcDbEntity
  8
STEMPEL
100
AcDbLine
 10
295.717120749093
 20
452.0329838033399
 30
0.0
 11
312.7171207490923
 21
452.0329838033399
 31
0.0
  0
LINE
  5
591
102
{ACAD_REACTORS
330
72D
102
}
330
1E
100
AcDbEntity
  8
STEMPEL
100
AcDbLine
 10
295.7171207490931
 20
449.03298380334
 30
0.0
 11
323.217120749093
 21
449.03298380334
 31
0.0
  0
LINE
  5
596
330
1E
100
AcDbEntity
  8
MITTEL
100
AcDbLine
 10
297.5062282646225
 20
477.0329838033437
 30
0.0
 11
297.5062282646229
 21
463.2160732425911
 31
0.0
  0
LINE
  5
597
330
1E
100
AcDbEntity
  8
MITTEL
100
AcDbLine
 10
188.967120749093
 20
476.0329838033401
 30
0.0
 11
188.967120749093
 21
441.0329838033397
 31
0.0
  0
LINE
  5
598
330
1E
100
AcDbEntity
  8
MITTEL
100
AcDbLine
 10
245.7171207490933
 20
476.0329838033401
 30
0.0
 11
245.7171207490933
 21
441.0329838033397
 31
0.0
  0
LINE
  5
599
330
1E
100
AcDbEntity
  8
MITTEL
100
AcDbLine
 10
290.7171207490931
 20
476.0329838033398
 30
0.0
 11
290.7171207490933
 21
441.0329838033397
 31
0.0
  0
LINE
  5
59F
330
1E
100
AcDbEntity
  8
HILF
100
AcDbLine
 10
192.9671207490932
 20
452.0329838033399
 30
0.0
 11
192.9671207490932
 21
449.03298380334
 31
0.0
  0
LINE
  5
5A0
330
1E
100
AcDbEntity
  8
STEMPEL
100
AcDbLine
 10
193.9671207490932
 20
452.0329838033399
 30
0.0
 11
193.9671207490932
 21
449.03298380334
 31
0.0
  0
LINE
  5
5A4
330
1E
100
AcDbEntity
  8
STEMPEL
100
AcDbLine
 10
193.9671207490932
 20
470.0329838033401
 30
0.0
 11
192.9671207490932
 21
471.0329838033401
 31
0.0
  0
LINE
  5
5A5
330
1E
100
AcDbEntity
  8
HILF
100
AcDbLine
 10
192.9671207490932
 20
471.0329838033401
 30
0.0
 11
192.9671207490932
 21
468.0329838033403
 31
0.0
  0
LINE
  5
5A6
330
1E
100
AcDbEntity
  8
STEMPEL
100
AcDbLine
 10
193.9671207490932
 20
470.0329838033401
 30
0.0
 11
193.9671207490932
 21
468.0329838033403
 31
0.0
  0
LINE
  5
5AF
330
1E
100
AcDbEntity
  8
STEMPEL
100
AcDbLine
 10
240.7171207490933
 20
452.0329838033399
 30
0.0
 11
240.7171207490933
 21
449.0329838033401
 31
0.0
  0
LINE
  5
5B0
330
1E
100
AcDbEntity
  8
HILF
100
AcDbLine
 10
241.7171207490933
 20
452.0329838033399
 30
0.0
 11
241.7171207490933
 21
449.03298380334
 31
0.0
  0
LINE
  5
5B1
330
1E
100
AcDbEntity
  8
HILF
100
AcDbLine
 10
249.7171207490933
 20
452.0329838033399
 30
0.0
 11
249.7171207490933
 21
449.03298380334
 31
0.0
  0
LINE
  5
5B2
330
1E
100
AcDbEntity
  8
STEMPEL
100
AcDbLine
 10
250.7171207490933
 20
452.0329838033399
 30
0.0
 11
250.7171207490933
 21
449.03298380334
 31
0.0
  0
LINE
  5
5BA
330
1E
100
AcDbEntity
  8
STEMPEL
100
AcDbLine
 10
249.7171207490933
 20
471.0329838033401
 30
0.0
 11
241.7171207490933
 21
471.0329838033401
 31
0.0
  0
LINE
  5
5BB
330
1E
100
AcDbEntity
  8
STEMPEL
100
AcDbLine
 10
240.7171207490933
 20
470.0329838033401
 30
0.0
 11
250.7171207490931
 21
470.0329838033401
 31
0.0
  0
LINE
  5
5BC
330
1E
100
AcDbEntity
  8
STEMPEL
100
AcDbLine
 10
241.7171207490933
 20
471.0329838033401
 30
0.0
 11
240.7171207490933
 21
470.0329838033401
 31
0.0
  0
LINE
  5
5BE
330
1E
100
AcDbEntity
  8
STEMPEL
100
AcDbLine
 10
240.7171207490933
 20
470.0329838033401
 30
0.0
 11
240.7171207490933
 21
468.0329838033419
 31
0.0
  0
LINE
  5
5BF
330
1E
100
AcDbEntity
  8
HILF
100
AcDbLine
 10
241.7171207490933
 20
471.0329838033401
 30
0.0
 11
241.7171207490933
 21
468.0329838033419
 31
0.0
  0
LINE
  5
5C1
330
1E
100
AcDbEntity
  8
STEMPEL
100
AcDbLine
 10
250.7171207490933
 20
470.0329838033401
 30
0.0
 11
249.7171207490933
 21
471.0329838033401
 31
0.0
  0
LINE
  5
5C2
330
1E
100
AcDbEntity
  8
STEMPEL
100
AcDbLine
 10
250.7171207490933
 20
470.0329838033399
 30
0.0
 11
250.7171207490933
 21
468.0329838033419
 31
0.0
  0
LINE
  5
5C3
330
1E
100
AcDbEntity
  8
HILF
100
AcDbLine
 10
249.7171207490933
 20
471.0329838033401
 30
0.0
 11
249.7171207490933
 21
468.0329838033419
 31
0.0
  0
LINE
  5
5C8
330
1E
100
AcDbEntity
  8
STEMPEL
100
AcDbLine
 10
286.7171207490931
 20
471.0329838033405
 30
0.0
 11
285.7171207490931
 21
470.0329838033406
 31
0.0
  0
LINE
  5
5C9
330
1E
100
AcDbEntity
  8
STEMPEL
100
AcDbLine
 10
285.7171207490931
 20
470.0329838033406
 30
0.0
 11
295.717120749093
 21
470.0329838033406
 31
0.0
  0
LINE
  5
5CE
102
{ACAD_REACTORS
330
72D
102
}
330
1E
100
AcDbEntity
  8
STEMPEL
100
AcDbLine
 10
263.217120749093
 20
446.03298380334
 30
0.0
 11
263.217120749093
 21
449.03298380334
 31
0.0
  0
ARC
  5
5D1
330
1E
100
AcDbEntity
  8
STEMPEL
100
AcDbCircle
 10
266.2171207490928
 20
455.0329838033427
 30
0.0
 40
3.0
100
AcDbArc
 50
90.00000000000161
 51
270.0000000000017
  0
LINE
  5
5D3
330
1E
100
AcDbEntity
  8
STEMPEL
100
AcDbLine
 10
285.7171207490931
 20
458.032983803343
 30
0.0
 11
285.7171207490931
 21
446.0329838033405
 31
0.0
  0
LINE
  5
5D4
102
{ACAD_REACTORS
330
72D
102
}
330
1E
100
AcDbEntity
  8
STEMPEL
100
AcDbLine
 10
284.217120749093
 20
446.0329838033398
 30
0.0
 11
284.217120749093
 21
449.0329838033399
 31
0.0
  0
LINE
  5
5D7
330
1E
100
AcDbEntity
  8
STEMPEL
100
AcDbLine
 10
284.2171207490931
 20
458.0329838033434
 30
0.0
 11
284.2171207490934
 21
452.0329838033416
 31
0.0
  0
LINE
  5
5DC
330
1E
100
AcDbEntity
  8
STEMPEL
100
AcDbLine
 10
285.7171207490931
 20
470.0329838033406
 30
0.0
 11
285.7171207490931
 21
468.0329838033431
 31
0.0
  0
LINE
  5
5DD
330
1E
100
AcDbEntity
  8
STEMPEL
100
AcDbLine
 10
308.52767420496
 20
472.0329838033449
 30
0.0
 11
286.2969302730533
 21
472.0329838033426
 31
0.0
  0
LINE
  5
5DE
330
1E
100
AcDbEntity
  8
STEMPEL
100
AcDbLine
 10
295.717120749093
 20
458.0329838033433
 30
0.0
 11
295.717120749093
 21
446.0329838033405
 31
0.0
  0
LINE
  5
5DF
330
1E
100
AcDbEntity
  8
HILF
100
AcDbLine
 10
294.7171207490931
 20
458.0329838033432
 30
0.0
 11
294.7171207490931
 21
446.0329838033405
 31
0.0
  0
LINE
  5
5E0
330
1E
100
AcDbEntity
  8
HILF
100
AcDbLine
 10
286.7171207490931
 20
458.032983803343
 30
0.0
 11
286.7171207490931
 21
446.0329838033405
 31
0.0
  0
LINE
  5
5E1
102
{ACAD_REACTORS
330
72D
102
}
330
1E
100
AcDbEntity
  8
STEMPEL
100
AcDbLine
 10
297.217120749093
 20
446.0329838033398
 30
0.0
 11
297.217120749093
 21
449.0329838033399
 31
0.0
  0
LINE
  5
5E2
330
1E
100
AcDbEntity
  8
STEMPEL
100
AcDbLine
 10
294.7171207490931
 20
471.0329838033405
 30
0.0
 11
286.7171207490931
 21
471.0329838033405
 31
0.0
  0
LINE
  5
5E3
330
1E
100
AcDbEntity
  8
STEMPEL
100
AcDbLine
 10
286.2969302730533
 20
472.0329838033426
 30
0.0
 11
286.2717003664252
 21
470.5875634206728
 31
0.0
  0
LINE
  5
5E4
330
1E
100
AcDbEntity
  8
HILF
100
AcDbLine
 10
286.7171207490931
 20
471.0329838033405
 30
0.0
 11
286.7171207490931
 21
468.0329838033432
 31
0.0
  0
LINE
  5
5E6
330
1E
100
AcDbEntity
  8
STEMPEL
100
AcDbLine
 10
297.217120749093
 20
458.0329838033438
 30
0.0
 11
297.2171207490934
 21
452.0329838033418
 31
0.0
  0
LINE
  5
5EB
330
1E
100
AcDbEntity
  8
STEMPEL
100
AcDbLine
 10
295.6835089485064
 20
472.0329838033437
 30
0.0
 11
295.6835089485064
 21
470.0665956039271
 31
0.0
  0
LINE
  5
5EC
330
1E
100
AcDbEntity
  8
STEMPEL
100
AcDbLine
 10
295.717120749093
 20
470.0329838033406
 30
0.0
 11
294.7171207490931
 21
471.0329838033405
 31
0.0
  0
LINE
  5
5ED
330
1E
100
AcDbEntity
  8
STEMPEL
100
AcDbLine
 10
295.717120749093
 20
470.0329838033406
 30
0.0
 11
295.7171207490931
 21
468.0329838033432
 31
0.0
  0
LINE
  5
5EE
330
1E
100
AcDbEntity
  8
HILF
100
AcDbLine
 10
294.7171207490931
 20
471.0329838033405
 30
0.0
 11
294.7171207490931
 21
468.0329838033432
 31
0.0
  0
LWPOLYLINE
  5
5F0
330
1E
100
AcDbEntity
  8
STEMPEL
100
AcDbPolyline
 90
       10
 70
   128
 43
0.0
 10
310.3208630724211
 20
458.0329838033438
 10
310.0370229500453
 20
458.107619331937
 10
309.7618071661579
 20
458.329258154948
 10
309.5035780130862
 20
458.6911658888944
 10
309.2701816529765
 20
459.1823461504141
 10
309.0687097161259
 20
459.7878746758101
 10
308.9052838253863
 20
460.4893527872506
 10
308.7848695937501
 20
461.2654664272844
 10
308.7111257467132
 20
462.0926337756915
 10
308.6862929537515
 20
462.9457217711575
  0
LINE
  5
5F1
330
1E
100
AcDbEntity
  8
STEMPEL
100
AcDbLine
 10
308.52767420496
 20
472.0329838033449
 30
0.0
 11
308.6862929537515
 21
462.9457217711588
 31
0.0
  0
ARC
  5
5F2
330
1E
100
AcDbEntity
  8
STEMPEL
100
AcDbCircle
 10
312.7171207490923
 20
455.032983803343
 30
0.0
 40
3.000000000000682
100
AcDbArc
 50
270.0000000000147
 51
89.99999999998861
  0
LINE
  5
5F6
102
{ACAD_REACTORS
330
72D
102
}
330
1E
100
AcDbEntity
  8
STEMPEL
100
AcDbLine
 10
323.217120749093
 20
446.03298380334
 30
0.0
 11
323.217120749093
 21
449.03298380334
 31
0.0
  0
ARC
  5
678
330
1E
100
AcDbEntity
  8
STEMPEL
100
AcDbCircle
 10
117.567120749093
 20
437.7220946708836
 30
0.0
 40
30.31088913245485
100
AcDbArc
 50
81.78678929826224
 51
98.21321070173775
  0
ARC
  5
679
330
1E
100
AcDbEntity
  8
STEMPEL
100
AcDbCircle
 10
111.0719302207097
 20
460.3386780955539
 30
0.0
 40
7.694305707784447
100
AcDbArc
 50
73.65710669401495
 51
106.342893305985
  0
ARC
  5
67A
330
1E
100
AcDbEntity
  8
STEMPEL
100
AcDbCircle
 10
124.0623112774763
 20
460.3386780955539
 30
0.0
 40
7.694305707784447
100
AcDbArc
 50
73.65710669401495
 51
106.342893305985
  0
ARC
  5
67B
330
1E
100
AcDbEntity
  8
HILF
100
AcDbCircle
 10
117.567120749093
 20
438.1345227556771
 30
0.0
 40
22.41111549782308
100
AcDbArc
 50
78.85962783890616
 51
101.1403721610938
  0
ARC
  5
67C
330
1E
100
AcDbEntity
  8
HILF
100
AcDbCircle
 10
124.0623112774763
 20
454.7844976538088
 30
0.0
 40
5.761140599691502
100
AcDbArc
 50
67.92594526326201
 51
112.074054736738
  0
ARC
  5
67D
330
1E
100
AcDbEntity
  8
HILF
100
AcDbCircle
 10
111.0719302207097
 20
454.7844976538088
 30
0.0
 40
5.761140599691502
100
AcDbArc
 50
67.92594526326201
 51
112.074054736738
  0
POINT
  5
67E
330
1E
100
AcDbEntity
  8
0
100
AcDbPoint
 10
117.567120749093
 20
458.0329838033384
 30
0.0
210
0.0000000000000001
220
1.0
230
0.0
  0
LINE
  5
67F
330
1E
100
AcDbEntity
  8
STEMPEL
100
AcDbLine
 10
110.067120749093
 20
468.0329838033384
 30
0.0
 11
125.0671207490929
 21
468.0329838033384
 31
0.0
  0
LINE
  5
680
330
1E
100
AcDbEntity
  8
STEMPEL
100
AcDbLine
 10
126.2273747869374
 20
460.1233403195382
 30
0.0
 11
126.2273747869374
 21
467.722094670883
 31
0.0
  0
LINE
  5
681
330
1E
100
AcDbEntity
  8
STEMPEL
100
AcDbLine
 10
121.8972477680152
 20
460.1233403195382
 30
0.0
 11
121.8972477680152
 21
467.722094670883
 31
0.0
  0
LINE
  5
682
330
1E
100
AcDbEntity
  8
STEMPEL
100
AcDbLine
 10
113.2369937301708
 20
460.1233403195382
 30
0.0
 11
113.2369937301708
 21
467.722094670883
 31
0.0
  0
LINE
  5
683
330
1E
100
AcDbEntity
  8
STEMPEL
100
AcDbLine
 10
127.9736358565872
 20
459.4877532689278
 30
0.0
 11
107.1606056415987
 21
459.4877532689278
 31
0.0
  0
LINE
  5
684
330
1E
100
AcDbEntity
  8
STEMPEL
100
AcDbLine
 10
127.717120749093
 20
458.0329838033384
 30
0.0
 11
107.417120749093
 21
458.0329838033384
 31
0.0
  0
LINE
  5
685
330
1E
100
AcDbEntity
  8
STEMPEL
100
AcDbLine
 10
108.9068667112486
 20
460.1233403195382
 30
0.0
 11
108.9068667112486
 21
467.722094670883
 31
0.0
  0
LINE
  5
686
330
1E
100
AcDbEntity
  8
STEMPEL
100
AcDbLine
 10
110.067120749093
 20
468.0329838033384
 30
0.0
 11
108.9068667112486
 21
467.722094670883
 31
0.0
  0
LINE
  5
687
330
1E
100
AcDbEntity
  8
STEMPEL
100
AcDbLine
 10
126.2273747869374
 20
467.722094670883
 30
0.0
 11
125.0671207490929
 21
468.0329838033384
 31
0.0
  0
LINE
  5
688
330
1E
100
AcDbEntity
  8
STEMPEL
100
AcDbLine
 10
127.9736358565872
 20
459.4877532689278
 30
0.0
 11
126.2273747869374
 21
460.1233403195382
 31
0.0
  0
LINE
  5
689
330
1E
100
AcDbEntity
  8
STEMPEL
100
AcDbLine
 10
108.9068667112486
 20
460.1233403195382
 30
0.0
 11
107.1606056415987
 21
459.4877532689278
 31
0.0
  0
ARC
  5
68A
330
1E
100
AcDbEntity
  8
STEMPEL
100
AcDbCircle
 10
107.417120749093
 20
458.7829838033384
 30
0.0
 40
0.7500000000000013
100
AcDbArc
 50
109.9999999999996
 51
269.9999991462263
  0
ARC
  5
68B
330
1E
100
AcDbEntity
  8
STEMPEL
100
AcDbCircle
 10
127.717120749093
 20
458.7829838033384
 30
0.0
 40
0.750000000000001
100
AcDbArc
 50
269.9999991462263
 51
70.00000000000039
  0
ARC
  5
6A5
330
1E
100
AcDbEntity
  8
STEMPEL
100
AcDbCircle
 10
188.967120749093
 20
437.7220946708855
 30
0.0
 40
30.31088913245485
100
AcDbArc
 50
81.78678929826224
 51
98.21321070173775
  0
ARC
  5
6A6
330
1E
100
AcDbEntity
  8
STEMPEL
100
AcDbCircle
 10
182.4719302207097
 20
460.3386780955559
 30
0.0
 40
7.694305707784447
100
AcDbArc
 50
73.65710669401495
 51
106.342893305985
  0
ARC
  5
6A7
330
1E
100
AcDbEntity
  8
STEMPEL
100
AcDbCircle
 10
195.4623112774763
 20
460.3386780955559
 30
0.0
 40
7.694305707784447
100
AcDbArc
 50
73.65710669401495
 51
106.342893305985
  0
ARC
  5
6A8
330
1E
100
AcDbEntity
  8
HILF
100
AcDbCircle
 10
188.967120749093
 20
438.1345227556791
 30
0.0
 40
22.41111549782308
100
AcDbArc
 50
78.85962783890616
 51
101.1403721610938
  0
ARC
  5
6A9
330
1E
100
AcDbEntity
  8
HILF
100
AcDbCircle
 10
195.4623112774763
 20
454.7844976538107
 30
0.0
 40
5.761140599691502
100
AcDbArc
 50
67.92594526326201
 51
112.074054736738
  0
ARC
  5
6AA
330
1E
100
AcDbEntity
  8
HILF
100
AcDbCircle
 10
182.4719302207097
 20
454.7844976538107
 30
0.0
 40
5.761140599691502
100
AcDbArc
 50
67.92594526326201
 51
112.074054736738
  0
POINT
  5
6AB
330
1E
100
AcDbEntity
  8
0
100
AcDbPoint
 10
188.967120749093
 20
458.0329838033404
 30
0.0
210
0.0000000000000001
220
1.0
230
0.0
  0
LINE
  5
6AC
330
1E
100
AcDbEntity
  8
STEMPEL
100
AcDbLine
 10
181.467120749093
 20
468.0329838033403
 30
0.0
 11
196.467120749093
 21
468.0329838033403
 31
0.0
  0
LINE
  5
6AD
330
1E
100
AcDbEntity
  8
STEMPEL
100
AcDbLine
 10
197.6273747869374
 20
460.1233403195402
 30
0.0
 11
197.6273747869374
 21
467.722094670885
 31
0.0
  0
LINE
  5
6AE
330
1E
100
AcDbEntity
  8
STEMPEL
100
AcDbLine
 10
193.2972477680151
 20
460.1233403195402
 30
0.0
 11
193.2972477680151
 21
467.722094670885
 31
0.0
  0
LINE
  5
6AF
330
1E
100
AcDbEntity
  8
STEMPEL
100
AcDbLine
 10
184.6369937301708
 20
460.1233403195402
 30
0.0
 11
184.6369937301708
 21
467.722094670885
 31
0.0
  0
LINE
  5
6B0
330
1E
100
AcDbEntity
  8
STEMPEL
100
AcDbLine
 10
199.3736358565872
 20
459.4877532689298
 30
0.0
 11
178.5606056415987
 21
459.4877532689298
 31
0.0
  0
LINE
  5
6B1
330
1E
100
AcDbEntity
  8
STEMPEL
100
AcDbLine
 10
199.117120749093
 20
458.0329838033404
 30
0.0
 11
178.817120749093
 21
458.0329838033404
 31
0.0
  0
LINE
  5
6B2
330
1E
100
AcDbEntity
  8
STEMPEL
100
AcDbLine
 10
180.3068667112486
 20
460.1233403195402
 30
0.0
 11
180.3068667112486
 21
467.722094670885
 31
0.0
  0
LINE
  5
6B3
330
1E
100
AcDbEntity
  8
STEMPEL
100
AcDbLine
 10
181.467120749093
 20
468.0329838033403
 30
0.0
 11
180.3068667112486
 21
467.722094670885
 31
0.0
  0
LINE
  5
6B4
330
1E
100
AcDbEntity
  8
STEMPEL
100
AcDbLine
 10
197.6273747869374
 20
467.722094670885
 30
0.0
 11
196.467120749093
 21
468.0329838033403
 31
0.0
  0
LINE
  5
6B5
330
1E
100
AcDbEntity
  8
STEMPEL
100
AcDbLine
 10
199.3736358565872
 20
459.4877532689298
 30
0.0
 11
197.6273747869374
 21
460.1233403195402
 31
0.0
  0
LINE
  5
6B6
330
1E
100
AcDbEntity
  8
STEMPEL
100
AcDbLine
 10
180.3068667112486
 20
460.1233403195402
 30
0.0
 11
178.5606056415987
 21
459.4877532689298
 31
0.0
  0
ARC
  5
6B7
330
1E
100
AcDbEntity
  8
STEMPEL
100
AcDbCircle
 10
178.817120749093
 20
458.7829838033404
 30
0.0
 40
0.7500000000000013
100
AcDbArc
 50
109.9999999999996
 51
269.9999991462263
  0
ARC
  5
6B8
330
1E
100
AcDbEntity
  8
STEMPEL
100
AcDbCircle
 10
199.117120749093
 20
458.7829838033404
 30
0.0
 40
0.750000000000001
100
AcDbArc
 50
269.9999991462263
 51
70.00000000000039
  0
ARC
  5
6D2
330
1E
100
AcDbEntity
  8
STEMPEL
100
AcDbCircle
 10
245.7171207490933
 20
437.722094670887
 30
0.0
 40
30.31088913245485
100
AcDbArc
 50
81.78678929826061
 51
98.21321070173938
  0
ARC
  5
6D3
330
1E
100
AcDbEntity
  8
STEMPEL
100
AcDbCircle
 10
239.22193022071
 20
460.3386780955575
 30
0.0
 40
7.694305707784447
100
AcDbArc
 50
73.65710669401348
 51
106.3428933059833
  0
ARC
  5
6D4
330
1E
100
AcDbEntity
  8
STEMPEL
100
AcDbCircle
 10
252.2123112774766
 20
460.3386780955575
 30
0.0
 40
7.694305707784447
100
AcDbArc
 50
73.65710669401348
 51
106.3428933059833
  0
ARC
  5
6D5
330
1E
100
AcDbEntity
  8
HILF
100
AcDbCircle
 10
245.7171207490933
 20
438.1345227556806
 30
0.0
 40
22.41111549782308
100
AcDbArc
 50
78.85962783890452
 51
101.1403721610955
  0
ARC
  5
6D6
330
1E
100
AcDbEntity
  8
HILF
100
AcDbCircle
 10
252.2123112774766
 20
454.7844976538122
 30
0.0
 40
5.761140599691502
100
AcDbArc
 50
67.92594526326052
 51
112.0740547367395
  0
ARC
  5
6D7
330
1E
100
AcDbEntity
  8
HILF
100
AcDbCircle
 10
239.22193022071
 20
454.7844976538122
 30
0.0
 40
5.761140599691502
100
AcDbArc
 50
67.92594526326052
 51
112.0740547367395
  0
POINT
  5
6D8
330
1E
100
AcDbEntity
  8
0
100
AcDbPoint
 10
245.7171207490933
 20
458.0329838033419
 30
0.0
210
0.0000000000000001
220
1.0
230
0.0
  0
LINE
  5
6D9
330
1E
100
AcDbEntity
  8
STEMPEL
100
AcDbLine
 10
238.2171207490933
 20
468.0329838033419
 30
0.0
 11
253.2171207490933
 21
468.0329838033419
 31
0.0
  0
LINE
  5
6DA
330
1E
100
AcDbEntity
  8
STEMPEL
100
AcDbLine
 10
254.3773747869376
 20
460.1233403195418
 30
0.0
 11
254.3773747869376
 21
467.7220946708866
 31
0.0
  0
LINE
  5
6DB
330
1E
100
AcDbEntity
  8
STEMPEL
100
AcDbLine
 10
250.0472477680155
 20
460.1233403195418
 30
0.0
 11
250.0472477680155
 21
467.7220946708866
 31
0.0
  0
LINE
  5
6DC
330
1E
100
AcDbEntity
  8
STEMPEL
100
AcDbLine
 10
241.3869937301711
 20
460.1233403195418
 30
0.0
 11
241.3869937301711
 21
467.7220946708866
 31
0.0
  0
LINE
  5
6DD
330
1E
100
AcDbEntity
  8
STEMPEL
100
AcDbLine
 10
256.1236358565876
 20
459.4877532689314
 30
0.0
 11
235.310605641599
 21
459.4877532689314
 31
0.0
  0
LINE
  5
6DE
330
1E
100
AcDbEntity
  8
STEMPEL
100
AcDbLine
 10
255.8671207490933
 20
458.0329838033419
 30
0.0
 11
235.5671207490933
 21
458.0329838033419
 31
0.0
  0
LINE
  5
6DF
330
1E
100
AcDbEntity
  8
STEMPEL
100
AcDbLine
 10
237.0568667112489
 20
460.1233403195418
 30
0.0
 11
237.0568667112489
 21
467.7220946708866
 31
0.0
  0
LINE
  5
6E0
330
1E
100
AcDbEntity
  8
STEMPEL
100
AcDbLine
 10
238.2171207490933
 20
468.0329838033419
 30
0.0
 11
237.0568667112489
 21
467.7220946708866
 31
0.0
  0
LINE
  5
6E1
330
1E
100
AcDbEntity
  8
STEMPEL
100
AcDbLine
 10
254.3773747869376
 20
467.7220946708866
 30
0.0
 11
253.2171207490933
 21
468.0329838033419
 31
0.0
  0
LINE
  5
6E2
330
1E
100
AcDbEntity
  8
STEMPEL
100
AcDbLine
 10
256.1236358565876
 20
459.4877532689314
 30
0.0
 11
254.3773747869376
 21
460.1233403195418
 31
0.0
  0
LINE
  5
6E3
330
1E
100
AcDbEntity
  8
STEMPEL
100
AcDbLine
 10
237.0568667112489
 20
460.1233403195418
 30
0.0
 11
235.310605641599
 21
459.4877532689314
 31
0.0
  0
ARC
  5
6E4
330
1E
100
AcDbEntity
  8
STEMPEL
100
AcDbCircle
 10
235.5671207490933
 20
458.7829838033419
 30
0.0
 40
0.7500000000000013
100
AcDbArc
 50
109.9999999999996
 51
269.9999991462263
  0
ARC
  5
6E5
330
1E
100
AcDbEntity
  8
STEMPEL
100
AcDbCircle
 10
255.8671207490933
 20
458.7829838033419
 30
0.0
 40
0.750000000000001
100
AcDbArc
 50
269.9999991462263
 51
70.00000000000039
  0
ARC
  5
6FF
330
1E
100
AcDbEntity
  8
STEMPEL
100
AcDbCircle
 10
290.7171207490932
 20
437.7220946708883
 30
0.0
 40
30.31088913245485
100
AcDbArc
 50
81.78678929826061
 51
98.21321070173938
  0
ARC
  5
700
330
1E
100
AcDbEntity
  8
STEMPEL
100
AcDbCircle
 10
284.2219302207099
 20
460.3386780955586
 30
0.0
 40
7.694305707784447
100
AcDbArc
 50
73.65710669401348
 51
106.3428933059833
  0
ARC
  5
701
330
1E
100
AcDbEntity
  8
STEMPEL
100
AcDbCircle
 10
297.2123112774765
 20
460.3386780955586
 30
0.0
 40
7.694305707784447
100
AcDbArc
 50
73.65710669401348
 51
106.3428933059833
  0
ARC
  5
702
330
1E
100
AcDbEntity
  8
HILF
100
AcDbCircle
 10
290.7171207490932
 20
438.1345227556819
 30
0.0
 40
22.41111549782308
100
AcDbArc
 50
78.85962783890452
 51
101.1403721610955
  0
ARC
  5
703
330
1E
100
AcDbEntity
  8
HILF
100
AcDbCircle
 10
297.2123112774765
 20
454.7844976538135
 30
0.0
 40
5.761140599691502
100
AcDbArc
 50
67.92594526326052
 51
112.0740547367395
  0
ARC
  5
704
330
1E
100
AcDbEntity
  8
HILF
100
AcDbCircle
 10
284.2219302207098
 20
454.7844976538135
 30
0.0
 40
5.761140599691502
100
AcDbArc
 50
67.92594526326052
 51
112.0740547367395
  0
POINT
  5
705
330
1E
100
AcDbEntity
  8
0
100
AcDbPoint
 10
290.7171207490932
 20
458.0329838033431
 30
0.0
210
0.0000000000000001
220
1.0
230
0.0
  0
LINE
  5
706
330
1E
100
AcDbEntity
  8
STEMPEL
100
AcDbLine
 10
283.2171207490932
 20
468.0329838033431
 30
0.0
 11
298.2171207490932
 21
468.0329838033431
 31
0.0
  0
LINE
  5
707
330
1E
100
AcDbEntity
  8
STEMPEL
100
AcDbLine
 10
299.3773747869375
 20
460.1233403195429
 30
0.0
 11
299.3773747869375
 21
467.7220946708877
 31
0.0
  0
LINE
  5
708
330
1E
100
AcDbEntity
  8
STEMPEL
100
AcDbLine
 10
295.0472477680154
 20
460.1233403195429
 30
0.0
 11
295.0472477680154
 21
467.7220946708877
 31
0.0
  0
LINE
  5
709
330
1E
100
AcDbEntity
  8
STEMPEL
100
AcDbLine
 10
286.386993730171
 20
460.1233403195429
 30
0.0
 11
286.386993730171
 21
467.7220946708877
 31
0.0
  0
LINE
  5
70A
330
1E
100
AcDbEntity
  8
STEMPEL
100
AcDbLine
 10
301.1236358565875
 20
459.4877532689325
 30
0.0
 11
280.3106056415989
 21
459.4877532689325
 31
0.0
  0
LINE
  5
70B
330
1E
100
AcDbEntity
  8
STEMPEL
100
AcDbLine
 10
300.8671207490932
 20
458.0329838033431
 30
0.0
 11
280.5671207490932
 21
458.0329838033431
 31
0.0
  0
LINE
  5
70C
330
1E
100
AcDbEntity
  8
STEMPEL
100
AcDbLine
 10
282.0568667112488
 20
460.1233403195429
 30
0.0
 11
282.0568667112488
 21
467.7220946708877
 31
0.0
  0
LINE
  5
70D
330
1E
100
AcDbEntity
  8
STEMPEL
100
AcDbLine
 10
283.2171207490932
 20
468.0329838033431
 30
0.0
 11
282.0568667112488
 21
467.7220946708877
 31
0.0
  0
LINE
  5
70E
330
1E
100
AcDbEntity
  8
STEMPEL
100
AcDbLine
 10
299.3773747869375
 20
467.7220946708877
 30
0.0
 11
298.2171207490932
 21
468.0329838033431
 31
0.0
  0
LINE
  5
70F
330
1E
100
AcDbEntity
  8
STEMPEL
100
AcDbLine
 10
301.1236358565875
 20
459.4877532689325
 30
0.0
 11
299.3773747869375
 21
460.1233403195429
 31
0.0
  0
LINE
  5
710
330
1E
100
AcDbEntity
  8
STEMPEL
100
AcDbLine
 10
282.0568667112488
 20
460.1233403195429
 30
0.0
 11
280.3106056415989
 21
459.4877532689325
 31
0.0
  0
ARC
  5
711
330
1E
100
AcDbEntity
  8
STEMPEL
100
AcDbCircle
 10
280.5671207490932
 20
458.7829838033431
 30
0.0
 40
0.7500000000000013
100
AcDbArc
 50
109.9999999999996
 51
269.9999991462263
  0
ARC
  5
712
330
1E
100
AcDbEntity
  8
STEMPEL
100
AcDbCircle
 10
300.8671207490932
 20
458.7829838033431
 30
0.0
 40
0.750000000000001
100
AcDbArc
 50
269.9999991462263
 51
70.00000000000039
  0
HATCH
  5
72D
330
1E
100
AcDbEntity
  8
SCHRAFF
100
AcDbHatch
 10
0.0
 20
0.0
 30
0.0
210
0.0
220
0.0
230
1.0
  2
NET
 70
     0
 71
     1
 91
        4
 92
        7
 72
     0
 73
     1
 93
        4
 10
323.217120749093
 20
446.0329838033399
 10
323.217120749093
 20
449.03298380334
 10
297.217120749093
 20
449.03298380334
 10
297.217120749093
 20
446.0329838033399
 97
        4
330
591
330
5E1
330
520
330
5F6
 92
        7
 72
     0
 73
     1
 93
        4
 10
263.217120749093
 20
449.03298380334
 10
263.217120749093
 20
446.03298380334
 10
284.217120749093
 20
446.0329838033399
 10
284.217120749093
 20
449.03298380334
 97
        4
330
511
330
5CE
330
520
330
5D4
 92
        7
 72
     0
 73
     1
 93
        4
 10
138.2171207490929
 20
446.03298380334
 10
138.2171207490929
 20
449.03298380334
 10
117.567120749093
 20
449.03298380334
 10
117.567120749093
 20
446.0329838033401
 97
        4
330
511
330
529
330
520
330
568
 92
        7
 72
     0
 73
     1
 93
        4
 10
117.567120749093
 20
446.0329838033401
 10
117.5671207490929
 20
449.03298380334
 10
78.21712074909289
 20
449.03298380334
 10
78.21712074909285
 20
446.0329838033401
 97
        4
330
511
330
539
330
520
330
529
 75
     0
 76
     1
 52
45.0
 41
15.0
 77
     0
 78
     2
 53
45.0
 43
-22.22163018282163
 44
-10.09606054183064
 45
-1.325825214724776
 46
1.325825214724776
 79
     0
 53
135.0
 43
-22.22163018282163
 44
-10.09606054183064
 45
-1.325825214724776
 46
-1.325825214724776
 79
     0
 47
0.3407929109817285
 98
        4
 10
318.9392804601275
 20
446.9753689132987
 10
273.2575338882089
 20
448.3385396680866
 10
127.3486780030848
 20
446.6345748415033
 10
101.0987189595625
 20
446.6345748415033
  0
TEXT
  5
922
330
1E
100
AcDbEntity
  8
TEXT
 62
     1
100
AcDbText
 10
301.6837597566133
 20
182.4138827686016
 30
0.0
 40
7.0
  1
EDV-Art.Nr. 21981.050X
 41
0.8
  7
GREEKS
100
AcDbText
  0
LINE
  5
923
330
1E
100
AcDbEntity
  8
TEXT
 62
     2
100
AcDbLine
 10
404.835528848536
 20
191.8488866433873
 30
0.0
 11
300.7836286519283
 21
191.848886643387
 31
0.0
  0
LINE
  5
924
330
1E
100
AcDbEntity
  8
TEXT
 62
     2
100
AcDbLine
 10
300.7836286519283
 20
191.848886643387
 30
0.0
 11
227.0287567659728
 21
211.1821958646731
 31
0.0
  0
TEXT
  5
925
330
1E
100
AcDbEntity
  8
TEXT
 62
     1
100
AcDbText
 10
301.8643150507654
 20
195.4616549155808
 30
0.0
 40
7.0
  1
Ablaufkörper DN50
 41
0.8
  7
GREEKS
100
AcDbText
  0
TEXT
  5
926
330
1E
100
AcDbEntity
  8
TEXT
 62
     1
100
AcDbText
 10
197.0088305505768
 20
342.5494631933931
 30
0.0
 40
7.0
  1
DN50
 50
90.0
 41
0.8
  7
GREEKS
100
AcDbText
  0
LINE
  5
927
330
1E
100
AcDbEntity
  8
TEXT
 62
     2
100
AcDbLine
 10
299.5420698327272
 20
380.9074509290859
 30
0.0
 11
265.4869304362138
 21
447.7690058588435
 31
0.0
  0
TEXT
  5
928
330
1E
100
AcDbEntity
  8
TEXT
 62
     1
100
AcDbText
 10
302.2229230865367
 20
384.3912850899963
 30
0.0
 40
7.0
  1
Kompressionsdichtung
 41
0.8
100
AcDbText
  0
LINE
  5
929
330
1E
100
AcDbEntity
  8
TEXT
 62
     2
100
AcDbLine
 10
405.4806344078603
 20
380.9074509290859
 30
0.0
 11
299.5420698327272
 21
380.9074509290859
 31
0.0
  0
TEXT
  5
92A
330
1E
100
AcDbEntity
  8
TEXT
 62
     1
100
AcDbText
 10
302.2229230865367
 20
371.6149541212868
 30
0.0
 40
7.0
  1
EDV-Art.Nr. 21920.070X
 41
0.8
100
AcDbText
  0
LINE
  5
92B
330
1E
100
AcDbEntity
  8
TEXT
 62
     2
100
AcDbLine
 10
299.5420698327272
 20
416.7836329157838
 30
0.0
 11
278.1540824350237
 21
453.6043253025664
 31
0.0
  0
TEXT
  5
92C
330
1E
100
AcDbEntity
  8
TEXT
 62
     1
100
AcDbText
 10
300.1374257114816
 20
420.2674670766942
 30
0.0
 40
7.0
  1
Losflansch DN70
 41
0.8
100
AcDbText
  0
LINE
  5
92D
330
1E
100
AcDbEntity
  8
TEXT
 62
     2
100
AcDbLine
 10
405.4806344078603
 20
416.7836329157838
 30
0.0
 11
299.5420698327272
 21
416.7836329157838
 31
0.0
  0
TEXT
  5
92E
330
1E
100
AcDbEntity
  8
TEXT
 62
     1
100
AcDbText
 10
300.1374257114816
 20
407.4911361079847
 30
0.0
 40
7.0
  1
EDV-Art.Nr. 21905.070X
 41
0.8
100
AcDbText
  0
HATCH
  5
92F
330
1E
100
AcDbEntity
  8
SCHRAFF
100
AcDbHatch
 10
0.0
 20
0.0
 30
0.0
210
0.0
220
0.0
230
1.0
  2
HONEY
 70
     0
 71
     0
 91
        2
 92
        7
 72
     1
 73
     1
 93
       11
 10
275.7171207490933
 20
444.03298380334
 42
0.0
 10
265.7171207490934
 20
444.0329838033399
 42
0.0
 10
254.2171207490933
 20
434.0329838033397
 42
0.0
 10
254.217120749093
 20
380.0329838033398
 42
0.0
 10
248.2171207490933
 20
374.03298380334
 42
0.0
 10
248.2171207490933
 20
308.0329838033381
 42
0.0
 10
243.0255802045908
 20
300.9724886628155
 42
0.0
 10
243.617120749093
 20
284.0329838033384
 42
0.0
 10
245.217120749093
 20
284.0329838033384
 42
0.0
 10
262.8987670849904
 20
284.032983803338
 42
0.3960474615044523
 10
265.892924820439
 20
286.8458489448725
 42
0.0
 97
        0
 92
        7
 72
     1
 73
     1
 93
       10
 10
147.2171207490932
 20
434.0329838033397
 42
0.0
 10
135.717120749093
 20
444.0329838033399
 42
0.0
 10
125.7171207490932
 20
444.03298380334
 42
0.0
 10
135.5413166777473
 20
286.8458489448741
 42
0.396047461504447
 10
138.535474413196
 20
284.0329838033396
 42
0.0
 10
157.8171207490931
 20
284.0329838033394
 42
0.0
 10
158.4086612935952
 20
300.9724886628163
 42
0.0
 10
153.2171207490935
 20
308.0329838033378
 42
0.0
 10
153.2171207490929
 20
374.0329838033397
 42
0.0
 10
147.2171207490934
 20
380.0329838033392
 42
0.0
 97
        0
 75
     1
 76
     1
 52
0.0
 41
30.0
 77
     0
 78
     3
 53
0.0
 43
-47.65236788747879
 44
-31.80830021694459
 45
5.625
 46
3.247595264191644
 79
     2
 49
3.75
 49
-7.5
 53
120.0
 43
-47.65236788747879
 44
-31.80830021694459
 45
-5.624999999999998
 46
3.247595264191645
 79
     2
 49
3.749999999999998
 49
-7.499999999999996
 53
60.0
 43
-47.65236788747879
 44
-31.80830021694459
 45
0.0000000000000012
 46
6.49519052838329
 79
     2
 49
-7.5
 49
3.75
 47
0.4284511753888297
 98
        2
 10
265.7388569448561
 20
420.194399975878
 10
138.0012191141394
 20
380.3484408073757
1001
GradientColor1ACI
1070
     5
1001
GradientColor2ACI
1070
     2
1001
ACAD
1010
0.0
1020
0.0
1030
0.0
  0
ARC
  5
930
330
1E
100
AcDbEntity
  8
STEMPEL
100
AcDbCircle
 10
138.535474413196
 20
287.0329838033397
 30
0.0
 40
3.0
100
AcDbArc
 50
183.5763343749981
 51
270.0
  0
ARC
  5
931
330
1E
100
AcDbEntity
  8
STEMPEL
100
AcDbCircle
 10
262.8987670849904
 20
287.032983803338
 30
0.0
 40
3.0
100
AcDbArc
 50
270.0
 51
356.4236656250018
  0
LINE
  5
932
330
1E
100
AcDbEntity
  8
STEMPEL
100
AcDbLine
 10
153.2171207490929
 20
374.0329838033397
 30
0.0
 11
147.2171207490932
 21
380.0329838033395
 31
0.0
  0
LINE
  5
933
330
1E
100
AcDbEntity
  8
STEMPEL
100
AcDbLine
 10
153.2171207490929
 20
374.0329838033397
 30
0.0
 11
153.2171207490935
 21
308.0329838033378
 31
0.0
  0
LINE
  5
934
330
1E
100
AcDbEntity
  8
STEMPEL
100
AcDbLine
 10
159.0994736902701
 20
300.0329838033385
 30
0.0
 11
153.2171207490935
 21
308.0329838033378
 31
0.0
  0
LINE
  5
935
330
1E
100
AcDbEntity
  8
STEMPEL
100
AcDbLine
 10
248.2171207490933
 20
374.03298380334
 30
0.0
 11
254.217120749093
 21
380.0329838033398
 31
0.0
  0
LINE
  5
936
330
1E
100
AcDbEntity
  8
STEMPEL
100
AcDbLine
 10
248.2171207490933
 20
374.03298380334
 30
0.0
 11
227.217120749095
 21
374.0329838033397
 31
0.0
  0
LINE
  5
937
330
1E
100
AcDbEntity
  8
STEMPEL
100
AcDbLine
 10
248.2171207490933
 20
308.032983803338
 30
0.0
 11
227.2171207490944
 21
308.0329838033385
 31
0.0
  0
LINE
  5
938
330
1E
100
AcDbEntity
  8
STEMPEL
100
AcDbLine
 10
243.0255802045908
 20
300.9724886628155
 30
0.0
 11
248.2171207490933
 21
308.0329838033381
 31
0.0
  0
LINE
  5
939
330
1E
100
AcDbEntity
  8
STEMPEL
100
AcDbLine
 10
248.2171207490933
 20
374.03298380334
 30
0.0
 11
248.2171207490933
 21
308.0329838033381
 31
0.0
  0
DIMENSION
  5
93A
330
1E
100
AcDbEntity
  8
BEM
100
AcDbDimension
  2
*D2
 10
275.7171207490935
 20
399.3368481048197
 30
0.0
 11
200.7171207490934
 21
399.3368481048197
 31
0.0
 70
   160
  1
%%c<>
 71
     5
 42
150.0000000000003
  3
Standard
100
AcDbAlignedDimension
 13
125.7171207490932
 23
444.0329838033396
 33
0.0
 14
275.7171207490935
 24
444.03298380334
 34
0.0
100
AcDbRotatedDimension
1001
ACAD
1000
DSTYLE
1002
{
1070
    40
1040
2.0
1070
    41
1040
3.5
1070
    42
1040
1.0
1070
    43
1040
7.0
1070
    44
1040
1.0
1070
    73
1070
     0
1070
    74
1070
     0
1070
    77
1070
     1
1070
    78
1070
     8
1070
    79
1070
     2
1070
   140
1040
3.5
1070
   141
1040
1.5
1070
   146
1040
0.5
1070
   147
1040
1.5
1070
   172
1070
     1
1070
   178
1070
     1
1070
   179
1070
     2
1070
   271
1070
     2
1070
   272
1070
     2
1070
   284
1070
     8
1070
   285
1070
     8
1070
   286
1070
     8
1070
   340
1005
24
1002
}
  0
LINE
  5
93B
330
1E
100
AcDbEntity
  8
STEMPEL
100
AcDbLine
 10
262.8987670849904
 20
284.032983803338
 30
0.0
 11
243.617120749093
 21
284.0329838033383
 31
0.0
  0
DIMENSION
  5
93C
330
1E
100
AcDbEntity
  8
BEM
100
AcDbDimension
  2
*D3
 10
265.7146653836148
 20
266.0877624179557
 30
0.0
 11
200.7171207490932
 21
272.5877624179557
 31
0.0
 70
    32
  1
%%c<>
 71
     5
 42
129.9950892690433
  3
Standard
100
AcDbAlignedDimension
 13
135.7195761145714
 23
284.0329838033397
 33
0.0
 14
265.7146653836148
 24
284.032983803338
 34
0.0
100
AcDbRotatedDimension
1001
ACAD
1000
DSTYLE
1002
{
1070
    40
1040
2.0
1070
    41
1040
3.5
1070
    42
1040
1.0
1070
    43
1040
7.0
1070
    44
1040
1.0
1070
    73
1070
     0
1070
    74
1070
     0
1070
    77
1070
     1
1070
    78
1070
     8
1070
    79
1070
     2
1070
   140
1040
3.5
1070
   141
1040
1.5
1070
   146
1040
0.5
1070
   147
1040
1.5
1070
   172
1070
     1
1070
   178
1070
     1
1070
   179
1070
     2
1070
   271
1070
     2
1070
   272
1070
     2
1070
   284
1070
     8
1070
   285
1070
     8
1070
   286
1070
     8
1070
   340
1005
24
1002
}
  0
LINE
  5
93D
330
1E
100
AcDbEntity
  8
STEMPEL
100
AcDbLine
 10
254.2171207490935
 20
434.0329838033398
 30
0.0
 11
246.5455478738383
 21
434.0329838033398
 31
0.0
  0
LINE
  5
93E
330
1E
100
AcDbEntity
  8
STEMPEL
100
AcDbLine
 10
254.2171207490928
 20
380.0329838033398
 30
0.0
 11
227.2171207490951
 21
380.0329838033396
 31
0.0
  0
LINE
  5
93F
330
1E
100
AcDbEntity
  8
STEMPEL
100
AcDbLine
 10
125.7171207490932
 20
444.0329838033396
 30
0.0
 11
135.5413166777473
 21
286.8458489448741
 31
0.0
  0
DIMENSION
  5
940
330
1E
100
AcDbEntity
  8
BEM
100
AcDbDimension
  2
*D4
 10
69.57533729075518
 20
284.0329838033397
 30
0.0
 11
63.07533729075515
 21
364.03298380334
 31
0.0
 70
    32
 71
     5
 42
160.0000000000006
  3
Standard
100
AcDbAlignedDimension
 13
84.434635170365
 23
444.0329838033403
 33
0.0
 14
135.7195761145714
 24
284.0329838033397
 34
0.0
 50
90.0
100
AcDbRotatedDimension
1001
ACAD
1000
DSTYLE
1002
{
1070
    40
1040
2.0
1070
    41
1040
3.5
1070
    42
1040
1.0
1070
    43
1040
7.0
1070
    44
1040
1.0
1070
    73
1070
     0
1070
    74
1070
     0
1070
    77
1070
     1
1070
    78
1070
     8
1070
    79
1070
     2
1070
   140
1040
3.5
1070
   141
1040
1.5
1070
   146
1040
0.5
1070
   147
1040
1.5
1070
   172
1070
     1
1070
   178
1070
     1
1070
   179
1070
     2
1070
   271
1070
     2
1070
   272
1070
     2
1070
   284
1070
     8
1070
   285
1070
     8
1070
   286
1070
     8
1070
   340
1005
24
1002
}
  0
LINE
  5
941
330
1E
100
AcDbEntity
  8
STEMPEL
100
AcDbLine
 10
147.2171207490934
 20
380.0329838033396
 30
0.0
 11
147.2171207490932
 21
434.0329838033397
 31
0.0
  0
LINE
  5
942
330
1E
100
AcDbEntity
  8
STEMPEL
100
AcDbLine
 10
135.7171207490932
 20
444.0329838033398
 30
0.0
 11
147.2171207490932
 21
434.0329838033397
 31
0.0
  0
LINE
  5
943
330
1E
100
AcDbEntity
  8
STEMPEL
100
AcDbLine
 10
275.7171207490933
 20
444.0329838033396
 30
0.0
 11
265.892924820439
 21
286.8458489448725
 31
0.0
  0
LINE
  5
944
330
1E
100
AcDbEntity
  8
STEMPEL
100
AcDbLine
 10
265.7171207490933
 20
444.0329838033398
 30
0.0
 11
254.2171207490933
 21
434.0329838033397
 31
0.0
  0
LINE
  5
945
330
1E
100
AcDbEntity
  8
STEMPEL
100
AcDbLine
 10
254.217120749093
 20
380.0329838033396
 30
0.0
 11
254.2171207490933
 21
434.0329838033397
 31
0.0
  0
TEXT
  5
946
330
1E
100
AcDbEntity
  8
TEXT
 62
     1
100
AcDbText
 10
295.1610798145221
 20
312.3905532935169
 30
0.0
 40
7.0
  1
EDV-Art.Nr. 19842.070X
 41
0.8
  7
GREEKS
100
AcDbText
  0
LINE
  5
947
330
1E
100
AcDbEntity
  8
TEXT
 62
     2
100
AcDbLine
 10
400.3848433175151
 20
321.8255571683026
 30
0.0
 11
294.2609487098372
 21
321.8255571683024
 31
0.0
  0
LINE
  5
948
330
1E
100
AcDbEntity
  8
TEXT
 62
     2
100
AcDbLine
 10
294.2609487098372
 20
321.8255571683024
 30
0.0
 11
254.5385923900575
 21
345.4652467057857
 31
0.0
  0
TEXT
  5
949
330
1E
100
AcDbEntity
  8
TEXT
 62
     1
100
AcDbText
 10
295.3416351086742
 20
325.4383254404962
 30
0.0
 40
7.0
  1
Wärmedämmung
 41
0.8
  7
GREEKS
100
AcDbText
  0
LINE
  5
94A
330
1E
100
AcDbEntity
  8
STEMPEL
100
AcDbLine
 10
154.888693624348
 20
434.0329838033397
 30
0.0
 11
147.2171207490932
 21
434.0329838033397
 31
0.0
  0
LINE
  5
94B
330
1E
100
AcDbEntity
  8
STEMPEL
100
AcDbLine
 10
174.2171207490947
 20
380.0329838033396
 30
0.0
 11
147.2171207490934
 21
380.0329838033396
 31
0.0
  0
LINE
  5
94C
330
1E
100
AcDbEntity
  8
STEMPEL
100
AcDbLine
 10
174.2171207490946
 20
374.0329838033397
 30
0.0
 11
153.2171207490929
 21
374.0329838033399
 31
0.0
  0
LINE
  5
94D
330
1E
100
AcDbEntity
  8
STEMPEL
100
AcDbLine
 10
157.8171207490931
 20
284.0329838033394
 30
0.0
 11
138.535474413196
 21
284.0329838033397
 31
0.0
  0
LINE
  5
94E
330
1E
100
AcDbEntity
  8
STEMPEL
100
AcDbLine
 10
174.2850477982621
 20
308.0329838033392
 30
0.0
 11
153.2171207490935
 21
308.0329838033396
 31
0.0
  0
LINE
  5
94F
330
1E
100
AcDbEntity
  8
STEMPEL
100
AcDbLine
 10
156.217120749093
 20
284.0329838033384
 30
0.0
 11
156.217120749093
 21
282.0329838033384
 31
0.0
  0
LINE
  5
950
330
1E
100
AcDbEntity
  8
STEMPEL
100
AcDbLine
 10
156.217120749093
 20
282.0329838033384
 30
0.0
 11
174.217120749094
 21
282.0329838033384
 31
0.0
  0
LINE
  5
951
330
1E
100
AcDbEntity
  8
STEMPEL
100
AcDbLine
 10
227.2171207490941
 20
282.0329838033384
 30
0.0
 11
245.217120749093
 21
282.0329838033384
 31
0.0
  0
LINE
  5
952
330
1E
100
AcDbEntity
  8
STEMPEL
100
AcDbLine
 10
158.375853060961
 20
300.0329838033384
 30
0.0
 11
174.2171207490942
 21
300.0329838033384
 31
0.0
  0
LINE
  5
953
330
1E
100
AcDbEntity
  8
STEMPEL
100
AcDbLine
 10
227.2171207490943
 20
300.0329838033383
 30
0.0
 11
243.058388437225
 21
300.0329838033383
 31
0.0
  0
LINE
  5
954
330
1E
100
AcDbEntity
  8
STEMPEL
100
AcDbLine
 10
156.217120749093
 20
284.0329838033384
 30
0.0
 11
157.8171207490931
 21
284.0329838033384
 31
0.0
  0
LINE
  5
955
330
1E
100
AcDbEntity
  8
STEMPEL
100
AcDbLine
 10
157.8171207490931
 20
284.0329838033394
 30
0.0
 11
158.4086612935952
 21
300.9724886628162
 31
0.0
  0
LINE
  5
956
330
1E
100
AcDbEntity
  8
STEMPEL
100
AcDbLine
 10
170.217120749093
 20
290.0329838033384
 30
0.0
 11
174.2171207490941
 21
290.0329838033384
 31
0.0
  0
LINE
  5
957
330
1E
100
AcDbEntity
  8
STEMPEL
100
AcDbLine
 10
227.2171207490942
 20
290.0329838033384
 30
0.0
 11
231.2171207490931
 21
290.0329838033384
 31
0.0
  0
LINE
  5
958
330
1E
100
AcDbEntity
  8
STEMPEL
100
AcDbLine
 10
174.217120749093
 20
300.0329838033384
 30
0.0
 11
174.217120749093
 21
290.0329838033384
 31
0.0
  0
LINE
  5
959
330
1E
100
AcDbEntity
  8
STEMPEL
100
AcDbLine
 10
170.217120749093
 20
290.0329838033384
 30
0.0
 11
166.7530191339552
 21
284.0329838033384
 31
0.0
  0
LINE
  5
95A
330
1E
100
AcDbEntity
  8
STEMPEL
100
AcDbLine
 10
162.217120749093
 20
284.0329838033384
 30
0.0
 11
162.217120749093
 21
282.0329838033384
 31
0.0
  0
LINE
  5
95B
330
1E
100
AcDbEntity
  8
STEMPEL
100
AcDbLine
 10
162.217120749093
 20
284.0329838033384
 30
0.0
 11
174.217120749094
 21
284.0329838033384
 31
0.0
  0
LINE
  5
95C
330
1E
100
AcDbEntity
  8
STEMPEL
100
AcDbLine
 10
227.2171207490942
 20
284.0329838033384
 30
0.0
 11
239.217120749093
 21
284.0329838033384
 31
0.0
  0
ARC
  5
95D
330
1E
100
AcDbEntity
  8
STEMPEL
100
AcDbCircle
 10
166.217120749093
 20
296.0329838033384
 30
0.0
 40
3.0
100
AcDbArc
 50
180.0000000000065
 51
0.0
  0
LINE
  5
95E
330
1E
100
AcDbEntity
  8
STEMPEL
100
AcDbLine
 10
163.217120749093
 20
296.0329838033384
 30
0.0
 11
163.217120749093
 21
300.0329838033384
 31
0.0
  0
LINE
  5
95F
330
1E
100
AcDbEntity
  8
STEMPEL
100
AcDbLine
 10
169.217120749093
 20
296.0329838033384
 30
0.0
 11
169.217120749093
 21
300.0329838033384
 31
0.0
  0
LINE
  5
960
330
1E
100
AcDbEntity
  8
STEMPEL
100
AcDbLine
 10
227.2171207490931
 20
300.0329838033384
 30
0.0
 11
227.2171207490931
 21
290.0329838033384
 31
0.0
  0
LINE
  5
961
330
1E
100
AcDbEntity
  8
STEMPEL
100
AcDbLine
 10
243.617120749093
 20
284.0329838033383
 30
0.0
 11
243.0255802045908
 21
300.9724886628153
 31
0.0
  0
ARC
  5
962
330
1E
100
AcDbEntity
  8
STEMPEL
100
AcDbCircle
 10
235.217120749093
 20
296.0329838033384
 30
0.0
 40
3.0
100
AcDbArc
 50
180.0000000000065
 51
0.0
  0
LINE
  5
963
330
1E
100
AcDbEntity
  8
STEMPEL
100
AcDbLine
 10
238.2171207490931
 20
296.0329838033384
 30
0.0
 11
238.2171207490931
 21
300.0329838033384
 31
0.0
  0
LINE
  5
964
330
1E
100
AcDbEntity
  8
STEMPEL
100
AcDbLine
 10
232.2171207490931
 20
296.0329838033384
 30
0.0
 11
232.2171207490931
 21
300.0329838033384
 31
0.0
  0
LINE
  5
965
330
1E
100
AcDbEntity
  8
STEMPEL
100
AcDbLine
 10
245.217120749093
 20
284.0329838033384
 30
0.0
 11
243.617120749093
 21
284.0329838033384
 31
0.0
  0
LINE
  5
966
330
1E
100
AcDbEntity
  8
STEMPEL
100
AcDbLine
 10
245.217120749093
 20
284.0329838033384
 30
0.0
 11
245.217120749093
 21
282.0329838033384
 31
0.0
  0
LINE
  5
967
330
1E
100
AcDbEntity
  8
STEMPEL
100
AcDbLine
 10
231.2171207490931
 20
290.0329838033384
 30
0.0
 11
234.6812223642307
 21
284.0329838033384
 31
0.0
  0
LINE
  5
968
330
1E
100
AcDbEntity
  8
STEMPEL
100
AcDbLine
 10
239.217120749093
 20
284.0329838033384
 30
0.0
 11
239.217120749093
 21
282.0329838033384
 31
0.0
  0
POINT
  5
969
330
1E
100
AcDbEntity
  8
STEMPEL
100
AcDbPoint
 10
170.217120749093
 20
290.0329838033384
 30
0.0
  0
POINT
  5
96A
330
1E
100
AcDbEntity
  8
STEMPEL
100
AcDbPoint
 10
231.2171207490931
 20
290.0329838033384
 30
0.0
  0
POINT
  5
96B
330
1E
100
AcDbEntity
  8
STEMPEL
100
AcDbPoint
 10
233.2171207490931
 20
286.5688821882006
 30
0.0
  0
POINT
  5
96C
330
1E
100
AcDbEntity
  8
STEMPEL
100
AcDbPoint
 10
243.058388437225
 20
300.0329838033384
 30
0.0
  0
POINT
  5
96D
330
1E
100
AcDbEntity
  8
STEMPEL
100
AcDbPoint
 10
235.217120749093
 20
293.0329838033384
 30
0.0
  0
POINT
  5
96E
330
1E
100
AcDbEntity
  8
STEMPEL
100
AcDbPoint
 10
245.217120749093
 20
282.0329838033384
 30
0.0
  0
POINT
  5
96F
330
1E
100
AcDbEntity
  8
STEMPEL
100
AcDbPoint
 10
231.2171207490931
 20
290.0329838033384
 30
0.0
  0
POINT
  5
970
330
1E
100
AcDbEntity
  8
STEMPEL
100
AcDbPoint
 10
162.217120749093
 20
282.0329838033384
 30
0.0
  0
POINT
  5
971
330
1E
100
AcDbEntity
  8
STEMPEL
100
AcDbPoint
 10
239.217120749093
 20
282.0329838033384
 30
0.0
  0
POINT
  5
972
330
1E
100
AcDbEntity
  8
STEMPEL
100
AcDbPoint
 10
156.217120749093
 20
282.0329838033384
 30
0.0
  0
POINT
  5
973
330
1E
100
AcDbEntity
  8
STEMPEL
100
AcDbPoint
 10
245.217120749093
 20
282.0329838033384
 30
0.0
  0
POINT
  5
974
330
1E
100
AcDbEntity
  8
STEMPEL
100
AcDbPoint
 10
157.817120749093
 20
284.0329838033384
 30
0.0
  0
POINT
  5
975
330
1E
100
AcDbEntity
  8
STEMPEL
100
AcDbPoint
 10
243.617120749093
 20
284.0329838033384
 30
0.0
  0
POINT
  5
976
330
1E
100
AcDbEntity
  8
STEMPEL
100
AcDbPoint
 10
166.217120749093
 20
300.0329838033384
 30
0.0
  0
POINT
  5
977
330
1E
100
AcDbEntity
  8
STEMPEL
100
AcDbPoint
 10
238.2171207490931
 20
300.0329838033384
 30
0.0
  0
POINT
  5
978
330
1E
100
AcDbEntity
  8
STEMPEL
100
AcDbPoint
 10
232.2171207490931
 20
300.0329838033384
 30
0.0
  0
POINT
  5
979
330
1E
100
AcDbEntity
  8
STEMPEL
100
AcDbPoint
 10
157.817120749093
 20
284.0329838033384
 30
0.0
  0
POINT
  5
97A
330
1E
100
AcDbEntity
  8
STEMPEL
100
AcDbPoint
 10
157.817120749093
 20
284.0329838033384
 30
0.0
  0
POINT
  5
97B
330
1E
100
AcDbEntity
  8
STEMPEL
100
AcDbPoint
 10
158.375853060961
 20
300.0329838033384
 30
0.0
  0
HATCH
  5
97C
330
1E
100
AcDbEntity
  8
SCHRAFF
100
AcDbHatch
 10
0.0
 20
0.0
 30
0.0
210
0.0
220
0.0
230
1.0
  2
NET
 70
     0
 71
     0
 91
        2
 92
        7
 72
     1
 73
     1
 93
       14
 10
239.217120749093
 20
284.0329838033384
 42
0.0
 10
239.217120749093
 20
282.0329838033384
 42
0.0
 10
245.217120749093
 20
282.0329838033384
 42
0.0
 10
245.217120749093
 20
284.0329838033384
 42
0.0
 10
243.617120749093
 20
284.0329838033384
 42
0.0
 10
243.058388437225
 20
300.0329838033383
 42
0.0
 10
238.2171207490931
 20
300.0329838033383
 42
0.0
 10
238.2171207490931
 20
296.0329838033384
 42
-1.0
 10
232.2171207490931
 20
296.0329838033382
 42
0.0
 10
232.2171207490931
 20
300.0329838033383
 42
0.0
 10
227.2171207490931
 20
300.0329838033383
 42
0.0
 10
227.2171207490931
 20
290.0329838033384
 42
0.0
 10
231.2171207490931
 20
290.0329838033384
 42
0.0
 10
234.6812223642307
 20
284.0329838033384
 42
0.0
 97
        0
 92
        7
 72
     1
 73
     1
 93
       14
 10
157.817120749093
 20
284.0329838033384
 42
0.0
 10
156.217120749093
 20
284.0329838033384
 42
0.0
 10
156.217120749093
 20
282.0329838033384
 42
0.0
 10
162.217120749093
 20
282.0329838033384
 42
0.0
 10
162.217120749093
 20
284.0329838033384
 42
0.0
 10
166.7530191339553
 20
284.0329838033384
 42
0.0
 10
170.217120749093
 20
290.0329838033384
 42
0.0
 10
174.217120749093
 20
290.0329838033384
 42
0.0
 10
174.2171207490931
 20
300.0329838033384
 42
0.0
 10
169.217120749093
 20
300.0329838033384
 42
0.0
 10
169.217120749093
 20
296.0329838033384
 42
-1.0
 10
163.217120749093
 20
296.0329838033382
 42
0.0
 10
163.217120749093
 20
300.0329838033384
 42
0.0
 10
158.375853060961
 20
300.0329838033384
 42
0.0
 97
        0
 75
     0
 76
     1
 52
45.0
 41
20.0
 77
     0
 78
     2
 53
45.0
 43
-105.0414262487364
 44
89.70015119159155
 45
-1.767766952966368
 46
1.767766952966368
 79
     0
 53
135.0
 43
-105.0414262487364
 44
89.70015119159155
 45
-1.767766952966368
 46
-1.767766952966368
 79
     0
 47
0.6454066402587449
 98
        2
 10
238.3425549962713
 20
288.3173999770788
 10
162.1118695698703
 20
290.2536192116618
  0
LINE
  5
97D
330
1E
100
AcDbEntity
  8
STEMPEL
100
AcDbLine
 10
243.0255802045908
 20
300.9724886628154
 30
0.0
 11
227.2171207490943
 21
300.9724886628154
 31
0.0
  0
LINE
  5
97E
330
1E
100
AcDbEntity
  8
STEMPEL
100
AcDbLine
 10
174.2171207490941
 20
300.9724886628155
 30
0.0
 11
158.4086612935958
 21
300.9724886628155
 31
0.0
  0
TEXT
  5
97F
330
1E
100
AcDbEntity
  8
TEXT
 62
     1
100
AcDbText
 10
295.1610798145221
 20
241.5242435707774
 30
0.0
 40
7.0
  1
EDV-Art.Nr. 17208.050X
 41
0.8
  7
GREEKS
100
AcDbText
  0
LINE
  5
980
330
1E
100
AcDbEntity
  8
TEXT
 62
     2
100
AcDbLine
 10
400.3848433175151
 20
250.9592474455631
 30
0.0
 11
294.2609487098372
 21
250.9592474455629
 31
0.0
  0
LINE
  5
981
330
1E
100
AcDbEntity
  8
TEXT
 62
     2
100
AcDbLine
 10
294.2609487098372
 20
250.9592474455629
 30
0.0
 11
238.1364400863407
 21
289.7896947596758
 31
0.0
  0
TEXT
  5
982
330
1E
100
AcDbEntity
  8
TEXT
 62
     1
100
AcDbText
 10
295.3416351086742
 20
254.5720157177566
 30
0.0
 40
7.0
  1
Zentrierring DN50
 41
0.8
  7
GREEKS
100
AcDbText
  0
DIMENSION
  5
A04
330
1E
100
AcDbEntity
  8
BEM
100
AcDbDimension
  2
*D5
 10
227.2171207490933
 20
165.8929203674546
 30
0.0
 11
200.7171207490934
 21
172.3929203674545
 31
0.0
 70
    32
  1
%%C<>
 71
     5
 42
52.99999999999977
  3
Standard
100
AcDbAlignedDimension
 13
174.2171207490935
 23
190.9674923889777
 33
0.0
 14
227.2171207490933
 24
190.9674923889869
 34
0.0
100
AcDbRotatedDimension
1001
ACAD
1000
DSTYLE
1002
{
1070
    40
1040
2.0
1070
    41
1040
3.5
1070
    42
1040
1.0
1070
    43
1040
7.0
1070
    44
1040
1.0
1070
    73
1070
     0
1070
    74
1070
     0
1070
    77
1070
     1
1070
    78
1070
     8
1070
    79
1070
     2
1070
   140
1040
3.5
1070
   141
1040
1.5
1070
   146
1040
0.5142857142857144
1070
   147
1040
1.5
1070
   172
1070
     1
1070
   178
1070
     1
1070
   179
1070
     2
1070
   271
1070
     2
1070
   272
1070
     2
1070
   284
1070
     8
1070
   285
1070
     8
1070
   286
1070
     8
1002
}
  0
DIMENSION
  5
A29
330
1E
100
AcDbEntity
  8
BEM
100
AcDbDimension
  2
*D6
 10
54.2809155307
 20
446.03298380334
 30
0.0
 11
47.78091553069992
 21
316.0329838033401
 31
0.0
 70
    32
 71
     5
 42
259.9999999999998
  3
Standard
100
AcDbAlignedDimension
 13
174.6488343104078
 23
186.0329838033402
 33
0.0
 14
78.21712074909289
 24
446.03298380334
 34
0.0
 50
90.0
100
AcDbRotatedDimension
1001
ACAD
1000
DSTYLE
1002
{
1070
    40
1040
2.0
1070
    41
1040
3.5
1070
    42
1040
1.0
1070
    43
1040
7.0
1070
    44
1040
1.0
1070
    73
1070
     0
1070
    74
1070
     0
1070
    77
1070
     1
1070
    78
1070
     8
1070
    79
1070
     2
1070
   140
1040
3.5
1070
   141
1040
1.5
1070
   146
1040
0.5
1070
   147
1040
1.5
1070
   172
1070
     1
1070
   178
1070
     1
1070
   179
1070
     2
1070
   271
1070
     2
1070
   272
1070
     2
1070
   284
1070
     8
1070
   285
1070
     8
1070
   286
1070
     8
1002
}
  0
LINE
  5
A87
330
1E
100
AcDbEntity
  8
MITTEL
100
AcDbLine
 10
200.717120749093
 20
397.6978494331861
 30
0.0
 11
200.717120749093
 21
278.9982256977687
 31
0.0
  0
LINE
  5
A89
330
1E
100
AcDbEntity
  8
MITTEL
100
AcDbLine
 10
200.717120749093
 20
264.335222574759
 30
0.0
 11
200.7171207490931
 21
181.0329838033401
 31
0.0
  0
TEXT
  5
A8B
330
1E
100
AcDbEntity
  8
TEXT
100
AcDbText
 10
230.1296391125315
 20
71.50334417585288
 30
0.0
 40
5.0
  1
mit Wärmedämmung
 41
0.8
  7
GREEKS
100
AcDbText
  0
LINE
  5
B3F
330
1E
100
AcDbEntity
  8
HILF
100
AcDbLine
 10
225.2152108303207
 20
191.0329838033401
 30
0.0
 11
176.2190306678651
 21
191.0329838033401
 31
0.0
  0
HATCH
  5
B40
330
1E
100
AcDbEntity
  8
SCHRAFF
100
AcDbHatch
 10
0.0
 20
0.0
 30
0.0
210
0.0
220
0.0
230
1.0
  2
_USER
 70
     0
 71
     1
 91
        2
 92
        7
 72
     1
 73
     1
 93
       10
 10
175.2171207490905
 20
415.0560443881404
 42
0.2037337150779848
 10
173.3804035009373
 20
419.3765856422167
 42
0.0
 10
171.2171207490929
 20
421.4611295080167
 42
0.0
 10
170.5028976716706
 20
420.7606414897758
 42
0.0
 10
172.6865230422962
 20
418.6564954332039
 42
-0.2037337150779812
 10
174.2171207490905
 20
415.0560443881404
 42
0.0
 10
174.2171207490934
 20
190.9674923889777
 42
0.0
 10
174.648834310408
 20
186.0329838033401
 42
0.0
 10
175.6526541479514
 20
186.0329838033401
 42
0.0
 10
175.2171207490933
 20
191.0111533318861
 42
0.0
 97
       10
330
B6D
330
B65
330
B64
330
B6C
330
B6E
330
B42
330
B43
330
B41
330
B49
330
B47
 92
        7
 72
     1
 73
     1
 93
       10
 10
230.9313438265153
 20
420.7606414897758
 42
0.0
 10
230.2171207490929
 20
421.4611295080168
 42
0.0
 10
228.0538379972486
 20
419.3765856422166
 42
0.2037337150779793
 10
226.2171207490954
 20
415.0560443881404
 42
0.0
 10
226.2171207490931
 20
191.0111533318952
 42
0.0
 10
225.7815873502346
 20
186.0329838033401
 42
0.0
 10
226.7854071877779
 20
186.0329838033401
 42
0.0
 10
227.2171207490932
 20
190.9674923889869
 42
0.0
 10
227.2171207490954
 20
415.0560443881404
 42
-0.2037337150779768
 10
228.7477184558897
 20
418.6564954332039
 42
0.0
 97
       10
330
B5C
330
B5D
330
B5F
330
B46
330
B48
330
B41
330
B45
330
B44
330
B60
330
B5E
 75
     1
 76
     0
 52
135.0
 41
2.0
 77
     0
 78
     1
 53
135.0
 43
-22.22163018282174
 44
-10.09606054183064
 45
-1.414213562373095
 46
-1.414213562373094
 79
     0
 47
0.4212057496098259
 98
        2
 10
174.7627882492819
 20
405.5642672620567
 10
228.7021175824437
 20
419.0428515737935
1001
GradientColor1ACI
1070
     5
1001
GradientColor2ACI
1070
     2
1001
ACAD
1010
0.0
1020
0.0
1030
0.0
  0
LINE
  5
B41
102
{ACAD_REACTORS
330
B40
102
}
330
1E
100
AcDbEntity
  8
STEMPEL
100
AcDbLine
 10
226.7854071877779
 20
186.0329838033401
 30
0.0
 11
174.648834310408
 21
186.0329838033401
 31
0.0
  0
LINE
  5
B42
102
{ACAD_REACTORS
330
B40
102
}
330
1E
100
AcDbEntity
  8
STEMPEL
100
AcDbLine
 10
174.2171207490948
 20
415.0560443881404
 30
0.0
 11
174.2171207490934
 21
190.9674923889777
 31
0.0
  0
LINE
  5
B43
102
{ACAD_REACTORS
330
B40
102
}
330
1E
100
AcDbEntity
  8
STEMPEL
100
AcDbLine
 10
174.2171207490934
 20
190.9674923889777
 30
0.0
 11
174.648834310408
 21
186.0329838033401
 31
0.0
  0
LINE
  5
B44
102
{ACAD_REACTORS
330
B40
102
}
330
1E
100
AcDbEntity
  8
STEMPEL
100
AcDbLine
 10
227.2171207490954
 20
415.0560443881404
 30
0.0
 11
227.2171207490932
 21
190.9674923889869
 31
0.0
  0
LINE
  5
B45
102
{ACAD_REACTORS
330
B40
102
}
330
1E
100
AcDbEntity
  8
STEMPEL
100
AcDbLine
 10
227.2171207490932
 20
190.9674923889869
 30
0.0
 11
226.7854071877779
 21
186.0329838033401
 31
0.0
  0
LINE
  5
B46
102
{ACAD_REACTORS
330
B40
102
}
330
1E
100
AcDbEntity
  8
STEMPEL
100
AcDbLine
 10
226.2171207490954
 20
415.0560443881404
 30
0.0
 11
226.2171207490931
 21
191.0111533318952
 31
0.0
  0
LINE
  5
B47
102
{ACAD_REACTORS
330
B40
102
}
330
1E
100
AcDbEntity
  8
STEMPEL
100
AcDbLine
 10
175.2171207490949
 20
415.0560443881404
 30
0.0
 11
175.2171207490933
 21
191.0111533318861
 31
0.0
  0
LINE
  5
B48
102
{ACAD_REACTORS
330
B40
102
}
330
1E
100
AcDbEntity
  8
STEMPEL
100
AcDbLine
 10
226.2171207490931
 20
191.0111533318952
 30
0.0
 11
225.7815873502346
 21
186.0329838033401
 31
0.0
  0
LINE
  5
B49
102
{ACAD_REACTORS
330
B40
102
}
330
1E
100
AcDbEntity
  8
STEMPEL
100
AcDbLine
 10
175.2171207490933
 20
191.0111533318861
 30
0.0
 11
175.6526541479514
 21
186.0329838033401
 31
0.0
  0
LINE
  5
B4A
330
1E
100
AcDbEntity
  8
STEMPEL
100
AcDbLine
 10
161.2517234208167
 20
446.0329838033412
 30
0.0
 11
240.182518077369
 21
446.0329838033388
 31
0.0
  0
HATCH
  5
B4B
330
1E
100
AcDbEntity
  8
SCHRAFF
100
AcDbHatch
 10
0.0
 20
0.0
 30
0.0
210
0.0
220
0.0
230
1.0
  2
_USER
 70
     0
 71
     0
 91
        4
 92
        7
 72
     1
 73
     1
 93
        8
 10
110.717120749093
 20
446.03298380334
 42
0.0
 10
84.4346351703648
 20
446.0329838033393
 42
0.1989123673796708
 10
80.54554787383876
 20
444.4220710998652
 42
0.0
 10
78.21712074909271
 20
442.0936439751192
 42
0.0
 10
79.63133431146559
 20
440.6794304127461
 42
0.0
 10
81.95976143621209
 20
443.0078575374923
 42
-0.19891236737966
 10
84.43463517036491
 20
444.0329838033393
 42
0.0
 10
110.717120749093
 20
444.0329838033394
 42
0.0
 97
        0
 92
        7
 72
     1
 73
     1
 93
        8
 10
142.4899390349923
 20
446.0329838033397
 42
0.0
 10
110.717120749093
 20
446.0329838033398
 42
0.0
 10
110.717120749093
 20
444.0329838033399
 42
0.0
 10
142.4899390349924
 20
444.0329838033397
 42
-0.1940998989257024
 10
146.6532217868391
 20
442.3535250574159
 42
0.0
 10
169.7886745942483
 20
420.0601534715346
 42
0.0
 10
171.2171207490929
 20
421.4611295080167
 42
0.0
 10
148.0409827041213
 20
443.7937054754414
 42
0.1940998989257044
 97
        0
 92
        7
 72
     1
 73
     1
 93
        8
 10
290.7171207490931
 20
446.0329838033399
 42
0.0
 10
258.9443024631935
 20
446.0329838033398
 42
0.1940998989257052
 10
253.3932587940644
 20
443.7937054754415
 42
0.0
 10
230.2171207490929
 20
421.4611295080168
 42
0.0
 10
231.6455669039376
 20
420.0601534715347
 42
0.0
 10
254.7810197113467
 20
442.353525057416
 42
-0.1940998989257033
 10
258.9443024631935
 20
444.0329838033398
 42
0.0
 10
290.7171207490931
 20
444.03298380334
 42
0.0
 97
        0
 92
        7
 72
     1
 73
     1
 93
        8
 10
316.999606327821
 20
446.0329838033393
 42
0.0
 10
290.7171207490931
 20
446.0329838033394
 42
0.0
 10
290.7171207490931
 20
444.03298380334
 42
0.0
 10
316.999606327821
 20
444.0329838033393
 42
-0.1989123673796592
 10
319.4744800619738
 20
443.0078575374922
 42
0.0
 10
321.8029071867203
 20
440.6794304127461
 42
0.0
 10
323.2171207490932
 20
442.0936439751192
 42
0.0
 10
320.8886936243471
 20
444.4220710998652
 42
0.1989123673796707
 97
        0
 75
     1
 76
     0
 52
45.0
 41
2.0
 77
     0
 78
     1
 53
45.0
 43
-23.60406568696226
 44
167.871400924576
 45
-1.414213562373094
 46
1.414213562373095
 79
     0
 47
0.2542548231135494
 98
        4
 10
99.64894964551513
 20
445.6355394538991
 10
124.0687298377497
 20
445.127030091309
 10
267.026180658097
 20
444.618520728719
 10
297.2965307103828
 20
444.8727754100139
1001
GradientColor1ACI
1070
     5
1001
GradientColor2ACI
1070
     2
1001
ACAD
1010
0.0
1020
0.0
1030
0.0
  0
LINE
  5
B4C
330
1E
100
AcDbEntity
  8
STEMPEL
100
AcDbLine
 10
84.43463517036525
 20
446.03298380334
 30
0.0
 11
316.9996063278209
 21
446.0329838033399
 31
0.0
  0
LINE
  5
B4D
330
1E
100
AcDbEntity
  8
STEMPEL
100
AcDbLine
 10
84.43463517036491
 20
444.0329838033401
 30
0.0
 11
142.4034122501083
 21
444.0329838033397
 31
0.0
  0
LINE
  5
B4E
330
1E
100
AcDbEntity
  8
STEMPEL
100
AcDbLine
 10
125.9267178360053
 20
440.6794304127461
 30
0.0
 11
79.63133431146582
 21
440.6794304127461
 31
0.0
  0
LINE
  5
B4F
330
1E
100
AcDbEntity
  8
STEMPEL
100
AcDbLine
 10
79.63133431146582
 20
440.6794304127464
 30
0.0
 11
81.9597614362118
 21
443.0078575374923
 31
0.0
  0
LINE
  5
B50
330
1E
100
AcDbEntity
  8
STEMPEL
100
AcDbLine
 10
78.21712074909271
 20
442.0936439751192
 30
0.0
 11
79.63133431146559
 21
440.6794304127461
 31
0.0
  0
LINE
  5
B51
330
1E
100
AcDbEntity
  8
STEMPEL
100
AcDbLine
 10
78.21712074909271
 20
442.0936439751192
 30
0.0
 11
80.54554787383869
 21
444.4220710998655
 31
0.0
  0
ARC
  5
B52
330
1E
100
AcDbEntity
  8
STEMPEL
100
AcDbCircle
 10
84.43463517036491
 20
440.5329838033394
 30
0.0
 40
5.499999999999851
100
AcDbArc
 50
90.0
 51
135.0
  0
ARC
  5
B53
330
1E
100
AcDbEntity
  8
STEMPEL
100
AcDbCircle
 10
84.43463517036491
 20
440.5329838033394
 30
0.0
 40
3.499999999999851
100
AcDbArc
 50
90.0
 51
135.0
  0
ARC
  5
B54
330
1E
100
AcDbEntity
  8
STEMPEL
100
AcDbCircle
 10
316.999606327821
 20
440.5329838033394
 30
0.0
 40
3.499999999999851
100
AcDbArc
 50
45.0
 51
90.0
  0
ARC
  5
B55
330
1E
100
AcDbEntity
  8
STEMPEL
100
AcDbCircle
 10
316.999606327821
 20
440.5329838033394
 30
0.0
 40
5.499999999999851
100
AcDbArc
 50
45.0
 51
90.0
  0
LINE
  5
B56
330
1E
100
AcDbEntity
  8
STEMPEL
100
AcDbLine
 10
275.5075236621812
 20
440.6794304127461
 30
0.0
 11
321.8029071867201
 21
440.6794304127461
 31
0.0
  0
LINE
  5
B57
330
1E
100
AcDbEntity
  8
STEMPEL
100
AcDbLine
 10
316.999606327821
 20
444.0329838033401
 30
0.0
 11
258.9443024631935
 21
444.0329838033398
 31
0.0
  0
LINE
  5
B58
330
1E
100
AcDbEntity
  8
STEMPEL
100
AcDbLine
 10
323.2171207490932
 20
442.0936439751192
 30
0.0
 11
321.8029071867203
 21
440.6794304127461
 31
0.0
  0
LINE
  5
B59
330
1E
100
AcDbEntity
  8
STEMPEL
100
AcDbLine
 10
321.8029071867201
 20
440.6794304127464
 30
0.0
 11
319.4744800619741
 21
443.0078575374923
 31
0.0
  0
LINE
  5
B5A
330
1E
100
AcDbEntity
  8
STEMPEL
100
AcDbLine
 10
323.2171207490932
 20
442.0936439751192
 30
0.0
 11
320.8886936243472
 21
444.4220710998655
 31
0.0
  0
HATCH
  5
B5B
330
1E
100
AcDbEntity
  8
SCHRAFF
100
AcDbHatch
 10
0.0
 20
0.0
 30
0.0
210
0.0
220
0.0
230
1.0
  2
ANSI31
 70
     0
 71
     1
 91
        4
 92
        7
 72
     1
 73
     1
 93
        5
 10
172.6865230422962
 20
418.6564954332039
 42
0.0
 10
171.2298450257639
 20
420.0601534715346
 42
0.0
 10
169.7886745942483
 20
420.0601534715346
 42
0.0
 10
167.3348941757248
 20
422.4246215074826
 42
0.6646807772486718
 10
173.2476843333972
 20
418.0148544856054
 42
0.0426982705853968
 97
        5
330
B6C
330
B6A
330
B66
330
B70
330
B6E
 92
        7
 72
     1
 73
     1
 93
        5
 10
234.099347322461
 20
422.4246215074827
 42
0.0
 10
231.6455669039376
 20
420.0601534715347
 42
0.0
 10
230.2043964724219
 20
420.0601534715345
 42
0.0
 10
228.7477184558897
 20
418.6564954332039
 42
0.0426982705853969
 10
228.1865571647887
 20
418.0148544856053
 42
0.6646807772486784
 97
        5
330
B61
330
B69
330
B5E
330
B60
330
B6F
 92
       23
 72
     0
 73
     1
 93
        3
 10
230.9313438265153
 20
420.7606414897758
 10
230.2043964724219
 20
420.0601534715345
 10
231.6455669039376
 20
420.0601534715347
 97
        2
330
B5E
330
B5C
 92
       23
 72
     0
 73
     1
 93
        3
 10
170.5028976716706
 20
420.7606414897758
 10
169.7886745942483
 20
420.0601534715346
 10
171.2298450257638
 20
420.0601534715346
 97
        2
330
B64
330
B6C
 75
     1
 76
     1
 52
0.0
 41
0.1
 77
     0
 78
     1
 53
45.0
 43
-22.22163018282174
 44
-10.09606054183064
 45
-0.0088388347648318
 46
0.0088388347648318
 79
     0
 47
0.0650859133419889
 98
        4
 10
171.4188433789057
 20
418.2631196488678
 10
231.065179241586
 20
418.653634485174
 10
230.9349464408532
 20
420.2807831175323
 10
170.2467531614055
 20
420.3458682273667
1001
GradientColor1ACI
1070
     5
1001
GradientColor2ACI
1070
     2
1001
ACAD
1010
0.0
1020
0.0
1030
0.0
  0
LINE
  5
B5C
102
{ACAD_REACTORS
330
B40
330
B5B
102
}
330
1E
100
AcDbEntity
  8
STEMPEL
100
AcDbLine
 10
230.2171207490929
 20
421.4611295080168
 30
0.0
 11
231.6455669039376
 21
420.0601534715347
 31
0.0
  0
LINE
  5
B5D
102
{ACAD_REACTORS
330
B40
102
}
330
1E
100
AcDbEntity
  8
STEMPEL
100
AcDbLine
 10
253.3932587940644
 20
443.7937054754415
 30
0.0
 11
228.0538379972486
 21
419.3765856422166
 31
0.0
  0
LINE
  5
B5E
102
{ACAD_REACTORS
330
B40
330
B5B
102
}
330
1E
100
AcDbEntity
  8
STEMPEL
100
AcDbLine
 10
230.9313438265152
 20
420.7606414897758
 30
0.0
 11
228.7477184558897
 21
418.6564954332039
 31
0.0
  0
ARC
  5
B5F
102
{ACAD_REACTORS
330
B40
102
}
330
1E
100
AcDbEntity
  8
STEMPEL
100
AcDbCircle
 10
232.2171207490954
 20
415.0560443881404
 30
0.0
 40
6.0
100
AcDbArc
 50
133.938071237409
 51
180.0
  0
ARC
  5
B60
102
{ACAD_REACTORS
330
B40
330
B5B
102
}
330
1E
100
AcDbEntity
  8
STEMPEL
100
AcDbCircle
 10
232.2171207490954
 20
415.0560443881404
 30
0.0
 40
5.0
100
AcDbArc
 50
133.938071237409
 51
180.0
  0
LINE
  5
B61
102
{ACAD_REACTORS
330
B5B
102
}
330
1E
100
AcDbEntity
  8
STEMPEL
100
AcDbLine
 10
254.7810197113467
 20
442.353525057416
 30
0.0
 11
231.6455669039376
 21
420.0601534715347
 31
0.0
  0
ARC
  5
B62
330
1E
100
AcDbEntity
  8
STEMPEL
100
AcDbCircle
 10
258.9443024631935
 20
438.0329838033398
 30
0.0
 40
6.0
100
AcDbArc
 50
90.0
 51
133.9380712374102
  0
ARC
  5
B63
330
1E
100
AcDbEntity
  8
STEMPEL
100
AcDbCircle
 10
258.9443024631935
 20
438.0329838033398
 30
0.0
 40
8.0
100
AcDbArc
 50
90.0
 51
133.9380712374102
  0
LINE
  5
B64
102
{ACAD_REACTORS
330
B40
330
B5B
102
}
330
1E
100
AcDbEntity
  8
STEMPEL
100
AcDbLine
 10
171.2171207490929
 20
421.4611295080167
 30
0.0
 11
169.7886745942483
 21
420.0601534715346
 31
0.0
  0
LINE
  5
B65
102
{ACAD_REACTORS
330
B40
102
}
330
1E
100
AcDbEntity
  8
STEMPEL
100
AcDbLine
 10
148.0409827041213
 20
443.7937054754414
 30
0.0
 11
173.3804035009372
 21
419.3765856422166
 31
0.0
  0
LINE
  5
B66
102
{ACAD_REACTORS
330
B5B
102
}
330
1E
100
AcDbEntity
  8
STEMPEL
100
AcDbLine
 10
146.6532217868391
 20
442.3535250574159
 30
0.0
 11
169.7886745942483
 21
420.0601534715346
 31
0.0
  0
ARC
  5
B67
330
1E
100
AcDbEntity
  8
STEMPEL
100
AcDbCircle
 10
142.4899390349923
 20
438.0329838033397
 30
0.0
 40
6.0
100
AcDbArc
 50
46.06192876259098
 51
90.0
  0
ARC
  5
B68
330
1E
100
AcDbEntity
  8
STEMPEL
100
AcDbCircle
 10
142.4899390349923
 20
438.0329838033397
 30
0.0
 40
8.0
100
AcDbArc
 50
46.06192876259098
 51
90.0
  0
LINE
  5
B69
102
{ACAD_REACTORS
330
B5B
102
}
330
1E
100
AcDbEntity
  8
STEMPEL
100
AcDbLine
 10
231.6455669039376
 20
420.0601534715347
 30
0.0
 11
230.204396472422
 21
420.0601534715345
 31
0.0
  0
LINE
  5
B6A
102
{ACAD_REACTORS
330
B5B
102
}
330
1E
100
AcDbEntity
  8
STEMPEL
100
AcDbLine
 10
171.2298450257639
 20
420.0601534715346
 30
0.0
 11
169.7886745942483
 21
420.0601534715346
 31
0.0
  0
LINE
  5
B6B
330
1E
100
AcDbEntity
  8
STEMPEL
100
AcDbLine
 10
230.2171207490929
 20
421.4611295080168
 30
0.0
 11
171.2171207490929
 21
421.4611295080167
 31
0.0
  0
LINE
  5
B6C
102
{ACAD_REACTORS
330
B40
330
B5B
102
}
330
1E
100
AcDbEntity
  8
STEMPEL
100
AcDbLine
 10
170.5028976716707
 20
420.7606414897758
 30
0.0
 11
172.6865230422961
 21
418.6564954332039
 31
0.0
  0
ARC
  5
B6D
102
{ACAD_REACTORS
330
B40
102
}
330
1E
100
AcDbEntity
  8
STEMPEL
100
AcDbCircle
 10
169.2171207490905
 20
415.0560443881404
 30
0.0
 40
6.0
100
AcDbArc
 50
0.0
 51
46.0619287625898
  0
ARC
  5
B6E
102
{ACAD_REACTORS
330
B40
330
B5B
102
}
330
1E
100
AcDbEntity
  8
STEMPEL
100
AcDbCircle
 10
169.2171207490905
 20
415.0560443881404
 30
0.0
 40
5.0
100
AcDbArc
 50
0.0
 51
46.0619287625898
  0
ARC
  5
B6F
102
{ACAD_REACTORS
330
B5B
102
}
330
1E
100
AcDbEntity
  8
SCHRAFF
100
AcDbCircle
 10
230.2171207490929
 20
421.4611295080168
 30
0.0
 40
4.0
100
AcDbArc
 50
239.4931816134301
 51
13.9380712374075
  0
ARC
  5
B70
102
{ACAD_REACTORS
330
B5B
102
}
330
1E
100
AcDbEntity
  8
SCHRAFF
100
AcDbCircle
 10
171.2171207490929
 20
421.4611295080168
 30
0.0
 40
4.0
100
AcDbArc
 50
166.0619287625925
 51
300.5068183865685
  0
LINE
  5
B71
330
1E
100
AcDbEntity
  8
HILF
100
AcDbLine
 10
175.8118040815592
 20
417.4034156294355
 30
0.0
 11
225.6224374166267
 21
417.4034156294356
 31
0.0
  0
ENDSEC
  0
SECTION
  2
OBJECTS
  0
DICTIONARY
  5
C
330
0
100
AcDbDictionary
281
     1
  3
ACAD_CIP_PREVIOUS_PRODUCT_INFO
350
77E
  3
ACAD_COLOR
350
DF
  3
ACAD_DETAILVIEWSTYLE
350
77A
  3
ACAD_GROUP
350
D
  3
ACAD_LAYOUT
350
19
  3
ACAD_MATERIAL
350
DE
  3
ACAD_MLEADERSTYLE
350
775
  3
ACAD_MLINESTYLE
350
16
  3
ACAD_PLOTSETTINGS
350
18
  3
ACAD_PLOTSTYLENAME
350
E
  3
ACAD_SCALELIST
350
763
  3
ACAD_SECTIONVIEWSTYLE
350
777
  3
ACAD_TABLESTYLE
350
761
  3
ACAD_VISUALSTYLE
350
748
  3
ACDB_RECOMPOSE_DATA
350
C9C
  3
AcDbVariableDictionary
350
EA
  0
DICTIONARY
  5
832
330
8
100
AcDbDictionary
280
     1
281
     1
  0
DICTIONARY
  5
783
330
2
100
AcDbDictionary
280
     1
281
     1
  3
ACAD_LAYERSTATES
360
784
  0
DICTIONARY
  5
81F
330
10
100
AcDbDictionary
280
     1
281
     1
  3
ADSK_XREC_LAYER_RECONCILED
360
820
  0
DICTIONARY
  5
821
330
2A
100
AcDbDictionary
280
     1
281
     1
  3
ADSK_XREC_LAYER_RECONCILED
360
822
  0
DICTIONARY
  5
823
330
2B
100
AcDbDictionary
280
     1
281
     1
  3
ADSK_XREC_LAYER_RECONCILED
360
824
  0
DICTIONARY
  5
825
330
2C
100
AcDbDictionary
280
     1
281
     1
  3
ADSK_XREC_LAYER_RECONCILED
360
826
  0
DICTIONARY
  5
827
330
2F
100
AcDbDictionary
280
     1
281
     1
  3
ADSK_XREC_LAYER_RECONCILED
360
828
  0
DICTIONARY
  5
829
330
30
100
AcDbDictionary
280
     1
281
     1
  3
ADSK_XREC_LAYER_RECONCILED
360
82A
  0
DICTIONARY
  5
82B
330
31
100
AcDbDictionary
280
     1
281
     1
  3
ADSK_XREC_LAYER_RECONCILED
360
82C
  0
DICTIONARY
  5
82D
330
137
100
AcDbDictionary
280
     1
281
     1
  3
ADSK_XREC_LAYER_RECONCILED
360
82E
  0
DICTIONARY
  5
A0
330
1E
100
AcDbDictionary
280
     1
281
     1
  3
ACAD_LAYOUTSELFREF
360
D4
  3
ACAD_SORTENTS
360
A88
  0
DICTIONARY
  5
A2
330
1A
100
AcDbDictionary
280
     1
281
     1
  3
ACAD_LAYOUTSELFREF
360
D3
  0
XRECORD
  5
77E
102
{ACAD_REACTORS
330
C
102
}
330
C
100
AcDbXrecord
280
     1
300
ACD
300
2013
300
ACD_F_S
  0
DICTIONARY
  5
DF
102
{ACAD_REACTORS
330
C
102
}
330
C
100
AcDbDictionary
281
     1
  0
DICTIONARY
  5
77A
102
{ACAD_REACTORS
330
C
102
}
330
C
100
AcDbDictionary
281
     1
  3
Imperial24
350
77B
  0
DICTIONARY
  5
D
102
{ACAD_REACTORS
330
C
102
}
330
C
100
AcDbDictionary
281
     1
  0
DICTIONARY
  5
19
102
{ACAD_REACTORS
330
C
102
}
330
C
100
AcDbDictionary
281
     1
  3
Layout1
350
1D
  3
Model
350
21
  0
DICTIONARY
  5
DE
102
{ACAD_REACTORS
330
C
102
}
330
C
100
AcDbDictionary
281
     1
  3
ByBlock
350
738
  3
ByLayer
350
730
  3
Global
350
740
  0
DICTIONARY
  5
775
102
{ACAD_REACTORS
330
C
102
}
330
C
100
AcDbDictionary
281
     1
  3
Standard
350
776
  0
DICTIONARY
  5
16
102
{ACAD_REACTORS
330
C
102
}
330
C
100
AcDbDictionary
281
     1
  3
Standard
350
17
  0
DICTIONARY
  5
18
102
{ACAD_REACTORS
330
C
102
}
330
C
100
AcDbDictionary
281
     1
  0
ACDBDICTIONARYWDFLT
  5
E
102
{ACAD_REACTORS
330
C
102
}
330
C
100
AcDbDictionary
281
     1
  3
Normal
350
F
100
AcDbDictionaryWithDefault
340
F
  0
DICTIONARY
  5
763
102
{ACAD_REACTORS
330
C
102
}
330
C
100
AcDbDictionary
281
     1
  3
A0
350
764
  3
A1
350
765
  3
A2
350
766
  3
A3
350
767
  3
A4
350
768
  3
A5
350
769
  3
A6
350
76A
  3
A7
350
76B
  3
A8
350
76C
  3
A9
350
76D
  3
B0
350
76E
  3
B1
350
76F
  3
B2
350
770
  3
B3
350
771
  3
B4
350
772
  3
B5
350
773
  3
B6
350
774
  0
DICTIONARY
  5
777
102
{ACAD_REACTORS
330
C
102
}
330
C
100
AcDbDictionary
281
     1
  3
Imperial24
350
779
  0
DICTIONARY
  5
761
102
{ACAD_REACTORS
330
C
102
}
330
C
100
AcDbDictionary
281
     1
  3
Standard
350
762
  0
DICTIONARY
  5
748
102
{ACAD_REACTORS
330
C
102
}
330
C
100
AcDbDictionary
281
     1
  3
2dWireframe
350
74E
  3
Basic
350
74D
  3
Brighten
350
754
  3
ColorChange
350
758
  3
Conceptual
350
751
  3
Dim
350
753
  3
EdgeColorOff
350
760
  3
Facepattern
350
757
  3
Flat
350
749
  3
FlatWithEdges
350
74A
  3
Gouraud
350
74B
  3
GouraudWithEdges
350
74C
  3
Hidden
350
750
  3
JitterOff
350
75E
  3
Linepattern
350
756
  3
OverhangOff
350
75F
  3
Realistic
350
752
  3
Shaded
350
75D
  3
Shaded with edges
350
75C
  3
Shades of Gray
350
759
  3
Sketchy
350
75A
  3
Thicken
350
755
  3
Wireframe
350
74F
  3
X-Ray
350
75B
  0
XRECORD
  5
C9C
102
{ACAD_REACTORS
330
C
102
}
330
C
100
AcDbXrecord
280
     1
 90
        1
330
762
  0
DICTIONARY
  5
EA
102
{ACAD_REACTORS
330
C
102
}
330
C
100
AcDbDictionary
281
     1
  3
CANNOSCALE
350
86F
  3
CMLEADERSTYLE
350
86C
  3
CTABLESTYLE
350
86B
  3
CVIEWDETAILSTYLE
350
86D
  3
CVIEWSECTIONSTYLE
350
86E
  3
DIMASSOC
350
EB
  3
PROJECTNAME
350
EC
  0
DICTIONARY
  5
784
102
{ACAD_REACTORS
330
783
102
}
330
783
100
AcDbDictionary
281
     1
  0
XRECORD
  5
820
102
{ACAD_REACTORS
330
81F
102
}
330
81F
100
AcDbXrecord
280
     1
290
     1
  0
XRECORD
  5
822
102
{ACAD_REACTORS
330
821
102
}
330
821
100
AcDbXrecord
280
     1
290
     1
  0
XRECORD
  5
824
102
{ACAD_REACTORS
330
823
102
}
330
823
100
AcDbXrecord
280
     1
290
     1
  0
XRECORD
  5
826
102
{ACAD_REACTORS
330
825
102
}
330
825
100
AcDbXrecord
280
     1
290
     1
  0
XRECORD
  5
828
102
{ACAD_REACTORS
330
827
102
}
330
827
100
AcDbXrecord
280
     1
290
     1
  0
XRECORD
  5
82A
102
{ACAD_REACTORS
330
829
102
}
330
829
100
AcDbXrecord
280
     1
290
     1
  0
XRECORD
  5
82C
102
{ACAD_REACTORS
330
82B
102
}
330
82B
100
AcDbXrecord
280
     1
290
     1
  0
XRECORD
  5
82E
102
{ACAD_REACTORS
330
82D
102
}
330
82D
100
AcDbXrecord
280
     1
290
     1
  0
XRECORD
  5
D4
102
{ACAD_REACTORS
330
A0
102
}
330
A0
100
AcDbXrecord
280
     1
340
1E
  0
SORTENTSTABLE
  5
A88
102
{ACAD_REACTORS
330
A0
102
}
330
A0
100
AcDbSortentsTable
330
1E
331
75
  5
75
331
545
  5
545
331
71
  5
71
331
541
  5
541
331
53D
  5
53D
331
539
  5
539
331
578
  5
578
331
935
  5
937
331
931
  5
933
331
5BC
  5
5BF
331
6B6
  5
6B8
331
92D
  5
92F
331
96C
  5
96E
331
6B2
  5
6B4
331
929
  5
92B
331
968
  5
96A
331
70D
  5
70F
331
6AE
  5
6B0
331
5B0
  5
5B2
331
6AA
  5
6AC
331
709
  5
70B
331
6D
  5
6D
331
69
  5
69
331
65
  5
65
331
535
  5
535
331
61
  5
61
331
3AE
  5
3AE
331
3AA
  5
3AA
331
9B
  5
9B
331
529
  5
529
331
568
  5
568
331
925
  5
927
331
964
  5
966
331
960
  5
962
331
5EB
  5
5ED
331
6A6
  5
6A8
331
705
  5
707
331
95C
  5
95E
331
701
  5
703
331
958
  5
95A
331
5E3
  5
5E6
331
5A4
  5
5A6
331
68A
  5
6A5
331
5A0
  5
5A5
331
5D
  5
5D
331
59
  5
59
331
93
  5
93
331
8F
  5
8F
331
8B
  5
8B
331
558
  5
558
331
954
  5
956
331
5DF
  5
5E1
331
950
  5
952
331
686
  5
688
331
6E5
  5
700
331
94C
  5
94E
331
948
  5
94A
331
A29
  5
A89
331
598
  5
59F
331
682
  5
684
331
6E1
  5
6E3
331
5D7
  5
5DD
331
982
  5
984
331
6DD
  5
6DF
331
67E
  5
680
331
5D3
  5
5D7
331
67A
  5
67C
331
6D9
  5
6DB
331
87
  5
87
331
554
  5
554
331
83
  5
83
331
511
  5
511
331
550
  5
550
331
7F
  5
7F
331
54C
  5
54C
331
7B
  5
7B
331
548
  5
548
331
944
  5
946
331
97E
  5
980
331
940
  5
942
331
97A
  5
97C
331
93C
  5
93E
331
6D5
  5
6D7
331
976
  5
978
331
938
  5
93A
331
972
  5
974
331
5C3
  5
5C9
331
584
  5
584
331
580
  5
580
331
74
  5
74
331
544
  5
544
331
70
  5
70
331
505
  5
505
331
540
  5
540
331
57F
  5
57F
331
934
  5
936
331
96F
  5
971
331
930
  5
932
331
5BF
  5
5C2
331
92C
  5
92E
331
96B
  5
96D
331
5BB
  5
5BE
331
6B5
  5
6B7
331
928
  5
92A
331
5F6
  5
679
331
6B1
  5
6B3
331
5F2
  5
678
331
70C
  5
70E
331
6AD
  5
6AF
331
6A9
  5
6AB
331
708
  5
70A
331
6C
  5
6C
331
68
  5
68
331
577
  5
577
331
64
  5
64
331
534
  5
534
331
60
  5
60
331
3AD
  5
3AD
331
56F
  5
56F
331
3A9
  5
3A9
331
528
  5
528
331
967
  5
969
331
924
  5
926
331
963
  5
965
331
95F
  5
961
331
5AF
  5
5B1
331
5EE
  5
5F1
331
95B
  5
95D
331
6A5
  5
6A7
331
704
  5
706
331
700
  5
702
331
5E6
  5
5EC
331
5E2
  5
5E4
331
689
  5
68B
331
5C
  5
5C
331
58
  5
58
331
567
  5
567
331
563
  5
563
331
520
  5
520
331
55F
  5
55F
331
8E
  5
8E
331
8A
  5
8A
331
957
  5
959
331
953
  5
955
331
94F
  5
951
331
59F
  5
5A4
331
5DE
  5
5E0
331
94B
  5
94D
331
A87
  5
58D
331
685
  5
687
331
6E4
  5
6FF
331
981
  5
983
331
597
  5
599
331
681
  5
683
331
6E0
  5
6E2
331
6DC
  5
6DE
331
67D
  5
67F
331
679
  5
67B
331
6D8
  5
6DA
331
86
  5
86
331
557
  5
557
331
553
  5
553
331
82
  5
82
331
510
  5
510
331
54F
  5
54F
331
7E
  5
7E
331
54B
  5
54B
331
7A
  5
7A
331
947
  5
949
331
943
  5
945
331
97D
  5
97F
331
93F
  5
941
331
979
  5
97B
331
5CE
  5
5D3
331
712
  5
922
331
93B
  5
93D
331
975
  5
977
331
A04
  5
A06
331
6D4
  5
6D6
331
971
  5
973
331
5C2
  5
5C8
331
6B8
  5
6D3
331
547
  5
547
331
77
  5
77
331
543
  5
543
331
73
  5
73
331
53F
  5
53F
331
57E
  5
57E
331
937
  5
939
331
933
  5
935
331
92F
  5
931
331
96E
  5
970
331
5BE
  5
5C1
331
92B
  5
92D
331
96A
  5
96C
331
5BA
  5
5BC
331
6B4
  5
6B6
331
70F
  5
711
331
6B0
  5
6B2
331
5B2
  5
5BB
331
6AC
  5
6AE
331
70B
  5
70D
331
5F1
  5
5F6
331
6A8
  5
6AA
331
6F
  5
6F
331
6B
  5
6B
331
67
  5
67
331
533
  5
533
331
3B0
  5
3B0
331
63
  5
63
331
3A8
  5
3A8
331
52B
  5
52B
331
927
  5
929
331
966
  5
968
331
962
  5
964
331
923
  5
925
331
95E
  5
960
331
5ED
  5
5F0
331
707
  5
709
331
95A
  5
95C
331
703
  5
705
331
6FF
  5
701
331
5A6
  5
5B0
331
5E1
  5
5E3
331
688
  5
68A
331
5F
  5
5F
331
5B
  5
5B
331
57
  5
57
331
562
  5
562
331
8D
  5
8D
331
89
  5
89
331
51B
  5
51B
331
55A
  5
55A
331
956
  5
958
331
952
  5
954
331
94E
  5
950
331
5DD
  5
5DF
331
94A
  5
94C
331
684
  5
686
331
6E3
  5
6E5
331
980
  5
982
331
596
  5
598
331
680
  5
682
331
6DF
  5
6E1
331
6DB
  5
6DD
331
67C
  5
67E
331
5D1
  5
5D4
331
678
  5
67A
331
85
  5
85
331
556
  5
556
331
552
  5
552
331
513
  5
513
331
81
  5
81
331
118
  5
118
331
50F
  5
50F
331
54E
  5
54E
331
7D
  5
7D
331
54A
  5
54A
331
79
  5
79
331
72D
  5
923
331
946
  5
948
331
942
  5
944
331
97C
  5
97E
331
93E
  5
940
331
978
  5
97A
331
6D7
  5
6D9
331
711
  5
72D
331
93A
  5
93C
331
974
  5
976
331
5C9
  5
5D1
331
6D3
  5
6D5
331
970
  5
972
331
5C1
  5
5C3
331
76
  5
76
331
542
  5
542
331
72
  5
72
331
53E
  5
53E
331
936
  5
938
331
932
  5
934
331
92E
  5
930
331
96D
  5
96F
331
6B7
  5
6D2
331
92A
  5
92C
331
969
  5
96B
331
6B3
  5
6B5
331
70E
  5
710
331
6AF
  5
6B1
331
5B1
  5
5BA
331
6AB
  5
6AD
331
70A
  5
70C
331
5F0
  5
5F2
331
6E
  5
6E
331
6A
  5
6A
331
536
  5
536
331
66
  5
66
331
532
  5
532
331
62
  5
62
331
3AB
  5
3AB
331
56D
  5
56D
331
52A
  5
52A
331
926
  5
928
331
965
  5
967
331
961
  5
963
331
922
  5
924
331
95D
  5
95F
331
5EC
  5
5EE
331
6A7
  5
6A9
331
706
  5
708
331
959
  5
95B
331
702
  5
704
331
5E4
  5
5EB
331
5A5
  5
5AF
331
68B
  5
6A6
331
5E0
  5
5E2
331
5E
  5
5E
331
5A
  5
5A
331
561
  5
561
331
90
  5
90
331
8C
  5
8C
331
88
  5
88
331
51A
  5
51A
331
559
  5
559
331
955
  5
957
331
951
  5
953
331
94D
  5
94F
331
A89
  5
591
331
687
  5
689
331
5DC
  5
5DE
331
949
  5
94B
331
599
  5
5A0
331
683
  5
685
331
6E2
  5
6E4
331
6DE
  5
6E0
331
67F
  5
681
331
5D4
  5
5DC
331
6DA
  5
6DC
331
67B
  5
67D
331
591
  5
597
331
555
  5
555
331
84
  5
84
331
551
  5
551
331
80
  5
80
331
54D
  5
54D
331
7C
  5
7C
331
78
  5
78
331
549
  5
549
331
945
  5
947
331
97F
  5
981
331
941
  5
943
331
97B
  5
97D
331
93D
  5
93F
331
977
  5
979
331
58D
  5
596
331
6D6
  5
6D8
331
710
  5
712
331
939
  5
93B
331
973
  5
975
331
5C8
  5
5CE
331
6D2
  5
6D4
  0
XRECORD
  5
D3
102
{ACAD_REACTORS
330
A2
102
}
330
A2
100
AcDbXrecord
280
     1
340
1A
  0
ACDBDETAILVIEWSTYLE
  5
77B
102
{ACAD_REACTORS
330
77A
102
}
330
77A
100
AcDbModelDocViewStyle
 70
     0
  3
Imperial24
290
     0
100
AcDbDetailViewStyle
 70
     0
 71
     0
 90
        3
 71
     1
340
11
 62
   256
 40
0.24
340
0
 62
   256
 40
0.24
300

 40
0.36
280
     3
 71
     2
340
15
 90
       25
 62
   256
 71
     3
340
11
 62
   256
 40
0.24
 90
        1
 40
0.75
 90
        1
300
%<\AcVar ViewType \f "%tc1">% %<\AcVar ViewDetailId>%\PVARIA %<\AcVar ViewScale \f "%sn">%
 71
     4
340
15
 90
       25
 62
   256
340
15
 90
       25
 62
   256
280
     0
  0
LAYOUT
  5
1D
102
{ACAD_REACTORS
330
19
102
}
330
19
100
AcDbPlotSettings
  1

  2
\\NT_WORK01\HP LaserJet 5000 PCL 6
  4

  6

 40
0.0
 41
0.0
 42
0.0
 43
0.0
 44
0.0
 45
0.0
 46
0.0
 47
0.0
 48
0.0
 49
0.0
140
0.0
141
0.0
142
1.0
143
1.0
 70
   688
 72
     0
 73
     0
 74
     5
  7

 75
    16
147
1.0
 76
     0
 77
     2
 78
   300
148
0.0
149
0.0
100
AcDbLayout
  1
Layout1
 70
     0
 71
     1
 10
0.0
 20
0.0
 11
12.0
 21
9.0
 12
0.0
 22
0.0
 32
0.0
 14
1.000000000000000E+20
 24
1.000000000000000E+20
 34
1.000000000000000E+20
 15
-1.000000000000000E+20
 25
-1.000000000000000E+20
 35
-1.000000000000000E+20
146
0.0
 13
0.0
 23
0.0
 33
0.0
 16
1.0
 26
0.0
 36
0.0
 17
0.0
 27
1.0
 37
0.0
 76
     0
330
1A
  0
LAYOUT
  5
21
102
{ACAD_XDICTIONARY
360
B84
102
}
102
{ACAD_REACTORS
330
19
102
}
330
19
100
AcDbPlotSettings
  1

  2
none_device
  4
Letter_(8.50_x_11.00_Inches)
  6

 40
6.349999904632568
 41
6.349999904632568
 42
6.350006103515625
 43
6.350006103515625
 44
215.8999938964844
 45
279.3999938964844
 46
0.0
 47
0.0
 48
0.0
 49
0.0
140
0.0
141
0.0
142
1.0
143
96.85502879013649
 70
 11952
 72
     0
 73
     1
 74
     0
  7

 75
     0
147
0.010324709129629
 76
     0
 77
     2
 78
   300
148
7581.617285276951
149
51.60919083862629
100
AcDbLayout
  1
Model
 70
     1
 71
     0
 10
0.0
 20
0.0
 11
12.0
 21
9.0
 12
0.0
 22
0.0
 32
0.0
 14
0.0
 24
0.0
 34
0.0
 15
0.0
 25
0.0
 35
0.0
146
0.0
 13
0.0
 23
0.0
 33
0.0
 16
1.0
 26
0.0
 36
0.0
 17
0.0
 27
1.0
 37
0.0
 76
     0
330
1E
331
72E
1001
ACAD_PSEXT
1000
Kein
1000
Kein
1000
Nicht anwendbar
1000
Das Layout wird erst geplottet, wenn ein neuer Plotter-Konfigurationsname ausgewählt wird.
1070
     0
  0
MATERIAL
  5
738
102
{ACAD_XDICTIONARY
360
739
102
}
102
{ACAD_REACTORS
330
DE
102
}
330
DE
100
AcDbMaterial
  1
ByBlock
 72
     0
 43
0.0208333333333333
 43
0.0
 43
0.0
 43
0.0
 43
0.0
 43
0.0208333333333333
 43
0.0
 43
0.0
 43
0.0
 43
0.0
 43
1.0
 43
0.0
 43
0.0
 43
0.0
 43
0.0
 43
1.0
 77
     0
 47
0.0208333333333333
 47
0.0
 47
0.0
 47
0.0
 47
0.0
 47
0.0208333333333333
 47
0.0
 47
0.0
 47
0.0
 47
0.0
 47
1.0
 47
0.0
 47
0.0
 47
0.0
 47
0.0
 47
1.0
171
     0
 49
0.0208333333333333
 49
0.0
 49
0.0
 49
0.0
 49
0.0
 49
0.0208333333333333
 49
0.0
 49
0.0
 49
0.0
 49
0.0
 49
1.0
 49
0.0
 49
0.0
 49
0.0
 49
0.0
 49
1.0
175
     0
142
0.0208333333333333
142
0.0
142
0.0
142
0.0
142
0.0
142
0.0208333333333333
142
0.0
142
0.0
142
0.0
142
0.0
142
1.0
142
0.0
142
0.0
142
0.0
142
0.0
142
1.0
179
     0
144
0.0208333333333333
144
0.0
144
0.0
144
0.0
144
0.0
144
0.0208333333333333
144
0.0
144
0.0
144
0.0
144
0.0
144
1.0
144
0.0
144
0.0
144
0.0
144
0.0
144
1.0
147
0.0208333333333333
147
0.0
147
0.0
147
0.0
147
0.0
147
0.0208333333333333
147
0.0
147
0.0
147
0.0
147
0.0
147
1.0
147
0.0
147
0.0
147
0.0
147
0.0
147
1.0
  0
MATERIAL
  5
730
102
{ACAD_XDICTIONARY
360
731
102
}
102
{ACAD_REACTORS
330
DE
102
}
330
DE
100
AcDbMaterial
  1
ByLayer
 72
     0
 43
0.0208333333333333
 43
0.0
 43
0.0
 43
0.0
 43
0.0
 43
0.0208333333333333
 43
0.0
 43
0.0
 43
0.0
 43
0.0
 43
1.0
 43
0.0
 43
0.0
 43
0.0
 43
0.0
 43
1.0
 77
     0
 47
0.0208333333333333
 47
0.0
 47
0.0
 47
0.0
 47
0.0
 47
0.0208333333333333
 47
0.0
 47
0.0
 47
0.0
 47
0.0
 47
1.0
 47
0.0
 47
0.0
 47
0.0
 47
0.0
 47
1.0
171
     0
 49
0.0208333333333333
 49
0.0
 49
0.0
 49
0.0
 49
0.0
 49
0.0208333333333333
 49
0.0
 49
0.0
 49
0.0
 49
0.0
 49
1.0
 49
0.0
 49
0.0
 49
0.0
 49
0.0
 49
1.0
175
     0
142
0.0208333333333333
142
0.0
142
0.0
142
0.0
142
0.0
142
0.0208333333333333
142
0.0
142
0.0
142
0.0
142
0.0
142
1.0
142
0.0
142
0.0
142
0.0
142
0.0
142
1.0
179
     0
144
0.0208333333333333
144
0.0
144
0.0
144
0.0
144
0.0
144
0.0208333333333333
144
0.0
144
0.0
144
0.0
144
0.0
144
1.0
144
0.0
144
0.0
144
0.0
144
0.0
144
1.0
147
0.0208333333333333
147
0.0
147
0.0
147
0.0
147
0.0
147
0.0208333333333333
147
0.0
147
0.0
147
0.0
147
0.0
147
1.0
147
0.0
147
0.0
147
0.0
147
0.0
147
1.0
  0
MATERIAL
  5
740
102
{ACAD_XDICTIONARY
360
741
102
}
102
{ACAD_REACTORS
330
DE
102
}
330
DE
100
AcDbMaterial
  1
Global
 72
     0
 43
0.0208333333333333
 43
0.0
 43
0.0
 43
0.0
 43
0.0
 43
0.0208333333333333
 43
0.0
 43
0.0
 43
0.0
 43
0.0
 43
1.0
 43
0.0
 43
0.0
 43
0.0
 43
0.0
 43
1.0
 77
     0
 47
0.0208333333333333
 47
0.0
 47
0.0
 47
0.0
 47
0.0
 47
0.0208333333333333
 47
0.0
 47
0.0
 47
0.0
 47
0.0
 47
1.0
 47
0.0
 47
0.0
 47
0.0
 47
0.0
 47
1.0
171
     0
 49
0.0208333333333333
 49
0.0
 49
0.0
 49
0.0
 49
0.0
 49
0.0208333333333333
 49
0.0
 49
0.0
 49
0.0
 49
0.0
 49
1.0
 49
0.0
 49
0.0
 49
0.0
 49
0.0
 49
1.0
175
     0
142
0.0208333333333333
142
0.0
142
0.0
142
0.0
142
0.0
142
0.0208333333333333
142
0.0
142
0.0
142
0.0
142
0.0
142
1.0
142
0.0
142
0.0
142
0.0
142
0.0
142
1.0
179
     0
144
0.0208333333333333
144
0.0
144
0.0
144
0.0
144
0.0
144
0.0208333333333333
144
0.0
144
0.0
144
0.0
144
0.0
144
1.0
144
0.0
144
0.0
144
0.0
144
0.0
144
1.0
147
0.0208333333333333
147
0.0
147
0.0
147
0.0
147
0.0
147
0.0208333333333333
147
0.0
147
0.0
147
0.0
147
0.0
147
1.0
147
0.0
147
0.0
147
0.0
147
0.0
147
1.0
  0
MLEADERSTYLE
  5
776
102
{ACAD_XDICTIONARY
360
CD1
102
}
102
{ACAD_REACTORS
330
775
102
}
330
775
100
AcDbMLeaderStyle
170
     2
171
     1
172
     0
 90
        2
 40
0.0
 41
0.0
173
     1
 91
-1056964608
340
13
 92
       -2
290
     1
 42
0.09
291
     1
 43
0.36
  3
Standard
 44
0.18
300

342
11
174
     1
178
     6
175
     1
176
     0
 93
-1056964608
 45
0.18
292
     0
297
     0
 46
0.18
 94
-1056964608
 47
1.0
 49
1.0
140
1.0
293
     1
141
0.0
294
     1
177
     0
142
1.0
295
     0
296
     0
143
0.125
1001
ACAD_MLEADERVER
1070
     2
  0
MLINESTYLE
  5
17
102
{ACAD_REACTORS
330
16
102
}
330
16
100
AcDbMlineStyle
  2
STANDARD
 70
     0
  3

 62
   256
 51
90.0
 52
90.0
 71
     2
 49
0.5
 62
   256
  6
BYLAYER
 49
-0.5
 62
   256
  6
BYLAYER
  0
ACDBPLACEHOLDER
  5
F
102
{ACAD_REACTORS
330
E
102
}
330
E
  0
SCALE
  5
764
102
{ACAD_REACTORS
330
763
102
}
330
763
100
AcDbScale
 70
     0
300
1:1
140
1.0
141
1.0
290
     1
  0
SCALE
  5
765
102
{ACAD_REACTORS
330
763
102
}
330
763
100
AcDbScale
 70
     0
300
1/128" = 1'-0"
140
0.0078125
141
12.0
290
     0
  0
SCALE
  5
766
102
{ACAD_REACTORS
330
763
102
}
330
763
100
AcDbScale
 70
     0
300
1/64" = 1'-0"
140
0.015625
141
12.0
290
     0
  0
SCALE
  5
767
102
{ACAD_REACTORS
330
763
102
}
330
763
100
AcDbScale
 70
     0
300
1/32" = 1'-0"
140
0.03125
141
12.0
290
     0
  0
SCALE
  5
768
102
{ACAD_REACTORS
330
763
102
}
330
763
100
AcDbScale
 70
     0
300
1/16" = 1'-0"
140
0.0625
141
12.0
290
     0
  0
SCALE
  5
769
102
{ACAD_REACTORS
330
763
102
}
330
763
100
AcDbScale
 70
     0
300
3/32" = 1'-0"
140
0.09375
141
12.0
290
     0
  0
SCALE
  5
76A
102
{ACAD_REACTORS
330
763
102
}
330
763
100
AcDbScale
 70
     0
300
1/8" = 1'-0"
140
0.125
141
12.0
290
     0
  0
SCALE
  5
76B
102
{ACAD_REACTORS
330
763
102
}
330
763
100
AcDbScale
 70
     0
300
3/16" = 1'-0"
140
0.1875
141
12.0
290
     0
  0
SCALE
  5
76C
102
{ACAD_REACTORS
330
763
102
}
330
763
100
AcDbScale
 70
     0
300
1/4" = 1'-0"
140
0.25
141
12.0
290
     0
  0
SCALE
  5
76D
102
{ACAD_REACTORS
330
763
102
}
330
763
100
AcDbScale
 70
     0
300
3/8" = 1'-0"
140
0.375
141
12.0
290
     0
  0
SCALE
  5
76E
102
{ACAD_REACTORS
330
763
102
}
330
763
100
AcDbScale
 70
     0
300
1/2" = 1'-0"
140
0.5
141
12.0
290
     0
  0
SCALE
  5
76F
102
{ACAD_REACTORS
330
763
102
}
330
763
100
AcDbScale
 70
     0
300
3/4" = 1'-0"
140
0.75
141
12.0
290
     0
  0
SCALE
  5
770
102
{ACAD_REACTORS
330
763
102
}
330
763
100
AcDbScale
 70
     0
300
1" = 1'-0"
140
1.0
141
12.0
290
     0
  0
SCALE
  5
771
102
{ACAD_REACTORS
330
763
102
}
330
763
100
AcDbScale
 70
     0
300
1-1/2" = 1'-0"
140
1.5
141
12.0
290
     0
  0
SCALE
  5
772
102
{ACAD_REACTORS
330
763
102
}
330
763
100
AcDbScale
 70
     0
300
3" = 1'-0"
140
3.0
141
12.0
290
     0
  0
SCALE
  5
773
102
{ACAD_REACTORS
330
763
102
}
330
763
100
AcDbScale
 70
     0
300
6" = 1'-0"
140
6.0
141
12.0
290
     0
  0
SCALE
  5
774
102
{ACAD_REACTORS
330
763
102
}
330
763
100
AcDbScale
 70
     0
300
1'-0" = 1'-0"
140
12.0
141
12.0
290
     0
  0
ACDBSECTIONVIEWSTYLE
  5
779
102
{ACAD_REACTORS
330
777
102
}
330
777
100
AcDbModelDocViewStyle
 70
     0
  3
Imperial24
290
     0
100
AcDbSectionViewStyle
 70
     0
 71
     0
 90
       78
 71
     1
340
11
 62
   256
 40
0.24
340
0
340
0
 62
   256
 40
0.24
300
I, O, Q, S, X, Z
 40
0.48
 90
        3
 40
0.18
 90
        1
 71
     2
340
778
 90
       25
 62
   256
340
15
 90
       50
 62
   256
 40
0.24
 40
0.0
 40
0.24
 71
     3
340
11
 62
   256
 40
0.24
 90
        1
 40
0.75
 90
        1
300
%<\AcVar ViewType \f "%tc1">% %<\AcVar ViewSectionStartId>%-%<\AcVar ViewSectionEndId>%\PVARIA %<\AcVar ViewScale \f "%sn">%
 71
     4
 62
   256
 62
   257
300
ANSI31
 40
1.0
 90
        0
290
     0
290
     0
 90
        6
 40
0.0
 40
1.570796326794896
 40
0.2617993877991494
 40
1.308996938995747
 40
-0.2617993877991494
 40
1.832595714594046
  0
TABLESTYLE
  5
762
102
{ACAD_XDICTIONARY
360
82F
102
}
102
{ACAD_REACTORS
330
761
102
}
330
761
100
AcDbTableStyle
  3
Standard
 70
     0
 71
     0
 40
0.06
 41
0.06
280
     0
281
     0
  7
STANDARD
140
0.18
170
     2
 62
     0
 63
     7
283
     0
274
    -2
284
     1
 64
     0
275
    -2
285
     1
 65
     0
276
    -2
286
     1
 66
     0
277
    -2
287
     1
 67
     0
278
    -2
288
     1
 68
     0
279
    -2
289
     1
 69
     0
  7
STANDARD
140
0.25
170
     5
 62
     0
 63
     7
283
     0
274
    -2
284
     1
 64
     0
275
    -2
285
     1
 65
     0
276
    -2
286
     1
 66
     0
277
    -2
287
     1
 67
     0
278
    -2
288
     1
 68
     0
279
    -2
289
     1
 69
     0
  7
STANDARD
140
0.18
170
     5
 62
     0
 63
     7
283
     0
274
    -2
284
     1
 64
     0
275
    -2
285
     1
 65
     0
276
    -2
286
     1
 66
     0
277
    -2
287
     1
 67
     0
278
    -2
288
     1
 68
     0
279
    -2
289
     1
 69
     0
  0
VISUALSTYLE
  5
74E
102
{ACAD_XDICTIONARY
360
CAA
102
}
102
{ACAD_REACTORS
330
748
102
}
330
748
100
AcDbVisualStyle
  2
2dWireframe
 70
     4
 71
     0
 72
     2
 73
     0
 90
        0
 40
-0.6
 41
-30.0
 62
     5
 63
     7
421
 16777215
 74
     1
 91
        4
 64
     7
 65
   257
 75
     1
175
     1
 42
1.0
 92
        0
 66
   257
 43
1.0
 76
     1
 77
     6
 78
     2
 67
     7
 79
     5
170
     0
171
     0
290
     0
174
     0
 93
        1
 44
0.0
173
     0
291
     0
 45
0.0
1001
ACAD
1000
AcDbSavedByObjectVersion
1070
     0
  0
VISUALSTYLE
  5
74D
102
{ACAD_XDICTIONARY
360
CA8
102
}
102
{ACAD_REACTORS
330
748
102
}
330
748
100
AcDbVisualStyle
  2
Basic
 70
     7
 71
     1
 72
     0
 73
     1
 90
        0
 40
-0.6
 41
-30.0
 62
     5
 63
     7
421
 16777215
 74
     0
 91
        4
 64
     7
 65
   257
 75
     1
175
     1
 42
1.0
 92
        8
 66
     7
 43
1.0
 76
     1
 77
     6
 78
     2
 67
     7
 79
     5
170
     0
171
     0
290
     0
174
     0
 93
        1
 44
0.0
173
     0
291
     1
 45
0.0
1001
ACAD
1000
AcDbSavedByObjectVersion
1070
     0
  0
VISUALSTYLE
  5
754
102
{ACAD_XDICTIONARY
360
CB6
102
}
102
{ACAD_REACTORS
330
748
102
}
330
748
100
AcDbVisualStyle
  2
Brighten
 70
    12
 71
     2
 72
     2
 73
     0
 90
        0
 40
-0.6
 41
-30.0
 62
     5
 63
     7
421
 16777215
 74
     1
 91
        4
 64
     7
 65
   257
 75
     1
175
     1
 42
1.0
 92
        8
 66
     7
 43
1.0
 76
     1
 77
     6
 78
     2
 67
     7
 79
     5
170
     0
171
     0
290
     0
174
     0
 93
        1
 44
50.0
173
     0
291
     1
 45
0.0
1001
ACAD
1000
AcDbSavedByObjectVersion
1070
     0
  0
VISUALSTYLE
  5
758
102
{ACAD_XDICTIONARY
360
CBE
102
}
102
{ACAD_REACTORS
330
748
102
}
330
748
100
AcDbVisualStyle
  2
ColorChange
 70
    16
 71
     2
 72
     2
 73
     3
 90
        0
 40
-0.6
 41
-30.0
 62
     5
 63
     8
421
  8421504
 74
     1
 91
        4
 64
     7
 65
   257
 75
     1
175
     1
 42
1.0
 92
        8
 66
     8
424
  8421504
 43
1.0
 76
     1
 77
     6
 78
     2
 67
     7
 79
     5
170
     0
171
     0
290
     0
174
     0
 93
        1
 44
0.0
173
     0
291
     1
 45
0.0
1001
ACAD
1000
AcDbSavedByObjectVersion
1070
     0
  0
VISUALSTYLE
  5
751
102
{ACAD_XDICTIONARY
360
CB0
102
}
102
{ACAD_REACTORS
330
748
102
}
330
748
100
AcDbVisualStyle
  2
Conceptual
 70
     9
 71
     3
 72
     2
 73
     0
 90
        0
 40
-0.6
 41
-30.0
 62
     5
 63
     7
421
 16777215
 74
     2
 91
        2
 64
     7
 65
   257
 75
     1
175
     1
 42
179.0
 92
        8
 66
     7
 43
1.0
 76
     1
 77
     6
 78
     2
 67
     7
 79
     3
170
     0
171
     0
290
     0
174
     0
 93
        1
 44
0.0
173
     0
291
     0
 45
0.0
1001
ACAD
1000
AcDbSavedByObjectVersion
1070
     0
  0
VISUALSTYLE
  5
753
102
{ACAD_XDICTIONARY
360
CB4
102
}
102
{ACAD_REACTORS
330
748
102
}
330
748
100
AcDbVisualStyle
  2
Dim
 70
    11
 71
     2
 72
     2
 73
     0
 90
        0
 40
-0.6
 41
-30.0
 62
     5
 63
     7
421
 16777215
 74
     1
 91
        4
 64
     7
 65
   257
 75
     1
175
     1
 42
1.0
 92
        8
 66
     7
 43
1.0
 76
     1
 77
     6
 78
     2
 67
     7
 79
     5
170
     0
171
     0
290
     0
174
     0
 93
        1
 44
-50.0
173
     0
291
     1
 45
0.0
1001
ACAD
1000
AcDbSavedByObjectVersion
1070
     0
  0
VISUALSTYLE
  5
760
102
{ACAD_XDICTIONARY
360
CCE
102
}
102
{ACAD_REACTORS
330
748
102
}
330
748
100
AcDbVisualStyle
  2
EdgeColorOff
 70
    22
 71
     2
 72
     2
 73
     0
 90
        0
 40
-0.6
 41
-30.0
 62
     5
 63
     7
421
 16777215
 74
     1
 91
        4
 64
     7
 65
   257
 75
     1
175
     1
 42
1.0
 92
        8
 66
     7
 43
1.0
 76
     1
 77
     6
 78
     2
 67
     7
 79
     5
170
     0
171
     0
290
     0
174
     0
 93
        1
 44
0.0
173
     0
291
     1
 45
0.0
1001
ACAD
1000
AcDbSavedByObjectVersion
1070
     0
  0
VISUALSTYLE
  5
757
102
{ACAD_XDICTIONARY
360
CBC
102
}
102
{ACAD_REACTORS
330
748
102
}
330
748
100
AcDbVisualStyle
  2
Facepattern
 70
    15
 71
     2
 72
     2
 73
     0
 90
        0
 40
-0.6
 41
-30.0
 62
     5
 63
     7
421
 16777215
 74
     1
 91
        4
 64
     7
 65
   257
 75
     1
175
     1
 42
1.0
 92
        8
 66
     7
 43
1.0
 76
     1
 77
     6
 78
     2
 67
     7
 79
     5
170
     0
171
     0
290
     0
174
     0
 93
        1
 44
0.0
173
     0
291
     1
 45
0.0
1001
ACAD
1000
AcDbSavedByObjectVersion
1070
     0
  0
VISUALSTYLE
  5
749
102
{ACAD_XDICTIONARY
360
CA0
102
}
102
{ACAD_REACTORS
330
748
102
}
330
748
100
AcDbVisualStyle
  2
Flat
 70
     0
 71
     2
 72
     1
 73
     1
 90
        2
 40
-0.6
 41
30.0
 62
     5
 63
     7
421
 16777215
 74
     0
 91
        0
 64
     7
 65
   257
 75
     1
175
     1
 42
1.0
 92
        8
 66
     7
 43
1.0
 76
     1
 77
     6
 78
     2
 67
     7
 79
     5
170
     0
171
     0
290
     0
174
     0
 93
       13
 44
0.0
173
     0
291
     1
 45
0.0
1001
ACAD
1000
AcDbSavedByObjectVersion
1070
     0
  0
VISUALSTYLE
  5
74A
102
{ACAD_XDICTIONARY
360
CA2
102
}
102
{ACAD_REACTORS
330
748
102
}
330
748
100
AcDbVisualStyle
  2
FlatWithEdges
 70
     1
 71
     2
 72
     1
 73
     1
 90
        2
 40
-0.6
 41
30.0
 62
     5
 63
     7
421
 16777215
 74
     1
 91
        0
 64
     7
 65
   257
 75
     1
175
     1
 42
1.0
 92
        0
 66
   257
 43
1.0
 76
     1
 77
     6
 78
     2
 67
     7
 79
     5
170
     0
171
     0
290
     0
174
     0
 93
       13
 44
0.0
173
     0
291
     1
 45
0.0
1001
ACAD
1000
AcDbSavedByObjectVersion
1070
     0
  0
VISUALSTYLE
  5
74B
102
{ACAD_XDICTIONARY
360
CA4
102
}
102
{ACAD_REACTORS
330
748
102
}
330
748
100
AcDbVisualStyle
  2
Gouraud
 70
     2
 71
     2
 72
     2
 73
     1
 90
        2
 40
-0.6
 41
30.0
 62
     5
 63
     7
421
 16777215
 74
     0
 91
        0
 64
     7
 65
   257
 75
     1
175
     1
 42
1.0
 92
        0
 66
     7
 43
1.0
 76
     1
 77
     6
 78
     2
 67
     7
 79
     5
170
     0
171
     0
290
     0
174
     0
 93
       13
 44
0.0
173
     0
291
     1
 45
0.0
1001
ACAD
1000
AcDbSavedByObjectVersion
1070
     0
  0
VISUALSTYLE
  5
74C
102
{ACAD_XDICTIONARY
360
CA6
102
}
102
{ACAD_REACTORS
330
748
102
}
330
748
100
AcDbVisualStyle
  2
GouraudWithEdges
 70
     3
 71
     2
 72
     2
 73
     1
 90
        2
 40
-0.6
 41
30.0
 62
     5
 63
     7
421
 16777215
 74
     1
 91
        0
 64
     7
 65
   257
 75
     1
175
     1
 42
1.0
 92
        0
 66
   257
 43
1.0
 76
     1
 77
     6
 78
     2
 67
     7
 79
     5
170
     0
171
     0
290
     0
174
     0
 93
       13
 44
0.0
173
     0
291
     1
 45
0.0
1001
ACAD
1000
AcDbSavedByObjectVersion
1070
     0
  0
VISUALSTYLE
  5
750
102
{ACAD_XDICTIONARY
360
CAE
102
}
102
{ACAD_REACTORS
330
748
102
}
330
748
100
AcDbVisualStyle
  2
Hidden
 70
     6
 71
     1
 72
     2
 73
     2
 90
        0
 40
-0.6
 41
-30.0
 62
     5
 63
     7
421
 16777215
 74
     2
 91
        2
 64
     7
 65
   257
 75
     2
175
     1
 42
40.0
 92
        0
 66
   257
 43
1.0
 76
     1
 77
     6
 78
     2
 67
     7
 79
     3
170
     0
171
     0
290
     0
174
     0
 93
        1
 44
0.0
173
     0
291
     0
 45
0.0
1001
ACAD
1000
AcDbSavedByObjectVersion
1070
     0
  0
VISUALSTYLE
  5
75E
102
{ACAD_XDICTIONARY
360
CCA
102
}
102
{ACAD_REACTORS
330
748
102
}
330
748
100
AcDbVisualStyle
  2
JitterOff
 70
    20
 71
     2
 72
     2
 73
     0
 90
        0
 40
-0.6
 41
-30.0
 62
     5
 63
     7
421
 16777215
 74
     1
 91
        4
 64
     7
 65
   257
 75
     1
175
     1
 42
1.0
 92
       10
 66
     7
 43
1.0
 76
     1
 77
     6
 78
     2
 67
     7
 79
     5
170
     0
171
     0
290
     0
174
     0
 93
        1
 44
0.0
173
     0
291
     1
 45
0.0
1001
ACAD
1000
AcDbSavedByObjectVersion
1070
     0
  0
VISUALSTYLE
  5
756
102
{ACAD_XDICTIONARY
360
CBA
102
}
102
{ACAD_REACTORS
330
748
102
}
330
748
100
AcDbVisualStyle
  2
Linepattern
 70
    14
 71
     2
 72
     2
 73
     0
 90
        0
 40
-0.6
 41
-30.0
 62
     5
 63
     7
421
 16777215
 74
     1
 91
        4
 64
     7
 65
   257
 75
     7
175
     7
 42
1.0
 92
        8
 66
     7
 43
1.0
 76
     1
 77
     6
 78
     2
 67
     7
 79
     5
170
     0
171
     0
290
     0
174
     0
 93
        1
 44
0.0
173
     0
291
     1
 45
0.0
1001
ACAD
1000
AcDbSavedByObjectVersion
1070
     0
  0
VISUALSTYLE
  5
75F
102
{ACAD_XDICTIONARY
360
CCC
102
}
102
{ACAD_REACTORS
330
748
102
}
330
748
100
AcDbVisualStyle
  2
OverhangOff
 70
    21
 71
     2
 72
     2
 73
     0
 90
        0
 40
-0.6
 41
-30.0
 62
     5
 63
     7
421
 16777215
 74
     1
 91
        4
 64
     7
 65
   257
 75
     1
175
     1
 42
1.0
 92
        9
 66
     7
 43
1.0
 76
     1
 77
     6
 78
     2
 67
     7
 79
     5
170
     0
171
     0
290
     0
174
     0
 93
        1
 44
0.0
173
     0
291
     1
 45
0.0
1001
ACAD
1000
AcDbSavedByObjectVersion
1070
     0
  0
VISUALSTYLE
  5
752
102
{ACAD_XDICTIONARY
360
CB2
102
}
102
{ACAD_REACTORS
330
748
102
}
330
748
100
AcDbVisualStyle
  2
Realistic
 70
     8
 71
     2
 72
     2
 73
     0
 90
        2
 40
-0.6
 41
30.0
 62
     5
 63
     7
421
 16777215
 74
     0
 91
        0
 64
     7
 65
   257
 75
     1
175
     1
 42
1.0
 92
        8
 66
   257
 43
1.0
 76
     1
 77
     6
 78
     2
 67
     7
 79
     3
170
     0
171
     0
290
     0
174
     0
 93
       13
 44
0.0
173
     0
291
     0
 45
0.0
1001
ACAD
1000
AcDbSavedByObjectVersion
1070
     0
  0
VISUALSTYLE
  5
75D
102
{ACAD_XDICTIONARY
360
CC8
102
}
102
{ACAD_REACTORS
330
748
102
}
330
748
100
AcDbVisualStyle
  2
Shaded
 70
    27
 71
     2
 72
     2
 73
     1
 90
        2
 40
-0.6
 41
30.0
 62
     5
 63
     7
421
 16777215
 74
     0
 91
        4
 64
     7
 65
   257
 75
     1
175
     1
 42
1.0
 92
        8
 66
   257
 43
1.0
 76
     1
 77
     6
 78
     2
 67
     8
425
  7895160
 79
     3
170
     0
171
     0
290
     0
174
     0
 93
        5
 44
0.0
173
     0
291
     0
 45
0.0
1001
ACAD
1000
AcDbSavedByObjectVersion
1070
     0
  0
VISUALSTYLE
  5
75C
102
{ACAD_XDICTIONARY
360
CC6
102
}
102
{ACAD_REACTORS
330
748
102
}
330
748
100
AcDbVisualStyle
  2
Shaded with edges
 70
    26
 71
     2
 72
     2
 73
     1
 90
        2
 40
-0.6
 41
30.0
 62
     5
 63
     7
421
 16777215
 74
     1
 91
       10
 64
     7
 65
   257
 75
     2
175
     1
 42
1.0
 92
        8
 66
   257
 43
1.0
 76
     1
 77
     6
 78
     2
 67
     7
 79
     3
170
     0
171
     0
290
     0
174
     0
 93
        5
 44
0.0
173
     0
291
     0
 45
0.0
1001
ACAD
1000
AcDbSavedByObjectVersion
1070
     0
  0
VISUALSTYLE
  5
759
102
{ACAD_XDICTIONARY
360
CC0
102
}
102
{ACAD_REACTORS
330
748
102
}
330
748
100
AcDbVisualStyle
  2
Shades of Gray
 70
    23
 71
     2
 72
     2
 73
     3
 90
        0
 40
-0.6
 41
-30.0
 62
     5
 63
     7
421
 16777215
 74
     2
 91
        2
 64
     7
 65
     7
 75
     1
175
     1
 42
40.0
 92
        8
 66
     7
 43
1.0
 76
     1
 77
     6
 78
     2
 67
     7
 79
     3
170
     0
171
     0
290
     0
174
     0
 93
        1
 44
0.0
173
     0
291
     0
 45
0.0
1001
ACAD
1000
AcDbSavedByObjectVersion
1070
     0
  0
VISUALSTYLE
  5
75A
102
{ACAD_XDICTIONARY
360
CC2
102
}
102
{ACAD_REACTORS
330
748
102
}
330
748
100
AcDbVisualStyle
  2
Sketchy
 70
    24
 71
     1
 72
     2
 73
     2
 90
        0
 40
-0.6
 41
-30.0
 62
     5
 63
     7
421
 16777215
 74
     2
 91
        2
 64
     7
 65
     7
 75
     1
175
     1
 42
40.0
 92
       11
 66
     7
 43
1.0
 76
     1
 77
     6
 78
     2
 67
     7
 79
     6
170
     0
171
     0
290
     0
174
     0
 93
        1
 44
0.0
173
     0
291
     0
 45
0.0
1001
ACAD
1000
AcDbSavedByObjectVersion
1070
     0
  0
VISUALSTYLE
  5
755
102
{ACAD_XDICTIONARY
360
CB8
102
}
102
{ACAD_REACTORS
330
748
102
}
330
748
100
AcDbVisualStyle
  2
Thicken
 70
    13
 71
     2
 72
     2
 73
     0
 90
        0
 40
-0.6
 41
-30.0
 62
     5
 63
     7
421
 16777215
 74
     1
 91
        4
 64
     7
 65
   257
 75
     1
175
     1
 42
1.0
 92
       12
 66
     7
 43
1.0
 76
     1
 77
     6
 78
     2
 67
     7
 79
     5
170
     0
171
     0
290
     0
174
     0
 93
        1
 44
0.0
173
     0
291
     1
 45
0.0
1001
ACAD
1000
AcDbSavedByObjectVersion
1070
     0
  0
VISUALSTYLE
  5
74F
102
{ACAD_XDICTIONARY
360
CAC
102
}
102
{ACAD_REACTORS
330
748
102
}
330
748
100
AcDbVisualStyle
  2
Wireframe
 70
     5
 71
     0
 72
     2
 73
     0
 90
        0
 40
-0.6
 41
-30.0
 62
     5
 63
     7
421
 16777215
 74
     1
 91
        4
 64
     7
 65
   257
 75
     1
175
     1
 42
1.0
 92
        0
 66
   257
 43
1.0
 76
     1
 77
     6
 78
     2
 67
     7
 79
     3
170
     0
171
     0
290
     0
174
     0
 93
        1
 44
0.0
173
     0
291
     0
 45
0.0
1001
ACAD
1000
AcDbSavedByObjectVersion
1070
     0
  0
VISUALSTYLE
  5
75B
102
{ACAD_XDICTIONARY
360
CC4
102
}
102
{ACAD_REACTORS
330
748
102
}
330
748
100
AcDbVisualStyle
  2
X-Ray
 70
    25
 71
     2
 72
     2
 73
     1
 90
        1
 40
0.5
 41
-30.0
 62
     5
 63
     7
421
 16777215
 74
     1
 91
        0
 64
     7
 65
   257
 75
     1
175
     1
 42
1.0
 92
        8
 66
     7
 43
1.0
 76
     1
 77
     6
 78
     2
 67
     7
 79
     3
170
     0
171
     0
290
     0
174
     0
 93
       13
 44
0.0
173
     0
291
     0
 45
0.0
1001
ACAD
1000
AcDbSavedByObjectVersion
1070
     0
  0
DICTIONARYVAR
  5
86F
102
{ACAD_REACTORS
330
EA
102
}
330
EA
100
DictionaryVariables
280
     0
  1
1:1
  0
DICTIONARYVAR
  5
86C
102
{ACAD_REACTORS
330
EA
102
}
330
EA
100
DictionaryVariables
280
     0
  1
STANDARD
  0
DICTIONARYVAR
  5
86B
102
{ACAD_REACTORS
330
EA
102
}
330
EA
100
DictionaryVariables
280
     0
  1
STANDARD
  0
DICTIONARYVAR
  5
86D
102
{ACAD_REACTORS
330
EA
102
}
330
EA
100
DictionaryVariables
280
     0
  1
Imperial24
  0
DICTIONARYVAR
  5
86E
102
{ACAD_REACTORS
330
EA
102
}
330
EA
100
DictionaryVariables
280
     0
  1
Imperial24
  0
DICTIONARYVAR
  5
EB
102
{ACAD_REACTORS
330
EA
102
}
330
EA
100
DictionaryVariables
280
     0
  1
1
  0
DICTIONARYVAR
  5
EC
102
{ACAD_REACTORS
330
EA
102
}
330
EA
100
DictionaryVariables
280
     0
  1

  0
DICTIONARY
  5
B84
330
21
100
AcDbDictionary
280
     1
281
     1
  3
ADSK_XREC_LAYOUTTHUMBNAIL
360
B85
  0
DICTIONARY
  5
739
330
738
100
AcDbDictionary
280
     1
281
     1
  3
ACAD_XREC_ROUNDTRIP
360
C9E
  3
BUMPTILE
360
73B
  3
DIFFUSETILE
360
73A
  3
OPACITYTILE
360
73E
  3
REFLECTIONTILE
360
73D
  3
REFRACTIONTILE
360
73F
  3
SPECULARTILE
360
73C
  0
DICTIONARY
  5
731
330
730
100
AcDbDictionary
280
     1
281
     1
  3
ACAD_XREC_ROUNDTRIP
360
C9D
  3
BUMPTILE
360
733
  3
DIFFUSETILE
360
732
  3
OPACITYTILE
360
736
  3
REFLECTIONTILE
360
735
  3
REFRACTIONTILE
360
737
  3
SPECULARTILE
360
734
  0
DICTIONARY
  5
741
330
740
100
AcDbDictionary
280
     1
281
     1
  3
ACAD_XREC_ROUNDTRIP
360
C9F
  3
BUMPTILE
360
743
  3
DIFFUSETILE
360
742
  3
OPACITYTILE
360
746
  3
REFLECTIONTILE
360
745
  3
REFRACTIONTILE
360
747
  3
SPECULARTILE
360
744
  0
DICTIONARY
  5
CD1
330
776
100
AcDbDictionary
280
     1
281
     1
  3
ACAD_XREC_ROUNDTRIP
360
CD2
  0
DICTIONARY
  5
82F
330
762
100
AcDbDictionary
280
     1
281
     1
  3
ACAD_ROUNDTRIP_2008_TABLESTYLE_CELLSTYLEMAP
360
C9B
  3
ACAD_XREC_ROUNDTRIP
360
CD0
  0
DICTIONARY
  5
CAA
330
74E
100
AcDbDictionary
280
     1
281
     1
  3
ACAD_XREC_ROUNDTRIP
360
CAB
  0
DICTIONARY
  5
CA8
330
74D
100
AcDbDictionary
280
     1
281
     1
  3
ACAD_XREC_ROUNDTRIP
360
CA9
  0
DICTIONARY
  5
CB6
330
754
100
AcDbDictionary
280
     1
281
     1
  3
ACAD_XREC_ROUNDTRIP
360
CB7
  0
DICTIONARY
  5
CBE
330
758
100
AcDbDictionary
280
     1
281
     1
  3
ACAD_XREC_ROUNDTRIP
360
CBF
  0
DICTIONARY
  5
CB0
330
751
100
AcDbDictionary
280
     1
281
     1
  3
ACAD_XREC_ROUNDTRIP
360
CB1
  0
DICTIONARY
  5
CB4
330
753
100
AcDbDictionary
280
     1
281
     1
  3
ACAD_XREC_ROUNDTRIP
360
CB5
  0
DICTIONARY
  5
CCE
330
760
100
AcDbDictionary
280
     1
281
     1
  3
ACAD_XREC_ROUNDTRIP
360
CCF
  0
DICTIONARY
  5
CBC
330
757
100
AcDbDictionary
280
     1
281
     1
  3
ACAD_XREC_ROUNDTRIP
360
CBD
  0
DICTIONARY
  5
CA0
330
749
100
AcDbDictionary
280
     1
281
     1
  3
ACAD_XREC_ROUNDTRIP
360
CA1
  0
DICTIONARY
  5
CA2
330
74A
100
AcDbDictionary
280
     1
281
     1
  3
ACAD_XREC_ROUNDTRIP
360
CA3
  0
DICTIONARY
  5
CA4
330
74B
100
AcDbDictionary
280
     1
281
     1
  3
ACAD_XREC_ROUNDTRIP
360
CA5
  0
DICTIONARY
  5
CA6
330
74C
100
AcDbDictionary
280
     1
281
     1
  3
ACAD_XREC_ROUNDTRIP
360
CA7
  0
DICTIONARY
  5
CAE
330
750
100
AcDbDictionary
280
     1
281
     1
  3
ACAD_XREC_ROUNDTRIP
360
CAF
  0
DICTIONARY
  5
CCA
330
75E
100
AcDbDictionary
280
     1
281
     1
  3
ACAD_XREC_ROUNDTRIP
360
CCB
  0
DICTIONARY
  5
CBA
330
756
100
AcDbDictionary
280
     1
281
     1
  3
ACAD_XREC_ROUNDTRIP
360
CBB
  0
DICTIONARY
  5
CCC
330
75F
100
AcDbDictionary
280
     1
281
     1
  3
ACAD_XREC_ROUNDTRIP
360
CCD
  0
DICTIONARY
  5
CB2
330
752
100
AcDbDictionary
280
     1
281
     1
  3
ACAD_XREC_ROUNDTRIP
360
CB3
  0
DICTIONARY
  5
CC8
330
75D
100
AcDbDictionary
280
     1
281
     1
  3
ACAD_XREC_ROUNDTRIP
360
CC9
  0
DICTIONARY
  5
CC6
330
75C
100
AcDbDictionary
280
     1
281
     1
  3
ACAD_XREC_ROUNDTRIP
360
CC7
  0
DICTIONARY
  5
CC0
330
759
100
AcDbDictionary
280
     1
281
     1
  3
ACAD_XREC_ROUNDTRIP
360
CC1
  0
DICTIONARY
  5
CC2
330
75A
100
AcDbDictionary
280
     1
281
     1
  3
ACAD_XREC_ROUNDTRIP
360
CC3
  0
DICTIONARY
  5
CB8
330
755
100
AcDbDictionary
280
     1
281
     1
  3
ACAD_XREC_ROUNDTRIP
360
CB9
  0
DICTIONARY
  5
CAC
330
74F
100
AcDbDictionary
280
     1
281
     1
  3
ACAD_XREC_ROUNDTRIP
360
CAD
  0
DICTIONARY
  5
CC4
330
75B
100
AcDbDictionary
280
     1
281
     1
  3
ACAD_XREC_ROUNDTRIP
360
CC5
  0
XRECORD
  5
B85
102
{ACAD_REACTORS
330
B84
102
}
330
B84
100
AcDbXrecord
280
     1
310
280000000001000096000000010008000000000000960000010000000100000000010000000000000000000000000040C8C8C8FF000000FF000000FF000000FF000000FF000000FF000000FF000000FF000000FF330000FF660000FF990000FFCC0000FFFF0000FF003300FF333300FF663300FF993300FFCC3300FFFF3300
310
FF006600FF336600FF666600FF996600FFCC6600FFFF6600FF009900FF339900FF669900FF999900FFCC9900FFFF9900FF00CC00FF33CC00FF66CC00FF99CC00FFCCCC00FFFFCC00FF00FF00FF33FF00FF66FF00FF99FF00FFCCFF00FFFFFF00FF000033FF330033FF660033FF990033FFCC0033FFFF0033FF003333FF3333
310
33FF663333FF993333FFCC3333FFFF3333FF006633FF336633FF666633FF996633FFCC6633FFFF6633FF009933FF339933FF669933FF999933FFCC9933FFFF9933FF00CC33FF33CC33FF66CC33FF99CC33FFCCCC33FFFFCC33FF00FF33FF33FF33FF66FF33FF99FF33FFCCFF33FFFFFF33FF000066FF330066FF660066FF99
310
0066FFCC0066FFFF0066FF003366FF333366FF663366FF993366FFCC3366FFFF3366FF006666FF336666FF666666FF996666FFCC6666FFFF6666FF009966FF339966FF669966FF999966FFCC9966FFFF9966FF00CC66FF33CC66FF66CC66FF99CC66FFCCCC66FFFFCC66FF00FF66FF33FF66FF66FF66FF99FF66FFCCFF66FF
310
FFFF66FF000099FF330099FF660099FF990099FFCC0099FFFF0099FF003399FF333399FF663399FF993399FFCC3399FFFF3399FF006699FF336699FF666699FF996699FFCC6699FFFF6699FF009999FF339999FF669999FF999999FFCC9999FFFF9999FF00CC99FF33CC99FF66CC99FF99CC99FFCCCC99FFFFCC99FF00FF99
310
FF33FF99FF66FF99FF99FF99FFCCFF99FFFFFF99FF0000CCFF3300CCFF6600CCFF9900CCFFCC00CCFFFF00CCFF0033CCFF3333CCFF6633CCFF9933CCFFCC33CCFFFF33CCFF0066CCFF3366CCFF6666CCFF9966CCFFCC66CCFFFF66CCFF0099CCFF3399CCFF6699CCFF9999CCFFCC99CCFFFF99CCFF00CCCCFF33CCCCFF66CC
310
CCFF99CCCCFFCCCCCCFFFFCCCCFF00FFCCFF33FFCCFF66FFCCFF99FFCCFFCCFFCCFFFFFFCCFF0000FFFF3300FFFF6600FFFF9900FFFFCC00FFFFFF00FFFF0033FFFF3333FFFF6633FFFF9933FFFFCC33FFFFFF33FFFF0066FFFF3366FFFF6666FFFF9966FFFFCC66FFFFFF66FFFF0099FFFF3399FFFF6699FFFF9999FFFFCC
310
99FFFFFF99FFFF00CCFFFF33CCFFFF66CCFFFF99CCFFFFCCCCFFFFFFCCFFFF00FFFFFF33FFFFFF66FFFFFF99FFFFFFCCFFFFFFFFFFFFFF000000FF0D0D0DFF1A1A1AFF282828FF353535FF434343FF505050FF5D5D5DFF6B6B6BFF787878FF868686FF939393FFA1A1A1FFAEAEAEFFBBBBBBFFC9C9C9FFD6D6D6FFE4E4E4FF
310
F1F1F1FFFFFFFFFF000000FF000000FF000000FF000000FF000000FF000000FF000000FF000000FF000000FF000000FF00000000000000000000000000000000000000000000000000000000000000000000000000000000000000000000000000000000000000000000000000000000000000000000000000000000000000
310
00000000000000000000000000000000000000000000000000000000000000000000000000000000000000000000000000000000000000000000000000000000000000000000000000000000000000000000000000000000000000000000000000000000000000000000000000000000000000000000000000000000000000
310
0000000000000000000000000000000000000000000000000000000000000000000000000000000000000000000000000000000000000000000000000000000000000000000000000000000000000000000000000000000000000000000000000000000000000000000000000000000000000000000000000000000000DCDC
310
DCDCDCDCDCDCDCDCDCDCDCDCDCDCDCDCDCDCDCDCDCDCDCDCDCDCDCDCDCDCDCDCDCDCDCDCDCDCDCDCDCDCDCDCDCDCDCDCDCDCDCDCDCDCDCDCDCDCDCDCDCDCDCDCDCDCDCDCDCDCDCDCDCDCDCDCDCDCDCDCDCDCDCDCDCDCDCDCDCDCDCDCDCDCDCDCDCDCDCDCDCDCDCDC0000000000000000000000000000000000000000000000
310
00000000000000000000000000000000000000000000000000000000000000000000000000000000000000000000000000000000000000000000000000000000000000000000000000000000000000000000000000000000000000000000000000000000000000000000000000000000000000000000000000000000000000
310
DC0000000000000000000000000000000000000000000000000000000000000000000000000000000000000000000000000000000000000000000000000000000000000000000000000000000000000000000000000000000000000000000000000000000000000000DC000000000000000000000000000000000000000000
310
00000000000000000000000000000000000000000000000000000000000000000000000000000000000000000000000000000000000000000000000000000000000000000000000000000000000000000000000000000000000000000000000000000000000000000000000000000000000000000000000000000000000000
310
0000DC000000000000000000282828282828282828282828282828282828282828282828282828282828282828282828282828282828282828282828282828282828282828282828282828282828282828282828282828282828282828282828282828282828282828F5F5DC00000000000000000000000000000000000000
310
00000000000000000000000000000000000000000000000000000000000000000000000000000000000000000000000000000000000000000000000000000000000000000000000000000000000000000000000000000000000000000000000000000000000000000000000000000000000000000000000000000000000000
310
00000000DC00000000000000000028F5F5BE0000000000000000000000BE00000000BE0000000028000000000000000000000000000000000000000028DCDCDCDCDCDCDCDCDCDCDCDCDCDCDCDCDCDCDCDCDCDCDCDCDCDCDCDCDCDCDCDCDCDCDCDCDCDCDCDCDCDCDCDCDC00F5F5DC0000000000000000000000000000000000
310
00000000000000000000000000000000000000000000000000000000000000000000000000000000000000000000000000000000000000000000000000000000000000000000000000000000000000000000000000000000000000000000000000000000000000000000000000000000000000000000000000000000000000
310
000000000000DC00000000000000000028F5F5BE0000F5F5F5F5F5F5000000BEF5F5F500BEF5F5F5F5280000282828282828282828002828282828282800280000000000000000000000000000000000000000000000000000000000000000000000000000000000000000000028F5DC000000000000000000000000000000
310
00000000000000000000000000000000000000000000000000000000000000000000000000000000000000000000000000000000000000000000000000000000000000000000000000000000000000000000000000000000000000000000000000000000000000000000000000000000000000000000000000000000000000
310
0000000000000000DC00000000000000000028F5F5BE0000F5F5F5F5F5F5000000BEF5F5F500BEF5F5F5F5280000280028282828282828002828282828282800280000000000000000000000000000000000000000000000000000000000000000000000000000000000000000000028F5DC00000000000000000000000000
310
00000000000000000000000000000000000000000000000000000000000000000000000000000000000000000000000000000000000000000000000000000000000000000000000000000000000000000000000000000000000000000000000000000000000000000000000000000000000000000000000000000000000000
310
00000000000000000000DC00000000000000000028F5F5BE0000000000000000000000BE00000000BE000000002800002800282800002828282828282828000028282800000000000000000000000000000000000000000000000000000000000000000000000000000000000000000000F5F5DC0000000000000000000000
310
00000000000000000000000000000000000000000000000000000000000000000000000000000000000000000000000000000000000000000000000000000000000000000000000000000000000000000000000000000000000000000000000000000000000000000000000000000000000000000000000000000000000000
310
000000000000000000000000DC000000000000000000282828BE2828282828282828282828BE28282828BE2828282828000028002828002828282800282828280028280028F5F5F5F5F5F5F5F5F5F5F50000000000000000000000000000000000000000000000000000000000000000000000F5F5DC000000000000000000
310
00000000000000000000000000000000000000000000000000000000000000000000000000000000000000000000000000000000000000000000000000000000000000000000000000000000000000000000000000000000000000000000000000000000000000000000000000000000000000000000000000000000000000
310
0000000000000000000000000000DC000000000000000000280000BE0000000000000000000000BE00000000BE0000000028000028000028282828282828282800282828280028F5F5F5F5F5F5F5F5F5F5F50000000000000000000000000000000000000000000000000000000000000000000000F5F5DC00000000000000
310
00000000000000000000000000000000000000000000000000000000000000000000000000000000000000000000000000000000000000000000000000000000000000000000000000000000000000000000000000000000000000000000000000000000000000000000000000000000000000000000000000000000000000
310
00000000000000000000000000000000DC00000000000000000028DCDCDCDCDCDCDCDCDCDCDCDCDCDCDCDCDCDCDCDCDCDCDCDCDC28282828BE2828282828BE282828282828282828282828282828282828282828282828282828282828282828282828282828282828282828282828282828282828282828F5DC0000000000
310
00000000000000000000000000000000000000000000000000000000000000000000000000000000000000000000000000000000000000000000000000000000000000000000000000000000000000000000000000000000000000000000000000000000000000000000000000000000000000000000000000000000000000
310
000000000000000000000000000000000000DC000000000000000000280000BE0000000000000000000000BE00000000BE0000000028F5F5F5F5BE00F5F5F5F5BE000000F5F5F50000002800F5F5F5F5F5F5F5F5F5F5000000000000000000000000000000280000000000000000000000000000000000000028F5DC000000
310
00000000000000000000000000000000000000000000000000000000000000000000000000000000000000000000000000000000000000000000000000000000000000000000000000000000000000000000000000000000000000000000000000000000000000000000000000000000000000000000000000000000000000
310
0000000000000000000000000000000000000000DC000000000000000000280000BE0000000000000000000000BE00000000BE0000000028F5F5F5F5BEF5F5F5F500BE000000F5F5F50000002800F5F5F5F5F5F5F5F5F5F5000000000000000000000000000000280000000000000000000000000000000000000028F5F500
310
00000000000000000000000000000000000000000000000000000000000000000000000000000000000000000000000000000000000000000000000000000000000000000000000000000000000000000000000000000000000000000000000000000000000000000000000000000000000000000000000000000000000000
310
00000000000000000000000000000000000000000000DC00000000000000000028DCDCDCDCDCDCDCDCDCDCDCDCDCDCDCDCDCDCDCDCDCDCDCDCDCDCDCDCDCDCDCDCDCDCDCDCDCDCDCDCDCDCDCDCDCDCDCF5F5F5DCF5F5F5F5F5DCF5F5F5F5F5F5F5F5F5DCDCDCDCDC002800F5F5F5F5F500F5F5F5F5F50000000000000028F5
310
F5000000000000000000000000000000000000000000000000000000000000000000000000000000000000000000000000000000000000000000000000000000000000000000000000000000000000000000000000000000000000000000000000000000000000000000000000000000000000000000000000000000000000
310
000000000000000000000000000000000000000000000000DC000000000000000000280000BE0000000000000000000000BE00000000BE0000000028F5F5F500BE0000000000BE0000000000000000002800F5F5F5F5F5F5F5F5F500F5F5F5F5F5F5F5F5F500000000000028F5F5F5F5F5F500F5F5F5F5F500000000000000
310
F5F5DC00000000000000000000000000000000000000000000000000000000000000000000000000000000000000000000000000000000000000000000000000000000000000000000000000000000000000000000000000000000000000000000000000000000000000000000000000000000000000000000000000000000
310
0000000000000000000000000000000000000000000000000000DC00000000000000000028DCDCDCDCDCDCDCDCDCDCDCDCDCDCDCDCDCDCDCDCDCDCDCDCDCF5F5F5DCDCDCDCDCDCDCDCDCDCDCDCDCDCDCDCDCDCDCF5F5F5DCF5F5F5F5DCDCF5F5F5F5F5F5F5F5F5DCDCDCDCDC00BEBEBEBEBEF5F5BEF5BEBEF5BEBEBEBEBEBE
310
BEBEF5F5DC0000000000000000000000000000000000000000000000000000000000000000000000000000000000000000000000000000000000000000000000000000000000000000000000000000000000000000000000000000000000000000000000000000000000000000000000000000000000000000000000000000
310
00000000000000000000000000000000000000000000000000000000DC000000000000000000280000BE0000000000000000000000BE00000000BE0000000028F5F5F500BEF5F5F5F5F5BE000000F5F5F50000002800000000000000000000000000000000000000000000000000002800000000BEBEBEBEBEBEBEBEBEBE00
310
0000000028F5DC000000000000000000000000000000000000000000000000000000000000000000000000000000000000000000000000000000000000000000000000000000000000000000000000000000000000000000000000000000000000000000000000000000000000000000000000000000000000000000000000
310
000000000000000000000000000000000000000000000000000000000000DC000000000000000000280000BE0000000000000000000000BE00000000BE0000000028F5F5F500BEF5F5F5F500BE000000F5F5F50000002800000000000000000000000000000000000000000000000000002800000000BEBEBEBEBEBEBEBEBE
310
BE0000000000F5F5DC00000000000000000000000000000000000000000000000000000000000000000000000000000000000000000000000000000000000000000000000000000000000000000000000000000000000000000000000000000000000000000000000000000000000000000000000000000000000000000000
310
0000000000000000000000000000000000000000000000000000000000000000DC00000000000000000028DCDCDCDCDCDCDCDCDCDCDCDCDCDCDCDCDCDCDCDCDCDCDCDCDCDCDCDCDCDCDCDCF5F5DCDCDCDCDCDCDCDCDCDCDCDCDCF5F5F5F5F5F5F5F5F5F5F5F5F5F5F5F5DCDCDCDCDCDCDCDC002800000000BEBEBEBEBEBEBE
310
BEBEBE0000000000F5F5DC0000000000000000000000000000000000000000000000000000000000000000000000000000000000000000000000000000000000000000000000000000000000000000000000000000000000000000000000000000000000000000000000000000000000000000000000000000000000000000
310
00000000000000000000000000000000000000000000000000000000000000000000DC000000000000000000280000BE0000000000000000000000BE00000000BE0000000028F5F5F5F5BE00F5F5F500BE0000F5F5F5F5F500002800F5F5F5F5F5F5F5F5F5F5F5F5F5F5F5F500000000000000000028F5F5F5F5F5F5F5F5F5
310
0000000000000000000028F5DC000000000000000000000000000000000000000000000000000000000000000000000000000000000000000000000000000000000000000000000000000000000000000000000000000000000000000000000000000000000000000000000000000000000000000000000000000000000000
310
000000000000000000000000000000000000000000000000000000000000000000000000DC00000000000000000028DCDCDCDCDCDCDCDCDCDCDCDCDCDCDCDCDCDCDCDCDCDCDCDCDCF5F5F528BE28F5282828BE2828F5F52828282828282828F5F5F5F5F52828F5F528282828282828282828282828282828F5F5F5F5F5F5F5
310
F5F52828282828282828282828F5DC00000000000000000000000000000000000000000000000000000000000000000000000000000000000000000000000000000000000000000000000000000000000000000000000000000000000000000000000000000000000000000000000000000000000000000000000000000000
310
0000000000000000000000000000000000000000000000000000000000000000000000000000DC000000000000000000280000BE0000000000000000000000BE00000000BE000000002800000000000000000000BE00000000000000000028DCDCDCDCDCDCDCDCDCDCDCDCDCDCDCDCDCDCDCDCDCDCDCDCDC0028DCDCDCDCDC
310
DCDCDCDCDCDCDCDCDCDCDCDCDC0028F5DC0000000000000000000000000000000000000000000000000000000000000000000000000000000000000000000000000000000000000000000000000000000000000000000000000000000000000000000000000000000000000000000000000000000000000000000000000000
310
00000000000000000000000000000000000000000000000000000000000000000000000000000000DC000000000000000000280000BE0000000000000000000000BE00000000BE0000000028000000BEBEBEBE000000BE0000000000000000002800BEBEBEBEBEBEBEBEBEBEBEBEBE00BEBEBEBEBEBE000000000028000000
310
BEBEBEBEBEBEBEBEBEBEBEBE00000000F5F5DC000000000000000000000000000000000000000000000000000000000000000000000000000000000000000000000000000000000000000000000000000000000000000000000000000000000000000000000000000000000000000000000000000000000000000000000000
310
000000000000000000000000000000000000000000000000000000000000000000000000000000000000DC00000000000000000028DCDCDCDCDCDCDCDCDCDCDCDCDCDCDCDCDCDCDCDCDCDCDCDCDC000000BEBE00BE000000BEF5F5F5F5F5F5F5F5F528BEBEBEBEBEBEBEBEBEBEBEBEBEBE00BEBEBEBEBEBE00000000002800
310
000000BEBEBEBEBEBEBEBEBEBEBE00000000F5F5DC00000000000000000000000000000000000000000000000000000000000000000000000000000000000000000000000000000000000000000000000000000000000000000000000000000000000000000000000000000000000000000000000000000000000000000000
310
0000000000000000000000000000000000000000000000000000000000000000000000000000000000000000DC000000000000000000280000BE0000000000000000000000BE00000000BE0000000028000000BEBEBEBE000000BEF5F5F5F5F5F5F5F5F52800BE00000000BE00BE00BE00BEBE00BEBEBEBEBEBE0000000000
310
28000000BEBEBEBEBEBEBEBEBEBEBEBE00000000F5F5DC0000000000000000000000000000000000000000000000000000000000000000000000000000000000000000000000000000000000000000000000000000000000000000000000000000000000000000000000000000000000000000000000000000000000000000
310
00000000000000000000000000000000000000000000000000000000000000000000000000000000000000000000DC00000000000000000028DCDCDCDCDCDCDCDCDCDCDCDCDCDCDCDCDCDCDCDCDCDCDCDCDC00000000000000000000BE00000000000000000028000000000000000000000000000000000000000000000000
310
00002800000000000000000000000000000000000000F5F5DC000000000000000000000000000000000000000000000000000000000000000000000000000000000000000000000000000000000000000000000000000000000000000000000000000000000000000000000000000000000000000000000000000000000000
310
000000000000000000000000000000000000000000000000000000000000000000000000000000000000000000000000DC000000000000000000280000BE0000000000000000000000BE00000000BE000000002800F5F5F5F5F5F5F50000BEF5F5F5F5F5F5F5F50028F5F5F5F5F5F5F5F5F500000000000000000000000000
310
0000000028F5F5F5F5F5F5F5F5F5F5F5F50000000000000028F5F500000000000000000000000000000000000000000000000000000000000000000000000000000000000000000000000000000000000000000000000000000000000000000000000000000000000000000000000000000000000000000000000000000000
310
0000000000000000000000000000000000000000000000000000000000000000000000000000000000000000000000000000DC000000000000000000280000BE0000000000000000000000BE00000000BE000000002800F5F5F5F5F5F5F50000BEF5F5F500F5F5F5F50028F5F5F5F5F5F5F5F5F50000000000000000000000
310
00000000000028F5F5F5F5F5F5F5F5F5F5F5F50000000000000028F5F50000000000000000000000000000000000000000000000000000000000000000000000000000000000000000000000000000000000000000000000000000000000000000000000000000000000000000000000000000000000000000000000000000
310
00000000000000000000000000000000000000000000000000000000000000000000000000000000000000000000000000000000DC000000000000000000F5F5F5F5F5F528F5F5F5F5F5F5F5F5F5F528F5F5F5F52828282828282828282828282828BE28282828282828282828282828282828282828282828282828282828
310
2828282828282828282828282828282828282828282828282828282828F5DC000000000000000000000000000000000000000000000000000000000000000000000000000000000000000000000000000000000000000000000000000000000000000000000000000000000000000000000000000000000000000000000000
310
000000000000000000000000000000000000000000000000000000000000000000000000000000000000000000000000000000000000DC000000000000000000F5F5F5F5F5F500F5F5F5F5F5F5F5F5F5F5F5F5F5F5F50000000000000000000000000000000000000000000000000000000000000000000000000000000000
310
000000000000000000000000000000000000000000000000000000000000F5F5DC00000000000000000000000000000000000000000000000000000000000000000000000000000000000000000000000000000000000000000000000000000000000000000000000000000000000000000000000000000000000000000000
310
0000000000000000000000000000000000000000000000000000000000000000000000000000000000000000000000000000000000000000DC000000000000000000F5F500F5F5F50000F5F5F5F5F5F5F5F5F500F5F5F5F5000000000000000000000000000000000000000000000000000000000000000000000000000000
310
0000000000000000000000000000000000000000000000000000000000000000F5F5DC0000000000000000000000000000000000000000000000000000000000000000000000000000000000000000000000000000000000000000000000000000000000000000000000000000000000000000000000000000000000000000
310
00000000000000000000000000000000000000000000000000000000000000000000000000000000000000000000000000000000000000000000DC0000000000000000002800000000000000000000000000000000000000000000000000000000000000000000000000000000000000000000000000000000000000000000
310
0000000000000000000000000000000000000000000000000000000000000000000028F5DC000000000000000000000000000000000000000000000000000000000000000000000000000000000000000000000000000000000000000000000000000000000000000000000000000000000000000000000000000000000000
310
000000000000000000000000000000000000000000000000000000000000000000000000000000000000000000000000000000000000000000000000DC000000000000000000280000000000000000000000000000000000000000000000000000000000000000000000000000000000000000000000000000000000000000
310
000000000000000000000000000000000000000000000000000000000000000000000000F5F5DC00000000000000000000000000000000000000000000000000000000000000000000000000000000000000000000000000000000000000000000000000000000000000000000000000000000000000000000000000000000
310
0000000000000000000000000000000000000000000000000000000000000000000000000000000000000000000000000000000000000000000000000000DC00000000000000000028000000000000000000000000000000000000000000000000000000000000000000000000000000000000000000000000000000000000
310
000000000000000000000000000000000000000000000000000000000000000000000000000028F5DC0000000000000000000000000000000000000000000000000000000000000000000000000000000000000000000000000000000000000000000000000000000000000000000000000000000000000000000000000000
310
00000000000000000000000000000000000000000000000000000000000000000000000000000000000000000000000000000000000000000000000000000000DC0000000000000000002800000000000000000000000000000000000000000000000000000000000000000000000000000000000000000000000000000000
310
0000000000000000000000000000000000000000000000000000000000000000000000000000000028F5DC000000000000000000000000000000000000000000000000000000000000000000000000000000000000000000000000000000000000000000000000000000000000000000000000000000000000000000000000
310
000000000000000000000000000000000000000000000000000000000000000000000000000000000000000000000000000000000000000000000000000000000000DC000000000000000000280000000000000000000000000000000000000000000000000000000000000000000000000000000000000000000000000000
310
000000000000000000000000000000000000000000000000000000000000000000000000000000000000F5F5DC00000000000000000000000000000000000000000000000000000000000000000000000000000000000000000000000000000000000000000000000000000000000000000000000000000000000000000000
310
0000000000000000000000000000000000000000000000000000000000000000000000000000000000000000000000000000000000000000000000000000000000000000DC00000000000000000028000000000000000000000000000000000000000000000000000000000000000000000000000000000000000000000000
310
0000000000000000000000000000000000000000000000000000000000000000000000000000000000000000F5F5DC0000000000000000000000000000000000000000000000000000000000000000000000000000000000000000000000000000000000000000000000000000000000000000000000000000000000000000
310
00000000000000000000000000000000000000000000000000000000000000000000000000000000000000000000000000000000000000000000000000000000000000000000DC0000000000000000002800000000000000000000000000000000000000000000000000000000000000000000000000000000000000000000
310
00000000000000000000000000000000000000000000000000000000000000000000000000000000000000000000F5F5DC000000000000000000000000000000000000000000000000000000000000000000000000000000000000000000000000000000000000000000000000000000000000000000000000000000000000
310
000000000000000000000000000000000000000000000000000000000000000000000000000000000000000000000000000000000000000000000000000000000000000000000000DC000000000000000000280000000000000000000000000000000000000000000000000000000000000000000000000000000000000000
310
000000000000000000000000000000000000000000000000000000000000000000000000000000000000000000000000F5F5DC00000000000000000000000000000000000000000000000000000000000000000000000000000000000000000000000000000000000000000000000000000000000000000000000000000000
310
0000000000000000000000000000000000000000000000000000000000000000000000000000000000000000000000000000000000000000000000000000000000000000000000000000DC00000000000000000028000000000000000000000000000000000000000000000000000000000000000000000000000000000000
310
0000000000000000000000000000000000000000000000000000000000000000000000000000000000000000000000000000F5F5DC0000000000000000000000000000000000000000000000000000000000000000000000000000000000000000000000000000000000000000000000000000000000000000000000000000
310
00000000000000000000000000000000000000000000000000000000000000000000000000000000000000000000000000000000000000000000000000000000000000000000000000000000DC0000000000000000002800000000000000000000000000000000000000000000000000000000000000000000000000000000
310
0000000000000000000000000000000000000000000000000000000000000000000000000000000000000000000000000000000028F5DC000000000000000000000000000000000000000000000000000000000000000000000000000000000000000000000000000000000000000000000000000000000000000000000000
310
000000000000000000000000000000000000000000000000000000000000000000000000000000000000000000000000000000000000000000000000000000000000000000000000000000000000DC00000000000000000028000000000000000000000000000000000000000000000000000000000000000000F500000000
310
0000000000000000F500000000000000000000000000000000000000000000000000000000000000000000000000000000000000000028F5DC00000000000000000000000000000000000000000000000000000000000000000000000000000000000000000000000000000000000000000000000000000000000000000000
310
0000000000000000000000000000000000000000000000000000000000000000000000000000000000000000000000000000000000000000000000000000000000000000000000000000000000000000DC00000000000000000028000000000000000000000000000000000000000000000000000000000000000000F5F5F5
310
F5F5F5F5F5F5F5F5F5F5F500000000000000000000000000000000000000000000000000000000000000000000000000000000000000000028F5DC0000000000000000000000000000000000000000000000000000000000000000000000000000000000000000000000000000000000000000000000000000000000000000
310
00000000000000000000000000000000000000000000000000000000000000000000000000000000000000000000000000000000000000000000000000000000000000000000000000000000000000000000DC00000000000000000028000000000000000000000000000000000000000000000000000000000000000000F5
310
000000BEBEBEBEBE00000000F500000000000000000000000000000000000000000000000000000000000000000000000000000000000000000028F5DC000000000000000000000000000000000000000000000000000000000000000000000000000000000000000000000000000000000000000000000000000000000000
310
000000000000000000000000000000000000000000000000000000000000000000000000000000000000000000000000000000000000000000000000000000000000000000000000000000000000000000000000DC000000000000000000280000000000000000000000000000000000000000000000000000000000000000
310
00F5000000BEBEBEBEBE00000000F5000000000000000000000000000000000000000000000000000000000000000000000000000000000000000000F5F5DC00000000000000000000000000000000000000000000000000000000000000000000000000000000000000000000000000000000000000000000000000000000
310
0000000000000000000000000000000000000000000000000000000000000000000000000000000000000000000000000000000000000000000000000000000000000000000000000000000000000000000000000000DC00000000000000000028000000000000000000000000000000000000000000000000000000000000
310
000000F5000000000000000000000000F500000000000000000000000000000000000000000000000000000000000000000000000000000000000000000028F5F50000000000000000000000000000000000000000000000000000000000000000000000000000000000000000000000000000000000000000000000000000
310
00000000000000000000000000000000000000000000000000000000000000000000000000000000000000000000000000000000000000000000000000000000000000000000000000000000000000000000000000000000DC0000000000000000002800000000000000000000000000000000000000000000000000000000
310
0000000000F50000000000DC000000000000F50000000000000000000000000000000000BEBEBEBEBE00BEBEBEBEBEBEBEBEBEBEBEBEBEBEBEBEBEBEBEBEBE0028F5DC000000000000000000000000000000000000000000000000000000000000000000000000000000000000000000000000000000000000000000000000
310
000000000000000000000000000000000000000000000000000000000000000000000000000000000000000000000000000000000000000000000000000000000000000000000000000000000000000000000000000000000000DC000000000000000000280000F5F5F5F5F5F5F5F5F5F5F5F5F5F5F5F5F5F5F5F5F5F5F5F5
310
F5F5F5F5F5F5F528282828282828282828282828280000000000000000000000000000000000BEBEBEBEBEBEBEBEBEBEBEBEBE0000BEBEBEBEBEBEBEBEBEBEBEBE00F5F5DC00000000000000000000000000000000000000000000000000000000000000000000000000000000000000000000000000000000000000000000
310
0000000000000000000000000000000000000000000000000000000000000000000000000000000000000000000000000000000000000000000000000000000000000000000000000000000000000000000000000000000000000000DC000000000000000000280000F5F50000000000000000000000000000000000000000
310
00000000000000000028DCDCDCDCDCDCDCDCDCDCDCDC2800000000000000000000000000000000DCDCDCDCDCDCDCDCDCDCDCDCDCDCDCDCDCDCDCDCDCDCDCDCDCDCDCDC0028F5DC0000000000000000000000000000000000000000000000000000000000000000000000000000000000000000000000000000000000000000
310
00000000000000000000000000000000000000000000000000000000000000000000000000000000000000000000000000000000000000000000000000000000000000000000000000000000000000000000000000000000000000000000DC000000000000000000280000F5F5000000000000000000000000000000000000
310
0000000000000000000000280000000000DC00000000000028000000000000000000000000DCDCDCDC0000BEBEBEBEBEBEBEBEBEBEBEBEBE00BEBEBEBEBEBE0000000000000028F5DC000000000000000000000000000000000000000000000000000000000000000000000000000000000000000000000000000000000000
310
000000000000000000000000000000000000000000000000000000000000000000000000000000000000000000000000000000000000000000000000000000000000000000000000000000000000000000000000000000000000000000000000DC000000000000000000280000F50000000000000000000000000000000000
310
00000000000000000000000000280000000000DC00000000000028000000000000000000DCDCDC000000000000BEBEBEBEBEBEBEBEBEBEBEBEBE00BEBEBEBEBEBE00000000000000F5F5DC00000000000000000000000000000000000000000000000000000000000000000000000000000000000000000000000000000000
310
0000000000000000000000000000000000000000000000000000000000000000000000000000000000000000000000000000000000000000000000000000000000000000000000000000000000000000000000000000000000000000000000000000DC000000000000000000280000F5000000000000000000000000000000
310
000000000000000000000000000000280000000000DC000000000000280000000000DCDCDCDC000000000000000000BEBEBE000000BEBEBE0000000000BEBEBEBEBEBE00000000000000F5F5DC0000000000000000000000000000000000000000000000000000000000000000000000000000000000000000000000000000
310
00000000000000000000000000000000000000000000000000000000000000000000000000000000000000000000000000000000000000000000000000000000000000000000000000000000000000000000000000000000000000000000000000000000DC000000000000000000280000F500000000000000000000000000
310
0000000000000000000000000000000000280000000000DC0000000000002800DCDCDCDC0000000000000000000000000000000000000000000000000000000000000000000000000000000028F5DC000000000000000000000000000000000000000000000000000000000000000000000000000000000000000000000000
310
000000000000000000000000000000000000000000000000000000000000000000000000000000000000000000000000000000000000000000000000000000000000000000000000000000000000000000000000000000000000000000000000000000000000DC000000000000000000280000F50000000000000000000000
310
00000000000000000000000000000000000000280000000000DC00000000000028DC0000000000000000000000000000000000000000000000000000000000000000000000000000000000000000F5F5DC00000000000000000000000000000000000000000000000000000000000000000000000000000000000000000000
310
0000000000000000000000000000000000000000000000000000000000000000000000000000000000000000000000000000000000000000000000000000000000000000000000000000000000000000000000000000000000000000000000000000000000000000DC000000000000000000280000F5000000000000000000
310
000000000000000000000000000000000000000000280000000000000000000000002800000000000000000000000000000000000000000000000000000000000000000000000000000000000000000028F5DC0000000000000000000000000000000000000000000000000000000000000000000000000000000000000000
310
00000000000000000000000000000000000000000000000000000000000000000000000000000000000000000000000000000000000000000000000000000000000000000000000000000000000000000000000000000000000000000000000000000000000000000000DC000000000000000000280000F500000000000000
310
0000000000000000000000000000000000000000000000280000000000DC00000000000028000000000000000000000000000000000000000000000000000000000000000000000000000000000000000000F5F5DC000000000000000000000000000000000000000000000000000000000000000000000000000000000000
310
000000000000000000000000000000000000000000000000000000000000000000000000000000000000000000000000000000000000000000000000000000000000000000000000000000000000000000000000000000000000000000000000000000000000000000000000DC000000000000000000280000F50000000000
310
00000000000000000000000000000000000000000000000000280000000000DC0000000000002800000000000000000000000000000000000000000000000000000000000000000000000000000000000000000028F5DC00000000000000000000000000000000000000000000000000000000000000000000000000000000
310
0000000000000000000000000000000000000000000000000000000000000000000000000000000000000000000000000000000000000000000000000000000000000000000000000000000000000000000000000000000000000000000000000000000000000000000000000000DC000000000000000000280000F5000000
310
000000000000000000000000000000000000000000000000000000280000000000DC0000000000002800000000000000000000000000000000000000000000000000000000000000000000000000000000000000000028F5DC0000000000000000000000000000000000000000000000000000000000000000000000000000
310
00000000000000000000000000000000000000000000000000000000000000000000000000000000000000000000000000000000000000000000000000000000000000000000000000000000000000000000000000000000000000000000000000000000000000000000000000000000DC000000000000000000280000F500
310
0000000000000000000000000000000000000000000000000000000000280000000000DC00000000000028000000000000000000000000000000000000000000000000000000000000000000000000000000000000000000F5F5DC000000000000000000000000000000000000000000000000000000000000000000000000
310
000000000000000000000000000000000000000000000000000000000000000000000000000000000000000000000000000000000000000000000000000000000000000000000000000000000000000000000000000000000000000000000000000000000000000000000000000000000000DC000000000000000000280000
310
F5000000000000000000000000000000000000000000000000000000000000280000000000000000000000002800000000000000000000000000000000000000000000000000000000000000000000000000000000000000000028F5DC00000000000000000000000000000000000000000000000000000000000000000000
310
0000000000000000000000000000000000000000000000000000000000000000000000000000000000000000000000000000000000000000000000000000000000000000000000000000000000000000000000000000000000000000000000000000000000000000000000000000000000000000DC00000000000000000028
310
0000F5000000000000000000000000000000000000000000000000000000000000280000000000DC0000000000002800000000000000000000000000000000000000000000000000000000000000000000000000000000000000000028F5F50000000000000000000000000000000000000000000000000000000000000000
310
00000000000000000000000000000000000000000000000000000000000000000000000000000000000000000000000000000000000000000000000000000000000000000000000000000000000000000000000000000000000000000000000000000000000000000000000000000000000000000000DC0000000000000000
310
00280000F5000000000000000000000000000000000000000000000000000000000000280000000000DC0000000000002800000000000000000000000000000000BEBEBEBEBEBEBEBEBEBEBEBEBE00BEBEBEBEBEBEBEBEBEBEBEBEBE000028F5DC000000000000000000000000000000000000000000000000000000000000
310
000000000000000000000000000000000000000000000000000000000000000000000000000000000000000000000000000000000000000000000000000000000000000000000000000000000000000000000000000000000000000000000000000000000000000000000000000000000000000000000000DC000000000000
310
000000280000F5000000000000000000000000000000000000000000000000000000000000280000000000DC0000000000002800000000000000000000000000000000BEBEBEBEBE00BEBEBE00BEBEBE00BEBEBEBEBEBEBEBEBEBEBEBEBE000028F5DC00000000000000000000000000000000000000000000000000000000
310
0000000000000000000000000000000000000000000000000000000000000000000000000000000000000000000000000000000000000000000000000000000000000000000000000000000000000000000000000000000000000000000000000000000000000000000000000000000000000000000000000000DC00000000
310
0000000000280000F5000000000000000000000000000000000000000000000000000000000000280000000000DC0000000000002800000000000000000000000000000000DCDCDCDCDCDCDCDCDCDCDCBEDCDCDCDCDCDCDCDCDCDCDCDCDCDCDC000028F5DC0000000000000000000000000000000000000000000000000000
310
00000000000000000000000000000000000000000000000000000000000000000000000000000000000000000000000000000000000000000000000000000000000000000000000000000000000000000000000000000000000000000000000000000000000000000000000000000000000000000000000000000000DC0000
310
00000000000000280000F500000000000000000000000000000000000000000000000000000000000028000000000000000000000000280000000000000000000000000000DCDCBEBEBEBEBEBEBEBEBEBEBEBEBEBEBEBEBEBEBE0000000000000000000028F5DC000000000000000000000000000000000000000000000000
310
000000000000000000000000000000000000000000000000000000000000000000000000000000000000000000000000000000000000000000000000000000000000000000000000000000000000000000000000000000000000000000000000000000000000000000000000000000000000000000000000000000000000DC
310
000000000000000000280000F5000000000000000000000000000000000000000000000000000000000000280000000000DC0000000000002800000000000000000000000000DC000000BEBEBEBEBEBEBEBEBEBEBEBEBEBEBEBEBEBE0000000000000000000028F5DC00000000000000000000000000000000000000000000
310
00000000000000000000000000000000000000000000000000000000000000000000000000000000000000000000000000000000000000000000000000000000000000000000000000000000000000000000000000000000000000000000000000000000000000000000000000000000000000000000000000000000000000
310
00DC000000000000000000280000F50000000000000000000000000000000000000000F5000000000000000000280000000000DC000000000000280000000000000000F5000000DC000000BEBE0000BE00BE0000BE000000BEBEBEBEBEBE00000000000000000000F5F5DC0000000000000000000000000000000000000000
310
00000000000000000000000000000000000000000000000000000000000000000000000000000000000000000000000000000000000000000000000000000000000000000000000000000000000000000000000000000000000000000000000000000000000000000000000000000000000000000000000000000000000000
310
000000DC000000000000000000280000F50000000000000000000000000000000000000000F5F5F5F5F5F5F5F5F5F528F5F5F5F5F5F5F5F5F5F5F5F528F5F5F5F5F5F5F5F5F500DCDC000000000000000000000000000000000000000000000000000000000000000000F5F5DC000000000000000000000000000000000000
310
00000000000000000000000000000000000000000000000000000000000000000000000000000000000000000000000000000000000000000000000000000000000000000000000000000000000000000000000000000000000000000000000000000000000000000000000000000000000000000000000000000000000000
310
0000000000DC000000000000000000280000F50000000000000000000000000000000000000000F500000000000000000028000000BEBEBEBEBE00000000280000000000000000F5DC0000000000000000000000000000000000000000000000000000000000000000000000F5F5DC00000000000000000000000000000000
310
00000000000000000000000000000000000000000000000000000000000000000000000000000000000000000000000000000000000000000000000000000000000000000000000000000000000000000000000000000000000000000000000000000000000000000000000000000000000000000000000000000000000000
310
00000000000000DC000000000000000000280000F50000000000000000000000000000000000000000F500000000000000000028000000BEBEBEBEBE000000002800000000000000DCDC000000000000000000000000000000000000000000000000000000000000000000000000F5F5DC0000000000000000000000000000
310
00000000000000000000000000000000000000000000000000000000000000000000000000000000000000000000000000000000000000000000000000000000000000000000000000000000000000000000000000000000000000000000000000000000000000000000000000000000000000000000000000000000000000
310
000000000000000000DC000000000000000000280000F50000000000000000000000000000000000000000F5000000000000000000280000000000DC00000000000028000000000000DC00F500000000000000000000000000000000000000000000000000000000000000000000000028F5DC000000000000000000000000
310
00000000000000000000000000000000000000000000000000000000000000000000000000000000000000000000000000000000000000000000000000000000000000000000000000000000000000000000000000000000000000000000000000000000000000000000000000000000000000000000000000000000000000
310
0000000000000000000000DC000000000000000000280000F5000000F5F5F5F5F5F5F5F5F5F5F5F5F5F5F5F5F5F528282828F5F5F5F528280000000000DC0000000000002828F5F5F528DC2828F5000000000000000000000000000000000000000000000000000000000000000000000000F5F5DC00000000000000000000
310
00000000000000000000000000000000000000000000000000000000000000000000000000000000000000000000000000000000000000000000000000000000000000000000000000000000000000000000000000000000000000000000000000000000000000000000000000000000000000000000000000000000000000
310
00000000000000000000000000DC000000000000000000280000F5000000F5F50000000000000000000000000000002800F5F500F5F5F5F528280000000000DC00000000000028F5F5F5DCDC00F5F52828000000000000000000000000000000000000000000000000000000000000000000000028F5DC0000000000000000
310
00000000000000000000000000000000000000000000000000000000000000000000000000000000000000000000000000000000000000000000000000000000000000000000000000000000000000000000000000000000000000000000000000000000000000000000000000000000000000000000000000000000000000
310
000000000000000000000000000000DC000000000000000000280000F5000000F5F500000000000000000000000000000028F5F5F5F5F5F5F5F5F5280000000000DC00000000000028F5F5DCF5F5F5F5F5F528000000000000000000000000000000000000000000000000000000000000000000000028F5DC000000000000
310
00000000000000000000000000000000000000000000000000000000000000000000000000000000000000000000000000000000000000000000000000000000000000000000000000000000000000000000000000000000000000000000000000000000000000000000000000000000000000000000000000000000000000
310
0000000000000000000000000000000000DCDCDCDCDCDCDCDCDC00280000F5000000F50000000000000000000000000000000028F500F5F5F5F5F5F5F5280000000000DC00000000000028F5F5F5F500F5F5F5F528000000000000000000000000000000000000000000000000000000000000000000000028F5DC00000000
310
00000000000000000000000000000000000000000000000000000000000000000000000000000000000000000000000000000000000000000000000000000000000000000000000000000000000000000000000000000000000000000000000000000000000000000000000000000000000000000000000000000000000000
310
00000000000000000000000000000000000000DC000000000000000000280000F5000000F5000000000000000000000000000000002800F5F500F528282828280000000000DC0000000000002828282828F500F5F500280000000000000000000000000000000000000000000000000000000000000000000000F5F5DC0000
310
00000000000000000000000000000000000000000000000000000000000000000000000000000000000000000000000000000000000000000000000000000000000000000000000000000000000000000000000000000000000000000000000000000000000000000000000000000000000000000000000000000000000000
310
000000000000000000000000000000000000000000DC000000000000000000280000F5000000F50000000000000000000000000000000028F500F5F52800000000280000000000DC00000000000028000000F528F5F5F5F5280000000000000000000000000000000000000000000000000000000000000000000000F5F5DC
310
00000000000000000000000000000000000000000000000000000000000000000000000000000000000000000000000000000000000000000000000000000000000000000000000000000000000000000000000000000000000000000000000000000000000000000000000000000000000000000000000000000000000000
310
0000000000000000000000000000000000000000000000DC000000000000000000280000BE000000F5000000000000000000000000000000002800F5F5282828282828280000000000DC00000000000028282828282800F5F500280000000000000000000000000000000000000000000000000000000000000000000000F5
310
F5DC0000000000000000000000000000000000000000000000000000000000000000000000000000000000000000000000000000000000000000000000000000000000000000000000000000000000000000000000000000000000000000000000000000000000000000000000000000000000000000000000000000000000
310
00000000000000000000000000000000000000000000000000DC00000000000000000028BEBEBE000000F5000000000000000000000000000000F528F5F5F5280000000000280000000000DC000000000000280000000028F5F5F5F528000000000000BEBEBEBE0000BEBEBEBEBEBEBE00BEBEBEBEBEBEBEBEBEBEBEBEBE00
310
00F5F5DC000000000000000000000000000000000000000000000000000000000000000000000000000000000000000000000000000000000000000000000000000000000000000000000000000000000000000000000000000000000000000000000000000000000000000000000000000000000000000000000000000000
310
000000000000000000000000000000000000000000000000000000DC00000000000000000028BEBEBE000000F500000000000000000000000000000028F5F500F5280000000000280000000000DC000000000000280000000028F5F5F5F528000000000000BEBEBEBEBEBEBEBEBEBEBEBEBE00BEBEBEBEBEBEBEBEBEBEBEBE
310
BE0000F5F5F500000000000000000000000000000000000000000000000000000000000000000000000000000000000000000000000000000000000000000000000000000000000000000000000000000000000000000000000000000000000000000000000000000000000000000000000000000000000000000000000000
310
0000000000000000000000000000000000000000000000000000000000DC00000000000000000028BEBEBE000000F500000000000000000000000000000028F500F5F5280000000000280000000000DC00000000000028000000002800F5F50028000000000000BEBEBEBEBE00BE00BE00BE000000BEBEBEBEBEBEBEBEBEBE
310
BEBEBE000028F5DC0000000000000000000000000000000000000000000000000000000000000000000000000000000000000000000000000000000000000000000000000000000000000000000000000000000000000000000000000000000000000000000000000000000000000000000000000000000000000000000000
310
00000000000000000000000000000000000000000000000000000000000000DC00000000000000000028BEBEBE000000F500000000000000000000000000000028F5F500F5280000000000280000000000DC000000000000280000000028F5F5F5F528000000000000DCDCDCDCDCDCDCDCDCDCDCDCDCDCDCDCBEBEDCDCDCDC
310
DCDCDCDCDC000028F5DC000000000000000000000000000000000000000000000000000000000000000000000000000000000000000000000000000000000000000000000000000000000000000000000000000000000000000000000000000000000000000000000000000000000000000000000000000000000000000000
310
000000000000000000000000000000000000000000000000000000000000000000DC000000000000000000280000F5000000F500000000000000000000000000000028F5F5F5F5280000000000280000000000DC000000000000280000000028F5F5F5F5F528000000DCDCBEBEBEBEBEBEBEBEBEBEBEBEBEBEBEBEBEBE0000
310
00000000000000000028F5DC00000000000000000000000000000000000000000000000000000000000000000000000000000000000000000000000000000000000000000000000000000000000000000000000000000000000000000000000000000000000000000000000000000000000000000000000000000000000000
310
0000000000000000000000000000000000000000000000000000000000000000000000DC000000000000000000280000F5000000F500000000000000000000000000000028F500F5F5280000000000280000000000DC00000000000028000000002800F5F500F52800DCDC0000BEBEBEBEBEBEBEBEBEBEBEBEBEBEBEBEBEBE
310
0000000000000000000000F5F5DC0000000000000000000000000000000000000000000000000000000000000000000000000000000000000000000000000000000000000000000000000000000000000000000000000000000000000000000000000000000000000000000000000000000000000000000000000000000000
310
00000000000000000000000000000000000000000000000000000000000000000000000000DC000000000000000000280000F5000000F500000000000000000000000000000028F5F500F5280000000000280000000000DC000000000000280000000028F5F5F5F50028DC0000000000000000000000000000000000000000
310
00000000000000000000000000F5F5DC000000000000000000000000000000000000000000000000000000000000000000000000000000000000000000000000000000000000000000000000000000000000000000000000000000000000000000000000000000000000000000000000000000000000000000000000000000
310
000000000000000000000000000000000000000000000000000000000000000000000000000000DC000000000000000000280000F5000000F500000000000000000000000000000028F500F5F5280000000000280000000000DC00000000000028000000002800F5F500DCDC00000000000000000000000000000000000000
310
000000000000000000000000000000F5F5DC00000000000000000000000000000000000000000000000000000000000000000000000000000000000000000000000000000000000000000000000000000000000000000000000000000000000000000000000000000000000000000000000000000000000000000000000000
310
0000000000000000000000000000000000000000000000000000000000000000000000000000000000DC000000000000000000280000F5000000F500000000000000000000000000000028F5F5F5F5280000000000280000BEBEBEDC000000000000280000000028F5F5DCDCF5280000000000000000000000000000000000
310
0000000000000000000000000000000000F5F5DC0000000000000000000000000000000000000000000000000000000000000000000000000000000000000000000000000000000000000000000000000000000000000000000000000000000000000000000000000000000000000000000000000000000000000000000000
310
00000000000000000000000000000000000000000000000000000000000000000000000000000000000000DC000000000000000000280000F5000000F500000000000000000000000000000028F5F500F5280000000000280000BEBEBEDC000000000000280000000028F5DCF5F50028000000000000000000000000000000
310
0000000000000000000000000000000000000028F5DC000000000000000000000000000000000000000000000000000000000000000000000000000000000000000000000000000000000000000000000000000000000000000000000000000000000000000000000000000000000000000000000000000000000000000000
310
000000000000000000000000000000000000000000000000000000000000000000000000000000000000000000DC000000000000000000280000F5000000F500000000000000000000000000000028F500F5F5280000000000280000BEBEBEDC00000000000028000000002800F5F500F52800000000000000000000000000
310
00000000000000000000000000000000000000000028F5DC00000000000000000000000000000000000000000000000000000000000000000000000000000000000000000000000000000000000000000000000000000000000000000000000000000000000000000000000000000000000000000000000000000000000000
310
0000000000000000000000000000000000000000000000000000000000000000000000000000000000000000000000DC000000000000000000280000F5000000F500000000000000000000000000000028F5F500F5280000000000280000BEBEBEDC000000000000280000000028F5F5F5F500280000000000000000000000
310
0000000000000000000000000000000000000000000000F5F5DC0000000000000000000000000000000000000000000000000000000000000000000000000000000000000000000000000000000000000000000000000000000000000000000000000000000000000000000000000000000000000000000000000000000000
310
00000000000000000000000000000000000000000000000000000000000000000000000000000000000000000000000000DC000000000000000000280000F500BEBEBE00000000000000000000000000000028F5F5F5F5280000000000280000BEBEBEDC000000000000280000000028F5F5F5F5F528000000000000000000
310
00000000000000000000000000000000000000000000000000F5F5DC000000000000000000000000000000000000000000000000000000000000000000000000000000000000000000000000000000000000000000000000000000000000000000000000000000000000000000000000000000000000000000000000000000
310
000000000000000000000000000000000000000000000000000000000000000000000000000000000000000000000000000000DC000000000000000000280000F500BEBEBE00000000000000000000000000000028F500F5F5280000000000280000BEBEBEDC00000000000028000000002800F5F500F52800000000000000
310
000000000000000000000000000000000000000000000000000000F5F5DC00000000000000000000000000000000000000000000000000000000000000000000000000000000000000000000000000000000000000000000000000000000000000000000000000000000000000000000000000000000000000000000000000
310
0000000000000000000000000000000000000000000000000000000000000000000000000000000000000000000000000000000000DC000000000000000000280000F500BEBEBE000000000000000000000000000028F5F5F500F5280000000000280000000000DC000000000000280000000028F5F5F5F500280000000000
310
0000000000000000000000000000000000000000000000000000000000F5F5DC0000000000000000000000000000000000000000000000000000000000000000000000000000000000000000000000000000000000000000000000000000000000000000000000000000000000000000000000000000000000000000000000
310
00000000000000000000000000000000000000000000000000000000000000000000000000000000000000000000000000000000000000DC000000000000000000280000F500BEBEF5000000000000000000000000000028F5F500F5F5280000000000280000000000DC00000000000028000000002800F5F500F528000000
310
00000000BEBEBEBE00BEBEBEBEBEBEBEBE00BEBEBEBEBEBEBEBEBEBEBEBEBE28F5DC000000000000000000000000000000000000000000000000000000000000000000000000000000000000000000000000000000000000000000000000000000000000000000000000000000000000000000000000000000000000000000
310
000000000000000000000000000000000000000000000000000000000000000000000000000000000000000000000000000000000000000000DC000000000000000000280000F5000000F5000000000000000000000000000028F5F5F500F5282828282828280000000000DC000000000000282828282828F5F5F5F5002800
310
000000000000BEBEBEBEBEBEBEBEBEBEBEBE0000BEBEBEBEBEBEBEBEBEBEBE00BE28F5DC00000000000000000000000000000000000000000000000000000000000000000000000000000000000000000000000000000000000000000000000000000000000000000000000000000000000000000000000000000000000000
310
0000000000000000000000000000000000000000000000000000000000000000000000000000000000000000000000000000000000000000000000DC000000000000000000280000F5000000F5000000000000000000000000000028F5F5F5F528282828282828280000000000DC0000000000002828282828282828F5F5F5
310
28000000000000DCBEBEBEBEDCDCBEDCBEBEBEDCDCDCBEBEBEBEBEBEBEBEBEBEBEBEBEF5F5DC0000000000000000000000000000000000000000000000000000000000000000000000000000000000000000000000000000000000000000000000000000000000000000000000000000000000000000000000000000000000
310
00000000000000000000000000000000000000000000000000000000000000000000000000000000000000000000000000000000000000000000000000DC000000000000000000280000F5000000F5000000000000000000000000000028F5F500F528000000000000280000000000DC0000000000002800000000000028F5
310
00F5280000000000DC00BEBEBEBEBEBEBEBEBEBEBEBEBEBEBEBEBEBEBEBEBEBEBEBE00000028F5DC000000000000000000000000000000000000000000000000000000000000000000000000000000000000000000000000000000000000000000000000000000000000000000000000000000000000000000000000000000
310
000000000000000000000000000000000000000000000000000000000000000000000000000000000000000000000000000000000000000000000000000000DC000000000000000000280000F5000000F5000000000000000000000000000028F5F5F50028000000000000280000000000DC00000000000028000000000000
310
28F5F500280000000000DC00BEBEBEBEBEBEBEBEBEBEBEBEBEBEBEBEBEBEBEBEBEBEBEBE00000028F5F500000000000000000000000000000000000000000000000000000000000000000000000000000000000000000000000000000000000000000000000000000000000000000000000000000000000000000000000000
310
0000000000000000000000000000000000000000000000000000000000000000000000000000000000000000000000000000000000000000000000000000000000DC000000000000000000280000F5000000F5000000000000000000000000000028F5F500F528000000000000280000000000DC0000000000002800000000
310
000028F500F52800000000DC0000BEBE0000000000000000BE00000000BEBEBE00BE0000000000000028F5F50000000000000000000000000000000000000000000000000000000000000000000000000000000000000000000000000000000000000000000000000000000000000000000000000000000000000000000000
310
00000000000000000000000000000000000000000000000000000000000000000000000000000000000000000000000000000000000000000000000000000000000000DC000000000000000000280000F5000000F500000000000000000000000000F528F5F5F5F528000000000000280000000000DC000000000000280000
310
0000000028F5F5F528F5000000DC000000000000000000000000000000000000000000000000000000000028F5F5000000000000000000000000000000000000000000000000000000000000000000000000000000000000000000000000000000000000000000000000000000000000000000000000000000000000000000
310
000000000000000000000000000000000000000000000000000000000000000000000000000000000000000000000000000000000000000000000000000000000000000000DC000000000000000000280000F5000000F500000000000000000000000000F528F5F5F5F528F5F5F5F5F5F528F5F5F5F5F5F5F5F5F5F5F5F528
310
F5F5F5F5F5F528F5F5F528F50000DC000000000000000000000000000000000000000000000000000000000000F5F5DC00000000000000000000000000000000000000000000000000000000000000000000000000000000000000000000000000000000000000000000000000000000000000000000000000000000000000
310
0000000000000000000000000000000000000000000000000000000000000000000000000000000000000000000000000000000000000000000000000000000000000000000000DC000000000000000000280000F5000000F500000000000000000000000000F528F5F500F52800000000000028000000BEBEBEBEBE000000
310
002800000000000028F500F528F50000DC00000000000000000000000000000000000000000000000000000000000028F5DC0000000000000000000000000000000000000000000000000000000000000000000000000000000000000000000000000000000000000000000000000000000000000000000000000000000000
310
00000000000000000000000000000000000000000000000000000000000000000000000000000000000000000000000000000000000000000000000000000000000000000000000000DC000000000000000000280000F5000000F500000000000000000000000000F528F5F5F5002800000000000028000000BEBEBEBEBE00
310
0000002800000000000028F5F500F52800DC000000BEBEBEBE0000BEBEBEBEBEBEBE00BEBEBEBEBEBEBEBEBEBEBEBEBE0028F5DC000000000000000000000000000000000000000000000000000000000000000000000000000000000000000000000000000000000000000000000000000000000000000000000000000000
310
000000000000000000000000000000000000000000000000000000000000000000000000000000000000000000000000000000000000000000000000000000000000000000000000000000DC000000000000000000280000F5000000F500000000000000000000000000F528F5F5F5F528000000000000280000000000DC00
310
00000000002800000000000028F5F5F5F52800DC000000BEBEBEBEBEBEBEBEBEBEBEBEBE00BEBEBEBEBEBEBEBEBEBEBEBEBE0028F5DC00000000000000000000000000000000000000000000000000000000000000000000000000000000000000000000000000000000000000000000000000000000000000000000000000
310
0000000000000000000000000000000000000000000000000000000000000000000000000000000000000000000000000000000000000000000000000000000000000000000000000000000000DC000000000000000000280000F5000000F500000000000000000000000000F528F5F500F528000000000028DCDCDCDCDCDC
310
DCDCDCDCDCDCDC2800000000000028F500F5F528DC00000000BEBEBEBEBEDCBEDCBEDCBEBEDCDCBEBEBEBEBEBEBEBEBEBEBEBEBEDC28F5DC0000000000000000000000000000000000000000000000000000000000000000000000000000000000000000000000000000000000000000000000000000000000000000000000
310
00000000000000000000000000000000000000000000000000000000000000000000000000000000000000000000000000000000000000000000000000000000000000000000000000000000000000DC000000000000000000280000F5000000F50000000000000000000000000028F5F5F5F5002800000000F5F528000000
310
0000DC000000000000F5F5F50000000028F5F500F528DC00000000BEBEBEBEBEBEBEBEBEBEBEBEBEBEBEBEBEBE00000000000000000000F5F5DC000000000000000000000000000000000000000000000000000000000000000000000000000000000000000000000000000000000000000000000000000000000000000000
310
000000000000000000000000000000000000000000000000000000000000000000000000000000000000000000000000000000000000000000000000000000000000000000000000000000000000000000DC000000000000000000280000F5000000F5000000000000000000000000002800F5F500F52800000028F5282828
310
28282828282828282828282828F50000000028F500F5F52800000000DCBEBEBEBEBEBEBEBEBEBEBEBEBEBEBEBEBEBEBE00000000000000000028F5DC00000000000000000000000000000000000000000000000000000000000000000000000000000000000000000000000000000000000000000000000000000000000000
310
0000000000000000000000000000000000000000000000000000000000000000000000000000000000000000000000000000000000000000000000000000000000000000000000000000000000000000000000DC000000000000000000280000F5000000F50000000000000000000000000028F5F5F5F5F52800002828F500
310
000000000000DC0000000000000000282800000028F5F5F5F52800000000DCBE000000BE0000000000BE00BEBEBEBEBEBE0000000000000000000028F5DC0000000000000000000000000000000000000000000000000000000000000000000000000000000000000000000000000000000000000000000000000000000000
310
00000000000000000000000000000000000000000000000000000000000000000000000000000000000000000000000000000000000000000000000000000000000000000000000000000000000000000000000000DC000000000000000000280000F5000000F50000000000000000000000000028F5F5F5F50028002828F5
310
0000000000000000DC0000000000000000002828000028F5F500F528000000DC00000000000000000000000000000000000000000000000000000000002800DC000000000000000000000000000000000000000000000000000000000000000000000000000000000000000000000000000000000000000000000000000000
310
000000000000000000000000000000000000000000000000000000000000000000000000000000000000000000000000000000000000000000000000000000000000000000000000000000000000000000000000000000DC000000000000000000280000F5000000F5F50000000000000000000000002800F5F500F528F528
310
00000000000000000000DC0000000000000000000028282828F500F5F528000000DC00000000000000000000000000000000000000000000000000000000002800DC00000000000000000000000000000000000000000000000000000000000000000000000000000000000000000000000000000000000000000000000000
310
0000000000000000000000000000000000000000000000000000000000000000000000000000000000000000000000000000000000000000000000000000000000000000000000000000000000000000000000000000000000DC000000000000000000280000F5F50000F5F500282828282828282828282828F5F5F52828F5
310
280000000000000000DC0000DC00000000000000000000DC28280028F5DCF5282828282828282828282828280000000000000000000000000000000000000000002800DC0000000000000000000000000000000000000000000000000000000000000000000000000000000000000000000000000000000000000000000000
310
00000000000000000000000000000000000000000000000000000000000000000000000000000000000000000000000000000000000000000000000000000000000000000000000000000000000000000000000000000000000000DC000000000000000000280000F5F50000F5F52828282828282828282828282828282828
310
2828000000000000000000DC0000DC00000000000000000000DC00282828282828282828282828282828282828280000000000000000000000000000000000000000002800DC000000000000000000000000000000000000000000000000000000000000000000000000000000000000000000000000000000000000000000
310
000000000000000000000000000000000000000000000000000000000000000000000000000000000000000000000000000000000000000000000000000000000000000000000000000000000000000000000000000000000000000000DC000000000000000000280000F5F5F5F5F5F5F5F528282828282828282828282828
310
2828282828282828282828282828282828282828282828282828282828282828282828282828282828282828282828F50000000000000000000000000000000000000000002800DC00000000000000000000000000000000000000000000000000000000000000000000000000000000000000000000000000000000000000
310
0000000000000000000000000000000000000000000000000000000000000000000000000000000000000000000000000000000000000000000000000000000000000000000000000000000000000000000000000000000000000000000000DC00000000000000000028000000000000002828DC28282828282828DCDCDC28
310
2828282828282828282828282828DCDC2828DC282828282828282828DCDCDC2828282828282828DCDCDC28282828282800F50000000000000000000000000000000000000000002800DC0000000000000000000000000000000000000000000000000000000000000000000000000000000000000000000000000000000000
310
00000000000000000000000000000000000000000000000000000000000000000000000000000000000000000000000000000000000000000000000000000000000000000000000000000000000000000000000000000000000000000000000000DC000000000000000000280000000000000028282828F500F500F5F500DC
310
00F500F528000000000000000000000000DC0000DC00000000000000000000DC000000002800F500DC28DCDC28F500F5002800F50000000000000000000000000000000000000000002800DC000000000000000000000000000000000000000000000000000000000000000000000000000000000000000000000000000000
310
000000000000000000000000000000000000000000000000000000000000000000000000000000000000000000000000000000000000000000000000000000000000000000000000000000000000000000000000000000000000000000000000000000DC000000000000000000280000000000000028282828282828282828
310
2828282828282828282828282828282828282828282828282828282828282828282828282828282828282828282828282828282800F50000000000000000000000000000000000000000002800DC00000000000000000000000000000000000000000000000000000000000000000000000000000000000000000000000000
310
0000000000000000000000000000000000000000000000000000000000000000000000000000000000000000000000000000000000000000000000000000000000000000000000000000000000000000000000000000000000000000000000000000000000DC000000000000000000280000000000000028DCDC2828000000
310
002828DC2828000000000000000000000000002828DC2828DC00000000000000002828DC0028280000000000002828DC28280028000000F50000000000000000000000000000000000000000002800DC0000000000000000000000000000000000000000000000000000000000000000000000000000000000000000000000
310
00000000000000000000000000000000000000000000000000000000000000000000000000000000000000000000000000000000000000000000000000000000000000000000000000000000000000000000000000000000000000000000000000000000000000DC0000000000000000002800000000000000282828282800
310
000000282828282800000000000000000000000000282828282800000000000000000028282828282800000000000028282828280028000000F50000000000000000000000000000000000000000002800DC000000000000000000000000000000000000000000000000000000000000000000000000000000000000000000
310
000000000000000000000000000000000000000000000000000000000000000000000000000000000000000000000000000000000000000000000000000000000000000000000000000000000000000000000000000000000000000000000000000000000000000000DC00000000000000000028000000000000002828DC28
310
2800000000002828DC280000000000000000000000000000DCDC280000000000000000000000DC28DC280000000000000028DC28DC282828000000F50000000000000000000000000000000000000000002800DC00000000000000000000000000000000000000000000000000000000000000000000000000000000000000
310
0000000000000000000000000000000000000000000000000000000000000000000000000000000000000000000000000000000000000000000000000000000000000000000000000000000000000000000000000000000000000000000000000000000000000000000000DC000000000000000000280000000000000000F5
310
DC0000000000000000DC0000000000000000000000000000000000DC00000000000000000000000000DC0000000000000000000000DCDC000000000000F50000000000000000000000000000000000000000002800DC0000000000000000000000000000000000000000000000000000000000000000000000000000000000
310
00000000000000000000000000000000000000000000000000000000000000000000000000000000000000000000000000000000000000000000000000000000000000000000000000000000000000000000000000000000000000000000000000000000000000000000000000DC0000000000000000002800000000000000
310
00F500000000000000000000000000000000000000000000000000000000000000000000000000000000000000000000000000000000000000000000000000F50000000000000000000000000000000000000000002800DC000000000000000000000000000000000000000000000000000000000000000000000000000000
310
000000000000000000000000000000000000000000000000000000000000000000000000000000000000000000000000000000000000000000000000000000000000000000000000000000000000000000000000000000000000000000000000000000000000000000000000000000DC000000000000000000280000000000
310
000000F5F5F5F5F5F5F5F5F5F5F5F5F5F5F5F5F5F5F5F5F5F5F5F5F5F5F5F5F5F5F5F5F5F5F5F5F5F5F5F5F5F5F5F5F5F5F5F5F5F5F5F5F5F5F5F5F5F5F5F5F5F5F50000000000000000000000000000000000000000002800DC00000000000000000000000000000000000000000000000000000000000000000000000000
310
0000000000000000000000000000000000000000000000000000000000000000000000000000000000000000000000000000000000000000000000000000000000000000000000000000000000000000000000000000000000000000000000000000000000000000000000000000000000DC00000000000000000028000000
310
0000000000F500000000000000000000000000000000000000000000000000000000BEBEBEBEBEBE000000000000000000000000000000000000000000000000000000F50000000000000000000000000000000000000000002800DC0000000000000000000000000000000000000000000000000000000000000000000000
310
00000000000000000000000000000000000000000000000000000000000000000000000000000000000000000000000000000000000000000000000000000000000000000000000000000000000000000000000000000000000000000000000000000000000000000000000000000000000000DC0000000000000000002800
310
000000000000000000000000000000000000000000000000000000000000000000000000BEBEBEBEBEBE000000000000000000000000000000000000000000000000000000000000000000000000000000000000000000000000002800DC000000000000000000000000000000000000000000000000000000000000000000
310
000000000000000000000000000000000000000000000000000000000000000000000000000000000000000000000000000000000000000000000000000000000000000000000000000000000000000000000000000000000000000000000000000000000000000000000000000000000000000000DC000000000000000000
310
2800000000000000000000000000000000000000000000000000000000000000000000000000BEBEBEBEBE00000000000000000000000000000000000000000000000000000000000000000000000000000000000000000000000000002800DC00000000000000000000000000000000000000000000000000000000000000
310
0000000000000000000000000000000000000000000000000000000000000000000000000000000000000000000000000000000000000000000000000000000000000000000000000000000000000000000000000000000000000000000000000000000000000000000000000000000000000000000000DC00000000000000
310
00002800000000000000000000000000000000000000000000000000000000000000000000000000000000000000000000000000000000000000000000000000000000000000000000000000000000000000000000000000000000000000002800DC0000000000000000000000000000000000000000000000000000000000
310
00000000000000000000000000000000000000000000000000000000000000000000000000000000000000000000000000000000000000000000000000000000000000000000000000000000000000000000000000000000000000000000000000000000000000000000000000000000000000000000000000DC0000000000
310
000000002800000000000000000000000000000000000000000000000000000000000000000000000000000000000000000000000000000000000000000000000000000000000000000000000000000000000000000000000000000000000000002800DC000000000000000000000000000000000000000000000000000000
310
000000000000000000000000000000000000000000000000000000000000000000000000000000000000000000000000000000000000000000000000000000000000000000000000000000000000000000000000000000000000000000000000000000000000000000000000000000000000000000000000000000DC000000
310
0000000000002800000000000000000000000000000000000000000000000000000000000000000000000000000000000000000000000000000000000000000000000000000000000000000000000000000000000000000000000000000000000000002800DC00000000000000000000000000000000000000000000000000
310
0000000000000000000000000000000000000000000000000000000000000000000000000000000000000000000000000000000000000000000000000000000000000000000000000000000000000000000000000000000000000000000000000000000000000000000000000000000000000000000000000000000000DC00
310
00000000000000002800000000000000000000000000000000000000000000000000000000000000000000000000000000000000000000000000000000000000000000000000000000000000000000000000000000000000000000000000000000000000002800DC0000000000000000000000000000000000000000000000
310
00000000000000000000000000000000000000000000000000000000000000000000000000000000000000000000000000000000000000000000000000000000000000000000000000000000000000000000000000000000000000000000000000000000000000000000000000000000000000000000000000000000000000
310
DC0000000000000000002800000000000000000000000000000000000000000000000000000000000000000000000000000000000000000000000000000000000000000000000000000000000000000000000000000000000000000000000000000000000000002800DC000000000000000000000000000000000000000000
310
00000000000000000000000000000000000000000000000000000000000000000000000000000000000000000000000000000000000000000000000000000000000000000000000000000000000000000000000000000000000000000000000000000000000000000000000000000000000000000000000000000000000000
310
0000DC0000000000000000002800000000000000000000000000000000000000000000000000000000000000000000000000000000000000000000000000000000000000000000000000000000000000000000000000000000000000000000000000000000000000002800DC00000000000000000000000000000000000000
310
00000000000000000000000000000000000000000000000000000000000000000000000000000000000000000000000000000000000000000000000000000000000000000000000000000000000000000000000000000000000000000000000000000000000000000000000000000000000000000000000000000000000000
310
00000000DC0000000000000000002800000000000000000000000000000000000000000000000000000000000000000000000000000000000000000000000000000000000000000000000000000000000000000000000000000000000000000000000000000000000000002800DC0000000000000000000000000000000000
310
00000000000000000000000000000000000000000000000000000000000000000000000000000000000000000000000000000000000000000000000000000000000000000000000000000000000000000000000000000000000000000000000000000000000000000000000000000000000000000000000000000000000000
310
000000000000DC0000000000000000002800000000000000000000000000000000000000000000000000000000000000000000000000000000000000000000000000000000000000000000000000000000000000000000000000000000000000000000000000000000000000002800DC000000000000000000000000000000
310
00000000000000000000000000000000000000000000000000000000000000000000000000000000000000000000000000000000000000000000000000000000000000000000000000000000000000000000000000000000000000000000000000000000000000000000000000000000000000000000000000000000000000
310
0000000000000000DC0000000000000000002800000000000000000000000000000000000000000000000000000000000000000000000000000000000000000000000000000000000000000000000000000000000000000000000000000000000000000000000000000000000000002800DC00000000000000000000000000
310
00000000000000000000000000000000000000000000000000000000000000000000000000000000000000000000000000000000000000000000000000000000000000000000000000000000000000000000000000000000000000000000000000000000000000000000000000000000000000000000000000000000000000
310
00000000000000000000DC0000000000000000002800000000000000000000000000000000000000000000000000000000000000000000000000000000000000000000000000000000000000000000000000000000000000000000000000000000000000000000000000000000000000002800DC0000000000000000000000
310
00000000000000000000000000000000000000000000000000000000000000000000000000000000000000000000000000000000000000000000000000000000000000000000000000000000000000000000000000000000000000000000000000000000000000000000000000000000000000000000000000000000000000
310
000000000000000000000000DC0000000000000000002800000000000000000000000000000000000000000000000000000000000000000000000000000000000000000000000000000000000000000000000000000000000000000000000000000000000000000000000000000000000000002800DC000000000000000000
310
00000000000000000000000000000000000000000000000000000000000000000000000000000000000000000000000000000000000000000000000000000000000000000000000000000000000000000000000000000000000000000000000000000000000000000000000000000000000000000000000000000000000000
310
0000000000000000000000000000DC0000000000000000002800000000000000000000000000000000000000000000000000000000000000000000000000000000000000000000000000000000000000000000000000000000000000000000000000000000000000000000000000000000000000002800DC00000000000000
310
00000000000000000000000000000000000000000000000000000000000000000000000000000000000000000000000000000000000000000000000000000000000000000000000000000000000000000000000000000000000000000000000000000000000000000000000000000000000000000000000000000000000000
310
00000000000000000000000000000000DC0000000000000000002800000000000000000000000000000000000000000000000000000000000000000000000000000000000000000000000000000000000000000000000000000000000000000000000000000000000000000000000000000000000000002800DC0000000000
310
00000000000000000000000000000000000000000000000000000000000000000000000000000000000000000000000000000000000000000000000000000000000000000000000000000000000000000000000000000000000000000000000000000000000000000000000000000000000000000000000000000000000000
310
000000000000000000000000000000000000DC0000000000000000002800000000000000000000000000000000000000000000000000000000000000000000000000000000000000000000000000000000000000000000000000000000000000000000000000000000000000000000000000000000000000002800DC000000
310
00000000000000000000000000000000000000000000000000000000000000000000000000000000000000000000000000000000000000000000000000000000000000000000000000000000000000000000000000000000000000000000000000000000000000000000000000000000000000000000000000000000000000
310
0000000000000000000000000000000000000000DC0000000000000000002800000000000000000000000000000000000000000000000000000000000000000000000000000000000000000000000000000000000000000000000000000000000000000000000000000000000000000000000000000000000000002800DC00
310
00000000000000000000000000000000000000000000000000000000000000000000000000000000000000000000000000000000000000000000000000000000000000000000000000000000000000000000000000000000000000000000000000000000000000000000000000000000000000000000000000000000000000
310
00000000000000000000000000000000000000000000DC0000000000000000002800000000000000000000000000000000000000000000000000000000000000000000000000000000000000000000000000000000000000000000000000000000000000000000000000000000000000000000000000000000000000002800
310
DC000000000000000000000000000000000000000000000000000000000000000000000000000000000000000000000000000000000000000000000000000000000000000000000000000000000000000000000000000000000000000000000000000000000000000000000000000000000000000000000000000000000000
310
000000000000000000000000000000000000000000000000DC000000000000000000280000000000000000000000000000000000000000000000000000000000000000000000000000000000000000000000000000000000000000000000000000000000000000000000000000000000000000000000000000000000000000
310
2800DC00000000000000000000000000000000000000000000000000000000000000000000000000000000000000000000000000000000000000000000000000000000000000000000000000000000000000000000000000000000000000000000000000000000000000000000000000000000000000000000000000000000
310
0000000000000000000000000000000000000000000000000000DC00000000000000000028000000000000000000000000000000000000000000000000000000000000000000000000000000000000000000000000000000000000000000000000000000000000000000000000000000000000000000000000000000000000
310
00002800DC0000000000000000000000000000000000000000000000000000000000000000000000000000000000000000000000000000000000000000000000000000000000000000000000000000000000000000000000000000000000000000000000000000000000000000000000000000000000000000000000000000
310
00000000000000000000000000000000000000000000000000000000DC0000000000000000002800000000000000000000000000000000000000000000000000000000000000000000000000000000000000000000000000000000000000000000000000000000000000000000000000000000000000000000000000000000
310
000000002800DC000000000000000000000000000000000000000000000000000000000000000000000000000000000000000000000000000000000000000000000000000000000000000000000000000000000000000000000000000000000000000000000000000000000000000000000000000000000000000000000000
310
000000000000000000000000000000000000000000000000000000000000DC000000000000000000280000000000000000000000000000000000000000000000000000000000000000000000000000000000000000000000000000000000000000000000000000000000000000000000000000000000000000000000000000
310
0000000000002800DC00000000000000000000000000000000000000000000000000000000000000000000000000000000000000000000000000000000000000000000000000000000000000000000000000000000000000000000000000000000000000000000000000000000000000000000000000000000000000000000
310
0000000000000000000000000000000000000000000000000000000000000000DC00000000000000000028000000000000000000000000000000000000000000000000000000000000000000000000000000000000000000000000000000000000000000000000000000000000000000000000000000000000000000000000
310
00000000000000002800DC0000000000000000000000000000000000000000000000000000000000000000000000000000000000000000000000000000000000000000000000000000000000000000000000000000000000000000000000000000000000000000000000000000000000000000000000000000000000000000
310
00000000000000000000000000000000000000000000000000000000000000000000DC0000000000000000002828282828282828282828282828282828282828282828282828282828282828282828282828282828282828282828282828282828282828282828282828282828282828282828282828282828282828282828
310
282828282828282828282800DC000000000000000000000000000000000000000000000000000000000000000000000000000000000000000000000000000000000000000000000000000000000000000000000000000000000000000000000000000000000000000000000000000000000000000000000000000000000000
310
000000000000000000000000000000000000000000000000000000000000000000000000DC000000000000000000000000000000000000000000000000000000000000000000000000000000000000000000000000000000000000000000000000000000000000000000000000000000000000000000000000000000000000
310
0000000000000000000000000000DC00000000000000000000000000000000000000000000000000000000000000000000000000000000000000000000000000000000000000000000000000000000000000000000000000000000000000000000000000000000000000000000000000000000000000000000000000000000
310
0000000000000000000000000000000000000000000000000000000000000000000000000000DCDCDCDCDCDCDCDCDCDCDCDCDCDCDCDCDCDCDCDCDCDCDCDCDCDCDCDCDCDCDCDCDCDCDCDCDCDCDCDCDCDCDCDCDCDCDCDCDCDCDCDCDCDCDCDCDCDCDCDCDCDCDCDCDCDCDCDCDCDCDCDCDCDCDCDCDCDCDCDCDCDCDCDCDCDCDCDCDC
310
DCDCDCDCDCDCDCDCDCDCDCDCDCDCDCDCDC0000000000000000000000000000000000000000000000000000000000000000000000000000000000000000000000000000000000000000000000000000000000000000000000000000000000000000000000000000000000000000000000000000000000000000000000000000
310
00000000000000000000000000000000000000000000000000000000000000000000000000000000000000000000000000000000000000000000000000000000000000000000000000000000000000000000000000000000000000000000000000000000000000000000000000000000000000000000000000000000000000
310
00000000000000000000000000000000000000000000000000000000000000000000000000000000000000000000000000000000000000000000000000000000000000000000000000000000000000000000000000000000000000000000
  0
XRECORD
  5
C9E
102
{ACAD_REACTORS
330
739
102
}
330
739
100
AcDbXrecord
280
     1
102
MATERIAL
148
0.0
149
0.0
149
0.0
 93
        0
 94
      127
282
     0
 72
     0
 77
     0
171
     0
175
     0
179
     0
273
     0
  0
XRECORD
  5
73B
102
{ACAD_REACTORS
330
739
102
}
330
739
100
AcDbXrecord
280
     1
270
     1
271
     1
  0
XRECORD
  5
73A
102
{ACAD_REACTORS
330
739
102
}
330
739
100
AcDbXrecord
280
     1
270
     1
271
     1
  0
XRECORD
  5
73E
102
{ACAD_REACTORS
330
739
102
}
330
739
100
AcDbXrecord
280
     1
270
     1
271
     1
  0
XRECORD
  5
73D
102
{ACAD_REACTORS
330
739
102
}
330
739
100
AcDbXrecord
280
     1
270
     1
271
     1
  0
XRECORD
  5
73F
102
{ACAD_REACTORS
330
739
102
}
330
739
100
AcDbXrecord
280
     1
270
     1
271
     1
  0
XRECORD
  5
73C
102
{ACAD_REACTORS
330
739
102
}
330
739
100
AcDbXrecord
280
     1
270
     1
271
     1
  0
XRECORD
  5
C9D
102
{ACAD_REACTORS
330
731
102
}
330
731
100
AcDbXrecord
280
     1
102
MATERIAL
148
0.0
149
0.0
149
0.0
 93
        0
 94
      127
282
     0
 72
     0
 77
     0
171
     0
175
     0
179
     0
273
     0
  0
XRECORD
  5
733
102
{ACAD_REACTORS
330
731
102
}
330
731
100
AcDbXrecord
280
     1
270
     1
271
     1
  0
XRECORD
  5
732
102
{ACAD_REACTORS
330
731
102
}
330
731
100
AcDbXrecord
280
     1
270
     1
271
     1
  0
XRECORD
  5
736
102
{ACAD_REACTORS
330
731
102
}
330
731
100
AcDbXrecord
280
     1
270
     1
271
     1
  0
XRECORD
  5
735
102
{ACAD_REACTORS
330
731
102
}
330
731
100
AcDbXrecord
280
     1
270
     1
271
     1
  0
XRECORD
  5
737
102
{ACAD_REACTORS
330
731
102
}
330
731
100
AcDbXrecord
280
     1
270
     1
271
     1
  0
XRECORD
  5
734
102
{ACAD_REACTORS
330
731
102
}
330
731
100
AcDbXrecord
280
     1
270
     1
271
     1
  0
XRECORD
  5
C9F
102
{ACAD_REACTORS
330
741
102
}
330
741
100
AcDbXrecord
280
     1
102
MATERIAL
148
0.0
149
0.0
149
0.0
 93
        0
 94
      127
282
     0
 72
     0
 77
     0
171
     0
175
     0
179
     0
273
     0
  0
XRECORD
  5
743
102
{ACAD_REACTORS
330
741
102
}
330
741
100
AcDbXrecord
280
     1
270
     1
271
     1
  0
XRECORD
  5
742
102
{ACAD_REACTORS
330
741
102
}
330
741
100
AcDbXrecord
280
     1
270
     1
271
     1
  0
XRECORD
  5
746
102
{ACAD_REACTORS
330
741
102
}
330
741
100
AcDbXrecord
280
     1
270
     1
271
     1
  0
XRECORD
  5
745
102
{ACAD_REACTORS
330
741
102
}
330
741
100
AcDbXrecord
280
     1
270
     1
271
     1
  0
XRECORD
  5
747
102
{ACAD_REACTORS
330
741
102
}
330
741
100
AcDbXrecord
280
     1
270
     1
271
     1
  0
XRECORD
  5
744
102
{ACAD_REACTORS
330
741
102
}
330
741
100
AcDbXrecord
280
     1
270
     1
271
     1
  0
XRECORD
  5
CD2
102
{ACAD_REACTORS
330
CD1
102
}
330
CD1
100
AcDbXrecord
280
     1
102
ACAD_ROUNDTRIP_2012_MLEADER_STYLE
298
     1
  0
CELLSTYLEMAP
  5
C9B
102
{ACAD_REACTORS
330
82F
102
}
330
82F
100
AcDbCellStyleMap
 90
        3
300
CELLSTYLE
  1
TABLEFORMAT_BEGIN
 90
        5
170
     1
 91
        0
 92
    32768
 62
   257
 93
        1
300
CONTENTFORMAT
  1
CONTENTFORMAT_BEGIN
 90
        0
 91
        0
 92
      512
 93
        0
300

 40
0.0
140
1.0
 94
        5
 62
     0
340
11
144
0.25
309
CONTENTFORMAT_END
171
     0
 94
        0
309
TABLEFORMAT_END
  1
CELLSTYLE_BEGIN
 90
        1
 91
        1
300
_TITLE
309
CELLSTYLE_END
300
CELLSTYLE
  1
TABLEFORMAT_BEGIN
 90
        5
170
     1
 91
        0
 92
        0
 62
   257
 93
        1
300
CONTENTFORMAT
  1
CONTENTFORMAT_BEGIN
 90
        0
 91
        0
 92
      512
 93
        0
300

 40
0.0
140
1.0
 94
        5
 62
     0
340
11
144
0.18
309
CONTENTFORMAT_END
171
     0
 94
        0
309
TABLEFORMAT_END
  1
CELLSTYLE_BEGIN
 90
        2
 91
        1
300
_HEADER
309
CELLSTYLE_END
300
CELLSTYLE
  1
TABLEFORMAT_BEGIN
 90
        5
170
     1
 91
        0
 92
        0
 62
   257
 93
        1
300
CONTENTFORMAT
  1
CONTENTFORMAT_BEGIN
 90
        0
 91
        0
 92
      512
 93
        0
300

 40
0.0
140
1.0
 94
        2
 62
     0
340
11
144
0.18
309
CONTENTFORMAT_END
171
     0
 94
        0
309
TABLEFORMAT_END
  1
CELLSTYLE_BEGIN
 90
        3
 91
        2
300
_DATA
309
CELLSTYLE_END
  0
XRECORD
  5
CD0
102
{ACAD_REACTORS
330
82F
102
}
330
82F
100
AcDbXrecord
280
     1
102
ACAD_ROUNDTRIP_PRE2007_TABLESTYLE
 90
      512
 91
        0
  1

 92
      512
 93
        0
  2

 94
      512
 95
        0
  3

  0
XRECORD
  5
CAB
102
{ACAD_REACTORS
330
CAA
102
}
330
CAA
100
AcDbXrecord
280
     1
102
RTVSPost2010Prop28
280
     1
102
RTVSPost2010PropOp28
 70
     1
102
RTVSPost2010Prop29
280
     1
102
RTVSPost2010PropOp29
 70
     1
102
RTVSPost2010Prop30
280
     0
102
RTVSPost2010PropOp30
 70
     1
102
RTVSPost2010Prop31
280
     0
102
RTVSPost2010PropOp31
 70
     1
102
RTVSPost2010Prop32
280
     0
102
RTVSPost2010PropOp32
 70
     1
102
RTVSPost2010Prop33
280
     0
102
RTVSPost2010PropOp33
 70
     1
102
RTVSPost2010Prop34
280
     0
102
RTVSPost2010PropOp34
 70
     1
102
RTVSPost2010Prop35
280
     0
102
RTVSPost2010PropOp35
 70
     1
102
RTVSPost2010Prop36
280
     0
102
RTVSPost2010PropOp36
 70
     1
102
RTVSPost2010Prop37
 90
       50
102
RTVSPost2010PropOp37
 70
     1
102
RTVSPost2010Prop38
140
0.0
102
RTVSPost2010PropOp38
 70
     1
102
RTVSPost2010Prop39
140
1.0
102
RTVSPost2010PropOp39
 70
     1
102
RTVSPost2010Prop40
 90
        0
102
RTVSPost2010PropOp40
 70
     1
102
RTVSPost2010Prop41ColorIndex
 90
       18
102
RTVSPost2010Prop41ColorRGB
 90
        0
102
RTVSPost2010PropOp41
 70
     1
102
RTVSPost2010Prop42
 90
       50
102
RTVSPost2010PropOp42
 70
     1
102
RTVSPost2010Prop43
 90
        3
102
RTVSPost2010PropOp43
 70
     1
102
RTVSPost2010Prop44ColorIndex
 90
        5
102
RTVSPost2010Prop44ColorRGB
 90
      255
102
RTVSPost2010PropOp44
 70
     1
102
RTVSPost2010Prop45
280
     0
102
RTVSPost2010PropOp45
 70
     1
102
RTVSPost2010Prop46
 90
       50
102
RTVSPost2010PropOp46
 70
     1
102
RTVSPost2010Prop47
 90
       50
102
RTVSPost2010PropOp47
 70
     1
102
RTVSPost2010Prop48
 90
       50
102
RTVSPost2010PropOp48
 70
     1
102
RTVSPost2010Prop49
280
     0
102
RTVSPost2010PropOp49
 70
     1
102
RTVSPost2010Prop50
 90
       50
102
RTVSPost2010PropOp50
 70
     1
102
RTVSPost2010Prop51ColorIndex
 90
      256
102
RTVSPost2010Prop51ColorRGB
 90
-16777216
102
RTVSPost2010PropOp51
 70
     0
102
RTVSPost2010Prop52
140
1.0
102
RTVSPost2010PropOp52
 70
     0
102
RTVSPost2010Prop53
 90
        2
102
RTVSPost2010PropOp53
 70
     1
102
RTVSPost2010Prop54
  1
strokes_ogs.tif
102
RTVSPost2010PropOp54
 70
     1
102
RTVSPost2010Prop55
280
     0
102
RTVSPost2010PropOp55
 70
     1
102
RTVSPost2010Prop56
140
1.0
102
RTVSPost2010PropOp56
 70
     1
102
RTVSPost2010Prop57
140
1.0
102
RTVSPost2010PropOp57
 70
     1
102
RTVSPropertyOp0
 70
     1
102
RTVSPropertyOp1
 70
     1
102
RTVSPropertyOp2
 70
     1
102
RTVSPropertyOp3
 70
     1
102
RTVSPropertyOp4
 70
     1
102
RTVSPropertyOp5
 70
     1
102
RTVSPropertyOp6
 70
     1
102
RTVSPropertyOp7
 70
     1
102
RTVSPropertyOp8
 70
     1
102
RTVSPropertyOp9
 70
     1
102
RTVSPropertyOp10
 70
     1
102
RTVSPropertyOp11
 70
     1
102
RTVSPropertyOp12
 70
     1
102
RTVSPropertyOp13
 70
     1
102
RTVSPropertyOp14
 70
     1
102
RTVSPropertyOp15
 70
     1
102
RTVSPropertyOp16
 70
     1
102
RTVSPropertyOp17
 70
     1
102
RTVSPropertyOp18
 70
     1
102
RTVSPropertyOp19
 70
     1
102
RTVSPropertyOp20
 70
     1
102
RTVSPropertyOp21
 70
     1
102
RTVSPropertyOp22
 70
     1
102
RTVSPropertyOp23
 70
     1
102
RTVSPropertyOp24
 70
     1
102
RTVSPropertyOp25
 70
     1
102
RTVSPropertyOp26
 70
     1
102
RTVSPropertyOp27
 70
     1
102
RTVSPropertyOp28
 70
     1
102
RTVSPropertyOp29
 70
     1
102
RTVSPropertyOp30
 70
     1
102
RTVSPropertyOp31
 70
     1
102
RTVSPropertyOp32
 70
     1
102
RTVSPropertyOp33
 70
     1
102
RTVSPropertyOp34
 70
     1
102
RTVSPropertyOp35
 70
     1
102
RTVSPropertyOp36
 70
     1
102
RTVSPropertyOp37
 70
     1
102
RTVSPropertyOp38
 70
     1
102
RTVSPropertyOp39
 70
     1
102
RTVSPropertyOp40
 70
     1
102
RTVSPropertyOp41
 70
     1
102
RTVSPropertyOp42
 70
     1
102
RTVSPropertyOp43
 70
     1
102
RTVSPropertyOp44
 70
     1
102
RTVSPropertyOp45
 70
     1
102
RTVSPropertyOp46
 70
     1
102
RTVSPropertyOp47
 70
     1
102
RTVSPropertyOp48
 70
     1
102
RTVSPropertyOp49
 70
     1
102
RTVSPropertyOp50
 70
     1
102
RTVSPropertyOp51
 70
     0
102
RTVSPropertyOp52
 70
     0
102
RTVSPropertyOp53
 70
     1
102
RTVSPropertyOp54
 70
     1
102
RTVSPropertyOp55
 70
     1
102
RTVSPropertyOp56
 70
     1
102
RTVSPropertyOp57
 70
     1
102
RTVSPropertyOp58
 70
     1
102
RTVSPropertyOp59
 70
     1
102
RTVSPropertyOp60
 70
     1
102
RTVSPropertyOp61
 70
     1
102
RTVSPropertyOp62
 70
     1
  0
XRECORD
  5
CA9
102
{ACAD_REACTORS
330
CA8
102
}
330
CA8
100
AcDbXrecord
280
     1
102
RTVSPost2010Prop28
280
     0
102
RTVSPost2010PropOp28
 70
     1
102
RTVSPost2010Prop29
280
     1
102
RTVSPost2010PropOp29
 70
     1
102
RTVSPost2010Prop30
280
     1
102
RTVSPost2010PropOp30
 70
     1
102
RTVSPost2010Prop31
280
     0
102
RTVSPost2010PropOp31
 70
     1
102
RTVSPost2010Prop32
280
     0
102
RTVSPost2010PropOp32
 70
     1
102
RTVSPost2010Prop33
280
     0
102
RTVSPost2010PropOp33
 70
     1
102
RTVSPost2010Prop34
280
     0
102
RTVSPost2010PropOp34
 70
     1
102
RTVSPost2010Prop35
280
     0
102
RTVSPost2010PropOp35
 70
     1
102
RTVSPost2010Prop36
280
     0
102
RTVSPost2010PropOp36
 70
     1
102
RTVSPost2010Prop37
 90
       50
102
RTVSPost2010PropOp37
 70
     1
102
RTVSPost2010Prop38
140
0.0
102
RTVSPost2010PropOp38
 70
     1
102
RTVSPost2010Prop39
140
1.0
102
RTVSPost2010PropOp39
 70
     1
102
RTVSPost2010Prop40
 90
        0
102
RTVSPost2010PropOp40
 70
     1
102
RTVSPost2010Prop41ColorIndex
 90
       18
102
RTVSPost2010Prop41ColorRGB
 90
        0
102
RTVSPost2010PropOp41
 70
     1
102
RTVSPost2010Prop42
 90
       50
102
RTVSPost2010PropOp42
 70
     1
102
RTVSPost2010Prop43
 90
        3
102
RTVSPost2010PropOp43
 70
     1
102
RTVSPost2010Prop44ColorIndex
 90
        5
102
RTVSPost2010Prop44ColorRGB
 90
      255
102
RTVSPost2010PropOp44
 70
     1
102
RTVSPost2010Prop45
280
     0
102
RTVSPost2010PropOp45
 70
     1
102
RTVSPost2010Prop46
 90
       50
102
RTVSPost2010PropOp46
 70
     1
102
RTVSPost2010Prop47
 90
       50
102
RTVSPost2010PropOp47
 70
     1
102
RTVSPost2010Prop48
 90
       50
102
RTVSPost2010PropOp48
 70
     1
102
RTVSPost2010Prop49
280
     0
102
RTVSPost2010PropOp49
 70
     1
102
RTVSPost2010Prop50
 90
       50
102
RTVSPost2010PropOp50
 70
     1
102
RTVSPost2010Prop51ColorIndex
 90
      256
102
RTVSPost2010Prop51ColorRGB
 90
-16777216
102
RTVSPost2010PropOp51
 70
     0
102
RTVSPost2010Prop52
140
1.0
102
RTVSPost2010PropOp52
 70
     0
102
RTVSPost2010Prop53
 90
        2
102
RTVSPost2010PropOp53
 70
     1
102
RTVSPost2010Prop54
  1
strokes_ogs.tif
102
RTVSPost2010PropOp54
 70
     1
102
RTVSPost2010Prop55
280
     0
102
RTVSPost2010PropOp55
 70
     1
102
RTVSPost2010Prop56
140
1.0
102
RTVSPost2010PropOp56
 70
     1
102
RTVSPost2010Prop57
140
1.0
102
RTVSPost2010PropOp57
 70
     1
102
RTVSPropertyOp0
 70
     1
102
RTVSPropertyOp1
 70
     1
102
RTVSPropertyOp2
 70
     1
102
RTVSPropertyOp3
 70
     1
102
RTVSPropertyOp4
 70
     1
102
RTVSPropertyOp5
 70
     1
102
RTVSPropertyOp6
 70
     1
102
RTVSPropertyOp7
 70
     1
102
RTVSPropertyOp8
 70
     1
102
RTVSPropertyOp9
 70
     1
102
RTVSPropertyOp10
 70
     1
102
RTVSPropertyOp11
 70
     1
102
RTVSPropertyOp12
 70
     1
102
RTVSPropertyOp13
 70
     1
102
RTVSPropertyOp14
 70
     1
102
RTVSPropertyOp15
 70
     1
102
RTVSPropertyOp16
 70
     1
102
RTVSPropertyOp17
 70
     1
102
RTVSPropertyOp18
 70
     1
102
RTVSPropertyOp19
 70
     1
102
RTVSPropertyOp20
 70
     1
102
RTVSPropertyOp21
 70
     1
102
RTVSPropertyOp22
 70
     1
102
RTVSPropertyOp23
 70
     1
102
RTVSPropertyOp24
 70
     1
102
RTVSPropertyOp25
 70
     1
102
RTVSPropertyOp26
 70
     1
102
RTVSPropertyOp27
 70
     1
102
RTVSPropertyOp28
 70
     1
102
RTVSPropertyOp29
 70
     1
102
RTVSPropertyOp30
 70
     1
102
RTVSPropertyOp31
 70
     1
102
RTVSPropertyOp32
 70
     1
102
RTVSPropertyOp33
 70
     1
102
RTVSPropertyOp34
 70
     1
102
RTVSPropertyOp35
 70
     1
102
RTVSPropertyOp36
 70
     1
102
RTVSPropertyOp37
 70
     1
102
RTVSPropertyOp38
 70
     1
102
RTVSPropertyOp39
 70
     1
102
RTVSPropertyOp40
 70
     1
102
RTVSPropertyOp41
 70
     1
102
RTVSPropertyOp42
 70
     1
102
RTVSPropertyOp43
 70
     1
102
RTVSPropertyOp44
 70
     1
102
RTVSPropertyOp45
 70
     1
102
RTVSPropertyOp46
 70
     1
102
RTVSPropertyOp47
 70
     1
102
RTVSPropertyOp48
 70
     1
102
RTVSPropertyOp49
 70
     1
102
RTVSPropertyOp50
 70
     1
102
RTVSPropertyOp51
 70
     0
102
RTVSPropertyOp52
 70
     0
102
RTVSPropertyOp53
 70
     1
102
RTVSPropertyOp54
 70
     1
102
RTVSPropertyOp55
 70
     1
102
RTVSPropertyOp56
 70
     1
102
RTVSPropertyOp57
 70
     1
102
RTVSPropertyOp58
 70
     1
102
RTVSPropertyOp59
 70
     1
102
RTVSPropertyOp60
 70
     1
102
RTVSPropertyOp61
 70
     1
102
RTVSPropertyOp62
 70
     1
  0
XRECORD
  5
CB7
102
{ACAD_REACTORS
330
CB6
102
}
330
CB6
100
AcDbXrecord
280
     1
102
RTVSPost2010Prop28
280
     0
102
RTVSPost2010PropOp28
 70
     1
102
RTVSPost2010Prop29
280
     1
102
RTVSPost2010PropOp29
 70
     1
102
RTVSPost2010Prop30
280
     1
102
RTVSPost2010PropOp30
 70
     1
102
RTVSPost2010Prop31
280
     0
102
RTVSPost2010PropOp31
 70
     1
102
RTVSPost2010Prop32
280
     0
102
RTVSPost2010PropOp32
 70
     1
102
RTVSPost2010Prop33
280
     0
102
RTVSPost2010PropOp33
 70
     1
102
RTVSPost2010Prop34
280
     0
102
RTVSPost2010PropOp34
 70
     1
102
RTVSPost2010Prop35
280
     0
102
RTVSPost2010PropOp35
 70
     1
102
RTVSPost2010Prop36
280
     0
102
RTVSPost2010PropOp36
 70
     1
102
RTVSPost2010Prop37
 90
       50
102
RTVSPost2010PropOp37
 70
     1
102
RTVSPost2010Prop38
140
0.0
102
RTVSPost2010PropOp38
 70
     1
102
RTVSPost2010Prop39
140
1.0
102
RTVSPost2010PropOp39
 70
     1
102
RTVSPost2010Prop40
 90
        0
102
RTVSPost2010PropOp40
 70
     1
102
RTVSPost2010Prop41ColorIndex
 90
       18
102
RTVSPost2010Prop41ColorRGB
 90
        0
102
RTVSPost2010PropOp41
 70
     1
102
RTVSPost2010Prop42
 90
       50
102
RTVSPost2010PropOp42
 70
     1
102
RTVSPost2010Prop43
 90
        3
102
RTVSPost2010PropOp43
 70
     1
102
RTVSPost2010Prop44ColorIndex
 90
        5
102
RTVSPost2010Prop44ColorRGB
 90
      255
102
RTVSPost2010PropOp44
 70
     1
102
RTVSPost2010Prop45
280
     0
102
RTVSPost2010PropOp45
 70
     1
102
RTVSPost2010Prop46
 90
       50
102
RTVSPost2010PropOp46
 70
     1
102
RTVSPost2010Prop47
 90
       50
102
RTVSPost2010PropOp47
 70
     1
102
RTVSPost2010Prop48
 90
       50
102
RTVSPost2010PropOp48
 70
     1
102
RTVSPost2010Prop49
280
     0
102
RTVSPost2010PropOp49
 70
     1
102
RTVSPost2010Prop50
 90
       50
102
RTVSPost2010PropOp50
 70
     1
102
RTVSPost2010Prop51ColorIndex
 90
      256
102
RTVSPost2010Prop51ColorRGB
 90
-16777216
102
RTVSPost2010PropOp51
 70
     0
102
RTVSPost2010Prop52
140
1.0
102
RTVSPost2010PropOp52
 70
     0
102
RTVSPost2010Prop53
 90
        2
102
RTVSPost2010PropOp53
 70
     1
102
RTVSPost2010Prop54
  1
strokes_ogs.tif
102
RTVSPost2010PropOp54
 70
     1
102
RTVSPost2010Prop55
280
     0
102
RTVSPost2010PropOp55
 70
     1
102
RTVSPost2010Prop56
140
1.0
102
RTVSPost2010PropOp56
 70
     1
102
RTVSPost2010Prop57
140
1.0
102
RTVSPost2010PropOp57
 70
     1
102
RTVSPropertyOp0
 70
     1
102
RTVSPropertyOp1
 70
     1
102
RTVSPropertyOp2
 70
     1
102
RTVSPropertyOp3
 70
     1
102
RTVSPropertyOp4
 70
     1
102
RTVSPropertyOp5
 70
     1
102
RTVSPropertyOp6
 70
     1
102
RTVSPropertyOp7
 70
     1
102
RTVSPropertyOp8
 70
     1
102
RTVSPropertyOp9
 70
     1
102
RTVSPropertyOp10
 70
     1
102
RTVSPropertyOp11
 70
     1
102
RTVSPropertyOp12
 70
     1
102
RTVSPropertyOp13
 70
     1
102
RTVSPropertyOp14
 70
     1
102
RTVSPropertyOp15
 70
     1
102
RTVSPropertyOp16
 70
     1
102
RTVSPropertyOp17
 70
     1
102
RTVSPropertyOp18
 70
     1
102
RTVSPropertyOp19
 70
     1
102
RTVSPropertyOp20
 70
     1
102
RTVSPropertyOp21
 70
     1
102
RTVSPropertyOp22
 70
     1
102
RTVSPropertyOp23
 70
     1
102
RTVSPropertyOp24
 70
     1
102
RTVSPropertyOp25
 70
     1
102
RTVSPropertyOp26
 70
     1
102
RTVSPropertyOp27
 70
     1
102
RTVSPropertyOp28
 70
     1
102
RTVSPropertyOp29
 70
     1
102
RTVSPropertyOp30
 70
     1
102
RTVSPropertyOp31
 70
     1
102
RTVSPropertyOp32
 70
     1
102
RTVSPropertyOp33
 70
     1
102
RTVSPropertyOp34
 70
     1
102
RTVSPropertyOp35
 70
     1
102
RTVSPropertyOp36
 70
     1
102
RTVSPropertyOp37
 70
     1
102
RTVSPropertyOp38
 70
     1
102
RTVSPropertyOp39
 70
     1
102
RTVSPropertyOp40
 70
     1
102
RTVSPropertyOp41
 70
     1
102
RTVSPropertyOp42
 70
     1
102
RTVSPropertyOp43
 70
     1
102
RTVSPropertyOp44
 70
     1
102
RTVSPropertyOp45
 70
     1
102
RTVSPropertyOp46
 70
     1
102
RTVSPropertyOp47
 70
     1
102
RTVSPropertyOp48
 70
     1
102
RTVSPropertyOp49
 70
     1
102
RTVSPropertyOp50
 70
     1
102
RTVSPropertyOp51
 70
     0
102
RTVSPropertyOp52
 70
     0
102
RTVSPropertyOp53
 70
     1
102
RTVSPropertyOp54
 70
     1
102
RTVSPropertyOp55
 70
     1
102
RTVSPropertyOp56
 70
     1
102
RTVSPropertyOp57
 70
     1
102
RTVSPropertyOp58
 70
     1
102
RTVSPropertyOp59
 70
     1
102
RTVSPropertyOp60
 70
     1
102
RTVSPropertyOp61
 70
     1
102
RTVSPropertyOp62
 70
     1
  0
XRECORD
  5
CBF
102
{ACAD_REACTORS
330
CBE
102
}
330
CBE
100
AcDbXrecord
280
     1
102
RTVSPost2010Prop28
280
     0
102
RTVSPost2010PropOp28
 70
     1
102
RTVSPost2010Prop29
280
     1
102
RTVSPost2010PropOp29
 70
     1
102
RTVSPost2010Prop30
280
     1
102
RTVSPost2010PropOp30
 70
     1
102
RTVSPost2010Prop31
280
     0
102
RTVSPost2010PropOp31
 70
     1
102
RTVSPost2010Prop32
280
     0
102
RTVSPost2010PropOp32
 70
     1
102
RTVSPost2010Prop33
280
     0
102
RTVSPost2010PropOp33
 70
     1
102
RTVSPost2010Prop34
280
     0
102
RTVSPost2010PropOp34
 70
     1
102
RTVSPost2010Prop35
280
     0
102
RTVSPost2010PropOp35
 70
     1
102
RTVSPost2010Prop36
280
     0
102
RTVSPost2010PropOp36
 70
     1
102
RTVSPost2010Prop37
 90
       50
102
RTVSPost2010PropOp37
 70
     1
102
RTVSPost2010Prop38
140
0.0
102
RTVSPost2010PropOp38
 70
     1
102
RTVSPost2010Prop39
140
1.0
102
RTVSPost2010PropOp39
 70
     1
102
RTVSPost2010Prop40
 90
        0
102
RTVSPost2010PropOp40
 70
     1
102
RTVSPost2010Prop41ColorIndex
 90
       18
102
RTVSPost2010Prop41ColorRGB
 90
        0
102
RTVSPost2010PropOp41
 70
     1
102
RTVSPost2010Prop42
 90
       50
102
RTVSPost2010PropOp42
 70
     1
102
RTVSPost2010Prop43
 90
        3
102
RTVSPost2010PropOp43
 70
     1
102
RTVSPost2010Prop44ColorIndex
 90
        5
102
RTVSPost2010Prop44ColorRGB
 90
      255
102
RTVSPost2010PropOp44
 70
     1
102
RTVSPost2010Prop45
280
     0
102
RTVSPost2010PropOp45
 70
     1
102
RTVSPost2010Prop46
 90
       50
102
RTVSPost2010PropOp46
 70
     1
102
RTVSPost2010Prop47
 90
       50
102
RTVSPost2010PropOp47
 70
     1
102
RTVSPost2010Prop48
 90
       50
102
RTVSPost2010PropOp48
 70
     1
102
RTVSPost2010Prop49
280
     0
102
RTVSPost2010PropOp49
 70
     1
102
RTVSPost2010Prop50
 90
       50
102
RTVSPost2010PropOp50
 70
     1
102
RTVSPost2010Prop51ColorIndex
 90
      256
102
RTVSPost2010Prop51ColorRGB
 90
-16777216
102
RTVSPost2010PropOp51
 70
     0
102
RTVSPost2010Prop52
140
1.0
102
RTVSPost2010PropOp52
 70
     0
102
RTVSPost2010Prop53
 90
        2
102
RTVSPost2010PropOp53
 70
     1
102
RTVSPost2010Prop54
  1
strokes_ogs.tif
102
RTVSPost2010PropOp54
 70
     1
102
RTVSPost2010Prop55
280
     0
102
RTVSPost2010PropOp55
 70
     1
102
RTVSPost2010Prop56
140
1.0
102
RTVSPost2010PropOp56
 70
     1
102
RTVSPost2010Prop57
140
1.0
102
RTVSPost2010PropOp57
 70
     1
102
RTVSPropertyOp0
 70
     1
102
RTVSPropertyOp1
 70
     1
102
RTVSPropertyOp2
 70
     1
102
RTVSPropertyOp3
 70
     1
102
RTVSPropertyOp4
 70
     1
102
RTVSPropertyOp5
 70
     1
102
RTVSPropertyOp6
 70
     1
102
RTVSPropertyOp7
 70
     1
102
RTVSPropertyOp8
 70
     1
102
RTVSPropertyOp9
 70
     1
102
RTVSPropertyOp10
 70
     1
102
RTVSPropertyOp11
 70
     1
102
RTVSPropertyOp12
 70
     1
102
RTVSPropertyOp13
 70
     1
102
RTVSPropertyOp14
 70
     1
102
RTVSPropertyOp15
 70
     1
102
RTVSPropertyOp16
 70
     1
102
RTVSPropertyOp17
 70
     1
102
RTVSPropertyOp18
 70
     1
102
RTVSPropertyOp19
 70
     1
102
RTVSPropertyOp20
 70
     1
102
RTVSPropertyOp21
 70
     1
102
RTVSPropertyOp22
 70
     1
102
RTVSPropertyOp23
 70
     1
102
RTVSPropertyOp24
 70
     1
102
RTVSPropertyOp25
 70
     1
102
RTVSPropertyOp26
 70
     1
102
RTVSPropertyOp27
 70
     1
102
RTVSPropertyOp28
 70
     1
102
RTVSPropertyOp29
 70
     1
102
RTVSPropertyOp30
 70
     1
102
RTVSPropertyOp31
 70
     1
102
RTVSPropertyOp32
 70
     1
102
RTVSPropertyOp33
 70
     1
102
RTVSPropertyOp34
 70
     1
102
RTVSPropertyOp35
 70
     1
102
RTVSPropertyOp36
 70
     1
102
RTVSPropertyOp37
 70
     1
102
RTVSPropertyOp38
 70
     1
102
RTVSPropertyOp39
 70
     1
102
RTVSPropertyOp40
 70
     1
102
RTVSPropertyOp41
 70
     1
102
RTVSPropertyOp42
 70
     1
102
RTVSPropertyOp43
 70
     1
102
RTVSPropertyOp44
 70
     1
102
RTVSPropertyOp45
 70
     1
102
RTVSPropertyOp46
 70
     1
102
RTVSPropertyOp47
 70
     1
102
RTVSPropertyOp48
 70
     1
102
RTVSPropertyOp49
 70
     1
102
RTVSPropertyOp50
 70
     1
102
RTVSPropertyOp51
 70
     0
102
RTVSPropertyOp52
 70
     0
102
RTVSPropertyOp53
 70
     1
102
RTVSPropertyOp54
 70
     1
102
RTVSPropertyOp55
 70
     1
102
RTVSPropertyOp56
 70
     1
102
RTVSPropertyOp57
 70
     1
102
RTVSPropertyOp58
 70
     1
102
RTVSPropertyOp59
 70
     1
102
RTVSPropertyOp60
 70
     1
102
RTVSPropertyOp61
 70
     1
102
RTVSPropertyOp62
 70
     1
  0
XRECORD
  5
CB1
102
{ACAD_REACTORS
330
CB0
102
}
330
CB0
100
AcDbXrecord
280
     1
102
RTVSPost2010Prop28
280
     0
102
RTVSPost2010PropOp28
 70
     1
102
RTVSPost2010Prop29
280
     1
102
RTVSPost2010PropOp29
 70
     1
102
RTVSPost2010Prop30
280
     1
102
RTVSPost2010PropOp30
 70
     1
102
RTVSPost2010Prop31
280
     0
102
RTVSPost2010PropOp31
 70
     1
102
RTVSPost2010Prop32
280
     0
102
RTVSPost2010PropOp32
 70
     1
102
RTVSPost2010Prop33
280
     0
102
RTVSPost2010PropOp33
 70
     1
102
RTVSPost2010Prop34
280
     0
102
RTVSPost2010PropOp34
 70
     1
102
RTVSPost2010Prop35
280
     0
102
RTVSPost2010PropOp35
 70
     1
102
RTVSPost2010Prop36
280
     0
102
RTVSPost2010PropOp36
 70
     1
102
RTVSPost2010Prop37
 90
       50
102
RTVSPost2010PropOp37
 70
     1
102
RTVSPost2010Prop38
140
0.0
102
RTVSPost2010PropOp38
 70
     1
102
RTVSPost2010Prop39
140
1.0
102
RTVSPost2010PropOp39
 70
     1
102
RTVSPost2010Prop40
 90
        0
102
RTVSPost2010PropOp40
 70
     1
102
RTVSPost2010Prop41ColorIndex
 90
       18
102
RTVSPost2010Prop41ColorRGB
 90
        0
102
RTVSPost2010PropOp41
 70
     1
102
RTVSPost2010Prop42
 90
       50
102
RTVSPost2010PropOp42
 70
     1
102
RTVSPost2010Prop43
 90
        3
102
RTVSPost2010PropOp43
 70
     1
102
RTVSPost2010Prop44ColorIndex
 90
        5
102
RTVSPost2010Prop44ColorRGB
 90
      255
102
RTVSPost2010PropOp44
 70
     1
102
RTVSPost2010Prop45
280
     0
102
RTVSPost2010PropOp45
 70
     1
102
RTVSPost2010Prop46
 90
       50
102
RTVSPost2010PropOp46
 70
     1
102
RTVSPost2010Prop47
 90
       50
102
RTVSPost2010PropOp47
 70
     1
102
RTVSPost2010Prop48
 90
       50
102
RTVSPost2010PropOp48
 70
     1
102
RTVSPost2010Prop49
280
     0
102
RTVSPost2010PropOp49
 70
     1
102
RTVSPost2010Prop50
 90
       50
102
RTVSPost2010PropOp50
 70
     1
102
RTVSPost2010Prop51ColorIndex
 90
      256
102
RTVSPost2010Prop51ColorRGB
 90
-16777216
102
RTVSPost2010PropOp51
 70
     0
102
RTVSPost2010Prop52
140
1.0
102
RTVSPost2010PropOp52
 70
     0
102
RTVSPost2010Prop53
 90
        2
102
RTVSPost2010PropOp53
 70
     1
102
RTVSPost2010Prop54
  1
strokes_ogs.tif
102
RTVSPost2010PropOp54
 70
     1
102
RTVSPost2010Prop55
280
     0
102
RTVSPost2010PropOp55
 70
     1
102
RTVSPost2010Prop56
140
1.0
102
RTVSPost2010PropOp56
 70
     1
102
RTVSPost2010Prop57
140
1.0
102
RTVSPost2010PropOp57
 70
     1
102
RTVSPropertyOp0
 70
     1
102
RTVSPropertyOp1
 70
     1
102
RTVSPropertyOp2
 70
     1
102
RTVSPropertyOp3
 70
     1
102
RTVSPropertyOp4
 70
     1
102
RTVSPropertyOp5
 70
     1
102
RTVSPropertyOp6
 70
     1
102
RTVSPropertyOp7
 70
     1
102
RTVSPropertyOp8
 70
     1
102
RTVSPropertyOp9
 70
     1
102
RTVSPropertyOp10
 70
     1
102
RTVSPropertyOp11
 70
     1
102
RTVSPropertyOp12
 70
     1
102
RTVSPropertyOp13
 70
     1
102
RTVSPropertyOp14
 70
     1
102
RTVSPropertyOp15
 70
     1
102
RTVSPropertyOp16
 70
     1
102
RTVSPropertyOp17
 70
     1
102
RTVSPropertyOp18
 70
     1
102
RTVSPropertyOp19
 70
     1
102
RTVSPropertyOp20
 70
     1
102
RTVSPropertyOp21
 70
     1
102
RTVSPropertyOp22
 70
     1
102
RTVSPropertyOp23
 70
     1
102
RTVSPropertyOp24
 70
     1
102
RTVSPropertyOp25
 70
     1
102
RTVSPropertyOp26
 70
     1
102
RTVSPropertyOp27
 70
     1
102
RTVSPropertyOp28
 70
     1
102
RTVSPropertyOp29
 70
     1
102
RTVSPropertyOp30
 70
     1
102
RTVSPropertyOp31
 70
     1
102
RTVSPropertyOp32
 70
     1
102
RTVSPropertyOp33
 70
     1
102
RTVSPropertyOp34
 70
     1
102
RTVSPropertyOp35
 70
     1
102
RTVSPropertyOp36
 70
     1
102
RTVSPropertyOp37
 70
     1
102
RTVSPropertyOp38
 70
     1
102
RTVSPropertyOp39
 70
     1
102
RTVSPropertyOp40
 70
     1
102
RTVSPropertyOp41
 70
     1
102
RTVSPropertyOp42
 70
     1
102
RTVSPropertyOp43
 70
     1
102
RTVSPropertyOp44
 70
     1
102
RTVSPropertyOp45
 70
     1
102
RTVSPropertyOp46
 70
     1
102
RTVSPropertyOp47
 70
     1
102
RTVSPropertyOp48
 70
     1
102
RTVSPropertyOp49
 70
     1
102
RTVSPropertyOp50
 70
     1
102
RTVSPropertyOp51
 70
     0
102
RTVSPropertyOp52
 70
     0
102
RTVSPropertyOp53
 70
     1
102
RTVSPropertyOp54
 70
     1
102
RTVSPropertyOp55
 70
     1
102
RTVSPropertyOp56
 70
     1
102
RTVSPropertyOp57
 70
     1
102
RTVSPropertyOp58
 70
     1
102
RTVSPropertyOp59
 70
     1
102
RTVSPropertyOp60
 70
     1
102
RTVSPropertyOp61
 70
     1
102
RTVSPropertyOp62
 70
     1
  0
XRECORD
  5
CB5
102
{ACAD_REACTORS
330
CB4
102
}
330
CB4
100
AcDbXrecord
280
     1
102
RTVSPost2010Prop28
280
     0
102
RTVSPost2010PropOp28
 70
     1
102
RTVSPost2010Prop29
280
     1
102
RTVSPost2010PropOp29
 70
     1
102
RTVSPost2010Prop30
280
     1
102
RTVSPost2010PropOp30
 70
     1
102
RTVSPost2010Prop31
280
     0
102
RTVSPost2010PropOp31
 70
     1
102
RTVSPost2010Prop32
280
     0
102
RTVSPost2010PropOp32
 70
     1
102
RTVSPost2010Prop33
280
     0
102
RTVSPost2010PropOp33
 70
     1
102
RTVSPost2010Prop34
280
     0
102
RTVSPost2010PropOp34
 70
     1
102
RTVSPost2010Prop35
280
     0
102
RTVSPost2010PropOp35
 70
     1
102
RTVSPost2010Prop36
280
     0
102
RTVSPost2010PropOp36
 70
     1
102
RTVSPost2010Prop37
 90
       50
102
RTVSPost2010PropOp37
 70
     1
102
RTVSPost2010Prop38
140
0.0
102
RTVSPost2010PropOp38
 70
     1
102
RTVSPost2010Prop39
140
1.0
102
RTVSPost2010PropOp39
 70
     1
102
RTVSPost2010Prop40
 90
        0
102
RTVSPost2010PropOp40
 70
     1
102
RTVSPost2010Prop41ColorIndex
 90
       18
102
RTVSPost2010Prop41ColorRGB
 90
        0
102
RTVSPost2010PropOp41
 70
     1
102
RTVSPost2010Prop42
 90
       50
102
RTVSPost2010PropOp42
 70
     1
102
RTVSPost2010Prop43
 90
        3
102
RTVSPost2010PropOp43
 70
     1
102
RTVSPost2010Prop44ColorIndex
 90
        5
102
RTVSPost2010Prop44ColorRGB
 90
      255
102
RTVSPost2010PropOp44
 70
     1
102
RTVSPost2010Prop45
280
     0
102
RTVSPost2010PropOp45
 70
     1
102
RTVSPost2010Prop46
 90
       50
102
RTVSPost2010PropOp46
 70
     1
102
RTVSPost2010Prop47
 90
       50
102
RTVSPost2010PropOp47
 70
     1
102
RTVSPost2010Prop48
 90
       50
102
RTVSPost2010PropOp48
 70
     1
102
RTVSPost2010Prop49
280
     0
102
RTVSPost2010PropOp49
 70
     1
102
RTVSPost2010Prop50
 90
       50
102
RTVSPost2010PropOp50
 70
     1
102
RTVSPost2010Prop51ColorIndex
 90
      256
102
RTVSPost2010Prop51ColorRGB
 90
-16777216
102
RTVSPost2010PropOp51
 70
     0
102
RTVSPost2010Prop52
140
1.0
102
RTVSPost2010PropOp52
 70
     0
102
RTVSPost2010Prop53
 90
        2
102
RTVSPost2010PropOp53
 70
     1
102
RTVSPost2010Prop54
  1
strokes_ogs.tif
102
RTVSPost2010PropOp54
 70
     1
102
RTVSPost2010Prop55
280
     0
102
RTVSPost2010PropOp55
 70
     1
102
RTVSPost2010Prop56
140
1.0
102
RTVSPost2010PropOp56
 70
     1
102
RTVSPost2010Prop57
140
1.0
102
RTVSPost2010PropOp57
 70
     1
102
RTVSPropertyOp0
 70
     1
102
RTVSPropertyOp1
 70
     1
102
RTVSPropertyOp2
 70
     1
102
RTVSPropertyOp3
 70
     1
102
RTVSPropertyOp4
 70
     1
102
RTVSPropertyOp5
 70
     1
102
RTVSPropertyOp6
 70
     1
102
RTVSPropertyOp7
 70
     1
102
RTVSPropertyOp8
 70
     1
102
RTVSPropertyOp9
 70
     1
102
RTVSPropertyOp10
 70
     1
102
RTVSPropertyOp11
 70
     1
102
RTVSPropertyOp12
 70
     1
102
RTVSPropertyOp13
 70
     1
102
RTVSPropertyOp14
 70
     1
102
RTVSPropertyOp15
 70
     1
102
RTVSPropertyOp16
 70
     1
102
RTVSPropertyOp17
 70
     1
102
RTVSPropertyOp18
 70
     1
102
RTVSPropertyOp19
 70
     1
102
RTVSPropertyOp20
 70
     1
102
RTVSPropertyOp21
 70
     1
102
RTVSPropertyOp22
 70
     1
102
RTVSPropertyOp23
 70
     1
102
RTVSPropertyOp24
 70
     1
102
RTVSPropertyOp25
 70
     1
102
RTVSPropertyOp26
 70
     1
102
RTVSPropertyOp27
 70
     1
102
RTVSPropertyOp28
 70
     1
102
RTVSPropertyOp29
 70
     1
102
RTVSPropertyOp30
 70
     1
102
RTVSPropertyOp31
 70
     1
102
RTVSPropertyOp32
 70
     1
102
RTVSPropertyOp33
 70
     1
102
RTVSPropertyOp34
 70
     1
102
RTVSPropertyOp35
 70
     1
102
RTVSPropertyOp36
 70
     1
102
RTVSPropertyOp37
 70
     1
102
RTVSPropertyOp38
 70
     1
102
RTVSPropertyOp39
 70
     1
102
RTVSPropertyOp40
 70
     1
102
RTVSPropertyOp41
 70
     1
102
RTVSPropertyOp42
 70
     1
102
RTVSPropertyOp43
 70
     1
102
RTVSPropertyOp44
 70
     1
102
RTVSPropertyOp45
 70
     1
102
RTVSPropertyOp46
 70
     1
102
RTVSPropertyOp47
 70
     1
102
RTVSPropertyOp48
 70
     1
102
RTVSPropertyOp49
 70
     1
102
RTVSPropertyOp50
 70
     1
102
RTVSPropertyOp51
 70
     0
102
RTVSPropertyOp52
 70
     0
102
RTVSPropertyOp53
 70
     1
102
RTVSPropertyOp54
 70
     1
102
RTVSPropertyOp55
 70
     1
102
RTVSPropertyOp56
 70
     1
102
RTVSPropertyOp57
 70
     1
102
RTVSPropertyOp58
 70
     1
102
RTVSPropertyOp59
 70
     1
102
RTVSPropertyOp60
 70
     1
102
RTVSPropertyOp61
 70
     1
102
RTVSPropertyOp62
 70
     1
  0
XRECORD
  5
CCF
102
{ACAD_REACTORS
330
CCE
102
}
330
CCE
100
AcDbXrecord
280
     1
102
RTVSPost2010Prop28
280
     0
102
RTVSPost2010PropOp28
 70
     0
102
RTVSPost2010Prop29
280
     1
102
RTVSPost2010PropOp29
 70
     0
102
RTVSPost2010Prop30
280
     1
102
RTVSPost2010PropOp30
 70
     0
102
RTVSPost2010Prop31
280
     0
102
RTVSPost2010PropOp31
 70
     0
102
RTVSPost2010Prop32
280
     0
102
RTVSPost2010PropOp32
 70
     0
102
RTVSPost2010Prop33
280
     0
102
RTVSPost2010PropOp33
 70
     0
102
RTVSPost2010Prop34
280
     0
102
RTVSPost2010PropOp34
 70
     0
102
RTVSPost2010Prop35
280
     0
102
RTVSPost2010PropOp35
 70
     0
102
RTVSPost2010Prop36
280
     0
102
RTVSPost2010PropOp36
 70
     0
102
RTVSPost2010Prop37
 90
       50
102
RTVSPost2010PropOp37
 70
     0
102
RTVSPost2010Prop38
140
0.0
102
RTVSPost2010PropOp38
 70
     0
102
RTVSPost2010Prop39
140
1.0
102
RTVSPost2010PropOp39
 70
     0
102
RTVSPost2010Prop40
 90
        0
102
RTVSPost2010PropOp40
 70
     0
102
RTVSPost2010Prop41ColorIndex
 90
       18
102
RTVSPost2010Prop41ColorRGB
 90
        0
102
RTVSPost2010PropOp41
 70
     0
102
RTVSPost2010Prop42
 90
       50
102
RTVSPost2010PropOp42
 70
     0
102
RTVSPost2010Prop43
 90
        3
102
RTVSPost2010PropOp43
 70
     0
102
RTVSPost2010Prop44ColorIndex
 90
        5
102
RTVSPost2010Prop44ColorRGB
 90
      255
102
RTVSPost2010PropOp44
 70
     0
102
RTVSPost2010Prop45
280
     0
102
RTVSPost2010PropOp45
 70
     0
102
RTVSPost2010Prop46
 90
       50
102
RTVSPost2010PropOp46
 70
     0
102
RTVSPost2010Prop47
 90
       50
102
RTVSPost2010PropOp47
 70
     0
102
RTVSPost2010Prop48
 90
       50
102
RTVSPost2010PropOp48
 70
     0
102
RTVSPost2010Prop49
280
     0
102
RTVSPost2010PropOp49
 70
     0
102
RTVSPost2010Prop50
 90
       50
102
RTVSPost2010PropOp50
 70
     0
102
RTVSPost2010Prop51ColorIndex
 90
      256
102
RTVSPost2010Prop51ColorRGB
 90
-16777216
102
RTVSPost2010PropOp51
 70
     0
102
RTVSPost2010Prop52
140
1.0
102
RTVSPost2010PropOp52
 70
     0
102
RTVSPost2010Prop53
 90
        2
102
RTVSPost2010PropOp53
 70
     0
102
RTVSPost2010Prop54
  1
strokes_ogs.tif
102
RTVSPost2010PropOp54
 70
     0
102
RTVSPost2010Prop55
280
     0
102
RTVSPost2010PropOp55
 70
     0
102
RTVSPost2010Prop56
140
1.0
102
RTVSPost2010PropOp56
 70
     0
102
RTVSPost2010Prop57
140
1.0
102
RTVSPost2010PropOp57
 70
     0
102
RTVSPropertyOp0
 70
     0
102
RTVSPropertyOp1
 70
     0
102
RTVSPropertyOp2
 70
     0
102
RTVSPropertyOp3
 70
     0
102
RTVSPropertyOp4
 70
     0
102
RTVSPropertyOp5
 70
     0
102
RTVSPropertyOp6
 70
     0
102
RTVSPropertyOp7
 70
     0
102
RTVSPropertyOp8
 70
     0
102
RTVSPropertyOp9
 70
     0
102
RTVSPropertyOp10
 70
     0
102
RTVSPropertyOp11
 70
     0
102
RTVSPropertyOp12
 70
     0
102
RTVSPropertyOp13
 70
     0
102
RTVSPropertyOp14
 70
     2
102
RTVSPropertyOp15
 70
     0
102
RTVSPropertyOp16
 70
     0
102
RTVSPropertyOp17
 70
     0
102
RTVSPropertyOp18
 70
     0
102
RTVSPropertyOp19
 70
     0
102
RTVSPropertyOp20
 70
     0
102
RTVSPropertyOp21
 70
     0
102
RTVSPropertyOp22
 70
     0
102
RTVSPropertyOp23
 70
     0
102
RTVSPropertyOp24
 70
     0
102
RTVSPropertyOp25
 70
     0
102
RTVSPropertyOp26
 70
     0
102
RTVSPropertyOp27
 70
     0
102
RTVSPropertyOp28
 70
     0
102
RTVSPropertyOp29
 70
     0
102
RTVSPropertyOp30
 70
     0
102
RTVSPropertyOp31
 70
     0
102
RTVSPropertyOp32
 70
     0
102
RTVSPropertyOp33
 70
     0
102
RTVSPropertyOp34
 70
     0
102
RTVSPropertyOp35
 70
     0
102
RTVSPropertyOp36
 70
     0
102
RTVSPropertyOp37
 70
     0
102
RTVSPropertyOp38
 70
     0
102
RTVSPropertyOp39
 70
     0
102
RTVSPropertyOp40
 70
     0
102
RTVSPropertyOp41
 70
     0
102
RTVSPropertyOp42
 70
     0
102
RTVSPropertyOp43
 70
     0
102
RTVSPropertyOp44
 70
     0
102
RTVSPropertyOp45
 70
     0
102
RTVSPropertyOp46
 70
     0
102
RTVSPropertyOp47
 70
     0
102
RTVSPropertyOp48
 70
     0
102
RTVSPropertyOp49
 70
     0
102
RTVSPropertyOp50
 70
     0
102
RTVSPropertyOp51
 70
     0
102
RTVSPropertyOp52
 70
     0
102
RTVSPropertyOp53
 70
     0
102
RTVSPropertyOp54
 70
     0
102
RTVSPropertyOp55
 70
     0
102
RTVSPropertyOp56
 70
     0
102
RTVSPropertyOp57
 70
     0
102
RTVSPropertyOp58
 70
     0
102
RTVSPropertyOp59
 70
     0
102
RTVSPropertyOp60
 70
     0
102
RTVSPropertyOp61
 70
     0
102
RTVSPropertyOp62
 70
     0
  0
XRECORD
  5
CBD
102
{ACAD_REACTORS
330
CBC
102
}
330
CBC
100
AcDbXrecord
280
     1
102
RTVSPost2010Prop28
280
     0
102
RTVSPost2010PropOp28
 70
     1
102
RTVSPost2010Prop29
280
     1
102
RTVSPost2010PropOp29
 70
     1
102
RTVSPost2010Prop30
280
     1
102
RTVSPost2010PropOp30
 70
     1
102
RTVSPost2010Prop31
280
     0
102
RTVSPost2010PropOp31
 70
     1
102
RTVSPost2010Prop32
280
     0
102
RTVSPost2010PropOp32
 70
     1
102
RTVSPost2010Prop33
280
     0
102
RTVSPost2010PropOp33
 70
     1
102
RTVSPost2010Prop34
280
     0
102
RTVSPost2010PropOp34
 70
     1
102
RTVSPost2010Prop35
280
     0
102
RTVSPost2010PropOp35
 70
     1
102
RTVSPost2010Prop36
280
     0
102
RTVSPost2010PropOp36
 70
     1
102
RTVSPost2010Prop37
 90
       50
102
RTVSPost2010PropOp37
 70
     1
102
RTVSPost2010Prop38
140
0.0
102
RTVSPost2010PropOp38
 70
     1
102
RTVSPost2010Prop39
140
1.0
102
RTVSPost2010PropOp39
 70
     1
102
RTVSPost2010Prop40
 90
        0
102
RTVSPost2010PropOp40
 70
     1
102
RTVSPost2010Prop41ColorIndex
 90
       18
102
RTVSPost2010Prop41ColorRGB
 90
        0
102
RTVSPost2010PropOp41
 70
     1
102
RTVSPost2010Prop42
 90
       50
102
RTVSPost2010PropOp42
 70
     1
102
RTVSPost2010Prop43
 90
        3
102
RTVSPost2010PropOp43
 70
     1
102
RTVSPost2010Prop44ColorIndex
 90
        5
102
RTVSPost2010Prop44ColorRGB
 90
      255
102
RTVSPost2010PropOp44
 70
     1
102
RTVSPost2010Prop45
280
     0
102
RTVSPost2010PropOp45
 70
     1
102
RTVSPost2010Prop46
 90
       50
102
RTVSPost2010PropOp46
 70
     1
102
RTVSPost2010Prop47
 90
       50
102
RTVSPost2010PropOp47
 70
     1
102
RTVSPost2010Prop48
 90
       50
102
RTVSPost2010PropOp48
 70
     1
102
RTVSPost2010Prop49
280
     0
102
RTVSPost2010PropOp49
 70
     1
102
RTVSPost2010Prop50
 90
       50
102
RTVSPost2010PropOp50
 70
     1
102
RTVSPost2010Prop51ColorIndex
 90
      256
102
RTVSPost2010Prop51ColorRGB
 90
-16777216
102
RTVSPost2010PropOp51
 70
     0
102
RTVSPost2010Prop52
140
1.0
102
RTVSPost2010PropOp52
 70
     0
102
RTVSPost2010Prop53
 90
        2
102
RTVSPost2010PropOp53
 70
     1
102
RTVSPost2010Prop54
  1
strokes_ogs.tif
102
RTVSPost2010PropOp54
 70
     1
102
RTVSPost2010Prop55
280
     0
102
RTVSPost2010PropOp55
 70
     1
102
RTVSPost2010Prop56
140
1.0
102
RTVSPost2010PropOp56
 70
     1
102
RTVSPost2010Prop57
140
1.0
102
RTVSPost2010PropOp57
 70
     1
102
RTVSPropertyOp0
 70
     1
102
RTVSPropertyOp1
 70
     1
102
RTVSPropertyOp2
 70
     1
102
RTVSPropertyOp3
 70
     1
102
RTVSPropertyOp4
 70
     1
102
RTVSPropertyOp5
 70
     1
102
RTVSPropertyOp6
 70
     1
102
RTVSPropertyOp7
 70
     1
102
RTVSPropertyOp8
 70
     1
102
RTVSPropertyOp9
 70
     1
102
RTVSPropertyOp10
 70
     1
102
RTVSPropertyOp11
 70
     1
102
RTVSPropertyOp12
 70
     1
102
RTVSPropertyOp13
 70
     1
102
RTVSPropertyOp14
 70
     1
102
RTVSPropertyOp15
 70
     1
102
RTVSPropertyOp16
 70
     1
102
RTVSPropertyOp17
 70
     1
102
RTVSPropertyOp18
 70
     1
102
RTVSPropertyOp19
 70
     1
102
RTVSPropertyOp20
 70
     1
102
RTVSPropertyOp21
 70
     1
102
RTVSPropertyOp22
 70
     1
102
RTVSPropertyOp23
 70
     1
102
RTVSPropertyOp24
 70
     1
102
RTVSPropertyOp25
 70
     1
102
RTVSPropertyOp26
 70
     1
102
RTVSPropertyOp27
 70
     1
102
RTVSPropertyOp28
 70
     1
102
RTVSPropertyOp29
 70
     1
102
RTVSPropertyOp30
 70
     1
102
RTVSPropertyOp31
 70
     1
102
RTVSPropertyOp32
 70
     1
102
RTVSPropertyOp33
 70
     1
102
RTVSPropertyOp34
 70
     1
102
RTVSPropertyOp35
 70
     1
102
RTVSPropertyOp36
 70
     1
102
RTVSPropertyOp37
 70
     1
102
RTVSPropertyOp38
 70
     1
102
RTVSPropertyOp39
 70
     1
102
RTVSPropertyOp40
 70
     1
102
RTVSPropertyOp41
 70
     1
102
RTVSPropertyOp42
 70
     1
102
RTVSPropertyOp43
 70
     1
102
RTVSPropertyOp44
 70
     1
102
RTVSPropertyOp45
 70
     1
102
RTVSPropertyOp46
 70
     1
102
RTVSPropertyOp47
 70
     1
102
RTVSPropertyOp48
 70
     1
102
RTVSPropertyOp49
 70
     1
102
RTVSPropertyOp50
 70
     1
102
RTVSPropertyOp51
 70
     0
102
RTVSPropertyOp52
 70
     0
102
RTVSPropertyOp53
 70
     1
102
RTVSPropertyOp54
 70
     1
102
RTVSPropertyOp55
 70
     1
102
RTVSPropertyOp56
 70
     1
102
RTVSPropertyOp57
 70
     1
102
RTVSPropertyOp58
 70
     1
102
RTVSPropertyOp59
 70
     1
102
RTVSPropertyOp60
 70
     1
102
RTVSPropertyOp61
 70
     1
102
RTVSPropertyOp62
 70
     1
  0
XRECORD
  5
CA1
102
{ACAD_REACTORS
330
CA0
102
}
330
CA0
100
AcDbXrecord
280
     1
102
RTVSPost2010Prop28
280
     0
102
RTVSPost2010PropOp28
 70
     1
102
RTVSPost2010Prop29
280
     1
102
RTVSPost2010PropOp29
 70
     1
102
RTVSPost2010Prop30
280
     1
102
RTVSPost2010PropOp30
 70
     1
102
RTVSPost2010Prop31
280
     0
102
RTVSPost2010PropOp31
 70
     1
102
RTVSPost2010Prop32
280
     0
102
RTVSPost2010PropOp32
 70
     1
102
RTVSPost2010Prop33
280
     0
102
RTVSPost2010PropOp33
 70
     1
102
RTVSPost2010Prop34
280
     0
102
RTVSPost2010PropOp34
 70
     1
102
RTVSPost2010Prop35
280
     0
102
RTVSPost2010PropOp35
 70
     1
102
RTVSPost2010Prop36
280
     0
102
RTVSPost2010PropOp36
 70
     1
102
RTVSPost2010Prop37
 90
       50
102
RTVSPost2010PropOp37
 70
     1
102
RTVSPost2010Prop38
140
0.0
102
RTVSPost2010PropOp38
 70
     1
102
RTVSPost2010Prop39
140
1.0
102
RTVSPost2010PropOp39
 70
     1
102
RTVSPost2010Prop40
 90
        0
102
RTVSPost2010PropOp40
 70
     1
102
RTVSPost2010Prop41ColorIndex
 90
       18
102
RTVSPost2010Prop41ColorRGB
 90
        0
102
RTVSPost2010PropOp41
 70
     1
102
RTVSPost2010Prop42
 90
       50
102
RTVSPost2010PropOp42
 70
     1
102
RTVSPost2010Prop43
 90
        3
102
RTVSPost2010PropOp43
 70
     1
102
RTVSPost2010Prop44ColorIndex
 90
        5
102
RTVSPost2010Prop44ColorRGB
 90
      255
102
RTVSPost2010PropOp44
 70
     1
102
RTVSPost2010Prop45
280
     0
102
RTVSPost2010PropOp45
 70
     1
102
RTVSPost2010Prop46
 90
       50
102
RTVSPost2010PropOp46
 70
     1
102
RTVSPost2010Prop47
 90
       50
102
RTVSPost2010PropOp47
 70
     1
102
RTVSPost2010Prop48
 90
       50
102
RTVSPost2010PropOp48
 70
     1
102
RTVSPost2010Prop49
280
     0
102
RTVSPost2010PropOp49
 70
     1
102
RTVSPost2010Prop50
 90
       50
102
RTVSPost2010PropOp50
 70
     1
102
RTVSPost2010Prop51ColorIndex
 90
      256
102
RTVSPost2010Prop51ColorRGB
 90
-16777216
102
RTVSPost2010PropOp51
 70
     0
102
RTVSPost2010Prop52
140
1.0
102
RTVSPost2010PropOp52
 70
     0
102
RTVSPost2010Prop53
 90
        2
102
RTVSPost2010PropOp53
 70
     1
102
RTVSPost2010Prop54
  1
strokes_ogs.tif
102
RTVSPost2010PropOp54
 70
     1
102
RTVSPost2010Prop55
280
     0
102
RTVSPost2010PropOp55
 70
     1
102
RTVSPost2010Prop56
140
1.0
102
RTVSPost2010PropOp56
 70
     1
102
RTVSPost2010Prop57
140
1.0
102
RTVSPost2010PropOp57
 70
     1
102
RTVSPropertyOp0
 70
     1
102
RTVSPropertyOp1
 70
     1
102
RTVSPropertyOp2
 70
     1
102
RTVSPropertyOp3
 70
     1
102
RTVSPropertyOp4
 70
     1
102
RTVSPropertyOp5
 70
     1
102
RTVSPropertyOp6
 70
     1
102
RTVSPropertyOp7
 70
     1
102
RTVSPropertyOp8
 70
     1
102
RTVSPropertyOp9
 70
     1
102
RTVSPropertyOp10
 70
     1
102
RTVSPropertyOp11
 70
     1
102
RTVSPropertyOp12
 70
     1
102
RTVSPropertyOp13
 70
     1
102
RTVSPropertyOp14
 70
     1
102
RTVSPropertyOp15
 70
     1
102
RTVSPropertyOp16
 70
     1
102
RTVSPropertyOp17
 70
     1
102
RTVSPropertyOp18
 70
     1
102
RTVSPropertyOp19
 70
     1
102
RTVSPropertyOp20
 70
     1
102
RTVSPropertyOp21
 70
     1
102
RTVSPropertyOp22
 70
     1
102
RTVSPropertyOp23
 70
     1
102
RTVSPropertyOp24
 70
     1
102
RTVSPropertyOp25
 70
     1
102
RTVSPropertyOp26
 70
     1
102
RTVSPropertyOp27
 70
     1
102
RTVSPropertyOp28
 70
     1
102
RTVSPropertyOp29
 70
     1
102
RTVSPropertyOp30
 70
     1
102
RTVSPropertyOp31
 70
     1
102
RTVSPropertyOp32
 70
     1
102
RTVSPropertyOp33
 70
     1
102
RTVSPropertyOp34
 70
     1
102
RTVSPropertyOp35
 70
     1
102
RTVSPropertyOp36
 70
     1
102
RTVSPropertyOp37
 70
     1
102
RTVSPropertyOp38
 70
     1
102
RTVSPropertyOp39
 70
     1
102
RTVSPropertyOp40
 70
     1
102
RTVSPropertyOp41
 70
     1
102
RTVSPropertyOp42
 70
     1
102
RTVSPropertyOp43
 70
     1
102
RTVSPropertyOp44
 70
     1
102
RTVSPropertyOp45
 70
     1
102
RTVSPropertyOp46
 70
     1
102
RTVSPropertyOp47
 70
     1
102
RTVSPropertyOp48
 70
     1
102
RTVSPropertyOp49
 70
     1
102
RTVSPropertyOp50
 70
     1
102
RTVSPropertyOp51
 70
     0
102
RTVSPropertyOp52
 70
     0
102
RTVSPropertyOp53
 70
     1
102
RTVSPropertyOp54
 70
     1
102
RTVSPropertyOp55
 70
     1
102
RTVSPropertyOp56
 70
     1
102
RTVSPropertyOp57
 70
     1
102
RTVSPropertyOp58
 70
     1
102
RTVSPropertyOp59
 70
     1
102
RTVSPropertyOp60
 70
     1
102
RTVSPropertyOp61
 70
     1
102
RTVSPropertyOp62
 70
     1
  0
XRECORD
  5
CA3
102
{ACAD_REACTORS
330
CA2
102
}
330
CA2
100
AcDbXrecord
280
     1
102
RTVSPost2010Prop28
280
     0
102
RTVSPost2010PropOp28
 70
     1
102
RTVSPost2010Prop29
280
     1
102
RTVSPost2010PropOp29
 70
     1
102
RTVSPost2010Prop30
280
     1
102
RTVSPost2010PropOp30
 70
     1
102
RTVSPost2010Prop31
280
     0
102
RTVSPost2010PropOp31
 70
     1
102
RTVSPost2010Prop32
280
     0
102
RTVSPost2010PropOp32
 70
     1
102
RTVSPost2010Prop33
280
     0
102
RTVSPost2010PropOp33
 70
     1
102
RTVSPost2010Prop34
280
     0
102
RTVSPost2010PropOp34
 70
     1
102
RTVSPost2010Prop35
280
     0
102
RTVSPost2010PropOp35
 70
     1
102
RTVSPost2010Prop36
280
     0
102
RTVSPost2010PropOp36
 70
     1
102
RTVSPost2010Prop37
 90
       50
102
RTVSPost2010PropOp37
 70
     1
102
RTVSPost2010Prop38
140
0.0
102
RTVSPost2010PropOp38
 70
     1
102
RTVSPost2010Prop39
140
1.0
102
RTVSPost2010PropOp39
 70
     1
102
RTVSPost2010Prop40
 90
        0
102
RTVSPost2010PropOp40
 70
     1
102
RTVSPost2010Prop41ColorIndex
 90
       18
102
RTVSPost2010Prop41ColorRGB
 90
        0
102
RTVSPost2010PropOp41
 70
     1
102
RTVSPost2010Prop42
 90
       50
102
RTVSPost2010PropOp42
 70
     1
102
RTVSPost2010Prop43
 90
        3
102
RTVSPost2010PropOp43
 70
     1
102
RTVSPost2010Prop44ColorIndex
 90
        5
102
RTVSPost2010Prop44ColorRGB
 90
      255
102
RTVSPost2010PropOp44
 70
     1
102
RTVSPost2010Prop45
280
     0
102
RTVSPost2010PropOp45
 70
     1
102
RTVSPost2010Prop46
 90
       50
102
RTVSPost2010PropOp46
 70
     1
102
RTVSPost2010Prop47
 90
       50
102
RTVSPost2010PropOp47
 70
     1
102
RTVSPost2010Prop48
 90
       50
102
RTVSPost2010PropOp48
 70
     1
102
RTVSPost2010Prop49
280
     0
102
RTVSPost2010PropOp49
 70
     1
102
RTVSPost2010Prop50
 90
       50
102
RTVSPost2010PropOp50
 70
     1
102
RTVSPost2010Prop51ColorIndex
 90
      256
102
RTVSPost2010Prop51ColorRGB
 90
-16777216
102
RTVSPost2010PropOp51
 70
     0
102
RTVSPost2010Prop52
140
1.0
102
RTVSPost2010PropOp52
 70
     0
102
RTVSPost2010Prop53
 90
        2
102
RTVSPost2010PropOp53
 70
     1
102
RTVSPost2010Prop54
  1
strokes_ogs.tif
102
RTVSPost2010PropOp54
 70
     1
102
RTVSPost2010Prop55
280
     0
102
RTVSPost2010PropOp55
 70
     1
102
RTVSPost2010Prop56
140
1.0
102
RTVSPost2010PropOp56
 70
     1
102
RTVSPost2010Prop57
140
1.0
102
RTVSPost2010PropOp57
 70
     1
102
RTVSPropertyOp0
 70
     1
102
RTVSPropertyOp1
 70
     1
102
RTVSPropertyOp2
 70
     1
102
RTVSPropertyOp3
 70
     1
102
RTVSPropertyOp4
 70
     1
102
RTVSPropertyOp5
 70
     1
102
RTVSPropertyOp6
 70
     1
102
RTVSPropertyOp7
 70
     1
102
RTVSPropertyOp8
 70
     1
102
RTVSPropertyOp9
 70
     1
102
RTVSPropertyOp10
 70
     1
102
RTVSPropertyOp11
 70
     1
102
RTVSPropertyOp12
 70
     1
102
RTVSPropertyOp13
 70
     1
102
RTVSPropertyOp14
 70
     1
102
RTVSPropertyOp15
 70
     1
102
RTVSPropertyOp16
 70
     1
102
RTVSPropertyOp17
 70
     1
102
RTVSPropertyOp18
 70
     1
102
RTVSPropertyOp19
 70
     1
102
RTVSPropertyOp20
 70
     1
102
RTVSPropertyOp21
 70
     1
102
RTVSPropertyOp22
 70
     1
102
RTVSPropertyOp23
 70
     1
102
RTVSPropertyOp24
 70
     1
102
RTVSPropertyOp25
 70
     1
102
RTVSPropertyOp26
 70
     1
102
RTVSPropertyOp27
 70
     1
102
RTVSPropertyOp28
 70
     1
102
RTVSPropertyOp29
 70
     1
102
RTVSPropertyOp30
 70
     1
102
RTVSPropertyOp31
 70
     1
102
RTVSPropertyOp32
 70
     1
102
RTVSPropertyOp33
 70
     1
102
RTVSPropertyOp34
 70
     1
102
RTVSPropertyOp35
 70
     1
102
RTVSPropertyOp36
 70
     1
102
RTVSPropertyOp37
 70
     1
102
RTVSPropertyOp38
 70
     1
102
RTVSPropertyOp39
 70
     1
102
RTVSPropertyOp40
 70
     1
102
RTVSPropertyOp41
 70
     1
102
RTVSPropertyOp42
 70
     1
102
RTVSPropertyOp43
 70
     1
102
RTVSPropertyOp44
 70
     1
102
RTVSPropertyOp45
 70
     1
102
RTVSPropertyOp46
 70
     1
102
RTVSPropertyOp47
 70
     1
102
RTVSPropertyOp48
 70
     1
102
RTVSPropertyOp49
 70
     1
102
RTVSPropertyOp50
 70
     1
102
RTVSPropertyOp51
 70
     0
102
RTVSPropertyOp52
 70
     0
102
RTVSPropertyOp53
 70
     1
102
RTVSPropertyOp54
 70
     1
102
RTVSPropertyOp55
 70
     1
102
RTVSPropertyOp56
 70
     1
102
RTVSPropertyOp57
 70
     1
102
RTVSPropertyOp58
 70
     1
102
RTVSPropertyOp59
 70
     1
102
RTVSPropertyOp60
 70
     1
102
RTVSPropertyOp61
 70
     1
102
RTVSPropertyOp62
 70
     1
  0
XRECORD
  5
CA5
102
{ACAD_REACTORS
330
CA4
102
}
330
CA4
100
AcDbXrecord
280
     1
102
RTVSPost2010Prop28
280
     0
102
RTVSPost2010PropOp28
 70
     1
102
RTVSPost2010Prop29
280
     1
102
RTVSPost2010PropOp29
 70
     1
102
RTVSPost2010Prop30
280
     1
102
RTVSPost2010PropOp30
 70
     1
102
RTVSPost2010Prop31
280
     0
102
RTVSPost2010PropOp31
 70
     1
102
RTVSPost2010Prop32
280
     0
102
RTVSPost2010PropOp32
 70
     1
102
RTVSPost2010Prop33
280
     0
102
RTVSPost2010PropOp33
 70
     1
102
RTVSPost2010Prop34
280
     0
102
RTVSPost2010PropOp34
 70
     1
102
RTVSPost2010Prop35
280
     0
102
RTVSPost2010PropOp35
 70
     1
102
RTVSPost2010Prop36
280
     0
102
RTVSPost2010PropOp36
 70
     1
102
RTVSPost2010Prop37
 90
       50
102
RTVSPost2010PropOp37
 70
     1
102
RTVSPost2010Prop38
140
0.0
102
RTVSPost2010PropOp38
 70
     1
102
RTVSPost2010Prop39
140
1.0
102
RTVSPost2010PropOp39
 70
     1
102
RTVSPost2010Prop40
 90
        0
102
RTVSPost2010PropOp40
 70
     1
102
RTVSPost2010Prop41ColorIndex
 90
       18
102
RTVSPost2010Prop41ColorRGB
 90
        0
102
RTVSPost2010PropOp41
 70
     1
102
RTVSPost2010Prop42
 90
       50
102
RTVSPost2010PropOp42
 70
     1
102
RTVSPost2010Prop43
 90
        3
102
RTVSPost2010PropOp43
 70
     1
102
RTVSPost2010Prop44ColorIndex
 90
        5
102
RTVSPost2010Prop44ColorRGB
 90
      255
102
RTVSPost2010PropOp44
 70
     1
102
RTVSPost2010Prop45
280
     0
102
RTVSPost2010PropOp45
 70
     1
102
RTVSPost2010Prop46
 90
       50
102
RTVSPost2010PropOp46
 70
     1
102
RTVSPost2010Prop47
 90
       50
102
RTVSPost2010PropOp47
 70
     1
102
RTVSPost2010Prop48
 90
       50
102
RTVSPost2010PropOp48
 70
     1
102
RTVSPost2010Prop49
280
     0
102
RTVSPost2010PropOp49
 70
     1
102
RTVSPost2010Prop50
 90
       50
102
RTVSPost2010PropOp50
 70
     1
102
RTVSPost2010Prop51ColorIndex
 90
      256
102
RTVSPost2010Prop51ColorRGB
 90
-16777216
102
RTVSPost2010PropOp51
 70
     0
102
RTVSPost2010Prop52
140
1.0
102
RTVSPost2010PropOp52
 70
     0
102
RTVSPost2010Prop53
 90
        2
102
RTVSPost2010PropOp53
 70
     1
102
RTVSPost2010Prop54
  1
strokes_ogs.tif
102
RTVSPost2010PropOp54
 70
     1
102
RTVSPost2010Prop55
280
     0
102
RTVSPost2010PropOp55
 70
     1
102
RTVSPost2010Prop56
140
1.0
102
RTVSPost2010PropOp56
 70
     1
102
RTVSPost2010Prop57
140
1.0
102
RTVSPost2010PropOp57
 70
     1
102
RTVSPropertyOp0
 70
     1
102
RTVSPropertyOp1
 70
     1
102
RTVSPropertyOp2
 70
     1
102
RTVSPropertyOp3
 70
     1
102
RTVSPropertyOp4
 70
     1
102
RTVSPropertyOp5
 70
     1
102
RTVSPropertyOp6
 70
     1
102
RTVSPropertyOp7
 70
     1
102
RTVSPropertyOp8
 70
     1
102
RTVSPropertyOp9
 70
     1
102
RTVSPropertyOp10
 70
     1
102
RTVSPropertyOp11
 70
     1
102
RTVSPropertyOp12
 70
     1
102
RTVSPropertyOp13
 70
     1
102
RTVSPropertyOp14
 70
     1
102
RTVSPropertyOp15
 70
     1
102
RTVSPropertyOp16
 70
     1
102
RTVSPropertyOp17
 70
     1
102
RTVSPropertyOp18
 70
     1
102
RTVSPropertyOp19
 70
     1
102
RTVSPropertyOp20
 70
     1
102
RTVSPropertyOp21
 70
     1
102
RTVSPropertyOp22
 70
     1
102
RTVSPropertyOp23
 70
     1
102
RTVSPropertyOp24
 70
     1
102
RTVSPropertyOp25
 70
     1
102
RTVSPropertyOp26
 70
     1
102
RTVSPropertyOp27
 70
     1
102
RTVSPropertyOp28
 70
     1
102
RTVSPropertyOp29
 70
     1
102
RTVSPropertyOp30
 70
     1
102
RTVSPropertyOp31
 70
     1
102
RTVSPropertyOp32
 70
     1
102
RTVSPropertyOp33
 70
     1
102
RTVSPropertyOp34
 70
     1
102
RTVSPropertyOp35
 70
     1
102
RTVSPropertyOp36
 70
     1
102
RTVSPropertyOp37
 70
     1
102
RTVSPropertyOp38
 70
     1
102
RTVSPropertyOp39
 70
     1
102
RTVSPropertyOp40
 70
     1
102
RTVSPropertyOp41
 70
     1
102
RTVSPropertyOp42
 70
     1
102
RTVSPropertyOp43
 70
     1
102
RTVSPropertyOp44
 70
     1
102
RTVSPropertyOp45
 70
     1
102
RTVSPropertyOp46
 70
     1
102
RTVSPropertyOp47
 70
     1
102
RTVSPropertyOp48
 70
     1
102
RTVSPropertyOp49
 70
     1
102
RTVSPropertyOp50
 70
     1
102
RTVSPropertyOp51
 70
     0
102
RTVSPropertyOp52
 70
     0
102
RTVSPropertyOp53
 70
     1
102
RTVSPropertyOp54
 70
     1
102
RTVSPropertyOp55
 70
     1
102
RTVSPropertyOp56
 70
     1
102
RTVSPropertyOp57
 70
     1
102
RTVSPropertyOp58
 70
     1
102
RTVSPropertyOp59
 70
     1
102
RTVSPropertyOp60
 70
     1
102
RTVSPropertyOp61
 70
     1
102
RTVSPropertyOp62
 70
     1
  0
XRECORD
  5
CA7
102
{ACAD_REACTORS
330
CA6
102
}
330
CA6
100
AcDbXrecord
280
     1
102
RTVSPost2010Prop28
280
     0
102
RTVSPost2010PropOp28
 70
     1
102
RTVSPost2010Prop29
280
     1
102
RTVSPost2010PropOp29
 70
     1
102
RTVSPost2010Prop30
280
     1
102
RTVSPost2010PropOp30
 70
     1
102
RTVSPost2010Prop31
280
     0
102
RTVSPost2010PropOp31
 70
     1
102
RTVSPost2010Prop32
280
     0
102
RTVSPost2010PropOp32
 70
     1
102
RTVSPost2010Prop33
280
     0
102
RTVSPost2010PropOp33
 70
     1
102
RTVSPost2010Prop34
280
     0
102
RTVSPost2010PropOp34
 70
     1
102
RTVSPost2010Prop35
280
     0
102
RTVSPost2010PropOp35
 70
     1
102
RTVSPost2010Prop36
280
     0
102
RTVSPost2010PropOp36
 70
     1
102
RTVSPost2010Prop37
 90
       50
102
RTVSPost2010PropOp37
 70
     1
102
RTVSPost2010Prop38
140
0.0
102
RTVSPost2010PropOp38
 70
     1
102
RTVSPost2010Prop39
140
1.0
102
RTVSPost2010PropOp39
 70
     1
102
RTVSPost2010Prop40
 90
        0
102
RTVSPost2010PropOp40
 70
     1
102
RTVSPost2010Prop41ColorIndex
 90
       18
102
RTVSPost2010Prop41ColorRGB
 90
        0
102
RTVSPost2010PropOp41
 70
     1
102
RTVSPost2010Prop42
 90
       50
102
RTVSPost2010PropOp42
 70
     1
102
RTVSPost2010Prop43
 90
        3
102
RTVSPost2010PropOp43
 70
     1
102
RTVSPost2010Prop44ColorIndex
 90
        5
102
RTVSPost2010Prop44ColorRGB
 90
      255
102
RTVSPost2010PropOp44
 70
     1
102
RTVSPost2010Prop45
280
     0
102
RTVSPost2010PropOp45
 70
     1
102
RTVSPost2010Prop46
 90
       50
102
RTVSPost2010PropOp46
 70
     1
102
RTVSPost2010Prop47
 90
       50
102
RTVSPost2010PropOp47
 70
     1
102
RTVSPost2010Prop48
 90
       50
102
RTVSPost2010PropOp48
 70
     1
102
RTVSPost2010Prop49
280
     0
102
RTVSPost2010PropOp49
 70
     1
102
RTVSPost2010Prop50
 90
       50
102
RTVSPost2010PropOp50
 70
     1
102
RTVSPost2010Prop51ColorIndex
 90
      256
102
RTVSPost2010Prop51ColorRGB
 90
-16777216
102
RTVSPost2010PropOp51
 70
     0
102
RTVSPost2010Prop52
140
1.0
102
RTVSPost2010PropOp52
 70
     0
102
RTVSPost2010Prop53
 90
        2
102
RTVSPost2010PropOp53
 70
     1
102
RTVSPost2010Prop54
  1
strokes_ogs.tif
102
RTVSPost2010PropOp54
 70
     1
102
RTVSPost2010Prop55
280
     0
102
RTVSPost2010PropOp55
 70
     1
102
RTVSPost2010Prop56
140
1.0
102
RTVSPost2010PropOp56
 70
     1
102
RTVSPost2010Prop57
140
1.0
102
RTVSPost2010PropOp57
 70
     1
102
RTVSPropertyOp0
 70
     1
102
RTVSPropertyOp1
 70
     1
102
RTVSPropertyOp2
 70
     1
102
RTVSPropertyOp3
 70
     1
102
RTVSPropertyOp4
 70
     1
102
RTVSPropertyOp5
 70
     1
102
RTVSPropertyOp6
 70
     1
102
RTVSPropertyOp7
 70
     1
102
RTVSPropertyOp8
 70
     1
102
RTVSPropertyOp9
 70
     1
102
RTVSPropertyOp10
 70
     1
102
RTVSPropertyOp11
 70
     1
102
RTVSPropertyOp12
 70
     1
102
RTVSPropertyOp13
 70
     1
102
RTVSPropertyOp14
 70
     1
102
RTVSPropertyOp15
 70
     1
102
RTVSPropertyOp16
 70
     1
102
RTVSPropertyOp17
 70
     1
102
RTVSPropertyOp18
 70
     1
102
RTVSPropertyOp19
 70
     1
102
RTVSPropertyOp20
 70
     1
102
RTVSPropertyOp21
 70
     1
102
RTVSPropertyOp22
 70
     1
102
RTVSPropertyOp23
 70
     1
102
RTVSPropertyOp24
 70
     1
102
RTVSPropertyOp25
 70
     1
102
RTVSPropertyOp26
 70
     1
102
RTVSPropertyOp27
 70
     1
102
RTVSPropertyOp28
 70
     1
102
RTVSPropertyOp29
 70
     1
102
RTVSPropertyOp30
 70
     1
102
RTVSPropertyOp31
 70
     1
102
RTVSPropertyOp32
 70
     1
102
RTVSPropertyOp33
 70
     1
102
RTVSPropertyOp34
 70
     1
102
RTVSPropertyOp35
 70
     1
102
RTVSPropertyOp36
 70
     1
102
RTVSPropertyOp37
 70
     1
102
RTVSPropertyOp38
 70
     1
102
RTVSPropertyOp39
 70
     1
102
RTVSPropertyOp40
 70
     1
102
RTVSPropertyOp41
 70
     1
102
RTVSPropertyOp42
 70
     1
102
RTVSPropertyOp43
 70
     1
102
RTVSPropertyOp44
 70
     1
102
RTVSPropertyOp45
 70
     1
102
RTVSPropertyOp46
 70
     1
102
RTVSPropertyOp47
 70
     1
102
RTVSPropertyOp48
 70
     1
102
RTVSPropertyOp49
 70
     1
102
RTVSPropertyOp50
 70
     1
102
RTVSPropertyOp51
 70
     0
102
RTVSPropertyOp52
 70
     0
102
RTVSPropertyOp53
 70
     1
102
RTVSPropertyOp54
 70
     1
102
RTVSPropertyOp55
 70
     1
102
RTVSPropertyOp56
 70
     1
102
RTVSPropertyOp57
 70
     1
102
RTVSPropertyOp58
 70
     1
102
RTVSPropertyOp59
 70
     1
102
RTVSPropertyOp60
 70
     1
102
RTVSPropertyOp61
 70
     1
102
RTVSPropertyOp62
 70
     1
  0
XRECORD
  5
CAF
102
{ACAD_REACTORS
330
CAE
102
}
330
CAE
100
AcDbXrecord
280
     1
102
RTVSPost2010Prop28
280
     0
102
RTVSPost2010PropOp28
 70
     1
102
RTVSPost2010Prop29
280
     1
102
RTVSPost2010PropOp29
 70
     1
102
RTVSPost2010Prop30
280
     1
102
RTVSPost2010PropOp30
 70
     1
102
RTVSPost2010Prop31
280
     0
102
RTVSPost2010PropOp31
 70
     1
102
RTVSPost2010Prop32
280
     0
102
RTVSPost2010PropOp32
 70
     1
102
RTVSPost2010Prop33
280
     0
102
RTVSPost2010PropOp33
 70
     1
102
RTVSPost2010Prop34
280
     0
102
RTVSPost2010PropOp34
 70
     1
102
RTVSPost2010Prop35
280
     0
102
RTVSPost2010PropOp35
 70
     1
102
RTVSPost2010Prop36
280
     0
102
RTVSPost2010PropOp36
 70
     1
102
RTVSPost2010Prop37
 90
       50
102
RTVSPost2010PropOp37
 70
     1
102
RTVSPost2010Prop38
140
0.0
102
RTVSPost2010PropOp38
 70
     1
102
RTVSPost2010Prop39
140
1.0
102
RTVSPost2010PropOp39
 70
     1
102
RTVSPost2010Prop40
 90
        0
102
RTVSPost2010PropOp40
 70
     1
102
RTVSPost2010Prop41ColorIndex
 90
       18
102
RTVSPost2010Prop41ColorRGB
 90
        0
102
RTVSPost2010PropOp41
 70
     1
102
RTVSPost2010Prop42
 90
       50
102
RTVSPost2010PropOp42
 70
     1
102
RTVSPost2010Prop43
 90
        3
102
RTVSPost2010PropOp43
 70
     1
102
RTVSPost2010Prop44ColorIndex
 90
        5
102
RTVSPost2010Prop44ColorRGB
 90
      255
102
RTVSPost2010PropOp44
 70
     1
102
RTVSPost2010Prop45
280
     0
102
RTVSPost2010PropOp45
 70
     1
102
RTVSPost2010Prop46
 90
       50
102
RTVSPost2010PropOp46
 70
     1
102
RTVSPost2010Prop47
 90
       50
102
RTVSPost2010PropOp47
 70
     1
102
RTVSPost2010Prop48
 90
       50
102
RTVSPost2010PropOp48
 70
     1
102
RTVSPost2010Prop49
280
     0
102
RTVSPost2010PropOp49
 70
     1
102
RTVSPost2010Prop50
 90
       50
102
RTVSPost2010PropOp50
 70
     1
102
RTVSPost2010Prop51ColorIndex
 90
      256
102
RTVSPost2010Prop51ColorRGB
 90
-16777216
102
RTVSPost2010PropOp51
 70
     0
102
RTVSPost2010Prop52
140
1.0
102
RTVSPost2010PropOp52
 70
     0
102
RTVSPost2010Prop53
 90
        2
102
RTVSPost2010PropOp53
 70
     1
102
RTVSPost2010Prop54
  1
strokes_ogs.tif
102
RTVSPost2010PropOp54
 70
     1
102
RTVSPost2010Prop55
280
     0
102
RTVSPost2010PropOp55
 70
     1
102
RTVSPost2010Prop56
140
1.0
102
RTVSPost2010PropOp56
 70
     1
102
RTVSPost2010Prop57
140
1.0
102
RTVSPost2010PropOp57
 70
     1
102
RTVSPropertyOp0
 70
     1
102
RTVSPropertyOp1
 70
     1
102
RTVSPropertyOp2
 70
     1
102
RTVSPropertyOp3
 70
     1
102
RTVSPropertyOp4
 70
     1
102
RTVSPropertyOp5
 70
     1
102
RTVSPropertyOp6
 70
     1
102
RTVSPropertyOp7
 70
     1
102
RTVSPropertyOp8
 70
     1
102
RTVSPropertyOp9
 70
     1
102
RTVSPropertyOp10
 70
     1
102
RTVSPropertyOp11
 70
     1
102
RTVSPropertyOp12
 70
     1
102
RTVSPropertyOp13
 70
     1
102
RTVSPropertyOp14
 70
     1
102
RTVSPropertyOp15
 70
     1
102
RTVSPropertyOp16
 70
     1
102
RTVSPropertyOp17
 70
     1
102
RTVSPropertyOp18
 70
     1
102
RTVSPropertyOp19
 70
     1
102
RTVSPropertyOp20
 70
     1
102
RTVSPropertyOp21
 70
     1
102
RTVSPropertyOp22
 70
     1
102
RTVSPropertyOp23
 70
     1
102
RTVSPropertyOp24
 70
     1
102
RTVSPropertyOp25
 70
     1
102
RTVSPropertyOp26
 70
     1
102
RTVSPropertyOp27
 70
     1
102
RTVSPropertyOp28
 70
     1
102
RTVSPropertyOp29
 70
     1
102
RTVSPropertyOp30
 70
     1
102
RTVSPropertyOp31
 70
     1
102
RTVSPropertyOp32
 70
     1
102
RTVSPropertyOp33
 70
     1
102
RTVSPropertyOp34
 70
     1
102
RTVSPropertyOp35
 70
     1
102
RTVSPropertyOp36
 70
     1
102
RTVSPropertyOp37
 70
     1
102
RTVSPropertyOp38
 70
     1
102
RTVSPropertyOp39
 70
     1
102
RTVSPropertyOp40
 70
     1
102
RTVSPropertyOp41
 70
     1
102
RTVSPropertyOp42
 70
     1
102
RTVSPropertyOp43
 70
     1
102
RTVSPropertyOp44
 70
     1
102
RTVSPropertyOp45
 70
     1
102
RTVSPropertyOp46
 70
     1
102
RTVSPropertyOp47
 70
     1
102
RTVSPropertyOp48
 70
     1
102
RTVSPropertyOp49
 70
     1
102
RTVSPropertyOp50
 70
     1
102
RTVSPropertyOp51
 70
     0
102
RTVSPropertyOp52
 70
     0
102
RTVSPropertyOp53
 70
     1
102
RTVSPropertyOp54
 70
     1
102
RTVSPropertyOp55
 70
     1
102
RTVSPropertyOp56
 70
     1
102
RTVSPropertyOp57
 70
     1
102
RTVSPropertyOp58
 70
     1
102
RTVSPropertyOp59
 70
     1
102
RTVSPropertyOp60
 70
     1
102
RTVSPropertyOp61
 70
     1
102
RTVSPropertyOp62
 70
     1
  0
XRECORD
  5
CCB
102
{ACAD_REACTORS
330
CCA
102
}
330
CCA
100
AcDbXrecord
280
     1
102
RTVSPost2010Prop28
280
     0
102
RTVSPost2010PropOp28
 70
     0
102
RTVSPost2010Prop29
280
     1
102
RTVSPost2010PropOp29
 70
     0
102
RTVSPost2010Prop30
280
     1
102
RTVSPost2010PropOp30
 70
     0
102
RTVSPost2010Prop31
280
     0
102
RTVSPost2010PropOp31
 70
     0
102
RTVSPost2010Prop32
280
     0
102
RTVSPost2010PropOp32
 70
     0
102
RTVSPost2010Prop33
280
     0
102
RTVSPost2010PropOp33
 70
     0
102
RTVSPost2010Prop34
280
     0
102
RTVSPost2010PropOp34
 70
     0
102
RTVSPost2010Prop35
280
     0
102
RTVSPost2010PropOp35
 70
     0
102
RTVSPost2010Prop36
280
     0
102
RTVSPost2010PropOp36
 70
     0
102
RTVSPost2010Prop37
 90
       50
102
RTVSPost2010PropOp37
 70
     0
102
RTVSPost2010Prop38
140
0.0
102
RTVSPost2010PropOp38
 70
     0
102
RTVSPost2010Prop39
140
1.0
102
RTVSPost2010PropOp39
 70
     0
102
RTVSPost2010Prop40
 90
        0
102
RTVSPost2010PropOp40
 70
     0
102
RTVSPost2010Prop41ColorIndex
 90
       18
102
RTVSPost2010Prop41ColorRGB
 90
        0
102
RTVSPost2010PropOp41
 70
     0
102
RTVSPost2010Prop42
 90
       50
102
RTVSPost2010PropOp42
 70
     0
102
RTVSPost2010Prop43
 90
        3
102
RTVSPost2010PropOp43
 70
     0
102
RTVSPost2010Prop44ColorIndex
 90
        5
102
RTVSPost2010Prop44ColorRGB
 90
      255
102
RTVSPost2010PropOp44
 70
     0
102
RTVSPost2010Prop45
280
     0
102
RTVSPost2010PropOp45
 70
     0
102
RTVSPost2010Prop46
 90
       50
102
RTVSPost2010PropOp46
 70
     0
102
RTVSPost2010Prop47
 90
       50
102
RTVSPost2010PropOp47
 70
     0
102
RTVSPost2010Prop48
 90
       50
102
RTVSPost2010PropOp48
 70
     0
102
RTVSPost2010Prop49
280
     0
102
RTVSPost2010PropOp49
 70
     0
102
RTVSPost2010Prop50
 90
       50
102
RTVSPost2010PropOp50
 70
     0
102
RTVSPost2010Prop51ColorIndex
 90
      256
102
RTVSPost2010Prop51ColorRGB
 90
-16777216
102
RTVSPost2010PropOp51
 70
     0
102
RTVSPost2010Prop52
140
1.0
102
RTVSPost2010PropOp52
 70
     0
102
RTVSPost2010Prop53
 90
        2
102
RTVSPost2010PropOp53
 70
     0
102
RTVSPost2010Prop54
  1
strokes_ogs.tif
102
RTVSPost2010PropOp54
 70
     0
102
RTVSPost2010Prop55
280
     0
102
RTVSPost2010PropOp55
 70
     0
102
RTVSPost2010Prop56
140
1.0
102
RTVSPost2010PropOp56
 70
     0
102
RTVSPost2010Prop57
140
1.0
102
RTVSPost2010PropOp57
 70
     0
102
RTVSPropertyOp0
 70
     0
102
RTVSPropertyOp1
 70
     0
102
RTVSPropertyOp2
 70
     0
102
RTVSPropertyOp3
 70
     0
102
RTVSPropertyOp4
 70
     0
102
RTVSPropertyOp5
 70
     0
102
RTVSPropertyOp6
 70
     0
102
RTVSPropertyOp7
 70
     0
102
RTVSPropertyOp8
 70
     0
102
RTVSPropertyOp9
 70
     0
102
RTVSPropertyOp10
 70
     0
102
RTVSPropertyOp11
 70
     0
102
RTVSPropertyOp12
 70
     0
102
RTVSPropertyOp13
 70
     0
102
RTVSPropertyOp14
 70
     2
102
RTVSPropertyOp15
 70
     0
102
RTVSPropertyOp16
 70
     0
102
RTVSPropertyOp17
 70
     0
102
RTVSPropertyOp18
 70
     0
102
RTVSPropertyOp19
 70
     0
102
RTVSPropertyOp20
 70
     0
102
RTVSPropertyOp21
 70
     0
102
RTVSPropertyOp22
 70
     0
102
RTVSPropertyOp23
 70
     0
102
RTVSPropertyOp24
 70
     0
102
RTVSPropertyOp25
 70
     0
102
RTVSPropertyOp26
 70
     0
102
RTVSPropertyOp27
 70
     0
102
RTVSPropertyOp28
 70
     0
102
RTVSPropertyOp29
 70
     0
102
RTVSPropertyOp30
 70
     0
102
RTVSPropertyOp31
 70
     0
102
RTVSPropertyOp32
 70
     0
102
RTVSPropertyOp33
 70
     0
102
RTVSPropertyOp34
 70
     0
102
RTVSPropertyOp35
 70
     0
102
RTVSPropertyOp36
 70
     0
102
RTVSPropertyOp37
 70
     0
102
RTVSPropertyOp38
 70
     0
102
RTVSPropertyOp39
 70
     0
102
RTVSPropertyOp40
 70
     0
102
RTVSPropertyOp41
 70
     0
102
RTVSPropertyOp42
 70
     0
102
RTVSPropertyOp43
 70
     0
102
RTVSPropertyOp44
 70
     0
102
RTVSPropertyOp45
 70
     0
102
RTVSPropertyOp46
 70
     0
102
RTVSPropertyOp47
 70
     0
102
RTVSPropertyOp48
 70
     0
102
RTVSPropertyOp49
 70
     0
102
RTVSPropertyOp50
 70
     0
102
RTVSPropertyOp51
 70
     0
102
RTVSPropertyOp52
 70
     0
102
RTVSPropertyOp53
 70
     0
102
RTVSPropertyOp54
 70
     0
102
RTVSPropertyOp55
 70
     0
102
RTVSPropertyOp56
 70
     0
102
RTVSPropertyOp57
 70
     0
102
RTVSPropertyOp58
 70
     0
102
RTVSPropertyOp59
 70
     0
102
RTVSPropertyOp60
 70
     0
102
RTVSPropertyOp61
 70
     0
102
RTVSPropertyOp62
 70
     0
  0
XRECORD
  5
CBB
102
{ACAD_REACTORS
330
CBA
102
}
330
CBA
100
AcDbXrecord
280
     1
102
RTVSPost2010Prop28
280
     0
102
RTVSPost2010PropOp28
 70
     1
102
RTVSPost2010Prop29
280
     1
102
RTVSPost2010PropOp29
 70
     1
102
RTVSPost2010Prop30
280
     1
102
RTVSPost2010PropOp30
 70
     1
102
RTVSPost2010Prop31
280
     0
102
RTVSPost2010PropOp31
 70
     1
102
RTVSPost2010Prop32
280
     0
102
RTVSPost2010PropOp32
 70
     1
102
RTVSPost2010Prop33
280
     0
102
RTVSPost2010PropOp33
 70
     1
102
RTVSPost2010Prop34
280
     0
102
RTVSPost2010PropOp34
 70
     1
102
RTVSPost2010Prop35
280
     0
102
RTVSPost2010PropOp35
 70
     1
102
RTVSPost2010Prop36
280
     0
102
RTVSPost2010PropOp36
 70
     1
102
RTVSPost2010Prop37
 90
       50
102
RTVSPost2010PropOp37
 70
     1
102
RTVSPost2010Prop38
140
0.0
102
RTVSPost2010PropOp38
 70
     1
102
RTVSPost2010Prop39
140
1.0
102
RTVSPost2010PropOp39
 70
     1
102
RTVSPost2010Prop40
 90
        0
102
RTVSPost2010PropOp40
 70
     1
102
RTVSPost2010Prop41ColorIndex
 90
       18
102
RTVSPost2010Prop41ColorRGB
 90
        0
102
RTVSPost2010PropOp41
 70
     1
102
RTVSPost2010Prop42
 90
       50
102
RTVSPost2010PropOp42
 70
     1
102
RTVSPost2010Prop43
 90
        3
102
RTVSPost2010PropOp43
 70
     1
102
RTVSPost2010Prop44ColorIndex
 90
        5
102
RTVSPost2010Prop44ColorRGB
 90
      255
102
RTVSPost2010PropOp44
 70
     1
102
RTVSPost2010Prop45
280
     0
102
RTVSPost2010PropOp45
 70
     1
102
RTVSPost2010Prop46
 90
       50
102
RTVSPost2010PropOp46
 70
     1
102
RTVSPost2010Prop47
 90
       50
102
RTVSPost2010PropOp47
 70
     1
102
RTVSPost2010Prop48
 90
       50
102
RTVSPost2010PropOp48
 70
     1
102
RTVSPost2010Prop49
280
     0
102
RTVSPost2010PropOp49
 70
     1
102
RTVSPost2010Prop50
 90
       50
102
RTVSPost2010PropOp50
 70
     1
102
RTVSPost2010Prop51ColorIndex
 90
      256
102
RTVSPost2010Prop51ColorRGB
 90
-16777216
102
RTVSPost2010PropOp51
 70
     0
102
RTVSPost2010Prop52
140
1.0
102
RTVSPost2010PropOp52
 70
     0
102
RTVSPost2010Prop53
 90
        2
102
RTVSPost2010PropOp53
 70
     1
102
RTVSPost2010Prop54
  1
strokes_ogs.tif
102
RTVSPost2010PropOp54
 70
     1
102
RTVSPost2010Prop55
280
     0
102
RTVSPost2010PropOp55
 70
     1
102
RTVSPost2010Prop56
140
1.0
102
RTVSPost2010PropOp56
 70
     1
102
RTVSPost2010Prop57
140
1.0
102
RTVSPost2010PropOp57
 70
     1
102
RTVSPropertyOp0
 70
     1
102
RTVSPropertyOp1
 70
     1
102
RTVSPropertyOp2
 70
     1
102
RTVSPropertyOp3
 70
     1
102
RTVSPropertyOp4
 70
     1
102
RTVSPropertyOp5
 70
     1
102
RTVSPropertyOp6
 70
     1
102
RTVSPropertyOp7
 70
     1
102
RTVSPropertyOp8
 70
     1
102
RTVSPropertyOp9
 70
     1
102
RTVSPropertyOp10
 70
     1
102
RTVSPropertyOp11
 70
     1
102
RTVSPropertyOp12
 70
     1
102
RTVSPropertyOp13
 70
     1
102
RTVSPropertyOp14
 70
     1
102
RTVSPropertyOp15
 70
     1
102
RTVSPropertyOp16
 70
     1
102
RTVSPropertyOp17
 70
     1
102
RTVSPropertyOp18
 70
     1
102
RTVSPropertyOp19
 70
     1
102
RTVSPropertyOp20
 70
     1
102
RTVSPropertyOp21
 70
     1
102
RTVSPropertyOp22
 70
     1
102
RTVSPropertyOp23
 70
     1
102
RTVSPropertyOp24
 70
     1
102
RTVSPropertyOp25
 70
     1
102
RTVSPropertyOp26
 70
     1
102
RTVSPropertyOp27
 70
     1
102
RTVSPropertyOp28
 70
     1
102
RTVSPropertyOp29
 70
     1
102
RTVSPropertyOp30
 70
     1
102
RTVSPropertyOp31
 70
     1
102
RTVSPropertyOp32
 70
     1
102
RTVSPropertyOp33
 70
     1
102
RTVSPropertyOp34
 70
     1
102
RTVSPropertyOp35
 70
     1
102
RTVSPropertyOp36
 70
     1
102
RTVSPropertyOp37
 70
     1
102
RTVSPropertyOp38
 70
     1
102
RTVSPropertyOp39
 70
     1
102
RTVSPropertyOp40
 70
     1
102
RTVSPropertyOp41
 70
     1
102
RTVSPropertyOp42
 70
     1
102
RTVSPropertyOp43
 70
     1
102
RTVSPropertyOp44
 70
     1
102
RTVSPropertyOp45
 70
     1
102
RTVSPropertyOp46
 70
     1
102
RTVSPropertyOp47
 70
     1
102
RTVSPropertyOp48
 70
     1
102
RTVSPropertyOp49
 70
     1
102
RTVSPropertyOp50
 70
     1
102
RTVSPropertyOp51
 70
     0
102
RTVSPropertyOp52
 70
     0
102
RTVSPropertyOp53
 70
     1
102
RTVSPropertyOp54
 70
     1
102
RTVSPropertyOp55
 70
     1
102
RTVSPropertyOp56
 70
     1
102
RTVSPropertyOp57
 70
     1
102
RTVSPropertyOp58
 70
     1
102
RTVSPropertyOp59
 70
     1
102
RTVSPropertyOp60
 70
     1
102
RTVSPropertyOp61
 70
     1
102
RTVSPropertyOp62
 70
     1
  0
XRECORD
  5
CCD
102
{ACAD_REACTORS
330
CCC
102
}
330
CCC
100
AcDbXrecord
280
     1
102
RTVSPost2010Prop28
280
     0
102
RTVSPost2010PropOp28
 70
     0
102
RTVSPost2010Prop29
280
     1
102
RTVSPost2010PropOp29
 70
     0
102
RTVSPost2010Prop30
280
     1
102
RTVSPost2010PropOp30
 70
     0
102
RTVSPost2010Prop31
280
     0
102
RTVSPost2010PropOp31
 70
     0
102
RTVSPost2010Prop32
280
     0
102
RTVSPost2010PropOp32
 70
     0
102
RTVSPost2010Prop33
280
     0
102
RTVSPost2010PropOp33
 70
     0
102
RTVSPost2010Prop34
280
     0
102
RTVSPost2010PropOp34
 70
     0
102
RTVSPost2010Prop35
280
     0
102
RTVSPost2010PropOp35
 70
     0
102
RTVSPost2010Prop36
280
     0
102
RTVSPost2010PropOp36
 70
     0
102
RTVSPost2010Prop37
 90
       50
102
RTVSPost2010PropOp37
 70
     0
102
RTVSPost2010Prop38
140
0.0
102
RTVSPost2010PropOp38
 70
     0
102
RTVSPost2010Prop39
140
1.0
102
RTVSPost2010PropOp39
 70
     0
102
RTVSPost2010Prop40
 90
        0
102
RTVSPost2010PropOp40
 70
     0
102
RTVSPost2010Prop41ColorIndex
 90
       18
102
RTVSPost2010Prop41ColorRGB
 90
        0
102
RTVSPost2010PropOp41
 70
     0
102
RTVSPost2010Prop42
 90
       50
102
RTVSPost2010PropOp42
 70
     0
102
RTVSPost2010Prop43
 90
        3
102
RTVSPost2010PropOp43
 70
     0
102
RTVSPost2010Prop44ColorIndex
 90
        5
102
RTVSPost2010Prop44ColorRGB
 90
      255
102
RTVSPost2010PropOp44
 70
     0
102
RTVSPost2010Prop45
280
     0
102
RTVSPost2010PropOp45
 70
     0
102
RTVSPost2010Prop46
 90
       50
102
RTVSPost2010PropOp46
 70
     0
102
RTVSPost2010Prop47
 90
       50
102
RTVSPost2010PropOp47
 70
     0
102
RTVSPost2010Prop48
 90
       50
102
RTVSPost2010PropOp48
 70
     0
102
RTVSPost2010Prop49
280
     0
102
RTVSPost2010PropOp49
 70
     0
102
RTVSPost2010Prop50
 90
       50
102
RTVSPost2010PropOp50
 70
     0
102
RTVSPost2010Prop51ColorIndex
 90
      256
102
RTVSPost2010Prop51ColorRGB
 90
-16777216
102
RTVSPost2010PropOp51
 70
     0
102
RTVSPost2010Prop52
140
1.0
102
RTVSPost2010PropOp52
 70
     0
102
RTVSPost2010Prop53
 90
        2
102
RTVSPost2010PropOp53
 70
     0
102
RTVSPost2010Prop54
  1
strokes_ogs.tif
102
RTVSPost2010PropOp54
 70
     0
102
RTVSPost2010Prop55
280
     0
102
RTVSPost2010PropOp55
 70
     0
102
RTVSPost2010Prop56
140
1.0
102
RTVSPost2010PropOp56
 70
     0
102
RTVSPost2010Prop57
140
1.0
102
RTVSPost2010PropOp57
 70
     0
102
RTVSPropertyOp0
 70
     0
102
RTVSPropertyOp1
 70
     0
102
RTVSPropertyOp2
 70
     0
102
RTVSPropertyOp3
 70
     0
102
RTVSPropertyOp4
 70
     0
102
RTVSPropertyOp5
 70
     0
102
RTVSPropertyOp6
 70
     0
102
RTVSPropertyOp7
 70
     0
102
RTVSPropertyOp8
 70
     0
102
RTVSPropertyOp9
 70
     0
102
RTVSPropertyOp10
 70
     0
102
RTVSPropertyOp11
 70
     0
102
RTVSPropertyOp12
 70
     0
102
RTVSPropertyOp13
 70
     0
102
RTVSPropertyOp14
 70
     2
102
RTVSPropertyOp15
 70
     0
102
RTVSPropertyOp16
 70
     0
102
RTVSPropertyOp17
 70
     0
102
RTVSPropertyOp18
 70
     0
102
RTVSPropertyOp19
 70
     0
102
RTVSPropertyOp20
 70
     0
102
RTVSPropertyOp21
 70
     0
102
RTVSPropertyOp22
 70
     0
102
RTVSPropertyOp23
 70
     0
102
RTVSPropertyOp24
 70
     0
102
RTVSPropertyOp25
 70
     0
102
RTVSPropertyOp26
 70
     0
102
RTVSPropertyOp27
 70
     0
102
RTVSPropertyOp28
 70
     0
102
RTVSPropertyOp29
 70
     0
102
RTVSPropertyOp30
 70
     0
102
RTVSPropertyOp31
 70
     0
102
RTVSPropertyOp32
 70
     0
102
RTVSPropertyOp33
 70
     0
102
RTVSPropertyOp34
 70
     0
102
RTVSPropertyOp35
 70
     0
102
RTVSPropertyOp36
 70
     0
102
RTVSPropertyOp37
 70
     0
102
RTVSPropertyOp38
 70
     0
102
RTVSPropertyOp39
 70
     0
102
RTVSPropertyOp40
 70
     0
102
RTVSPropertyOp41
 70
     0
102
RTVSPropertyOp42
 70
     0
102
RTVSPropertyOp43
 70
     0
102
RTVSPropertyOp44
 70
     0
102
RTVSPropertyOp45
 70
     0
102
RTVSPropertyOp46
 70
     0
102
RTVSPropertyOp47
 70
     0
102
RTVSPropertyOp48
 70
     0
102
RTVSPropertyOp49
 70
     0
102
RTVSPropertyOp50
 70
     0
102
RTVSPropertyOp51
 70
     0
102
RTVSPropertyOp52
 70
     0
102
RTVSPropertyOp53
 70
     0
102
RTVSPropertyOp54
 70
     0
102
RTVSPropertyOp55
 70
     0
102
RTVSPropertyOp56
 70
     0
102
RTVSPropertyOp57
 70
     0
102
RTVSPropertyOp58
 70
     0
102
RTVSPropertyOp59
 70
     0
102
RTVSPropertyOp60
 70
     0
102
RTVSPropertyOp61
 70
     0
102
RTVSPropertyOp62
 70
     0
  0
XRECORD
  5
CB3
102
{ACAD_REACTORS
330
CB2
102
}
330
CB2
100
AcDbXrecord
280
     1
102
RTVSPost2010Prop28
280
     0
102
RTVSPost2010PropOp28
 70
     1
102
RTVSPost2010Prop29
280
     1
102
RTVSPost2010PropOp29
 70
     1
102
RTVSPost2010Prop30
280
     1
102
RTVSPost2010PropOp30
 70
     1
102
RTVSPost2010Prop31
280
     0
102
RTVSPost2010PropOp31
 70
     1
102
RTVSPost2010Prop32
280
     0
102
RTVSPost2010PropOp32
 70
     1
102
RTVSPost2010Prop33
280
     0
102
RTVSPost2010PropOp33
 70
     1
102
RTVSPost2010Prop34
280
     0
102
RTVSPost2010PropOp34
 70
     1
102
RTVSPost2010Prop35
280
     0
102
RTVSPost2010PropOp35
 70
     1
102
RTVSPost2010Prop36
280
     0
102
RTVSPost2010PropOp36
 70
     1
102
RTVSPost2010Prop37
 90
       50
102
RTVSPost2010PropOp37
 70
     1
102
RTVSPost2010Prop38
140
0.0
102
RTVSPost2010PropOp38
 70
     1
102
RTVSPost2010Prop39
140
1.0
102
RTVSPost2010PropOp39
 70
     1
102
RTVSPost2010Prop40
 90
        0
102
RTVSPost2010PropOp40
 70
     1
102
RTVSPost2010Prop41ColorIndex
 90
       18
102
RTVSPost2010Prop41ColorRGB
 90
        0
102
RTVSPost2010PropOp41
 70
     1
102
RTVSPost2010Prop42
 90
       50
102
RTVSPost2010PropOp42
 70
     1
102
RTVSPost2010Prop43
 90
        3
102
RTVSPost2010PropOp43
 70
     1
102
RTVSPost2010Prop44ColorIndex
 90
        5
102
RTVSPost2010Prop44ColorRGB
 90
      255
102
RTVSPost2010PropOp44
 70
     1
102
RTVSPost2010Prop45
280
     0
102
RTVSPost2010PropOp45
 70
     1
102
RTVSPost2010Prop46
 90
       50
102
RTVSPost2010PropOp46
 70
     1
102
RTVSPost2010Prop47
 90
       50
102
RTVSPost2010PropOp47
 70
     1
102
RTVSPost2010Prop48
 90
       50
102
RTVSPost2010PropOp48
 70
     1
102
RTVSPost2010Prop49
280
     0
102
RTVSPost2010PropOp49
 70
     1
102
RTVSPost2010Prop50
 90
       50
102
RTVSPost2010PropOp50
 70
     1
102
RTVSPost2010Prop51ColorIndex
 90
      256
102
RTVSPost2010Prop51ColorRGB
 90
-16777216
102
RTVSPost2010PropOp51
 70
     0
102
RTVSPost2010Prop52
140
1.0
102
RTVSPost2010PropOp52
 70
     0
102
RTVSPost2010Prop53
 90
        2
102
RTVSPost2010PropOp53
 70
     1
102
RTVSPost2010Prop54
  1
strokes_ogs.tif
102
RTVSPost2010PropOp54
 70
     1
102
RTVSPost2010Prop55
280
     0
102
RTVSPost2010PropOp55
 70
     1
102
RTVSPost2010Prop56
140
1.0
102
RTVSPost2010PropOp56
 70
     1
102
RTVSPost2010Prop57
140
1.0
102
RTVSPost2010PropOp57
 70
     1
102
RTVSPropertyOp0
 70
     1
102
RTVSPropertyOp1
 70
     1
102
RTVSPropertyOp2
 70
     1
102
RTVSPropertyOp3
 70
     1
102
RTVSPropertyOp4
 70
     1
102
RTVSPropertyOp5
 70
     1
102
RTVSPropertyOp6
 70
     1
102
RTVSPropertyOp7
 70
     1
102
RTVSPropertyOp8
 70
     1
102
RTVSPropertyOp9
 70
     1
102
RTVSPropertyOp10
 70
     1
102
RTVSPropertyOp11
 70
     1
102
RTVSPropertyOp12
 70
     1
102
RTVSPropertyOp13
 70
     1
102
RTVSPropertyOp14
 70
     1
102
RTVSPropertyOp15
 70
     1
102
RTVSPropertyOp16
 70
     1
102
RTVSPropertyOp17
 70
     1
102
RTVSPropertyOp18
 70
     1
102
RTVSPropertyOp19
 70
     1
102
RTVSPropertyOp20
 70
     1
102
RTVSPropertyOp21
 70
     1
102
RTVSPropertyOp22
 70
     1
102
RTVSPropertyOp23
 70
     1
102
RTVSPropertyOp24
 70
     1
102
RTVSPropertyOp25
 70
     1
102
RTVSPropertyOp26
 70
     1
102
RTVSPropertyOp27
 70
     1
102
RTVSPropertyOp28
 70
     1
102
RTVSPropertyOp29
 70
     1
102
RTVSPropertyOp30
 70
     1
102
RTVSPropertyOp31
 70
     1
102
RTVSPropertyOp32
 70
     1
102
RTVSPropertyOp33
 70
     1
102
RTVSPropertyOp34
 70
     1
102
RTVSPropertyOp35
 70
     1
102
RTVSPropertyOp36
 70
     1
102
RTVSPropertyOp37
 70
     1
102
RTVSPropertyOp38
 70
     1
102
RTVSPropertyOp39
 70
     1
102
RTVSPropertyOp40
 70
     1
102
RTVSPropertyOp41
 70
     1
102
RTVSPropertyOp42
 70
     1
102
RTVSPropertyOp43
 70
     1
102
RTVSPropertyOp44
 70
     1
102
RTVSPropertyOp45
 70
     1
102
RTVSPropertyOp46
 70
     1
102
RTVSPropertyOp47
 70
     1
102
RTVSPropertyOp48
 70
     1
102
RTVSPropertyOp49
 70
     1
102
RTVSPropertyOp50
 70
     1
102
RTVSPropertyOp51
 70
     0
102
RTVSPropertyOp52
 70
     0
102
RTVSPropertyOp53
 70
     1
102
RTVSPropertyOp54
 70
     1
102
RTVSPropertyOp55
 70
     1
102
RTVSPropertyOp56
 70
     1
102
RTVSPropertyOp57
 70
     1
102
RTVSPropertyOp58
 70
     1
102
RTVSPropertyOp59
 70
     1
102
RTVSPropertyOp60
 70
     1
102
RTVSPropertyOp61
 70
     1
102
RTVSPropertyOp62
 70
     1
  0
XRECORD
  5
CC9
102
{ACAD_REACTORS
330
CC8
102
}
330
CC8
100
AcDbXrecord
280
     1
102
RTVSPost2010Prop28
280
     0
102
RTVSPost2010PropOp28
 70
     1
102
RTVSPost2010Prop29
280
     1
102
RTVSPost2010PropOp29
 70
     1
102
RTVSPost2010Prop30
280
     1
102
RTVSPost2010PropOp30
 70
     1
102
RTVSPost2010Prop31
280
     0
102
RTVSPost2010PropOp31
 70
     1
102
RTVSPost2010Prop32
280
     0
102
RTVSPost2010PropOp32
 70
     1
102
RTVSPost2010Prop33
280
     0
102
RTVSPost2010PropOp33
 70
     1
102
RTVSPost2010Prop34
280
     0
102
RTVSPost2010PropOp34
 70
     1
102
RTVSPost2010Prop35
280
     0
102
RTVSPost2010PropOp35
 70
     1
102
RTVSPost2010Prop36
280
     0
102
RTVSPost2010PropOp36
 70
     1
102
RTVSPost2010Prop37
 90
       50
102
RTVSPost2010PropOp37
 70
     1
102
RTVSPost2010Prop38
140
0.0
102
RTVSPost2010PropOp38
 70
     1
102
RTVSPost2010Prop39
140
1.0
102
RTVSPost2010PropOp39
 70
     1
102
RTVSPost2010Prop40
 90
        0
102
RTVSPost2010PropOp40
 70
     1
102
RTVSPost2010Prop41ColorIndex
 90
       18
102
RTVSPost2010Prop41ColorRGB
 90
        0
102
RTVSPost2010PropOp41
 70
     1
102
RTVSPost2010Prop42
 90
       50
102
RTVSPost2010PropOp42
 70
     1
102
RTVSPost2010Prop43
 90
        3
102
RTVSPost2010PropOp43
 70
     1
102
RTVSPost2010Prop44ColorIndex
 90
        5
102
RTVSPost2010Prop44ColorRGB
 90
      255
102
RTVSPost2010PropOp44
 70
     1
102
RTVSPost2010Prop45
280
     0
102
RTVSPost2010PropOp45
 70
     1
102
RTVSPost2010Prop46
 90
       50
102
RTVSPost2010PropOp46
 70
     1
102
RTVSPost2010Prop47
 90
       50
102
RTVSPost2010PropOp47
 70
     1
102
RTVSPost2010Prop48
 90
       50
102
RTVSPost2010PropOp48
 70
     1
102
RTVSPost2010Prop49
280
     0
102
RTVSPost2010PropOp49
 70
     1
102
RTVSPost2010Prop50
 90
       50
102
RTVSPost2010PropOp50
 70
     1
102
RTVSPost2010Prop51ColorIndex
 90
      256
102
RTVSPost2010Prop51ColorRGB
 90
-16777216
102
RTVSPost2010PropOp51
 70
     0
102
RTVSPost2010Prop52
140
1.0
102
RTVSPost2010PropOp52
 70
     0
102
RTVSPost2010Prop53
 90
        2
102
RTVSPost2010PropOp53
 70
     1
102
RTVSPost2010Prop54
  1
strokes_ogs.tif
102
RTVSPost2010PropOp54
 70
     1
102
RTVSPost2010Prop55
280
     0
102
RTVSPost2010PropOp55
 70
     1
102
RTVSPost2010Prop56
140
1.0
102
RTVSPost2010PropOp56
 70
     1
102
RTVSPost2010Prop57
140
1.0
102
RTVSPost2010PropOp57
 70
     1
102
RTVSPropertyOp0
 70
     1
102
RTVSPropertyOp1
 70
     1
102
RTVSPropertyOp2
 70
     1
102
RTVSPropertyOp3
 70
     1
102
RTVSPropertyOp4
 70
     1
102
RTVSPropertyOp5
 70
     1
102
RTVSPropertyOp6
 70
     1
102
RTVSPropertyOp7
 70
     1
102
RTVSPropertyOp8
 70
     1
102
RTVSPropertyOp9
 70
     1
102
RTVSPropertyOp10
 70
     1
102
RTVSPropertyOp11
 70
     1
102
RTVSPropertyOp12
 70
     1
102
RTVSPropertyOp13
 70
     1
102
RTVSPropertyOp14
 70
     1
102
RTVSPropertyOp15
 70
     1
102
RTVSPropertyOp16
 70
     1
102
RTVSPropertyOp17
 70
     1
102
RTVSPropertyOp18
 70
     1
102
RTVSPropertyOp19
 70
     1
102
RTVSPropertyOp20
 70
     1
102
RTVSPropertyOp21
 70
     1
102
RTVSPropertyOp22
 70
     1
102
RTVSPropertyOp23
 70
     1
102
RTVSPropertyOp24
 70
     1
102
RTVSPropertyOp25
 70
     1
102
RTVSPropertyOp26
 70
     1
102
RTVSPropertyOp27
 70
     1
102
RTVSPropertyOp28
 70
     1
102
RTVSPropertyOp29
 70
     1
102
RTVSPropertyOp30
 70
     1
102
RTVSPropertyOp31
 70
     1
102
RTVSPropertyOp32
 70
     1
102
RTVSPropertyOp33
 70
     1
102
RTVSPropertyOp34
 70
     1
102
RTVSPropertyOp35
 70
     1
102
RTVSPropertyOp36
 70
     1
102
RTVSPropertyOp37
 70
     1
102
RTVSPropertyOp38
 70
     1
102
RTVSPropertyOp39
 70
     1
102
RTVSPropertyOp40
 70
     1
102
RTVSPropertyOp41
 70
     1
102
RTVSPropertyOp42
 70
     1
102
RTVSPropertyOp43
 70
     1
102
RTVSPropertyOp44
 70
     1
102
RTVSPropertyOp45
 70
     1
102
RTVSPropertyOp46
 70
     1
102
RTVSPropertyOp47
 70
     1
102
RTVSPropertyOp48
 70
     1
102
RTVSPropertyOp49
 70
     1
102
RTVSPropertyOp50
 70
     1
102
RTVSPropertyOp51
 70
     0
102
RTVSPropertyOp52
 70
     0
102
RTVSPropertyOp53
 70
     1
102
RTVSPropertyOp54
 70
     1
102
RTVSPropertyOp55
 70
     1
102
RTVSPropertyOp56
 70
     1
102
RTVSPropertyOp57
 70
     1
102
RTVSPropertyOp58
 70
     1
102
RTVSPropertyOp59
 70
     1
102
RTVSPropertyOp60
 70
     1
102
RTVSPropertyOp61
 70
     1
102
RTVSPropertyOp62
 70
     1
  0
XRECORD
  5
CC7
102
{ACAD_REACTORS
330
CC6
102
}
330
CC6
100
AcDbXrecord
280
     1
102
RTVSPost2010Prop28
280
     0
102
RTVSPost2010PropOp28
 70
     1
102
RTVSPost2010Prop29
280
     1
102
RTVSPost2010PropOp29
 70
     1
102
RTVSPost2010Prop30
280
     1
102
RTVSPost2010PropOp30
 70
     1
102
RTVSPost2010Prop31
280
     0
102
RTVSPost2010PropOp31
 70
     1
102
RTVSPost2010Prop32
280
     0
102
RTVSPost2010PropOp32
 70
     1
102
RTVSPost2010Prop33
280
     0
102
RTVSPost2010PropOp33
 70
     1
102
RTVSPost2010Prop34
280
     0
102
RTVSPost2010PropOp34
 70
     1
102
RTVSPost2010Prop35
280
     0
102
RTVSPost2010PropOp35
 70
     1
102
RTVSPost2010Prop36
280
     0
102
RTVSPost2010PropOp36
 70
     1
102
RTVSPost2010Prop37
 90
       50
102
RTVSPost2010PropOp37
 70
     1
102
RTVSPost2010Prop38
140
0.0
102
RTVSPost2010PropOp38
 70
     1
102
RTVSPost2010Prop39
140
1.0
102
RTVSPost2010PropOp39
 70
     1
102
RTVSPost2010Prop40
 90
        0
102
RTVSPost2010PropOp40
 70
     1
102
RTVSPost2010Prop41ColorIndex
 90
       18
102
RTVSPost2010Prop41ColorRGB
 90
        0
102
RTVSPost2010PropOp41
 70
     1
102
RTVSPost2010Prop42
 90
       50
102
RTVSPost2010PropOp42
 70
     1
102
RTVSPost2010Prop43
 90
        3
102
RTVSPost2010PropOp43
 70
     1
102
RTVSPost2010Prop44ColorIndex
 90
        5
102
RTVSPost2010Prop44ColorRGB
 90
      255
102
RTVSPost2010PropOp44
 70
     1
102
RTVSPost2010Prop45
280
     0
102
RTVSPost2010PropOp45
 70
     1
102
RTVSPost2010Prop46
 90
       50
102
RTVSPost2010PropOp46
 70
     1
102
RTVSPost2010Prop47
 90
       50
102
RTVSPost2010PropOp47
 70
     1
102
RTVSPost2010Prop48
 90
       50
102
RTVSPost2010PropOp48
 70
     1
102
RTVSPost2010Prop49
280
     0
102
RTVSPost2010PropOp49
 70
     1
102
RTVSPost2010Prop50
 90
       50
102
RTVSPost2010PropOp50
 70
     1
102
RTVSPost2010Prop51ColorIndex
 90
      256
102
RTVSPost2010Prop51ColorRGB
 90
-16777216
102
RTVSPost2010PropOp51
 70
     0
102
RTVSPost2010Prop52
140
1.0
102
RTVSPost2010PropOp52
 70
     0
102
RTVSPost2010Prop53
 90
        2
102
RTVSPost2010PropOp53
 70
     1
102
RTVSPost2010Prop54
  1
strokes_ogs.tif
102
RTVSPost2010PropOp54
 70
     1
102
RTVSPost2010Prop55
280
     0
102
RTVSPost2010PropOp55
 70
     1
102
RTVSPost2010Prop56
140
1.0
102
RTVSPost2010PropOp56
 70
     1
102
RTVSPost2010Prop57
140
1.0
102
RTVSPost2010PropOp57
 70
     1
102
RTVSPropertyOp0
 70
     1
102
RTVSPropertyOp1
 70
     1
102
RTVSPropertyOp2
 70
     1
102
RTVSPropertyOp3
 70
     1
102
RTVSPropertyOp4
 70
     1
102
RTVSPropertyOp5
 70
     1
102
RTVSPropertyOp6
 70
     1
102
RTVSPropertyOp7
 70
     1
102
RTVSPropertyOp8
 70
     1
102
RTVSPropertyOp9
 70
     1
102
RTVSPropertyOp10
 70
     1
102
RTVSPropertyOp11
 70
     1
102
RTVSPropertyOp12
 70
     1
102
RTVSPropertyOp13
 70
     1
102
RTVSPropertyOp14
 70
     1
102
RTVSPropertyOp15
 70
     1
102
RTVSPropertyOp16
 70
     1
102
RTVSPropertyOp17
 70
     1
102
RTVSPropertyOp18
 70
     1
102
RTVSPropertyOp19
 70
     1
102
RTVSPropertyOp20
 70
     1
102
RTVSPropertyOp21
 70
     1
102
RTVSPropertyOp22
 70
     1
102
RTVSPropertyOp23
 70
     1
102
RTVSPropertyOp24
 70
     1
102
RTVSPropertyOp25
 70
     1
102
RTVSPropertyOp26
 70
     1
102
RTVSPropertyOp27
 70
     1
102
RTVSPropertyOp28
 70
     1
102
RTVSPropertyOp29
 70
     1
102
RTVSPropertyOp30
 70
     1
102
RTVSPropertyOp31
 70
     1
102
RTVSPropertyOp32
 70
     1
102
RTVSPropertyOp33
 70
     1
102
RTVSPropertyOp34
 70
     1
102
RTVSPropertyOp35
 70
     1
102
RTVSPropertyOp36
 70
     1
102
RTVSPropertyOp37
 70
     1
102
RTVSPropertyOp38
 70
     1
102
RTVSPropertyOp39
 70
     1
102
RTVSPropertyOp40
 70
     1
102
RTVSPropertyOp41
 70
     1
102
RTVSPropertyOp42
 70
     1
102
RTVSPropertyOp43
 70
     1
102
RTVSPropertyOp44
 70
     1
102
RTVSPropertyOp45
 70
     1
102
RTVSPropertyOp46
 70
     1
102
RTVSPropertyOp47
 70
     1
102
RTVSPropertyOp48
 70
     1
102
RTVSPropertyOp49
 70
     1
102
RTVSPropertyOp50
 70
     1
102
RTVSPropertyOp51
 70
     0
102
RTVSPropertyOp52
 70
     0
102
RTVSPropertyOp53
 70
     1
102
RTVSPropertyOp54
 70
     1
102
RTVSPropertyOp55
 70
     1
102
RTVSPropertyOp56
 70
     1
102
RTVSPropertyOp57
 70
     1
102
RTVSPropertyOp58
 70
     1
102
RTVSPropertyOp59
 70
     1
102
RTVSPropertyOp60
 70
     1
102
RTVSPropertyOp61
 70
     1
102
RTVSPropertyOp62
 70
     1
  0
XRECORD
  5
CC1
102
{ACAD_REACTORS
330
CC0
102
}
330
CC0
100
AcDbXrecord
280
     1
102
RTVSPost2010Prop28
280
     0
102
RTVSPost2010PropOp28
 70
     1
102
RTVSPost2010Prop29
280
     1
102
RTVSPost2010PropOp29
 70
     1
102
RTVSPost2010Prop30
280
     1
102
RTVSPost2010PropOp30
 70
     1
102
RTVSPost2010Prop31
280
     0
102
RTVSPost2010PropOp31
 70
     1
102
RTVSPost2010Prop32
280
     0
102
RTVSPost2010PropOp32
 70
     1
102
RTVSPost2010Prop33
280
     0
102
RTVSPost2010PropOp33
 70
     1
102
RTVSPost2010Prop34
280
     0
102
RTVSPost2010PropOp34
 70
     1
102
RTVSPost2010Prop35
280
     0
102
RTVSPost2010PropOp35
 70
     1
102
RTVSPost2010Prop36
280
     0
102
RTVSPost2010PropOp36
 70
     1
102
RTVSPost2010Prop37
 90
       50
102
RTVSPost2010PropOp37
 70
     1
102
RTVSPost2010Prop38
140
0.0
102
RTVSPost2010PropOp38
 70
     1
102
RTVSPost2010Prop39
140
1.0
102
RTVSPost2010PropOp39
 70
     1
102
RTVSPost2010Prop40
 90
        0
102
RTVSPost2010PropOp40
 70
     1
102
RTVSPost2010Prop41ColorIndex
 90
       18
102
RTVSPost2010Prop41ColorRGB
 90
        0
102
RTVSPost2010PropOp41
 70
     1
102
RTVSPost2010Prop42
 90
       50
102
RTVSPost2010PropOp42
 70
     1
102
RTVSPost2010Prop43
 90
        3
102
RTVSPost2010PropOp43
 70
     1
102
RTVSPost2010Prop44ColorIndex
 90
        5
102
RTVSPost2010Prop44ColorRGB
 90
      255
102
RTVSPost2010PropOp44
 70
     1
102
RTVSPost2010Prop45
280
     0
102
RTVSPost2010PropOp45
 70
     1
102
RTVSPost2010Prop46
 90
       50
102
RTVSPost2010PropOp46
 70
     1
102
RTVSPost2010Prop47
 90
       50
102
RTVSPost2010PropOp47
 70
     1
102
RTVSPost2010Prop48
 90
       50
102
RTVSPost2010PropOp48
 70
     1
102
RTVSPost2010Prop49
280
     0
102
RTVSPost2010PropOp49
 70
     1
102
RTVSPost2010Prop50
 90
       50
102
RTVSPost2010PropOp50
 70
     1
102
RTVSPost2010Prop51ColorIndex
 90
      256
102
RTVSPost2010Prop51ColorRGB
 90
-16777216
102
RTVSPost2010PropOp51
 70
     0
102
RTVSPost2010Prop52
140
1.0
102
RTVSPost2010PropOp52
 70
     0
102
RTVSPost2010Prop53
 90
        2
102
RTVSPost2010PropOp53
 70
     1
102
RTVSPost2010Prop54
  1
strokes_ogs.tif
102
RTVSPost2010PropOp54
 70
     1
102
RTVSPost2010Prop55
280
     0
102
RTVSPost2010PropOp55
 70
     1
102
RTVSPost2010Prop56
140
1.0
102
RTVSPost2010PropOp56
 70
     1
102
RTVSPost2010Prop57
140
1.0
102
RTVSPost2010PropOp57
 70
     1
102
RTVSPropertyOp0
 70
     1
102
RTVSPropertyOp1
 70
     1
102
RTVSPropertyOp2
 70
     1
102
RTVSPropertyOp3
 70
     1
102
RTVSPropertyOp4
 70
     1
102
RTVSPropertyOp5
 70
     1
102
RTVSPropertyOp6
 70
     1
102
RTVSPropertyOp7
 70
     1
102
RTVSPropertyOp8
 70
     1
102
RTVSPropertyOp9
 70
     1
102
RTVSPropertyOp10
 70
     1
102
RTVSPropertyOp11
 70
     1
102
RTVSPropertyOp12
 70
     1
102
RTVSPropertyOp13
 70
     1
102
RTVSPropertyOp14
 70
     1
102
RTVSPropertyOp15
 70
     1
102
RTVSPropertyOp16
 70
     1
102
RTVSPropertyOp17
 70
     1
102
RTVSPropertyOp18
 70
     1
102
RTVSPropertyOp19
 70
     1
102
RTVSPropertyOp20
 70
     1
102
RTVSPropertyOp21
 70
     1
102
RTVSPropertyOp22
 70
     1
102
RTVSPropertyOp23
 70
     1
102
RTVSPropertyOp24
 70
     1
102
RTVSPropertyOp25
 70
     1
102
RTVSPropertyOp26
 70
     1
102
RTVSPropertyOp27
 70
     1
102
RTVSPropertyOp28
 70
     1
102
RTVSPropertyOp29
 70
     1
102
RTVSPropertyOp30
 70
     1
102
RTVSPropertyOp31
 70
     1
102
RTVSPropertyOp32
 70
     1
102
RTVSPropertyOp33
 70
     1
102
RTVSPropertyOp34
 70
     1
102
RTVSPropertyOp35
 70
     1
102
RTVSPropertyOp36
 70
     1
102
RTVSPropertyOp37
 70
     1
102
RTVSPropertyOp38
 70
     1
102
RTVSPropertyOp39
 70
     1
102
RTVSPropertyOp40
 70
     1
102
RTVSPropertyOp41
 70
     1
102
RTVSPropertyOp42
 70
     1
102
RTVSPropertyOp43
 70
     1
102
RTVSPropertyOp44
 70
     1
102
RTVSPropertyOp45
 70
     1
102
RTVSPropertyOp46
 70
     1
102
RTVSPropertyOp47
 70
     1
102
RTVSPropertyOp48
 70
     1
102
RTVSPropertyOp49
 70
     1
102
RTVSPropertyOp50
 70
     1
102
RTVSPropertyOp51
 70
     0
102
RTVSPropertyOp52
 70
     0
102
RTVSPropertyOp53
 70
     1
102
RTVSPropertyOp54
 70
     1
102
RTVSPropertyOp55
 70
     1
102
RTVSPropertyOp56
 70
     1
102
RTVSPropertyOp57
 70
     1
102
RTVSPropertyOp58
 70
     1
102
RTVSPropertyOp59
 70
     1
102
RTVSPropertyOp60
 70
     1
102
RTVSPropertyOp61
 70
     1
102
RTVSPropertyOp62
 70
     1
  0
XRECORD
  5
CC3
102
{ACAD_REACTORS
330
CC2
102
}
330
CC2
100
AcDbXrecord
280
     1
102
RTVSPost2010Prop28
280
     0
102
RTVSPost2010PropOp28
 70
     1
102
RTVSPost2010Prop29
280
     1
102
RTVSPost2010PropOp29
 70
     1
102
RTVSPost2010Prop30
280
     1
102
RTVSPost2010PropOp30
 70
     1
102
RTVSPost2010Prop31
280
     0
102
RTVSPost2010PropOp31
 70
     1
102
RTVSPost2010Prop32
280
     0
102
RTVSPost2010PropOp32
 70
     1
102
RTVSPost2010Prop33
280
     0
102
RTVSPost2010PropOp33
 70
     1
102
RTVSPost2010Prop34
280
     0
102
RTVSPost2010PropOp34
 70
     1
102
RTVSPost2010Prop35
280
     0
102
RTVSPost2010PropOp35
 70
     1
102
RTVSPost2010Prop36
280
     0
102
RTVSPost2010PropOp36
 70
     1
102
RTVSPost2010Prop37
 90
       50
102
RTVSPost2010PropOp37
 70
     1
102
RTVSPost2010Prop38
140
0.0
102
RTVSPost2010PropOp38
 70
     1
102
RTVSPost2010Prop39
140
1.0
102
RTVSPost2010PropOp39
 70
     1
102
RTVSPost2010Prop40
 90
        0
102
RTVSPost2010PropOp40
 70
     1
102
RTVSPost2010Prop41ColorIndex
 90
       18
102
RTVSPost2010Prop41ColorRGB
 90
        0
102
RTVSPost2010PropOp41
 70
     1
102
RTVSPost2010Prop42
 90
       50
102
RTVSPost2010PropOp42
 70
     1
102
RTVSPost2010Prop43
 90
        3
102
RTVSPost2010PropOp43
 70
     1
102
RTVSPost2010Prop44ColorIndex
 90
        5
102
RTVSPost2010Prop44ColorRGB
 90
      255
102
RTVSPost2010PropOp44
 70
     1
102
RTVSPost2010Prop45
280
     0
102
RTVSPost2010PropOp45
 70
     1
102
RTVSPost2010Prop46
 90
       50
102
RTVSPost2010PropOp46
 70
     1
102
RTVSPost2010Prop47
 90
       50
102
RTVSPost2010PropOp47
 70
     1
102
RTVSPost2010Prop48
 90
       50
102
RTVSPost2010PropOp48
 70
     1
102
RTVSPost2010Prop49
280
     0
102
RTVSPost2010PropOp49
 70
     1
102
RTVSPost2010Prop50
 90
       50
102
RTVSPost2010PropOp50
 70
     1
102
RTVSPost2010Prop51ColorIndex
 90
      256
102
RTVSPost2010Prop51ColorRGB
 90
-16777216
102
RTVSPost2010PropOp51
 70
     0
102
RTVSPost2010Prop52
140
1.0
102
RTVSPost2010PropOp52
 70
     0
102
RTVSPost2010Prop53
 90
        2
102
RTVSPost2010PropOp53
 70
     1
102
RTVSPost2010Prop54
  1
strokes_ogs.tif
102
RTVSPost2010PropOp54
 70
     1
102
RTVSPost2010Prop55
280
     0
102
RTVSPost2010PropOp55
 70
     1
102
RTVSPost2010Prop56
140
1.0
102
RTVSPost2010PropOp56
 70
     1
102
RTVSPost2010Prop57
140
1.0
102
RTVSPost2010PropOp57
 70
     1
102
RTVSPropertyOp0
 70
     1
102
RTVSPropertyOp1
 70
     1
102
RTVSPropertyOp2
 70
     1
102
RTVSPropertyOp3
 70
     1
102
RTVSPropertyOp4
 70
     1
102
RTVSPropertyOp5
 70
     1
102
RTVSPropertyOp6
 70
     1
102
RTVSPropertyOp7
 70
     1
102
RTVSPropertyOp8
 70
     1
102
RTVSPropertyOp9
 70
     1
102
RTVSPropertyOp10
 70
     1
102
RTVSPropertyOp11
 70
     1
102
RTVSPropertyOp12
 70
     1
102
RTVSPropertyOp13
 70
     1
102
RTVSPropertyOp14
 70
     1
102
RTVSPropertyOp15
 70
     1
102
RTVSPropertyOp16
 70
     1
102
RTVSPropertyOp17
 70
     1
102
RTVSPropertyOp18
 70
     1
102
RTVSPropertyOp19
 70
     1
102
RTVSPropertyOp20
 70
     1
102
RTVSPropertyOp21
 70
     1
102
RTVSPropertyOp22
 70
     1
102
RTVSPropertyOp23
 70
     1
102
RTVSPropertyOp24
 70
     1
102
RTVSPropertyOp25
 70
     1
102
RTVSPropertyOp26
 70
     1
102
RTVSPropertyOp27
 70
     1
102
RTVSPropertyOp28
 70
     1
102
RTVSPropertyOp29
 70
     1
102
RTVSPropertyOp30
 70
     1
102
RTVSPropertyOp31
 70
     1
102
RTVSPropertyOp32
 70
     1
102
RTVSPropertyOp33
 70
     1
102
RTVSPropertyOp34
 70
     1
102
RTVSPropertyOp35
 70
     1
102
RTVSPropertyOp36
 70
     1
102
RTVSPropertyOp37
 70
     1
102
RTVSPropertyOp38
 70
     1
102
RTVSPropertyOp39
 70
     1
102
RTVSPropertyOp40
 70
     1
102
RTVSPropertyOp41
 70
     1
102
RTVSPropertyOp42
 70
     1
102
RTVSPropertyOp43
 70
     1
102
RTVSPropertyOp44
 70
     1
102
RTVSPropertyOp45
 70
     1
102
RTVSPropertyOp46
 70
     1
102
RTVSPropertyOp47
 70
     1
102
RTVSPropertyOp48
 70
     1
102
RTVSPropertyOp49
 70
     1
102
RTVSPropertyOp50
 70
     1
102
RTVSPropertyOp51
 70
     0
102
RTVSPropertyOp52
 70
     0
102
RTVSPropertyOp53
 70
     1
102
RTVSPropertyOp54
 70
     1
102
RTVSPropertyOp55
 70
     1
102
RTVSPropertyOp56
 70
     1
102
RTVSPropertyOp57
 70
     1
102
RTVSPropertyOp58
 70
     1
102
RTVSPropertyOp59
 70
     1
102
RTVSPropertyOp60
 70
     1
102
RTVSPropertyOp61
 70
     1
102
RTVSPropertyOp62
 70
     1
  0
XRECORD
  5
CB9
102
{ACAD_REACTORS
330
CB8
102
}
330
CB8
100
AcDbXrecord
280
     1
102
RTVSPost2010Prop28
280
     0
102
RTVSPost2010PropOp28
 70
     1
102
RTVSPost2010Prop29
280
     1
102
RTVSPost2010PropOp29
 70
     1
102
RTVSPost2010Prop30
280
     1
102
RTVSPost2010PropOp30
 70
     1
102
RTVSPost2010Prop31
280
     0
102
RTVSPost2010PropOp31
 70
     1
102
RTVSPost2010Prop32
280
     0
102
RTVSPost2010PropOp32
 70
     1
102
RTVSPost2010Prop33
280
     0
102
RTVSPost2010PropOp33
 70
     1
102
RTVSPost2010Prop34
280
     0
102
RTVSPost2010PropOp34
 70
     1
102
RTVSPost2010Prop35
280
     0
102
RTVSPost2010PropOp35
 70
     1
102
RTVSPost2010Prop36
280
     0
102
RTVSPost2010PropOp36
 70
     1
102
RTVSPost2010Prop37
 90
       50
102
RTVSPost2010PropOp37
 70
     1
102
RTVSPost2010Prop38
140
0.0
102
RTVSPost2010PropOp38
 70
     1
102
RTVSPost2010Prop39
140
1.0
102
RTVSPost2010PropOp39
 70
     1
102
RTVSPost2010Prop40
 90
        0
102
RTVSPost2010PropOp40
 70
     1
102
RTVSPost2010Prop41ColorIndex
 90
       18
102
RTVSPost2010Prop41ColorRGB
 90
        0
102
RTVSPost2010PropOp41
 70
     1
102
RTVSPost2010Prop42
 90
       50
102
RTVSPost2010PropOp42
 70
     1
102
RTVSPost2010Prop43
 90
        3
102
RTVSPost2010PropOp43
 70
     1
102
RTVSPost2010Prop44ColorIndex
 90
        5
102
RTVSPost2010Prop44ColorRGB
 90
      255
102
RTVSPost2010PropOp44
 70
     1
102
RTVSPost2010Prop45
280
     0
102
RTVSPost2010PropOp45
 70
     1
102
RTVSPost2010Prop46
 90
       50
102
RTVSPost2010PropOp46
 70
     1
102
RTVSPost2010Prop47
 90
       50
102
RTVSPost2010PropOp47
 70
     1
102
RTVSPost2010Prop48
 90
       50
102
RTVSPost2010PropOp48
 70
     1
102
RTVSPost2010Prop49
280
     0
102
RTVSPost2010PropOp49
 70
     1
102
RTVSPost2010Prop50
 90
       50
102
RTVSPost2010PropOp50
 70
     1
102
RTVSPost2010Prop51ColorIndex
 90
      256
102
RTVSPost2010Prop51ColorRGB
 90
-16777216
102
RTVSPost2010PropOp51
 70
     0
102
RTVSPost2010Prop52
140
1.0
102
RTVSPost2010PropOp52
 70
     0
102
RTVSPost2010Prop53
 90
        2
102
RTVSPost2010PropOp53
 70
     1
102
RTVSPost2010Prop54
  1
strokes_ogs.tif
102
RTVSPost2010PropOp54
 70
     1
102
RTVSPost2010Prop55
280
     0
102
RTVSPost2010PropOp55
 70
     1
102
RTVSPost2010Prop56
140
1.0
102
RTVSPost2010PropOp56
 70
     1
102
RTVSPost2010Prop57
140
1.0
102
RTVSPost2010PropOp57
 70
     1
102
RTVSPropertyOp0
 70
     1
102
RTVSPropertyOp1
 70
     1
102
RTVSPropertyOp2
 70
     1
102
RTVSPropertyOp3
 70
     1
102
RTVSPropertyOp4
 70
     1
102
RTVSPropertyOp5
 70
     1
102
RTVSPropertyOp6
 70
     1
102
RTVSPropertyOp7
 70
     1
102
RTVSPropertyOp8
 70
     1
102
RTVSPropertyOp9
 70
     1
102
RTVSPropertyOp10
 70
     1
102
RTVSPropertyOp11
 70
     1
102
RTVSPropertyOp12
 70
     1
102
RTVSPropertyOp13
 70
     1
102
RTVSPropertyOp14
 70
     1
102
RTVSPropertyOp15
 70
     1
102
RTVSPropertyOp16
 70
     1
102
RTVSPropertyOp17
 70
     1
102
RTVSPropertyOp18
 70
     1
102
RTVSPropertyOp19
 70
     1
102
RTVSPropertyOp20
 70
     1
102
RTVSPropertyOp21
 70
     1
102
RTVSPropertyOp22
 70
     1
102
RTVSPropertyOp23
 70
     1
102
RTVSPropertyOp24
 70
     1
102
RTVSPropertyOp25
 70
     1
102
RTVSPropertyOp26
 70
     1
102
RTVSPropertyOp27
 70
     1
102
RTVSPropertyOp28
 70
     1
102
RTVSPropertyOp29
 70
     1
102
RTVSPropertyOp30
 70
     1
102
RTVSPropertyOp31
 70
     1
102
RTVSPropertyOp32
 70
     1
102
RTVSPropertyOp33
 70
     1
102
RTVSPropertyOp34
 70
     1
102
RTVSPropertyOp35
 70
     1
102
RTVSPropertyOp36
 70
     1
102
RTVSPropertyOp37
 70
     1
102
RTVSPropertyOp38
 70
     1
102
RTVSPropertyOp39
 70
     1
102
RTVSPropertyOp40
 70
     1
102
RTVSPropertyOp41
 70
     1
102
RTVSPropertyOp42
 70
     1
102
RTVSPropertyOp43
 70
     1
102
RTVSPropertyOp44
 70
     1
102
RTVSPropertyOp45
 70
     1
102
RTVSPropertyOp46
 70
     1
102
RTVSPropertyOp47
 70
     1
102
RTVSPropertyOp48
 70
     1
102
RTVSPropertyOp49
 70
     1
102
RTVSPropertyOp50
 70
     1
102
RTVSPropertyOp51
 70
     0
102
RTVSPropertyOp52
 70
     0
102
RTVSPropertyOp53
 70
     1
102
RTVSPropertyOp54
 70
     1
102
RTVSPropertyOp55
 70
     1
102
RTVSPropertyOp56
 70
     1
102
RTVSPropertyOp57
 70
     1
102
RTVSPropertyOp58
 70
     1
102
RTVSPropertyOp59
 70
     1
102
RTVSPropertyOp60
 70
     1
102
RTVSPropertyOp61
 70
     1
102
RTVSPropertyOp62
 70
     1
  0
XRECORD
  5
CAD
102
{ACAD_REACTORS
330
CAC
102
}
330
CAC
100
AcDbXrecord
280
     1
102
RTVSPost2010Prop28
280
     0
102
RTVSPost2010PropOp28
 70
     1
102
RTVSPost2010Prop29
280
     1
102
RTVSPost2010PropOp29
 70
     1
102
RTVSPost2010Prop30
280
     1
102
RTVSPost2010PropOp30
 70
     1
102
RTVSPost2010Prop31
280
     0
102
RTVSPost2010PropOp31
 70
     1
102
RTVSPost2010Prop32
280
     0
102
RTVSPost2010PropOp32
 70
     1
102
RTVSPost2010Prop33
280
     0
102
RTVSPost2010PropOp33
 70
     1
102
RTVSPost2010Prop34
280
     0
102
RTVSPost2010PropOp34
 70
     1
102
RTVSPost2010Prop35
280
     0
102
RTVSPost2010PropOp35
 70
     1
102
RTVSPost2010Prop36
280
     0
102
RTVSPost2010PropOp36
 70
     1
102
RTVSPost2010Prop37
 90
       50
102
RTVSPost2010PropOp37
 70
     1
102
RTVSPost2010Prop38
140
0.0
102
RTVSPost2010PropOp38
 70
     1
102
RTVSPost2010Prop39
140
1.0
102
RTVSPost2010PropOp39
 70
     1
102
RTVSPost2010Prop40
 90
        0
102
RTVSPost2010PropOp40
 70
     1
102
RTVSPost2010Prop41ColorIndex
 90
       18
102
RTVSPost2010Prop41ColorRGB
 90
        0
102
RTVSPost2010PropOp41
 70
     1
102
RTVSPost2010Prop42
 90
       50
102
RTVSPost2010PropOp42
 70
     1
102
RTVSPost2010Prop43
 90
        3
102
RTVSPost2010PropOp43
 70
     1
102
RTVSPost2010Prop44ColorIndex
 90
        5
102
RTVSPost2010Prop44ColorRGB
 90
      255
102
RTVSPost2010PropOp44
 70
     1
102
RTVSPost2010Prop45
280
     0
102
RTVSPost2010PropOp45
 70
     1
102
RTVSPost2010Prop46
 90
       50
102
RTVSPost2010PropOp46
 70
     1
102
RTVSPost2010Prop47
 90
       50
102
RTVSPost2010PropOp47
 70
     1
102
RTVSPost2010Prop48
 90
       50
102
RTVSPost2010PropOp48
 70
     1
102
RTVSPost2010Prop49
280
     0
102
RTVSPost2010PropOp49
 70
     1
102
RTVSPost2010Prop50
 90
       50
102
RTVSPost2010PropOp50
 70
     1
102
RTVSPost2010Prop51ColorIndex
 90
      256
102
RTVSPost2010Prop51ColorRGB
 90
-16777216
102
RTVSPost2010PropOp51
 70
     0
102
RTVSPost2010Prop52
140
1.0
102
RTVSPost2010PropOp52
 70
     0
102
RTVSPost2010Prop53
 90
        2
102
RTVSPost2010PropOp53
 70
     1
102
RTVSPost2010Prop54
  1
strokes_ogs.tif
102
RTVSPost2010PropOp54
 70
     1
102
RTVSPost2010Prop55
280
     0
102
RTVSPost2010PropOp55
 70
     1
102
RTVSPost2010Prop56
140
1.0
102
RTVSPost2010PropOp56
 70
     1
102
RTVSPost2010Prop57
140
1.0
102
RTVSPost2010PropOp57
 70
     1
102
RTVSPropertyOp0
 70
     1
102
RTVSPropertyOp1
 70
     1
102
RTVSPropertyOp2
 70
     1
102
RTVSPropertyOp3
 70
     1
102
RTVSPropertyOp4
 70
     1
102
RTVSPropertyOp5
 70
     1
102
RTVSPropertyOp6
 70
     1
102
RTVSPropertyOp7
 70
     1
102
RTVSPropertyOp8
 70
     1
102
RTVSPropertyOp9
 70
     1
102
RTVSPropertyOp10
 70
     1
102
RTVSPropertyOp11
 70
     1
102
RTVSPropertyOp12
 70
     1
102
RTVSPropertyOp13
 70
     1
102
RTVSPropertyOp14
 70
     1
102
RTVSPropertyOp15
 70
     1
102
RTVSPropertyOp16
 70
     1
102
RTVSPropertyOp17
 70
     1
102
RTVSPropertyOp18
 70
     1
102
RTVSPropertyOp19
 70
     1
102
RTVSPropertyOp20
 70
     1
102
RTVSPropertyOp21
 70
     1
102
RTVSPropertyOp22
 70
     1
102
RTVSPropertyOp23
 70
     1
102
RTVSPropertyOp24
 70
     1
102
RTVSPropertyOp25
 70
     1
102
RTVSPropertyOp26
 70
     1
102
RTVSPropertyOp27
 70
     1
102
RTVSPropertyOp28
 70
     1
102
RTVSPropertyOp29
 70
     1
102
RTVSPropertyOp30
 70
     1
102
RTVSPropertyOp31
 70
     1
102
RTVSPropertyOp32
 70
     1
102
RTVSPropertyOp33
 70
     1
102
RTVSPropertyOp34
 70
     1
102
RTVSPropertyOp35
 70
     1
102
RTVSPropertyOp36
 70
     1
102
RTVSPropertyOp37
 70
     1
102
RTVSPropertyOp38
 70
     1
102
RTVSPropertyOp39
 70
     1
102
RTVSPropertyOp40
 70
     1
102
RTVSPropertyOp41
 70
     1
102
RTVSPropertyOp42
 70
     1
102
RTVSPropertyOp43
 70
     1
102
RTVSPropertyOp44
 70
     1
102
RTVSPropertyOp45
 70
     1
102
RTVSPropertyOp46
 70
     1
102
RTVSPropertyOp47
 70
     1
102
RTVSPropertyOp48
 70
     1
102
RTVSPropertyOp49
 70
     1
102
RTVSPropertyOp50
 70
     1
102
RTVSPropertyOp51
 70
     0
102
RTVSPropertyOp52
 70
     0
102
RTVSPropertyOp53
 70
     1
102
RTVSPropertyOp54
 70
     1
102
RTVSPropertyOp55
 70
     1
102
RTVSPropertyOp56
 70
     1
102
RTVSPropertyOp57
 70
     1
102
RTVSPropertyOp58
 70
     1
102
RTVSPropertyOp59
 70
     1
102
RTVSPropertyOp60
 70
     1
102
RTVSPropertyOp61
 70
     1
102
RTVSPropertyOp62
 70
     1
  0
XRECORD
  5
CC5
102
{ACAD_REACTORS
330
CC4
102
}
330
CC4
100
AcDbXrecord
280
     1
102
RTVSPost2010Prop28
280
     0
102
RTVSPost2010PropOp28
 70
     1
102
RTVSPost2010Prop29
280
     1
102
RTVSPost2010PropOp29
 70
     1
102
RTVSPost2010Prop30
280
     1
102
RTVSPost2010PropOp30
 70
     1
102
RTVSPost2010Prop31
280
     0
102
RTVSPost2010PropOp31
 70
     1
102
RTVSPost2010Prop32
280
     0
102
RTVSPost2010PropOp32
 70
     1
102
RTVSPost2010Prop33
280
     0
102
RTVSPost2010PropOp33
 70
     1
102
RTVSPost2010Prop34
280
     0
102
RTVSPost2010PropOp34
 70
     1
102
RTVSPost2010Prop35
280
     0
102
RTVSPost2010PropOp35
 70
     1
102
RTVSPost2010Prop36
280
     0
102
RTVSPost2010PropOp36
 70
     1
102
RTVSPost2010Prop37
 90
       50
102
RTVSPost2010PropOp37
 70
     1
102
RTVSPost2010Prop38
140
0.0
102
RTVSPost2010PropOp38
 70
     1
102
RTVSPost2010Prop39
140
1.0
102
RTVSPost2010PropOp39
 70
     1
102
RTVSPost2010Prop40
 90
        0
102
RTVSPost2010PropOp40
 70
     1
102
RTVSPost2010Prop41ColorIndex
 90
       18
102
RTVSPost2010Prop41ColorRGB
 90
        0
102
RTVSPost2010PropOp41
 70
     1
102
RTVSPost2010Prop42
 90
       50
102
RTVSPost2010PropOp42
 70
     1
102
RTVSPost2010Prop43
 90
        3
102
RTVSPost2010PropOp43
 70
     1
102
RTVSPost2010Prop44ColorIndex
 90
        5
102
RTVSPost2010Prop44ColorRGB
 90
      255
102
RTVSPost2010PropOp44
 70
     1
102
RTVSPost2010Prop45
280
     0
102
RTVSPost2010PropOp45
 70
     1
102
RTVSPost2010Prop46
 90
       50
102
RTVSPost2010PropOp46
 70
     1
102
RTVSPost2010Prop47
 90
       50
102
RTVSPost2010PropOp47
 70
     1
102
RTVSPost2010Prop48
 90
       50
102
RTVSPost2010PropOp48
 70
     1
102
RTVSPost2010Prop49
280
     0
102
RTVSPost2010PropOp49
 70
     1
102
RTVSPost2010Prop50
 90
       50
102
RTVSPost2010PropOp50
 70
     1
102
RTVSPost2010Prop51ColorIndex
 90
      256
102
RTVSPost2010Prop51ColorRGB
 90
-16777216
102
RTVSPost2010PropOp51
 70
     0
102
RTVSPost2010Prop52
140
1.0
102
RTVSPost2010PropOp52
 70
     0
102
RTVSPost2010Prop53
 90
        2
102
RTVSPost2010PropOp53
 70
     1
102
RTVSPost2010Prop54
  1
strokes_ogs.tif
102
RTVSPost2010PropOp54
 70
     1
102
RTVSPost2010Prop55
280
     0
102
RTVSPost2010PropOp55
 70
     1
102
RTVSPost2010Prop56
140
1.0
102
RTVSPost2010PropOp56
 70
     1
102
RTVSPost2010Prop57
140
1.0
102
RTVSPost2010PropOp57
 70
     1
102
RTVSPropertyOp0
 70
     1
102
RTVSPropertyOp1
 70
     1
102
RTVSPropertyOp2
 70
     1
102
RTVSPropertyOp3
 70
     1
102
RTVSPropertyOp4
 70
     1
102
RTVSPropertyOp5
 70
     1
102
RTVSPropertyOp6
 70
     1
102
RTVSPropertyOp7
 70
     1
102
RTVSPropertyOp8
 70
     1
102
RTVSPropertyOp9
 70
     1
102
RTVSPropertyOp10
 70
     1
102
RTVSPropertyOp11
 70
     1
102
RTVSPropertyOp12
 70
     1
102
RTVSPropertyOp13
 70
     1
102
RTVSPropertyOp14
 70
     1
102
RTVSPropertyOp15
 70
     1
102
RTVSPropertyOp16
 70
     1
102
RTVSPropertyOp17
 70
     1
102
RTVSPropertyOp18
 70
     1
102
RTVSPropertyOp19
 70
     1
102
RTVSPropertyOp20
 70
     1
102
RTVSPropertyOp21
 70
     1
102
RTVSPropertyOp22
 70
     1
102
RTVSPropertyOp23
 70
     1
102
RTVSPropertyOp24
 70
     1
102
RTVSPropertyOp25
 70
     1
102
RTVSPropertyOp26
 70
     1
102
RTVSPropertyOp27
 70
     1
102
RTVSPropertyOp28
 70
     1
102
RTVSPropertyOp29
 70
     1
102
RTVSPropertyOp30
 70
     1
102
RTVSPropertyOp31
 70
     1
102
RTVSPropertyOp32
 70
     1
102
RTVSPropertyOp33
 70
     1
102
RTVSPropertyOp34
 70
     1
102
RTVSPropertyOp35
 70
     1
102
RTVSPropertyOp36
 70
     1
102
RTVSPropertyOp37
 70
     1
102
RTVSPropertyOp38
 70
     1
102
RTVSPropertyOp39
 70
     1
102
RTVSPropertyOp40
 70
     1
102
RTVSPropertyOp41
 70
     1
102
RTVSPropertyOp42
 70
     1
102
RTVSPropertyOp43
 70
     1
102
RTVSPropertyOp44
 70
     1
102
RTVSPropertyOp45
 70
     1
102
RTVSPropertyOp46
 70
     1
102
RTVSPropertyOp47
 70
     1
102
RTVSPropertyOp48
 70
     1
102
RTVSPropertyOp49
 70
     1
102
RTVSPropertyOp50
 70
     1
102
RTVSPropertyOp51
 70
     0
102
RTVSPropertyOp52
 70
     0
102
RTVSPropertyOp53
 70
     1
102
RTVSPropertyOp54
 70
     1
102
RTVSPropertyOp55
 70
     1
102
RTVSPropertyOp56
 70
     1
102
RTVSPropertyOp57
 70
     1
102
RTVSPropertyOp58
 70
     1
102
RTVSPropertyOp59
 70
     1
102
RTVSPropertyOp60
 70
     1
102
RTVSPropertyOp61
 70
     1
102
RTVSPropertyOp62
 70
     1
  0
ENDSEC
  0
EOF
