  0
SECTION
  2
HEADER
  9
$ACADVER
  1
AC1018
  9
$ACADMAINTVER
 70
     2
  9
$DWGCODEPAGE
  3
ANSI_1252
  9
$INSBASE
 10
0.0
 20
0.0
 30
0.0
  9
$EXTMIN
 10
-0.0128164049388033
 20
-0.0181260584133725
 30
-0.0015258207003583
  9
$EXTMAX
 10
420.012818360716
 20
594.0181288244416
 30
0.0000000349246037
  9
$LIMMIN
 10
0.0
 20
0.0
  9
$LIMMAX
 10
419.9999999999999
 20
594.0
  9
$ORTHOMODE
 70
     0
  9
$REGENMODE
 70
     1
  9
$FILLMODE
 70
     1
  9
$QTEXTMODE
 70
     0
  9
$MIRRTEXT
 70
     1
  9
$LTSCALE
 40
20.0
  9
$ATTMODE
 70
     1
  9
$TEXTSIZE
 40
3.5
  9
$TRACEWID
 40
0.5
  9
$TEXTSTYLE
  7
STANDARD
  9
$CLAYER
  8
SCHRAFF
  9
$CELTYPE
  6
ByLayer
  9
$CECOLOR
 62
   256
  9
$CELTSCALE
 40
1.0
  9
$DISPSILH
 70
     0
  9
$DIMSCALE
 40
2.0
  9
$DIMASZ
 40
3.5
  9
$DIMEXO
 40
1.0
  9
$DIMDLI
 40
7.0
  9
$DIMRND
 40
0.0
  9
$DIMDLE
 40
0.0
  9
$DIMEXE
 40
1.0
  9
$DIMTP
 40
0.0
  9
$DIMTM
 40
0.0
  9
$DIMTXT
 40
3.5
  9
$DIMCEN
 40
1.5
  9
$DIMTSZ
 40
0.0
  9
$DIMTOL
 70
     0
  9
$DIMLIM
 70
     0
  9
$DIMTIH
 70
     0
  9
$DIMTOH
 70
     0
  9
$DIMSE1
 70
     0
  9
$DIMSE2
 70
     0
  9
$DIMTAD
 70
     1
  9
$DIMZIN
 70
     8
  9
$DIMBLK
  1

  9
$DIMASO
 70
     1
  9
$DIMSHO
 70
     0
  9
$DIMPOST
  1

  9
$DIMAPOST
  1

  9
$DIMALT
 70
     0
  9
$DIMALTD
 70
     2
  9
$DIMALTF
 40
25.4
  9
$DIMLFAC
 40
1.0
  9
$DIMTOFL
 70
     1
  9
$DIMTVP
 40
0.0
  9
$DIMTIX
 70
     0
  9
$DIMSOXD
 70
     0
  9
$DIMSAH
 70
     0
  9
$DIMBLK1
  1

  9
$DIMBLK2
  1

  9
$DIMSTYLE
  2
Standard
  9
$DIMCLRD
 70
     0
  9
$DIMCLRE
 70
     0
  9
$DIMCLRT
 70
     1
  9
$DIMTFAC
 40
0.5
  9
$DIMGAP
 40
1.5
  9
$DIMJUST
 70
     0
  9
$DIMSD1
 70
     0
  9
$DIMSD2
 70
     0
  9
$DIMTOLJ
 70
     1
  9
$DIMTZIN
 70
     8
  9
$DIMALTZ
 70
     8
  9
$DIMALTTZ
 70
     8
  9
$DIMUPT
 70
     0
  9
$DIMDEC
 70
     2
  9
$DIMTDEC
 70
     2
  9
$DIMALTU
 70
     2
  9
$DIMALTTD
 70
     2
  9
$DIMTXSTY
  7
STANDARD
  9
$DIMAUNIT
 70
     0
  9
$DIMADEC
 70
     2
  9
$DIMALTRND
 40
0.0
  9
$DIMAZIN
 70
     2
  9
$DIMDSEP
 70
    46
  9
$DIMATFIT
 70
     3
  9
$DIMFRAC
 70
     0
  9
$DIMLDRBLK
  1

  9
$DIMLUNIT
 70
     2
  9
$DIMLWD
 70
    -2
  9
$DIMLWE
 70
    -2
  9
$DIMTMOVE
 70
     0
  9
$LUNITS
 70
     2
  9
$LUPREC
 70
     2
  9
$SKETCHINC
 40
1.0
  9
$FILLETRAD
 40
0.0
  9
$AUNITS
 70
     0
  9
$AUPREC
 70
     0
  9
$MENU
  1
ACAD
  9
$ELEVATION
 40
0.0
  9
$PELEVATION
 40
0.0
  9
$THICKNESS
 40
0.0
  9
$LIMCHECK
 70
     0
  9
$CHAMFERA
 40
0.0
  9
$CHAMFERB
 40
0.0
  9
$CHAMFERC
 40
0.0
  9
$CHAMFERD
 40
0.0
  9
$SKPOLY
 70
     0
  9
$TDCREATE
 40
2455397.823042361
  9
$TDUCREATE
 40
2455397.781375695
  9
$TDUPDATE
 40
2455545.468103137
  9
$TDUUPDATE
 40
2455545.426436470
  9
$TDINDWG
 40
0.0714810417
  9
$TDUSRTIMER
 40
0.0714810417
  9
$USRTIMER
 70
     1
  9
$ANGBASE
 50
0.0
  9
$ANGDIR
 70
     0
  9
$PDMODE
 70
     0
  9
$PDSIZE
 40
0.0
  9
$PLINEWID
 40
0.0
  9
$SPLFRAME
 70
     0
  9
$SPLINETYPE
 70
     6
  9
$SPLINESEGS
 70
     8
  9
$HANDSEED
  5
5E3
  9
$SURFTAB1
 70
     6
  9
$SURFTAB2
 70
     6
  9
$SURFTYPE
 70
     6
  9
$SURFU
 70
     6
  9
$SURFV
 70
     6
  9
$UCSBASE
  2

  9
$UCSNAME
  2

  9
$UCSORG
 10
0.0
 20
0.0
 30
0.0
  9
$UCSXDIR
 10
1.0
 20
0.0
 30
0.0
  9
$UCSYDIR
 10
0.0
 20
1.0
 30
0.0
  9
$UCSORTHOREF
  2

  9
$UCSORTHOVIEW
 70
     0
  9
$UCSORGTOP
 10
0.0
 20
0.0
 30
0.0
  9
$UCSORGBOTTOM
 10
0.0
 20
0.0
 30
0.0
  9
$UCSORGLEFT
 10
0.0
 20
0.0
 30
0.0
  9
$UCSORGRIGHT
 10
0.0
 20
0.0
 30
0.0
  9
$UCSORGFRONT
 10
0.0
 20
0.0
 30
0.0
  9
$UCSORGBACK
 10
0.0
 20
0.0
 30
0.0
  9
$PUCSBASE
  2

  9
$PUCSNAME
  2

  9
$PUCSORG
 10
0.0
 20
0.0
 30
0.0
  9
$PUCSXDIR
 10
1.0
 20
0.0
 30
0.0
  9
$PUCSYDIR
 10
0.0
 20
1.0
 30
0.0
  9
$PUCSORTHOREF
  2

  9
$PUCSORTHOVIEW
 70
     0
  9
$PUCSORGTOP
 10
0.0
 20
0.0
 30
0.0
  9
$PUCSORGBOTTOM
 10
0.0
 20
0.0
 30
0.0
  9
$PUCSORGLEFT
 10
0.0
 20
0.0
 30
0.0
  9
$PUCSORGRIGHT
 10
0.0
 20
0.0
 30
0.0
  9
$PUCSORGFRONT
 10
0.0
 20
0.0
 30
0.0
  9
$PUCSORGBACK
 10
0.0
 20
0.0
 30
0.0
  9
$USERI1
 70
     0
  9
$USERI2
 70
     0
  9
$USERI3
 70
     0
  9
$USERI4
 70
     0
  9
$USERI5
 70
     0
  9
$USERR1
 40
0.0
  9
$USERR2
 40
0.0
  9
$USERR3
 40
0.0
  9
$USERR4
 40
0.0
  9
$USERR5
 40
0.0
  9
$WORLDVIEW
 70
     1
  9
$SHADEDGE
 70
     3
  9
$SHADEDIF
 70
    70
  9
$TILEMODE
 70
     1
  9
$MAXACTVP
 70
    16
  9
$PINSBASE
 10
0.0
 20
0.0
 30
0.0
  9
$PLIMCHECK
 70
     0
  9
$PEXTMIN
 10
1.000000000000000E+20
 20
1.000000000000000E+20
 30
1.000000000000000E+20
  9
$PEXTMAX
 10
-1.000000000000000E+20
 20
-1.000000000000000E+20
 30
-1.000000000000000E+20
  9
$PLIMMIN
 10
0.0
 20
0.0
  9
$PLIMMAX
 10
12.0
 20
9.0
  9
$UNITMODE
 70
     0
  9
$VISRETAIN
 70
     0
  9
$PLINEGEN
 70
     0
  9
$PSLTSCALE
 70
     0
  9
$TREEDEPTH
 70
  3020
  9
$CMLSTYLE
  2
Standard
  9
$CMLJUST
 70
     0
  9
$CMLSCALE
 40
1.0
  9
$PROXYGRAPHICS
 70
     1
  9
$MEASUREMENT
 70
     0
  9
$CELWEIGHT
370
    -1
  9
$ENDCAPS
280
     0
  9
$JOINSTYLE
280
     0
  9
$LWDISPLAY
290
     0
  9
$INSUNITS
 70
     0
  9
$HYPERLINKBASE
  1

  9
$STYLESHEET
  1
monochrome 1.ctb
  9
$XEDIT
290
     1
  9
$CEPSNTYPE
380
     0
  9
$PSTYLEMODE
290
     1
  9
$FINGERPRINTGUID
  2
{D68B0D02-A558-11D7-B632-000102183313}
  9
$VERSIONGUID
  2
{FC00DA48-54F1-490F-AB2B-A4BA02D40EC5}
  9
$EXTNAMES
290
     1
  9
$PSVPSCALE
 40
0.0
  9
$OLESTARTUP
290
     0
  9
$SORTENTS
280
   127
  9
$INDEXCTL
280
     0
  9
$HIDETEXT
280
     0
  9
$XCLIPFRAME
290
     0
  9
$HALOGAP
280
     0
  9
$OBSCOLOR
 70
   257
  9
$OBSLTYPE
280
     0
  9
$INTERSECTIONDISPLAY
280
     0
  9
$INTERSECTIONCOLOR
 70
   257
  9
$DIMASSOC
280
     1
  9
$PROJECTNAME
  1

  0
ENDSEC
  0
SECTION
  2
CLASSES
  0
CLASS
  1
ACDBDICTIONARYWDFLT
  2
AcDbDictionaryWithDefault
  3
ObjectDBX Classes
 90
        0
 91
        1
280
     0
281
     0
  0
CLASS
  1
DICTIONARYVAR
  2
AcDbDictionaryVar
  3
ObjectDBX Classes
 90
        0
 91
        2
280
     0
281
     0
  0
ENDSEC
  0
SECTION
  2
TABLES
  0
TABLE
  2
VPORT
  5
8
330
0
100
AcDbSymbolTable
 70
     2
  0
VPORT
  5
5E2
330
8
100
AcDbSymbolTableRecord
100
AcDbViewportTableRecord
  2
*Active
 70
     0
 10
0.0
 20
0.0
 11
1.0
 21
1.0
 12
210.0000009778887
 22
297.0000013830141
 13
0.0
 23
0.0
 14
1.0
 24
1.0
 15
10.0
 25
10.0
 16
0.0
 26
0.0
 36
1.0
 17
0.0
 27
0.0
 37
0.0
 40
598.8333175064042
 41
1.336927223719676
 42
50.0
 43
0.0
 44
0.0
 50
0.0
 51
0.0
 71
     0
 72
  1500
 73
     1
 74
     0
 75
     0
 76
     0
 77
     0
 78
     0
281
     0
 65
     1
110
0.0
120
0.0
130
0.0
111
1.0
121
0.0
131
0.0
112
0.0
122
1.0
132
0.0
 79
     0
146
0.0
  0
ENDTAB
  0
TABLE
  2
LTYPE
  5
5
330
0
100
AcDbSymbolTable
 70
     3
  0
LTYPE
  5
13
330
5
100
AcDbSymbolTableRecord
100
AcDbLinetypeTableRecord
  2
ByBlock
 70
     0
  3

 72
    65
 73
     0
 40
0.0
  0
LTYPE
  5
14
330
5
100
AcDbSymbolTableRecord
100
AcDbLinetypeTableRecord
  2
ByLayer
 70
     0
  3

 72
    65
 73
     0
 40
0.0
  0
LTYPE
  5
15
330
5
100
AcDbSymbolTableRecord
100
AcDbLinetypeTableRecord
  2
Continuous
 70
     0
  3
Solid line
 72
    65
 73
     0
 40
0.0
  0
LTYPE
  5
25
330
5
100
AcDbSymbolTableRecord
100
AcDbLinetypeTableRecord
  2
STRICHPUNKT
 70
     0
  3
__ . __ . __ . __ . __ . __ . __ . __ . __ . __
 72
    65
 73
     4
 40
1.0
 49
0.5
 74
     0
 49
-0.25
 74
     0
 49
0.0
 74
     0
 49
-0.25
 74
     0
  0
LTYPE
  5
32
330
5
100
AcDbSymbolTableRecord
100
AcDbLinetypeTableRecord
  2
AUSGEZOGEN
 70
     0
  3
Ausgezogene Linie
 72
    65
 73
     0
 40
0.0
  0
ENDTAB
  0
TABLE
  2
LAYER
  5
2
330
0
100
AcDbSymbolTable
 70
     9
  0
LAYER
  5
10
330
2
100
AcDbSymbolTableRecord
100
AcDbLayerTableRecord
  2
0
 70
     0
 62
     7
  6
Continuous
370
    -3
390
F
  0
LAYER
  5
2A
330
2
100
AcDbSymbolTableRecord
100
AcDbLayerTableRecord
  2
VOLL
 70
     0
 62
     1
  6
Continuous
370
    -3
390
F
  0
LAYER
  5
2B
330
2
100
AcDbSymbolTableRecord
100
AcDbLayerTableRecord
  2
HILF
 70
     0
 62
     2
  6
Continuous
370
    -3
390
F
  0
LAYER
  5
2C
330
2
100
AcDbSymbolTableRecord
100
AcDbLayerTableRecord
  2
MITTEL
 70
     0
 62
     2
  6
STRICHPUNKT
370
    -3
390
F
  0
LAYER
  5
2F
330
2
100
AcDbSymbolTableRecord
100
AcDbLayerTableRecord
  2
BEM
 70
     0
 62
     7
  6
Continuous
370
    -3
390
F
  0
LAYER
  5
30
330
2
100
AcDbSymbolTableRecord
100
AcDbLayerTableRecord
  2
STEMPEL
 70
     0
 62
     3
  6
Continuous
370
    -3
390
F
  0
LAYER
  5
31
330
2
100
AcDbSymbolTableRecord
100
AcDbLayerTableRecord
  2
TEXT
 70
     0
 62
     7
  6
Continuous
370
    -3
390
F
  0
LAYER
  5
137
330
2
100
AcDbSymbolTableRecord
100
AcDbLayerTableRecord
  2
SCHRAFF
 70
     0
 62
     7
  6
AUSGEZOGEN
370
    -3
390
F
  0
LAYER
  5
31D
330
2
100
AcDbSymbolTableRecord
100
AcDbLayerTableRecord
  2
DEFPOINTS
 70
     0
 62
     7
  6
AUSGEZOGEN
290
     0
370
    -3
390
F
  0
ENDTAB
  0
TABLE
  2
STYLE
  5
3
330
0
100
AcDbSymbolTable
 70
     2
  0
STYLE
  5
11
330
3
100
AcDbSymbolTableRecord
100
AcDbTextStyleTableRecord
  2
STANDARD
 70
     0
 40
0.0
 41
0.8
 50
0.0
 71
     0
 42
3.5
  3
simplex.shx
  4

  0
STYLE
  5
24
330
3
100
AcDbSymbolTableRecord
100
AcDbTextStyleTableRecord
  2
GREEKS
 70
     0
 40
0.0
 41
0.8
 50
0.0
 71
     0
 42
2.5
  3
SIMPLEX.shx
  4

  0
ENDTAB
  0
TABLE
  2
VIEW
  5
6
330
0
100
AcDbSymbolTable
 70
     0
  0
ENDTAB
  0
TABLE
  2
UCS
  5
7
330
0
100
AcDbSymbolTable
 70
     0
  0
ENDTAB
  0
TABLE
  2
APPID
  5
9
330
0
100
AcDbSymbolTable
 70
     1
  0
APPID
  5
12
330
9
100
AcDbSymbolTableRecord
100
AcDbRegAppTableRecord
  2
ACAD
 70
     0
  0
ENDTAB
  0
TABLE
  2
DIMSTYLE
  5
A
330
0
100
AcDbSymbolTable
 70
     1
100
AcDbDimStyleTable
 71
     1
340
9D
  0
DIMSTYLE
105
9D
102
{ACAD_REACTORS
330
33F
330
340
330
477
102
}
330
A
100
AcDbSymbolTableRecord
100
AcDbDimStyleTableRecord
  2
Standard
 70
     0
340
11
  0
ENDTAB
  0
TABLE
  2
BLOCK_RECORD
  5
1
330
0
100
AcDbSymbolTable
 70
     4
  0
BLOCK_RECORD
  5
1E
102
{ACAD_XDICTIONARY
360
A0
102
}
330
1
100
AcDbSymbolTableRecord
100
AcDbBlockTableRecord
  2
*Model_Space
340
21
  0
BLOCK_RECORD
  5
1A
102
{ACAD_XDICTIONARY
360
A2
102
}
330
1
100
AcDbSymbolTableRecord
100
AcDbBlockTableRecord
  2
*Paper_Space
340
1D
  0
BLOCK_RECORD
  5
22
330
1
100
AcDbSymbolTableRecord
100
AcDbBlockTableRecord
  2
LOGO
340
0
102
{BLKREFS
331
9B
102
}
  0
BLOCK_RECORD
  5
35E
330
1
100
AcDbSymbolTableRecord
100
AcDbBlockTableRecord
  2
*D1
340
0
  0
BLOCK_RECORD
  5
36A
330
1
100
AcDbSymbolTableRecord
100
AcDbBlockTableRecord
  2
*D2
340
0
  0
BLOCK_RECORD
  5
478
330
1
100
AcDbSymbolTableRecord
100
AcDbBlockTableRecord
  2
*D3
340
0
  0
ENDTAB
  0
ENDSEC
  0
SECTION
  2
BLOCKS
  0
BLOCK
  5
35
330
1E
100
AcDbEntity
  8
0
100
AcDbBlockBegin
  2
*Model_Space
 70
     0
 10
0.0
 20
0.0
 30
0.0
  3
*Model_Space
  1

  0
ENDBLK
  5
36
330
1E
100
AcDbEntity
  8
0
100
AcDbBlockEnd
  0
BLOCK
  5
33
330
1A
100
AcDbEntity
 67
     1
  8
0
100
AcDbBlockBegin
  2
*Paper_Space
 70
     0
 10
0.0
 20
0.0
 30
0.0
  3
*Paper_Space
  1

  0
ENDBLK
  5
34
330
1A
100
AcDbEntity
 67
     1
  8
0
100
AcDbBlockEnd
  0
BLOCK
  5
37
330
22
100
AcDbEntity
  8
0
100
AcDbBlockBegin
  2
LOGO
 70
     0
 10
0.0
 20
0.0
 30
0.0
  3
LOGO
  1

  0
ARC
  5
38
330
22
100
AcDbEntity
  8
0
100
AcDbCircle
 10
11.59973089678112
 20
-9.271599258481501
 30
0.0
 40
4.5
100
AcDbArc
 50
270.0
 51
231.0575587310159
  0
LINE
  5
39
330
22
100
AcDbEntity
  8
0
100
AcDbLine
 10
3.599730896781125
 20
-4.771599258481529
 30
0.0
 11
3.599730896781153
 21
-11.77159925848133
 31
0.0
  0
LINE
  5
3A
330
22
100
AcDbEntity
  8
0
100
AcDbLine
 10
2.599730896781125
 20
-4.771599258481529
 30
0.0
 11
2.599730896781153
 21
-11.77159925848133
 31
0.0
  0
CIRCLE
  5
3B
330
22
100
AcDbEntity
  8
0
100
AcDbCircle
 10
11.59973089678112
 20
-9.271599258481501
 30
0.0
 40
3.5
  0
ARC
  5
3C
330
22
100
AcDbEntity
  8
0
100
AcDbCircle
 10
31.59973089678115
 20
-9.271599258481472
 30
0.0
 40
4.5
100
AcDbArc
 50
270.0
 51
231.0575587310182
  0
LINE
  5
3D
330
22
100
AcDbEntity
  8
0
100
AcDbLine
 10
17.59973089678112
 20
-4.771599258481472
 30
0.0
 11
17.59973089678115
 21
-13.77159925848147
 31
0.0
  0
ARC
  5
3E
330
22
100
AcDbEntity
  8
0
100
AcDbCircle
 10
22.59973089678116
 20
-7.271599258481472
 30
0.0
 40
2.5
100
AcDbArc
 50
293.1161887722295
 51
90.0
  0
CIRCLE
  5
3F
330
22
100
AcDbEntity
  8
0
100
AcDbCircle
 10
31.59973089678115
 20
-9.271599258481472
 30
0.0
 40
3.5
  0
ARC
  5
40
330
22
100
AcDbEntity
  8
0
100
AcDbCircle
 10
4.599730896781153
 20
-11.77159925848133
 30
0.0
 40
1.0
100
AcDbArc
 50
180.0
 51
270.0
  0
ARC
  5
41
330
22
100
AcDbEntity
  8
0
100
AcDbCircle
 10
4.599730896781153
 20
-11.77159925848133
 30
0.0
 40
2.0
100
AcDbArc
 50
179.9999999999992
 51
270.0
  0
LINE
  5
42
330
22
100
AcDbEntity
  8
0
100
AcDbLine
 10
11.59973089678115
 20
-13.77159925848144
 30
0.0
 11
4.599730896781153
 21
-13.77159925848147
 31
0.0
  0
LINE
  5
43
330
22
100
AcDbEntity
  8
0
100
AcDbLine
 10
8.771303772034769
 20
-12.77159925848136
 30
0.0
 11
4.599730896781153
 21
-12.77159925848133
 31
0.0
  0
LINE
  5
44
330
22
100
AcDbEntity
  8
0
100
AcDbLine
 10
31.59973089678115
 20
-13.77159925848147
 30
0.0
 11
23.6715276665056
 21
-13.77159925848144
 31
0.0
  0
LINE
  5
45
330
22
100
AcDbEntity
  8
0
100
AcDbLine
 10
23.56565672307022
 20
-9.51278021337896
 30
0.0
 11
24.4388546544846
 21
-12.77159925848144
 31
0.0
  0
LINE
  5
46
330
22
100
AcDbEntity
  8
0
100
AcDbLine
 10
22.59973089678116
 20
-9.771599258481472
 30
0.0
 11
18.59973089678112
 21
-9.771599258481472
 31
0.0
  0
LINE
  5
47
330
22
100
AcDbEntity
  8
0
100
AcDbLine
 10
18.59973089678115
 20
-13.77159925848144
 30
0.0
 11
17.59973089678115
 21
-13.77159925848144
 31
0.0
  0
LINE
  5
48
330
22
100
AcDbEntity
  8
0
100
AcDbLine
 10
18.59973089678115
 20
-9.771599258481472
 30
0.0
 11
18.59973089678115
 21
-13.77159925848144
 31
0.0
  0
LINE
  5
49
330
22
100
AcDbEntity
  8
0
100
AcDbLine
 10
22.59973089678116
 20
-9.771599258481472
 30
0.0
 11
23.67152766650562
 21
-13.77159925848147
 31
0.0
  0
ARC
  5
4A
330
22
100
AcDbEntity
  8
0
100
AcDbCircle
 10
22.59973089678116
 20
-7.271599258481472
 30
0.0
 40
2.5
100
AcDbArc
 50
270.0
 51
270.0000000000007
  0
LINE
  5
4B
330
22
100
AcDbEntity
  8
0
100
AcDbLine
 10
28.77130377203494
 20
-12.77159925848147
 30
0.0
 11
24.43885465448463
 21
-12.77159925848144
 31
0.0
  0
LINE
  5
4C
330
22
100
AcDbEntity
  8
0
100
AcDbLine
 10
3.599730896781125
 20
-4.771599258481472
 30
0.0
 11
2.599730896781125
 21
-4.771599258481472
 31
0.0
  0
LINE
  5
4D
330
22
100
AcDbEntity
  8
0
100
AcDbLine
 10
22.59973089678116
 20
-8.771599258481472
 30
0.0
 11
18.59973089678115
 21
-8.771599258481472
 31
0.0
  0
LINE
  5
4E
330
22
100
AcDbEntity
  8
0
100
AcDbLine
 10
22.59973089678116
 20
-5.771599258481472
 30
0.0
 11
18.59973089678115
 21
-5.771599258481472
 31
0.0
  0
LINE
  5
4F
330
22
100
AcDbEntity
  8
0
100
AcDbLine
 10
22.59973089678116
 20
-4.771599258481472
 30
0.0
 11
17.59973089678115
 21
-4.771599258481472
 31
0.0
  0
LINE
  5
50
330
22
100
AcDbEntity
  8
0
100
AcDbLine
 10
18.59973089678115
 20
-5.771599258481472
 30
0.0
 11
18.59973089678115
 21
-8.771599258481472
 31
0.0
  0
ARC
  5
51
330
22
100
AcDbEntity
  8
0
100
AcDbCircle
 10
22.59973089678116
 20
-7.271599258481472
 30
0.0
 40
1.5
100
AcDbArc
 50
270.0
 51
90.0
  0
ENDBLK
  5
52
330
22
100
AcDbEntity
  8
0
100
AcDbBlockEnd
  0
BLOCK
  5
368
330
35E
100
AcDbEntity
  8
0
100
AcDbBlockBegin
  2
*D1
 70
     1
 10
0.0
 20
0.0
 30
0.0
  3
*D1
  1

  0
LINE
  5
4A4
330
35E
100
AcDbEntity
  8
BEM
 62
     0
370
    -2
100
AcDbLine
 10
72.14101161747379
 20
450.2180679433556
 30
0.0
 11
72.14101161747379
 21
496.1102775051122
 31
0.0
  0
LINE
  5
4A5
330
35E
100
AcDbEntity
  8
BEM
 62
     0
370
    -2
100
AcDbLine
 10
372.1410116174738
 20
450.2180679433556
 30
0.0
 11
372.1410116174738
 21
496.1102775051122
 31
0.0
  0
LINE
  5
4A6
330
35E
100
AcDbEntity
  8
BEM
 62
     0
370
    -2
100
AcDbLine
 10
79.14101161747379
 20
494.1102775051121
 30
0.0
 11
365.1410116174738
 21
494.1102775051121
 31
0.0
  0
SOLID
  5
4A7
330
35E
100
AcDbEntity
  8
BEM
 62
     0
100
AcDbTrace
 10
79.14101161747379
 20
495.2769441717789
 30
0.0
 11
79.14101161747379
 21
492.9436108384455
 31
0.0
 12
72.14101161747379
 22
494.1102775051121
 32
0.0
 13
72.14101161747379
 23
494.1102775051121
 33
0.0
  0
SOLID
  5
4A8
330
35E
100
AcDbEntity
  8
BEM
 62
     0
100
AcDbTrace
 10
365.1410116174738
 20
495.2769441717789
 30
0.0
 11
365.1410116174738
 21
492.9436108384455
 31
0.0
 12
372.1410116174738
 22
494.1102775051121
 32
0.0
 13
372.1410116174738
 23
494.1102775051121
 33
0.0
  0
MTEXT
  5
4A9
330
35E
100
AcDbEntity
  8
BEM
 62
     1
100
AcDbMText
 10
222.1410116174738
 20
500.6102775051122
 30
0.0
 40
7.0
 41
0.0
 71
     5
 72
     1
  1
\A1;%%c300
 73
     1
 44
1.0
  0
POINT
  5
4AA
330
35E
100
AcDbEntity
  8
DEFPOINTS
 62
     0
100
AcDbPoint
 10
72.14101161747379
 20
448.2180679433557
 30
0.0
  0
POINT
  5
4AB
330
35E
100
AcDbEntity
  8
DEFPOINTS
 62
     0
100
AcDbPoint
 10
372.1410116174738
 20
448.2180679433557
 30
0.0
  0
POINT
  5
4AC
330
35E
100
AcDbEntity
  8
DEFPOINTS
 62
     0
100
AcDbPoint
 10
372.1410116174738
 20
494.1102775051121
 30
0.0
  0
ENDBLK
  5
369
330
35E
100
AcDbEntity
  8
0
100
AcDbBlockEnd
  0
BLOCK
  5
374
330
36A
100
AcDbEntity
  8
0
100
AcDbBlockBegin
  2
*D2
 70
     1
 10
0.0
 20
0.0
 30
0.0
  3
*D2
  1

  0
LINE
  5
46E
330
36A
100
AcDbEntity
  8
BEM
 62
     0
370
    -2
100
AcDbLine
 10
70.14101161747376
 20
445.2180679433556
 30
0.0
 11
52.34464367721742
 21
445.2180679433556
 31
0.0
  0
LINE
  5
46F
330
36A
100
AcDbEntity
  8
BEM
 62
     0
370
    -2
100
AcDbLine
 10
170.0409209256813
 20
175.2180679433565
 30
0.0
 11
52.34464367721737
 21
175.2180679433566
 31
0.0
  0
LINE
  5
470
330
36A
100
AcDbEntity
  8
BEM
 62
     0
370
    -2
100
AcDbLine
 10
54.34464367721743
 20
438.2180679433556
 30
0.0
 11
54.34464367721737
 21
182.2180679433566
 31
0.0
  0
SOLID
  5
471
330
36A
100
AcDbEntity
  8
BEM
 62
     0
100
AcDbTrace
 10
53.17797701055076
 20
438.2180679433556
 30
0.0
 11
55.51131034388409
 21
438.2180679433556
 31
0.0
 12
54.34464367721743
 22
445.2180679433556
 32
0.0
 13
54.34464367721743
 23
445.2180679433556
 33
0.0
  0
SOLID
  5
472
330
36A
100
AcDbEntity
  8
BEM
 62
     0
100
AcDbTrace
 10
53.1779770105507
 20
182.2180679433566
 30
0.0
 11
55.51131034388403
 21
182.2180679433566
 31
0.0
 12
54.34464367721736
 22
175.2180679433566
 32
0.0
 13
54.34464367721736
 23
175.2180679433566
 33
0.0
  0
MTEXT
  5
473
330
36A
100
AcDbEntity
  8
BEM
 62
     1
100
AcDbMText
 10
47.84464367721734
 20
310.2180679433561
 30
0.0
 40
7.0
 41
0.0
 71
     5
 72
     1
  1
\A1;270
 11
0.0000000000000001
 21
1.0
 31
0.0
 73
     1
 44
1.0
  0
POINT
  5
474
330
36A
100
AcDbEntity
  8
DEFPOINTS
 62
     0
100
AcDbPoint
 10
72.14101161747376
 20
445.2180679433556
 30
0.0
  0
POINT
  5
475
330
36A
100
AcDbEntity
  8
DEFPOINTS
 62
     0
100
AcDbPoint
 10
172.0409209256813
 20
175.2180679433565
 30
0.0
  0
POINT
  5
476
330
36A
100
AcDbEntity
  8
DEFPOINTS
 62
     0
100
AcDbPoint
 10
54.34464367721736
 20
175.2180679433566
 30
0.0
  0
ENDBLK
  5
375
330
36A
100
AcDbEntity
  8
0
100
AcDbBlockEnd
  0
BLOCK
  5
482
330
478
100
AcDbEntity
  8
0
100
AcDbBlockBegin
  2
*D3
 70
     1
 10
0.0
 20
0.0
 30
0.0
  3
*D3
  1

  0
LINE
  5
484
330
478
100
AcDbEntity
  8
BEM
 62
     0
370
    -2
100
AcDbLine
 10
272.9410116174739
 20
181.2180679433563
 30
0.0
 11
272.9410116174739
 21
153.8592217898035
 31
0.0
  0
LINE
  5
485
330
478
100
AcDbEntity
  8
BEM
 62
     0
370
    -2
100
AcDbLine
 10
171.3410116174739
 20
181.2180679433567
 30
0.0
 11
171.3410116174739
 21
153.8592217898035
 31
0.0
  0
LINE
  5
486
330
478
100
AcDbEntity
  8
BEM
 62
     0
370
    -2
100
AcDbLine
 10
265.9410116174739
 20
155.8592217898035
 30
0.0
 11
178.3410116174739
 21
155.8592217898035
 31
0.0
  0
SOLID
  5
487
330
478
100
AcDbEntity
  8
BEM
 62
     0
100
AcDbTrace
 10
265.9410116174739
 20
157.0258884564702
 30
0.0
 11
265.9410116174739
 21
154.6925551231369
 31
0.0
 12
272.9410116174739
 22
155.8592217898035
 32
0.0
 13
272.9410116174739
 23
155.8592217898035
 33
0.0
  0
SOLID
  5
488
330
478
100
AcDbEntity
  8
BEM
 62
     0
100
AcDbTrace
 10
178.3410116174739
 20
157.0258884564702
 30
0.0
 11
178.3410116174739
 21
154.6925551231369
 31
0.0
 12
171.3410116174739
 22
155.8592217898035
 32
0.0
 13
171.3410116174739
 23
155.8592217898035
 33
0.0
  0
MTEXT
  5
489
330
478
100
AcDbEntity
  8
BEM
 62
     1
100
AcDbMText
 10
222.1410116174739
 20
162.3592217898035
 30
0.0
 40
7.0
 41
0.0
 71
     5
 72
     1
  1
\A1;%%c101.6
 73
     1
 44
1.0
  0
POINT
  5
48A
330
478
100
AcDbEntity
  8
DEFPOINTS
 62
     0
100
AcDbPoint
 10
272.9410116174739
 20
183.2180679433563
 30
0.0
  0
POINT
  5
48B
330
478
100
AcDbEntity
  8
DEFPOINTS
 62
     0
100
AcDbPoint
 10
171.3410116174739
 20
183.2180679433567
 30
0.0
  0
POINT
  5
48C
330
478
100
AcDbEntity
  8
DEFPOINTS
 62
     0
100
AcDbPoint
 10
171.3410116174739
 20
155.8592217898035
 30
0.0
  0
ENDBLK
  5
483
330
478
100
AcDbEntity
  8
0
100
AcDbBlockEnd
  0
ENDSEC
  0
SECTION
  2
ENTITIES
  0
LINE
  5
57
330
1E
100
AcDbEntity
  8
STEMPEL
100
AcDbLine
 10
410.0
 20
110.0
 30
0.0
 11
39.99999999999997
 21
110.0
 31
0.0
  0
LINE
  5
58
330
1E
100
AcDbEntity
  8
STEMPEL
100
AcDbLine
 10
136.0000000000001
 20
109.9999999999999
 30
0.0
 11
136.0
 21
9.999999999999971
 31
0.0
  0
LINE
  5
59
330
1E
100
AcDbEntity
  8
STEMPEL
100
AcDbLine
 10
220.0
 20
110.0
 30
0.0
 11
220.0
 21
9.999999999999971
 31
0.0
  0
LINE
  5
5A
330
1E
100
AcDbEntity
  8
STEMPEL
100
AcDbLine
 10
332.0
 20
109.9999999999997
 30
0.0
 11
332.0
 21
40.0
 31
0.0
  0
LINE
  5
5B
330
1E
100
AcDbEntity
  8
STEMPEL
100
AcDbLine
 10
135.9999999999999
 20
29.99999999999997
 30
0.0
 11
39.99999999999997
 21
29.99999999999997
 31
0.0
  0
LINE
  5
5C
330
1E
100
AcDbEntity
  8
STEMPEL
100
AcDbLine
 10
410.0
 20
40.0
 30
0.0
 11
136.0000000000001
 21
39.99999999999997
 31
0.0
  0
LINE
  5
5D
330
1E
100
AcDbEntity
  8
STEMPEL
100
AcDbLine
 10
410.0
 20
80.0
 30
0.0
 11
136.0000000000001
 21
79.99999999999994
 31
0.0
  0
LINE
  5
5E
330
1E
100
AcDbEntity
  8
VOLL
100
AcDbLine
 10
54.00000000000009
 20
110.0
 30
0.0
 11
53.99999999999997
 21
9.999999999999971
 31
0.0
  0
LINE
  5
5F
330
1E
100
AcDbEntity
  8
VOLL
100
AcDbLine
 10
94.00000000000011
 20
109.9999999999999
 30
0.0
 11
94.0
 21
9.999999999999971
 31
0.0
  0
LINE
  5
60
330
1E
100
AcDbEntity
  8
VOLL
100
AcDbLine
 10
114.0000000000001
 20
109.9999999999999
 30
0.0
 11
114.0
 21
9.999999999999971
 31
0.0
  0
LINE
  5
61
330
1E
100
AcDbEntity
  8
VOLL
100
AcDbLine
 10
154.0000000000001
 20
79.99999999999994
 30
0.0
 11
154.0000000000001
 21
39.99999999999997
 31
0.0
  0
LINE
  5
62
330
1E
100
AcDbEntity
  8
VOLL
100
AcDbLine
 10
180.0000000000001
 20
109.9999999999998
 30
0.0
 11
180.0
 21
39.99999999999997
 31
0.0
  0
LINE
  5
63
330
1E
100
AcDbEntity
  8
HILF
100
AcDbLine
 10
40.00000000000008
 20
100.0
 30
0.0
 11
136.0000000000001
 21
100.0
 31
0.0
  0
LINE
  5
64
330
1E
100
AcDbEntity
  8
HILF
100
AcDbLine
 10
40.00000000000008
 20
90.00000000000005
 30
0.0
 11
136.0000000000001
 21
90.00000000000005
 31
0.0
  0
LINE
  5
65
330
1E
100
AcDbEntity
  8
HILF
100
AcDbLine
 10
40.00000000000008
 20
79.99999999999994
 30
0.0
 11
136.0000000000001
 21
79.99999999999994
 31
0.0
  0
LINE
  5
66
330
1E
100
AcDbEntity
  8
HILF
100
AcDbLine
 10
40.00000000000008
 20
69.99999999999994
 30
0.0
 11
136.0000000000001
 21
69.99999999999994
 31
0.0
  0
LINE
  5
67
330
1E
100
AcDbEntity
  8
HILF
100
AcDbLine
 10
40.00000000000008
 20
59.99999999999997
 30
0.0
 11
136.0000000000001
 21
59.99999999999997
 31
0.0
  0
LINE
  5
68
330
1E
100
AcDbEntity
  8
HILF
100
AcDbLine
 10
40.00000000000008
 20
49.99999999999997
 30
0.0
 11
136.0000000000001
 21
49.99999999999997
 31
0.0
  0
LINE
  5
69
330
1E
100
AcDbEntity
  8
HILF
100
AcDbLine
 10
40.00000000000008
 20
39.99999999999997
 30
0.0
 11
136.0000000000001
 21
39.99999999999997
 31
0.0
  0
LINE
  5
6A
330
1E
100
AcDbEntity
  8
HILF
100
AcDbLine
 10
136.0000000000001
 20
69.99999999999994
 30
0.0
 11
220.0
 21
69.99999999999994
 31
0.0
  0
LINE
  5
6B
330
1E
100
AcDbEntity
  8
HILF
100
AcDbLine
 10
136.0000000000001
 20
59.99999999999997
 30
0.0
 11
220.0
 21
59.99999999999997
 31
0.0
  0
LINE
  5
6C
330
1E
100
AcDbEntity
  8
HILF
100
AcDbLine
 10
136.0000000000001
 20
49.99999999999997
 30
0.0
 11
220.0
 21
49.99999999999997
 31
0.0
  0
LINE
  5
6D
330
1E
100
AcDbEntity
  8
HILF
100
AcDbLine
 10
224.7736801096948
 20
84.03758247564139
 30
0.0
 11
324.8353916556311
 21
84.03758247564139
 31
0.0
  0
LINE
  5
6E
330
1E
100
AcDbEntity
  8
HILF
100
AcDbLine
 10
224.7736801096948
 20
69.99999999999994
 30
0.0
 11
324.835391655631
 21
69.99999999999994
 31
0.0
  0
LINE
  5
6F
330
1E
100
AcDbEntity
  8
HILF
100
AcDbLine
 10
224.7736801096948
 20
59.99999999999997
 30
0.0
 11
324.835391655631
 21
59.99999999999997
 31
0.0
  0
LINE
  5
70
330
1E
100
AcDbEntity
  8
HILF
100
AcDbLine
 10
224.7736801096948
 20
49.99999999999997
 30
0.0
 11
324.835391655631
 21
49.99999999999997
 31
0.0
  0
LINE
  5
71
330
1E
100
AcDbEntity
  8
VOLL
100
AcDbLine
 10
332.0
 20
60.0
 30
0.0
 11
410.0
 21
60.0
 31
0.0
  0
LINE
  5
72
330
1E
100
AcDbEntity
  8
HILF
100
AcDbLine
 10
336.7238616296993
 20
83.77983636955827
 30
0.0
 11
404.8588839326728
 21
83.77983636955827
 31
0.0
  0
LINE
  5
73
330
1E
100
AcDbEntity
  8
HILF
100
AcDbLine
 10
223.4909699289885
 20
14.89398258028314
 30
0.0
 11
404.8588839326728
 21
14.89398258028314
 31
0.0
  0
TEXT
  5
74
330
1E
100
AcDbEntity
  8
TEXT
100
AcDbText
 10
63.86165979631819
 20
18.67381894984132
 30
0.0
 40
4.0
  1
Änderung
 41
0.8
  7
GREEKS
 72
     1
 11
74.60451693917534
 21
18.67381894984132
 31
0.0
100
AcDbText
  0
TEXT
  5
75
330
1E
100
AcDbEntity
  8
TEXT
100
AcDbText
 10
143.5163572150377
 20
102.4620895087088
 30
0.0
 40
5.0
  1
Maßstab
 41
0.8
  7
GREEKS
100
AcDbText
  0
TEXT
  5
76
330
1E
100
AcDbEntity
  8
TEXT
100
AcDbText
 10
184.2858954734051
 20
102.4184168434819
 30
0.0
 40
5.0
  1
Zul. Abw.
 41
0.8
  7
GREEKS
100
AcDbText
  0
TEXT
  5
77
330
1E
100
AcDbEntity
  8
TEXT
100
AcDbText
 10
224.877940380901
 20
102.5489328011779
 30
0.0
 40
5.0
  1
Benennung
 41
0.8
  7
GREEKS
100
AcDbText
  0
TEXT
  5
78
330
1E
100
AcDbEntity
  8
TEXT
100
AcDbText
 10
336.178754957634
 20
102.3132034537136
 30
0.0
 40
5.0
  1
Zeichnungs Nr.
 41
0.8
  7
GREEKS
100
AcDbText
  0
TEXT
  5
79
330
1E
100
AcDbEntity
  8
TEXT
100
AcDbText
 10
224.742238391136
 20
30.84560570193057
 30
0.0
 40
5.0
  1
Bauvorhaben
 41
0.8
  7
GREEKS
100
AcDbText
  0
TEXT
  5
7A
330
1E
100
AcDbEntity
  8
TEXT
100
AcDbText
 10
336.7238616296993
 20
73.1811823709997
 30
0.0
 40
5.0
  1
Ersatz für:
 41
0.8
  7
GREEKS
100
AcDbText
  0
TEXT
  5
7B
330
1E
100
AcDbEntity
  8
TEXT
100
AcDbText
 10
48.26641107045756
 20
13.65465846027192
 30
0.0
 40
4.0
  1
Index
 50
90.0
 41
0.8
  7
GREEKS
100
AcDbText
  0
TEXT
  5
7C
330
1E
100
AcDbEntity
  8
TEXT
100
AcDbText
 10
100.0934676075481
 20
18.6715626933981
 30
0.0
 40
4.0
  1
Tag
 41
0.8
  7
GREEKS
 72
     1
 11
103.8268009408814
 21
18.6715626933981
 31
0.0
100
AcDbText
  0
TEXT
  5
7D
330
1E
100
AcDbEntity
  8
TEXT
100
AcDbText
 10
119.0122744386592
 20
18.59324216966408
 30
0.0
 40
4.0
  1
Name
 41
0.8
  7
GREEKS
 72
     1
 11
125.3360839624688
 21
18.59324216966408
 31
0.0
100
AcDbText
  0
TEXT
  5
7E
330
1E
100
AcDbEntity
  8
TEXT
100
AcDbText
 10
162.3311673153651
 20
73.31880501229926
 30
0.0
 40
4.0
  1
Tag
 41
0.8
  7
GREEKS
100
AcDbText
  0
TEXT
  5
7F
330
1E
100
AcDbEntity
  8
TEXT
100
AcDbText
 10
192.4626584226295
 20
73.30961091915225
 30
0.0
 40
4.0
  1
Name
 41
0.8
  7
GREEKS
100
AcDbText
  0
TEXT
  5
80
330
1E
100
AcDbEntity
  8
TEXT
100
AcDbText
 10
137.5836127167615
 20
63.62990369617964
 30
0.0
 40
4.0
  1
Gez.
 41
0.8
  7
GREEKS
100
AcDbText
  0
TEXT
  5
81
330
1E
100
AcDbEntity
  8
TEXT
100
AcDbText
 10
137.5515086571672
 20
53.68926291428377
 30
0.0
 40
4.0
  1
Gepr.
 41
0.8
  7
GREEKS
100
AcDbText
  0
TEXT
  5
82
330
1E
100
AcDbEntity
  8
TEXT
100
AcDbText
 10
137.6006777387304
 20
43.52946389649807
 30
0.0
 40
4.0
  1
Norm.
 41
0.8
  7
GREEKS
100
AcDbText
  0
LINE
  5
83
330
1E
100
AcDbEntity
  8
STEMPEL
100
AcDbLine
 10
49.99999999999989
 20
10.0
 30
0.0
 11
410.0
 21
10.0
 31
0.0
  0
TEXT
  5
84
330
1E
100
AcDbEntity
  8
TEXT
100
AcDbText
 10
337.2400861497006
 20
52.07416177878602
 30
0.0
 40
5.0
  1
ersetzt durch:
 41
0.8
  7
GREEKS
100
AcDbText
  0
LINE
  5
85
330
1E
100
AcDbEntity
  8
STEMPEL
100
AcDbLine
 10
410.0
 20
10.0
 30
0.0
 11
39.99999999999989
 21
10.0
 31
0.0
  0
LINE
  5
86
330
1E
100
AcDbEntity
  8
STEMPEL
100
AcDbLine
 10
410.0
 20
10.0
 30
0.0
 11
410.0
 21
584.0
 31
0.0
  0
LINE
  5
87
330
1E
100
AcDbEntity
  8
STEMPEL
100
AcDbLine
 10
40.0
 20
10.0
 30
0.0
 11
39.99999999999989
 21
584.0
 31
0.0
  0
LINE
  5
88
330
1E
100
AcDbEntity
  8
STEMPEL
100
AcDbLine
 10
410.0
 20
584.0
 30
0.0
 11
39.99999999999989
 21
584.0
 31
0.0
  0
LINE
  5
89
330
1E
100
AcDbEntity
  8
HILF
100
AcDbLine
 10
0.0
 20
0.0
 30
0.0
 11
-0.0000000000001137
 21
594.0
 31
0.0
  0
LINE
  5
8A
330
1E
100
AcDbEntity
  8
HILF
100
AcDbLine
 10
419.9999999999999
 20
594.0000000000002
 30
0.0
 11
0.0
 21
594.0
 31
0.0
  0
LINE
  5
8B
330
1E
100
AcDbEntity
  8
HILF
100
AcDbLine
 10
420.0
 20
0.0
 30
0.0
 11
0.0
 21
0.0
 31
0.0
  0
LINE
  5
8C
330
1E
100
AcDbEntity
  8
HILF
100
AcDbLine
 10
31.08767135713856
 20
297.0
 30
0.0
 11
0.0000000000001137
 21
297.0
 31
0.0
  0
TEXT
  5
8D
330
1E
100
AcDbEntity
  8
TEXT
100
AcDbText
 10
138.622109822104
 20
73.14025471151666
 30
0.0
 40
4.0
  1
2010
 41
0.8
  7
GREEKS
100
AcDbText
  0
LINE
  5
8E
330
1E
100
AcDbEntity
  8
HILF
100
AcDbLine
 10
420.0
 20
-0.0000000000001137
 30
0.0
 11
419.9999999999999
 21
594.0
 31
0.0
  0
TEXT
  5
8F
330
1E
100
AcDbEntity
  8
VOLL
100
AcDbText
 10
78.07675471698113
 20
31.02594776470585
 30
0.0
 40
1.8
  1

  7
GREEKS
100
AcDbText
  0
TEXT
  5
90
330
1E
100
AcDbEntity
  8
TEXT
100
AcDbText
 10
41.85509950977674
 20
111.6719999999999
 30
0.0
 40
5.0
  1
Erstellt mit AUTOCAD 2004
 41
0.8
  7
GREEKS
100
AcDbText
  0
TEXT
  5
93
330
1E
100
AcDbEntity
  8
TEXT
 62
     1
100
AcDbText
 10
150.5006306481887
 20
88.14901428913959
 30
0.0
 40
7.0
  1
1:2
 41
0.8
  7
GREEKS
100
AcDbText
  0
INSERT
  5
9B
330
1E
100
AcDbEntity
  8
STEMPEL
100
AcDbBlockReference
  2
LOGO
 10
140.9955485457794
 20
45.02105276448322
 30
0.0
 41
2.0
 42
2.0
 43
2.0
  0
TEXT
  5
118
330
1E
100
AcDbEntity
  8
BEM
100
AcDbText
 10
417.3022923857165
 20
10.16790107998849
 30
0.0
 40
4.0
  1
Diese Zeichnung ist urheberrechtlich geschützt und bleibt unser Eigentum. Sie darf weder ganz noch teilweise verfielfältigt und nicht an Dritte weitergegeben werden.
 50
90.0
 41
0.8
  7
GREEKS
100
AcDbText
  0
HATCH
  5
217
330
1E
100
AcDbEntity
  8
SCHRAFF
100
AcDbHatch
 10
0.0
 20
0.0
 30
0.0
210
0.0
220
0.0
230
1.0
  2
_USER
 70
     0
 71
     0
 91
        4
 92
        7
 72
     1
 73
     1
 93
        4
 10
103.1410116174737
 20
457.2180679433556
 42
0.0
 10
80.14101161747374
 20
457.2180679433557
 42
1.0
 10
80.14101161747374
 20
451.2180679433558
 42
0.0
 10
103.1410116174737
 20
451.2180679433558
 42
0.0
 97
        0
 92
        7
 72
     1
 73
     1
 93
        4
 10
140.1410116174738
 20
457.2180679433557
 42
0.0
 10
117.1410116174737
 20
457.2180679433557
 42
0.0
 10
117.1410116174737
 20
451.2180679433558
 42
0.0
 10
140.1410116174738
 20
451.2180679433558
 42
1.0
 97
        0
 92
        7
 72
     1
 73
     1
 93
       11
 10
340.1410116174738
 20
454.2180679433563
 42
0.0
 10
340.6410116174738
 20
454.2180679433562
 42
0.0
 10
340.6410116174738
 20
457.2180679433562
 42
0.0
 10
340.1410116174738
 20
457.2180679433562
 42
0.0
 10
340.1410116174737
 20
463.5213726301805
 42
0.0
 10
336.5566188368898
 20
466.38320878178
 42
0.0
 10
336.4823928686825
 20
462.1308059111696
 42
-0.4091108014277157
 10
331.4831543929005
 20
457.218067943356
 42
0.0
 10
304.1410116174739
 20
457.218067943356
 42
1.0
 10
304.1410116174739
 20
451.2180679433558
 42
0.0
 10
340.1410116174739
 20
451.2180679433558
 42
0.0
 97
        0
 92
        7
 72
     1
 73
     1
 93
       15
 10
364.1410116174737
 20
457.2180679433557
 42
0.0
 10
356.7988688420474
 20
457.2180679433558
 42
-0.40911080142771
 10
351.7996303662654
 20
462.1308059111694
 42
0.0
 10
351.6410116174738
 20
471.2180679433559
 42
0.0
 10
348.1410116174738
 20
471.2180679433559
 42
0.0
 10
348.1410116174736
 20
468.2180679433561
 42
0.0
 10
347.6410116174739
 20
468.2180679433561
 42
0.0
 10
347.6410116174739
 20
465.2180679433562
 42
0.0
 10
348.1410116174736
 20
465.2180679433562
 42
0.0
 10
348.1410116174739
 20
457.2180679433564
 42
0.0
 10
347.6410116174739
 20
457.2180679433564
 42
0.0
 10
347.6410116174739
 20
454.2180679433563
 42
0.0
 10
348.1410116174739
 20
454.2180679433562
 42
0.0
 10
348.1410116174739
 20
451.2180679433558
 42
0.0
 10
364.1410116174737
 20
451.2180679433558
 42
1.0
 97
        0
 75
     0
 76
     0
 52
45.0
 41
5.0
 77
     0
 78
     1
 53
45.0
 43
0.0
 44
0.0
 45
-3.535533905932737
 46
3.535533905932737
 79
     0
 47
0.3785204768001131
 98
        4
 10
87.49375521509268
 20
454.0787332769172
 10
134.4607417354695
 20
454.8357731824543
 10
317.4047339382586
 20
454.0787332769172
 10
363.2354215764666
 20
453.7002119258789
  0
LINE
  5
220
330
1E
100
AcDbEntity
  8
STEMPEL
100
AcDbLine
 10
364.1410116174739
 20
451.2180679433557
 30
0.0
 11
115.1410116174738
 21
451.2180679433556
 31
0.0
  0
LINE
  5
221
330
1E
100
AcDbEntity
  8
STEMPEL
100
AcDbLine
 10
80.14101161747385
 20
457.2180679433556
 30
0.0
 11
331.4831543929006
 21
457.2180679433555
 31
0.0
  0
LINE
  5
224
330
1E
100
AcDbEntity
  8
STEMPEL
100
AcDbLine
 10
198.7168161666275
 20
471.2180679433556
 30
0.0
 11
213.7168161666275
 21
471.2180679433556
 31
0.0
  0
LINE
  5
22C
330
1E
100
AcDbEntity
  8
STEMPEL
100
AcDbLine
 10
105.1410116174738
 20
451.2180679433556
 30
0.0
 11
80.14101161747385
 21
451.2180679433556
 31
0.0
  0
LINE
  5
22D
330
1E
100
AcDbEntity
  8
STEMPEL
100
AcDbLine
 10
80.14101161747385
 20
451.2180679433556
 30
0.0
 11
105.1410116174738
 21
451.2180679433556
 31
0.0
  0
ARC
  5
230
330
1E
100
AcDbEntity
  8
STEMPEL
100
AcDbCircle
 10
80.14101161747385
 20
454.2180679433556
 30
0.0
 40
3.0
100
AcDbArc
 50
89.99999999999959
 51
270.0000000000004
  0
LINE
  5
23C
330
1E
100
AcDbEntity
  8
STEMPEL
100
AcDbLine
 10
105.1410116174738
 20
469.2180679433564
 30
0.0
 11
115.1410116174738
 21
469.2180679433564
 31
0.0
  0
LINE
  5
23D
330
1E
100
AcDbEntity
  8
STEMPEL
100
AcDbLine
 10
114.1410116174738
 20
470.2180679433563
 30
0.0
 11
106.1410116174738
 21
470.2180679433563
 31
0.0
  0
LINE
  5
23F
330
1E
100
AcDbEntity
  8
MITTEL
100
AcDbLine
 10
110.1410116174738
 20
475.2180679433563
 30
0.0
 11
110.1410116174738
 21
445.2180679433563
 31
0.0
  0
LINE
  5
241
330
1E
100
AcDbEntity
  8
STEMPEL
100
AcDbLine
 10
103.1410116174738
 20
457.2180679433555
 30
0.0
 11
103.1410116174738
 21
451.2180679433556
 31
0.0
  0
LINE
  5
243
330
1E
100
AcDbEntity
  8
HILF
100
AcDbLine
 10
106.1410116174738
 20
457.2180679433555
 30
0.0
 11
106.1410116174738
 21
445.2180679433563
 31
0.0
  0
LINE
  5
244
330
1E
100
AcDbEntity
  8
STEMPEL
100
AcDbLine
 10
105.1410116174738
 20
457.2180679433556
 30
0.0
 11
105.1410116174738
 21
445.2180679433563
 31
0.0
  0
LINE
  5
248
330
1E
100
AcDbEntity
  8
STEMPEL
100
AcDbLine
 10
106.1410116174738
 20
470.2180679433563
 30
0.0
 11
105.1410116174738
 21
469.2180679433563
 31
0.0
  0
LINE
  5
249
330
1E
100
AcDbEntity
  8
STEMPEL
100
AcDbLine
 10
105.1410116174738
 20
469.2180679433563
 30
0.0
 11
105.1410116174738
 21
467.2180679433556
 31
0.0
  0
LINE
  5
24A
330
1E
100
AcDbEntity
  8
HILF
100
AcDbLine
 10
106.1410116174738
 20
470.2180679433563
 30
0.0
 11
106.1410116174738
 21
467.2180679433556
 31
0.0
  0
LINE
  5
24C
330
1E
100
AcDbEntity
  8
STEMPEL
100
AcDbLine
 10
115.1410116174738
 20
457.2180679433556
 30
0.0
 11
115.1410116174738
 21
445.2180679433563
 31
0.0
  0
LINE
  5
24D
330
1E
100
AcDbEntity
  8
HILF
100
AcDbLine
 10
114.1410116174738
 20
457.2180679433555
 30
0.0
 11
114.1410116174738
 21
445.2180679433563
 31
0.0
  0
LINE
  5
24F
330
1E
100
AcDbEntity
  8
STEMPEL
100
AcDbLine
 10
117.1410116174738
 20
457.2180679433556
 30
0.0
 11
117.1410116174739
 21
451.2180679433556
 31
0.0
  0
LINE
  5
253
330
1E
100
AcDbEntity
  8
STEMPEL
100
AcDbLine
 10
115.1410116174738
 20
469.2180679433563
 30
0.0
 11
114.1410116174738
 21
470.2180679433563
 31
0.0
  0
LINE
  5
254
330
1E
100
AcDbEntity
  8
STEMPEL
100
AcDbLine
 10
115.1410116174738
 20
469.2180679433563
 30
0.0
 11
115.1410116174738
 21
467.2180679433556
 31
0.0
  0
LINE
  5
255
330
1E
100
AcDbEntity
  8
HILF
100
AcDbLine
 10
114.1410116174738
 20
470.2180679433563
 30
0.0
 11
114.1410116174738
 21
467.2180679433556
 31
0.0
  0
ARC
  5
258
330
1E
100
AcDbEntity
  8
STEMPEL
100
AcDbCircle
 10
140.1410116174739
 20
454.2180679433556
 30
0.0
 40
3.0
100
AcDbArc
 50
269.9999999999996
 51
90.0000000000004
  0
LINE
  5
26B
330
1E
100
AcDbEntity
  8
MITTEL
100
AcDbLine
 10
166.1410116174739
 20
475.2180679433562
 30
0.0
 11
166.1410116174739
 21
445.2180679433562
 31
0.0
  0
LINE
  5
272
330
1E
100
AcDbEntity
  8
STEMPEL
100
AcDbLine
 10
170.1410116174739
 20
470.2180679433561
 30
0.0
 11
162.1410116174739
 21
470.2180679433562
 31
0.0
  0
LINE
  5
273
330
1E
100
AcDbEntity
  8
STEMPEL
100
AcDbLine
 10
161.141011617474
 20
469.2180679433563
 30
0.0
 11
171.1410116174738
 21
469.2180679433563
 31
0.0
  0
LINE
  5
275
330
1E
100
AcDbEntity
  8
STEMPEL
100
AcDbLine
 10
162.1410116174739
 20
470.2180679433562
 30
0.0
 11
161.1410116174739
 21
469.2180679433562
 31
0.0
  0
LINE
  5
276
330
1E
100
AcDbEntity
  8
HILF
100
AcDbLine
 10
162.1410116174739
 20
470.2180679433562
 30
0.0
 11
162.1410116174739
 21
467.2180679433556
 31
0.0
  0
LINE
  5
277
330
1E
100
AcDbEntity
  8
STEMPEL
100
AcDbLine
 10
161.1410116174739
 20
469.2180679433562
 30
0.0
 11
161.1410116174739
 21
467.2180679433556
 31
0.0
  0
LINE
  5
27A
330
1E
100
AcDbEntity
  8
STEMPEL
100
AcDbLine
 10
171.1410116174739
 20
469.2180679433561
 30
0.0
 11
170.1410116174739
 21
470.2180679433561
 31
0.0
  0
LINE
  5
27B
330
1E
100
AcDbEntity
  8
HILF
100
AcDbLine
 10
170.1410116174739
 20
470.2180679433561
 30
0.0
 11
170.1410116174739
 21
467.2180679433556
 31
0.0
  0
LINE
  5
27C
330
1E
100
AcDbEntity
  8
STEMPEL
100
AcDbLine
 10
171.1410116174739
 20
469.2180679433561
 30
0.0
 11
171.1410116174739
 21
467.2180679433557
 31
0.0
  0
ARC
  5
27E
330
1E
100
AcDbEntity
  8
STEMPEL
100
AcDbCircle
 10
193.5589589420541
 20
462.2180679433559
 30
0.0
 40
5.0
100
AcDbArc
 50
270.0
 51
358.9999999999982
  0
LINE
  5
27F
330
1E
100
AcDbEntity
  8
MITTEL
100
AcDbLine
 10
206.2168161666275
 20
446.2180679433557
 30
0.0
 11
206.2168161666275
 21
476.2180679433558
 31
0.0
  0
LINE
  5
280
330
1E
100
AcDbEntity
  8
STEMPEL
100
AcDbLine
 10
198.558197417836
 20
462.1308059111694
 30
0.0
 11
198.7168161666275
 21
471.2180679433556
 31
0.0
  0
LINE
  5
283
330
1E
100
AcDbEntity
  8
MITTEL
100
AcDbLine
 10
222.1410116174739
 20
462.2180679433559
 30
0.0
 11
222.1410116174738
 21
171.9858348963224
 31
0.0
  0
HATCH
  5
286
330
1E
100
AcDbEntity
  8
SCHRAFF
100
AcDbHatch
 10
0.0
 20
0.0
 30
0.0
210
0.0
220
0.0
230
1.0
  2
_USER
 70
     0
 71
     0
 91
        4
 92
        7
 72
     0
 73
     1
 93
       12
 10
341.1410116174737
 20
471.2180679433562
 10
340.1410116174738
 20
471.2180679433562
 10
340.1410116174736
 20
468.2180679433562
 10
340.6410116174738
 20
468.2180679433562
 10
340.6410116174738
 20
465.2180679433562
 10
340.1410116174736
 20
465.2180679433562
 10
340.1410116174738
 20
457.2180679433562
 10
340.6410116174738
 20
457.2180679433562
 10
340.6410116174737
 20
454.2180679433563
 10
340.1410116174738
 20
454.2180679433563
 10
340.1410116174738
 20
451.2180679433559
 10
341.1410116174737
 20
451.2180679433558
 97
        0
 92
        7
 72
     0
 73
     1
 93
        5
 10
342.1410116174737
 20
471.2180679433562
 10
341.1410116174737
 20
471.2180679433561
 10
341.1410116174737
 20
451.2180679433556
 10
341.3669318518754
 20
451.2180679433556
 10
342.1410116174737
 20
453.4817133972899
 97
        0
 92
        7
 72
     0
 73
     1
 93
        4
 10
347.1410116174737
 20
471.2180679433563
 10
346.1410116174737
 20
471.2180679433563
 10
346.1410116174737
 20
451.2180679433556
 10
347.1410116174737
 20
451.2180679433558
 97
        0
 92
        7
 72
     0
 73
     1
 93
       12
 10
348.1410116174737
 20
471.2180679433562
 10
347.1410116174736
 20
471.2180679433561
 10
347.1410116174737
 20
451.2180679433556
 10
348.1410116174737
 20
451.2180679433556
 10
348.1410116174739
 20
454.2180679433563
 10
347.6410116174739
 20
454.2180679433563
 10
347.6410116174739
 20
457.2180679433563
 10
348.1410116174739
 20
457.2180679433564
 10
348.1410116174736
 20
465.2180679433562
 10
347.6410116174737
 20
465.2180679433562
 10
347.6410116174739
 20
468.2180679433562
 10
348.1410116174737
 20
468.2180679433562
 97
        0
 75
     0
 76
     0
 52
135.0
 41
1.0
 77
     0
 78
     1
 53
135.0
 43
-2.858988382526149
 44
-51.80546767522992
 45
-0.7071067811865476
 46
-0.7071067811865475
 79
     0
 47
0.0527561546155446
 98
        4
 10
340.8029633565375
 20
469.6188986373049
 10
341.8588025892682
 20
469.6188986373049
 10
346.9268260095132
 20
469.8826790219275
 10
347.7714969505282
 20
469.8299221151439
  0
LINE
  5
289
330
1E
100
AcDbEntity
  8
STEMPEL
100
AcDbLine
 10
336.6410116174738
 20
471.2180679433556
 30
0.0
 11
351.6410116174738
 21
471.2180679433558
 31
0.0
  0
ARC
  5
290
330
1E
100
AcDbEntity
  8
STEMPEL
100
AcDbCircle
 10
218.874673391201
 20
462.2180679433556
 30
0.0
 40
5.0
100
AcDbArc
 50
181.0000000000017
 51
270.0
  0
LINE
  5
292
330
1E
100
AcDbEntity
  8
STEMPEL
100
AcDbLine
 10
213.875434915419
 20
462.1308059111693
 30
0.0
 11
213.7168161666275
 21
471.2180679433556
 31
0.0
  0
LINE
  5
295
330
1E
100
AcDbEntity
  8
MITTEL
100
AcDbLine
 10
236.7599451461197
 20
475.2180679433562
 30
0.0
 11
236.7599451461197
 21
445.2180679433562
 31
0.0
  0
LINE
  5
29A
330
1E
100
AcDbEntity
  8
STEMPEL
100
AcDbLine
 10
231.7599451461198
 20
469.2180679433563
 30
0.0
 11
241.7599451461196
 21
469.2180679433563
 31
0.0
  0
LINE
  5
29B
330
1E
100
AcDbEntity
  8
STEMPEL
100
AcDbLine
 10
240.7599451461197
 20
470.2180679433561
 30
0.0
 11
232.7599451461197
 21
470.2180679433562
 31
0.0
  0
LINE
  5
29F
330
1E
100
AcDbEntity
  8
STEMPEL
100
AcDbLine
 10
232.7599451461197
 20
470.2180679433562
 30
0.0
 11
231.7599451461197
 21
469.2180679433562
 31
0.0
  0
LINE
  5
2A0
330
1E
100
AcDbEntity
  8
HILF
100
AcDbLine
 10
232.7599451461197
 20
470.2180679433562
 30
0.0
 11
232.7599451461197
 21
467.2180679433555
 31
0.0
  0
LINE
  5
2A1
330
1E
100
AcDbEntity
  8
STEMPEL
100
AcDbLine
 10
231.7599451461197
 20
469.2180679433562
 30
0.0
 11
231.7599451461197
 21
467.2180679433556
 31
0.0
  0
LINE
  5
2A3
330
1E
100
AcDbEntity
  8
STEMPEL
100
AcDbLine
 10
241.7599451461196
 20
469.2180679433561
 30
0.0
 11
240.7599451461197
 21
470.2180679433561
 31
0.0
  0
LINE
  5
2A4
330
1E
100
AcDbEntity
  8
STEMPEL
100
AcDbLine
 10
241.7599451461196
 20
469.2180679433561
 30
0.0
 11
241.7599451461197
 21
467.2180679433556
 31
0.0
  0
LINE
  5
2A5
330
1E
100
AcDbEntity
  8
HILF
100
AcDbLine
 10
240.7599451461197
 20
470.2180679433561
 30
0.0
 11
240.7599451461197
 21
467.2180679433556
 31
0.0
  0
ARC
  5
2B2
330
1E
100
AcDbEntity
  8
STEMPEL
100
AcDbCircle
 10
304.1410116174739
 20
454.218067943356
 30
0.0
 40
2.999999999999886
100
AcDbArc
 50
90.0
 51
270.0
  0
LINE
  5
2B7
330
1E
100
AcDbEntity
  8
STEMPEL
100
AcDbLine
 10
321.615519258738
 20
470.2180679433563
 30
0.0
 11
329.615519258738
 21
470.2180679433563
 31
0.0
  0
LINE
  5
2B8
330
1E
100
AcDbEntity
  8
STEMPEL
100
AcDbLine
 10
330.615519258738
 20
469.2180679433564
 30
0.0
 11
320.615519258738
 21
469.2180679433564
 31
0.0
  0
LINE
  5
2BF
330
1E
100
AcDbEntity
  8
STEMPEL
100
AcDbLine
 10
320.615519258738
 20
469.2180679433563
 30
0.0
 11
321.615519258738
 21
470.2180679433563
 31
0.0
  0
LINE
  5
2C0
330
1E
100
AcDbEntity
  8
STEMPEL
100
AcDbLine
 10
320.615519258738
 20
469.2180679433563
 30
0.0
 11
320.6155192587381
 21
467.2180679433555
 31
0.0
  0
LINE
  5
2C2
330
1E
100
AcDbEntity
  8
HILF
100
AcDbLine
 10
321.615519258738
 20
470.2180679433563
 30
0.0
 11
321.6155192587381
 21
467.2180679433556
 31
0.0
  0
LINE
  5
2C3
330
1E
100
AcDbEntity
  8
STEMPEL
100
AcDbLine
 10
340.1410116174738
 20
457.2180679433561
 30
0.0
 11
340.1410116174736
 21
465.2180679433562
 31
0.0
  0
LINE
  5
2C4
330
1E
100
AcDbEntity
  8
HILF
100
AcDbLine
 10
341.1410116174737
 20
451.2180679433561
 30
0.0
 11
341.1410116174737
 21
471.2180679433562
 31
0.0
  0
ARC
  5
2C6
330
1E
100
AcDbEntity
  8
STEMPEL
100
AcDbCircle
 10
331.4831543929006
 20
462.2180679433559
 30
0.0
 40
5.0
100
AcDbArc
 50
270.0
 51
358.9999999999982
  0
LINE
  5
2C7
330
1E
100
AcDbEntity
  8
MITTEL
100
AcDbLine
 10
325.615519258738
 20
475.2180679433563
 30
0.0
 11
325.615519258738
 21
445.2180679433563
 31
0.0
  0
LINE
  5
2CA
330
1E
100
AcDbEntity
  8
STEMPEL
100
AcDbLine
 10
340.6410116174738
 20
457.2180679433562
 30
0.0
 11
340.1410116174738
 21
457.2180679433562
 31
0.0
  0
LINE
  5
2CB
330
1E
100
AcDbEntity
  8
STEMPEL
100
AcDbLine
 10
340.1410116174738
 20
451.2180679433563
 30
0.0
 11
340.1410116174738
 21
454.2180679433563
 31
0.0
  0
LINE
  5
2CC
330
1E
100
AcDbEntity
  8
STEMPEL
100
AcDbLine
 10
340.6410116174738
 20
454.2180679433563
 30
0.0
 11
340.1410116174738
 21
454.2180679433563
 31
0.0
  0
LINE
  5
2CD
330
1E
100
AcDbEntity
  8
STEMPEL
100
AcDbLine
 10
340.6410116174738
 20
454.2180679433562
 30
0.0
 11
340.6410116174738
 21
457.2180679433562
 31
0.0
  0
LINE
  5
2D0
330
1E
100
AcDbEntity
  8
STEMPEL
100
AcDbLine
 10
329.615519258738
 20
470.2180679433563
 30
0.0
 11
330.615519258738
 21
469.2180679433563
 31
0.0
  0
LINE
  5
2D1
330
1E
100
AcDbEntity
  8
HILF
100
AcDbLine
 10
329.615519258738
 20
470.2180679433563
 30
0.0
 11
329.6155192587379
 21
467.2180679433556
 31
0.0
  0
LINE
  5
2D2
330
1E
100
AcDbEntity
  8
STEMPEL
100
AcDbLine
 10
330.615519258738
 20
469.2180679433563
 30
0.0
 11
330.6155192587381
 21
467.2180679433556
 31
0.0
  0
LINE
  5
2D3
330
1E
100
AcDbEntity
  8
STEMPEL
100
AcDbLine
 10
340.1410116174736
 20
468.2180679433561
 30
0.0
 11
340.1410116174738
 21
471.2180679433562
 31
0.0
  0
LINE
  5
2D4
330
1E
100
AcDbEntity
  8
STEMPEL
100
AcDbLine
 10
336.4823928686825
 20
462.1308059111695
 30
0.0
 11
336.6410116174738
 21
471.2180679433556
 31
0.0
  0
LINE
  5
2D6
330
1E
100
AcDbEntity
  8
STEMPEL
100
AcDbLine
 10
340.6410116174738
 20
468.2180679433562
 30
0.0
 11
340.1410116174738
 21
468.2180679433562
 31
0.0
  0
LINE
  5
2D7
330
1E
100
AcDbEntity
  8
STEMPEL
100
AcDbLine
 10
340.6410116174738
 20
465.2180679433562
 30
0.0
 11
340.1410116174738
 21
465.2180679433562
 31
0.0
  0
LINE
  5
2D8
330
1E
100
AcDbEntity
  8
STEMPEL
100
AcDbLine
 10
340.6410116174738
 20
465.2180679433562
 30
0.0
 11
340.6410116174738
 21
468.2180679433563
 31
0.0
  0
LINE
  5
2D9
330
1E
100
AcDbEntity
  8
STEMPEL
100
AcDbLine
 10
356.7988688420472
 20
457.2180679433557
 30
0.0
 11
364.1410116174739
 21
457.2180679433557
 31
0.0
  0
LINE
  5
2DA
330
1E
100
AcDbEntity
  8
STEMPEL
100
AcDbLine
 10
342.1410116174737
 20
451.2180679433561
 30
0.0
 11
342.1410116174737
 21
471.2180679433562
 31
0.0
  0
LINE
  5
2DB
330
1E
100
AcDbEntity
  8
STEMPEL
100
AcDbLine
 10
348.1410116174739
 20
457.2180679433563
 30
0.0
 11
348.1410116174736
 21
465.2180679433562
 31
0.0
  0
LINE
  5
2DC
330
1E
100
AcDbEntity
  8
STEMPEL
100
AcDbLine
 10
346.1410116174737
 20
451.2180679433561
 30
0.0
 11
346.1410116174737
 21
471.2180679433562
 31
0.0
  0
LINE
  5
2DD
330
1E
100
AcDbEntity
  8
HILF
100
AcDbLine
 10
347.1410116174737
 20
451.2180679433561
 30
0.0
 11
347.1410116174737
 21
471.2180679433562
 31
0.0
  0
ARC
  5
2DE
330
1E
100
AcDbEntity
  8
STEMPEL
100
AcDbCircle
 10
356.7988688420473
 20
462.2180679433557
 30
0.0
 40
4.99999999999995
100
AcDbArc
 50
181.0000000000017
 51
269.9999999999992
  0
LINE
  5
2DF
330
1E
100
AcDbEntity
  8
MITTEL
100
AcDbLine
 10
344.1410116174739
 20
451.2180679433557
 30
0.0
 11
344.1410116174739
 21
476.2180679433559
 31
0.0
  0
LINE
  5
2E0
330
1E
100
AcDbEntity
  8
STEMPEL
100
AcDbLine
 10
348.1410116174739
 20
457.2180679433564
 30
0.0
 11
347.6410116174739
 21
457.2180679433563
 31
0.0
  0
LINE
  5
2E1
330
1E
100
AcDbEntity
  8
STEMPEL
100
AcDbLine
 10
348.1410116174739
 20
451.2180679433563
 30
0.0
 11
348.1410116174739
 21
454.2180679433563
 31
0.0
  0
LINE
  5
2E2
330
1E
100
AcDbEntity
  8
STEMPEL
100
AcDbLine
 10
348.1410116174739
 20
454.2180679433563
 30
0.0
 11
347.6410116174737
 21
454.2180679433563
 31
0.0
  0
LINE
  5
2E3
330
1E
100
AcDbEntity
  8
STEMPEL
100
AcDbLine
 10
347.6410116174739
 20
454.2180679433563
 30
0.0
 11
347.6410116174739
 21
457.2180679433564
 31
0.0
  0
LINE
  5
2E4
330
1E
100
AcDbEntity
  8
STEMPEL
100
AcDbLine
 10
348.1410116174736
 20
468.2180679433562
 30
0.0
 11
348.1410116174737
 21
471.2180679433562
 31
0.0
  0
LINE
  5
2E5
330
1E
100
AcDbEntity
  8
STEMPEL
100
AcDbLine
 10
348.1410116174737
 20
468.2180679433562
 30
0.0
 11
347.6410116174739
 21
468.2180679433562
 31
0.0
  0
LINE
  5
2E6
330
1E
100
AcDbEntity
  8
STEMPEL
100
AcDbLine
 10
348.1410116174737
 20
465.2180679433562
 30
0.0
 11
347.6410116174739
 21
465.2180679433562
 31
0.0
  0
LINE
  5
2E7
330
1E
100
AcDbEntity
  8
STEMPEL
100
AcDbLine
 10
347.6410116174739
 20
465.2180679433562
 30
0.0
 11
347.6410116174739
 21
468.2180679433563
 31
0.0
  0
LINE
  5
2E8
330
1E
100
AcDbEntity
  8
STEMPEL
100
AcDbLine
 10
351.6410116174738
 20
471.2180679433558
 30
0.0
 11
351.7996303662654
 21
462.1308059111692
 31
0.0
  0
ARC
  5
2EB
330
1E
100
AcDbEntity
  8
STEMPEL
100
AcDbCircle
 10
364.1410116174739
 20
454.2180679433557
 30
0.0
 40
3.000000000000028
100
AcDbArc
 50
270.0
 51
90.0
  0
TEXT
  5
33A
330
1E
100
AcDbEntity
  8
TEXT
 62
     1
100
AcDbText
 10
212.2464695008062
 20
293.4726724912962
 30
0.0
 40
7.0
  1
DN100
 50
90.0
 41
0.8
  7
GREEKS
 72
     1
 11
212.2464695008062
 21
305.8726724912962
 31
0.0
100
AcDbText
  0
DIMENSION
  5
33F
330
1E
100
AcDbEntity
  8
BEM
100
AcDbDimension
  2
*D1
 10
372.1410116174738
 20
494.1102775051121
 30
0.0
 11
222.1410116174738
 21
500.6102775051122
 31
0.0
 70
    32
  1
%%c<>
 71
     5
 42
300.0
  3
Standard
100
AcDbAlignedDimension
 13
72.14101161747379
 23
448.2180679433557
 33
0.0
 14
372.1410116174738
 24
448.2180679433557
 34
0.0
100
AcDbRotatedDimension
1001
ACAD
1000
DSTYLE
1002
{
1070
    40
1040
2.0
1070
    41
1040
3.5
1070
    42
1040
1.0
1070
    43
1040
7.0
1070
    44
1040
1.0
1070
    73
1070
     0
1070
    74
1070
     0
1070
    77
1070
     1
1070
    78
1070
     8
1070
    79
1070
     2
1070
   140
1040
3.5
1070
   141
1040
1.5
1070
   146
1040
0.5
1070
   147
1040
1.5
1070
   172
1070
     1
1070
   178
1070
     1
1070
   179
1070
     2
1070
   271
1070
     2
1070
   272
1070
     2
1070
   284
1070
     8
1070
   285
1070
     8
1070
   286
1070
     8
1002
}
  0
DIMENSION
  5
340
330
1E
100
AcDbEntity
  8
BEM
100
AcDbDimension
  2
*D2
 10
54.34464367721736
 20
175.2180679433566
 30
0.0
 11
47.84464367721734
 21
310.2180679433561
 31
0.0
 70
    32
 71
     5
 42
269.9999999999991
  3
Standard
100
AcDbAlignedDimension
 13
72.14101161747376
 23
445.2180679433556
 33
0.0
 14
172.0409209256813
 24
175.2180679433565
 34
0.0
 50
90.0
100
AcDbRotatedDimension
1001
ACAD
1000
DSTYLE
1002
{
1070
    40
1040
2.0
1070
    41
1040
3.5
1070
    42
1040
1.0
1070
    43
1040
7.0
1070
    44
1040
1.0
1070
    73
1070
     0
1070
    74
1070
     0
1070
    77
1070
     1
1070
    78
1070
     8
1070
    79
1070
     2
1070
   140
1040
3.5
1070
   141
1040
1.5
1070
   146
1040
0.5
1070
   147
1040
1.5
1070
   172
1070
     1
1070
   178
1070
     1
1070
   179
1070
     2
1070
   271
1070
     2
1070
   272
1070
     2
1070
   284
1070
     8
1070
   285
1070
     8
1070
   286
1070
     8
1002
}
  0
LINE
  5
343
330
1E
100
AcDbEntity
  8
TEXT
 62
     2
100
AcDbLine
 10
286.7584317162391
 20
234.0581716434172
 30
0.0
 11
393.7211953640026
 21
234.0581716434172
 31
0.0
  0
TEXT
  5
344
330
1E
100
AcDbEntity
  8
TEXT
 62
     1
100
AcDbText
 10
293.4842584165843
 20
237.0447121354703
 30
0.0
 40
7.0
  1
Ablaufkörper DN100
 41
0.8
100
AcDbText
  0
TEXT
  5
345
330
1E
100
AcDbEntity
  8
TEXT
 62
     1
100
AcDbText
 10
293.8402174194211
 20
223.5066988304219
 30
0.0
 40
7.0
  1
EDV-Art.Nr. 21981.100X
 41
0.8
100
AcDbText
  0
LINE
  5
346
330
1E
100
AcDbEntity
  8
TEXT
 62
     2
100
AcDbLine
 10
286.7584317162391
 20
234.0581716434172
 30
0.0
 11
272.5994965828627
 21
250.9013614498744
 31
0.0
  0
LINE
  5
347
330
1E
100
AcDbEntity
  8
TEXT
 62
     2
100
AcDbLine
 10
72.77298866000672
 20
546.7548577752536
 30
0.0
 11
186.3543509899395
 21
546.7548577752536
 31
0.0
  0
TEXT
  5
348
330
1E
100
AcDbEntity
  8
TEXT
 62
     1
100
AcDbText
 10
83.21400553462842
 20
550.8509797140638
 30
0.0
 40
7.0
  1
Losflansch DN100
 41
0.8
100
AcDbText
  0
TEXT
  5
349
330
1E
100
AcDbEntity
  8
TEXT
 62
     1
100
AcDbText
 10
83.56996453746512
 20
537.3129664090155
 30
0.0
 40
7.0
  1
EDV-Art.Nr. 21905.100X
 41
0.8
100
AcDbText
  0
LINE
  5
34A
330
1E
100
AcDbEntity
  8
TEXT
 62
     2
100
AcDbLine
 10
294.2316310985953
 20
536.3123721276324
 30
0.0
 11
405.761372432998
 21
536.3123721276324
 31
0.0
  0
TEXT
  5
34B
330
1E
100
AcDbEntity
  8
TEXT
 62
     1
100
AcDbText
 10
301.3134168017772
 20
525.7608993146371
 30
0.0
 40
7.0
  1
EDV-Art.Nr. 21810.125X
 41
0.8
100
AcDbText
  0
TEXT
  5
34C
330
1E
100
AcDbEntity
  8
TEXT
 62
     1
100
AcDbText
 10
300.9574577989405
 20
539.2989126196855
 30
0.0
 40
7.0
  1
Kompressionsdichtung
 41
0.8
100
AcDbText
  0
LINE
  5
34D
330
1E
100
AcDbEntity
  8
TEXT
 62
     2
100
AcDbLine
 10
72.77298866000672
 20
546.7548577752536
 30
0.0
 11
85.83631934388211
 21
496.0470404443791
 31
0.0
  0
LINE
  5
34E
330
1E
100
AcDbEntity
  8
TEXT
 62
     2
100
AcDbLine
 10
294.2316310985953
 20
536.3123721276324
 30
0.0
 11
300.7241037691294
 21
496.0847277708659
 31
0.0
  0
TEXT
  5
3A8
330
1E
100
AcDbEntity
  8
TEXT
100
AcDbText
 10
161.0085209177599
 20
63.10765040825732
 30
0.0
 40
4.0
  1
14.12.
 41
0.8
  7
GREEKS
 72
     1
 11
167.4085209177599
 21
63.10765040825732
 31
0.0
100
AcDbText
  0
TEXT
  5
3A9
330
1E
100
AcDbEntity
  8
TEXT
100
AcDbText
 10
194.4216048581257
 20
63.0896391972351
 30
0.0
 40
4.0
  1
Koeh
 41
0.8
  7
GREEKS
 72
     1
 11
199.6787477152686
 21
63.0896391972351
 31
0.0
100
AcDbText
  0
TEXT
  5
3AA
330
1E
100
AcDbEntity
  8
TEXT
100
AcDbText
 10
182.626132208084
 20
90.76363841023022
 30
0.0
 40
4.0
  1
DIN EN1124-3
 41
0.8
  7
GREEKS
 72
     1
 11
199.6166083985601
 21
90.76363841023022
 31
0.0
100
AcDbText
  0
TEXT
  5
3AB
330
1E
100
AcDbEntity
  8
TEXT
 62
     1
100
AcDbText
 10
224.7736801096948
 20
87.41748789253779
 30
0.0
 40
7.0
  1
Grundeinheit DN100
 41
0.8
  7
GREEKS
100
AcDbText
  0
TEXT
  5
3AD
330
1E
100
AcDbEntity
  8
TEXT
100
AcDbText
 10
225.1296391125316
 20
51.5033441758529
 30
0.0
 40
5.0
  1
EDV-Art.Nr. 21901.100X
 41
0.8
  7
GREEKS
100
AcDbText
  0
TEXT
  5
3AE
330
1E
100
AcDbEntity
  8
TEXT
100
AcDbText
 10
224.9837501577827
 20
42.62974153022632
 30
0.0
 40
4.0
  1
21901100W.DWG
 41
0.8
  7
GREEKS
100
AcDbText
  0
TEXT
  5
3B0
330
1E
100
AcDbEntity
  8
TEXT
 62
     1
100
AcDbText
 10
348.140890196393
 20
87.41748789253779
 30
0.0
 40
7.0
  1
21901100W
 41
0.8
  7
GREEKS
 72
     1
 11
370.540890196393
 21
87.41748789253779
 31
0.0
100
AcDbText
  0
LINE
  5
3F5
330
1E
100
AcDbEntity
  8
TEXT
 62
     2
100
AcDbLine
 10
86.83421576552568
 20
492.1735145658453
 30
0.0
 11
96.31394886755458
 21
455.3761168641652
 31
0.0
  0
LINE
  5
3F8
330
1E
100
AcDbEntity
  8
TEXT
 62
     2
100
AcDbLine
 10
301.3614298962099
 20
492.1358272393584
 30
0.0
 11
308.7099370777963
 21
446.6041556474809
 31
0.0
  0
HATCH
  5
43D
330
1E
100
AcDbEntity
  8
SCHRAFF
100
AcDbHatch
 10
0.0
 20
0.0
 30
0.0
210
0.0
220
0.0
230
1.0
  2
_USER
 70
     0
 71
     1
 91
        2
 92
        7
 72
     1
 73
     1
 93
       10
 10
272.9410116174739
 20
420.0281184496967
 42
-0.1989123673796685
 10
274.4054777115413
 20
423.5636523556296
 42
0.0
 10
281.3326855054038
 20
430.4908601494916
 42
0.0
 10
280.4841573679797
 20
431.3393882869154
 42
0.0
 10
273.5569495741174
 20
424.4121804930535
 42
0.1989123673796644
 10
271.7410116174739
 20
420.0281184496969
 42
0.0
 10
271.741011617474
 20
183.2704610748462
 42
0.0
 10
271.0365185042145
 20
175.2180679433561
 42
0.0
 10
272.2411023092665
 20
175.2180679433561
 42
0.0
 10
272.941011617474
 20
183.218067943357
 42
0.0
 97
       10
330
443
330
442
330
460
330
461
330
444
330
44B
330
448
330
46C
330
44C
330
44E
 92
        7
 72
     1
 73
     1
 93
       10
 10
172.5410116174739
 20
420.0281184496967
 42
0.1989123673796691
 10
170.7250736608303
 20
424.4121804930534
 42
0.0
 10
163.7978658669673
 20
431.3393882869162
 42
0.0
 10
162.9493377295434
 20
430.4908601494921
 42
0.0
 10
169.8765455234065
 20
423.5636523556295
 42
-0.1989123673796638
 10
171.3410116174739
 20
420.0281184496967
 42
0.0
 10
171.3410116174739
 20
183.2180679433562
 42
0.0
 10
172.0409209256813
 20
175.2180679433565
 42
0.0
 10
173.2455047307333
 20
175.2180679433565
 42
0.0
 10
172.5410116174739
 20
183.2704610748476
 42
0.0
 97
       10
330
445
330
45C
330
45D
330
447
330
446
330
44F
330
44D
330
46C
330
449
330
44A
 75
     0
 76
     0
 52
135.0
 41
2.0
 77
     0
 78
     1
 53
135.0
 43
-14.01118768633097
 44
1.978463783040865
 45
-1.414213562373095
 46
-1.414213562373094
 79
     0
 47
0.4814251419694602
 98
        2
 10
272.1246524545542
 20
352.0048071929422
 10
171.9339090584469
 20
358.2633342968339
  0
HATCH
  5
43E
330
1E
100
AcDbEntity
  8
SCHRAFF
100
AcDbHatch
 10
0.0
 20
0.0
 30
0.0
210
0.0
220
0.0
230
1.0
  2
_USER
 70
     0
 71
     1
 91
        4
 92
        7
 72
     1
 73
     1
 93
        4
 10
284.3025339863872
 20
430.9151242182034
 42
0.0
 10
282.6054777115395
 20
429.2180679433559
 42
0.0
 10
280.0598932992678
 20
429.2180679433559
 42
0.0
 10
279.211365161844
 20
428.3695398059321
 42
0.7207592200561206
 97
        4
330
462
330
441
330
442
330
440
 92
       23
 72
     0
 73
     1
 93
        3
 10
281.3326855054037
 20
430.4908601494915
 10
280.0598932992679
 20
429.2180679433558
 10
282.6054777115395
 20
429.2180679433558
 97
        3
330
442
330
441
330
460
 92
       23
 72
     0
 73
     1
 93
        3
 10
162.9493377295434
 20
430.4908601494921
 10
161.6765455234076
 20
429.2180679433563
 10
164.2221299356793
 20
429.2180679433563
 97
        3
330
45D
330
450
330
447
 92
        7
 72
     1
 73
     1
 93
        4
 10
165.0706580731038
 20
428.3695398059319
 42
0.0
 10
164.2221299356794
 20
429.2180679433563
 42
0.0
 10
161.6765455234078
 20
429.2180679433563
 42
0.0
 10
159.9794892485606
 20
430.9151242182034
 42
0.7207592200561206
 97
        4
330
447
330
450
330
45A
330
43F
 75
     0
 76
     0
 52
0.0
 41
0.1
 77
     0
 78
     1
 53
0.0
 43
-14.01118768633097
 44
1.978463783040865
 45
0.0
 46
0.1
 79
     0
 47
0.229449449055442
 98
        4
 10
281.3350099155452
 20
428.4812079789386
 10
281.5645838590119
 20
429.3990062591054
 10
163.3340211503325
 20
429.6284554792832
 10
162.8748732633996
 20
428.0223095385832
  0
ARC
  5
43F
102
{ACAD_REACTORS
330
43E
102
}
330
1E
100
AcDbEntity
  8
SCHRAFF
100
AcDbCircle
 10
162.9493377295441
 20
430.4908601494916
 30
0.0
 40
3.0
100
AcDbArc
 50
171.8698976458451
 51
315.0000000000034
  0
ARC
  5
440
102
{ACAD_REACTORS
330
43E
102
}
330
1E
100
AcDbEntity
  8
SCHRAFF
100
AcDbCircle
 10
281.3326855054037
 20
430.4908601494916
 30
0.0
 40
3.0
100
AcDbArc
 50
224.9999999999965
 51
8.130102354154827
  0
LINE
  5
441
102
{ACAD_REACTORS
330
43E
102
}
330
1E
100
AcDbEntity
  8
STEMPEL
100
AcDbLine
 10
280.0598932992679
 20
429.2180679433558
 30
0.0
 11
282.6054777115393
 21
429.2180679433559
 31
0.0
  0
LINE
  5
442
102
{ACAD_REACTORS
330
43E
330
43D
102
}
330
1E
100
AcDbEntity
  8
STEMPEL
100
AcDbLine
 10
281.3326855054037
 20
430.4908601494916
 30
0.0
 11
274.4054777115413
 21
423.5636523556296
 31
0.0
  0
ARC
  5
443
102
{ACAD_REACTORS
330
43D
102
}
330
1E
100
AcDbEntity
  8
STEMPEL
100
AcDbCircle
 10
277.9410116174739
 20
420.0281184496967
 30
0.0
 40
5.0
100
AcDbArc
 50
134.9999999999988
 51
180.0
  0
ARC
  5
444
102
{ACAD_REACTORS
330
43D
102
}
330
1E
100
AcDbEntity
  8
STEMPEL
100
AcDbCircle
 10
277.9410116174739
 20
420.0281184496967
 30
0.0
 40
6.2
100
AcDbArc
 50
134.9999999999988
 51
180.0
  0
ARC
  5
445
102
{ACAD_REACTORS
330
43D
102
}
330
1E
100
AcDbEntity
  8
STEMPEL
100
AcDbCircle
 10
166.3410116174739
 20
420.0281184496967
 30
0.0
 40
6.2
100
AcDbArc
 50
0.0
 51
45.00000000000115
  0
ARC
  5
446
102
{ACAD_REACTORS
330
43D
102
}
330
1E
100
AcDbEntity
  8
STEMPEL
100
AcDbCircle
 10
166.3410116174739
 20
420.0281184496967
 30
0.0
 40
5.0
100
AcDbArc
 50
0.0
 51
45.00000000000115
  0
LINE
  5
447
102
{ACAD_REACTORS
330
43E
330
43D
102
}
330
1E
100
AcDbEntity
  8
STEMPEL
100
AcDbLine
 10
162.8848090046916
 20
430.5553888743439
 30
0.0
 11
169.8765455234065
 21
423.5636523556295
 31
0.0
  0
LINE
  5
448
102
{ACAD_REACTORS
330
43D
102
}
330
1E
100
AcDbEntity
  8
STEMPEL
100
AcDbLine
 10
271.741011617474
 20
183.2704610748463
 30
0.0
 11
271.0365185042145
 21
175.2180679433561
 31
0.0
  0
LINE
  5
449
102
{ACAD_REACTORS
330
43D
102
}
330
1E
100
AcDbEntity
  8
STEMPEL
100
AcDbLine
 10
172.5410116174739
 20
183.270461074847
 30
0.0
 11
173.2455047307333
 21
175.2180679433565
 31
0.0
  0
LINE
  5
44A
102
{ACAD_REACTORS
330
43D
102
}
330
1E
100
AcDbEntity
  8
STEMPEL
100
AcDbLine
 10
172.5410116174739
 20
420.0281184496967
 30
0.0
 11
172.5410116174739
 21
183.270461074847
 31
0.0
  0
LINE
  5
44B
102
{ACAD_REACTORS
330
43D
102
}
330
1E
100
AcDbEntity
  8
STEMPEL
100
AcDbLine
 10
271.7410116174739
 20
420.0281184496967
 30
0.0
 11
271.741011617474
 21
183.2704610748463
 31
0.0
  0
LINE
  5
44C
102
{ACAD_REACTORS
330
43D
102
}
330
1E
100
AcDbEntity
  8
STEMPEL
100
AcDbLine
 10
272.9410116174739
 20
183.2180679433563
 30
0.0
 11
272.2411023092665
 21
175.2180679433561
 31
0.0
  0
LINE
  5
44D
102
{ACAD_REACTORS
330
43D
102
}
330
1E
100
AcDbEntity
  8
STEMPEL
100
AcDbLine
 10
171.3410116174739
 20
183.2180679433567
 30
0.0
 11
172.0409209256813
 21
175.2180679433565
 31
0.0
  0
LINE
  5
44E
102
{ACAD_REACTORS
330
43D
102
}
330
1E
100
AcDbEntity
  8
STEMPEL
100
AcDbLine
 10
272.9410116174739
 20
420.0281184496967
 30
0.0
 11
272.9410116174739
 21
183.2180679433563
 31
0.0
  0
LINE
  5
44F
102
{ACAD_REACTORS
330
43D
102
}
330
1E
100
AcDbEntity
  8
STEMPEL
100
AcDbLine
 10
171.3410116174739
 20
420.0281184496967
 30
0.0
 11
171.3410116174739
 21
183.2180679433567
 31
0.0
  0
LINE
  5
450
102
{ACAD_REACTORS
330
43E
102
}
330
1E
100
AcDbEntity
  8
STEMPEL
100
AcDbLine
 10
161.6765455234077
 20
429.2180679433563
 30
0.0
 11
164.2221299356794
 21
429.2180679433563
 31
0.0
  0
LINE
  5
451
330
1E
100
AcDbEntity
  8
STEMPEL
100
AcDbLine
 10
280.4841573679798
 20
431.3393882869156
 30
0.0
 11
163.7978658669678
 21
431.3393882869156
 31
0.0
  0
LINE
  5
452
102
{ACAD_REACTORS
330
469
102
}
330
1E
100
AcDbEntity
  8
STEMPEL
100
AcDbLine
 10
78.26943874222007
 20
445.2180679433566
 30
0.0
 11
366.0125844927276
 21
445.2180679433555
 31
0.0
  0
LINE
  5
453
330
1E
100
AcDbEntity
  8
STEMPEL
100
AcDbLine
 10
74.26943874222008
 20
438.2180679433566
 30
0.0
 11
152.6765455234069
 21
438.2180679433564
 31
0.0
  0
LINE
  5
454
102
{ACAD_REACTORS
330
469
102
}
330
1E
100
AcDbEntity
  8
STEMPEL
100
AcDbLine
 10
78.26943874222007
 20
442.2180679433566
 30
0.0
 11
147.8481183986607
 21
442.2180679433565
 31
0.0
  0
LINE
  5
455
102
{ACAD_REACTORS
330
469
102
}
330
1E
100
AcDbEntity
  8
STEMPEL
100
AcDbLine
 10
72.14811839866041
 20
440.3393882869166
 30
0.0
 11
76.14811839866042
 21
444.3393882869163
 31
0.0
  0
LINE
  5
456
102
{ACAD_REACTORS
330
469
102
}
330
1E
100
AcDbEntity
  8
STEMPEL
100
AcDbLine
 10
74.26943874222008
 20
438.2180679433566
 30
0.0
 11
78.26943874222007
 21
442.2180679433567
 31
0.0
  0
LINE
  5
457
102
{ACAD_REACTORS
330
469
102
}
330
1E
100
AcDbEntity
  8
STEMPEL
100
AcDbLine
 10
72.14811839866053
 20
440.3393882869163
 30
0.0
 11
74.26943874222008
 21
438.2180679433566
 31
0.0
  0
ARC
  5
458
102
{ACAD_REACTORS
330
469
102
}
330
1E
100
AcDbEntity
  8
STEMPEL
100
AcDbCircle
 10
78.26943874222007
 20
442.2180679433567
 30
0.0
 40
3.0
100
AcDbArc
 50
90.0
 51
135.0
  0
ARC
  5
459
102
{ACAD_REACTORS
330
469
102
}
330
1E
100
AcDbEntity
  8
STEMPEL
100
AcDbCircle
 10
147.8481183986607
 20
440.2180679433563
 30
0.0
 40
5.0
100
AcDbArc
 50
45.00000000000115
 51
90.0
  0
LINE
  5
45A
102
{ACAD_REACTORS
330
469
330
43E
102
}
330
1E
100
AcDbEntity
  8
STEMPEL
100
AcDbLine
 10
149.2623319610338
 20
441.6322815057293
 30
0.0
 11
161.6765455234077
 21
429.2180679433563
 31
0.0
  0
ARC
  5
45B
102
{ACAD_REACTORS
330
469
102
}
330
1E
100
AcDbEntity
  8
STEMPEL
100
AcDbCircle
 10
147.8481183986607
 20
440.2180679433563
 30
0.0
 40
2.0
100
AcDbArc
 50
45.00000000000115
 51
90.0
  0
LINE
  5
45C
102
{ACAD_REACTORS
330
469
330
43D
102
}
330
1E
100
AcDbEntity
  8
STEMPEL
100
AcDbLine
 10
151.3836523045933
 20
443.7536018492891
 30
0.0
 11
170.7250736608303
 21
424.4121804930534
 31
0.0
  0
LINE
  5
45D
102
{ACAD_REACTORS
330
469
330
43E
330
43D
102
}
330
1E
100
AcDbEntity
  8
STEMPEL
  6
STRICHPUNKT
100
AcDbLine
 10
163.7978658669672
 20
431.339388286916
 30
0.0
 11
161.6765455234077
 21
429.2180679433563
 31
0.0
  0
LINE
  5
45E
330
1E
100
AcDbEntity
  8
STEMPEL
100
AcDbLine
 10
291.6054777115402
 20
438.2180679433558
 30
0.0
 11
370.0125844927289
 21
438.2180679433556
 31
0.0
  0
LINE
  5
45F
330
1E
100
AcDbEntity
  8
STEMPEL
100
AcDbLine
 10
296.433904836287
 20
442.218067943356
 30
0.0
 11
366.0125844927287
 21
442.2180679433556
 31
0.0
  0
LINE
  5
460
102
{ACAD_REACTORS
330
43E
330
43D
102
}
330
1E
100
AcDbEntity
  8
STEMPEL
  6
STRICHPUNKT
100
AcDbLine
 10
280.4841573679798
 20
431.3393882869156
 30
0.0
 11
282.6054777115394
 21
429.2180679433559
 31
0.0
  0
LINE
  5
461
102
{ACAD_REACTORS
330
43D
102
}
330
1E
100
AcDbEntity
  8
STEMPEL
100
AcDbLine
 10
292.8983709303545
 20
443.7536018492891
 30
0.0
 11
273.5569495741174
 21
424.4121804930535
 31
0.0
  0
LINE
  5
462
102
{ACAD_REACTORS
330
43E
102
}
330
1E
100
AcDbEntity
  8
STEMPEL
100
AcDbLine
 10
295.019691273914
 20
441.6322815057293
 30
0.0
 11
282.6054777115394
 21
429.2180679433559
 31
0.0
  0
ARC
  5
463
330
1E
100
AcDbEntity
  8
STEMPEL
100
AcDbCircle
 10
296.433904836287
 20
440.2180679433563
 30
0.0
 40
2.0
100
AcDbArc
 50
90.0
 51
134.9999999999988
  0
ARC
  5
464
330
1E
100
AcDbEntity
  8
STEMPEL
100
AcDbCircle
 10
296.433904836287
 20
440.2180679433563
 30
0.0
 40
5.0
100
AcDbArc
 50
90.0
 51
134.9999999999988
  0
LINE
  5
465
330
1E
100
AcDbEntity
  8
STEMPEL
100
AcDbLine
 10
372.1469830425882
 20
440.3263100806156
 30
0.0
 11
368.1339048362873
 21
444.3393882869163
 31
0.0
  0
LINE
  5
466
330
1E
100
AcDbEntity
  8
STEMPEL
100
AcDbLine
 10
372.1469830425882
 20
440.3263100806156
 30
0.0
 11
370.0256626990286
 21
438.2049897370558
 31
0.0
  0
LINE
  5
467
330
1E
100
AcDbEntity
  8
STEMPEL
100
AcDbLine
 10
370.0125844927289
 20
438.2180679433556
 30
0.0
 11
366.0125844927276
 21
442.2180679433567
 31
0.0
  0
ARC
  5
468
330
1E
100
AcDbEntity
  8
STEMPEL
100
AcDbCircle
 10
366.0125844927276
 20
442.2180679433567
 30
0.0
 40
3.0
100
AcDbArc
 50
45.0
 51
90.0
  0
HATCH
  5
469
330
1E
100
AcDbEntity
  8
SCHRAFF
100
AcDbHatch
 10
0.0
 20
0.0
 30
0.0
210
0.0
220
0.0
230
1.0
  2
_USER
 70
     0
 71
     1
 91
        1
 92
        7
 72
     1
 73
     1
 93
       11
 10
78.26943874222007
 20
445.2180679433566
 42
0.1989123673796551
 10
76.14811839866042
 20
444.3393882869163
 42
0.0
 10
72.14811839866041
 20
440.3393882869166
 42
0.0
 10
74.26943874222008
 20
438.2180679433566
 42
0.0
 10
78.2694387422199
 20
442.2180679433565
 42
0.0
 10
147.8481183986607
 20
442.2180679433565
 42
-0.1989123673796159
 10
149.2623319610336
 20
441.6322815057296
 42
0.0
 10
161.6765455234077
 20
429.2180679433563
 42
0.0
 10
163.7978658669672
 20
431.339388286916
 42
0.0
 10
151.3836523045933
 20
443.7536018492891
 42
0.1989123673796481
 10
147.8481183986607
 20
445.2180679433563
 42
0.0
 97
       11
330
452
330
458
330
455
330
457
330
456
330
454
330
45B
330
45A
330
45D
330
45C
330
459
 75
     0
 76
     0
 52
45.0
 41
2.0
 77
     0
 78
     1
 53
45.0
 43
-27.05267661562491
 44
169.9072251353727
 45
-1.414213562373094
 46
1.414213562373095
 79
     0
 47
0.4118729359136521
 98
        1
 10
137.4106845388574
 20
443.7737051633493
  0
HATCH
  5
46A
330
1E
100
AcDbEntity
  8
SCHRAFF
100
AcDbHatch
 10
0.0
 20
0.0
 30
0.0
210
0.0
220
0.0
230
1.0
  2
_USER
 70
     0
 71
     0
 91
        1
 92
        7
 72
     1
 73
     1
 93
       11
 10
296.433904836287
 20
445.2180679433563
 42
0.0
 10
366.0125844927277
 20
445.2180679433566
 42
-0.1989123673796547
 10
368.1339048362874
 20
444.3393882869163
 42
0.0
 10
372.1339048362874
 20
440.3393882869165
 42
0.0
 10
370.0125844927277
 20
438.2180679433566
 42
0.0
 10
366.0125844927279
 20
442.2180679433565
 42
0.0
 10
296.433904836287
 20
442.2180679433565
 42
0.1989123673796182
 10
295.0196912739142
 20
441.6322815057296
 42
0.0
 10
282.6054777115401
 20
429.2180679433563
 42
0.0
 10
280.4841573679805
 20
431.339388286916
 42
0.0
 10
292.8983709303545
 20
443.7536018492891
 42
-0.1989123673796434
 97
        0
 75
     0
 76
     0
 52
45.0
 41
2.0
 77
     0
 78
     1
 53
45.0
 43
-27.05267661562491
 44
169.9072251353727
 45
-1.414213562373094
 46
1.414213562373095
 79
     0
 47
0.4118729359136521
 98
        1
 10
306.8713386960904
 20
443.7737051633493
  0
LINE
  5
46B
330
1E
100
AcDbEntity
  8
HILF
100
AcDbLine
 10
173.7410116174739
 20
183.2180679433566
 30
0.0
 11
270.5410116174739
 21
183.2180679433563
 31
0.0
  0
LINE
  5
46C
102
{ACAD_REACTORS
330
43D
102
}
330
1E
100
AcDbEntity
  8
STEMPEL
100
AcDbLine
 10
172.0409209256813
 20
175.2180679433565
 30
0.0
 11
272.2411023092665
 21
175.2180679433561
 31
0.0
  0
LINE
  5
46D
330
1E
100
AcDbEntity
  8
HILF
100
AcDbLine
 10
173.3503334344834
 20
422.4007557303603
 30
0.0
 11
270.9316898004644
 21
422.4007557303603
 31
0.0
  0
DIMENSION
  5
477
330
1E
100
AcDbEntity
  8
BEM
100
AcDbDimension
  2
*D3
 10
171.3410116174739
 20
155.8592217898035
 30
0.0
 11
222.1410116174739
 21
162.3592217898035
 31
0.0
 70
    32
  1
%%c<>
 71
     5
 42
101.6
  3
Standard
100
AcDbAlignedDimension
 13
272.9410116174739
 23
183.2180679433563
 33
0.0
 14
171.3410116174739
 24
183.2180679433567
 34
0.0
100
AcDbRotatedDimension
1001
ACAD
1000
DSTYLE
1002
{
1070
    40
1040
2.0
1070
    41
1040
3.5
1070
    42
1040
1.0
1070
    43
1040
7.0
1070
    44
1040
1.0
1070
    73
1070
     0
1070
    74
1070
     0
1070
    77
1070
     1
1070
    78
1070
     8
1070
    79
1070
     2
1070
   140
1040
3.5
1070
   141
1040
1.5
1070
   146
1040
0.5
1070
   147
1040
1.5
1070
   172
1070
     1
1070
   178
1070
     1
1070
   179
1070
     2
1070
   271
1070
     2
1070
   272
1070
     2
1070
   284
1070
     8
1070
   285
1070
     8
1070
   286
1070
     8
1002
}
  0
TEXT
  5
4DE
330
1E
100
AcDbEntity
  8
VOLL
100
AcDbText
 10
393.2909487082639
 20
373.0306549969924
 30
0.0
 40
1.8
  1

  7
GREEKS
100
AcDbText
  0
ARC
  5
4F5
330
1E
100
AcDbEntity
  8
STEMPEL
100
AcDbCircle
 10
110.1410116174738
 20
436.9071788109008
 30
0.0
 40
30.31088913245485
100
AcDbArc
 50
81.78678929826059
 51
98.2132107017394
  0
ARC
  5
4F6
330
1E
100
AcDbEntity
  8
STEMPEL
100
AcDbCircle
 10
103.6458210890906
 20
459.5237622355711
 30
0.0
 40
7.694305707784447
100
AcDbArc
 50
73.65710669401657
 51
106.3428933059865
  0
ARC
  5
4F7
330
1E
100
AcDbEntity
  8
STEMPEL
100
AcDbCircle
 10
116.6362021458571
 20
459.5237622355711
 30
0.0
 40
7.694305707784447
100
AcDbArc
 50
73.65710669401345
 51
106.3428933059834
  0
ARC
  5
4F8
330
1E
100
AcDbEntity
  8
HILF
100
AcDbCircle
 10
110.1410116174738
 20
437.3196068956944
 30
0.0
 40
22.41111549782308
100
AcDbArc
 50
78.85962783890455
 51
101.1403721610954
  0
ARC
  5
4F9
330
1E
100
AcDbEntity
  8
HILF
100
AcDbCircle
 10
116.6362021458571
 20
453.969581793826
 30
0.0
 40
5.761140599691502
100
AcDbArc
 50
67.92594526326054
 51
112.0740547367394
  0
ARC
  5
4FA
330
1E
100
AcDbEntity
  8
HILF
100
AcDbCircle
 10
103.6458210890906
 20
453.969581793826
 30
0.0
 40
5.761140599691502
100
AcDbArc
 50
67.92594526326054
 51
112.0740547367394
  0
LINE
  5
4FB
330
1E
100
AcDbEntity
  8
STEMPEL
100
AcDbLine
 10
102.6410116174738
 20
467.2180679433556
 30
0.0
 11
117.6410116174738
 21
467.2180679433556
 31
0.0
  0
LINE
  5
4FC
330
1E
100
AcDbEntity
  8
STEMPEL
100
AcDbLine
 10
118.8012656553182
 20
459.3084244595555
 30
0.0
 11
118.8012656553182
 21
466.9071788109002
 31
0.0
  0
LINE
  5
4FD
330
1E
100
AcDbEntity
  8
STEMPEL
100
AcDbLine
 10
114.471138636396
 20
459.3084244595555
 30
0.0
 11
114.471138636396
 21
466.9071788109002
 31
0.0
  0
LINE
  5
4FE
330
1E
100
AcDbEntity
  8
STEMPEL
100
AcDbLine
 10
105.8108845985516
 20
459.3084244595555
 30
0.0
 11
105.8108845985516
 21
466.9071788109002
 31
0.0
  0
LINE
  5
4FF
330
1E
100
AcDbEntity
  8
STEMPEL
100
AcDbLine
 10
120.5475267249681
 20
458.6728374089451
 30
0.0
 11
99.73449650997958
 21
458.6728374089451
 31
0.0
  0
LINE
  5
500
330
1E
100
AcDbEntity
  8
STEMPEL
100
AcDbLine
 10
120.2910116174738
 20
457.2180679433556
 30
0.0
 11
99.99101161747388
 21
457.2180679433556
 31
0.0
  0
LINE
  5
501
330
1E
100
AcDbEntity
  8
STEMPEL
100
AcDbLine
 10
101.4807575796295
 20
459.3084244595555
 30
0.0
 11
101.4807575796295
 21
466.9071788109002
 31
0.0
  0
LINE
  5
502
330
1E
100
AcDbEntity
  8
STEMPEL
100
AcDbLine
 10
102.6410116174738
 20
467.2180679433556
 30
0.0
 11
101.4807575796295
 21
466.9071788109002
 31
0.0
  0
LINE
  5
503
330
1E
100
AcDbEntity
  8
STEMPEL
100
AcDbLine
 10
118.8012656553182
 20
466.9071788109002
 30
0.0
 11
117.6410116174738
 21
467.2180679433556
 31
0.0
  0
LINE
  5
504
330
1E
100
AcDbEntity
  8
STEMPEL
100
AcDbLine
 10
120.5475267249681
 20
458.6728374089451
 30
0.0
 11
118.8012656553182
 21
459.3084244595555
 31
0.0
  0
LINE
  5
505
330
1E
100
AcDbEntity
  8
STEMPEL
100
AcDbLine
 10
101.4807575796295
 20
459.3084244595555
 30
0.0
 11
99.73449650997963
 21
458.6728374089451
 31
0.0
  0
ARC
  5
506
330
1E
100
AcDbEntity
  8
STEMPEL
100
AcDbCircle
 10
99.99101161747388
 20
457.9680679433557
 30
0.0
 40
0.7500000000000013
100
AcDbArc
 50
109.9999999999995
 51
269.9999991462263
  0
ARC
  5
507
330
1E
100
AcDbEntity
  8
STEMPEL
100
AcDbCircle
 10
120.2910116174738
 20
457.9680679433557
 30
0.0
 40
0.750000000000001
100
AcDbArc
 50
269.9999991462263
 51
70.00000000000047
  0
ARC
  5
508
330
1E
100
AcDbEntity
  8
STEMPEL
100
AcDbCircle
 10
166.1410116174739
 20
436.9071788109008
 30
0.0
 40
30.31088913245485
100
AcDbArc
 50
81.78678929826059
 51
98.2132107017394
  0
ARC
  5
509
330
1E
100
AcDbEntity
  8
STEMPEL
100
AcDbCircle
 10
159.6458210890907
 20
459.5237622355711
 30
0.0
 40
7.694305707784447
100
AcDbArc
 50
73.65710669401657
 51
106.3428933059865
  0
ARC
  5
50A
330
1E
100
AcDbEntity
  8
STEMPEL
100
AcDbCircle
 10
172.6362021458573
 20
459.5237622355711
 30
0.0
 40
7.694305707784447
100
AcDbArc
 50
73.65710669401345
 51
106.3428933059834
  0
ARC
  5
50B
330
1E
100
AcDbEntity
  8
HILF
100
AcDbCircle
 10
166.1410116174739
 20
437.3196068956944
 30
0.0
 40
22.41111549782308
100
AcDbArc
 50
78.85962783890455
 51
101.1403721610954
  0
ARC
  5
50C
330
1E
100
AcDbEntity
  8
HILF
100
AcDbCircle
 10
172.6362021458573
 20
453.969581793826
 30
0.0
 40
5.761140599691502
100
AcDbArc
 50
67.92594526326054
 51
112.0740547367394
  0
ARC
  5
50D
330
1E
100
AcDbEntity
  8
HILF
100
AcDbCircle
 10
159.6458210890907
 20
453.969581793826
 30
0.0
 40
5.761140599691502
100
AcDbArc
 50
67.92594526326054
 51
112.0740547367394
  0
LINE
  5
50E
330
1E
100
AcDbEntity
  8
STEMPEL
100
AcDbLine
 10
158.6410116174739
 20
467.2180679433556
 30
0.0
 11
173.6410116174739
 21
467.2180679433556
 31
0.0
  0
LINE
  5
50F
330
1E
100
AcDbEntity
  8
STEMPEL
100
AcDbLine
 10
174.8012656553183
 20
459.3084244595555
 30
0.0
 11
174.8012656553183
 21
466.9071788109002
 31
0.0
  0
LINE
  5
510
330
1E
100
AcDbEntity
  8
STEMPEL
100
AcDbLine
 10
170.4711386363961
 20
459.3084244595555
 30
0.0
 11
170.4711386363961
 21
466.9071788109002
 31
0.0
  0
LINE
  5
511
330
1E
100
AcDbEntity
  8
STEMPEL
100
AcDbLine
 10
161.8108845985517
 20
459.3084244595555
 30
0.0
 11
161.8108845985517
 21
466.9071788109002
 31
0.0
  0
LINE
  5
512
330
1E
100
AcDbEntity
  8
STEMPEL
100
AcDbLine
 10
176.5475267249682
 20
458.6728374089451
 30
0.0
 11
155.7344965099797
 21
458.6728374089451
 31
0.0
  0
LINE
  5
513
330
1E
100
AcDbEntity
  8
STEMPEL
100
AcDbLine
 10
176.2910116174739
 20
457.2180679433556
 30
0.0
 11
155.991011617474
 21
457.2180679433556
 31
0.0
  0
LINE
  5
514
330
1E
100
AcDbEntity
  8
STEMPEL
100
AcDbLine
 10
157.4807575796296
 20
459.3084244595555
 30
0.0
 11
157.4807575796296
 21
466.9071788109002
 31
0.0
  0
LINE
  5
515
330
1E
100
AcDbEntity
  8
STEMPEL
100
AcDbLine
 10
158.6410116174739
 20
467.2180679433556
 30
0.0
 11
157.4807575796296
 21
466.9071788109002
 31
0.0
  0
LINE
  5
516
330
1E
100
AcDbEntity
  8
STEMPEL
100
AcDbLine
 10
174.8012656553183
 20
466.9071788109002
 30
0.0
 11
173.6410116174739
 21
467.2180679433556
 31
0.0
  0
LINE
  5
517
330
1E
100
AcDbEntity
  8
STEMPEL
100
AcDbLine
 10
176.5475267249682
 20
458.6728374089451
 30
0.0
 11
174.8012656553183
 21
459.3084244595555
 31
0.0
  0
LINE
  5
518
330
1E
100
AcDbEntity
  8
STEMPEL
100
AcDbLine
 10
157.4807575796296
 20
459.3084244595555
 30
0.0
 11
155.7344965099797
 21
458.6728374089451
 31
0.0
  0
ARC
  5
519
330
1E
100
AcDbEntity
  8
STEMPEL
100
AcDbCircle
 10
155.991011617474
 20
457.9680679433557
 30
0.0
 40
0.7500000000000013
100
AcDbArc
 50
109.9999999999995
 51
269.9999991462263
  0
ARC
  5
51A
330
1E
100
AcDbEntity
  8
STEMPEL
100
AcDbCircle
 10
176.2910116174739
 20
457.9680679433557
 30
0.0
 40
0.750000000000001
100
AcDbArc
 50
269.9999991462263
 51
70.00000000000047
  0
ARC
  5
51B
330
1E
100
AcDbEntity
  8
STEMPEL
100
AcDbCircle
 10
236.7599451461197
 20
436.9071788109007
 30
0.0
 40
30.31088913245485
100
AcDbArc
 50
81.78678929826059
 51
98.2132107017394
  0
ARC
  5
51C
330
1E
100
AcDbEntity
  8
STEMPEL
100
AcDbCircle
 10
230.2647546177364
 20
459.5237622355711
 30
0.0
 40
7.694305707784447
100
AcDbArc
 50
73.65710669401657
 51
106.3428933059865
  0
ARC
  5
51D
330
1E
100
AcDbEntity
  8
STEMPEL
100
AcDbCircle
 10
243.255135674503
 20
459.5237622355711
 30
0.0
 40
7.694305707784447
100
AcDbArc
 50
73.65710669401345
 51
106.3428933059834
  0
ARC
  5
51E
330
1E
100
AcDbEntity
  8
HILF
100
AcDbCircle
 10
236.7599451461197
 20
437.3196068956944
 30
0.0
 40
22.41111549782308
100
AcDbArc
 50
78.85962783890455
 51
101.1403721610954
  0
ARC
  5
51F
330
1E
100
AcDbEntity
  8
HILF
100
AcDbCircle
 10
243.255135674503
 20
453.9695817938259
 30
0.0
 40
5.761140599691502
100
AcDbArc
 50
67.92594526326054
 51
112.0740547367394
  0
ARC
  5
520
330
1E
100
AcDbEntity
  8
HILF
100
AcDbCircle
 10
230.2647546177364
 20
453.9695817938259
 30
0.0
 40
5.761140599691502
100
AcDbArc
 50
67.92594526326054
 51
112.0740547367394
  0
LINE
  5
521
330
1E
100
AcDbEntity
  8
STEMPEL
100
AcDbLine
 10
229.2599451461196
 20
467.2180679433556
 30
0.0
 11
244.2599451461197
 21
467.2180679433556
 31
0.0
  0
LINE
  5
522
330
1E
100
AcDbEntity
  8
STEMPEL
100
AcDbLine
 10
245.420199183964
 20
459.3084244595555
 30
0.0
 11
245.420199183964
 21
466.9071788109002
 31
0.0
  0
LINE
  5
523
330
1E
100
AcDbEntity
  8
STEMPEL
100
AcDbLine
 10
241.0900721650419
 20
459.3084244595555
 30
0.0
 11
241.0900721650419
 21
466.9071788109002
 31
0.0
  0
LINE
  5
524
330
1E
100
AcDbEntity
  8
STEMPEL
100
AcDbLine
 10
232.4298181271974
 20
459.3084244595555
 30
0.0
 11
232.4298181271974
 21
466.9071788109002
 31
0.0
  0
LINE
  5
525
330
1E
100
AcDbEntity
  8
STEMPEL
100
AcDbLine
 10
247.1664602536139
 20
458.672837408945
 30
0.0
 11
226.3534300386254
 21
458.672837408945
 31
0.0
  0
LINE
  5
526
330
1E
100
AcDbEntity
  8
STEMPEL
100
AcDbLine
 10
246.9099451461196
 20
457.2180679433555
 30
0.0
 11
226.6099451461197
 21
457.2180679433555
 31
0.0
  0
LINE
  5
527
330
1E
100
AcDbEntity
  8
STEMPEL
100
AcDbLine
 10
228.0996911082753
 20
459.3084244595555
 30
0.0
 11
228.0996911082753
 21
466.9071788109002
 31
0.0
  0
LINE
  5
528
330
1E
100
AcDbEntity
  8
STEMPEL
100
AcDbLine
 10
229.2599451461196
 20
467.2180679433556
 30
0.0
 11
228.0996911082753
 21
466.9071788109002
 31
0.0
  0
LINE
  5
529
330
1E
100
AcDbEntity
  8
STEMPEL
100
AcDbLine
 10
245.420199183964
 20
466.9071788109002
 30
0.0
 11
244.2599451461197
 21
467.2180679433556
 31
0.0
  0
LINE
  5
52A
330
1E
100
AcDbEntity
  8
STEMPEL
100
AcDbLine
 10
247.1664602536139
 20
458.672837408945
 30
0.0
 11
245.420199183964
 21
459.3084244595555
 31
0.0
  0
LINE
  5
52B
330
1E
100
AcDbEntity
  8
STEMPEL
100
AcDbLine
 10
228.0996911082753
 20
459.3084244595555
 30
0.0
 11
226.3534300386254
 21
458.672837408945
 31
0.0
  0
ARC
  5
52C
330
1E
100
AcDbEntity
  8
STEMPEL
100
AcDbCircle
 10
226.6099451461197
 20
457.9680679433556
 30
0.0
 40
0.7500000000000013
100
AcDbArc
 50
109.9999999999995
 51
269.9999991462263
  0
ARC
  5
52D
330
1E
100
AcDbEntity
  8
STEMPEL
100
AcDbCircle
 10
246.9099451461196
 20
457.9680679433556
 30
0.0
 40
0.750000000000001
100
AcDbArc
 50
269.9999991462263
 51
70.00000000000047
  0
ARC
  5
52E
330
1E
100
AcDbEntity
  8
STEMPEL
100
AcDbCircle
 10
325.615519258738
 20
436.9071788109007
 30
0.0
 40
30.31088913245485
100
AcDbArc
 50
81.78678929826059
 51
98.2132107017394
  0
ARC
  5
52F
330
1E
100
AcDbEntity
  8
STEMPEL
100
AcDbCircle
 10
319.1203287303547
 20
459.5237622355711
 30
0.0
 40
7.694305707784447
100
AcDbArc
 50
73.65710669401657
 51
106.3428933059865
  0
ARC
  5
530
330
1E
100
AcDbEntity
  8
STEMPEL
100
AcDbCircle
 10
332.1107097871213
 20
459.5237622355711
 30
0.0
 40
7.694305707784447
100
AcDbArc
 50
73.65710669401345
 51
106.3428933059834
  0
ARC
  5
531
330
1E
100
AcDbEntity
  8
HILF
100
AcDbCircle
 10
325.615519258738
 20
437.3196068956944
 30
0.0
 40
22.41111549782308
100
AcDbArc
 50
78.85962783890455
 51
101.1403721610954
  0
ARC
  5
532
330
1E
100
AcDbEntity
  8
HILF
100
AcDbCircle
 10
332.1107097871213
 20
453.9695817938259
 30
0.0
 40
5.761140599691502
100
AcDbArc
 50
67.92594526326054
 51
112.0740547367394
  0
ARC
  5
533
330
1E
100
AcDbEntity
  8
HILF
100
AcDbCircle
 10
319.1203287303547
 20
453.9695817938259
 30
0.0
 40
5.761140599691502
100
AcDbArc
 50
67.92594526326054
 51
112.0740547367394
  0
LINE
  5
534
330
1E
100
AcDbEntity
  8
STEMPEL
100
AcDbLine
 10
318.115519258738
 20
467.2180679433556
 30
0.0
 11
333.115519258738
 21
467.2180679433556
 31
0.0
  0
LINE
  5
535
330
1E
100
AcDbEntity
  8
STEMPEL
100
AcDbLine
 10
334.2757732965824
 20
459.3084244595555
 30
0.0
 11
334.2757732965824
 21
466.9071788109002
 31
0.0
  0
LINE
  5
536
330
1E
100
AcDbEntity
  8
STEMPEL
100
AcDbLine
 10
329.9456462776602
 20
459.3084244595555
 30
0.0
 11
329.9456462776602
 21
466.9071788109002
 31
0.0
  0
LINE
  5
537
330
1E
100
AcDbEntity
  8
STEMPEL
100
AcDbLine
 10
321.2853922398158
 20
459.3084244595555
 30
0.0
 11
321.2853922398158
 21
466.9071788109002
 31
0.0
  0
LINE
  5
538
330
1E
100
AcDbEntity
  8
STEMPEL
100
AcDbLine
 10
335.0089650029421
 20
458.672837408945
 30
0.0
 11
315.2090041512437
 21
458.672837408945
 31
0.0
  0
LINE
  5
539
330
1E
100
AcDbEntity
  8
STEMPEL
100
AcDbLine
 10
331.4831543929006
 20
457.2180679433555
 30
0.0
 11
315.465519258738
 21
457.2180679433555
 31
0.0
  0
LINE
  5
53A
330
1E
100
AcDbEntity
  8
STEMPEL
100
AcDbLine
 10
316.9552652208937
 20
459.3084244595555
 30
0.0
 11
316.9552652208937
 21
466.9071788109002
 31
0.0
  0
LINE
  5
53B
330
1E
100
AcDbEntity
  8
STEMPEL
100
AcDbLine
 10
318.115519258738
 20
467.2180679433556
 30
0.0
 11
316.9552652208937
 21
466.9071788109002
 31
0.0
  0
LINE
  5
53C
330
1E
100
AcDbEntity
  8
STEMPEL
100
AcDbLine
 10
334.2757732965824
 20
466.9071788109002
 30
0.0
 11
333.115519258738
 21
467.2180679433556
 31
0.0
  0
LINE
  5
53D
330
1E
100
AcDbEntity
  8
STEMPEL
100
AcDbLine
 10
335.2656792001466
 20
458.9481281759337
 30
0.0
 11
334.2757732965824
 21
459.3084244595555
 31
0.0
  0
LINE
  5
53E
330
1E
100
AcDbEntity
  8
STEMPEL
100
AcDbLine
 10
316.9552652208937
 20
459.3084244595555
 30
0.0
 11
315.2090041512438
 21
458.672837408945
 31
0.0
  0
ARC
  5
53F
330
1E
100
AcDbEntity
  8
STEMPEL
100
AcDbCircle
 10
315.465519258738
 20
457.9680679433556
 30
0.0
 40
0.7500000000000013
100
AcDbArc
 50
109.9999999999995
 51
269.9999991462263
  0
LINE
  5
581
330
1E
100
AcDbEntity
  8
STEMPEL
100
AcDbLine
 10
72.1410116174739
 20
445.2180679433561
 30
0.0
 11
372.141011617474
 21
445.2180679433561
 31
0.0
  0
LINE
  5
582
330
1E
100
AcDbEntity
  8
STEMPEL
100
AcDbLine
 10
72.14101161747402
 20
445.2180679433565
 30
0.0
 11
372.1410116174741
 21
445.2180679433555
 31
0.0
  0
LINE
  5
592
330
1E
100
AcDbEntity
  8
STEMPEL
100
AcDbLine
 10
302.1410116174739
 20
449.2180679433556
 30
0.0
 11
302.1410116174739
 21
451.2180679433556
 31
0.0
  0
LINE
  5
593
330
1E
100
AcDbEntity
  8
STEMPEL
100
AcDbLine
 10
302.1410116174739
 20
445.2180679433561
 30
0.0
 11
302.1410116174739
 21
447.2180679433561
 31
0.0
  0
LINE
  5
5C2
330
1E
100
AcDbEntity
  8
STEMPEL
100
AcDbLine
 10
372.141011617474
 20
445.2180679433561
 30
0.0
 11
372.141011617474
 21
448.2180679433561
 31
0.0
  0
LINE
  5
5C3
330
1E
100
AcDbEntity
  8
STEMPEL
100
AcDbLine
 10
372.1410116174741
 20
445.2180679433556
 30
0.0
 11
372.1410116174741
 21
448.2180679433561
 31
0.0
  0
HATCH
  5
5C4
330
1E
100
AcDbEntity
  8
SCHRAFF
100
AcDbHatch
 10
0.0
 20
0.0
 30
0.0
210
0.0
220
0.0
230
1.0
  2
NET
 70
     0
 71
     0
 91
        4
 92
        7
 72
     0
 73
     1
 93
        4
 10
372.141011617474
 20
448.2180679433561
 10
325.6155192587379
 20
448.2180679433561
 10
325.6155192587381
 20
445.2180679433562
 10
372.141011617474
 20
445.218067943356
 97
        0
 92
        7
 72
     0
 73
     1
 93
        4
 10
325.6155192587381
 20
448.2180679433562
 10
302.141011617474
 20
448.2180679433562
 10
302.1410116174739
 20
445.2180679433561
 10
325.615519258738
 20
445.2180679433561
 97
        0
 92
        7
 72
     0
 73
     1
 93
        4
 10
142.1410116174739
 20
448.2180679433561
 10
118.1410116174742
 20
448.218067943356
 10
118.1410116174742
 20
445.2180679433561
 10
142.1410116174739
 20
445.2180679433562
 97
        0
 92
        7
 72
     0
 73
     1
 93
        4
 10
102.1410116174739
 20
448.2180679433561
 10
72.14101161747402
 20
448.2180679433561
 10
72.14101161747402
 20
445.218067943356
 10
102.1410116174739
 20
445.218067943356
 97
        0
 75
     0
 76
     1
 52
45.0
 41
15.0
 77
     0
 78
     2
 53
45.0
 43
-26.22847701909757
 44
-34.12321607693127
 45
-1.325825214724776
 46
1.325825214724776
 79
     0
 53
135.0
 43
-26.22847701909757
 44
-34.12321607693127
 45
-1.325825214724776
 46
-1.325825214724776
 79
     0
 47
0.3213995559881435
 98
        4
 10
352.1591378876648
 20
446.6218790153378
 10
308.755474587868
 20
447.2646780056728
 10
125.4955662204548
 20
447.5860775008398
 10
93.98772219668501
 20
446.3004795201708
  0
LINE
  5
5C5
330
1E
100
AcDbEntity
  8
STEMPEL
100
AcDbLine
 10
115.1410116174741
 20
448.2180679433561
 30
0.0
 11
372.141011617474
 21
448.2180679433561
 31
0.0
  0
LINE
  5
5C6
330
1E
100
AcDbEntity
  8
STEMPEL
100
AcDbLine
 10
330.6155192587383
 20
451.2180679433558
 30
0.0
 11
330.6155192587383
 21
448.2180679433561
 31
0.0
  0
LINE
  5
5C7
330
1E
100
AcDbEntity
  8
HILF
100
AcDbLine
 10
329.6155192587383
 20
451.2180679433558
 30
0.0
 11
329.6155192587382
 21
448.2180679433561
 31
0.0
  0
LINE
  5
5C8
330
1E
100
AcDbEntity
  8
STEMPEL
100
AcDbLine
 10
320.6155192587385
 20
451.2180679433558
 30
0.0
 11
320.6155192587382
 21
448.2180679433561
 31
0.0
  0
LINE
  5
5C9
330
1E
100
AcDbEntity
  8
HILF
100
AcDbLine
 10
321.6155192587383
 20
451.2180679433558
 30
0.0
 11
321.6155192587381
 21
448.2180679433561
 31
0.0
  0
LINE
  5
5CA
330
1E
100
AcDbEntity
  8
STEMPEL
100
AcDbLine
 10
302.1410116174739
 20
445.2180679433561
 30
0.0
 11
302.1410116174739
 21
448.2180679433561
 31
0.0
  0
LINE
  5
5CB
330
1E
100
AcDbEntity
  8
STEMPEL
100
AcDbLine
 10
171.1410116174742
 20
451.2180679433557
 30
0.0
 11
171.1410116174742
 21
448.2180679433561
 31
0.0
  0
LINE
  5
5CC
330
1E
100
AcDbEntity
  8
HILF
100
AcDbLine
 10
170.1410116174742
 20
451.2180679433558
 30
0.0
 11
170.1410116174742
 21
448.2180679433561
 31
0.0
  0
LINE
  5
5CD
330
1E
100
AcDbEntity
  8
HILF
100
AcDbLine
 10
162.1410116174741
 20
451.2180679433556
 30
0.0
 11
162.1410116174742
 21
448.2180679433561
 31
0.0
  0
LINE
  5
5CE
330
1E
100
AcDbEntity
  8
STEMPEL
100
AcDbLine
 10
161.1410116174742
 20
451.2180679433556
 30
0.0
 11
161.1410116174742
 21
448.2180679433561
 31
0.0
  0
LINE
  5
5CF
330
1E
100
AcDbEntity
  8
HILF
100
AcDbLine
 10
240.7599451461198
 20
451.2180679433558
 30
0.0
 11
240.7599451461198
 21
448.2180679433561
 31
0.0
  0
LINE
  5
5D0
330
1E
100
AcDbEntity
  8
STEMPEL
100
AcDbLine
 10
241.7599451461199
 20
451.2180679433558
 30
0.0
 11
241.7599451461199
 21
448.2180679433561
 31
0.0
  0
LINE
  5
5D1
330
1E
100
AcDbEntity
  8
HILF
100
AcDbLine
 10
232.7599451461199
 20
451.2180679433558
 30
0.0
 11
232.7599451461199
 21
448.2180679433561
 31
0.0
  0
LINE
  5
5D2
330
1E
100
AcDbEntity
  8
STEMPEL
100
AcDbLine
 10
231.7599451461199
 20
451.2180679433558
 30
0.0
 11
231.7599451461199
 21
448.2180679433561
 31
0.0
  0
LINE
  5
5D3
330
1E
100
AcDbEntity
  8
STEMPEL
100
AcDbLine
 10
118.1410116174742
 20
445.218067943356
 30
0.0
 11
118.1410116174742
 21
448.218067943356
 31
0.0
  0
LINE
  5
5D4
330
1E
100
AcDbEntity
  8
STEMPEL
100
AcDbLine
 10
142.1410116174739
 20
445.2180679433561
 30
0.0
 11
142.1410116174739
 21
448.2180679433561
 31
0.0
  0
LINE
  5
5D5
330
1E
100
AcDbEntity
  8
STEMPEL
100
AcDbLine
 10
72.1410116174739
 20
448.2180679433561
 30
0.0
 11
105.1410116174741
 21
448.2180679433561
 31
0.0
  0
LINE
  5
5D6
330
1E
100
AcDbEntity
  8
STEMPEL
100
AcDbLine
 10
102.1410116174739
 20
445.218067943356
 30
0.0
 11
102.1410116174739
 21
448.218067943356
 31
0.0
  0
LINE
  5
5D7
330
1E
100
AcDbEntity
  8
STEMPEL
100
AcDbLine
 10
72.14101161747402
 20
445.2180679433556
 30
0.0
 11
72.14101161747402
 21
448.2180679433557
 31
0.0
  0
LINE
  5
5D8
330
1E
100
AcDbEntity
  8
STEMPEL
100
AcDbLine
 10
72.1410116174739
 20
445.2180679433561
 30
0.0
 11
72.1410116174739
 21
447.2180679433561
 31
0.0
  0
LINE
  5
5D9
330
1E
100
AcDbEntity
  8
STEMPEL
100
AcDbLine
 10
72.14101161747402
 20
445.2180679433556
 30
0.0
 11
72.14101161747402
 21
447.218067943356
 31
0.0
  0
ENDSEC
  0
SECTION
  2
OBJECTS
  0
DICTIONARY
  5
C
330
0
100
AcDbDictionary
281
     1
  3
ACAD_COLOR
350
DF
  3
ACAD_GROUP
350
D
  3
ACAD_LAYOUT
350
19
  3
ACAD_MATERIAL
350
DE
  3
ACAD_MLINESTYLE
350
16
  3
ACAD_PLOTSETTINGS
350
18
  3
ACAD_PLOTSTYLENAME
350
E
  3
AcDbVariableDictionary
350
EA
  0
DICTIONARY
  5
A0
330
1E
100
AcDbDictionary
280
     1
281
     1
  3
ACAD_LAYOUTSELFREF
360
D4
  0
DICTIONARY
  5
A2
330
1A
100
AcDbDictionary
280
     1
281
     1
  3
ACAD_LAYOUTSELFREF
360
D3
  0
DICTIONARY
  5
DF
102
{ACAD_REACTORS
330
C
102
}
330
C
100
AcDbDictionary
281
     1
  0
DICTIONARY
  5
D
102
{ACAD_REACTORS
330
C
102
}
330
C
100
AcDbDictionary
281
     1
  0
DICTIONARY
  5
19
102
{ACAD_REACTORS
330
C
102
}
330
C
100
AcDbDictionary
281
     1
  3
Layout1
350
1D
  3
Model
350
21
  0
DICTIONARY
  5
DE
102
{ACAD_REACTORS
330
C
102
}
330
C
100
AcDbDictionary
281
     1
  0
DICTIONARY
  5
16
102
{ACAD_REACTORS
330
C
102
}
330
C
100
AcDbDictionary
281
     1
  3
Standard
350
17
  0
DICTIONARY
  5
18
102
{ACAD_REACTORS
330
C
102
}
330
C
100
AcDbDictionary
281
     1
  0
ACDBDICTIONARYWDFLT
  5
E
102
{ACAD_REACTORS
330
C
102
}
330
C
100
AcDbDictionary
281
     1
  3
Normal
350
F
100
AcDbDictionaryWithDefault
340
F
  0
DICTIONARY
  5
EA
102
{ACAD_REACTORS
330
C
102
}
330
C
100
AcDbDictionary
281
     1
  3
DIMASSOC
350
EB
  3
PROJECTNAME
350
EC
  0
XRECORD
  5
D4
102
{ACAD_REACTORS
330
A0
102
}
330
A0
100
AcDbXrecord
280
     1
340
1E
  0
XRECORD
  5
D3
102
{ACAD_REACTORS
330
A2
102
}
330
A2
100
AcDbXrecord
280
     1
340
1A
  0
LAYOUT
  5
1D
102
{ACAD_REACTORS
330
19
102
}
330
19
100
AcDbPlotSettings
  1

  2
\\NT_WORK01\HP LaserJet 5000 PCL 6
  4

  6

 40
0.0
 41
0.0
 42
0.0
 43
0.0
 44
0.0
 45
0.0
 46
0.0
 47
0.0
 48
0.0
 49
0.0
140
0.0
141
0.0
142
1.0
143
1.0
 70
   688
 72
     0
 73
     0
 74
     5
  7

 75
    16
147
1.0
 76
     0
 77
     2
 78
   300
148
0.0
149
0.0
100
AcDbLayout
  1
Layout1
 70
     0
 71
     1
 10
0.0
 20
0.0
 11
12.0
 21
9.0
 12
0.0
 22
0.0
 32
0.0
 14
1.000000000000000E+20
 24
1.000000000000000E+20
 34
1.000000000000000E+20
 15
-1.000000000000000E+20
 25
-1.000000000000000E+20
 35
-1.000000000000000E+20
146
0.0
 13
0.0
 23
0.0
 33
0.0
 16
1.0
 26
0.0
 36
0.0
 17
0.0
 27
1.0
 37
0.0
 76
     0
330
1A
  0
LAYOUT
  5
21
102
{ACAD_REACTORS
330
19
102
}
330
19
100
AcDbPlotSettings
  1

  2
none_device
  4
Letter_(8.50_x_11.00_Inches)
  6

 40
6.349999904632568
 41
6.349999904632568
 42
6.350006103515625
 43
6.350006103515625
 44
215.8999938964844
 45
279.3999938964844
 46
0.0
 47
0.0
 48
0.0
 49
0.0
140
0.0
141
0.0
142
1.0
143
1.0
 70
 11952
 72
     0
 73
     1
 74
     0
  7

 75
     0
147
1.0
 76
     0
 77
     2
 78
   300
148
2209.800000000002
149
0.0
100
AcDbLayout
  1
Model
 70
     1
 71
     0
 10
0.0
 20
0.0
 11
12.0
 21
9.0
 12
0.0
 22
0.0
 32
0.0
 14
0.0
 24
0.0
 34
0.0
 15
0.0
 25
0.0
 35
0.0
146
0.0
 13
0.0
 23
0.0
 33
0.0
 16
1.0
 26
0.0
 36
0.0
 17
0.0
 27
1.0
 37
0.0
 76
     0
330
1E
  0
MLINESTYLE
  5
17
102
{ACAD_REACTORS
330
16
102
}
330
16
100
AcDbMlineStyle
  2
STANDARD
 70
     0
  3

 62
   256
 51
90.0
 52
90.0
 71
     2
 49
0.5
 62
   256
  6
BYLAYER
 49
-0.5
 62
   256
  6
BYLAYER
  0
ACDBPLACEHOLDER
  5
F
102
{ACAD_REACTORS
330
E
102
}
330
E
  0
DICTIONARYVAR
  5
EB
102
{ACAD_REACTORS
330
EA
102
}
330
EA
100
DictionaryVariables
280
     0
  1
1
  0
DICTIONARYVAR
  5
EC
102
{ACAD_REACTORS
330
EA
102
}
330
EA
100
DictionaryVariables
280
     0
  1

  0
ENDSEC
  0
EOF
