  0
SECTION
  2
HEADER
  9
$ACADVER
  1
AC1018
  9
$ACADMAINTVER
 70
     2
  9
$DWGCODEPAGE
  3
ANSI_1252
  9
$INSBASE
 10
0.0
 20
0.0
 30
0.0
  9
$EXTMIN
 10
-0.0453026972500084
 20
-0.0640644203542706
 30
-0.0000000000000053
  9
$EXTMAX
 10
594.000006915872
 20
840.0000097800216
 30
0.0000000000000099
  9
$LIMMIN
 10
0.0
 20
0.0
  9
$LIMMAX
 10
594.0
 20
840.0
  9
$ORTHOMODE
 70
     0
  9
$REGENMODE
 70
     1
  9
$FILLMODE
 70
     1
  9
$QTEXTMODE
 70
     0
  9
$MIRRTEXT
 70
     1
  9
$LTSCALE
 40
20.0
  9
$ATTMODE
 70
     1
  9
$TEXTSIZE
 40
2.0
  9
$TRACEWID
 40
1.0
  9
$TEXTSTYLE
  7
STANDARD
  9
$CLAYER
  8
BEM
  9
$CELTYPE
  6
BYLAYER
  9
$CECOLOR
 62
   256
  9
$CELTSCALE
 40
1.0
  9
$DISPSILH
 70
     0
  9
$DIMSCALE
 40
2.0
  9
$DIMASZ
 40
3.5
  9
$DIMEXO
 40
1.0
  9
$DIMDLI
 40
8.0
  9
$DIMRND
 40
0.0
  9
$DIMDLE
 40
0.0
  9
$DIMEXE
 40
1.5
  9
$DIMTP
 40
0.0
  9
$DIMTM
 40
0.0
  9
$DIMTXT
 40
3.5
  9
$DIMCEN
 40
1.5
  9
$DIMTSZ
 40
0.0
  9
$DIMTOL
 70
     0
  9
$DIMLIM
 70
     0
  9
$DIMTIH
 70
     0
  9
$DIMTOH
 70
     0
  9
$DIMSE1
 70
     0
  9
$DIMSE2
 70
     0
  9
$DIMTAD
 70
     1
  9
$DIMZIN
 70
     8
  9
$DIMBLK
  1

  9
$DIMASO
 70
     1
  9
$DIMSHO
 70
     0
  9
$DIMPOST
  1

  9
$DIMAPOST
  1

  9
$DIMALT
 70
     0
  9
$DIMALTD
 70
     2
  9
$DIMALTF
 40
25.4
  9
$DIMLFAC
 40
1.0
  9
$DIMTOFL
 70
     1
  9
$DIMTVP
 40
0.5714285714285714
  9
$DIMTIX
 70
     0
  9
$DIMSOXD
 70
     0
  9
$DIMSAH
 70
     0
  9
$DIMBLK1
  1

  9
$DIMBLK2
  1

  9
$DIMSTYLE
  2
STANDARD
  9
$DIMCLRD
 70
     0
  9
$DIMCLRE
 70
     0
  9
$DIMCLRT
 70
     1
  9
$DIMTFAC
 40
1.0
  9
$DIMGAP
 40
1.0
  9
$DIMJUST
 70
     0
  9
$DIMSD1
 70
     0
  9
$DIMSD2
 70
     0
  9
$DIMTOLJ
 70
     1
  9
$DIMTZIN
 70
     8
  9
$DIMALTZ
 70
     8
  9
$DIMALTTZ
 70
     8
  9
$DIMUPT
 70
     0
  9
$DIMDEC
 70
     2
  9
$DIMTDEC
 70
     2
  9
$DIMALTU
 70
     2
  9
$DIMALTTD
 70
     2
  9
$DIMTXSTY
  7
STANDARD
  9
$DIMAUNIT
 70
     0
  9
$DIMADEC
 70
     0
  9
$DIMALTRND
 40
0.0
  9
$DIMAZIN
 70
     0
  9
$DIMDSEP
 70
    46
  9
$DIMATFIT
 70
     3
  9
$DIMFRAC
 70
     0
  9
$DIMLDRBLK
  1

  9
$DIMLUNIT
 70
     2
  9
$DIMLWD
 70
    -2
  9
$DIMLWE
 70
    -2
  9
$DIMTMOVE
 70
     0
  9
$LUNITS
 70
     2
  9
$LUPREC
 70
     2
  9
$SKETCHINC
 40
1.0
  9
$FILLETRAD
 40
0.0
  9
$AUNITS
 70
     0
  9
$AUPREC
 70
     0
  9
$MENU
  1
ACAD
  9
$ELEVATION
 40
0.0
  9
$PELEVATION
 40
0.0
  9
$THICKNESS
 40
0.0
  9
$LIMCHECK
 70
     0
  9
$CHAMFERA
 40
0.0
  9
$CHAMFERB
 40
0.0
  9
$CHAMFERC
 40
0.0
  9
$CHAMFERD
 40
0.0
  9
$SKPOLY
 70
     0
  9
$TDCREATE
 40
2455397.865855208
  9
$TDUCREATE
 40
2455397.782521875
  9
$TDUPDATE
 40
2455657.443028102
  9
$TDUUPDATE
 40
2455657.359694769
  9
$TDINDWG
 40
0.5956743866
  9
$TDUSRTIMER
 40
0.5956743866
  9
$USRTIMER
 70
     1
  9
$ANGBASE
 50
0.0
  9
$ANGDIR
 70
     0
  9
$PDMODE
 70
     0
  9
$PDSIZE
 40
0.0
  9
$PLINEWID
 40
0.0
  9
$SPLFRAME
 70
     0
  9
$SPLINETYPE
 70
     6
  9
$SPLINESEGS
 70
     8
  9
$HANDSEED
  5
CD0
  9
$SURFTAB1
 70
     6
  9
$SURFTAB2
 70
     6
  9
$SURFTYPE
 70
     6
  9
$SURFU
 70
     6
  9
$SURFV
 70
     6
  9
$UCSBASE
  2

  9
$UCSNAME
  2

  9
$UCSORG
 10
0.0
 20
0.0
 30
0.0
  9
$UCSXDIR
 10
1.0
 20
0.0
 30
0.0
  9
$UCSYDIR
 10
0.0
 20
1.0
 30
0.0
  9
$UCSORTHOREF
  2

  9
$UCSORTHOVIEW
 70
     0
  9
$UCSORGTOP
 10
0.0
 20
0.0
 30
0.0
  9
$UCSORGBOTTOM
 10
0.0
 20
0.0
 30
0.0
  9
$UCSORGLEFT
 10
0.0
 20
0.0
 30
0.0
  9
$UCSORGRIGHT
 10
0.0
 20
0.0
 30
0.0
  9
$UCSORGFRONT
 10
0.0
 20
0.0
 30
0.0
  9
$UCSORGBACK
 10
0.0
 20
0.0
 30
0.0
  9
$PUCSBASE
  2

  9
$PUCSNAME
  2

  9
$PUCSORG
 10
0.0
 20
0.0
 30
0.0
  9
$PUCSXDIR
 10
1.0
 20
0.0
 30
0.0
  9
$PUCSYDIR
 10
0.0
 20
1.0
 30
0.0
  9
$PUCSORTHOREF
  2

  9
$PUCSORTHOVIEW
 70
     0
  9
$PUCSORGTOP
 10
0.0
 20
0.0
 30
0.0
  9
$PUCSORGBOTTOM
 10
0.0
 20
0.0
 30
0.0
  9
$PUCSORGLEFT
 10
0.0
 20
0.0
 30
0.0
  9
$PUCSORGRIGHT
 10
0.0
 20
0.0
 30
0.0
  9
$PUCSORGFRONT
 10
0.0
 20
0.0
 30
0.0
  9
$PUCSORGBACK
 10
0.0
 20
0.0
 30
0.0
  9
$USERI1
 70
     0
  9
$USERI2
 70
     0
  9
$USERI3
 70
     0
  9
$USERI4
 70
     0
  9
$USERI5
 70
     0
  9
$USERR1
 40
0.0
  9
$USERR2
 40
0.0
  9
$USERR3
 40
0.0
  9
$USERR4
 40
0.0
  9
$USERR5
 40
0.0
  9
$WORLDVIEW
 70
     1
  9
$SHADEDGE
 70
     3
  9
$SHADEDIF
 70
    70
  9
$TILEMODE
 70
     1
  9
$MAXACTVP
 70
    16
  9
$PINSBASE
 10
0.0
 20
0.0
 30
0.0
  9
$PLIMCHECK
 70
     0
  9
$PEXTMIN
 10
1.000000000000000E+20
 20
1.000000000000000E+20
 30
1.000000000000000E+20
  9
$PEXTMAX
 10
-1.000000000000000E+20
 20
-1.000000000000000E+20
 30
-1.000000000000000E+20
  9
$PLIMMIN
 10
0.0
 20
0.0
  9
$PLIMMAX
 10
12.0
 20
9.0
  9
$UNITMODE
 70
     0
  9
$VISRETAIN
 70
     0
  9
$PLINEGEN
 70
     0
  9
$PSLTSCALE
 70
     0
  9
$TREEDEPTH
 70
  3020
  9
$CMLSTYLE
  2
STANDARD
  9
$CMLJUST
 70
     0
  9
$CMLSCALE
 40
1.0
  9
$PROXYGRAPHICS
 70
     1
  9
$MEASUREMENT
 70
     0
  9
$CELWEIGHT
370
    -1
  9
$ENDCAPS
280
     0
  9
$JOINSTYLE
280
     0
  9
$LWDISPLAY
290
     0
  9
$INSUNITS
 70
     0
  9
$HYPERLINKBASE
  1

  9
$STYLESHEET
  1
monochrome 1.ctb
  9
$XEDIT
290
     1
  9
$CEPSNTYPE
380
     0
  9
$PSTYLEMODE
290
     1
  9
$FINGERPRINTGUID
  2
{C80A233E-B386-4AB6-A927-E1DF00D99C08}
  9
$VERSIONGUID
  2
{A104A9B1-6D9E-46AD-B7E7-6BB0AA5BA64A}
  9
$EXTNAMES
290
     1
  9
$PSVPSCALE
 40
0.0
  9
$OLESTARTUP
290
     0
  9
$SORTENTS
280
   127
  9
$INDEXCTL
280
     0
  9
$HIDETEXT
280
     0
  9
$XCLIPFRAME
290
     0
  9
$HALOGAP
280
     0
  9
$OBSCOLOR
 70
   257
  9
$OBSLTYPE
280
     0
  9
$INTERSECTIONDISPLAY
280
     0
  9
$INTERSECTIONCOLOR
 70
   257
  9
$DIMASSOC
280
     1
  9
$PROJECTNAME
  1

  0
ENDSEC
  0
SECTION
  2
CLASSES
  0
CLASS
  1
DICTIONARYVAR
  2
AcDbDictionaryVar
  3
ObjectDBX Classes
 90
        0
 91
        3
280
     0
281
     0
  0
CLASS
  1
ACDBDICTIONARYWDFLT
  2
AcDbDictionaryWithDefault
  3
ObjectDBX Classes
 90
        0
 91
        1
280
     0
281
     0
  0
ENDSEC
  0
SECTION
  2
TABLES
  0
TABLE
  2
VPORT
  5
8
330
0
100
AcDbSymbolTable
 70
     3
  0
VPORT
  5
CCF
330
8
100
AcDbSymbolTableRecord
100
AcDbViewportTableRecord
  2
*Active
 70
     0
 10
0.0
 20
0.0
 11
1.0
 21
1.0
 12
297.0
 22
420.0
 13
0.0
 23
0.0
 14
2.5
 24
2.5
 15
20.0
 25
20.0
 16
0.0
 26
0.0
 36
1.0
 17
0.0
 27
0.0
 37
0.0
 40
840.0
 41
1.334231805929919
 42
50.0
 43
0.0
 44
0.0
 50
0.0
 51
0.0
 71
     0
 72
   500
 73
     1
 74
     0
 75
     0
 76
     0
 77
     0
 78
     0
281
     0
 65
     1
110
0.0
120
0.0
130
0.0
111
1.0
121
0.0
131
0.0
112
0.0
122
1.0
132
0.0
 79
     0
146
0.0
  0
ENDTAB
  0
TABLE
  2
LTYPE
  5
5
330
0
100
AcDbSymbolTable
 70
     3
  0
LTYPE
  5
11
330
5
100
AcDbSymbolTableRecord
100
AcDbLinetypeTableRecord
  2
BYBLOCK
 70
     0
  3

 72
    65
 73
     0
 40
0.0
  0
LTYPE
  5
12
330
5
100
AcDbSymbolTableRecord
100
AcDbLinetypeTableRecord
  2
BYLAYER
 70
     0
  3

 72
    65
 73
     0
 40
0.0
  0
LTYPE
  5
13
330
5
100
AcDbSymbolTableRecord
100
AcDbLinetypeTableRecord
  2
AUSGEZOGEN
 70
     0
  3
Ausgezogene Linie
 72
    65
 73
     0
 40
0.0
  0
LTYPE
  5
1E
330
5
100
AcDbSymbolTableRecord
100
AcDbLinetypeTableRecord
  2
STRICHPUNKT
 70
     0
  3
Strichpunkt __ . __ . __ . __ . __ . __ . __ . 
 72
    65
 73
     4
 40
1.0
 49
0.5
 74
     0
 49
-0.25
 74
     0
 49
0.0
 74
     0
 49
-0.25
 74
     0
  0
LTYPE
  5
2B
330
5
100
AcDbSymbolTableRecord
100
AcDbLinetypeTableRecord
  2
CONTINUOUS
 70
     0
  3
Solid line
 72
    65
 73
     0
 40
0.0
  0
ENDTAB
  0
TABLE
  2
LAYER
  5
2
330
0
100
AcDbSymbolTable
 70
     9
  0
LAYER
  5
E
330
2
100
AcDbSymbolTableRecord
100
AcDbLayerTableRecord
  2
0
 70
     0
 62
     7
  6
AUSGEZOGEN
370
    -3
390
17D
  0
LAYER
  5
22
330
2
100
AcDbSymbolTableRecord
100
AcDbLayerTableRecord
  2
VOLL
 70
     0
 62
     1
  6
AUSGEZOGEN
370
    -3
390
17D
  0
LAYER
  5
25
330
2
100
AcDbSymbolTableRecord
100
AcDbLayerTableRecord
  2
HILF
 70
     0
 62
     2
  6
AUSGEZOGEN
370
    -3
390
17D
  0
LAYER
  5
27
330
2
100
AcDbSymbolTableRecord
100
AcDbLayerTableRecord
  2
STEMPEL
 70
     0
 62
     3
  6
AUSGEZOGEN
370
    -3
390
17D
  0
LAYER
  5
BC
330
2
100
AcDbSymbolTableRecord
100
AcDbLayerTableRecord
  2
MITTEL
 70
     0
 62
     2
  6
STRICHPUNKT
370
    -3
390
17D
  0
LAYER
  5
EA
330
2
100
AcDbSymbolTableRecord
100
AcDbLayerTableRecord
  2
SCHRAFF
 70
     0
 62
     7
  6
AUSGEZOGEN
370
    -3
390
17D
  0
LAYER
  5
1B8
330
2
100
AcDbSymbolTableRecord
100
AcDbLayerTableRecord
  2
Defpoints
 70
     0
 62
     7
  6
AUSGEZOGEN
290
     0
370
    -3
390
17D
  0
LAYER
  5
295
330
2
100
AcDbSymbolTableRecord
100
AcDbLayerTableRecord
  2
BEM
 70
     0
 62
     7
  6
CONTINUOUS
370
    -3
390
17D
  0
LAYER
  5
296
330
2
100
AcDbSymbolTableRecord
100
AcDbLayerTableRecord
  2
TEXT
 70
     0
 62
     7
  6
CONTINUOUS
370
    -3
390
17D
  0
ENDTAB
  0
TABLE
  2
STYLE
  5
3
330
0
100
AcDbSymbolTable
 70
     2
  0
STYLE
  5
F
330
3
100
AcDbSymbolTableRecord
100
AcDbTextStyleTableRecord
  2
STANDARD
 70
     0
 40
0.0
 41
0.8
 50
0.0
 71
     0
 42
2.0
  3
SIMPLEX.shx
  4

  0
STYLE
  5
297
330
3
100
AcDbSymbolTableRecord
100
AcDbTextStyleTableRecord
  2
GREEKS
 70
     0
 40
0.0
 41
0.8
 50
0.0
 71
     0
 42
2.5
  3
SIMPLEX.shx
  4

  0
ENDTAB
  0
TABLE
  2
VIEW
  5
6
330
0
100
AcDbSymbolTable
 70
     0
  0
ENDTAB
  0
TABLE
  2
UCS
  5
7
330
0
100
AcDbSymbolTable
 70
     0
  0
ENDTAB
  0
TABLE
  2
APPID
  5
9
330
0
100
AcDbSymbolTable
 70
     2
  0
APPID
  5
10
330
9
100
AcDbSymbolTableRecord
100
AcDbRegAppTableRecord
  2
ACAD
 70
     0
  0
APPID
  5
97
330
9
100
AcDbSymbolTableRecord
100
AcDbRegAppTableRecord
  2
RAK
 70
     0
  0
ENDTAB
  0
TABLE
  2
DIMSTYLE
  5
A
330
0
100
AcDbSymbolTable
 70
     1
100
AcDbDimStyleTable
 71
     1
340
95
  0
DIMSTYLE
105
95
102
{ACAD_REACTORS
330
61C
330
61D
330
648
330
672
330
673
330
692
330
585
330
586
330
BF1
330
CAF
102
}
330
A
100
AcDbSymbolTableRecord
100
AcDbDimStyleTableRecord
  2
STANDARD
 70
     0
 40
2.0
 41
3.5
 42
1.0
 43
8.0
 44
1.5
 73
     0
 74
     0
 77
     1
 78
     8
140
3.5
141
1.5
145
0.5714285714285714
147
1.0
172
     1
178
     1
271
     2
272
     2
284
     8
285
     8
286
     8
340
F
  0
ENDTAB
  0
TABLE
  2
BLOCK_RECORD
  5
1
330
0
100
AcDbSymbolTable
 70
    12
  0
BLOCK_RECORD
  5
17
330
1
100
AcDbSymbolTableRecord
100
AcDbBlockTableRecord
  2
*MODEL_SPACE
340
182
  0
BLOCK_RECORD
  5
14
330
1
100
AcDbSymbolTableRecord
100
AcDbBlockTableRecord
  2
*PAPER_SPACE
340
183
  0
BLOCK_RECORD
  5
1C
330
1
100
AcDbSymbolTableRecord
100
AcDbBlockTableRecord
  2
LOGO
340
0
102
{BLKREFS
331
21B
102
}
  0
BLOCK_RECORD
  5
219
330
1
100
AcDbSymbolTableRecord
100
AcDbBlockTableRecord
  2
LORO
340
0
102
{BLKREFS
331
6D2
102
}
  0
BLOCK_RECORD
  5
6DE
330
1
100
AcDbSymbolTableRecord
100
AcDbBlockTableRecord
  2
*D2
340
0
  0
BLOCK_RECORD
  5
6EA
330
1
100
AcDbSymbolTableRecord
100
AcDbBlockTableRecord
  2
*D3
340
0
  0
BLOCK_RECORD
  5
6F6
330
1
100
AcDbSymbolTableRecord
100
AcDbBlockTableRecord
  2
*D4
340
0
  0
BLOCK_RECORD
  5
702
330
1
100
AcDbSymbolTableRecord
100
AcDbBlockTableRecord
  2
*D5
340
0
  0
BLOCK_RECORD
  5
70E
330
1
100
AcDbSymbolTableRecord
100
AcDbBlockTableRecord
  2
*D6
340
0
  0
BLOCK_RECORD
  5
71A
330
1
100
AcDbSymbolTableRecord
100
AcDbBlockTableRecord
  2
*D7
340
0
  0
BLOCK_RECORD
  5
73E
330
1
100
AcDbSymbolTableRecord
100
AcDbBlockTableRecord
  2
*D8
340
0
  0
BLOCK_RECORD
  5
74A
330
1
100
AcDbSymbolTableRecord
100
AcDbBlockTableRecord
  2
*D9
340
0
  0
BLOCK_RECORD
  5
BF2
330
1
100
AcDbSymbolTableRecord
100
AcDbBlockTableRecord
  2
*D10
340
0
  0
BLOCK_RECORD
  5
CB0
330
1
100
AcDbSymbolTableRecord
100
AcDbBlockTableRecord
  2
*D11
340
0
  0
ENDTAB
  0
ENDSEC
  0
SECTION
  2
BLOCKS
  0
BLOCK
  5
2E
330
17
100
AcDbEntity
  8
0
100
AcDbBlockBegin
  2
*MODEL_SPACE
 70
     0
 10
0.0
 20
0.0
 30
0.0
  3
*MODEL_SPACE
  1

  0
ENDBLK
  5
2F
330
17
100
AcDbEntity
  8
0
100
AcDbBlockEnd
  0
BLOCK
  5
2C
330
14
100
AcDbEntity
 67
     1
  8
0
100
AcDbBlockBegin
  2
*PAPER_SPACE
 70
     0
 10
0.0
 20
0.0
 30
0.0
  3
*PAPER_SPACE
  1

  0
ENDBLK
  5
2D
330
14
100
AcDbEntity
 67
     1
  8
0
100
AcDbBlockEnd
  0
BLOCK
  5
32
330
1C
100
AcDbEntity
  8
0
100
AcDbBlockBegin
  2
LOGO
 70
     0
 10
0.0
 20
0.0
 30
0.0
  3
LOGO
  1

  0
ARC
  5
33
330
1C
100
AcDbEntity
  8
0
100
AcDbCircle
 10
11.59973089678112
 20
-9.271599258481501
 30
0.0
 40
4.5
100
AcDbArc
 50
270.0
 51
231.0575587310159
  0
LINE
  5
34
330
1C
100
AcDbEntity
  8
0
100
AcDbLine
 10
3.599730896781125
 20
-4.771599258481529
 30
0.0
 11
3.599730896781153
 21
-11.77159925848133
 31
0.0
  0
LINE
  5
35
330
1C
100
AcDbEntity
  8
0
100
AcDbLine
 10
2.599730896781125
 20
-4.771599258481529
 30
0.0
 11
2.599730896781153
 21
-11.77159925848133
 31
0.0
  0
CIRCLE
  5
36
330
1C
100
AcDbEntity
  8
0
100
AcDbCircle
 10
11.59973089678112
 20
-9.271599258481501
 30
0.0
 40
3.5
  0
ARC
  5
37
330
1C
100
AcDbEntity
  8
0
100
AcDbCircle
 10
31.59973089678115
 20
-9.271599258481472
 30
0.0
 40
4.5
100
AcDbArc
 50
270.0
 51
231.0575587310182
  0
LINE
  5
38
330
1C
100
AcDbEntity
  8
0
100
AcDbLine
 10
17.59973089678112
 20
-4.771599258481472
 30
0.0
 11
17.59973089678115
 21
-13.77159925848147
 31
0.0
  0
ARC
  5
39
330
1C
100
AcDbEntity
  8
0
100
AcDbCircle
 10
22.59973089678116
 20
-7.271599258481472
 30
0.0
 40
2.5
100
AcDbArc
 50
293.1161887722295
 51
90.0
  0
CIRCLE
  5
3A
330
1C
100
AcDbEntity
  8
0
100
AcDbCircle
 10
31.59973089678115
 20
-9.271599258481472
 30
0.0
 40
3.5
  0
ARC
  5
3B
330
1C
100
AcDbEntity
  8
0
100
AcDbCircle
 10
4.599730896781153
 20
-11.77159925848133
 30
0.0
 40
1.0
100
AcDbArc
 50
180.0
 51
270.0
  0
ARC
  5
3C
330
1C
100
AcDbEntity
  8
0
100
AcDbCircle
 10
4.599730896781153
 20
-11.77159925848133
 30
0.0
 40
2.0
100
AcDbArc
 50
179.9999999999992
 51
270.0
  0
LINE
  5
3D
330
1C
100
AcDbEntity
  8
0
100
AcDbLine
 10
11.59973089678115
 20
-13.77159925848144
 30
0.0
 11
4.599730896781153
 21
-13.77159925848147
 31
0.0
  0
LINE
  5
3E
330
1C
100
AcDbEntity
  8
0
100
AcDbLine
 10
8.771303772034769
 20
-12.77159925848136
 30
0.0
 11
4.599730896781153
 21
-12.77159925848133
 31
0.0
  0
LINE
  5
3F
330
1C
100
AcDbEntity
  8
0
100
AcDbLine
 10
31.59973089678115
 20
-13.77159925848147
 30
0.0
 11
23.6715276665056
 21
-13.77159925848144
 31
0.0
  0
LINE
  5
40
330
1C
100
AcDbEntity
  8
0
100
AcDbLine
 10
23.56565672307022
 20
-9.51278021337896
 30
0.0
 11
24.4388546544846
 21
-12.77159925848144
 31
0.0
  0
LINE
  5
41
330
1C
100
AcDbEntity
  8
0
100
AcDbLine
 10
22.59973089678116
 20
-9.771599258481472
 30
0.0
 11
18.59973089678112
 21
-9.771599258481472
 31
0.0
  0
LINE
  5
42
330
1C
100
AcDbEntity
  8
0
100
AcDbLine
 10
18.59973089678115
 20
-13.77159925848144
 30
0.0
 11
17.59973089678115
 21
-13.77159925848144
 31
0.0
  0
LINE
  5
43
330
1C
100
AcDbEntity
  8
0
100
AcDbLine
 10
18.59973089678115
 20
-9.771599258481472
 30
0.0
 11
18.59973089678115
 21
-13.77159925848144
 31
0.0
  0
LINE
  5
44
330
1C
100
AcDbEntity
  8
0
100
AcDbLine
 10
22.59973089678116
 20
-9.771599258481472
 30
0.0
 11
23.67152766650562
 21
-13.77159925848147
 31
0.0
  0
ARC
  5
45
330
1C
100
AcDbEntity
  8
0
100
AcDbCircle
 10
22.59973089678116
 20
-7.271599258481472
 30
0.0
 40
2.5
100
AcDbArc
 50
270.0
 51
270.0000000000007
  0
LINE
  5
46
330
1C
100
AcDbEntity
  8
0
100
AcDbLine
 10
28.77130377203494
 20
-12.77159925848147
 30
0.0
 11
24.43885465448463
 21
-12.77159925848144
 31
0.0
  0
LINE
  5
47
330
1C
100
AcDbEntity
  8
0
100
AcDbLine
 10
3.599730896781125
 20
-4.771599258481472
 30
0.0
 11
2.599730896781125
 21
-4.771599258481472
 31
0.0
  0
LINE
  5
48
330
1C
100
AcDbEntity
  8
0
100
AcDbLine
 10
22.59973089678116
 20
-8.771599258481472
 30
0.0
 11
18.59973089678115
 21
-8.771599258481472
 31
0.0
  0
LINE
  5
49
330
1C
100
AcDbEntity
  8
0
100
AcDbLine
 10
22.59973089678116
 20
-5.771599258481472
 30
0.0
 11
18.59973089678115
 21
-5.771599258481472
 31
0.0
  0
LINE
  5
4A
330
1C
100
AcDbEntity
  8
0
100
AcDbLine
 10
22.59973089678116
 20
-4.771599258481472
 30
0.0
 11
17.59973089678115
 21
-4.771599258481472
 31
0.0
  0
LINE
  5
4B
330
1C
100
AcDbEntity
  8
0
100
AcDbLine
 10
18.59973089678115
 20
-5.771599258481472
 30
0.0
 11
18.59973089678115
 21
-8.771599258481472
 31
0.0
  0
ARC
  5
4C
330
1C
100
AcDbEntity
  8
0
100
AcDbCircle
 10
22.59973089678116
 20
-7.271599258481472
 30
0.0
 40
1.5
100
AcDbArc
 50
270.0
 51
90.0
  0
ENDBLK
  5
4D
330
1C
100
AcDbEntity
  8
0
100
AcDbBlockEnd
  0
BLOCK
  5
21A
330
219
100
AcDbEntity
  8
0
100
AcDbBlockBegin
  2
LORO
 70
     0
 10
0.0
 20
0.0
 30
0.0
  3
LORO
  1

  0
INSERT
  5
21B
330
219
100
AcDbEntity
  8
STEMPEL
100
AcDbBlockReference
  2
LOGO
 10
-1.748032802467321
 20
3.771489518552062
 30
0.0
  0
ENDBLK
  5
21C
330
219
100
AcDbEntity
  8
0
100
AcDbBlockEnd
  0
BLOCK
  5
6E8
330
6DE
100
AcDbEntity
  8
0
100
AcDbBlockBegin
  2
*D2
 70
     1
 10
0.0
 20
0.0
 30
0.0
  3
*D2
  1

  0
LINE
  5
C88
330
6DE
100
AcDbEntity
  8
BEM
 62
     0
370
    -2
100
AcDbLine
 10
87.14580696542862
 20
254.8861349576704
 30
0.0
 11
87.14580696542862
 21
211.9521746751064
 31
0.0
  0
LINE
  5
C89
330
6DE
100
AcDbEntity
  8
BEM
 62
     0
370
    -2
100
AcDbLine
 10
432.1458069654284
 20
254.8861349576706
 30
0.0
 11
432.1458069654284
 21
211.9521746751064
 31
0.0
  0
LINE
  5
C8A
330
6DE
100
AcDbEntity
  8
BEM
 62
     0
370
    -2
100
AcDbLine
 10
94.14580696542861
 20
213.9521746751064
 30
0.0
 11
425.1458069654285
 21
213.9521746751064
 31
0.0
  0
SOLID
  5
C8B
330
6DE
100
AcDbEntity
  8
BEM
 62
     0
100
AcDbTrace
 10
94.14580696542861
 20
215.1188413417731
 30
0.0
 11
94.14580696542861
 21
212.7855080084398
 31
0.0
 12
87.14580696542862
 22
213.9521746751064
 32
0.0
 13
87.14580696542862
 23
213.9521746751064
 33
0.0
  0
SOLID
  5
C8C
330
6DE
100
AcDbEntity
  8
BEM
 62
     0
100
AcDbTrace
 10
425.1458069654285
 20
215.1188413417731
 30
0.0
 11
425.1458069654285
 21
212.7855080084398
 31
0.0
 12
432.1458069654284
 22
213.9521746751064
 32
0.0
 13
432.1458069654284
 23
213.9521746751064
 33
0.0
  0
MTEXT
  5
C8D
330
6DE
100
AcDbEntity
  8
BEM
 62
     1
100
AcDbMText
 10
259.6458069654286
 20
220.4521746751065
 30
0.0
 40
7.0
 41
0.0
 71
     5
 72
     1
  1
\A1;%%c345
 73
     1
 44
1.0
  0
POINT
  5
C8E
330
6DE
100
AcDbEntity
  8
Defpoints
 62
     0
100
AcDbPoint
 10
87.14580696542862
 20
256.8861349576704
 30
0.0
  0
POINT
  5
C8F
330
6DE
100
AcDbEntity
  8
Defpoints
 62
     0
100
AcDbPoint
 10
432.1458069654284
 20
256.8861349576706
 30
0.0
  0
POINT
  5
C90
330
6DE
100
AcDbEntity
  8
Defpoints
 62
     0
100
AcDbPoint
 10
432.1458069654284
 20
213.9521746751064
 30
0.0
  0
ENDBLK
  5
6E9
330
6DE
100
AcDbEntity
  8
0
100
AcDbBlockEnd
  0
BLOCK
  5
6F4
330
6EA
100
AcDbEntity
  8
0
100
AcDbBlockBegin
  2
*D3
 70
     1
 10
0.0
 20
0.0
 30
0.0
  3
*D3
  1

  0
LINE
  5
C7F
330
6EA
100
AcDbEntity
  8
BEM
 62
     0
370
    -2
100
AcDbLine
 10
117.6458069654286
 20
257.8861349576704
 30
0.0
 11
117.6458069654286
 21
227.9521746751064
 31
0.0
  0
LINE
  5
C80
330
6EA
100
AcDbEntity
  8
BEM
 62
     0
370
    -2
100
AcDbLine
 10
401.6458069654285
 20
257.8861349576704
 30
0.0
 11
401.6458069654285
 21
227.9521746751064
 31
0.0
  0
LINE
  5
C81
330
6EA
100
AcDbEntity
  8
BEM
 62
     0
370
    -2
100
AcDbLine
 10
124.6458069654286
 20
229.9521746751064
 30
0.0
 11
394.6458069654285
 21
229.9521746751064
 31
0.0
  0
SOLID
  5
C82
330
6EA
100
AcDbEntity
  8
BEM
 62
     0
100
AcDbTrace
 10
124.6458069654286
 20
231.1188413417731
 30
0.0
 11
124.6458069654286
 21
228.7855080084398
 31
0.0
 12
117.6458069654286
 22
229.9521746751064
 32
0.0
 13
117.6458069654286
 23
229.9521746751064
 33
0.0
  0
SOLID
  5
C83
330
6EA
100
AcDbEntity
  8
BEM
 62
     0
100
AcDbTrace
 10
394.6458069654285
 20
231.1188413417731
 30
0.0
 11
394.6458069654285
 21
228.7855080084398
 31
0.0
 12
401.6458069654285
 22
229.9521746751064
 32
0.0
 13
401.6458069654285
 23
229.9521746751064
 33
0.0
  0
MTEXT
  5
C84
330
6EA
100
AcDbEntity
  8
BEM
 62
     1
100
AcDbMText
 10
259.6458069654286
 20
236.4521746751064
 30
0.0
 40
7.0
 41
0.0
 71
     5
 72
     1
  1
\A1;%%c284
 73
     1
 44
1.0
  0
POINT
  5
C85
330
6EA
100
AcDbEntity
  8
Defpoints
 62
     0
100
AcDbPoint
 10
117.6458069654286
 20
259.8861349576704
 30
0.0
  0
POINT
  5
C86
330
6EA
100
AcDbEntity
  8
Defpoints
 62
     0
100
AcDbPoint
 10
401.6458069654285
 20
259.8861349576704
 30
0.0
  0
POINT
  5
C87
330
6EA
100
AcDbEntity
  8
Defpoints
 62
     0
100
AcDbPoint
 10
401.6458069654285
 20
229.9521746751064
 30
0.0
  0
ENDBLK
  5
6F5
330
6EA
100
AcDbEntity
  8
0
100
AcDbBlockEnd
  0
BLOCK
  5
700
330
6F6
100
AcDbEntity
  8
0
100
AcDbBlockBegin
  2
*D4
 70
     1
 10
0.0
 20
0.0
 30
0.0
  3
*D4
  1

  0
LINE
  5
C76
330
6F6
100
AcDbEntity
  8
BEM
 62
     0
370
    -2
100
AcDbLine
 10
180.1458069654286
 20
186.2997213394536
 30
0.0
 11
180.1458069654286
 21
87.00643349887286
 31
0.0
  0
LINE
  5
C77
330
6F6
100
AcDbEntity
  8
BEM
 62
     0
370
    -2
100
AcDbLine
 10
339.1458069654286
 20
186.2997213394536
 30
0.0
 11
339.1458069654286
 21
87.00643349887286
 31
0.0
  0
LINE
  5
C78
330
6F6
100
AcDbEntity
  8
BEM
 62
     0
370
    -2
100
AcDbLine
 10
187.1458069654286
 20
90.00643349887287
 30
0.0
 11
332.1458069654286
 21
90.00643349887287
 31
0.0
  0
SOLID
  5
C79
330
6F6
100
AcDbEntity
  8
BEM
 62
     0
100
AcDbTrace
 10
187.1458069654286
 20
91.17310016553954
 30
0.0
 11
187.1458069654286
 21
88.8397668322062
 31
0.0
 12
180.1458069654286
 22
90.00643349887287
 32
0.0
 13
180.1458069654286
 23
90.00643349887287
 33
0.0
  0
SOLID
  5
C7A
330
6F6
100
AcDbEntity
  8
BEM
 62
     0
100
AcDbTrace
 10
332.1458069654286
 20
91.17310016553954
 30
0.0
 11
332.1458069654286
 21
88.8397668322062
 31
0.0
 12
339.1458069654286
 22
90.00643349887287
 32
0.0
 13
339.1458069654286
 23
90.00643349887287
 33
0.0
  0
MTEXT
  5
C7B
330
6F6
100
AcDbEntity
  8
BEM
 62
     1
100
AcDbMText
 10
259.6458069654286
 20
95.50643349887286
 30
0.0
 40
7.0
 41
0.0
 71
     5
 72
     1
  1
\A1;%%c159
 73
     1
 44
1.0
  0
POINT
  5
C7C
330
6F6
100
AcDbEntity
  8
Defpoints
 62
     0
100
AcDbPoint
 10
180.1458069654286
 20
188.2997213394536
 30
0.0
  0
POINT
  5
C7D
330
6F6
100
AcDbEntity
  8
Defpoints
 62
     0
100
AcDbPoint
 10
339.1458069654286
 20
188.2997213394536
 30
0.0
  0
POINT
  5
C7E
330
6F6
100
AcDbEntity
  8
Defpoints
 62
     0
100
AcDbPoint
 10
339.1458069654286
 20
90.00643349887287
 30
0.0
  0
ENDBLK
  5
701
330
6F6
100
AcDbEntity
  8
0
100
AcDbBlockEnd
  0
BLOCK
  5
70C
330
702
100
AcDbEntity
  8
0
100
AcDbBlockBegin
  2
*D5
 70
     1
 10
0.0
 20
0.0
 30
0.0
  3
*D5
  1

  0
LINE
  5
CBC
330
702
100
AcDbEntity
  8
BEM
 62
     0
370
    -2
100
AcDbLine
 10
178.1458069654286
 20
188.2997213394535
 30
0.0
 11
49.63342017356082
 21
188.2997213394535
 31
0.0
  0
LINE
  5
CBD
330
702
100
AcDbEntity
  8
BEM
 62
     0
370
    -2
100
AcDbLine
 10
191.8361666797777
 20
128.2997213394536
 30
0.0
 11
49.6334201735608
 21
128.2997213394536
 31
0.0
  0
LINE
  5
CBE
330
702
100
AcDbEntity
  8
BEM
 62
     0
370
    -2
100
AcDbLine
 10
51.63342017356082
 20
181.2997213394535
 30
0.0
 11
51.63342017356081
 21
135.2997213394536
 31
0.0
  0
SOLID
  5
CBF
330
702
100
AcDbEntity
  8
BEM
 62
     0
100
AcDbTrace
 10
50.46675350689415
 20
181.2997213394535
 30
0.0
 11
52.80008684022749
 21
181.2997213394535
 31
0.0
 12
51.63342017356082
 22
188.2997213394535
 32
0.0
 13
51.63342017356082
 23
188.2997213394535
 33
0.0
  0
SOLID
  5
CC0
330
702
100
AcDbEntity
  8
BEM
 62
     0
100
AcDbTrace
 10
50.46675350689414
 20
135.2997213394536
 30
0.0
 11
52.80008684022747
 21
135.2997213394536
 31
0.0
 12
51.63342017356081
 22
128.2997213394536
 32
0.0
 13
51.63342017356081
 23
128.2997213394536
 33
0.0
  0
MTEXT
  5
CC1
330
702
100
AcDbEntity
  8
BEM
 62
     1
100
AcDbMText
 10
45.13342017356078
 20
158.2997213394536
 30
0.0
 40
7.0
 41
0.0
 71
     5
 72
     1
  1
\A1;60
  7
GREEKS
 11
0.0000000000000001
 21
1.0
 31
0.0
 73
     1
 44
1.0
  0
POINT
  5
CC2
330
702
100
AcDbEntity
  8
Defpoints
 62
     0
100
AcDbPoint
 10
180.1458069654286
 20
188.2997213394535
 30
0.0
  0
POINT
  5
CC3
330
702
100
AcDbEntity
  8
Defpoints
 62
     0
100
AcDbPoint
 10
193.8361666797777
 20
128.2997213394535
 30
0.0
  0
POINT
  5
CC4
330
702
100
AcDbEntity
  8
Defpoints
 62
     0
100
AcDbPoint
 10
51.63342017356081
 20
128.2997213394536
 30
0.0
  0
ENDBLK
  5
70D
330
702
100
AcDbEntity
  8
0
100
AcDbBlockEnd
  0
BLOCK
  5
718
330
70E
100
AcDbEntity
  8
0
100
AcDbBlockBegin
  2
*D6
 70
     1
 10
0.0
 20
0.0
 30
0.0
  3
*D6
  1

  0
LINE
  5
C64
330
70E
100
AcDbEntity
  8
BEM
 62
     0
370
    -2
100
AcDbLine
 10
178.1458069654286
 20
749.1362726449803
 30
0.0
 11
49.63342017356091
 21
749.1362726449803
 31
0.0
  0
LINE
  5
C65
330
70E
100
AcDbEntity
  8
BEM
 62
     0
370
    -2
100
AcDbLine
 10
178.1458069654286
 20
188.2997213394536
 30
0.0
 11
49.63342017356082
 21
188.2997213394536
 31
0.0
  0
LINE
  5
C66
330
70E
100
AcDbEntity
  8
BEM
 62
     0
370
    -2
100
AcDbLine
 10
51.63342017356093
 20
742.1362726449804
 30
0.0
 11
51.63342017356081
 21
195.2997213394536
 31
0.0
  0
SOLID
  5
C67
330
70E
100
AcDbEntity
  8
BEM
 62
     0
100
AcDbTrace
 10
50.46675350689426
 20
742.1362726449804
 30
0.0
 11
52.80008684022759
 21
742.1362726449804
 31
0.0
 12
51.63342017356093
 22
749.1362726449803
 32
0.0
 13
51.63342017356093
 23
749.1362726449803
 33
0.0
  0
SOLID
  5
C68
330
70E
100
AcDbEntity
  8
BEM
 62
     0
100
AcDbTrace
 10
50.46675350689414
 20
195.2997213394536
 30
0.0
 11
52.80008684022747
 21
195.2997213394536
 31
0.0
 12
51.63342017356081
 22
188.2997213394536
 32
0.0
 13
51.63342017356081
 23
188.2997213394536
 33
0.0
  0
MTEXT
  5
C69
330
70E
100
AcDbEntity
  8
BEM
 62
     1
100
AcDbMText
 10
45.13342017356079
 20
468.717996992217
 30
0.0
 40
7.0
 41
0.0
 71
     5
 72
     1
  1
\A1;765
  7
GREEKS
 11
0.0000000000000001
 21
1.0
 31
0.0
 73
     1
 44
1.0
  0
POINT
  5
C6A
330
70E
100
AcDbEntity
  8
Defpoints
 62
     0
100
AcDbPoint
 10
180.1458069654286
 20
749.1362726449803
 30
0.0
  0
POINT
  5
C6B
330
70E
100
AcDbEntity
  8
Defpoints
 62
     0
100
AcDbPoint
 10
180.1458069654286
 20
188.2997213394536
 30
0.0
  0
POINT
  5
C6C
330
70E
100
AcDbEntity
  8
Defpoints
 62
     0
100
AcDbPoint
 10
51.63342017356081
 20
188.2997213394536
 30
0.0
  0
ENDBLK
  5
719
330
70E
100
AcDbEntity
  8
0
100
AcDbBlockEnd
  0
BLOCK
  5
724
330
71A
100
AcDbEntity
  8
0
100
AcDbBlockBegin
  2
*D7
 70
     1
 10
0.0
 20
0.0
 30
0.0
  3
*D7
  1

  0
LINE
  5
C5B
330
71A
100
AcDbEntity
  8
BEM
 62
     0
370
    -2
100
AcDbLine
 10
193.1458069654286
 20
134.1905689821837
 30
0.0
 11
193.1458069654286
 21
104.0055736147869
 31
0.0
  0
LINE
  5
C5C
330
71A
100
AcDbEntity
  8
BEM
 62
     0
370
    -2
100
AcDbLine
 10
326.1458069654286
 20
134.2997213394536
 30
0.0
 11
326.1458069654286
 21
104.0055736147869
 31
0.0
  0
LINE
  5
C5D
330
71A
100
AcDbEntity
  8
BEM
 62
     0
370
    -2
100
AcDbLine
 10
200.1458069654286
 20
106.0055736147869
 30
0.0
 11
319.1458069654286
 21
106.0055736147869
 31
0.0
  0
SOLID
  5
C5E
330
71A
100
AcDbEntity
  8
BEM
 62
     0
100
AcDbTrace
 10
200.1458069654286
 20
107.1722402814536
 30
0.0
 11
200.1458069654286
 21
104.8389069481203
 31
0.0
 12
193.1458069654286
 22
106.0055736147869
 32
0.0
 13
193.1458069654286
 23
106.0055736147869
 33
0.0
  0
SOLID
  5
C5F
330
71A
100
AcDbEntity
  8
BEM
 62
     0
100
AcDbTrace
 10
319.1458069654286
 20
107.1722402814536
 30
0.0
 11
319.1458069654286
 21
104.8389069481203
 31
0.0
 12
326.1458069654286
 22
106.0055736147869
 32
0.0
 13
326.1458069654286
 23
106.0055736147869
 33
0.0
  0
MTEXT
  5
C60
330
71A
100
AcDbEntity
  8
BEM
 62
     1
100
AcDbMText
 10
259.6458069654286
 20
112.5055736147869
 30
0.0
 40
7.0
 41
0.0
 71
     5
 72
     1
  1
\A1;%%c133
  7
GREEKS
 73
     1
 44
1.0
  0
POINT
  5
C61
330
71A
100
AcDbEntity
  8
Defpoints
 62
     0
100
AcDbPoint
 10
193.1458069654286
 20
136.1905689821838
 30
0.0
  0
POINT
  5
C62
330
71A
100
AcDbEntity
  8
Defpoints
 62
     0
100
AcDbPoint
 10
326.1458069654286
 20
136.2997213394536
 30
0.0
  0
POINT
  5
C63
330
71A
100
AcDbEntity
  8
Defpoints
 62
     0
100
AcDbPoint
 10
326.1458069654286
 20
106.0055736147869
 30
0.0
  0
ENDBLK
  5
725
330
71A
100
AcDbEntity
  8
0
100
AcDbBlockEnd
  0
BLOCK
  5
748
330
73E
100
AcDbEntity
  8
0
100
AcDbBlockBegin
  2
*D8
 70
     1
 10
0.0
 20
0.0
 30
0.0
  3
*D8
  1

  0
LINE
  5
C9A
330
73E
100
AcDbEntity
  8
BEM
 62
     0
370
    -2
100
AcDbLine
 10
347.3647303265394
 20
286.8861349576708
 30
0.0
 11
456.3924011034609
 21
286.8861349576707
 31
0.0
  0
LINE
  5
C9B
330
73E
100
AcDbEntity
  8
BEM
 62
     0
370
    -2
100
AcDbLine
 10
434.1458069654285
 20
256.8861349576703
 30
0.0
 11
456.3924011034609
 21
256.8861349576703
 31
0.0
  0
LINE
  5
C9C
330
73E
100
AcDbEntity
  8
BEM
 62
     0
370
    -2
100
AcDbLine
 10
454.392401103461
 20
279.8861349576707
 30
0.0
 11
454.392401103461
 21
263.8861349576703
 31
0.0
  0
SOLID
  5
C9D
330
73E
100
AcDbEntity
  8
BEM
 62
     0
100
AcDbTrace
 10
453.2257344367943
 20
279.8861349576707
 30
0.0
 11
455.5590677701276
 21
279.8861349576707
 31
0.0
 12
454.392401103461
 22
286.8861349576707
 32
0.0
 13
454.392401103461
 23
286.8861349576707
 33
0.0
  0
SOLID
  5
C9E
330
73E
100
AcDbEntity
  8
BEM
 62
     0
100
AcDbTrace
 10
453.2257344367943
 20
263.8861349576703
 30
0.0
 11
455.5590677701276
 21
263.8861349576703
 31
0.0
 12
454.392401103461
 22
256.8861349576703
 32
0.0
 13
454.392401103461
 23
256.8861349576703
 33
0.0
  0
MTEXT
  5
C9F
330
73E
100
AcDbEntity
  8
BEM
 62
     1
100
AcDbMText
 10
447.8924011034609
 20
271.8861349576706
 30
0.0
 40
7.0
 41
0.0
 71
     5
 72
     1
  1
\A1;30
  7
GREEKS
 11
0.0000000000000001
 21
1.0
 31
0.0
 73
     1
 44
1.0
  0
POINT
  5
CA0
330
73E
100
AcDbEntity
  8
Defpoints
 62
     0
100
AcDbPoint
 10
345.3647303265394
 20
286.8861349576708
 30
0.0
  0
POINT
  5
CA1
330
73E
100
AcDbEntity
  8
Defpoints
 62
     0
100
AcDbPoint
 10
432.1458069654284
 20
256.8861349576703
 30
0.0
  0
POINT
  5
CA2
330
73E
100
AcDbEntity
  8
Defpoints
 62
     0
100
AcDbPoint
 10
454.392401103461
 20
256.8861349576703
 30
0.0
  0
ENDBLK
  5
749
330
73E
100
AcDbEntity
  8
0
100
AcDbBlockEnd
  0
BLOCK
  5
754
330
74A
100
AcDbEntity
  8
0
100
AcDbBlockBegin
  2
*D9
 70
     1
 10
0.0
 20
0.0
 30
0.0
  3
*D9
  1

  0
LINE
  5
C91
330
74A
100
AcDbEntity
  8
BEM
 62
     0
370
    -2
100
AcDbLine
 10
84.64580696542862
 20
269.8861349576708
 30
0.0
 11
84.64580696542862
 21
311.1649369080786
 31
0.0
  0
LINE
  5
C92
330
74A
100
AcDbEntity
  8
BEM
 62
     0
370
    -2
100
AcDbLine
 10
434.6458069654285
 20
269.8861349576708
 30
0.0
 11
434.6458069654285
 21
311.1649369080786
 31
0.0
  0
LINE
  5
C93
330
74A
100
AcDbEntity
  8
BEM
 62
     0
370
    -2
100
AcDbLine
 10
91.64580696542861
 20
309.1649369080786
 30
0.0
 11
427.6458069654284
 21
309.1649369080786
 31
0.0
  0
SOLID
  5
C94
330
74A
100
AcDbEntity
  8
BEM
 62
     0
100
AcDbTrace
 10
91.64580696542861
 20
310.3316035747453
 30
0.0
 11
91.64580696542861
 21
307.9982702414119
 31
0.0
 12
84.64580696542862
 22
309.1649369080786
 32
0.0
 13
84.64580696542862
 23
309.1649369080786
 33
0.0
  0
SOLID
  5
C95
330
74A
100
AcDbEntity
  8
BEM
 62
     0
100
AcDbTrace
 10
427.6458069654284
 20
310.3316035747453
 30
0.0
 11
427.6458069654284
 21
307.9982702414119
 31
0.0
 12
434.6458069654285
 22
309.1649369080786
 32
0.0
 13
434.6458069654285
 23
309.1649369080786
 33
0.0
  0
MTEXT
  5
C96
330
74A
100
AcDbEntity
  8
BEM
 62
     1
100
AcDbMText
 10
259.6458069654286
 20
315.6649369080786
 30
0.0
 40
7.0
 41
0.0
 71
     5
 72
     1
  1
\A1;%%c350
  7
GREEKS
 73
     1
 44
1.0
  0
POINT
  5
C97
330
74A
100
AcDbEntity
  8
Defpoints
 62
     0
100
AcDbPoint
 10
84.64580696542862
 20
267.8861349576708
 30
0.0
  0
POINT
  5
C98
330
74A
100
AcDbEntity
  8
Defpoints
 62
     0
100
AcDbPoint
 10
434.6458069654285
 20
267.8861349576708
 30
0.0
  0
POINT
  5
C99
330
74A
100
AcDbEntity
  8
Defpoints
 62
     0
100
AcDbPoint
 10
434.6458069654285
 20
309.1649369080786
 30
0.0
  0
ENDBLK
  5
755
330
74A
100
AcDbEntity
  8
0
100
AcDbBlockEnd
  0
BLOCK
  5
BFC
330
BF2
100
AcDbEntity
  8
0
100
AcDbBlockBegin
  2
*D10
 70
     1
 10
0.0
 20
0.0
 30
0.0
  3
*D10
  1

  0
LINE
  5
C52
330
BF2
100
AcDbEntity
  8
BEM
 62
     0
370
    -2
100
AcDbLine
 10
86.14580696542862
 20
259.8861349576704
 30
0.0
 11
62.87241521457232
 21
259.8861349576704
 31
0.0
  0
LINE
  5
C53
330
BF2
100
AcDbEntity
  8
BEM
 62
     0
370
    -2
100
AcDbLine
 10
86.14580696542862
 20
359.8861349576704
 30
0.0
 11
62.87241521457235
 21
359.8861349576704
 31
0.0
  0
LINE
  5
C54
330
BF2
100
AcDbEntity
  8
BEM
 62
     0
370
    -2
100
AcDbLine
 10
65.87241521457233
 20
266.8861349576704
 30
0.0
 11
65.87241521457236
 21
352.8861349576704
 31
0.0
  0
SOLID
  5
C55
330
BF2
100
AcDbEntity
  8
BEM
 62
     0
100
AcDbTrace
 10
64.70574854790566
 20
266.8861349576704
 30
0.0
 11
67.039081881239
 21
266.8861349576704
 31
0.0
 12
65.87241521457233
 22
259.8861349576704
 32
0.0
 13
65.87241521457233
 23
259.8861349576704
 33
0.0
  0
SOLID
  5
C56
330
BF2
100
AcDbEntity
  8
BEM
 62
     0
100
AcDbTrace
 10
64.70574854790569
 20
352.8861349576704
 30
0.0
 11
67.03908188123903
 21
352.8861349576704
 31
0.0
 12
65.87241521457236
 22
359.8861349576704
 32
0.0
 13
65.87241521457236
 23
359.8861349576704
 33
0.0
  0
MTEXT
  5
C57
330
BF2
100
AcDbEntity
  8
BEM
 62
     1
100
AcDbMText
 10
60.37241521457229
 20
309.8861349576704
 30
0.0
 40
7.0
 41
0.0
 71
     5
 72
     1
  1
\A1;min. 35mm
 11
0.0000000000000001
 21
1.0
 31
0.0
 73
     1
 44
1.0
  0
POINT
  5
C58
330
BF2
100
AcDbEntity
  8
Defpoints
 62
     0
100
AcDbPoint
 10
88.14580696542861
 20
259.8861349576704
 30
0.0
  0
POINT
  5
C59
330
BF2
100
AcDbEntity
  8
Defpoints
 62
     0
100
AcDbPoint
 10
88.14580696542861
 20
359.8861349576704
 30
0.0
  0
POINT
  5
C5A
330
BF2
100
AcDbEntity
  8
Defpoints
 62
     0
100
AcDbPoint
 10
65.87241521457236
 20
359.8861349576704
 30
0.0
  0
ENDBLK
  5
BFD
330
BF2
100
AcDbEntity
  8
0
100
AcDbBlockEnd
  0
BLOCK
  5
CBA
330
CB0
100
AcDbEntity
  8
0
100
AcDbBlockBegin
  2
*D11
 70
     1
 10
0.0
 20
0.0
 30
0.0
  3
*D11
  1

  0
LINE
  5
CC5
330
CB0
100
AcDbEntity
  8
BEM
 62
     0
370
    -2
100
AcDbLine
 10
178.1458069654286
 20
749.1362726449803
 30
0.0
 11
32.88236474065584
 21
749.1362726449803
 31
0.0
  0
LINE
  5
CC6
330
CB0
100
AcDbEntity
  8
BEM
 62
     0
370
    -2
100
AcDbLine
 10
191.8361666797777
 20
128.2997213394535
 30
0.0
 11
32.8823647406557
 21
128.2997213394535
 31
0.0
  0
LINE
  5
CC7
330
CB0
100
AcDbEntity
  8
BEM
 62
     0
370
    -2
100
AcDbLine
 10
35.88236474065583
 20
742.1362726449804
 30
0.0
 11
35.8823647406557
 21
135.2997213394536
 31
0.0
  0
SOLID
  5
CC8
330
CB0
100
AcDbEntity
  8
BEM
 62
     0
100
AcDbTrace
 10
34.71569807398917
 20
742.1362726449804
 30
0.0
 11
37.0490314073225
 21
742.1362726449804
 31
0.0
 12
35.88236474065583
 22
749.1362726449803
 32
0.0
 13
35.88236474065583
 23
749.1362726449803
 33
0.0
  0
SOLID
  5
CC9
330
CB0
100
AcDbEntity
  8
BEM
 62
     0
100
AcDbTrace
 10
34.71569807398903
 20
135.2997213394536
 30
0.0
 11
37.04903140732236
 21
135.2997213394536
 31
0.0
 12
35.8823647406557
 22
128.2997213394535
 32
0.0
 13
35.8823647406557
 23
128.2997213394535
 33
0.0
  0
MTEXT
  5
CCA
330
CB0
100
AcDbEntity
  8
BEM
 62
     1
100
AcDbMText
 10
30.3823647406557
 20
438.7179969922169
 30
0.0
 40
7.0
 41
0.0
 71
     5
 72
     1
  1
\A1;825
 11
0.0000000000000001
 21
1.0
 31
0.0
 73
     1
 44
1.0
  0
POINT
  5
CCB
330
CB0
100
AcDbEntity
  8
Defpoints
 62
     0
100
AcDbPoint
 10
180.1458069654286
 20
749.1362726449803
 30
0.0
  0
POINT
  5
CCC
330
CB0
100
AcDbEntity
  8
Defpoints
 62
     0
100
AcDbPoint
 10
193.8361666797777
 20
128.2997213394535
 30
0.0
  0
POINT
  5
CCD
330
CB0
100
AcDbEntity
  8
Defpoints
 62
     0
100
AcDbPoint
 10
35.8823647406557
 20
128.2997213394535
 30
0.0
  0
ENDBLK
  5
CBB
330
CB0
100
AcDbEntity
  8
0
100
AcDbBlockEnd
  0
ENDSEC
  0
SECTION
  2
ENTITIES
  0
LINE
  5
57D
330
17
100
AcDbEntity
  8
STEMPEL
100
AcDbLine
 10
180.1458069654286
 20
256.8861349576705
 30
0.0
 11
87.14580696542862
 21
256.8861349576704
 31
0.0
  0
HATCH
  5
57E
330
17
100
AcDbEntity
  8
SCHRAFF
100
AcDbHatch
 10
0.0
 20
0.0
 30
0.0
210
0.0
220
0.0
230
1.0
  2
ANSI37
 70
     0
 71
     0
 91
        2
 92
        7
 72
     1
 73
     1
 93
       17
 10
180.1458069654286
 20
286.8861349576698
 42
0.0
 10
177.4987105217546
 20
293.0331825704267
 42
0.3649644247068629
 10
174.857265239381
 20
294.8758414701473
 42
0.2924258340981792
 10
172.4655710132686
 20
293.6361349576704
 42
0.0
 10
169.4807434559672
 20
288.4662619765926
 42
0.1316524975873975
 10
169.1458069654283
 20
287.2162619765926
 42
0.0
 10
169.1458069654283
 20
286.8861349576704
 42
0.0
 10
173.9268836043187
 20
286.8861349576704
 42
0.0
 10
176.6458069654285
 20
285.6182801724484
 42
0.0
 10
169.2576390262041
 20
269.7743028968947
 42
0.0
 10
172.1458069654283
 20
266.8861349576703
 42
0.0
 10
172.1458069654283
 20
266.0822873803771
 42
0.0
 10
169.1458069654283
 20
260.8861349576704
 42
0.0
 10
171.1458069654283
 20
260.8861349576704
 42
0.0
 10
174.1458069654283
 20
263.8861349576704
 42
0.0
 10
176.2176037351526
 20
263.8861349576704
 42
0.1672335555029036
 10
180.1458069654286
 20
260.4699364705746
 42
0.0
 97
        0
 92
        7
 72
     1
 73
     1
 93
       17
 10
342.6458069654287
 20
285.6182801724485
 42
0.0
 10
345.3647303265386
 20
286.8861349576704
 42
0.0
 10
350.1458069654282
 20
286.8861349576704
 42
0.0
 10
350.1458069654282
 20
287.2162619765926
 42
0.1316524975873909
 10
349.8108704748894
 20
288.4662619765925
 42
0.0
 10
346.826042917588
 20
293.6361349576704
 42
0.2924258340981822
 10
344.4343486914756
 20
294.8758414701473
 42
0.3649644247068388
 10
341.7929034091022
 20
293.0331825704267
 42
0.0
 10
339.1458069654286
 20
286.8861349576711
 42
0.0
 10
339.1458069654286
 20
260.4699364705749
 42
0.1672335555028828
 10
343.074010195704
 20
263.8861349576704
 42
0.0
 10
345.1458069654282
 20
263.8861349576704
 42
0.0
 10
348.1458069654282
 20
260.8861349576703
 42
0.0
 10
350.1458069654282
 20
260.8861349576704
 42
0.0
 10
347.1458069654282
 20
266.0822873803771
 42
0.0
 10
347.1458069654282
 20
266.8861349576703
 42
0.0
 10
350.033974904653
 20
269.774302896895
 42
0.0
 97
        0
 75
     0
 76
     1
 52
0.0
 41
20.0
 77
     0
 78
     2
 53
45.0
 43
29.89420112521429
 44
-93.74532773107375
 45
-1.767766952966368
 46
1.767766952966368
 79
     0
 53
135.0
 43
29.89420112521429
 44
-93.74532773107375
 45
-1.767766952966368
 46
-1.767766952966368
 79
     0
 47
0.4597774962840677
 98
        2
 10
176.2454326031216
 20
275.2491436538203
 10
342.8110850264307
 20
274.3295894531261
  0
LINE
  5
57F
330
17
100
AcDbEntity
  8
MITTEL
100
AcDbLine
 10
259.6458069654286
 20
304.203006950067
 30
0.0
 11
259.6458069654286
 21
242.0040117246069
 31
0.0
  0
LINE
  5
580
330
17
100
AcDbEntity
  8
MITTEL
100
AcDbLine
 10
259.6458069654286
 20
209.7671948623201
 30
0.0
 11
259.6458069654286
 21
123.2997213394535
 31
0.0
  0
DIMENSION
  5
585
330
17
100
AcDbEntity
  8
BEM
100
AcDbDimension
  2
*D8
 10
454.392401103461
 20
256.8861349576703
 30
0.0
 11
447.8924011034609
 21
271.8861349576706
 31
0.0
 70
    32
 71
     5
 42
30.00000000000046
  3
STANDARD
100
AcDbAlignedDimension
 13
345.3647303265394
 23
286.8861349576708
 33
0.0
 14
432.1458069654284
 24
256.8861349576703
 34
0.0
 50
90.0
100
AcDbRotatedDimension
1001
ACAD
1000
DSTYLE
1002
{
1070
    40
1040
2.0
1070
    41
1040
3.5
1070
    42
1040
1.0
1070
    43
1040
7.0
1070
    44
1040
1.0
1070
    73
1070
     0
1070
    74
1070
     0
1070
    77
1070
     1
1070
    78
1070
     8
1070
    79
1070
     2
1070
   140
1040
3.5
1070
   141
1040
1.5
1070
   146
1040
0.5
1070
   147
1040
1.5
1070
   172
1070
     1
1070
   178
1070
     1
1070
   179
1070
     2
1070
   271
1070
     2
1070
   272
1070
     2
1070
   284
1070
     8
1070
   285
1070
     8
1070
   286
1070
     8
1070
   340
1005
297
1002
}
  0
DIMENSION
  5
586
330
17
100
AcDbEntity
  8
BEM
100
AcDbDimension
  2
*D9
 10
434.6458069654285
 20
309.1649369080786
 30
0.0
 11
259.6458069654286
 21
315.6649369080786
 31
0.0
 70
    32
  1
%%c<>
 71
     5
 42
349.9999999999999
  3
STANDARD
100
AcDbAlignedDimension
 13
84.64580696542862
 23
267.8861349576708
 33
0.0
 14
434.6458069654285
 24
267.8861349576708
 34
0.0
100
AcDbRotatedDimension
1001
ACAD
1000
DSTYLE
1002
{
1070
    40
1040
2.0
1070
    41
1040
3.5
1070
    42
1040
1.0
1070
    43
1040
7.0
1070
    44
1040
1.0
1070
    73
1070
     0
1070
    74
1070
     0
1070
    77
1070
     1
1070
    78
1070
     8
1070
    79
1070
     2
1070
   140
1040
3.5
1070
   141
1040
1.5
1070
   146
1040
0.5
1070
   147
1040
1.5
1070
   172
1070
     1
1070
   178
1070
     1
1070
   179
1070
     2
1070
   271
1070
     2
1070
   272
1070
     2
1070
   284
1070
     8
1070
   285
1070
     8
1070
   286
1070
     8
1070
   340
1005
297
1002
}
  0
LINE
  5
587
330
17
100
AcDbEntity
  8
STEMPEL
100
AcDbLine
 10
396.6458069654285
 20
268.8861349576708
 30
0.0
 11
396.6458069654285
 21
259.8861349576704
 31
0.0
  0
LINE
  5
588
330
17
100
AcDbEntity
  8
HILF
100
AcDbLine
 10
397.6458069654285
 20
268.8861349576708
 30
0.0
 11
397.6458069654285
 21
259.8861349576704
 31
0.0
  0
LINE
  5
589
330
17
100
AcDbEntity
  8
HILF
100
AcDbLine
 10
405.6458069654285
 20
268.8861349576708
 30
0.0
 11
405.6458069654285
 21
259.8861349576704
 31
0.0
  0
LINE
  5
58A
330
17
100
AcDbEntity
  8
STEMPEL
100
AcDbLine
 10
406.6458069654284
 20
268.8861349576708
 30
0.0
 11
406.6458069654284
 21
259.8861349576704
 31
0.0
  0
ARC
  5
58B
330
17
100
AcDbEntity
  8
STEMPEL
100
AcDbCircle
 10
408.6583069654287
 20
275.2541818326705
 30
0.0
 40
3.231953125000015
100
AcDbArc
 50
43.67679672809952
 51
136.3232032718993
  0
ARC
  5
58C
330
17
100
AcDbEntity
  8
STEMPEL
100
AcDbCircle
 10
401.6458069654287
 20
267.0583224576709
 30
0.0
 40
11.42781249999961
100
AcDbArc
 50
65.85233813010086
 51
114.1476618698991
  0
LINE
  5
58D
330
17
100
AcDbEntity
  8
STEMPEL
100
AcDbLine
 10
412.1458069654289
 20
270.8861349576704
 30
0.0
 11
412.1458069654289
 21
268.8861349576704
 31
0.0
  0
ARC
  5
58E
330
17
100
AcDbEntity
  8
STEMPEL
100
AcDbCircle
 10
408.6583069654287
 20
274.1180880826704
 30
0.0
 40
3.231953125000015
100
AcDbArc
 50
223.6767967281007
 51
316.3232032719005
  0
ARC
  5
58F
330
17
100
AcDbEntity
  8
STEMPEL
100
AcDbCircle
 10
401.6458069654287
 20
282.31394745767
 30
0.0
 40
11.42781249999961
100
AcDbArc
 50
245.8523381301009
 51
294.1476618698991
  0
LINE
  5
590
330
17
100
AcDbEntity
  8
STEMPEL
100
AcDbLine
 10
406.3208069654287
 20
277.4861349576705
 30
0.0
 11
406.3208069654288
 21
271.8861349576704
 31
0.0
  0
LINE
  5
591
330
17
100
AcDbEntity
  8
STEMPEL
100
AcDbLine
 10
410.9958069654288
 20
277.4861349576703
 30
0.0
 11
410.9958069654288
 21
271.8861349576704
 31
0.0
  0
LINE
  5
592
330
17
100
AcDbEntity
  8
STEMPEL
100
AcDbLine
 10
396.9708069654288
 20
277.4861349576708
 30
0.0
 11
396.9708069654288
 21
271.8861349576699
 31
0.0
  0
LINE
  5
593
330
17
100
AcDbEntity
  8
STEMPEL
100
AcDbLine
 10
391.1458069654289
 20
270.8861349576704
 30
0.0
 11
391.1458069654289
 21
268.8861349576704
 31
0.0
  0
LINE
  5
594
330
17
100
AcDbEntity
  8
STEMPEL
100
AcDbLine
 10
392.2958069654291
 20
277.486134957671
 30
0.0
 11
392.2958069654288
 21
271.8861349576699
 31
0.0
  0
LINE
  5
595
330
17
100
AcDbEntity
  8
STEMPEL
100
AcDbLine
 10
394.6333069654287
 20
278.4861349576705
 30
0.0
 11
408.6583069654287
 21
278.4861349576705
 31
0.0
  0
ARC
  5
596
330
17
100
AcDbEntity
  8
STEMPEL
100
AcDbCircle
 10
394.6333069654287
 20
275.2541818326707
 30
0.0
 40
3.231953125000015
100
AcDbArc
 50
43.67679672809952
 51
136.3232032718993
  0
ARC
  5
597
330
17
100
AcDbEntity
  8
STEMPEL
100
AcDbCircle
 10
394.6333069654287
 20
274.1180880826699
 30
0.0
 40
3.231953125000015
100
AcDbArc
 50
223.6767967281007
 51
316.3232032719005
  0
LINE
  5
598
330
17
100
AcDbEntity
  8
STEMPEL
100
AcDbLine
 10
391.1458069654289
 20
270.8861349576706
 30
0.0
 11
412.1458069654289
 21
270.8861349576704
 31
0.0
  0
LINE
  5
599
330
17
100
AcDbEntity
  8
STEMPEL
100
AcDbLine
 10
352.8256528570186
 20
270.8861349576707
 30
0.0
 11
370.5549698939188
 21
270.8861349576705
 31
0.0
  0
ARC
  5
59A
330
17
100
AcDbEntity
  8
STEMPEL
100
AcDbCircle
 10
353.042469893919
 20
274.11808808267
 30
0.0
 40
3.231953125000015
100
AcDbArc
 50
266.0911024625781
 51
316.3232032719005
  0
ARC
  5
59B
330
17
100
AcDbEntity
  8
STEMPEL
100
AcDbCircle
 10
353.042469893919
 20
275.2541818326708
 30
0.0
 40
3.231953125000015
100
AcDbArc
 50
43.67679672809952
 51
136.3232032718993
  0
LINE
  5
59C
330
17
100
AcDbEntity
  8
STEMPEL
100
AcDbLine
 10
353.042469893919
 20
278.4861349576706
 30
0.0
 11
367.0674698939191
 21
278.4861349576706
 31
0.0
  0
LINE
  5
59D
330
17
100
AcDbEntity
  8
STEMPEL
100
AcDbLine
 10
350.7049698939189
 20
277.4861349576711
 30
0.0
 11
350.7049698939189
 21
275.4339542482444
 31
0.0
  0
LINE
  5
59E
330
17
100
AcDbEntity
  8
STEMPEL
100
AcDbLine
 10
355.3799698939191
 20
277.4861349576708
 30
0.0
 11
355.3799698939189
 21
271.88613495767
 31
0.0
  0
LINE
  5
59F
330
17
100
AcDbEntity
  8
STEMPEL
100
AcDbLine
 10
369.404969893919
 20
277.4861349576704
 30
0.0
 11
369.404969893919
 21
271.8861349576705
 31
0.0
  0
LINE
  5
5A0
330
17
100
AcDbEntity
  8
STEMPEL
100
AcDbLine
 10
364.729969893919
 20
277.4861349576706
 30
0.0
 11
364.729969893919
 21
271.8861349576705
 31
0.0
  0
ARC
  5
5A1
330
17
100
AcDbEntity
  8
STEMPEL
100
AcDbCircle
 10
360.0549698939188
 20
282.3139474576701
 30
0.0
 40
11.42781249999961
100
AcDbArc
 50
245.8523381301009
 51
294.1476618698991
  0
ARC
  5
5A2
330
17
100
AcDbEntity
  8
STEMPEL
100
AcDbCircle
 10
367.0674698939189
 20
274.1180880826705
 30
0.0
 40
3.231953125000015
100
AcDbArc
 50
223.6767967281007
 51
316.3232032719005
  0
LINE
  5
5A3
330
17
100
AcDbEntity
  8
STEMPEL
100
AcDbLine
 10
370.5549698939188
 20
270.8861349576705
 30
0.0
 11
370.5549698939188
 21
268.8861349576705
 31
0.0
  0
ARC
  5
5A4
330
17
100
AcDbEntity
  8
STEMPEL
100
AcDbCircle
 10
360.0549698939188
 20
267.058322457671
 30
0.0
 40
11.42781249999961
100
AcDbArc
 50
65.85233813010086
 51
114.1476618698991
  0
ARC
  5
5A5
330
17
100
AcDbEntity
  8
STEMPEL
100
AcDbCircle
 10
367.0674698939189
 20
275.2541818326706
 30
0.0
 40
3.231953125000015
100
AcDbArc
 50
43.67679672809952
 51
136.3232032718993
  0
ARC
  5
5A6
330
17
100
AcDbEntity
  8
STEMPEL
100
AcDbCircle
 10
152.2241440369383
 20
275.2541818326706
 30
0.0
 40
3.231953125000015
100
AcDbArc
 50
43.6767967281007
 51
136.3232032719004
  0
ARC
  5
5A7
330
17
100
AcDbEntity
  8
STEMPEL
100
AcDbCircle
 10
159.2366440369384
 20
267.058322457671
 30
0.0
 40
11.42781249999961
100
AcDbArc
 50
65.85233813010086
 51
114.1476618698991
  0
LINE
  5
5A8
330
17
100
AcDbEntity
  8
STEMPEL
100
AcDbLine
 10
148.7366440369383
 20
270.8861349576705
 30
0.0
 11
148.7366440369383
 21
268.8861349576705
 31
0.0
  0
ARC
  5
5A9
330
17
100
AcDbEntity
  8
STEMPEL
100
AcDbCircle
 10
152.2241440369383
 20
274.1180880826705
 30
0.0
 40
3.231953125000015
100
AcDbArc
 50
223.6767967280995
 51
316.3232032718993
  0
ARC
  5
5AA
330
17
100
AcDbEntity
  8
STEMPEL
100
AcDbCircle
 10
159.2366440369384
 20
282.3139474576701
 30
0.0
 40
11.42781249999961
100
AcDbArc
 50
245.8523381301009
 51
294.1476618698991
  0
LINE
  5
5AB
330
17
100
AcDbEntity
  8
STEMPEL
100
AcDbLine
 10
154.5616440369383
 20
277.4861349576706
 30
0.0
 11
154.5616440369382
 21
271.8861349576705
 31
0.0
  0
LINE
  5
5AC
330
17
100
AcDbEntity
  8
STEMPEL
100
AcDbLine
 10
149.8866440369383
 20
277.4861349576704
 30
0.0
 11
149.8866440369383
 21
271.8861349576705
 31
0.0
  0
LINE
  5
5AD
330
17
100
AcDbEntity
  8
STEMPEL
100
AcDbLine
 10
163.9116440369382
 20
277.4861349576708
 30
0.0
 11
163.9116440369383
 21
271.88613495767
 31
0.0
  0
LINE
  5
5AE
330
17
100
AcDbEntity
  8
STEMPEL
100
AcDbLine
 10
168.5866440369382
 20
277.4861349576711
 30
0.0
 11
168.5866440369383
 21
275.4339542482444
 31
0.0
  0
LINE
  5
5AF
330
17
100
AcDbEntity
  8
STEMPEL
100
AcDbLine
 10
166.2491440369383
 20
278.4861349576706
 30
0.0
 11
152.2241440369382
 21
278.4861349576706
 31
0.0
  0
ARC
  5
5B0
330
17
100
AcDbEntity
  8
STEMPEL
100
AcDbCircle
 10
166.2491440369383
 20
275.2541818326708
 30
0.0
 40
3.231953125000015
100
AcDbArc
 50
43.6767967281007
 51
136.3232032719004
  0
ARC
  5
5B1
330
17
100
AcDbEntity
  8
STEMPEL
100
AcDbCircle
 10
166.2491440369383
 20
274.11808808267
 30
0.0
 40
3.231953125000015
100
AcDbArc
 50
223.6767967280995
 51
273.9088975374218
  0
LINE
  5
5B2
330
17
100
AcDbEntity
  8
STEMPEL
100
AcDbLine
 10
166.4659610738388
 20
270.8861349576707
 30
0.0
 11
148.7366440369383
 21
270.8861349576705
 31
0.0
  0
LINE
  5
5B3
330
17
100
AcDbEntity
  8
STEMPEL
100
AcDbLine
 10
112.6458069654286
 20
268.8861349576708
 30
0.0
 11
112.6458069654286
 21
259.8861349576704
 31
0.0
  0
LINE
  5
5B4
330
17
100
AcDbEntity
  8
HILF
100
AcDbLine
 10
113.6458069654286
 20
268.8861349576708
 30
0.0
 11
113.6458069654286
 21
259.8861349576704
 31
0.0
  0
LINE
  5
5B5
330
17
100
AcDbEntity
  8
STEMPEL
100
AcDbLine
 10
122.6458069654286
 20
268.8861349576708
 30
0.0
 11
122.6458069654286
 21
259.8861349576704
 31
0.0
  0
LINE
  5
5B6
330
17
100
AcDbEntity
  8
HILF
100
AcDbLine
 10
121.6458069654286
 20
268.8861349576708
 30
0.0
 11
121.6458069654286
 21
259.8861349576704
 31
0.0
  0
LINE
  5
5B7
330
17
100
AcDbEntity
  8
STEMPEL
100
AcDbLine
 10
128.1458069654284
 20
270.8861349576706
 30
0.0
 11
107.1458069654284
 21
270.8861349576704
 31
0.0
  0
ARC
  5
5B8
330
17
100
AcDbEntity
  8
STEMPEL
100
AcDbCircle
 10
124.6583069654284
 20
274.1180880826699
 30
0.0
 40
3.231953125000015
100
AcDbArc
 50
223.6767967280995
 51
316.3232032718993
  0
ARC
  5
5B9
330
17
100
AcDbEntity
  8
STEMPEL
100
AcDbCircle
 10
124.6583069654284
 20
275.2541818326707
 30
0.0
 40
3.231953125000015
100
AcDbArc
 50
43.6767967281007
 51
136.3232032719004
  0
LINE
  5
5BA
330
17
100
AcDbEntity
  8
STEMPEL
100
AcDbLine
 10
124.6583069654284
 20
278.4861349576705
 30
0.0
 11
110.6333069654283
 21
278.4861349576705
 31
0.0
  0
LINE
  5
5BB
330
17
100
AcDbEntity
  8
STEMPEL
100
AcDbLine
 10
126.9958069654283
 20
277.486134957671
 30
0.0
 11
126.9958069654284
 21
271.8861349576699
 31
0.0
  0
LINE
  5
5BC
330
17
100
AcDbEntity
  8
STEMPEL
100
AcDbLine
 10
128.1458069654284
 20
270.8861349576704
 30
0.0
 11
128.1458069654284
 21
268.8861349576704
 31
0.0
  0
LINE
  5
5BD
330
17
100
AcDbEntity
  8
STEMPEL
100
AcDbLine
 10
122.3208069654283
 20
277.4861349576708
 30
0.0
 11
122.3208069654284
 21
271.8861349576699
 31
0.0
  0
LINE
  5
5BE
330
17
100
AcDbEntity
  8
STEMPEL
100
AcDbLine
 10
108.2958069654283
 20
277.4861349576703
 30
0.0
 11
108.2958069654283
 21
271.8861349576704
 31
0.0
  0
LINE
  5
5BF
330
17
100
AcDbEntity
  8
STEMPEL
100
AcDbLine
 10
112.9708069654284
 20
277.4861349576705
 30
0.0
 11
112.9708069654283
 21
271.8861349576704
 31
0.0
  0
ARC
  5
5C0
330
17
100
AcDbEntity
  8
STEMPEL
100
AcDbCircle
 10
117.6458069654285
 20
282.31394745767
 30
0.0
 40
11.42781249999961
100
AcDbArc
 50
245.8523381301009
 51
294.1476618698991
  0
ARC
  5
5C1
330
17
100
AcDbEntity
  8
STEMPEL
100
AcDbCircle
 10
110.6333069654284
 20
274.1180880826704
 30
0.0
 40
3.231953125000015
100
AcDbArc
 50
223.6767967280995
 51
316.3232032718993
  0
LINE
  5
5C2
330
17
100
AcDbEntity
  8
STEMPEL
100
AcDbLine
 10
107.1458069654284
 20
270.8861349576704
 30
0.0
 11
107.1458069654284
 21
268.8861349576704
 31
0.0
  0
ARC
  5
5C3
330
17
100
AcDbEntity
  8
STEMPEL
100
AcDbCircle
 10
117.6458069654285
 20
267.0583224576709
 30
0.0
 40
11.42781249999961
100
AcDbArc
 50
65.85233813010086
 51
114.1476618698991
  0
ARC
  5
5C4
330
17
100
AcDbEntity
  8
STEMPEL
100
AcDbCircle
 10
110.6333069654284
 20
275.2541818326705
 30
0.0
 40
3.231953125000015
100
AcDbArc
 50
43.6767967281007
 51
136.3232032719004
  0
LINE
  5
5C5
102
{ACAD_REACTORS
330
C4D
102
}
330
17
100
AcDbEntity
  8
STEMPEL
100
AcDbLine
 10
122.6458069654286
 20
262.8861349576709
 30
0.0
 11
162.7354998085989
 21
262.8861349576709
 31
0.0
  0
LINE
  5
5C6
330
17
100
AcDbEntity
  8
STEMPEL
100
AcDbLine
 10
154.2366440369385
 20
262.8861349576709
 30
0.0
 11
154.2366440369385
 21
259.8861349576708
 31
0.0
  0
LINE
  5
5C7
330
17
100
AcDbEntity
  8
HILF
100
AcDbLine
 10
155.2366440369384
 20
262.8861349576709
 30
0.0
 11
155.2366440369384
 21
259.8861349576708
 31
0.0
  0
LINE
  5
5C8
330
17
100
AcDbEntity
  8
STEMPEL
100
AcDbLine
 10
365.0549698939189
 20
262.8861349576709
 30
0.0
 11
365.0549698939189
 21
259.8861349576708
 31
0.0
  0
LINE
  5
5C9
330
17
100
AcDbEntity
  8
HILF
100
AcDbLine
 10
364.0549698939188
 20
262.8861349576709
 30
0.0
 11
364.0549698939188
 21
259.8861349576708
 31
0.0
  0
LINE
  5
5CA
102
{ACAD_REACTORS
330
C4D
102
}
330
17
100
AcDbEntity
  8
STEMPEL
100
AcDbLine
 10
356.5561141222582
 20
262.8861349576709
 30
0.0
 11
396.6458069654285
 21
262.8861349576709
 31
0.0
  0
LINE
  5
5CB
102
{ACAD_REACTORS
330
C4D
102
}
330
17
100
AcDbEntity
  8
STEMPEL
100
AcDbLine
 10
353.7582681733283
 20
268.8861349576708
 30
0.0
 11
433.6458069654285
 21
268.8861349576708
 31
0.0
  0
LINE
  5
5CC
102
{ACAD_REACTORS
330
C4D
102
}
330
17
100
AcDbEntity
  8
STEMPEL
100
AcDbLine
 10
406.6458069654284
 20
262.8861349576709
 30
0.0
 11
433.6458069654285
 21
262.8861349576709
 31
0.0
  0
LINE
  5
5CE
102
{ACAD_REACTORS
330
C4D
102
}
330
17
100
AcDbEntity
  8
STEMPEL
100
AcDbLine
 10
85.64580696542885
 20
268.8861349576708
 30
0.0
 11
165.5333457575287
 21
268.8861349576708
 31
0.0
  0
LINE
  5
5CF
102
{ACAD_REACTORS
330
C4D
102
}
330
17
100
AcDbEntity
  8
STEMPEL
100
AcDbLine
 10
85.64580696542885
 20
262.8861349576709
 30
0.0
 11
112.6458069654286
 21
262.8861349576709
 31
0.0
  0
LINE
  5
5D0
102
{ACAD_REACTORS
330
C4D
102
}
330
17
100
AcDbEntity
  8
STEMPEL
100
AcDbLine
 10
394.6458069654285
 20
262.8861349576707
 30
0.0
 11
394.6458069654285
 21
268.8861349576708
 31
0.0
  0
LINE
  5
5D1
102
{ACAD_REACTORS
330
C4D
102
}
330
17
100
AcDbEntity
  8
STEMPEL
100
AcDbLine
 10
408.6458069654285
 20
262.8861349576707
 30
0.0
 11
408.6458069654285
 21
268.8861349576708
 31
0.0
  0
LINE
  5
5D2
102
{ACAD_REACTORS
330
C4D
102
}
330
17
100
AcDbEntity
  8
STEMPEL
100
AcDbLine
 10
434.6458069654285
 20
263.8861349576708
 30
0.0
 11
434.6458069654285
 21
267.8861349576708
 31
0.0
  0
LINE
  5
5D3
102
{ACAD_REACTORS
330
C4D
102
}
330
17
100
AcDbEntity
  8
STEMPEL
100
AcDbLine
 10
433.6458069654285
 20
268.8861349576708
 30
0.0
 11
434.6458069654285
 21
267.8861349576708
 31
0.0
  0
LINE
  5
5D4
102
{ACAD_REACTORS
330
C4D
102
}
330
17
100
AcDbEntity
  8
STEMPEL
100
AcDbLine
 10
434.6458069654285
 20
263.8861349576708
 30
0.0
 11
433.6458069654285
 21
262.8861349576709
 31
0.0
  0
LINE
  5
5D5
102
{ACAD_REACTORS
330
C4D
102
}
330
17
100
AcDbEntity
  8
STEMPEL
100
AcDbLine
 10
368.6458069654289
 20
263.8861349576708
 30
0.0
 11
369.645806965429
 21
262.8861349576709
 31
0.0
  0
LINE
  5
5D6
102
{ACAD_REACTORS
330
C4D
102
}
330
17
100
AcDbEntity
  8
STEMPEL
100
AcDbLine
 10
369.645806965429
 20
268.8861349576708
 30
0.0
 11
368.6458069654289
 21
267.8861349576708
 31
0.0
  0
LINE
  5
5D7
102
{ACAD_REACTORS
330
C4D
102
}
330
17
100
AcDbEntity
  8
STEMPEL
100
AcDbLine
 10
368.6458069654289
 20
263.8861349576708
 30
0.0
 11
368.6458069654289
 21
267.8861349576708
 31
0.0
  0
LINE
  5
5D8
102
{ACAD_REACTORS
330
C4D
102
}
330
17
100
AcDbEntity
  8
STEMPEL
100
AcDbLine
 10
150.6458069654284
 20
263.8861349576708
 30
0.0
 11
150.6458069654284
 21
267.8861349576708
 31
0.0
  0
LINE
  5
5D9
102
{ACAD_REACTORS
330
C4D
102
}
330
17
100
AcDbEntity
  8
STEMPEL
100
AcDbLine
 10
149.6458069654284
 20
268.8861349576708
 30
0.0
 11
150.6458069654284
 21
267.8861349576708
 31
0.0
  0
LINE
  5
5DA
102
{ACAD_REACTORS
330
C4D
102
}
330
17
100
AcDbEntity
  8
STEMPEL
100
AcDbLine
 10
150.6458069654284
 20
263.8861349576708
 30
0.0
 11
149.6458069654284
 21
262.8861349576709
 31
0.0
  0
LINE
  5
5DB
102
{ACAD_REACTORS
330
C4D
102
}
330
17
100
AcDbEntity
  8
STEMPEL
100
AcDbLine
 10
84.64580696542862
 20
263.8861349576708
 30
0.0
 11
85.64580696542861
 21
262.8861349576709
 31
0.0
  0
LINE
  5
5DC
102
{ACAD_REACTORS
330
C4D
102
}
330
17
100
AcDbEntity
  8
STEMPEL
100
AcDbLine
 10
85.64580696542861
 20
268.8861349576708
 30
0.0
 11
84.64580696542862
 21
267.8861349576708
 31
0.0
  0
LINE
  5
5DD
102
{ACAD_REACTORS
330
C4D
102
}
330
17
100
AcDbEntity
  8
STEMPEL
100
AcDbLine
 10
84.64580696542862
 20
263.8861349576708
 30
0.0
 11
84.64580696542862
 21
267.8861349576708
 31
0.0
  0
LINE
  5
5DE
102
{ACAD_REACTORS
330
C4D
102
}
330
17
100
AcDbEntity
  8
STEMPEL
100
AcDbLine
 10
110.6458069654286
 20
262.8861349576707
 30
0.0
 11
110.6458069654286
 21
268.8861349576708
 31
0.0
  0
LINE
  5
5DF
102
{ACAD_REACTORS
330
C4D
102
}
330
17
100
AcDbEntity
  8
STEMPEL
100
AcDbLine
 10
124.6458069654288
 20
262.8861349576707
 30
0.0
 11
124.6458069654288
 21
268.8861349576708
 31
0.0
  0
ARC
  5
5E0
330
17
100
AcDbEntity
  8
STEMPEL
100
AcDbCircle
 10
344.6609794081269
 20
292.3861349576704
 30
0.0
 40
2.5
100
AcDbArc
 50
30.00000000000055
 51
90.0
  0
ARC
  5
5E1
330
17
100
AcDbEntity
  8
STEMPEL
100
AcDbCircle
 10
344.2077179748247
 20
292.3861349576704
 30
0.0
 40
2.5
100
AcDbArc
 50
90.0
 51
164.9999999999992
  0
ARC
  5
5E2
330
17
100
AcDbEntity
  8
STEMPEL
100
AcDbCircle
 10
347.6458069654282
 20
287.2162619765926
 30
0.0
 40
2.5
100
AcDbArc
 50
0.0
 51
30.00000000000055
  0
LINE
  5
5E3
330
17
100
AcDbEntity
  8
STEMPEL
100
AcDbLine
 10
350.1458069654282
 20
287.2162619765926
 30
0.0
 11
350.1458069654282
 21
286.8861349576704
 31
0.0
  0
LINE
  5
5E4
330
17
100
AcDbEntity
  8
STEMPEL
100
AcDbLine
 10
350.1458069654282
 20
286.8861349576704
 30
0.0
 11
345.3647303265388
 21
286.8861349576704
 31
0.0
  0
LINE
  5
5E5
330
17
100
AcDbEntity
  8
STEMPEL
100
AcDbLine
 10
339.1458069654283
 20
286.8861349576704
 30
0.0
 11
341.7929034091022
 21
293.0331825704267
 31
0.0
  0
LINE
  5
5E6
330
17
100
AcDbEntity
  8
STEMPEL
100
AcDbLine
 10
349.8108704748893
 20
288.4662619765926
 30
0.0
 11
346.826042917588
 21
293.6361349576704
 31
0.0
  0
LINE
  5
5E7
330
17
100
AcDbEntity
  8
STEMPEL
100
AcDbLine
 10
350.033974904653
 20
269.774302896895
 30
0.0
 11
347.1458069654282
 21
266.8861349576704
 31
0.0
  0
LINE
  5
5E8
330
17
100
AcDbEntity
  8
STEMPEL
100
AcDbLine
 10
347.1458069654282
 20
266.8861349576704
 30
0.0
 11
347.1458069654282
 21
266.0822873803771
 31
0.0
  0
LINE
  5
5E9
330
17
100
AcDbEntity
  8
STEMPEL
100
AcDbLine
 10
345.1458069654282
 20
263.8861349576704
 30
0.0
 11
343.074010195704
 21
263.8861349576704
 31
0.0
  0
LINE
  5
5EA
330
17
100
AcDbEntity
  8
STEMPEL
100
AcDbLine
 10
348.1458069654282
 20
260.8861349576704
 30
0.0
 11
345.1458069654282
 21
263.8861349576704
 31
0.0
  0
LINE
  5
5EB
330
17
100
AcDbEntity
  8
STEMPEL
100
AcDbLine
 10
350.1458069654282
 20
260.8861349576704
 30
0.0
 11
340.0187903116357
 21
260.8861349576704
 31
0.0
  0
ARC
  5
5EC
330
17
100
AcDbEntity
  8
STEMPEL
100
AcDbCircle
 10
336.1458069654282
 20
267.8861349576704
 30
0.0
 40
8.0
100
AcDbArc
 50
292.0243128370431
 51
329.9999999999995
  0
LINE
  5
5ED
330
17
100
AcDbEntity
  8
STEMPEL
100
AcDbLine
 10
350.1458069654282
 20
260.8861349576704
 30
0.0
 11
347.1458069654282
 21
266.0822873803771
 31
0.0
  0
LINE
  5
5EE
330
17
100
AcDbEntity
  8
STEMPEL
100
AcDbLine
 10
344.6609794081269
 20
294.8861349576704
 30
0.0
 11
339.1458069654283
 21
294.8861349576704
 31
0.0
  0
ARC
  5
5EF
330
17
100
AcDbEntity
  8
STEMPEL
100
AcDbCircle
 10
175.0838959560319
 20
292.3861349576704
 30
0.0
 40
2.5
100
AcDbArc
 50
15.00000000000074
 51
90.0
  0
ARC
  5
5F0
330
17
100
AcDbEntity
  8
STEMPEL
100
AcDbCircle
 10
174.6306345227297
 20
292.3861349576704
 30
0.0
 40
2.5
100
AcDbArc
 50
90.0
 51
149.9999999999994
  0
LINE
  5
5F1
330
17
100
AcDbEntity
  8
STEMPEL
100
AcDbLine
 10
169.1458069654283
 20
287.2162619765926
 30
0.0
 11
169.1458069654283
 21
286.8861349576704
 31
0.0
  0
ARC
  5
5F2
330
17
100
AcDbEntity
  8
STEMPEL
100
AcDbCircle
 10
171.6458069654283
 20
287.2162619765926
 30
0.0
 40
2.5
100
AcDbArc
 50
149.9999999999994
 51
180.0
  0
LINE
  5
5F3
330
17
100
AcDbEntity
  8
STEMPEL
100
AcDbLine
 10
169.1458069654283
 20
286.8861349576704
 30
0.0
 11
173.9268836043187
 21
286.8861349576704
 31
0.0
  0
LINE
  5
5F4
330
17
100
AcDbEntity
  8
STEMPEL
100
AcDbLine
 10
180.1458069654283
 20
286.8861349576704
 30
0.0
 11
177.4987105217546
 21
293.0331825704267
 31
0.0
  0
LINE
  5
5F5
330
17
100
AcDbEntity
  8
STEMPEL
100
AcDbLine
 10
169.4807434559672
 20
288.4662619765926
 30
0.0
 11
172.4655710132686
 21
293.6361349576704
 31
0.0
  0
LINE
  5
5F6
330
17
100
AcDbEntity
  8
STEMPEL
100
AcDbLine
 10
172.1458069654283
 20
266.8861349576704
 30
0.0
 11
172.1458069654283
 21
266.0822873803771
 31
0.0
  0
LINE
  5
5F7
330
17
100
AcDbEntity
  8
STEMPEL
100
AcDbLine
 10
169.2576390262041
 20
269.7743028968946
 30
0.0
 11
172.1458069654283
 21
266.8861349576704
 31
0.0
  0
LINE
  5
5F8
330
17
100
AcDbEntity
  8
STEMPEL
100
AcDbLine
 10
174.1458069654283
 20
263.8861349576704
 30
0.0
 11
176.2176037351526
 21
263.8861349576704
 31
0.0
  0
LINE
  5
5F9
330
17
100
AcDbEntity
  8
STEMPEL
100
AcDbLine
 10
169.1458069654283
 20
260.8861349576704
 30
0.0
 11
179.2728236192209
 21
260.8861349576704
 31
0.0
  0
LINE
  5
5FA
330
17
100
AcDbEntity
  8
STEMPEL
100
AcDbLine
 10
171.1458069654283
 20
260.8861349576704
 30
0.0
 11
174.1458069654283
 21
263.8861349576704
 31
0.0
  0
LINE
  5
5FB
330
17
100
AcDbEntity
  8
STEMPEL
100
AcDbLine
 10
169.1458069654283
 20
260.8861349576704
 30
0.0
 11
172.1458069654283
 21
266.0822873803771
 31
0.0
  0
ARC
  5
5FC
330
17
100
AcDbEntity
  8
STEMPEL
100
AcDbCircle
 10
183.1458069654283
 20
267.8861349576704
 30
0.0
 40
8.0
100
AcDbArc
 50
210.0000000000005
 51
247.9756871629578
  0
LINE
  5
5FD
330
17
100
AcDbEntity
  8
STEMPEL
100
AcDbLine
 10
174.6306345227297
 20
294.8861349576704
 30
0.0
 11
180.1458069654283
 21
294.8861349576703
 31
0.0
  0
HATCH
  5
5FE
330
17
100
AcDbEntity
  8
SCHRAFF
100
AcDbHatch
 10
0.0
 20
0.0
 30
0.0
210
0.0
220
0.0
230
1.0
  2
_USER
 70
     0
 71
     0
 91
        2
 92
        7
 72
     1
 73
     1
 93
        9
 10
88.14580696542861
 20
259.8861349576704
 42
0.0
 10
87.14580696542862
 20
258.8861349576704
 42
0.0
 10
87.14580696542862
 20
256.8861349576704
 42
0.0
 10
159.4253660517113
 20
256.8861349576704
 42
0.2914734195860852
 10
164.863212773931
 20
260.3504253872262
 42
0.0
 10
176.6458069654285
 20
285.6182801724484
 42
0.0
 10
173.9268836043186
 20
286.8861349576704
 42
0.0
 10
162.1442894128212
 20
261.6182801724484
 42
-0.2914734195860891
 10
159.4253660517113
 20
259.8861349576704
 42
0.0
 97
        0
 92
        7
 72
     1
 73
     1
 93
        8
 10
432.1458069654284
 20
256.8861349576706
 42
0.0
 10
432.1458069654284
 20
258.8861349576711
 42
0.0
 10
431.1458069654285
 20
259.8861349576708
 42
0.0
 10
357.9550370967232
 20
259.8861349576708
 42
0.0
 10
345.3647303265388
 20
286.8861349576706
 42
0.0
 10
342.6458069654287
 20
285.6182801724484
 42
0.0
 10
354.4284011569258
 20
260.3504253872267
 42
0.2914734195860982
 10
359.8662478791458
 20
256.8861349576706
 42
0.0
 97
        0
 75
     0
 76
     0
 52
135.0
 41
2.0
 77
     0
 78
     1
 53
135.0
 43
41.54702939873914
 44
-95.20108869275418
 45
-1.414213562373095
 46
-1.414213562373094
 79
     0
 47
0.3918458513578915
 98
        2
 10
146.9760022596836
 20
258.5437747192722
 10
374.8110653601078
 20
258.1519289108554
  0
ARC
  5
5FF
330
17
100
AcDbEntity
  8
STEMPEL
100
AcDbCircle
 10
159.4253660517113
 20
262.8861349576704
 30
0.0
 40
6.0
100
AcDbArc
 50
270.0
 51
335.0000000000006
  0
ARC
  5
600
330
17
100
AcDbEntity
  8
STEMPEL
100
AcDbCircle
 10
159.4253660517113
 20
262.8861349576704
 30
0.0
 40
3.0
100
AcDbArc
 50
270.0
 51
335.0000000000006
  0
ARC
  5
601
330
17
100
AcDbEntity
  8
STEMPEL
100
AcDbCircle
 10
359.8662478791456
 20
262.8861349576709
 30
0.0
 40
6.0
100
AcDbArc
 50
204.9999999999994
 51
270.0
  0
ARC
  5
602
330
17
100
AcDbEntity
  8
STEMPEL
100
AcDbCircle
 10
359.8662478791456
 20
262.8861349576709
 30
0.0
 40
3.0
100
AcDbArc
 50
204.9999999999994
 51
270.0
  0
LINE
  5
603
330
17
100
AcDbEntity
  8
STEMPEL
100
AcDbLine
 10
173.9268836043186
 20
286.8861349576706
 30
0.0
 11
162.1442894128212
 21
261.6182801724484
 31
0.0
  0
LINE
  5
604
330
17
100
AcDbEntity
  8
STEMPEL
100
AcDbLine
 10
176.6458069654285
 20
285.6182801724484
 30
0.0
 11
164.863212773931
 21
260.3504253872263
 31
0.0
  0
LINE
  5
605
330
17
100
AcDbEntity
  8
STEMPEL
100
AcDbLine
 10
173.9268836043187
 20
286.8861349576704
 30
0.0
 11
176.6458069654286
 21
285.6182801724484
 31
0.0
  0
LINE
  5
606
330
17
100
AcDbEntity
  8
STEMPEL
100
AcDbLine
 10
345.3647303265385
 20
286.8861349576704
 30
0.0
 11
342.6458069654285
 21
285.6182801724484
 31
0.0
  0
LINE
  5
607
330
17
100
AcDbEntity
  8
STEMPEL
100
AcDbLine
 10
342.6458069654287
 20
285.6182801724484
 30
0.0
 11
354.4284011569259
 21
260.3504253872268
 31
0.0
  0
LINE
  5
608
330
17
100
AcDbEntity
  8
STEMPEL
100
AcDbLine
 10
345.3647303265388
 20
286.8861349576706
 30
0.0
 11
357.1473245180357
 21
261.6182801724487
 31
0.0
  0
LINE
  5
60B
330
17
100
AcDbEntity
  8
STEMPEL
100
AcDbLine
 10
154.2366440369385
 20
283.8861349576708
 30
0.0
 11
154.2366440369385
 21
278.4861349576706
 31
0.0
  0
LINE
  5
60C
330
17
100
AcDbEntity
  8
STEMPEL
100
AcDbLine
 10
164.2366440369385
 20
283.8861349576708
 30
0.0
 11
164.2366440369384
 21
278.4861349576706
 31
0.0
  0
LINE
  5
60D
330
17
100
AcDbEntity
  8
MITTEL
100
AcDbLine
 10
159.2366440369385
 20
289.3766292446552
 30
0.0
 11
159.2366440369385
 21
259.8861349576704
 31
0.0
  0
LINE
  5
60E
330
17
100
AcDbEntity
  8
HILF
100
AcDbLine
 10
163.2366440369385
 20
284.8861349576708
 30
0.0
 11
163.2366440369385
 21
278.4861349576706
 31
0.0
  0
LINE
  5
60F
330
17
100
AcDbEntity
  8
HILF
100
AcDbLine
 10
155.2366440369385
 20
284.8861349576708
 30
0.0
 11
155.2366440369385
 21
278.4861349576706
 31
0.0
  0
LINE
  5
610
330
17
100
AcDbEntity
  8
STEMPEL
100
AcDbLine
 10
163.2366440369385
 20
284.8861349576708
 30
0.0
 11
155.2366440369385
 21
284.8861349576708
 31
0.0
  0
LINE
  5
611
330
17
100
AcDbEntity
  8
STEMPEL
100
AcDbLine
 10
154.2366440369385
 20
283.8861349576708
 30
0.0
 11
164.2366440369385
 21
283.8861349576708
 31
0.0
  0
LINE
  5
612
330
17
100
AcDbEntity
  8
STEMPEL
100
AcDbLine
 10
155.2366440369385
 20
284.8861349576708
 30
0.0
 11
154.2366440369385
 21
283.8861349576708
 31
0.0
  0
LINE
  5
613
330
17
100
AcDbEntity
  8
STEMPEL
100
AcDbLine
 10
164.2366440369385
 20
283.8861349576708
 30
0.0
 11
163.2366440369385
 21
284.8861349576708
 31
0.0
  0
LINE
  5
615
330
17
100
AcDbEntity
  8
STEMPEL
100
AcDbLine
 10
88.14580696542861
 20
259.8861349576704
 30
0.0
 11
87.14580696542862
 21
258.8861349576704
 31
0.0
  0
LINE
  5
616
330
17
100
AcDbEntity
  8
STEMPEL
100
AcDbLine
 10
159.4253660517113
 20
259.8861349576704
 30
0.0
 11
88.14580696542861
 21
259.8861349576704
 31
0.0
  0
LINE
  5
617
330
17
100
AcDbEntity
  8
STEMPEL
100
AcDbLine
 10
431.1458069654285
 20
259.8861349576708
 30
0.0
 11
432.1458069654284
 21
258.8861349576708
 31
0.0
  0
LINE
  5
618
330
17
100
AcDbEntity
  8
STEMPEL
100
AcDbLine
 10
432.1458069654284
 20
258.8861349576708
 30
0.0
 11
432.1458069654284
 21
256.8861349576706
 31
0.0
  0
LINE
  5
619
330
17
100
AcDbEntity
  8
STEMPEL
100
AcDbLine
 10
87.14580696542862
 20
258.8861349576704
 30
0.0
 11
87.14580696542862
 21
256.8861349576704
 31
0.0
  0
LINE
  5
61A
330
17
100
AcDbEntity
  8
STEMPEL
100
AcDbLine
 10
431.1458069654285
 20
259.8861349576708
 30
0.0
 11
359.8662478791456
 21
259.8861349576708
 31
0.0
  0
LINE
  5
61B
330
17
100
AcDbEntity
  8
STEMPEL
100
AcDbLine
 10
432.1458069654284
 20
256.8861349576706
 30
0.0
 11
339.1458069654286
 21
256.8861349576705
 31
0.0
  0
DIMENSION
  5
61C
330
17
100
AcDbEntity
  8
BEM
100
AcDbDimension
  2
*D2
 10
432.1458069654284
 20
213.9521746751064
 30
0.0
 11
259.6458069654286
 21
220.4521746751065
 31
0.0
 70
    32
  1
%%c<>
 71
     5
 42
344.9999999999999
  3
STANDARD
100
AcDbAlignedDimension
 13
87.14580696542862
 23
256.8861349576704
 33
0.0
 14
432.1458069654284
 24
256.8861349576706
 34
0.0
100
AcDbRotatedDimension
1001
ACAD
1000
DSTYLE
1002
{
1070
    40
1040
2.0
1070
    41
1040
3.5
1070
    42
1040
1.0
1070
    43
1040
7.0
1070
    44
1040
1.0
1070
    73
1070
     0
1070
    74
1070
     0
1070
    77
1070
     1
1070
    78
1070
     8
1070
    79
1070
     2
1070
   140
1040
3.5
1070
   141
1040
1.5
1070
   146
1040
0.5
1070
   147
1040
1.5
1070
   172
1070
     1
1070
   178
1070
     1
1070
   179
1070
     2
1070
   271
1070
     1
1070
   272
1070
     1
1070
   284
1070
     8
1070
   285
1070
     8
1070
   286
1070
     8
1002
}
  0
DIMENSION
  5
61D
330
17
100
AcDbEntity
  8
BEM
100
AcDbDimension
  2
*D3
 10
401.6458069654285
 20
229.9521746751064
 30
0.0
 11
259.6458069654286
 21
236.4521746751064
 31
0.0
 70
    32
  1
%%c<>
 71
     5
 42
283.9999999999999
  3
STANDARD
100
AcDbAlignedDimension
 13
117.6458069654286
 23
259.8861349576704
 33
0.0
 14
401.6458069654285
 24
259.8861349576704
 34
0.0
100
AcDbRotatedDimension
1001
ACAD
1000
DSTYLE
1002
{
1070
    40
1040
2.0
1070
    41
1040
3.5
1070
    42
1040
1.0
1070
    43
1040
7.0
1070
    44
1040
1.0
1070
    73
1070
     0
1070
    74
1070
     0
1070
    77
1070
     1
1070
    78
1070
     8
1070
    79
1070
     2
1070
   140
1040
3.5
1070
   141
1040
1.5
1070
   146
1040
0.5
1070
   147
1040
1.5
1070
   172
1070
     1
1070
   178
1070
     1
1070
   179
1070
     2
1070
   271
1070
     1
1070
   272
1070
     1
1070
   284
1070
     8
1070
   285
1070
     8
1070
   286
1070
     8
1002
}
  0
LINE
  5
61E
330
17
100
AcDbEntity
  8
STEMPEL
100
AcDbLine
 10
122.6458069654286
 20
283.8861349576704
 30
0.0
 11
121.6458069654286
 21
284.8861349576704
 31
0.0
  0
LINE
  5
61F
330
17
100
AcDbEntity
  8
STEMPEL
100
AcDbLine
 10
113.6458069654286
 20
284.8861349576704
 30
0.0
 11
112.6458069654286
 21
283.8861349576704
 31
0.0
  0
LINE
  5
620
330
17
100
AcDbEntity
  8
STEMPEL
100
AcDbLine
 10
112.6458069654286
 20
283.8861349576704
 30
0.0
 11
122.6458069654286
 21
283.8861349576704
 31
0.0
  0
LINE
  5
621
330
17
100
AcDbEntity
  8
STEMPEL
100
AcDbLine
 10
121.6458069654286
 20
284.8861349576704
 30
0.0
 11
113.6458069654286
 21
284.8861349576704
 31
0.0
  0
LINE
  5
622
330
17
100
AcDbEntity
  8
HILF
100
AcDbLine
 10
113.6458069654286
 20
284.8861349576704
 30
0.0
 11
113.6458069654286
 21
278.4861349576706
 31
0.0
  0
LINE
  5
623
330
17
100
AcDbEntity
  8
HILF
100
AcDbLine
 10
121.6458069654286
 20
284.8861349576704
 30
0.0
 11
121.6458069654286
 21
278.4861349576706
 31
0.0
  0
LINE
  5
624
330
17
100
AcDbEntity
  8
MITTEL
100
AcDbLine
 10
117.6458069654286
 20
289.3766292446547
 30
0.0
 11
117.6458069654286
 21
259.8861349576704
 31
0.0
  0
LINE
  5
625
330
17
100
AcDbEntity
  8
STEMPEL
100
AcDbLine
 10
122.6458069654286
 20
283.8861349576704
 30
0.0
 11
122.6458069654286
 21
278.4861349576706
 31
0.0
  0
LINE
  5
626
330
17
100
AcDbEntity
  8
STEMPEL
100
AcDbLine
 10
112.6458069654286
 20
283.8861349576704
 30
0.0
 11
112.6458069654286
 21
278.4861349576706
 31
0.0
  0
LINE
  5
62D
330
17
100
AcDbEntity
  8
STEMPEL
100
AcDbLine
 10
406.6458069654284
 20
283.8861349576704
 30
0.0
 11
406.6458069654284
 21
278.4861349576705
 31
0.0
  0
LINE
  5
62E
330
17
100
AcDbEntity
  8
STEMPEL
100
AcDbLine
 10
396.6458069654285
 20
283.8861349576704
 30
0.0
 11
396.6458069654285
 21
278.4861349576705
 31
0.0
  0
LINE
  5
62F
330
17
100
AcDbEntity
  8
MITTEL
100
AcDbLine
 10
401.6458069654285
 20
289.3766292446547
 30
0.0
 11
401.6458069654285
 21
259.8861349576704
 31
0.0
  0
LINE
  5
630
330
17
100
AcDbEntity
  8
HILF
100
AcDbLine
 10
397.6458069654285
 20
284.8861349576704
 30
0.0
 11
397.6458069654285
 21
278.4861349576705
 31
0.0
  0
LINE
  5
631
330
17
100
AcDbEntity
  8
HILF
100
AcDbLine
 10
405.6458069654285
 20
284.8861349576704
 30
0.0
 11
405.6458069654285
 21
278.4861349576705
 31
0.0
  0
LINE
  5
632
330
17
100
AcDbEntity
  8
STEMPEL
100
AcDbLine
 10
397.6458069654285
 20
284.8861349576704
 30
0.0
 11
405.6458069654285
 21
284.8861349576704
 31
0.0
  0
LINE
  5
633
330
17
100
AcDbEntity
  8
STEMPEL
100
AcDbLine
 10
406.6458069654284
 20
283.8861349576704
 30
0.0
 11
396.6458069654285
 21
283.8861349576704
 31
0.0
  0
LINE
  5
634
330
17
100
AcDbEntity
  8
STEMPEL
100
AcDbLine
 10
405.6458069654285
 20
284.8861349576704
 30
0.0
 11
406.6458069654284
 21
283.8861349576704
 31
0.0
  0
LINE
  5
635
330
17
100
AcDbEntity
  8
STEMPEL
100
AcDbLine
 10
396.6458069654285
 20
283.8861349576704
 30
0.0
 11
397.6458069654285
 21
284.8861349576704
 31
0.0
  0
LINE
  5
636
330
17
100
AcDbEntity
  8
STEMPEL
100
AcDbLine
 10
355.0549698939188
 20
283.8861349576708
 30
0.0
 11
356.0549698939188
 21
284.8861349576708
 31
0.0
  0
LINE
  5
637
330
17
100
AcDbEntity
  8
STEMPEL
100
AcDbLine
 10
364.0549698939188
 20
284.8861349576708
 30
0.0
 11
365.0549698939189
 21
283.8861349576708
 31
0.0
  0
LINE
  5
638
330
17
100
AcDbEntity
  8
STEMPEL
100
AcDbLine
 10
365.0549698939189
 20
283.8861349576708
 30
0.0
 11
355.0549698939188
 21
283.8861349576708
 31
0.0
  0
LINE
  5
639
330
17
100
AcDbEntity
  8
STEMPEL
100
AcDbLine
 10
356.0549698939188
 20
284.8861349576708
 30
0.0
 11
364.0549698939188
 21
284.8861349576708
 31
0.0
  0
LINE
  5
63A
330
17
100
AcDbEntity
  8
HILF
100
AcDbLine
 10
364.0549698939188
 20
284.8861349576708
 30
0.0
 11
364.0549698939186
 21
278.4861349576706
 31
0.0
  0
LINE
  5
63B
330
17
100
AcDbEntity
  8
HILF
100
AcDbLine
 10
356.0549698939188
 20
284.8861349576708
 30
0.0
 11
356.0549698939186
 21
278.4861349576706
 31
0.0
  0
LINE
  5
63C
330
17
100
AcDbEntity
  8
MITTEL
100
AcDbLine
 10
360.0549698939188
 20
289.3766292446552
 30
0.0
 11
360.0549698939186
 21
259.8861349576708
 31
0.0
  0
LINE
  5
63D
330
17
100
AcDbEntity
  8
STEMPEL
100
AcDbLine
 10
355.0549698939188
 20
283.8861349576708
 30
0.0
 11
355.0549698939188
 21
278.4861349576706
 31
0.0
  0
LINE
  5
63E
330
17
100
AcDbEntity
  8
STEMPEL
100
AcDbLine
 10
365.0549698939189
 20
283.8861349576708
 30
0.0
 11
365.0549698939189
 21
278.4861349576706
 31
0.0
  0
HATCH
  5
640
330
17
100
AcDbEntity
  8
SCHRAFF
100
AcDbHatch
 10
0.0
 20
0.0
 30
0.0
210
0.0
220
0.0
230
1.0
  2
_USER
 70
     0
 71
     0
 91
        2
 92
        5
 93
        4
 72
     4
 94
        3
 73
     0
 74
     0
 95
        8
 96
        4
 40
161.3924139022538
 40
161.3924139022538
 40
161.3924139022538
 40
161.3924139022538
 40
162.9294845108468
 40
162.9294845108468
 40
162.9294845108468
 40
162.9294845108468
 10
339.1458069654286
 20
570.3268615774232
 10
338.6458069654286
 20
570.1590923491659
 10
338.1458069654286
 20
569.9913231209086
 10
337.6458069654286
 20
569.8237927950767
 72
     1
 10
337.6458069654286
 20
569.8237927950769
 11
337.6458069654286
 21
188.2997213394526
 72
     1
 10
337.6458069654286
 20
188.2997213394526
 11
339.1458069654287
 21
188.2997213394525
 72
     1
 10
339.1458069654287
 20
188.2997213394525
 11
339.1458069654286
 21
570.3268615774231
 97
        0
 92
        5
 93
        4
 72
     4
 94
        3
 73
     0
 74
     0
 95
        8
 96
        4
 40
0.0
 40
0.0
 40
0.0
 40
0.0
 40
1.53707060859287
 40
1.53707060859287
 40
1.53707060859287
 40
1.53707060859287
 10
181.6458069654286
 20
570.8299303597694
 10
181.1458069654286
 20
570.6624000339377
 10
180.6458069654286
 20
570.4946308056804
 10
180.1458069654286
 20
570.3268615774232
 72
     1
 10
180.1458069654286
 20
570.3268615774232
 11
180.1458069654286
 21
188.2997213394536
 72
     1
 10
180.1458069654286
 20
188.2997213394536
 11
181.6458069654286
 21
188.2997213394535
 72
     1
 10
181.6458069654286
 20
188.2997213394535
 11
181.6458069654286
 21
570.8299303597696
 97
        0
 75
     0
 76
     0
 52
135.0
 41
2.0
 77
     0
 78
     1
 53
135.0
 43
29.89420112521429
 44
3.735297141570299
 45
-1.414213562373095
 46
-1.414213562373094
 79
     0
 47
0.8094712855657498
 98
        2
 10
338.6016864871385
 20
518.4476286915651
 10
180.6351044656899
 20
492.5445491067521
  0
HATCH
  5
641
330
17
100
AcDbEntity
  8
SCHRAFF
100
AcDbHatch
 10
0.0
 20
0.0
 30
0.0
210
0.0
220
0.0
230
1.0
  2
_USER
 70
     0
 71
     0
 91
        2
 92
        5
 93
        4
 72
     1
 10
181.6458069654285
 20
749.1362726449803
 11
180.1458069654286
 21
749.1362726449803
 72
     1
 10
180.1458069654286
 20
749.1362726449803
 11
180.1458069654286
 21
586.0952754646643
 72
     4
 94
        3
 73
     0
 74
     0
 95
        8
 96
        4
 40
0.0
 40
0.0
 40
0.0
 40
0.0
 40
1.537070608592856
 40
1.537070608592856
 40
1.537070608592856
 40
1.537070608592856
 10
180.1458069654286
 20
586.0952754646641
 10
180.6458069654286
 20
586.2630446929214
 10
181.1458069654286
 20
586.4308139211785
 10
181.6458069654286
 20
586.5983442470103
 72
     1
 10
181.6458069654286
 20
586.5983442470102
 11
181.6458069654285
 21
749.1362726449803
 97
        0
 92
        5
 93
        4
 72
     1
 10
339.1458069654286
 20
749.1362726449803
 11
337.6458069654286
 21
749.1362726449802
 72
     1
 10
337.6458069654286
 20
749.1362726449802
 11
337.6458069654286
 21
585.5922066823178
 72
     4
 94
        3
 73
     0
 74
     0
 95
        8
 96
        4
 40
161.3924139022539
 40
161.3924139022539
 40
161.3924139022539
 40
161.3924139022539
 40
162.9294845108467
 40
162.9294845108467
 40
162.9294845108467
 40
162.9294845108467
 10
337.6458069654287
 20
585.5922066823178
 10
338.1458069654287
 20
585.7597370081496
 10
338.6458069654286
 20
585.9275062364068
 10
339.1458069654286
 20
586.0952754646641
 72
     1
 10
339.1458069654286
 20
586.095275464664
 11
339.1458069654286
 21
749.1362726449803
 97
        0
 75
     0
 76
     0
 52
135.0
 41
2.0
 77
     0
 78
     1
 53
135.0
 43
29.89420112521429
 44
3.735297141570299
 45
-1.414213562373095
 46
-1.414213562373094
 79
     0
 47
0.4505443296039294
 98
        2
 10
180.791929104304
 20
701.6626072610206
 10
338.60201530305
 20
694.9044403372763
  0
HATCH
  5
642
330
17
100
AcDbEntity
  8
SCHRAFF
100
AcDbHatch
 10
0.0
 20
0.0
 30
0.0
210
0.0
220
0.0
230
1.0
  2
_USER
 70
     0
 71
     0
 91
        2
 92
        5
 93
        6
 72
     4
 94
        3
 73
     0
 74
     0
 95
        8
 96
        4
 40
13.32127860780494
 40
13.32127860780494
 40
13.32127860780494
 40
13.32127860780494
 40
15.88306295545989
 40
15.88306295545989
 40
15.88306295545989
 40
15.88306295545989
 10
195.6458069654286
 20
575.2641097957702
 10
194.8124736320952
 20
575.0270101988299
 10
193.9791402987618
 20
574.7830532174557
 10
193.1458069654285
 20
574.5333448813954
 72
     1
 10
193.1458069654285
 20
574.5333448813956
 11
193.1458069654286
 21
136.1905689821837
 72
     1
 10
193.1458069654286
 20
136.1905689821837
 11
193.8361666797777
 21
128.2997213394535
 72
     1
 10
193.8361666797777
 20
128.2997213394535
 11
196.3457162736359
 21
128.2997213394535
 72
     1
 10
196.3457162736359
 20
128.2997213394535
 11
195.6458069654286
 21
136.2997213394529
 72
     1
 10
195.6458069654286
 20
136.2997213394528
 11
195.6458069654286
 21
575.2641097957702
 97
        0
 92
        5
 93
        6
 72
     4
 94
        3
 73
     0
 74
     0
 95
        8
 96
        4
 40
147.0464215553868
 40
147.0464215553868
 40
147.0464215553868
 40
147.0464215553868
 40
149.6082059030416
 40
149.6082059030416
 40
149.6082059030416
 40
149.6082059030416
 10
326.1458069654285
 20
566.1203782734507
 10
325.3124736320952
 20
565.8706699373905
 10
324.4791402987619
 20
565.6267129560164
 10
323.6458069654286
 20
565.3896133590761
 72
     1
 10
323.6458069654286
 20
565.3896133590761
 11
323.6458069654286
 21
136.2997213394503
 72
     1
 10
323.6458069654286
 20
136.2997213394503
 11
322.9458976572213
 21
128.2997213394535
 72
     1
 10
322.9458976572213
 20
128.2997213394535
 11
325.4554472510797
 21
128.2997213394535
 72
     1
 10
325.4554472510797
 20
128.2997213394535
 11
326.1458069654286
 21
136.190568982181
 72
     1
 10
326.1458069654286
 20
136.190568982181
 11
326.1458069654287
 21
566.1203782734509
 97
        0
 75
     0
 76
     0
 52
45.0
 41
2.0
 77
     0
 78
     1
 53
45.0
 43
29.89420112521429
 44
3.735297141570299
 45
-1.414213562373094
 46
1.414213562373095
 79
     0
 47
0.9153961847146831
 98
        2
 10
195.0207526252329
 20
503.4563687844338
 10
325.1055744215069
 20
504.3717679310621
  0
HATCH
  5
643
330
17
100
AcDbEntity
  8
SCHRAFF
100
AcDbHatch
 10
0.0
 20
0.0
 30
0.0
210
0.0
220
0.0
230
1.0
  2
_USER
 70
     0
 71
     0
 91
        2
 92
        5
 93
       21
 72
     2
 10
213.6458069654287
 20
735.5338952005163
 40
27.50000000000012
 50
179.9999999999998
 51
204.9999999999994
 73
     0
 72
     1
 10
188.7223428219206
 20
747.1558973983853
 11
189.6458069654286
 21
749.1362726449803
 72
     1
 10
189.6458069654286
 20
749.1362726449803
 11
186.8873621680222
 21
749.1362726449803
 72
     1
 10
186.8873621680222
 20
749.1362726449803
 11
186.456573354329
 21
748.2124430527374
 72
     2
 10
213.6458069654286
 20
735.5338952005165
 40
30.00000000000003
 50
155.0000000000003
 51
180.0
 73
     1
 72
     1
 10
183.6458069654286
 20
735.5338952005165
 11
183.6458069654286
 21
716.4272726449807
 72
     1
 10
183.6458069654286
 20
716.4272726449807
 11
183.6460707057365
 21
716.4272726449804
 72
     2
 10
213.6458069654288
 20
716.4272726449803
 40
29.99973625969222
 50
179.9999999999998
 51
205.0071583365522
 73
     1
 72
     2
 10
170.1458069654285
 20
696.1362726449804
 40
18.00000000000011
 50
334.9928416634477
 51
360.0000000000004
 73
     0
 72
     1
 10
188.1458069654286
 20
696.1362726449802
 11
188.1458069654285
 21
682.6049920676516
 72
     2
 10
206.1458069654285
 20
682.6049920676517
 40
18.00000000000003
 50
180.0000000000004
 51
214.7719440319484
 73
     1
 72
     2
 10
183.1458069654283
 20
666.6362726449806
 40
10.00000000000007
 50
325.2280559680525
 51
360.0
 73
     0
 72
     1
 10
193.1458069654284
 20
666.6362726449806
 11
193.1458069654285
 21
590.3017587686366
 72
     4
 94
        3
 73
     0
 74
     0
 95
        8
 96
        4
 40
13.32127860780493
 40
13.32127860780493
 40
13.32127860780493
 40
13.32127860780493
 40
15.88306295545989
 40
15.88306295545989
 40
15.88306295545989
 40
15.88306295545989
 10
193.1458069654285
 20
590.3017587686365
 10
193.9791402987619
 20
590.5514671046967
 10
194.8124736320952
 20
590.7954240860707
 10
195.6458069654286
 20
591.0325236830111
 72
     1
 10
195.6458069654286
 20
591.0325236830111
 11
195.6458069654286
 21
666.6362726449804
 72
     2
 10
183.1458069654287
 20
666.6362726449802
 40
12.49999999999992
 50
0.0000000000005211
 51
34.77194403194837
 73
     1
 72
     2
 10
206.1458069654286
 20
682.6049920676516
 40
15.5
 50
145.2280559680508
 51
180.0
 73
     0
 72
     1
 10
190.6458069654286
 20
682.6049920676516
 11
190.6458069654286
 21
696.1362726449804
 72
     2
 10
170.1458069654285
 20
696.1362726449804
 40
20.50000000000013
 50
0.0
 51
24.78717230718679
 73
     1
 72
     2
 10
213.6458069654285
 20
716.4272726449803
 40
27.49999999999991
 50
154.8288522569339
 51
180.0000000000002
 73
     0
 72
     1
 10
186.1458069654286
 20
716.4272726449804
 11
186.1458069654286
 21
735.5338952005162
 97
        0
 92
        5
 93
       21
 72
     2
 10
349.1458069654286
 20
696.1362726449804
 40
18.00000000000002
 50
180.0
 51
205.0071583365424
 73
     0
 72
     2
 10
305.6458069654287
 20
716.4272726449803
 40
29.99973625969202
 50
334.9928416634416
 51
360.0
 73
     1
 72
     1
 10
335.6455432251207
 20
716.4272726449803
 11
335.6458069654286
 21
716.4272726449802
 72
     1
 10
335.6458069654286
 20
716.4272726449802
 11
335.6458069654286
 21
735.5338952005161
 72
     2
 10
305.6458069654286
 20
735.5338952005161
 40
30.00000000000007
 50
0.0
 51
25.00000000000064
 73
     1
 72
     1
 10
332.8350405765279
 20
748.2124430527374
 11
332.4042517628347
 21
749.1362726449803
 72
     1
 10
332.4042517628347
 20
749.1362726449803
 11
329.6458069654286
 21
749.1362726449803
 72
     1
 10
329.6458069654286
 20
749.1362726449803
 11
330.5692711089364
 21
747.1558973983853
 72
     2
 10
305.6458069654286
 20
735.5338952005158
 40
27.50000000000007
 50
334.9999999999994
 51
360.0
 73
     0
 72
     1
 10
333.1458069654286
 20
735.5338952005158
 11
333.1458069654286
 21
716.4272726449803
 72
     2
 10
305.6458069654285
 20
716.4272726449802
 40
27.50000000000014
 50
359.9999999999997
 51
385.1711477430833
 73
     0
 72
     2
 10
349.1458069654287
 20
696.1362726449804
 40
20.50000000000005
 50
155.2128276928369
 51
180.0
 73
     1
 72
     1
 10
328.6458069654286
 20
696.1362726449804
 11
328.6458069654286
 21
682.6049920676515
 72
     2
 10
313.1458069654286
 20
682.6049920676516
 40
15.50000000000002
 50
0.0000000000004071
 51
34.77194403194979
 73
     0
 72
     2
 10
336.1458069654286
 20
666.6362726449804
 40
12.49999999999992
 50
145.2280559680529
 51
180.0
 73
     1
 72
     1
 10
323.6458069654286
 20
666.6362726449804
 11
323.6458069654286
 21
581.1580272463169
 72
     4
 94
        3
 73
     0
 74
     0
 95
        8
 96
        4
 40
147.0464215553869
 40
147.0464215553869
 40
147.0464215553869
 40
147.0464215553869
 40
149.6082059030417
 40
149.6082059030417
 40
149.6082059030417
 40
149.6082059030417
 10
323.6458069654287
 20
581.158027246317
 10
324.479140298762
 20
581.3951268432574
 10
325.3124736320954
 20
581.6390838246315
 10
326.1458069654287
 20
581.8887921606918
 72
     1
 10
326.1458069654286
 20
581.8887921606918
 11
326.1458069654286
 21
666.6362726449804
 72
     2
 10
336.1458069654287
 20
666.6362726449804
 40
10.00000000000007
 50
180.0
 51
214.7719440319495
 73
     0
 72
     2
 10
313.1458069654286
 20
682.6049920676517
 40
18.00000000000003
 50
325.228055968052
 51
359.9999999999992
 73
     1
 72
     1
 10
331.1458069654286
 20
682.6049920676515
 11
331.1458069654286
 21
696.1362726449804
 97
        0
 75
     0
 76
     0
 52
45.0
 41
2.0
 77
     0
 78
     1
 53
45.0
 43
29.89420112521429
 44
3.735297141570299
 45
-1.414213562373094
 46
1.414213562373095
 79
     0
 47
0.4503079552252717
 98
        2
 10
185.6691527590978
 20
726.9020554605458
 10
329.4263113983739
 20
692.2283411036405
  0
SPLINE
  5
644
102
{ACAD_REACTORS
330
A9C
102
}
330
17
100
AcDbEntity
  8
HILF
100
AcDbSpline
210
0.0
220
0.0
230
1.0
 70
     8
 71
     3
 72
    10
 73
     6
 74
     4
 42
0.0000000001
 43
0.0000000001
 44
0.0000000001
 40
0.0
 40
0.0
 40
0.0
 40
0.0
 40
40.73237112771169
 40
122.197113383135
 40
162.9294845108467
 40
162.9294845108467
 40
162.9294845108467
 40
162.9294845108467
 10
180.1458069654286
 20
570.3268615774232
 30
0.0
 10
193.3958069654286
 20
574.7727461262402
 30
0.0
 10
233.1458069654285
 20
588.1103997726913
 30
0.0
 10
286.1458069654286
 20
552.543323382155
 30
0.0
 10
325.8958069654286
 20
565.8809770286061
 30
0.0
 10
339.1458069654286
 20
570.3268615774232
 30
0.0
 11
180.1458069654286
 21
570.3268615774232
 31
0.0
 11
219.8958069654286
 21
579.2186306750572
 31
0.0
 11
299.3958069654286
 21
561.435092479789
 31
0.0
 11
339.1458069654286
 21
570.3268615774232
 31
0.0
  0
SPLINE
  5
645
102
{ACAD_REACTORS
330
A9C
102
}
330
17
100
AcDbEntity
  8
HILF
100
AcDbSpline
210
0.0
220
0.0
230
1.0
 70
     8
 71
     3
 72
    10
 73
     6
 74
     4
 42
0.0000000001
 43
0.0000000001
 44
0.0000000001
 40
0.0
 40
0.0
 40
0.0
 40
0.0
 40
40.73237112771169
 40
122.197113383135
 40
162.9294845108467
 40
162.9294845108467
 40
162.9294845108467
 40
162.9294845108467
 10
180.1458069654286
 20
586.0952754646641
 30
0.0
 10
193.3958069654286
 20
590.5411600134812
 30
0.0
 10
233.1458069654285
 20
603.8788136599321
 30
0.0
 10
286.1458069654286
 20
568.3117372693959
 30
0.0
 10
325.8958069654286
 20
581.6493909158471
 30
0.0
 10
339.1458069654286
 20
586.0952754646641
 30
0.0
 11
180.1458069654286
 21
586.0952754646641
 31
0.0
 11
219.8958069654286
 21
594.9870445622982
 31
0.0
 11
299.3958069654286
 21
577.20350636703
 31
0.0
 11
339.1458069654286
 21
586.0952754646641
 31
0.0
  0
DIMENSION
  5
648
330
17
100
AcDbEntity
  8
BEM
100
AcDbDimension
  2
*D4
 10
339.1458069654286
 20
90.00643349887287
 30
0.0
 11
259.6458069654286
 21
95.50643349887286
 31
0.0
 70
    32
  1
%%c<>
 71
     5
 42
159.0
  3
STANDARD
100
AcDbAlignedDimension
 13
180.1458069654286
 23
188.2997213394536
 33
0.0
 14
339.1458069654286
 24
188.2997213394536
 34
0.0
100
AcDbRotatedDimension
  0
LINE
  5
649
102
{ACAD_REACTORS
330
A9C
102
}
330
17
100
AcDbEntity
  8
STEMPEL
100
AcDbLine
 10
181.6458069654286
 20
570.8299303597694
 30
0.0
 11
181.6458069654286
 21
188.2997213394535
 31
0.0
  0
LINE
  5
64A
330
17
100
AcDbEntity
  8
STEMPEL
100
AcDbLine
 10
180.1458069654286
 20
570.3268615774232
 30
0.0
 11
180.1458069654286
 21
188.2997213394535
 31
0.0
  0
LINE
  5
64B
102
{ACAD_REACTORS
330
A9C
102
}
330
17
100
AcDbEntity
  8
STEMPEL
100
AcDbLine
 10
337.6458069654286
 20
569.8237927950769
 30
0.0
 11
337.6458069654286
 21
188.2997213394526
 31
0.0
  0
LINE
  5
64C
330
17
100
AcDbEntity
  8
STEMPEL
100
AcDbLine
 10
339.1458069654286
 20
570.3268615774232
 30
0.0
 11
339.1458069654286
 21
188.2997213394525
 31
0.0
  0
LINE
  5
64D
102
{ACAD_REACTORS
330
A9C
102
}
330
17
100
AcDbEntity
  8
STEMPEL
100
AcDbLine
 10
181.6458069654285
 20
749.1362726449803
 30
0.0
 11
181.6458069654286
 21
586.5983442470104
 31
0.0
  0
LINE
  5
64E
102
{ACAD_REACTORS
330
A9C
102
}
330
17
100
AcDbEntity
  8
STEMPEL
100
AcDbLine
 10
337.6458069654286
 20
749.1362726449803
 30
0.0
 11
337.6458069654286
 21
585.5922066823178
 31
0.0
  0
LINE
  5
64F
330
17
100
AcDbEntity
  8
STEMPEL
100
AcDbLine
 10
180.1458069654286
 20
749.1362726449803
 30
0.0
 11
180.1458069654286
 21
586.0952754646641
 31
0.0
  0
LINE
  5
650
330
17
100
AcDbEntity
  8
STEMPEL
100
AcDbLine
 10
339.1458069654286
 20
749.1362726449803
 30
0.0
 11
339.1458069654286
 21
586.0952754646641
 31
0.0
  0
LINE
  5
651
102
{ACAD_REACTORS
330
A9C
102
}
330
17
100
AcDbEntity
  8
STEMPEL
100
AcDbLine
 10
193.1458069654281
 20
188.2997213394535
 30
0.0
 11
180.1458069654286
 21
188.2997213394535
 31
0.0
  0
LINE
  5
652
102
{ACAD_REACTORS
330
A9C
102
}
330
17
100
AcDbEntity
  8
STEMPEL
100
AcDbLine
 10
183.6458069654284
 20
188.2997213394535
 30
0.0
 11
185.7894005048775
 21
196.2997213394536
 31
0.0
  0
LINE
  5
653
102
{ACAD_REACTORS
330
A9C
102
}
330
17
100
AcDbEntity
  8
STEMPEL
100
AcDbLine
 10
339.1458069654286
 20
188.2997213394526
 30
0.0
 11
326.1458069654283
 21
188.2997213394526
 31
0.0
  0
LINE
  5
654
102
{ACAD_REACTORS
330
A9C
102
}
330
17
100
AcDbEntity
  8
STEMPEL
100
AcDbLine
 10
335.6458069654288
 20
188.2997213394526
 30
0.0
 11
333.5022134259795
 21
196.2997213394536
 31
0.0
  0
LINE
  5
655
102
{ACAD_REACTORS
330
A9C
102
}
330
17
100
AcDbEntity
  8
STEMPEL
100
AcDbLine
 10
193.1458069654285
 20
574.5333448813956
 30
0.0
 11
193.1458069654286
 21
136.1905689821838
 31
0.0
  0
LINE
  5
656
330
17
100
AcDbEntity
  8
STEMPEL
100
AcDbLine
 10
195.6458069654286
 20
575.2641097957702
 30
0.0
 11
195.6458069654286
 21
136.2997213394527
 31
0.0
  0
LINE
  5
657
330
17
100
AcDbEntity
  8
STEMPEL
100
AcDbLine
 10
323.6458069654286
 20
565.3896133590761
 30
0.0
 11
323.6458069654286
 21
136.2997213394535
 31
0.0
  0
LINE
  5
658
102
{ACAD_REACTORS
330
A9C
102
}
330
17
100
AcDbEntity
  8
STEMPEL
100
AcDbLine
 10
326.1458069654286
 20
566.1203782734507
 30
0.0
 11
326.1458069654286
 21
136.2997213394535
 31
0.0
  0
LINE
  5
659
102
{ACAD_REACTORS
330
A9C
102
}
330
17
100
AcDbEntity
  8
STEMPEL
100
AcDbLine
 10
332.4042517628348
 20
749.1362726449803
 30
0.0
 11
332.8350405765279
 21
748.2124430527374
 31
0.0
  0
LINE
  5
65A
330
17
100
AcDbEntity
  8
STEMPEL
100
AcDbLine
 10
329.6458069654286
 20
749.1362726449803
 30
0.0
 11
330.5692711089364
 21
747.1558973983853
 31
0.0
  0
ARC
  5
65B
330
17
100
AcDbEntity
  8
STEMPEL
100
AcDbCircle
 10
305.6458069654286
 20
735.5338952005161
 30
0.0
 40
27.5
100
AcDbArc
 50
0.0
 51
24.99999999999271
  0
ARC
  5
65C
102
{ACAD_REACTORS
330
A9C
102
}
330
17
100
AcDbEntity
  8
STEMPEL
100
AcDbCircle
 10
305.6458069654286
 20
735.5338952005161
 30
0.0
 40
30.0
100
AcDbArc
 50
0.0
 51
24.99999999999271
  0
LINE
  5
65E
102
{ACAD_REACTORS
330
A9C
102
}
330
17
100
AcDbEntity
  8
STEMPEL
100
AcDbLine
 10
335.6455432251207
 20
716.4272726449803
 30
0.0
 11
335.6458069654286
 21
716.4272726449803
 31
0.0
  0
LINE
  5
65F
102
{ACAD_REACTORS
330
A9C
102
}
330
17
100
AcDbEntity
  8
STEMPEL
100
AcDbLine
 10
335.6458069654286
 20
735.5338952005161
 30
0.0
 11
335.6458069654286
 21
716.4272726449803
 31
0.0
  0
LINE
  5
660
330
17
100
AcDbEntity
  8
STEMPEL
100
AcDbLine
 10
333.1458069654286
 20
735.5338952005161
 30
0.0
 11
333.1458069654286
 21
716.4272726449803
 31
0.0
  0
ARC
  5
661
330
17
100
AcDbEntity
  8
STEMPEL
100
AcDbCircle
 10
349.1458069654286
 20
696.1362726449804
 30
0.0
 40
20.5
100
AcDbArc
 50
154.772855634097
 51
180.0
  0
ARC
  5
662
102
{ACAD_REACTORS
330
A9C
102
}
330
17
100
AcDbEntity
  8
STEMPEL
100
AcDbCircle
 10
349.1458069654286
 20
696.1362726449804
 30
0.0
 40
18.0
100
AcDbArc
 50
154.9928416634576
 51
180.0
  0
ARC
  5
663
102
{ACAD_REACTORS
330
A9C
102
}
330
17
100
AcDbEntity
  8
STEMPEL
100
AcDbCircle
 10
313.1458069654286
 20
682.6049920676515
 30
0.0
 40
18.0
100
AcDbArc
 50
325.2280559680503
 51
0.0
  0
LINE
  5
664
102
{ACAD_REACTORS
330
A9C
102
}
330
17
100
AcDbEntity
  8
STEMPEL
100
AcDbLine
 10
331.1458069654286
 20
696.1362726449804
 30
0.0
 11
331.1458069654286
 21
682.6049920676515
 31
0.0
  0
LINE
  5
665
330
17
100
AcDbEntity
  8
STEMPEL
100
AcDbLine
 10
328.6458069654286
 20
696.1362726449804
 30
0.0
 11
328.6458069654286
 21
682.6049920676515
 31
0.0
  0
ARC
  5
666
330
17
100
AcDbEntity
  8
STEMPEL
100
AcDbCircle
 10
336.1458069654286
 20
666.6362726449804
 30
0.0
 40
12.5
100
AcDbArc
 50
145.2280559680503
 51
180.0
  0
ARC
  5
667
330
17
100
AcDbEntity
  8
STEMPEL
100
AcDbCircle
 10
313.1458069654286
 20
682.6049920676516
 30
0.0
 40
15.5
100
AcDbArc
 50
325.2280559680503
 51
0.0
  0
ARC
  5
668
102
{ACAD_REACTORS
330
A9C
102
}
330
17
100
AcDbEntity
  8
STEMPEL
100
AcDbCircle
 10
336.1458069654286
 20
666.6362726449804
 30
0.0
 40
10.0
100
AcDbArc
 50
145.2280559680503
 51
180.0
  0
ARC
  5
669
102
{ACAD_REACTORS
330
A9C
102
}
330
17
100
AcDbEntity
  8
STEMPEL
100
AcDbCircle
 10
305.6458069654286
 20
716.4272726449803
 30
0.0
 40
29.99973625969209
100
AcDbArc
 50
334.9928416634577
 51
0.0
  0
ARC
  5
66A
330
17
100
AcDbEntity
  8
STEMPEL
100
AcDbCircle
 10
305.6458069654286
 20
716.4272726449803
 30
0.0
 40
27.5
100
AcDbArc
 50
335.156831069967
 51
0.0
  0
LINE
  5
66C
102
{ACAD_REACTORS
330
A9C
102
}
330
17
100
AcDbEntity
  8
STEMPEL
100
AcDbLine
 10
333.5022134259798
 20
196.2997213394536
 30
0.0
 11
326.1458069654286
 21
196.2997213394536
 31
0.0
  0
LINE
  5
66D
330
17
100
AcDbEntity
  8
STEMPEL
100
AcDbLine
 10
326.1458069654289
 20
136.1905689821838
 30
0.0
 11
325.4554472510797
 21
128.2997213394535
 31
0.0
  0
LINE
  5
66E
330
17
100
AcDbEntity
  8
STEMPEL
100
AcDbLine
 10
323.6458069654288
 20
136.2997213394527
 30
0.0
 11
322.9458976572214
 21
128.2997213394535
 31
0.0
  0
LINE
  5
66F
330
17
100
AcDbEntity
  8
MITTEL
100
AcDbLine
 10
259.6458069654286
 20
754.1362726449804
 30
0.0
 11
259.6458069654286
 21
323.5303606620766
 31
0.0
  0
LINE
  5
670
102
{ACAD_REACTORS
330
A9C
102
}
330
17
100
AcDbEntity
  8
STEMPEL
100
AcDbLine
 10
326.1458069654286
 20
666.6362726449804
 30
0.0
 11
326.1458069654286
 21
581.8887921606918
 31
0.0
  0
LINE
  5
671
330
17
100
AcDbEntity
  8
STEMPEL
100
AcDbLine
 10
323.6458069654286
 20
666.6362726449804
 30
0.0
 11
323.6458069654286
 21
581.158027246317
 31
0.0
  0
DIMENSION
  5
672
330
17
100
AcDbEntity
  8
BEM
100
AcDbDimension
  2
*D5
 10
51.63342017356081
 20
128.2997213394536
 30
0.0
 11
45.13342017356078
 21
158.2997213394536
 31
0.0
 70
    32
 71
     5
 42
59.99999999999992
  3
STANDARD
100
AcDbAlignedDimension
 13
180.1458069654286
 23
188.2997213394535
 33
0.0
 14
193.8361666797777
 24
128.2997213394535
 34
0.0
 50
90.0
100
AcDbRotatedDimension
1001
ACAD
1000
DSTYLE
1002
{
1070
    40
1040
2.0
1070
    41
1040
3.5
1070
    42
1040
1.0
1070
    43
1040
7.0
1070
    44
1040
1.0
1070
    73
1070
     0
1070
    74
1070
     0
1070
    77
1070
     1
1070
    78
1070
     8
1070
    79
1070
     2
1070
   140
1040
3.5
1070
   141
1040
1.5
1070
   146
1040
0.5142857142857144
1070
   147
1040
1.5
1070
   172
1070
     1
1070
   178
1070
     1
1070
   179
1070
     2
1070
   271
1070
     2
1070
   272
1070
     2
1070
   284
1070
     8
1070
   285
1070
     8
1070
   286
1070
     8
1070
   289
1070
     0
1070
   340
1005
297
1002
}
  0
DIMENSION
  5
673
330
17
100
AcDbEntity
  8
BEM
100
AcDbDimension
  2
*D6
 10
51.63342017356081
 20
188.2997213394536
 30
0.0
 11
45.13342017356079
 21
468.717996992217
 31
0.0
 70
    32
  1
765
 71
     5
 42
560.8365513055267
  3
STANDARD
100
AcDbAlignedDimension
 13
180.1458069654286
 23
749.1362726449803
 33
0.0
 14
180.1458069654286
 24
188.2997213394536
 34
0.0
 50
90.0
100
AcDbRotatedDimension
1001
ACAD
1000
DSTYLE
1002
{
1070
    40
1040
2.0
1070
    41
1040
3.5
1070
    42
1040
1.0
1070
    43
1040
7.0
1070
    44
1040
1.0
1070
    73
1070
     0
1070
    74
1070
     0
1070
    77
1070
     1
1070
    78
1070
     8
1070
    79
1070
     2
1070
   140
1040
3.5
1070
   141
1040
1.5
1070
   146
1040
0.5142857142857144
1070
   147
1040
1.5
1070
   172
1070
     1
1070
   178
1070
     1
1070
   179
1070
     2
1070
   271
1070
     2
1070
   272
1070
     2
1070
   284
1070
     8
1070
   285
1070
     8
1070
   286
1070
     8
1070
   289
1070
     0
1070
   340
1005
297
1002
}
  0
LINE
  5
674
330
17
100
AcDbEntity
  8
STEMPEL
100
AcDbLine
 10
189.6458069654286
 20
749.1362726449803
 30
0.0
 11
188.7223428219206
 21
747.1558973983853
 31
0.0
  0
LINE
  5
675
102
{ACAD_REACTORS
330
A9C
102
}
330
17
100
AcDbEntity
  8
STEMPEL
100
AcDbLine
 10
186.8873621680222
 20
749.1362726449803
 30
0.0
 11
186.456573354329
 21
748.2124430527374
 31
0.0
  0
ARC
  5
676
102
{ACAD_REACTORS
330
A9C
102
}
330
17
100
AcDbEntity
  8
STEMPEL
100
AcDbCircle
 10
213.6458069654286
 20
735.5338952005162
 30
0.0
 40
30.0
100
AcDbArc
 50
155.0000000000065
 51
180.0
  0
ARC
  5
677
330
17
100
AcDbEntity
  8
STEMPEL
100
AcDbCircle
 10
213.6458069654286
 20
735.5338952005162
 30
0.0
 40
27.5
100
AcDbArc
 50
155.0000000000065
 51
180.0
  0
LINE
  5
678
102
{ACAD_REACTORS
330
A9C
102
}
330
17
100
AcDbEntity
  8
STEMPEL
100
AcDbLine
 10
183.6460707057365
 20
716.4272726449804
 30
0.0
 11
183.6458069654286
 21
716.4272726449804
 31
0.0
  0
LINE
  5
679
330
17
100
AcDbEntity
  8
STEMPEL
100
AcDbLine
 10
186.1458069654286
 20
735.5338952005162
 30
0.0
 11
186.1458069654286
 21
716.4272726449804
 31
0.0
  0
LINE
  5
67A
102
{ACAD_REACTORS
330
A9C
102
}
330
17
100
AcDbEntity
  8
STEMPEL
100
AcDbLine
 10
183.6458069654286
 20
735.5338952005162
 30
0.0
 11
183.6458069654286
 21
716.4272726449804
 31
0.0
  0
ARC
  5
67C
330
17
100
AcDbEntity
  8
STEMPEL
100
AcDbCircle
 10
170.1458069654286
 20
696.1362726449804
 30
0.0
 40
20.5
100
AcDbArc
 50
0.0
 51
25.22714436590881
  0
ARC
  5
67D
102
{ACAD_REACTORS
330
A9C
102
}
330
17
100
AcDbEntity
  8
STEMPEL
100
AcDbCircle
 10
170.1458069654286
 20
696.1362726449804
 30
0.0
 40
18.0
100
AcDbArc
 50
0.0
 51
25.00715833655098
  0
ARC
  5
67E
102
{ACAD_REACTORS
330
A9C
102
}
330
17
100
AcDbEntity
  8
STEMPEL
100
AcDbCircle
 10
183.1458069654284
 20
666.6362726449804
 30
0.0
 40
10.0
100
AcDbArc
 50
0.0
 51
34.7719440319497
  0
ARC
  5
67F
330
17
100
AcDbEntity
  8
STEMPEL
100
AcDbCircle
 10
206.1458069654286
 20
682.6049920676516
 30
0.0
 40
15.5
100
AcDbArc
 50
180.0
 51
214.7719440319497
  0
ARC
  5
680
102
{ACAD_REACTORS
330
A9C
102
}
330
17
100
AcDbEntity
  8
STEMPEL
100
AcDbCircle
 10
206.1458069654286
 20
682.6049920676516
 30
0.0
 40
18.0
100
AcDbArc
 50
180.0
 51
214.7719440319497
  0
LINE
  5
681
330
17
100
AcDbEntity
  8
STEMPEL
100
AcDbLine
 10
190.6458069654286
 20
696.1362726449804
 30
0.0
 11
190.6458069654286
 21
682.6049920676516
 31
0.0
  0
LINE
  5
682
102
{ACAD_REACTORS
330
A9C
102
}
330
17
100
AcDbEntity
  8
STEMPEL
100
AcDbLine
 10
188.1458069654286
 20
696.1362726449804
 30
0.0
 11
188.1458069654285
 21
682.6049920676516
 31
0.0
  0
ARC
  5
683
330
17
100
AcDbEntity
  8
STEMPEL
100
AcDbCircle
 10
183.1458069654284
 20
666.6362726449804
 30
0.0
 40
12.5
100
AcDbArc
 50
0.0
 51
34.7719440319497
  0
ARC
  5
684
330
17
100
AcDbEntity
  8
STEMPEL
100
AcDbCircle
 10
213.6458069654286
 20
716.4272726449804
 30
0.0
 40
27.5
100
AcDbArc
 50
180.0
 51
204.8431689300329
  0
ARC
  5
685
102
{ACAD_REACTORS
330
A9C
102
}
330
17
100
AcDbEntity
  8
STEMPEL
100
AcDbCircle
 10
213.6458069654286
 20
716.4272726449804
 30
0.0
 40
29.99973625969209
100
AcDbArc
 50
180.0
 51
205.007158336551
  0
LINE
  5
687
102
{ACAD_REACTORS
330
A9C
102
}
330
17
100
AcDbEntity
  8
STEMPEL
100
AcDbLine
 10
193.1458069654289
 20
196.2997213394536
 30
0.0
 11
185.7894005048778
 21
196.2997213394536
 31
0.0
  0
LINE
  5
688
330
17
100
AcDbEntity
  8
STEMPEL
100
AcDbLine
 10
195.6458069654286
 20
136.2997213394527
 30
0.0
 11
196.3457162736358
 21
128.2997213394535
 31
0.0
  0
LINE
  5
689
330
17
100
AcDbEntity
  8
STEMPEL
100
AcDbLine
 10
193.1458069654286
 20
136.1905689821838
 30
0.0
 11
193.8361666797777
 21
128.2997213394535
 31
0.0
  0
LINE
  5
68A
330
17
100
AcDbEntity
  8
STEMPEL
100
AcDbLine
 10
195.6458069654286
 20
666.6362726449804
 30
0.0
 11
195.6458069654286
 21
591.0325236830111
 31
0.0
  0
LINE
  5
68B
102
{ACAD_REACTORS
330
A9C
102
}
330
17
100
AcDbEntity
  8
STEMPEL
100
AcDbLine
 10
193.1458069654284
 20
666.6362726449804
 30
0.0
 11
193.1458069654285
 21
590.3017587686365
 31
0.0
  0
LINE
  5
68C
330
17
100
AcDbEntity
  8
HILF
100
AcDbLine
 10
192.1959629142468
 20
700.6129480445138
 30
0.0
 11
327.0956510166102
 21
700.6129480445138
 31
0.0
  0
LINE
  5
68D
330
17
100
AcDbEntity
  8
HILF
100
AcDbLine
 10
197.1564852910078
 20
670.3713620491503
 30
0.0
 11
322.1351286398492
 21
670.3713620491503
 31
0.0
  0
LINE
  5
68E
330
17
100
AcDbEntity
  8
HILF
100
AcDbLine
 10
193.4651481835332
 20
677.9734812064808
 30
0.0
 11
325.8264657473242
 21
677.9734812064808
 31
0.0
  0
LINE
  5
68F
102
{ACAD_REACTORS
330
A9C
102
}
330
17
100
AcDbEntity
  8
STEMPEL
100
AcDbLine
 10
339.1458069654286
 20
749.1362726449803
 30
0.0
 11
180.1458069654286
 21
749.1362726449803
 31
0.0
  0
LINE
  5
690
330
17
100
AcDbEntity
  8
STEMPEL
100
AcDbLine
 10
325.4554472510797
 20
128.2997213394535
 30
0.0
 11
193.8361666797777
 21
128.2997213394535
 31
0.0
  0
LINE
  5
691
330
17
100
AcDbEntity
  8
HILF
100
AcDbLine
 10
321.1362573715703
 20
136.2997213394535
 30
0.0
 11
198.155356559287
 21
136.2997213394536
 31
0.0
  0
DIMENSION
  5
692
330
17
100
AcDbEntity
  8
BEM
100
AcDbDimension
  2
*D7
 10
326.1458069654286
 20
106.0055736147869
 30
0.0
 11
259.6458069654286
 21
112.5055736147869
 31
0.0
 70
    32
  1
%%c<>
 71
     5
 42
133.0
  3
STANDARD
100
AcDbAlignedDimension
 13
193.1458069654286
 23
136.1905689821838
 33
0.0
 14
326.1458069654286
 24
136.2997213394536
 34
0.0
100
AcDbRotatedDimension
1001
ACAD
1000
DSTYLE
1002
{
1070
    40
1040
2.0
1070
    41
1040
3.5
1070
    42
1040
1.0
1070
    43
1040
7.0
1070
    44
1040
1.0
1070
    73
1070
     0
1070
    74
1070
     0
1070
    77
1070
     1
1070
    78
1070
     8
1070
    79
1070
     2
1070
   140
1040
3.5
1070
   141
1040
1.5
1070
   146
1040
0.5142857142857144
1070
   147
1040
1.5
1070
   172
1070
     1
1070
   178
1070
     1
1070
   179
1070
     2
1070
   271
1070
     2
1070
   272
1070
     2
1070
   284
1070
     8
1070
   285
1070
     8
1070
   286
1070
     8
1070
   289
1070
     0
1070
   340
1005
297
1002
}
  0
TEXT
  5
693
330
17
100
AcDbEntity
  8
TEXT
 62
     1
100
AcDbText
 10
245.8111307084799
 20
630.549677534004
 30
0.0
 40
7.0
  1
DN125
 50
90.0
 41
0.8
  7
GREEKS
100
AcDbText
  0
LINE
  5
694
330
17
100
AcDbEntity
  8
STEMPEL
100
AcDbLine
 10
484.0
 20
830.0000000000002
 30
0.0
 11
484.0
 21
470.0000000000001
 31
0.0
  0
LINE
  5
695
330
17
100
AcDbEntity
  8
STEMPEL
100
AcDbLine
 10
484.0
 20
470.0000000000001
 30
0.0
 11
584.0
 21
470.0000000000001
 31
0.0
  0
LINE
  5
696
330
17
100
AcDbEntity
  8
STEMPEL
100
AcDbLine
 10
484.0000000000001
 20
566.0000000000002
 30
0.0
 11
584.0000000000001
 21
566.0000000000001
 31
0.0
  0
LINE
  5
697
330
17
100
AcDbEntity
  8
STEMPEL
100
AcDbLine
 10
484.0
 20
650.0
 30
0.0
 11
584.0
 21
650.0
 31
0.0
  0
LINE
  5
698
330
17
100
AcDbEntity
  8
STEMPEL
100
AcDbLine
 10
484.0000000000003
 20
752.0000000000002
 30
0.0
 11
554.0
 21
752.0000000000002
 31
0.0
  0
LINE
  5
699
330
17
100
AcDbEntity
  8
STEMPEL
100
AcDbLine
 10
564.0
 20
566.0
 30
0.0
 11
564.0
 21
470.0000000000001
 31
0.0
  0
LINE
  5
69A
330
17
100
AcDbEntity
  8
STEMPEL
100
AcDbLine
 10
554.0
 20
830.0000000000002
 30
0.0
 11
554.0
 21
566.0000000000001
 31
0.0
  0
LINE
  5
69B
330
17
100
AcDbEntity
  8
STEMPEL
100
AcDbLine
 10
514.0
 20
830.0000000000002
 30
0.0
 11
514.0
 21
566.0000000000002
 31
0.0
  0
LINE
  5
69C
330
17
100
AcDbEntity
  8
VOLL
100
AcDbLine
 10
484.0
 20
484.0000000000002
 30
0.0
 11
584.0
 21
484.0000000000001
 31
0.0
  0
LINE
  5
69D
330
17
100
AcDbEntity
  8
VOLL
100
AcDbLine
 10
484.0000000000001
 20
524.0000000000001
 30
0.0
 11
584.0000000000001
 21
524.0000000000001
 31
0.0
  0
LINE
  5
69E
330
17
100
AcDbEntity
  8
VOLL
100
AcDbLine
 10
484.0000000000001
 20
544.0000000000002
 30
0.0
 11
584.0000000000001
 21
544.0000000000001
 31
0.0
  0
LINE
  5
69F
330
17
100
AcDbEntity
  8
VOLL
100
AcDbLine
 10
514.0
 20
584.0000000000002
 30
0.0
 11
554.0
 21
584.0000000000002
 31
0.0
  0
LINE
  5
6A0
330
17
100
AcDbEntity
  8
VOLL
100
AcDbLine
 10
484.0000000000002
 20
610.0000000000002
 30
0.0
 11
554.0
 21
610.0000000000001
 31
0.0
  0
LINE
  5
6A1
330
17
100
AcDbEntity
  8
HILF
100
AcDbLine
 10
494.0
 20
470.0000000000001
 30
0.0
 11
494.0
 21
566.0000000000002
 31
0.0
  0
LINE
  5
6A2
330
17
100
AcDbEntity
  8
HILF
100
AcDbLine
 10
504.0
 20
470.0000000000001
 30
0.0
 11
504.0
 21
566.0000000000002
 31
0.0
  0
LINE
  5
6A3
330
17
100
AcDbEntity
  8
HILF
100
AcDbLine
 10
514.0
 20
470.0000000000001
 30
0.0
 11
514.0
 21
566.0000000000002
 31
0.0
  0
LINE
  5
6A4
330
17
100
AcDbEntity
  8
HILF
100
AcDbLine
 10
524.0
 20
470.0000000000001
 30
0.0
 11
524.0
 21
566.0000000000002
 31
0.0
  0
LINE
  5
6A5
330
17
100
AcDbEntity
  8
HILF
100
AcDbLine
 10
534.0
 20
470.0000000000001
 30
0.0
 11
534.0
 21
566.0000000000002
 31
0.0
  0
LINE
  5
6A6
330
17
100
AcDbEntity
  8
HILF
100
AcDbLine
 10
544.0
 20
470.0000000000001
 30
0.0
 11
544.0
 21
566.0000000000002
 31
0.0
  0
LINE
  5
6A7
330
17
100
AcDbEntity
  8
HILF
100
AcDbLine
 10
554.0
 20
470.0000000000001
 30
0.0
 11
554.0
 21
566.0000000000002
 31
0.0
  0
LINE
  5
6A8
330
17
100
AcDbEntity
  8
HILF
100
AcDbLine
 10
524.0
 20
566.0000000000002
 30
0.0
 11
524.0
 21
650.0
 31
0.0
  0
LINE
  5
6A9
330
17
100
AcDbEntity
  8
HILF
100
AcDbLine
 10
534.0
 20
566.0000000000002
 30
0.0
 11
534.0
 21
650.0
 31
0.0
  0
LINE
  5
6AA
330
17
100
AcDbEntity
  8
HILF
100
AcDbLine
 10
544.0
 20
566.0000000000002
 30
0.0
 11
544.0
 21
650.0
 31
0.0
  0
LINE
  5
6AB
330
17
100
AcDbEntity
  8
HILF
100
AcDbLine
 10
509.9624175243587
 20
654.7736801096948
 30
0.0
 11
509.9624175243587
 21
746.6297842514811
 31
0.0
  0
LINE
  5
6AC
330
17
100
AcDbEntity
  8
HILF
100
AcDbLine
 10
524.0
 20
654.7736801096948
 30
0.0
 11
524.0
 21
746.6297842514811
 31
0.0
  0
LINE
  5
6AD
330
17
100
AcDbEntity
  8
HILF
100
AcDbLine
 10
534.0
 20
654.7736801096948
 30
0.0
 11
534.0
 21
746.6297842514811
 31
0.0
  0
LINE
  5
6AE
330
17
100
AcDbEntity
  8
HILF
100
AcDbLine
 10
544.0
 20
654.7736801096948
 30
0.0
 11
544.0
 21
746.6297842514811
 31
0.0
  0
LINE
  5
6AF
330
17
100
AcDbEntity
  8
VOLL
100
AcDbLine
 10
534.0
 20
752.0000000000002
 30
0.0
 11
534.0
 21
830.0000000000002
 31
0.0
  0
LINE
  5
6B0
330
17
100
AcDbEntity
  8
HILF
100
AcDbLine
 10
510.2201636304418
 20
756.7238616296995
 30
0.0
 11
510.2201636304418
 21
824.858883932673
 31
0.0
  0
LINE
  5
6B1
330
17
100
AcDbEntity
  8
HILF
100
AcDbLine
 10
579.1060174197169
 20
654.7736801096948
 30
0.0
 11
579.1060174197169
 21
824.858883932673
 31
0.0
  0
TEXT
  5
6B2
330
17
100
AcDbEntity
  8
TEXT
100
AcDbText
 10
575.3261810501587
 20
492.3998239263297
 30
0.0
 40
4.0
  1
Änderung
 50
90.0
 41
0.8
  7
GREEKS
 72
     1
 11
575.3261810501587
 21
503.1426810691868
 31
0.0
100
AcDbText
  0
TEXT
  5
6B3
330
17
100
AcDbEntity
  8
TEXT
100
AcDbText
 10
491.5379104912911
 20
573.5163572150378
 30
0.0
 40
5.0
  1
Maßstab
 50
90.0
 41
0.8
  7
GREEKS
100
AcDbText
  0
TEXT
  5
6B4
330
17
100
AcDbEntity
  8
TEXT
100
AcDbText
 10
491.4510671988221
 20
654.8779403809011
 30
0.0
 40
5.0
  1
Benennung
 50
90.0
 41
0.8
  7
GREEKS
100
AcDbText
  0
TEXT
  5
6B5
330
17
100
AcDbEntity
  8
TEXT
100
AcDbText
 10
491.6867965462865
 20
756.1787549576343
 30
0.0
 40
5.0
  1
Zeichnungs Nr.
 50
90.0
 41
0.8
  7
GREEKS
100
AcDbText
  0
TEXT
  5
6B6
330
17
100
AcDbEntity
  8
TEXT
100
AcDbText
 10
563.1543942980695
 20
654.742238391136
 30
0.0
 40
5.0
  1
Bauvorhaben
 50
90.0
 41
0.8
  7
GREEKS
100
AcDbText
  0
TEXT
  5
6B7
330
17
100
AcDbEntity
  8
TEXT
100
AcDbText
 10
520.8188176290003
 20
756.7238616296995
 30
0.0
 40
5.0
  1
Ersatz für:
 50
90.0
 41
0.8
  7
GREEKS
100
AcDbText
  0
TEXT
  5
6B8
330
17
100
AcDbEntity
  8
TEXT
100
AcDbText
 10
580.3453415397281
 20
478.2664110704577
 30
0.0
 40
4.0
  1
Index
 50
180.0
 41
0.8
  7
GREEKS
100
AcDbText
  0
TEXT
  5
6B9
330
17
100
AcDbEntity
  8
TEXT
100
AcDbText
 10
575.3284373066019
 20
529.8990113186979
 30
0.0
 40
4.0
  1
Tag
 50
90.0
 41
0.8
  7
GREEKS
 72
     1
 11
575.3284373066019
 21
533.6323446520313
 31
0.0
100
AcDbText
  0
TEXT
  5
6BA
330
17
100
AcDbEntity
  8
TEXT
100
AcDbText
 10
575.4067578303359
 20
548.9795678138293
 30
0.0
 40
4.0
  1
Name
 50
90.0
 41
0.8
  7
GREEKS
 72
     1
 11
575.4067578303359
 21
555.3033773376388
 31
0.0
100
AcDbText
  0
TEXT
  5
6BB
330
17
100
AcDbEntity
  8
TEXT
100
AcDbText
 10
520.6811949877008
 20
592.3311673153651
 30
0.0
 40
4.0
  1
Tag
 50
90.0
 41
0.8
  7
GREEKS
100
AcDbText
  0
TEXT
  5
6BC
330
17
100
AcDbEntity
  8
TEXT
100
AcDbText
 10
520.6903890808478
 20
622.4626584226296
 30
0.0
 40
4.0
  1
Name
 50
90.0
 41
0.8
  7
GREEKS
100
AcDbText
  0
TEXT
  5
6BD
330
17
100
AcDbEntity
  8
TEXT
100
AcDbText
 10
530.3700963038204
 20
567.5836127167616
 30
0.0
 40
4.0
  1
Gez.
 50
90.0
 41
0.8
  7
GREEKS
100
AcDbText
  0
TEXT
  5
6BE
330
17
100
AcDbEntity
  8
TEXT
100
AcDbText
 10
540.3107370857163
 20
567.5515086571673
 30
0.0
 40
4.0
  1
Gepr.
 50
90.0
 41
0.8
  7
GREEKS
100
AcDbText
  0
TEXT
  5
6BF
330
17
100
AcDbEntity
  8
TEXT
100
AcDbText
 10
550.470536103502
 20
567.6006777387304
 30
0.0
 40
4.0
  1
Norm.
 50
90.0
 41
0.8
  7
GREEKS
100
AcDbText
  0
TEXT
  5
6C0
330
17
100
AcDbEntity
  8
TEXT
100
AcDbText
 10
541.9258382212141
 20
757.2400861497007
 30
0.0
 40
5.0
  1
ersetzt durch:
 50
90.0
 41
0.8
  7
GREEKS
100
AcDbText
  0
TEXT
  5
6C1
330
17
100
AcDbEntity
  8
TEXT
100
AcDbText
 10
521.0331740347628
 20
569.5106266687155
 30
0.0
 40
4.0
  1
2011
 50
90.0
 41
0.8
  7
GREEKS
100
AcDbText
  0
LINE
  5
6C2
330
17
100
AcDbEntity
  8
HILF
100
AcDbLine
 10
594.0
 20
0.0
 30
0.0
 11
594.0
 21
840.0
 31
0.0
  0
LINE
  5
6C3
330
17
100
AcDbEntity
  8
HILF
100
AcDbLine
 10
594.0
 20
840.0
 30
0.0
 11
0.0
 21
840.0
 31
0.0
  0
LINE
  5
6C4
330
17
100
AcDbEntity
  8
HILF
100
AcDbLine
 10
0.0
 20
840.0
 30
0.0
 11
0.0
 21
0.0
 31
0.0
  0
LINE
  5
6C5
330
17
100
AcDbEntity
  8
STEMPEL
100
AcDbLine
 10
10.0
 20
830.0
 30
0.0
 11
10.0
 21
40.0
 31
0.0
  0
LINE
  5
6C6
330
17
100
AcDbEntity
  8
STEMPEL
100
AcDbLine
 10
584.0
 20
40.0
 30
0.0
 11
584.0
 21
830.0
 31
0.0
  0
LINE
  5
6C7
330
17
100
AcDbEntity
  8
STEMPEL
100
AcDbLine
 10
584.0
 20
830.0
 30
0.0
 11
10.0
 21
830.0
 31
0.0
  0
TEXT
  5
6C8
330
17
100
AcDbEntity
  8
TEXT
 62
     1
100
AcDbText
 10
506.6265692434746
 20
655.0390572473189
 30
0.0
 40
7.0
  1
LORO-FLEX 
 50
90.0
 41
0.8
  7
GREEKS
100
AcDbText
  0
TEXT
  5
6C9
330
17
100
AcDbEntity
  8
TEXT
 62
     1
100
AcDbText
 10
506.6265692434746
 20
767.7294755517469
 30
0.0
 40
7.0
  1
21821125W
 50
90.0
 41
0.8
  7
GREEKS
 72
     1
 11
506.6265692434746
 21
790.1294755517469
 31
0.0
100
AcDbText
  0
TEXT
  5
6CA
330
17
100
AcDbEntity
  8
TEXT
100
AcDbText
 10
491.16010388621
 20
618.509022641583
 30
0.0
 40
5.0
  1
Zul.Abw.
 50
90.0
 41
0.8
  7
GREEKS
100
AcDbText
  0
TEXT
  5
6CB
330
17
100
AcDbEntity
  8
TEXT
100
AcDbText
 10
530.8491412387978
 20
590.1565237511869
 30
0.0
 40
4.0
  1
05.04.
 50
90.0
 41
0.8
  7
GREEKS
 72
     1
 11
530.8491412387978
 21
597.1660475607107
 31
0.0
100
AcDbText
  0
TEXT
  5
6CC
330
17
100
AcDbEntity
  8
TEXT
100
AcDbText
 10
531.0570234483454
 20
624.023175322661
 30
0.0
 40
4.0
  1
Koeh
 50
90.0
 41
0.8
  7
GREEKS
 72
     1
 11
531.0570234483454
 21
629.2803181798038
 31
0.0
100
AcDbText
  0
TEXT
  5
6CD
330
17
100
AcDbEntity
  8
TEXT
100
AcDbText
 10
521.8997861689248
 20
654.7736801096948
 30
0.0
 40
5.0
  1
Rohr- und Dachdurchführung
 50
90.0
 41
0.8
  7
GREEKS
100
AcDbText
  0
TEXT
  5
6CE
330
17
100
AcDbEntity
  8
TEXT
100
AcDbText
 10
541.4090266215395
 20
654.7736801096948
 30
0.0
 40
5.0
  1
EDV-Art.Nr. 21821.125X
 50
90.0
 41
0.8
  7
GREEKS
100
AcDbText
  0
TEXT
  5
6CF
330
17
100
AcDbEntity
  8
TEXT
100
AcDbText
 10
550.6887237520849
 20
654.7736801096948
 30
0.0
 40
4.0
  1
21821125W.DWG
 50
90.0
 41
0.8
  7
GREEKS
100
AcDbText
  0
TEXT
  5
6D0
330
17
100
AcDbEntity
  8
TEXT
 62
     1
100
AcDbText
 10
506.5292291158502
 20
582.7034912034222
 30
0.0
 40
7.0
  1
1:2
 50
90.0
 41
0.8
  7
GREEKS
100
AcDbText
  0
TEXT
  5
6D1
330
17
100
AcDbEntity
  8
TEXT
100
AcDbText
 10
479.8856414948956
 20
470.0441139350127
 30
0.0
 40
5.0
  1
Erstellt mit AUTOCAD 2004
 50
90.0
 41
0.8
  7
GREEKS
100
AcDbText
  0
INSERT
  5
6D2
330
17
100
AcDbEntity
  8
HILF
100
AcDbBlockReference
  2
LORO
 10
557.0194069970105
 20
573.0624985962354
 30
0.0
 41
2.0
 42
2.0
 43
2.0
 50
90.0
  0
LINE
  5
6D3
330
17
100
AcDbEntity
  8
BEM
100
AcDbLine
 10
594.0
 20
456.0
 30
0.0
 11
584.0
 21
456.0
 31
0.0
  0
LINE
  5
6D4
330
17
100
AcDbEntity
  8
HILF
100
AcDbLine
 10
594.0
 20
0.0
 30
0.0
 11
0.0
 21
0.0
 31
0.0
  0
LINE
  5
6D5
330
17
100
AcDbEntity
  8
STEMPEL
100
AcDbLine
 10
584.0
 20
40.0
 30
0.0
 11
10.0
 21
40.0
 31
0.0
  0
LINE
  5
6D6
330
17
100
AcDbEntity
  8
HILF
100
AcDbLine
 10
297.0
 20
0.0
 30
0.0
 11
297.0
 21
40.0
 31
0.0
  0
TEXT
  5
6D7
330
17
100
AcDbEntity
  8
BEM
100
AcDbText
 10
583.8320989200114
 20
837.3022923857165
 30
0.0
 40
4.0
  1
Diese Zeichnung ist urheberrechtlich geschützt und bleibt unser Eigentum. Sie darf weder ganz noch teilweise verfielfältigt und nicht an Dritte weitergegeben werden.
 50
180.0
 41
0.8
  7
GREEKS
100
AcDbText
  0
TEXT
  5
6D9
330
17
100
AcDbEntity
  8
TEXT
 62
     1
100
AcDbText
 10
210.2770479102018
 20
770.3977891186942
 30
0.0
 40
7.0
  1
EDV-Art.Nr. 21801.125X
 41
0.8
  7
GREEKS
100
AcDbText
  0
TEXT
  5
6DA
330
17
100
AcDbEntity
  8
TEXT
 62
     1
100
AcDbText
 10
210.2770479102018
 20
783.036966188918
 30
0.0
 40
7.0
  1
LORO-FLEX Lüftungsrohr DN125
 41
0.8
  7
GREEKS
100
AcDbText
  0
LINE
  5
6DB
330
17
100
AcDbEntity
  8
HILF
100
AcDbLine
 10
349.497450943527
 20
780.6448764352511
 30
0.0
 11
205.0932417333553
 21
780.6448764352511
 31
0.0
  0
LINE
  5
6DC
330
17
100
AcDbEntity
  8
HILF
100
AcDbLine
 10
205.0932417333553
 20
780.6448764352511
 30
0.0
 11
183.147574652401
 21
746.4457429344246
 31
0.0
  0
TEXT
  5
6DD
330
17
100
AcDbEntity
  8
TEXT
100
AcDbText
 10
531.8997861689248
 20
654.7736801096948
 30
0.0
 40
5.0
  1
DN125, zweiteilig
 50
90.0
 41
0.8
  7
GREEKS
100
AcDbText
  0
TEXT
  5
9A4
330
17
100
AcDbEntity
  8
TEXT
100
AcDbText
 10
503.971354469984
 20
612.9198097350654
 30
0.0
 40
4.0
  1
DIN EN1124-3
 50
90.0
 41
0.8
  7
GREEKS
 72
     1
 11
503.971354469984
 21
629.9102859255416
 31
0.0
100
AcDbText
  0
TEXT
  5
9D2
330
17
100
AcDbEntity
  8
TEXT
 62
     1
100
AcDbText
 10
386.1612051878094
 20
315.8499338994182
 30
0.0
 40
7.0
  1
EDV-Art.Nr. 00911.150X
 41
0.8
  7
GREEKS
100
AcDbText
  0
TEXT
  5
9D3
330
17
100
AcDbEntity
  8
TEXT
 62
     1
100
AcDbText
 10
386.1713908336274
 20
329.5821453858569
 30
0.0
 40
7.0
  1
Dichtelement DN150
 41
0.8
  7
GREEKS
100
AcDbText
  0
LINE
  5
9D4
330
17
100
AcDbEntity
  8
TEXT
 62
     2
100
AcDbLine
 10
385.3867805054986
 20
326.2142175997261
 30
0.0
 11
489.983481602785
 21
326.214217599726
 31
0.0
  0
TEXT
  5
9D6
330
17
100
AcDbEntity
  8
TEXT
 62
     1
100
AcDbText
 10
465.8985973582398
 20
234.6638427746982
 30
0.0
 40
7.0
  1
EDV-Art.Nr. 21805.150X
 41
0.8
  7
GREEKS
100
AcDbText
  0
TEXT
  5
9D7
330
17
100
AcDbEntity
  8
TEXT
 62
     1
100
AcDbText
 10
465.8985973582398
 20
248.372271001005
 30
0.0
 40
7.0
  1
Losflansch DN150
 41
0.8
  7
GREEKS
100
AcDbText
  0
LINE
  5
9D8
330
17
100
AcDbEntity
  8
TEXT
 62
     2
100
AcDbLine
 10
464.651716182404
 20
244.484174320328
 30
0.0
 11
571.4324862134579
 21
244.484174320328
 31
0.0
  0
LINE
  5
9D9
330
17
100
AcDbEntity
  8
TEXT
 62
     2
100
AcDbLine
 10
464.651716182404
 20
244.484174320328
 30
0.0
 11
427.5218328571095
 21
266.9695319244694
 31
0.0
  0
TEXT
  5
9DA
330
17
100
AcDbEntity
  8
TEXT
 62
     1
100
AcDbText
 10
464.9276123469781
 20
219.0994777597625
 30
0.0
 40
7.0
  1
Festflansch DN150
 41
0.8
  7
GREEKS
100
AcDbText
  0
LINE
  5
9DB
330
17
100
AcDbEntity
  8
TEXT
 62
     2
100
AcDbLine
 10
464.651716182404
 20
215.2113810790857
 30
0.0
 11
570.6336999411398
 21
215.2113810790857
 31
0.0
  0
TEXT
  5
9DC
330
17
100
AcDbEntity
  8
TEXT
 62
     1
100
AcDbText
 10
464.9276123469781
 20
205.3832261076127
 30
0.0
 40
7.0
  1
EDV-Art.Nr. 21806.150X
 41
0.8
  7
GREEKS
100
AcDbText
  0
LINE
  5
9DD
330
17
100
AcDbEntity
  8
TEXT
 62
     2
100
AcDbLine
 10
464.651716182404
 20
215.2113810790857
 30
0.0
 11
419.0647573981445
 21
258.973167843272
 31
0.0
  0
LINE
  5
A3E
330
17
100
AcDbEntity
  8
TEXT
 62
     2
100
AcDbLine
 10
385.3867805054986
 20
326.2142175997261
 30
0.0
 11
366.7661134848044
 21
310.8156204472742
 31
0.0
  0
TEXT
  5
A3F
330
17
100
AcDbEntity
  8
TEXT
 62
     1
100
AcDbText
 10
531.3613401396042
 20
790.1294755517469
 30
0.0
 40
7.0
  1

 50
90.0
 41
0.8
  7
GREEKS
 72
     1
 11
531.3613401396042
 21
790.1294755517469
 31
0.0
100
AcDbText
  0
HATCH
  5
A9C
330
17
100
AcDbEntity
  8
SCHRAFF
100
AcDbHatch
 10
0.0
 20
0.0
 30
0.0
210
0.0
220
0.0
230
1.0
  2
HONEY
 70
     0
 71
     1
 91
        4
 92
        5
 93
        6
 72
     1
 10
326.1458069654286
 20
196.2997213394536
 11
333.5022134259795
 21
196.2997213394536
 72
     1
 10
333.5022134259795
 20
196.2997213394536
 11
335.6458069654287
 21
188.2997213394526
 72
     1
 10
335.6458069654287
 20
188.2997213394526
 11
337.6458069654286
 21
188.2997213394526
 72
     1
 10
337.6458069654286
 20
188.2997213394526
 11
337.6458069654286
 21
569.8237927950769
 72
     4
 94
        3
 73
     0
 74
     0
 95
        8
 96
        4
 40
149.6082059030416
 40
149.6082059030416
 40
149.6082059030416
 40
149.6082059030416
 40
161.3924139022538
 40
161.3924139022538
 40
161.3924139022538
 40
161.3924139022538
 10
337.6458069654286
 20
569.8237927950769
 10
333.8124736320953
 20
568.5393936303662
 10
329.9791402987619
 20
567.269036619328
 10
326.1458069654286
 20
566.1203782734507
 72
     1
 10
326.1458069654286
 20
566.1203782734506
 11
326.1458069654286
 21
196.2997213394536
 97
        6
330
644
330
658
330
66C
330
654
330
653
330
64B
 92
        5
 93
        6
 72
     4
 94
        3
 73
     0
 74
     0
 95
        8
 96
        4
 40
1.537070608592969
 40
1.537070608592969
 40
1.537070608592969
 40
1.537070608592969
 40
13.32127860780501
 40
13.32127860780501
 40
13.32127860780501
 40
13.32127860780501
 10
193.1458069654285
 20
574.5333448813956
 10
189.3124736320952
 20
573.3846865355182
 10
185.4791402987619
 20
572.1143295244801
 10
181.6458069654286
 20
570.8299303597694
 72
     1
 10
181.6458069654286
 20
570.8299303597694
 11
181.6458069654286
 21
188.2997213394535
 72
     1
 10
181.6458069654286
 20
188.2997213394535
 11
183.6458069654284
 21
188.2997213394535
 72
     1
 10
183.6458069654284
 20
188.2997213394535
 11
185.7894005048775
 21
196.2997213394536
 72
     1
 10
185.7894005048775
 20
196.2997213394536
 11
193.1458069654286
 21
196.2997213394536
 72
     1
 10
193.1458069654286
 20
196.2997213394536
 11
193.1458069654285
 21
574.5333448813957
 97
        6
330
644
330
649
330
651
330
652
330
687
330
655
 92
        5
 93
       13
 72
     2
 10
183.1458069654283
 20
666.6362726449805
 40
10.00000000000007
 50
359.9999999999993
 51
394.7719440319474
 73
     1
 72
     2
 10
206.1458069654285
 20
682.6049920676516
 40
18.00000000000002
 50
145.2280559680515
 51
180.0
 73
     0
 72
     1
 10
188.1458069654285
 20
682.6049920676516
 11
188.1458069654286
 21
696.1362726449804
 72
     2
 10
170.1458069654285
 20
696.1362726449804
 40
18.00000000000011
 50
0.0
 51
25.00715833655223
 73
     1
 72
     2
 10
213.6458069654288
 20
716.4272726449803
 40
29.99973625969223
 50
154.9928416634478
 51
180.0000000000002
 73
     0
 72
     1
 10
183.6460707057365
 20
716.4272726449804
 11
183.6458069654286
 21
716.4272726449803
 72
     1
 10
183.6458069654286
 20
716.4272726449803
 11
183.6458069654286
 21
735.5338952005162
 72
     2
 10
213.6458069654286
 20
735.5338952005165
 40
30.00000000000003
 50
179.9999999999993
 51
204.9999999999997
 73
     0
 72
     1
 10
186.456573354329
 20
748.2124430527374
 11
186.8873621680222
 21
749.1362726449803
 72
     1
 10
186.8873621680222
 20
749.1362726449803
 11
181.6458069654285
 21
749.1362726449803
 72
     1
 10
181.6458069654285
 20
749.1362726449803
 11
181.6458069654286
 21
586.5983442470104
 72
     4
 94
        3
 73
     0
 74
     0
 95
        8
 96
        4
 40
1.537070608592843
 40
1.537070608592843
 40
1.537070608592843
 40
1.537070608592843
 40
13.321278607805
 40
13.321278607805
 40
13.321278607805
 40
13.321278607805
 10
181.6458069654285
 20
586.5983442470104
 10
185.4791402987619
 20
587.882743411721
 10
189.3124736320952
 20
589.1531004227593
 10
193.1458069654285
 20
590.3017587686365
 72
     1
 10
193.1458069654285
 20
590.3017587686365
 11
193.1458069654284
 21
666.6362726449804
 97
       13
330
67E
330
680
330
682
330
67D
330
685
330
678
330
67A
330
676
330
675
330
68F
330
64D
330
645
330
68B
 92
        5
 93
       13
 72
     1
 10
337.6458069654286
 20
749.1362726449805
 11
332.4042517628348
 21
749.1362726449805
 72
     1
 10
332.4042517628348
 20
749.1362726449805
 11
332.8350405765279
 21
748.2124430527374
 72
     2
 10
305.6458069654286
 20
735.5338952005161
 40
30.00000000000007
 50
334.9999999999994
 51
360.0
 73
     0
 72
     1
 10
335.6458069654286
 20
735.5338952005161
 11
335.6458069654286
 21
716.4272726449802
 72
     1
 10
335.6458069654286
 20
716.4272726449802
 11
335.6455432251207
 21
716.4272726449803
 72
     2
 10
305.6458069654287
 20
716.4272726449803
 40
29.99973625969202
 50
360.0
 51
385.0071583365424
 73
     0
 72
     2
 10
349.1458069654287
 20
696.1362726449804
 40
18.00000000000002
 50
154.9928416634309
 51
180.0
 73
     1
 72
     1
 10
331.1458069654286
 20
696.1362726449804
 11
331.1458069654286
 21
682.6049920676515
 72
     2
 10
313.1458069654286
 20
682.6049920676514
 40
18.00000000000003
 50
359.9999999999996
 51
394.7719440319494
 73
     0
 72
     2
 10
336.1458069654287
 20
666.6362726449801
 40
10.00000000000007
 50
145.2280559680533
 51
180.0
 73
     1
 72
     1
 10
326.1458069654286
 20
666.6362726449801
 11
326.1458069654286
 21
581.8887921606918
 72
     4
 94
        3
 73
     0
 74
     0
 95
        8
 96
        4
 40
149.6082059030416
 40
149.6082059030416
 40
149.6082059030416
 40
149.6082059030416
 40
161.3924139022538
 40
161.3924139022538
 40
161.3924139022538
 40
161.3924139022538
 10
326.1458069654285
 20
581.8887921606918
 10
329.9791402987618
 20
583.037450506569
 10
333.8124736320953
 20
584.3078075176072
 10
337.6458069654285
 20
585.5922066823178
 72
     1
 10
337.6458069654286
 20
585.5922066823179
 11
337.6458069654286
 21
749.1362726449805
 97
       13
330
68F
330
659
330
65C
330
65F
330
65E
330
669
330
662
330
664
330
663
330
668
330
670
330
645
330
64E
 75
     0
 76
     1
 52
0.0
 41
25.0
 77
     0
 78
     3
 53
0.0
 43
41.54702939873914
 44
2.279536179889873
 45
4.6875
 46
2.706329374999999
 79
     2
 49
3.125
 49
-6.25
 53
120.0
 43
41.54702939873914
 44
2.279536179889873
 45
-4.687499989758061
 46
2.706329392739557
 79
     2
 49
3.124999999999999
 49
-6.249999999999998
 53
60.0
 43
41.54702939873914
 44
2.279536179889873
 45
0.0000000102419385
 46
5.412658767739556
 79
     2
 49
-6.25
 49
3.125
 47
1.145231000100166
 98
        4
 10
331.884875818514
 20
482.4243385679198
 10
188.6483582252299
 20
519.0717315516646
 10
187.5024668858891
 20
602.6735935563299
 10
333.0307708680662
 20
615.2711359335783
  0
LINE
  5
ACB
330
17
100
AcDbEntity
  8
TEXT
 62
     2
100
AcDbLine
 10
362.6682907882139
 20
307.4268739089873
 30
0.0
 11
343.00453033241
 21
291.1656773887594
 31
0.0
  0
LINE
  5
ACC
330
17
100
AcDbEntity
  8
TEXT
 62
     2
100
AcDbLine
 10
385.3867805054986
 20
426.2142175997259
 30
0.0
 11
343.00453033241
 21
391.1656773887594
 31
0.0
  0
LINE
  5
ACF
330
17
100
AcDbEntity
  8
TEXT
 62
     2
100
AcDbLine
 10
464.651716182404
 20
385.5521043935444
 30
0.0
 11
427.5218328571095
 21
366.9695319244694
 31
0.0
  0
LINE
  5
AD0
330
17
100
AcDbEntity
  8
TEXT
 62
     2
100
AcDbLine
 10
385.3867805054986
 20
426.2142175997259
 30
0.0
 11
489.983481602785
 21
426.214217599726
 31
0.0
  0
TEXT
  5
AD1
330
17
100
AcDbEntity
  8
TEXT
 62
     1
100
AcDbText
 10
386.1713908336274
 20
429.5821453858568
 30
0.0
 40
7.0
  1
Dichtelement DN150
 41
0.8
  7
GREEKS
100
AcDbText
  0
TEXT
  5
AD2
330
17
100
AcDbEntity
  8
TEXT
 62
     1
100
AcDbText
 10
386.1612051878094
 20
415.8499338994181
 30
0.0
 40
7.0
  1
EDV-Art.Nr. 00911.150X
 41
0.8
  7
GREEKS
100
AcDbText
  0
LINE
  5
AD4
330
17
100
AcDbEntity
  8
STEMPEL
100
AcDbLine
 10
365.0549698939189
 20
383.8861349576708
 30
0.0
 11
365.0549698939189
 21
378.4861349576706
 31
0.0
  0
LINE
  5
AD5
330
17
100
AcDbEntity
  8
STEMPEL
100
AcDbLine
 10
355.0549698939188
 20
383.8861349576708
 30
0.0
 11
355.0549698939188
 21
378.4861349576706
 31
0.0
  0
LINE
  5
AD6
330
17
100
AcDbEntity
  8
MITTEL
100
AcDbLine
 10
360.0549698939188
 20
389.3766292446552
 30
0.0
 11
360.0549698939186
 21
359.8861349576708
 31
0.0
  0
LINE
  5
AD7
330
17
100
AcDbEntity
  8
HILF
100
AcDbLine
 10
356.0549698939188
 20
384.8861349576708
 30
0.0
 11
356.0549698939186
 21
378.4861349576706
 31
0.0
  0
LINE
  5
AD8
330
17
100
AcDbEntity
  8
HILF
100
AcDbLine
 10
364.0549698939188
 20
384.8861349576708
 30
0.0
 11
364.0549698939186
 21
378.4861349576706
 31
0.0
  0
LINE
  5
AD9
330
17
100
AcDbEntity
  8
STEMPEL
100
AcDbLine
 10
356.0549698939188
 20
384.8861349576708
 30
0.0
 11
364.0549698939188
 21
384.8861349576708
 31
0.0
  0
LINE
  5
ADA
330
17
100
AcDbEntity
  8
STEMPEL
100
AcDbLine
 10
365.0549698939189
 20
383.8861349576708
 30
0.0
 11
355.0549698939188
 21
383.8861349576708
 31
0.0
  0
LINE
  5
ADB
330
17
100
AcDbEntity
  8
STEMPEL
100
AcDbLine
 10
364.0549698939188
 20
384.8861349576708
 30
0.0
 11
365.0549698939189
 21
383.8861349576708
 31
0.0
  0
LINE
  5
ADC
330
17
100
AcDbEntity
  8
STEMPEL
100
AcDbLine
 10
355.0549698939188
 20
383.8861349576708
 30
0.0
 11
356.0549698939188
 21
384.8861349576708
 31
0.0
  0
LINE
  5
ADD
330
17
100
AcDbEntity
  8
STEMPEL
100
AcDbLine
 10
396.6458069654285
 20
383.8861349576704
 30
0.0
 11
397.6458069654285
 21
384.8861349576704
 31
0.0
  0
LINE
  5
ADE
330
17
100
AcDbEntity
  8
STEMPEL
100
AcDbLine
 10
405.6458069654285
 20
384.8861349576704
 30
0.0
 11
406.6458069654284
 21
383.8861349576704
 31
0.0
  0
LINE
  5
ADF
330
17
100
AcDbEntity
  8
STEMPEL
100
AcDbLine
 10
406.6458069654284
 20
383.8861349576704
 30
0.0
 11
396.6458069654285
 21
383.8861349576704
 31
0.0
  0
LINE
  5
AE0
330
17
100
AcDbEntity
  8
STEMPEL
100
AcDbLine
 10
397.6458069654285
 20
384.8861349576704
 30
0.0
 11
405.6458069654285
 21
384.8861349576704
 31
0.0
  0
LINE
  5
AE1
330
17
100
AcDbEntity
  8
HILF
100
AcDbLine
 10
405.6458069654285
 20
384.8861349576704
 30
0.0
 11
405.6458069654285
 21
378.4861349576705
 31
0.0
  0
LINE
  5
AE2
330
17
100
AcDbEntity
  8
HILF
100
AcDbLine
 10
397.6458069654285
 20
384.8861349576704
 30
0.0
 11
397.6458069654285
 21
378.4861349576705
 31
0.0
  0
LINE
  5
AE3
330
17
100
AcDbEntity
  8
MITTEL
100
AcDbLine
 10
401.6458069654285
 20
389.3766292446547
 30
0.0
 11
401.6458069654285
 21
359.8861349576704
 31
0.0
  0
LINE
  5
AE4
330
17
100
AcDbEntity
  8
STEMPEL
100
AcDbLine
 10
396.6458069654285
 20
383.8861349576704
 30
0.0
 11
396.6458069654285
 21
378.4861349576705
 31
0.0
  0
LINE
  5
AE5
330
17
100
AcDbEntity
  8
STEMPEL
100
AcDbLine
 10
406.6458069654284
 20
383.8861349576704
 30
0.0
 11
406.6458069654284
 21
378.4861349576705
 31
0.0
  0
LINE
  5
AEC
330
17
100
AcDbEntity
  8
STEMPEL
100
AcDbLine
 10
112.6458069654286
 20
383.8861349576704
 30
0.0
 11
112.6458069654286
 21
378.4861349576706
 31
0.0
  0
LINE
  5
AED
330
17
100
AcDbEntity
  8
STEMPEL
100
AcDbLine
 10
122.6458069654286
 20
383.8861349576704
 30
0.0
 11
122.6458069654286
 21
378.4861349576706
 31
0.0
  0
LINE
  5
AEE
330
17
100
AcDbEntity
  8
MITTEL
100
AcDbLine
 10
117.6458069654286
 20
389.3766292446547
 30
0.0
 11
117.6458069654286
 21
359.8861349576704
 31
0.0
  0
LINE
  5
AEF
330
17
100
AcDbEntity
  8
HILF
100
AcDbLine
 10
121.6458069654286
 20
384.8861349576704
 30
0.0
 11
121.6458069654286
 21
378.4861349576706
 31
0.0
  0
LINE
  5
AF0
330
17
100
AcDbEntity
  8
HILF
100
AcDbLine
 10
113.6458069654286
 20
384.8861349576704
 30
0.0
 11
113.6458069654286
 21
378.4861349576706
 31
0.0
  0
LINE
  5
AF1
330
17
100
AcDbEntity
  8
STEMPEL
100
AcDbLine
 10
121.6458069654286
 20
384.8861349576704
 30
0.0
 11
113.6458069654286
 21
384.8861349576704
 31
0.0
  0
LINE
  5
AF2
330
17
100
AcDbEntity
  8
STEMPEL
100
AcDbLine
 10
112.6458069654286
 20
383.8861349576704
 30
0.0
 11
122.6458069654286
 21
383.8861349576704
 31
0.0
  0
LINE
  5
AF3
330
17
100
AcDbEntity
  8
STEMPEL
100
AcDbLine
 10
113.6458069654286
 20
384.8861349576704
 30
0.0
 11
112.6458069654286
 21
383.8861349576704
 31
0.0
  0
LINE
  5
AF4
330
17
100
AcDbEntity
  8
STEMPEL
100
AcDbLine
 10
122.6458069654286
 20
383.8861349576704
 30
0.0
 11
121.6458069654286
 21
384.8861349576704
 31
0.0
  0
LINE
  5
AF5
330
17
100
AcDbEntity
  8
STEMPEL
100
AcDbLine
 10
432.1458069654284
 20
356.8861349576706
 30
0.0
 11
339.1458069654286
 21
356.8861349576705
 31
0.0
  0
LINE
  5
AF6
330
17
100
AcDbEntity
  8
STEMPEL
100
AcDbLine
 10
431.1458069654285
 20
359.8861349576708
 30
0.0
 11
359.8662478791456
 21
359.8861349576708
 31
0.0
  0
LINE
  5
AF7
330
17
100
AcDbEntity
  8
STEMPEL
100
AcDbLine
 10
87.14580696542862
 20
358.8861349576704
 30
0.0
 11
87.14580696542862
 21
356.8861349576704
 31
0.0
  0
LINE
  5
AF8
330
17
100
AcDbEntity
  8
STEMPEL
100
AcDbLine
 10
432.1458069654284
 20
358.8861349576708
 30
0.0
 11
432.1458069654284
 21
356.8861349576706
 31
0.0
  0
LINE
  5
AF9
330
17
100
AcDbEntity
  8
STEMPEL
100
AcDbLine
 10
431.1458069654285
 20
359.8861349576708
 30
0.0
 11
432.1458069654284
 21
358.8861349576708
 31
0.0
  0
LINE
  5
AFA
330
17
100
AcDbEntity
  8
STEMPEL
100
AcDbLine
 10
159.4253660517113
 20
359.8861349576704
 30
0.0
 11
88.14580696542861
 21
359.8861349576704
 31
0.0
  0
LINE
  5
AFB
330
17
100
AcDbEntity
  8
STEMPEL
100
AcDbLine
 10
88.14580696542861
 20
359.8861349576704
 30
0.0
 11
87.14580696542862
 21
358.8861349576704
 31
0.0
  0
LINE
  5
AFD
330
17
100
AcDbEntity
  8
STEMPEL
100
AcDbLine
 10
164.2366440369385
 20
383.8861349576708
 30
0.0
 11
163.2366440369385
 21
384.8861349576708
 31
0.0
  0
LINE
  5
AFE
330
17
100
AcDbEntity
  8
STEMPEL
100
AcDbLine
 10
155.2366440369385
 20
384.8861349576708
 30
0.0
 11
154.2366440369385
 21
383.8861349576708
 31
0.0
  0
LINE
  5
AFF
330
17
100
AcDbEntity
  8
STEMPEL
100
AcDbLine
 10
154.2366440369385
 20
383.8861349576708
 30
0.0
 11
164.2366440369385
 21
383.8861349576708
 31
0.0
  0
LINE
  5
B00
330
17
100
AcDbEntity
  8
STEMPEL
100
AcDbLine
 10
163.2366440369385
 20
384.8861349576708
 30
0.0
 11
155.2366440369385
 21
384.8861349576708
 31
0.0
  0
LINE
  5
B01
330
17
100
AcDbEntity
  8
HILF
100
AcDbLine
 10
155.2366440369385
 20
384.8861349576708
 30
0.0
 11
155.2366440369385
 21
378.4861349576706
 31
0.0
  0
LINE
  5
B02
330
17
100
AcDbEntity
  8
HILF
100
AcDbLine
 10
163.2366440369385
 20
384.8861349576708
 30
0.0
 11
163.2366440369385
 21
378.4861349576706
 31
0.0
  0
LINE
  5
B03
330
17
100
AcDbEntity
  8
MITTEL
100
AcDbLine
 10
159.2366440369385
 20
389.3766292446552
 30
0.0
 11
159.2366440369385
 21
359.8861349576704
 31
0.0
  0
LINE
  5
B04
330
17
100
AcDbEntity
  8
STEMPEL
100
AcDbLine
 10
164.2366440369385
 20
383.8861349576708
 30
0.0
 11
164.2366440369384
 21
378.4861349576706
 31
0.0
  0
LINE
  5
B05
330
17
100
AcDbEntity
  8
STEMPEL
100
AcDbLine
 10
154.2366440369385
 20
383.8861349576708
 30
0.0
 11
154.2366440369385
 21
378.4861349576706
 31
0.0
  0
LINE
  5
B08
330
17
100
AcDbEntity
  8
STEMPEL
100
AcDbLine
 10
345.3647303265388
 20
386.8861349576706
 30
0.0
 11
357.1473245180357
 21
361.6182801724488
 31
0.0
  0
LINE
  5
B09
330
17
100
AcDbEntity
  8
STEMPEL
100
AcDbLine
 10
342.6458069654287
 20
385.6182801724484
 30
0.0
 11
354.4284011569259
 21
360.3504253872268
 31
0.0
  0
LINE
  5
B0A
330
17
100
AcDbEntity
  8
STEMPEL
100
AcDbLine
 10
345.3647303265385
 20
386.8861349576704
 30
0.0
 11
342.6458069654285
 21
385.6182801724484
 31
0.0
  0
LINE
  5
B0B
330
17
100
AcDbEntity
  8
STEMPEL
100
AcDbLine
 10
173.9268836043187
 20
386.8861349576704
 30
0.0
 11
176.6458069654286
 21
385.6182801724484
 31
0.0
  0
LINE
  5
B0C
330
17
100
AcDbEntity
  8
STEMPEL
100
AcDbLine
 10
176.6458069654285
 20
385.6182801724484
 30
0.0
 11
164.863212773931
 21
360.3504253872263
 31
0.0
  0
LINE
  5
B0D
330
17
100
AcDbEntity
  8
STEMPEL
100
AcDbLine
 10
173.9268836043186
 20
386.8861349576706
 30
0.0
 11
162.1442894128212
 21
361.6182801724484
 31
0.0
  0
ARC
  5
B0E
330
17
100
AcDbEntity
  8
STEMPEL
100
AcDbCircle
 10
359.8662478791456
 20
362.8861349576709
 30
0.0
 40
3.0
100
AcDbArc
 50
204.9999999999994
 51
270.0
  0
ARC
  5
B0F
330
17
100
AcDbEntity
  8
STEMPEL
100
AcDbCircle
 10
359.8662478791456
 20
362.8861349576709
 30
0.0
 40
6.0
100
AcDbArc
 50
204.9999999999994
 51
270.0
  0
ARC
  5
B10
330
17
100
AcDbEntity
  8
STEMPEL
100
AcDbCircle
 10
159.4253660517113
 20
362.8861349576704
 30
0.0
 40
3.0
100
AcDbArc
 50
270.0
 51
335.0000000000006
  0
ARC
  5
B11
330
17
100
AcDbEntity
  8
STEMPEL
100
AcDbCircle
 10
159.4253660517113
 20
362.8861349576704
 30
0.0
 40
6.0
100
AcDbArc
 50
270.0
 51
335.0000000000006
  0
HATCH
  5
B12
330
17
100
AcDbEntity
  8
SCHRAFF
100
AcDbHatch
 10
0.0
 20
0.0
 30
0.0
210
0.0
220
0.0
230
1.0
  2
_USER
 70
     0
 71
     0
 91
        2
 92
        7
 72
     1
 73
     1
 93
        9
 10
88.14580696542861
 20
359.8861349576704
 42
0.0
 10
87.14580696542862
 20
358.8861349576704
 42
0.0
 10
87.14580696542862
 20
356.8861349576704
 42
0.0
 10
159.4253660517113
 20
356.8861349576704
 42
0.2914734195860852
 10
164.863212773931
 20
360.3504253872262
 42
0.0
 10
176.6458069654285
 20
385.6182801724484
 42
0.0
 10
173.9268836043186
 20
386.8861349576704
 42
0.0
 10
162.1442894128212
 20
361.6182801724484
 42
-0.2914734195860891
 10
159.4253660517113
 20
359.8861349576704
 42
0.0
 97
        0
 92
        7
 72
     1
 73
     1
 93
        8
 10
432.1458069654284
 20
356.8861349576706
 42
0.0
 10
432.1458069654284
 20
358.8861349576711
 42
0.0
 10
431.1458069654285
 20
359.8861349576708
 42
0.0
 10
357.9550370967232
 20
359.8861349576708
 42
0.0
 10
345.3647303265388
 20
386.8861349576706
 42
0.0
 10
342.6458069654287
 20
385.6182801724484
 42
0.0
 10
354.4284011569258
 20
360.3504253872267
 42
0.2914734195860982
 10
359.8662478791458
 20
356.8861349576706
 42
0.0
 97
        0
 75
     0
 76
     0
 52
135.0
 41
2.0
 77
     0
 78
     1
 53
135.0
 43
41.54702939873914
 44
4.798911307245816
 45
-1.414213562373095
 46
-1.414213562373094
 79
     0
 47
0.3918458513578915
 98
        2
 10
146.9760022596836
 20
358.5437747192722
 10
374.8110653601078
 20
358.1519289108554
  0
LINE
  5
B13
330
17
100
AcDbEntity
  8
STEMPEL
100
AcDbLine
 10
174.6306345227297
 20
394.8861349576704
 30
0.0
 11
180.1458069654283
 21
394.8861349576703
 31
0.0
  0
ARC
  5
B14
330
17
100
AcDbEntity
  8
STEMPEL
100
AcDbCircle
 10
183.1458069654283
 20
367.8861349576704
 30
0.0
 40
8.0
100
AcDbArc
 50
210.0000000000005
 51
247.9756871629578
  0
LINE
  5
B15
330
17
100
AcDbEntity
  8
STEMPEL
100
AcDbLine
 10
169.1458069654283
 20
360.8861349576704
 30
0.0
 11
172.1458069654283
 21
366.0822873803771
 31
0.0
  0
LINE
  5
B16
330
17
100
AcDbEntity
  8
STEMPEL
100
AcDbLine
 10
171.1458069654283
 20
360.8861349576704
 30
0.0
 11
174.1458069654283
 21
363.8861349576704
 31
0.0
  0
LINE
  5
B17
330
17
100
AcDbEntity
  8
STEMPEL
100
AcDbLine
 10
169.1458069654283
 20
360.8861349576704
 30
0.0
 11
179.2728236192209
 21
360.8861349576704
 31
0.0
  0
LINE
  5
B18
330
17
100
AcDbEntity
  8
STEMPEL
100
AcDbLine
 10
174.1458069654283
 20
363.8861349576704
 30
0.0
 11
176.2176037351526
 21
363.8861349576704
 31
0.0
  0
LINE
  5
B19
330
17
100
AcDbEntity
  8
STEMPEL
100
AcDbLine
 10
169.2576390262041
 20
369.7743028968946
 30
0.0
 11
172.1458069654283
 21
366.8861349576704
 31
0.0
  0
LINE
  5
B1A
330
17
100
AcDbEntity
  8
STEMPEL
100
AcDbLine
 10
172.1458069654283
 20
366.8861349576704
 30
0.0
 11
172.1458069654283
 21
366.0822873803771
 31
0.0
  0
LINE
  5
B1B
330
17
100
AcDbEntity
  8
STEMPEL
100
AcDbLine
 10
169.4807434559672
 20
388.4662619765926
 30
0.0
 11
172.4655710132686
 21
393.6361349576704
 31
0.0
  0
LINE
  5
B1C
330
17
100
AcDbEntity
  8
STEMPEL
100
AcDbLine
 10
180.1458069654283
 20
386.8861349576704
 30
0.0
 11
177.4987105217546
 21
393.0331825704267
 31
0.0
  0
LINE
  5
B1D
330
17
100
AcDbEntity
  8
STEMPEL
100
AcDbLine
 10
169.1458069654283
 20
386.8861349576704
 30
0.0
 11
173.9268836043187
 21
386.8861349576704
 31
0.0
  0
ARC
  5
B1E
330
17
100
AcDbEntity
  8
STEMPEL
100
AcDbCircle
 10
171.6458069654283
 20
387.2162619765926
 30
0.0
 40
2.5
100
AcDbArc
 50
149.9999999999994
 51
180.0
  0
LINE
  5
B1F
330
17
100
AcDbEntity
  8
STEMPEL
100
AcDbLine
 10
169.1458069654283
 20
387.2162619765926
 30
0.0
 11
169.1458069654283
 21
386.8861349576704
 31
0.0
  0
ARC
  5
B20
330
17
100
AcDbEntity
  8
STEMPEL
100
AcDbCircle
 10
174.6306345227297
 20
392.3861349576704
 30
0.0
 40
2.5
100
AcDbArc
 50
90.0
 51
149.9999999999994
  0
ARC
  5
B21
330
17
100
AcDbEntity
  8
STEMPEL
100
AcDbCircle
 10
175.0838959560319
 20
392.3861349576704
 30
0.0
 40
2.5
100
AcDbArc
 50
15.00000000000074
 51
90.0
  0
LINE
  5
B22
330
17
100
AcDbEntity
  8
STEMPEL
100
AcDbLine
 10
344.6609794081269
 20
394.8861349576704
 30
0.0
 11
339.1458069654283
 21
394.8861349576704
 31
0.0
  0
LINE
  5
B23
330
17
100
AcDbEntity
  8
STEMPEL
100
AcDbLine
 10
350.1458069654282
 20
360.8861349576704
 30
0.0
 11
347.1458069654282
 21
366.0822873803771
 31
0.0
  0
ARC
  5
B24
330
17
100
AcDbEntity
  8
STEMPEL
100
AcDbCircle
 10
336.1458069654282
 20
367.8861349576704
 30
0.0
 40
8.0
100
AcDbArc
 50
292.0243128370431
 51
329.9999999999995
  0
LINE
  5
B25
330
17
100
AcDbEntity
  8
STEMPEL
100
AcDbLine
 10
350.1458069654282
 20
360.8861349576704
 30
0.0
 11
340.0187903116357
 21
360.8861349576704
 31
0.0
  0
LINE
  5
B26
330
17
100
AcDbEntity
  8
STEMPEL
100
AcDbLine
 10
348.1458069654282
 20
360.8861349576704
 30
0.0
 11
345.1458069654282
 21
363.8861349576704
 31
0.0
  0
LINE
  5
B27
330
17
100
AcDbEntity
  8
STEMPEL
100
AcDbLine
 10
345.1458069654282
 20
363.8861349576704
 30
0.0
 11
343.074010195704
 21
363.8861349576704
 31
0.0
  0
LINE
  5
B28
330
17
100
AcDbEntity
  8
STEMPEL
100
AcDbLine
 10
347.1458069654282
 20
366.8861349576704
 30
0.0
 11
347.1458069654282
 21
366.0822873803771
 31
0.0
  0
LINE
  5
B29
330
17
100
AcDbEntity
  8
STEMPEL
100
AcDbLine
 10
350.033974904653
 20
369.7743028968951
 30
0.0
 11
347.1458069654282
 21
366.8861349576704
 31
0.0
  0
LINE
  5
B2A
330
17
100
AcDbEntity
  8
STEMPEL
100
AcDbLine
 10
349.8108704748893
 20
388.4662619765926
 30
0.0
 11
346.826042917588
 21
393.6361349576704
 31
0.0
  0
LINE
  5
B2B
330
17
100
AcDbEntity
  8
STEMPEL
100
AcDbLine
 10
339.1458069654283
 20
386.8861349576704
 30
0.0
 11
341.7929034091022
 21
393.0331825704267
 31
0.0
  0
LINE
  5
B2C
330
17
100
AcDbEntity
  8
STEMPEL
100
AcDbLine
 10
350.1458069654282
 20
386.8861349576704
 30
0.0
 11
345.3647303265388
 21
386.8861349576704
 31
0.0
  0
LINE
  5
B2D
330
17
100
AcDbEntity
  8
STEMPEL
100
AcDbLine
 10
350.1458069654282
 20
387.2162619765926
 30
0.0
 11
350.1458069654282
 21
386.8861349576704
 31
0.0
  0
ARC
  5
B2E
330
17
100
AcDbEntity
  8
STEMPEL
100
AcDbCircle
 10
347.6458069654282
 20
387.2162619765926
 30
0.0
 40
2.5
100
AcDbArc
 50
0.0
 51
30.00000000000055
  0
ARC
  5
B2F
330
17
100
AcDbEntity
  8
STEMPEL
100
AcDbCircle
 10
344.2077179748247
 20
392.3861349576704
 30
0.0
 40
2.5
100
AcDbArc
 50
90.0
 51
164.9999999999992
  0
ARC
  5
B30
330
17
100
AcDbEntity
  8
STEMPEL
100
AcDbCircle
 10
344.6609794081269
 20
392.3861349576704
 30
0.0
 40
2.5
100
AcDbArc
 50
30.00000000000055
 51
90.0
  0
LINE
  5
B31
102
{ACAD_REACTORS
330
C2C
102
}
330
17
100
AcDbEntity
  8
STEMPEL
100
AcDbLine
 10
124.6458069654288
 20
362.8861349576707
 30
0.0
 11
124.6458069654288
 21
368.8861349576708
 31
0.0
  0
LINE
  5
B32
102
{ACAD_REACTORS
330
C2C
102
}
330
17
100
AcDbEntity
  8
STEMPEL
100
AcDbLine
 10
110.6458069654286
 20
362.8861349576707
 30
0.0
 11
110.6458069654286
 21
368.8861349576708
 31
0.0
  0
LINE
  5
B33
102
{ACAD_REACTORS
330
C2C
102
}
330
17
100
AcDbEntity
  8
STEMPEL
100
AcDbLine
 10
84.64580696542862
 20
363.8861349576708
 30
0.0
 11
84.64580696542862
 21
367.8861349576708
 31
0.0
  0
LINE
  5
B34
102
{ACAD_REACTORS
330
C2C
102
}
330
17
100
AcDbEntity
  8
STEMPEL
100
AcDbLine
 10
85.64580696542861
 20
368.8861349576708
 30
0.0
 11
84.64580696542862
 21
367.8861349576708
 31
0.0
  0
LINE
  5
B35
102
{ACAD_REACTORS
330
C2C
102
}
330
17
100
AcDbEntity
  8
STEMPEL
100
AcDbLine
 10
84.64580696542862
 20
363.8861349576708
 30
0.0
 11
85.64580696542861
 21
362.8861349576709
 31
0.0
  0
LINE
  5
B36
102
{ACAD_REACTORS
330
C2C
102
}
330
17
100
AcDbEntity
  8
STEMPEL
100
AcDbLine
 10
150.6458069654284
 20
363.8861349576708
 30
0.0
 11
149.6458069654284
 21
362.8861349576709
 31
0.0
  0
LINE
  5
B37
102
{ACAD_REACTORS
330
C2C
102
}
330
17
100
AcDbEntity
  8
STEMPEL
100
AcDbLine
 10
149.6458069654284
 20
368.8861349576708
 30
0.0
 11
150.6458069654284
 21
367.8861349576708
 31
0.0
  0
LINE
  5
B38
102
{ACAD_REACTORS
330
C2C
102
}
330
17
100
AcDbEntity
  8
STEMPEL
100
AcDbLine
 10
150.6458069654284
 20
363.8861349576708
 30
0.0
 11
150.6458069654284
 21
367.8861349576708
 31
0.0
  0
LINE
  5
B39
102
{ACAD_REACTORS
330
C2C
102
}
330
17
100
AcDbEntity
  8
STEMPEL
100
AcDbLine
 10
368.6458069654289
 20
363.8861349576708
 30
0.0
 11
368.6458069654289
 21
367.8861349576708
 31
0.0
  0
LINE
  5
B3A
102
{ACAD_REACTORS
330
C2C
102
}
330
17
100
AcDbEntity
  8
STEMPEL
100
AcDbLine
 10
369.645806965429
 20
368.8861349576708
 30
0.0
 11
368.6458069654289
 21
367.8861349576708
 31
0.0
  0
LINE
  5
B3B
102
{ACAD_REACTORS
330
C2C
102
}
330
17
100
AcDbEntity
  8
STEMPEL
100
AcDbLine
 10
368.6458069654289
 20
363.8861349576708
 30
0.0
 11
369.645806965429
 21
362.8861349576709
 31
0.0
  0
LINE
  5
B3C
102
{ACAD_REACTORS
330
C2C
102
}
330
17
100
AcDbEntity
  8
STEMPEL
100
AcDbLine
 10
434.6458069654285
 20
363.8861349576708
 30
0.0
 11
433.6458069654285
 21
362.8861349576709
 31
0.0
  0
LINE
  5
B3D
102
{ACAD_REACTORS
330
C2C
102
}
330
17
100
AcDbEntity
  8
STEMPEL
100
AcDbLine
 10
433.6458069654285
 20
368.8861349576708
 30
0.0
 11
434.6458069654285
 21
367.8861349576708
 31
0.0
  0
LINE
  5
B3E
102
{ACAD_REACTORS
330
C2C
102
}
330
17
100
AcDbEntity
  8
STEMPEL
100
AcDbLine
 10
434.6458069654285
 20
363.8861349576708
 30
0.0
 11
434.6458069654285
 21
367.8861349576708
 31
0.0
  0
LINE
  5
B3F
102
{ACAD_REACTORS
330
C2C
102
}
330
17
100
AcDbEntity
  8
STEMPEL
100
AcDbLine
 10
408.6458069654285
 20
362.8861349576707
 30
0.0
 11
408.6458069654285
 21
368.8861349576708
 31
0.0
  0
LINE
  5
B40
102
{ACAD_REACTORS
330
C2C
102
}
330
17
100
AcDbEntity
  8
STEMPEL
100
AcDbLine
 10
394.6458069654285
 20
362.8861349576707
 30
0.0
 11
394.6458069654285
 21
368.8861349576708
 31
0.0
  0
LINE
  5
B41
102
{ACAD_REACTORS
330
C2C
102
}
330
17
100
AcDbEntity
  8
STEMPEL
100
AcDbLine
 10
85.64580696542885
 20
362.8861349576709
 30
0.0
 11
112.6458069654286
 21
362.8861349576709
 31
0.0
  0
LINE
  5
B42
102
{ACAD_REACTORS
330
C2C
102
}
330
17
100
AcDbEntity
  8
STEMPEL
100
AcDbLine
 10
85.64580696542885
 20
368.8861349576708
 30
0.0
 11
165.5333457575287
 21
368.8861349576708
 31
0.0
  0
LINE
  5
B44
102
{ACAD_REACTORS
330
C2C
102
}
330
17
100
AcDbEntity
  8
STEMPEL
100
AcDbLine
 10
406.6458069654284
 20
362.8861349576709
 30
0.0
 11
433.6458069654285
 21
362.8861349576709
 31
0.0
  0
LINE
  5
B45
102
{ACAD_REACTORS
330
C2C
102
}
330
17
100
AcDbEntity
  8
STEMPEL
100
AcDbLine
 10
353.7582681733283
 20
368.8861349576708
 30
0.0
 11
433.6458069654285
 21
368.8861349576708
 31
0.0
  0
LINE
  5
B46
102
{ACAD_REACTORS
330
C2C
102
}
330
17
100
AcDbEntity
  8
STEMPEL
100
AcDbLine
 10
356.5561141222582
 20
362.8861349576709
 30
0.0
 11
396.6458069654285
 21
362.8861349576709
 31
0.0
  0
LINE
  5
B47
330
17
100
AcDbEntity
  8
HILF
100
AcDbLine
 10
364.0549698939188
 20
362.8861349576709
 30
0.0
 11
364.0549698939188
 21
359.8861349576708
 31
0.0
  0
LINE
  5
B48
330
17
100
AcDbEntity
  8
STEMPEL
100
AcDbLine
 10
365.0549698939189
 20
362.8861349576709
 30
0.0
 11
365.0549698939189
 21
359.8861349576708
 31
0.0
  0
LINE
  5
B49
330
17
100
AcDbEntity
  8
HILF
100
AcDbLine
 10
155.2366440369384
 20
362.8861349576709
 30
0.0
 11
155.2366440369384
 21
359.8861349576708
 31
0.0
  0
LINE
  5
B4A
330
17
100
AcDbEntity
  8
STEMPEL
100
AcDbLine
 10
154.2366440369385
 20
362.8861349576709
 30
0.0
 11
154.2366440369385
 21
359.8861349576708
 31
0.0
  0
LINE
  5
B4B
102
{ACAD_REACTORS
330
C2C
102
}
330
17
100
AcDbEntity
  8
STEMPEL
100
AcDbLine
 10
122.6458069654286
 20
362.8861349576709
 30
0.0
 11
162.7354998085989
 21
362.8861349576709
 31
0.0
  0
ARC
  5
B4C
330
17
100
AcDbEntity
  8
STEMPEL
100
AcDbCircle
 10
110.6333069654284
 20
375.2541818326705
 30
0.0
 40
3.231953125000015
100
AcDbArc
 50
43.6767967281007
 51
136.3232032719004
  0
ARC
  5
B4D
330
17
100
AcDbEntity
  8
STEMPEL
100
AcDbCircle
 10
117.6458069654285
 20
367.0583224576709
 30
0.0
 40
11.42781249999961
100
AcDbArc
 50
65.85233813010086
 51
114.1476618698991
  0
LINE
  5
B4E
330
17
100
AcDbEntity
  8
STEMPEL
100
AcDbLine
 10
107.1458069654284
 20
370.8861349576704
 30
0.0
 11
107.1458069654284
 21
368.8861349576704
 31
0.0
  0
ARC
  5
B4F
330
17
100
AcDbEntity
  8
STEMPEL
100
AcDbCircle
 10
110.6333069654284
 20
374.1180880826704
 30
0.0
 40
3.231953125000015
100
AcDbArc
 50
223.6767967280995
 51
316.3232032718993
  0
ARC
  5
B50
330
17
100
AcDbEntity
  8
STEMPEL
100
AcDbCircle
 10
117.6458069654285
 20
382.31394745767
 30
0.0
 40
11.42781249999961
100
AcDbArc
 50
245.8523381301009
 51
294.1476618698991
  0
LINE
  5
B51
330
17
100
AcDbEntity
  8
STEMPEL
100
AcDbLine
 10
112.9708069654284
 20
377.4861349576705
 30
0.0
 11
112.9708069654283
 21
371.8861349576704
 31
0.0
  0
LINE
  5
B52
330
17
100
AcDbEntity
  8
STEMPEL
100
AcDbLine
 10
108.2958069654283
 20
377.4861349576703
 30
0.0
 11
108.2958069654283
 21
371.8861349576704
 31
0.0
  0
LINE
  5
B53
330
17
100
AcDbEntity
  8
STEMPEL
100
AcDbLine
 10
122.3208069654283
 20
377.4861349576708
 30
0.0
 11
122.3208069654284
 21
371.8861349576699
 31
0.0
  0
LINE
  5
B54
330
17
100
AcDbEntity
  8
STEMPEL
100
AcDbLine
 10
128.1458069654284
 20
370.8861349576704
 30
0.0
 11
128.1458069654284
 21
368.8861349576704
 31
0.0
  0
LINE
  5
B55
330
17
100
AcDbEntity
  8
STEMPEL
100
AcDbLine
 10
126.9958069654283
 20
377.486134957671
 30
0.0
 11
126.9958069654284
 21
371.8861349576699
 31
0.0
  0
LINE
  5
B56
330
17
100
AcDbEntity
  8
STEMPEL
100
AcDbLine
 10
124.6583069654284
 20
378.4861349576705
 30
0.0
 11
110.6333069654283
 21
378.4861349576705
 31
0.0
  0
ARC
  5
B57
330
17
100
AcDbEntity
  8
STEMPEL
100
AcDbCircle
 10
124.6583069654284
 20
375.2541818326707
 30
0.0
 40
3.231953125000015
100
AcDbArc
 50
43.6767967281007
 51
136.3232032719004
  0
ARC
  5
B58
330
17
100
AcDbEntity
  8
STEMPEL
100
AcDbCircle
 10
124.6583069654284
 20
374.1180880826699
 30
0.0
 40
3.231953125000015
100
AcDbArc
 50
223.6767967280995
 51
316.3232032718993
  0
LINE
  5
B59
330
17
100
AcDbEntity
  8
STEMPEL
100
AcDbLine
 10
128.1458069654284
 20
370.8861349576706
 30
0.0
 11
107.1458069654284
 21
370.8861349576704
 31
0.0
  0
LINE
  5
B5A
330
17
100
AcDbEntity
  8
HILF
100
AcDbLine
 10
121.6458069654286
 20
368.8861349576708
 30
0.0
 11
121.6458069654286
 21
359.8861349576704
 31
0.0
  0
LINE
  5
B5B
330
17
100
AcDbEntity
  8
STEMPEL
100
AcDbLine
 10
122.6458069654286
 20
368.8861349576708
 30
0.0
 11
122.6458069654286
 21
359.8861349576704
 31
0.0
  0
LINE
  5
B5C
330
17
100
AcDbEntity
  8
HILF
100
AcDbLine
 10
113.6458069654286
 20
368.8861349576708
 30
0.0
 11
113.6458069654286
 21
359.8861349576704
 31
0.0
  0
LINE
  5
B5D
330
17
100
AcDbEntity
  8
STEMPEL
100
AcDbLine
 10
112.6458069654286
 20
368.8861349576708
 30
0.0
 11
112.6458069654286
 21
359.8861349576704
 31
0.0
  0
LINE
  5
B5E
330
17
100
AcDbEntity
  8
STEMPEL
100
AcDbLine
 10
166.4659610738388
 20
370.8861349576707
 30
0.0
 11
148.7366440369383
 21
370.8861349576705
 31
0.0
  0
ARC
  5
B5F
330
17
100
AcDbEntity
  8
STEMPEL
100
AcDbCircle
 10
166.2491440369383
 20
374.11808808267
 30
0.0
 40
3.231953125000015
100
AcDbArc
 50
223.6767967280995
 51
273.9088975374218
  0
ARC
  5
B60
330
17
100
AcDbEntity
  8
STEMPEL
100
AcDbCircle
 10
166.2491440369383
 20
375.2541818326708
 30
0.0
 40
3.231953125000015
100
AcDbArc
 50
43.6767967281007
 51
136.3232032719004
  0
LINE
  5
B61
330
17
100
AcDbEntity
  8
STEMPEL
100
AcDbLine
 10
166.2491440369383
 20
378.4861349576706
 30
0.0
 11
152.2241440369382
 21
378.4861349576706
 31
0.0
  0
LINE
  5
B62
330
17
100
AcDbEntity
  8
STEMPEL
100
AcDbLine
 10
168.5866440369382
 20
377.4861349576711
 30
0.0
 11
168.5866440369383
 21
375.4339542482444
 31
0.0
  0
LINE
  5
B63
330
17
100
AcDbEntity
  8
STEMPEL
100
AcDbLine
 10
163.9116440369382
 20
377.4861349576708
 30
0.0
 11
163.9116440369383
 21
371.88613495767
 31
0.0
  0
LINE
  5
B64
330
17
100
AcDbEntity
  8
STEMPEL
100
AcDbLine
 10
149.8866440369383
 20
377.4861349576704
 30
0.0
 11
149.8866440369383
 21
371.8861349576705
 31
0.0
  0
LINE
  5
B65
330
17
100
AcDbEntity
  8
STEMPEL
100
AcDbLine
 10
154.5616440369383
 20
377.4861349576706
 30
0.0
 11
154.5616440369382
 21
371.8861349576705
 31
0.0
  0
ARC
  5
B66
330
17
100
AcDbEntity
  8
STEMPEL
100
AcDbCircle
 10
159.2366440369384
 20
382.3139474576701
 30
0.0
 40
11.42781249999961
100
AcDbArc
 50
245.8523381301009
 51
294.1476618698991
  0
ARC
  5
B67
330
17
100
AcDbEntity
  8
STEMPEL
100
AcDbCircle
 10
152.2241440369383
 20
374.1180880826705
 30
0.0
 40
3.231953125000015
100
AcDbArc
 50
223.6767967280995
 51
316.3232032718993
  0
LINE
  5
B68
330
17
100
AcDbEntity
  8
STEMPEL
100
AcDbLine
 10
148.7366440369383
 20
370.8861349576705
 30
0.0
 11
148.7366440369383
 21
368.8861349576705
 31
0.0
  0
ARC
  5
B69
330
17
100
AcDbEntity
  8
STEMPEL
100
AcDbCircle
 10
159.2366440369384
 20
367.058322457671
 30
0.0
 40
11.42781249999961
100
AcDbArc
 50
65.85233813010086
 51
114.1476618698991
  0
ARC
  5
B6A
330
17
100
AcDbEntity
  8
STEMPEL
100
AcDbCircle
 10
152.2241440369383
 20
375.2541818326706
 30
0.0
 40
3.231953125000015
100
AcDbArc
 50
43.6767967281007
 51
136.3232032719004
  0
ARC
  5
B6B
330
17
100
AcDbEntity
  8
STEMPEL
100
AcDbCircle
 10
367.0674698939189
 20
375.2541818326706
 30
0.0
 40
3.231953125000015
100
AcDbArc
 50
43.67679672809952
 51
136.3232032718993
  0
ARC
  5
B6C
330
17
100
AcDbEntity
  8
STEMPEL
100
AcDbCircle
 10
360.0549698939188
 20
367.058322457671
 30
0.0
 40
11.42781249999961
100
AcDbArc
 50
65.85233813010086
 51
114.1476618698991
  0
LINE
  5
B6D
330
17
100
AcDbEntity
  8
STEMPEL
100
AcDbLine
 10
370.5549698939188
 20
370.8861349576705
 30
0.0
 11
370.5549698939188
 21
368.8861349576705
 31
0.0
  0
ARC
  5
B6E
330
17
100
AcDbEntity
  8
STEMPEL
100
AcDbCircle
 10
367.0674698939189
 20
374.1180880826705
 30
0.0
 40
3.231953125000015
100
AcDbArc
 50
223.6767967281007
 51
316.3232032719005
  0
ARC
  5
B6F
330
17
100
AcDbEntity
  8
STEMPEL
100
AcDbCircle
 10
360.0549698939188
 20
382.3139474576701
 30
0.0
 40
11.42781249999961
100
AcDbArc
 50
245.8523381301009
 51
294.1476618698991
  0
LINE
  5
B70
330
17
100
AcDbEntity
  8
STEMPEL
100
AcDbLine
 10
364.729969893919
 20
377.4861349576706
 30
0.0
 11
364.729969893919
 21
371.8861349576705
 31
0.0
  0
LINE
  5
B71
330
17
100
AcDbEntity
  8
STEMPEL
100
AcDbLine
 10
369.404969893919
 20
377.4861349576704
 30
0.0
 11
369.404969893919
 21
371.8861349576705
 31
0.0
  0
LINE
  5
B72
330
17
100
AcDbEntity
  8
STEMPEL
100
AcDbLine
 10
355.3799698939191
 20
377.4861349576708
 30
0.0
 11
355.3799698939189
 21
371.88613495767
 31
0.0
  0
LINE
  5
B73
330
17
100
AcDbEntity
  8
STEMPEL
100
AcDbLine
 10
350.7049698939189
 20
377.4861349576711
 30
0.0
 11
350.7049698939189
 21
375.4339542482444
 31
0.0
  0
LINE
  5
B74
330
17
100
AcDbEntity
  8
STEMPEL
100
AcDbLine
 10
353.042469893919
 20
378.4861349576706
 30
0.0
 11
367.0674698939191
 21
378.4861349576706
 31
0.0
  0
ARC
  5
B75
330
17
100
AcDbEntity
  8
STEMPEL
100
AcDbCircle
 10
353.042469893919
 20
375.2541818326708
 30
0.0
 40
3.231953125000015
100
AcDbArc
 50
43.67679672809952
 51
136.3232032718993
  0
ARC
  5
B76
330
17
100
AcDbEntity
  8
STEMPEL
100
AcDbCircle
 10
353.042469893919
 20
374.11808808267
 30
0.0
 40
3.231953125000015
100
AcDbArc
 50
266.0911024625781
 51
316.3232032719005
  0
LINE
  5
B77
330
17
100
AcDbEntity
  8
STEMPEL
100
AcDbLine
 10
352.8256528570186
 20
370.8861349576707
 30
0.0
 11
370.5549698939188
 21
370.8861349576705
 31
0.0
  0
LINE
  5
B78
330
17
100
AcDbEntity
  8
STEMPEL
100
AcDbLine
 10
391.1458069654289
 20
370.8861349576706
 30
0.0
 11
412.1458069654289
 21
370.8861349576704
 31
0.0
  0
ARC
  5
B79
330
17
100
AcDbEntity
  8
STEMPEL
100
AcDbCircle
 10
394.6333069654287
 20
374.1180880826699
 30
0.0
 40
3.231953125000015
100
AcDbArc
 50
223.6767967281007
 51
316.3232032719005
  0
ARC
  5
B7A
330
17
100
AcDbEntity
  8
STEMPEL
100
AcDbCircle
 10
394.6333069654287
 20
375.2541818326707
 30
0.0
 40
3.231953125000015
100
AcDbArc
 50
43.67679672809952
 51
136.3232032718993
  0
LINE
  5
B7B
330
17
100
AcDbEntity
  8
STEMPEL
100
AcDbLine
 10
394.6333069654287
 20
378.4861349576705
 30
0.0
 11
408.6583069654287
 21
378.4861349576705
 31
0.0
  0
LINE
  5
B7C
330
17
100
AcDbEntity
  8
STEMPEL
100
AcDbLine
 10
392.2958069654291
 20
377.486134957671
 30
0.0
 11
392.2958069654288
 21
371.8861349576699
 31
0.0
  0
LINE
  5
B7D
330
17
100
AcDbEntity
  8
STEMPEL
100
AcDbLine
 10
391.1458069654289
 20
370.8861349576704
 30
0.0
 11
391.1458069654289
 21
368.8861349576704
 31
0.0
  0
LINE
  5
B7E
330
17
100
AcDbEntity
  8
STEMPEL
100
AcDbLine
 10
396.9708069654288
 20
377.4861349576708
 30
0.0
 11
396.9708069654288
 21
371.8861349576699
 31
0.0
  0
LINE
  5
B7F
330
17
100
AcDbEntity
  8
STEMPEL
100
AcDbLine
 10
410.9958069654288
 20
377.4861349576703
 30
0.0
 11
410.9958069654288
 21
371.8861349576704
 31
0.0
  0
LINE
  5
B80
330
17
100
AcDbEntity
  8
STEMPEL
100
AcDbLine
 10
406.3208069654287
 20
377.4861349576705
 30
0.0
 11
406.3208069654288
 21
371.8861349576704
 31
0.0
  0
ARC
  5
B81
330
17
100
AcDbEntity
  8
STEMPEL
100
AcDbCircle
 10
401.6458069654287
 20
382.31394745767
 30
0.0
 40
11.42781249999961
100
AcDbArc
 50
245.8523381301009
 51
294.1476618698991
  0
ARC
  5
B82
330
17
100
AcDbEntity
  8
STEMPEL
100
AcDbCircle
 10
408.6583069654287
 20
374.1180880826704
 30
0.0
 40
3.231953125000015
100
AcDbArc
 50
223.6767967281007
 51
316.3232032719005
  0
LINE
  5
B83
330
17
100
AcDbEntity
  8
STEMPEL
100
AcDbLine
 10
412.1458069654289
 20
370.8861349576704
 30
0.0
 11
412.1458069654289
 21
368.8861349576704
 31
0.0
  0
ARC
  5
B84
330
17
100
AcDbEntity
  8
STEMPEL
100
AcDbCircle
 10
401.6458069654287
 20
367.0583224576709
 30
0.0
 40
11.42781249999961
100
AcDbArc
 50
65.85233813010086
 51
114.1476618698991
  0
ARC
  5
B85
330
17
100
AcDbEntity
  8
STEMPEL
100
AcDbCircle
 10
408.6583069654287
 20
375.2541818326705
 30
0.0
 40
3.231953125000015
100
AcDbArc
 50
43.67679672809952
 51
136.3232032718993
  0
LINE
  5
B86
330
17
100
AcDbEntity
  8
STEMPEL
100
AcDbLine
 10
406.6458069654284
 20
368.8861349576708
 30
0.0
 11
406.6458069654284
 21
359.8861349576704
 31
0.0
  0
LINE
  5
B87
330
17
100
AcDbEntity
  8
HILF
100
AcDbLine
 10
405.6458069654285
 20
368.8861349576708
 30
0.0
 11
405.6458069654285
 21
359.8861349576704
 31
0.0
  0
LINE
  5
B88
330
17
100
AcDbEntity
  8
HILF
100
AcDbLine
 10
397.6458069654285
 20
368.8861349576708
 30
0.0
 11
397.6458069654285
 21
359.8861349576704
 31
0.0
  0
LINE
  5
B89
330
17
100
AcDbEntity
  8
STEMPEL
100
AcDbLine
 10
396.6458069654285
 20
368.8861349576708
 30
0.0
 11
396.6458069654285
 21
359.8861349576704
 31
0.0
  0
HATCH
  5
B8A
330
17
100
AcDbEntity
  8
SCHRAFF
100
AcDbHatch
 10
0.0
 20
0.0
 30
0.0
210
0.0
220
0.0
230
1.0
  2
ANSI37
 70
     0
 71
     0
 91
        2
 92
        7
 72
     1
 73
     1
 93
       17
 10
180.1458069654286
 20
386.8861349576698
 42
0.0
 10
177.4987105217546
 20
393.0331825704267
 42
0.3649644247068629
 10
174.857265239381
 20
394.8758414701473
 42
0.2924258340981792
 10
172.4655710132686
 20
393.6361349576704
 42
0.0
 10
169.4807434559672
 20
388.4662619765926
 42
0.1316524975873975
 10
169.1458069654283
 20
387.2162619765926
 42
0.0
 10
169.1458069654283
 20
386.8861349576704
 42
0.0
 10
173.9268836043187
 20
386.8861349576704
 42
0.0
 10
176.6458069654285
 20
385.6182801724484
 42
0.0
 10
169.2576390262041
 20
369.7743028968947
 42
0.0
 10
172.1458069654283
 20
366.8861349576703
 42
0.0
 10
172.1458069654283
 20
366.0822873803771
 42
0.0
 10
169.1458069654283
 20
360.8861349576704
 42
0.0
 10
171.1458069654283
 20
360.8861349576704
 42
0.0
 10
174.1458069654283
 20
363.8861349576704
 42
0.0
 10
176.2176037351526
 20
363.8861349576704
 42
0.1672335555029036
 10
180.1458069654286
 20
360.4699364705746
 42
0.0
 97
        0
 92
        7
 72
     1
 73
     1
 93
       17
 10
342.6458069654287
 20
385.6182801724485
 42
0.0
 10
345.3647303265386
 20
386.8861349576704
 42
0.0
 10
350.1458069654282
 20
386.8861349576704
 42
0.0
 10
350.1458069654282
 20
387.2162619765926
 42
0.1316524975873909
 10
349.8108704748894
 20
388.4662619765925
 42
0.0
 10
346.826042917588
 20
393.6361349576704
 42
0.2924258340981822
 10
344.4343486914756
 20
394.8758414701473
 42
0.3649644247068388
 10
341.7929034091022
 20
393.0331825704267
 42
0.0
 10
339.1458069654286
 20
386.8861349576711
 42
0.0
 10
339.1458069654286
 20
360.4699364705749
 42
0.1672335555028828
 10
343.074010195704
 20
363.8861349576704
 42
0.0
 10
345.1458069654282
 20
363.8861349576704
 42
0.0
 10
348.1458069654282
 20
360.8861349576703
 42
0.0
 10
350.1458069654282
 20
360.8861349576704
 42
0.0
 10
347.1458069654282
 20
366.0822873803771
 42
0.0
 10
347.1458069654282
 20
366.8861349576703
 42
0.0
 10
350.033974904653
 20
369.7743028968951
 42
0.0
 97
        0
 75
     0
 76
     1
 52
0.0
 41
20.0
 77
     0
 78
     2
 53
45.0
 43
29.89420112521429
 44
6.254672268926242
 45
-1.767766952966368
 46
1.767766952966368
 79
     0
 53
135.0
 43
29.89420112521429
 44
6.254672268926242
 45
-1.767766952966368
 46
-1.767766952966368
 79
     0
 47
0.4597774962840677
 98
        2
 10
176.2454326031216
 20
375.2491436538203
 10
342.8110850264307
 20
374.3295894531261
  0
LINE
  5
B8B
330
17
100
AcDbEntity
  8
STEMPEL
100
AcDbLine
 10
180.1458069654286
 20
356.8861349576705
 30
0.0
 11
87.14580696542862
 21
356.8861349576704
 31
0.0
  0
LINE
  5
B8C
330
17
100
AcDbEntity
  8
TEXT
 62
     2
100
AcDbLine
 10
464.651716182404
 20
356.2793111523019
 30
0.0
 11
419.0647573981445
 21
358.9731678432719
 31
0.0
  0
TEXT
  5
B8D
330
17
100
AcDbEntity
  8
TEXT
 62
     1
100
AcDbText
 10
464.9276123469781
 20
346.451156180829
 30
0.0
 40
7.0
  1
EDV-Art.Nr. 21806.150X
 41
0.8
  7
GREEKS
100
AcDbText
  0
LINE
  5
B8E
330
17
100
AcDbEntity
  8
TEXT
 62
     2
100
AcDbLine
 10
464.651716182404
 20
356.2793111523019
 30
0.0
 11
570.6336999411398
 21
356.2793111523019
 31
0.0
  0
TEXT
  5
B8F
330
17
100
AcDbEntity
  8
TEXT
 62
     1
100
AcDbText
 10
464.9276123469781
 20
360.1674078329788
 30
0.0
 40
7.0
  1
Festflansch DN150
 41
0.8
  7
GREEKS
100
AcDbText
  0
LINE
  5
B90
330
17
100
AcDbEntity
  8
TEXT
 62
     2
100
AcDbLine
 10
464.651716182404
 20
385.5521043935444
 30
0.0
 11
571.4324862134579
 21
385.5521043935444
 31
0.0
  0
TEXT
  5
B91
330
17
100
AcDbEntity
  8
TEXT
 62
     1
100
AcDbText
 10
465.8985973582398
 20
389.4402010742212
 30
0.0
 40
7.0
  1
Losflansch DN150
 41
0.8
  7
GREEKS
100
AcDbText
  0
TEXT
  5
B92
330
17
100
AcDbEntity
  8
TEXT
 62
     1
100
AcDbText
 10
465.8985973582398
 20
375.7317728479145
 30
0.0
 40
7.0
  1
EDV-Art.Nr. 21805.150X
 41
0.8
  7
GREEKS
100
AcDbText
  0
DIMENSION
  5
BF1
330
17
100
AcDbEntity
  8
BEM
100
AcDbDimension
  2
*D10
 10
65.87241521457236
 20
359.8861349576704
 30
0.0
 11
60.37241521457229
 21
309.8861349576704
 31
0.0
 70
    32
  1
min. 35mm
 71
     5
 42
100.0
  3
STANDARD
100
AcDbAlignedDimension
 13
88.14580696542861
 23
259.8861349576704
 33
0.0
 14
88.14580696542861
 24
359.8861349576704
 34
0.0
 50
90.0
100
AcDbRotatedDimension
  0
HATCH
  5
C2C
330
17
100
AcDbEntity
  8
SCHRAFF
100
AcDbHatch
 10
0.0
 20
0.0
 30
0.0
210
0.0
220
0.0
230
1.0
  2
_USER
 70
     0
 71
     1
 91
        4
 92
        7
 72
     0
 73
     1
 93
        6
 10
433.6458069654285
 20
362.8861349576709
 10
434.6458069654285
 20
363.8861349576708
 10
434.6458069654285
 20
367.8861349576708
 10
433.6458069654285
 20
368.8861349576709
 10
408.6458069654285
 20
368.8861349576709
 10
408.6458069654285
 20
362.8861349576709
 97
        6
330
B3D
330
B45
330
B3F
330
B44
330
B3C
330
B3E
 92
        7
 72
     0
 73
     1
 93
        6
 10
394.6458069654284
 20
362.8861349576709
 10
394.6458069654286
 20
368.8861349576709
 10
369.645806965429
 20
368.8861349576709
 10
368.6458069654289
 20
367.8861349576708
 10
368.6458069654289
 20
363.8861349576708
 10
369.645806965429
 20
362.8861349576708
 97
        6
330
B45
330
B3A
330
B39
330
B3B
330
B46
330
B40
 92
        7
 72
     0
 73
     1
 93
        6
 10
124.6458069654288
 20
368.8861349576708
 10
124.6458069654288
 20
362.8861349576709
 10
149.6458069654283
 20
362.8861349576708
 10
150.6458069654284
 20
363.8861349576708
 10
150.6458069654284
 20
367.8861349576708
 10
149.6458069654284
 20
368.8861349576708
 97
        6
330
B37
330
B42
330
B31
330
B4B
330
B36
330
B38
 92
        7
 72
     0
 73
     1
 93
        6
 10
85.64580696542861
 20
368.8861349576709
 10
84.64580696542862
 20
367.8861349576708
 10
84.64580696542862
 20
363.8861349576708
 10
85.64580696542858
 20
362.8861349576709
 10
110.6458069654286
 20
362.8861349576709
 10
110.6458069654286
 20
368.8861349576708
 97
        6
330
B42
330
B34
330
B33
330
B35
330
B41
330
B32
 75
     0
 76
     0
 52
45.0
 41
5.0
 77
     0
 78
     1
 53
45.0
 43
18.24244335783896
 44
2.279536179889873
 45
-3.535533905932737
 46
3.535533905932737
 79
     0
 47
0.4255043030317091
 98
        4
 10
418.9216499824347
 20
365.2201349010797
 10
381.4655819845284
 20
365.6456384698399
 10
144.3856926560047
 20
366.9221514398705
 10
107.780896184573
 20
367.3476550086307
  0
HATCH
  5
C4D
330
17
100
AcDbEntity
  8
SCHRAFF
100
AcDbHatch
 10
0.0
 20
0.0
 30
0.0
210
0.0
220
0.0
230
1.0
  2
_USER
 70
     0
 71
     1
 91
        4
 92
        7
 72
     0
 73
     1
 93
        6
 10
408.6458069654285
 20
268.8861349576708
 10
408.6458069654285
 20
262.8861349576709
 10
433.6458069654285
 20
262.8861349576709
 10
434.6458069654285
 20
263.8861349576708
 10
434.6458069654285
 20
267.8861349576708
 10
433.6458069654285
 20
268.8861349576708
 97
        6
330
5D3
330
5CB
330
5D1
330
5CC
330
5D4
330
5D2
 92
        7
 72
     0
 73
     1
 93
        6
 10
369.645806965429
 20
268.8861349576708
 10
368.6458069654289
 20
267.8861349576708
 10
368.6458069654289
 20
263.8861349576708
 10
369.645806965429
 20
262.8861349576708
 10
394.6458069654285
 20
262.8861349576708
 10
394.6458069654285
 20
268.8861349576708
 97
        6
330
5CB
330
5D6
330
5D7
330
5D5
330
5CA
330
5D0
 92
        7
 72
     0
 73
     1
 93
        6
 10
124.6458069654289
 20
268.8861349576709
 10
124.6458069654288
 20
262.8861349576708
 10
149.6458069654284
 20
262.8861349576709
 10
150.6458069654284
 20
263.8861349576708
 10
150.6458069654284
 20
267.8861349576708
 10
149.6458069654283
 20
268.8861349576708
 97
        6
330
5D9
330
5CE
330
5DF
330
5C5
330
5DA
330
5D8
 92
        7
 72
     0
 73
     1
 93
        6
 10
110.6458069654286
 20
262.8861349576709
 10
110.6458069654286
 20
268.8861349576708
 10
85.6458069654286
 20
268.8861349576708
 10
84.64580696542862
 20
267.8861349576708
 10
84.64580696542862
 20
263.8861349576708
 10
85.64580696542861
 20
262.8861349576709
 97
        6
330
5CE
330
5DC
330
5DD
330
5DB
330
5CF
330
5DE
 75
     0
 76
     0
 52
45.0
 41
5.0
 77
     0
 78
     1
 53
45.0
 43
18.24244335783896
 44
2.279536179889873
 45
-3.535533905932737
 46
3.535533905932737
 79
     0
 47
0.4255043030317091
 98
        4
 10
414.2396418510897
 20
266.9286384724792
 10
385.2963156422516
 20
266.503134903719
 10
141.8318692351399
 20
267.7796478737496
 10
100.1194288691263
 20
264.8011183649287
  0
DIMENSION
  5
CAF
330
17
100
AcDbEntity
  8
BEM
100
AcDbDimension
  2
*D11
 10
35.8823647406557
 20
128.2997213394535
 30
0.0
 11
30.3823647406557
 21
438.7179969922169
 31
0.0
 70
    32
  1
825
 71
     5
 42
620.8365513055269
  3
STANDARD
100
AcDbAlignedDimension
 13
180.1458069654286
 23
749.1362726449803
 33
0.0
 14
193.8361666797777
 24
128.2997213394535
 34
0.0
 50
90.0
100
AcDbRotatedDimension
  0
ENDSEC
  0
SECTION
  2
OBJECTS
  0
DICTIONARY
  5
C
330
0
100
AcDbDictionary
281
     1
  3
ACAD_COLOR
350
17F
  3
ACAD_GROUP
350
D
  3
ACAD_LAYOUT
350
180
  3
ACAD_MATERIAL
350
17E
  3
ACAD_MLINESTYLE
350
1A
  3
ACAD_PLOTSETTINGS
350
181
  3
ACAD_PLOTSTYLENAME
350
17C
  3
ACDBVARIABLEDICTIONARY
350
30
  0
DICTIONARY
  5
17F
102
{ACAD_REACTORS
330
C
102
}
330
C
100
AcDbDictionary
281
     1
  0
DICTIONARY
  5
D
102
{ACAD_REACTORS
330
C
102
}
330
C
100
AcDbDictionary
281
     1
  0
DICTIONARY
  5
180
102
{ACAD_REACTORS
330
C
102
}
330
C
100
AcDbDictionary
281
     1
  3
Layout1
350
183
  3
Model
350
182
  0
DICTIONARY
  5
17E
102
{ACAD_REACTORS
330
C
102
}
330
C
100
AcDbDictionary
281
     1
  0
DICTIONARY
  5
1A
102
{ACAD_REACTORS
330
C
102
}
330
C
100
AcDbDictionary
281
     1
  3
STANDARD
350
1B
  0
DICTIONARY
  5
181
102
{ACAD_REACTORS
330
C
102
}
330
C
100
AcDbDictionary
281
     1
  0
ACDBDICTIONARYWDFLT
  5
17C
102
{ACAD_REACTORS
330
C
102
}
330
C
100
AcDbDictionary
281
     1
  3
Normal
350
17D
100
AcDbDictionaryWithDefault
340
17D
  0
DICTIONARY
  5
30
102
{ACAD_REACTORS
330
C
102
}
330
C
100
AcDbDictionary
281
     1
  3
DIMADEC
350
31
  3
DIMASSOC
350
191
  3
PROJECTNAME
350
192
  0
LAYOUT
  5
183
102
{ACAD_REACTORS
330
180
102
}
330
180
100
AcDbPlotSettings
  1

  2
RICOH Aficio 2027 PCL 6
  4

  6

 40
0.0
 41
0.0
 42
0.0
 43
0.0
 44
0.0
 45
0.0
 46
0.0
 47
0.0
 48
0.0
 49
0.0
140
0.0
141
0.0
142
1.0
143
1.0
 70
   688
 72
     0
 73
     0
 74
     5
  7

 75
    16
147
1.0
 76
     0
 77
     2
 78
   300
148
0.0
149
0.0
100
AcDbLayout
  1
Layout1
 70
     0
 71
     1
 10
0.0
 20
0.0
 11
12.0
 21
9.0
 12
0.0
 22
0.0
 32
0.0
 14
1.000000000000000E+20
 24
1.000000000000000E+20
 34
1.000000000000000E+20
 15
-1.000000000000000E+20
 25
-1.000000000000000E+20
 35
-1.000000000000000E+20
146
0.0
 13
0.0
 23
0.0
 33
0.0
 16
1.0
 26
0.0
 36
0.0
 17
0.0
 27
1.0
 37
0.0
 76
     0
330
14
  0
LAYOUT
  5
182
102
{ACAD_REACTORS
330
180
102
}
330
180
100
AcDbPlotSettings
  1

  2
RICOH Aficio 2027 PCL 6
  4
A4
  6

 40
5.027083396911621
 41
5.027085304260253
 42
5.027084350585937
 43
5.027069091796875
 44
209.9733276367187
 45
296.9259948730469
 46
0.0
 47
2.08
 48
0.0
 49
0.0
140
0.0
141
0.0
142
1.0
143
2.971200961074196
 70
 11956
 72
     1
 73
     0
 74
     2
  7
monochrome1.ctb
 75
     0
147
0.3365642422377461
 76
     0
 77
     2
 78
   300
148
0.0
149
0.0
100
AcDbLayout
  1
Model
 70
     1
 71
     0
 10
0.0
 20
0.0
 11
12.0
 21
9.0
 12
0.0
 22
0.0
 32
0.0
 14
0.0
 24
0.0
 34
0.0
 15
0.0
 25
0.0
 35
0.0
146
0.0
 13
0.0
 23
0.0
 33
0.0
 16
1.0
 26
0.0
 36
0.0
 17
0.0
 27
1.0
 37
0.0
 76
     0
330
17
  0
MLINESTYLE
  5
1B
102
{ACAD_REACTORS
330
1A
102
}
330
1A
100
AcDbMlineStyle
  2
STANDARD
 70
     0
  3

 62
   256
 51
90.0
 52
90.0
 71
     2
 49
0.5
 62
   256
  6
BYLAYER
 49
-0.5
 62
   256
  6
BYLAYER
  0
ACDBPLACEHOLDER
  5
17D
102
{ACAD_REACTORS
330
17C
102
}
330
17C
  0
DICTIONARYVAR
  5
31
102
{ACAD_REACTORS
330
30
102
}
330
30
100
DictionaryVariables
280
     0
  1
0
  0
DICTIONARYVAR
  5
191
102
{ACAD_REACTORS
330
30
102
}
330
30
100
DictionaryVariables
280
     0
  1
1
  0
DICTIONARYVAR
  5
192
102
{ACAD_REACTORS
330
30
102
}
330
30
100
DictionaryVariables
280
     0
  1

  0
ENDSEC
  0
EOF
