  0
SECTION
  2
HEADER
  9
$ACADVER
  1
AC1018
  9
$ACADMAINTVER
 70
     2
  9
$DWGCODEPAGE
  3
ANSI_1252
  9
$INSBASE
 10
0.0
 20
0.0
 30
0.0
  9
$EXTMIN
 10
-0.0181260584133725
 20
-0.0256328098773793
 30
-0.0015258207003583
  9
$EXTMAX
 10
594.0181288244414
 20
840.0256367214323
 30
0.0000000349246037
  9
$LIMMIN
 10
0.0
 20
0.0
  9
$LIMMAX
 10
594.0
 20
840.0
  9
$ORTHOMODE
 70
     0
  9
$REGENMODE
 70
     1
  9
$FILLMODE
 70
     1
  9
$QTEXTMODE
 70
     0
  9
$MIRRTEXT
 70
     1
  9
$LTSCALE
 40
20.0
  9
$ATTMODE
 70
     1
  9
$TEXTSIZE
 40
2.0
  9
$TRACEWID
 40
1.0
  9
$TEXTSTYLE
  7
STANDARD
  9
$CLAYER
  8
SCHRAFF
  9
$CELTYPE
  6
BYLAYER
  9
$CECOLOR
 62
   256
  9
$CELTSCALE
 40
1.0
  9
$DISPSILH
 70
     0
  9
$DIMSCALE
 40
2.0
  9
$DIMASZ
 40
3.5
  9
$DIMEXO
 40
1.0
  9
$DIMDLI
 40
8.0
  9
$DIMRND
 40
0.0
  9
$DIMDLE
 40
0.0
  9
$DIMEXE
 40
1.5
  9
$DIMTP
 40
0.0
  9
$DIMTM
 40
0.0
  9
$DIMTXT
 40
3.5
  9
$DIMCEN
 40
1.5
  9
$DIMTSZ
 40
0.0
  9
$DIMTOL
 70
     0
  9
$DIMLIM
 70
     0
  9
$DIMTIH
 70
     0
  9
$DIMTOH
 70
     0
  9
$DIMSE1
 70
     0
  9
$DIMSE2
 70
     0
  9
$DIMTAD
 70
     1
  9
$DIMZIN
 70
     8
  9
$DIMBLK
  1

  9
$DIMASO
 70
     1
  9
$DIMSHO
 70
     0
  9
$DIMPOST
  1

  9
$DIMAPOST
  1

  9
$DIMALT
 70
     0
  9
$DIMALTD
 70
     2
  9
$DIMALTF
 40
25.4
  9
$DIMLFAC
 40
1.0
  9
$DIMTOFL
 70
     1
  9
$DIMTVP
 40
0.5714285714285714
  9
$DIMTIX
 70
     0
  9
$DIMSOXD
 70
     0
  9
$DIMSAH
 70
     0
  9
$DIMBLK1
  1

  9
$DIMBLK2
  1

  9
$DIMSTYLE
  2
STANDARD
  9
$DIMCLRD
 70
     0
  9
$DIMCLRE
 70
     0
  9
$DIMCLRT
 70
     1
  9
$DIMTFAC
 40
1.0
  9
$DIMGAP
 40
1.0
  9
$DIMJUST
 70
     0
  9
$DIMSD1
 70
     0
  9
$DIMSD2
 70
     0
  9
$DIMTOLJ
 70
     1
  9
$DIMTZIN
 70
     8
  9
$DIMALTZ
 70
     8
  9
$DIMALTTZ
 70
     8
  9
$DIMUPT
 70
     0
  9
$DIMDEC
 70
     2
  9
$DIMTDEC
 70
     2
  9
$DIMALTU
 70
     2
  9
$DIMALTTD
 70
     2
  9
$DIMTXSTY
  7
STANDARD
  9
$DIMAUNIT
 70
     0
  9
$DIMADEC
 70
     0
  9
$DIMALTRND
 40
0.0
  9
$DIMAZIN
 70
     0
  9
$DIMDSEP
 70
    46
  9
$DIMATFIT
 70
     3
  9
$DIMFRAC
 70
     0
  9
$DIMLDRBLK
  1

  9
$DIMLUNIT
 70
     2
  9
$DIMLWD
 70
    -2
  9
$DIMLWE
 70
    -2
  9
$DIMTMOVE
 70
     0
  9
$LUNITS
 70
     2
  9
$LUPREC
 70
     2
  9
$SKETCHINC
 40
1.0
  9
$FILLETRAD
 40
0.0
  9
$AUNITS
 70
     0
  9
$AUPREC
 70
     0
  9
$MENU
  1
ACAD
  9
$ELEVATION
 40
0.0
  9
$PELEVATION
 40
0.0
  9
$THICKNESS
 40
0.0
  9
$LIMCHECK
 70
     0
  9
$CHAMFERA
 40
0.5
  9
$CHAMFERB
 40
0.5
  9
$CHAMFERC
 40
0.0
  9
$CHAMFERD
 40
0.0
  9
$SKPOLY
 70
     0
  9
$TDCREATE
 40
2455397.865855208
  9
$TDUCREATE
 40
2455397.782521875
  9
$TDUPDATE
 40
2455657.423489630
  9
$TDUUPDATE
 40
2455657.340156296
  9
$TDINDWG
 40
0.5508746528
  9
$TDUSRTIMER
 40
0.5508746528
  9
$USRTIMER
 70
     1
  9
$ANGBASE
 50
0.0
  9
$ANGDIR
 70
     0
  9
$PDMODE
 70
     0
  9
$PDSIZE
 40
0.0
  9
$PLINEWID
 40
0.0
  9
$SPLFRAME
 70
     0
  9
$SPLINETYPE
 70
     6
  9
$SPLINESEGS
 70
     8
  9
$HANDSEED
  5
B66
  9
$SURFTAB1
 70
     6
  9
$SURFTAB2
 70
     6
  9
$SURFTYPE
 70
     6
  9
$SURFU
 70
     6
  9
$SURFV
 70
     6
  9
$UCSBASE
  2

  9
$UCSNAME
  2

  9
$UCSORG
 10
0.0
 20
0.0
 30
0.0
  9
$UCSXDIR
 10
1.0
 20
0.0
 30
0.0
  9
$UCSYDIR
 10
0.0
 20
1.0
 30
0.0
  9
$UCSORTHOREF
  2

  9
$UCSORTHOVIEW
 70
     0
  9
$UCSORGTOP
 10
0.0
 20
0.0
 30
0.0
  9
$UCSORGBOTTOM
 10
0.0
 20
0.0
 30
0.0
  9
$UCSORGLEFT
 10
0.0
 20
0.0
 30
0.0
  9
$UCSORGRIGHT
 10
0.0
 20
0.0
 30
0.0
  9
$UCSORGFRONT
 10
0.0
 20
0.0
 30
0.0
  9
$UCSORGBACK
 10
0.0
 20
0.0
 30
0.0
  9
$PUCSBASE
  2

  9
$PUCSNAME
  2

  9
$PUCSORG
 10
0.0
 20
0.0
 30
0.0
  9
$PUCSXDIR
 10
1.0
 20
0.0
 30
0.0
  9
$PUCSYDIR
 10
0.0
 20
1.0
 30
0.0
  9
$PUCSORTHOREF
  2

  9
$PUCSORTHOVIEW
 70
     0
  9
$PUCSORGTOP
 10
0.0
 20
0.0
 30
0.0
  9
$PUCSORGBOTTOM
 10
0.0
 20
0.0
 30
0.0
  9
$PUCSORGLEFT
 10
0.0
 20
0.0
 30
0.0
  9
$PUCSORGRIGHT
 10
0.0
 20
0.0
 30
0.0
  9
$PUCSORGFRONT
 10
0.0
 20
0.0
 30
0.0
  9
$PUCSORGBACK
 10
0.0
 20
0.0
 30
0.0
  9
$USERI1
 70
     0
  9
$USERI2
 70
     0
  9
$USERI3
 70
     0
  9
$USERI4
 70
     0
  9
$USERI5
 70
     0
  9
$USERR1
 40
0.0
  9
$USERR2
 40
0.0
  9
$USERR3
 40
0.0
  9
$USERR4
 40
0.0
  9
$USERR5
 40
0.0
  9
$WORLDVIEW
 70
     1
  9
$SHADEDGE
 70
     3
  9
$SHADEDIF
 70
    70
  9
$TILEMODE
 70
     1
  9
$MAXACTVP
 70
    16
  9
$PINSBASE
 10
0.0
 20
0.0
 30
0.0
  9
$PLIMCHECK
 70
     0
  9
$PEXTMIN
 10
1.000000000000000E+20
 20
1.000000000000000E+20
 30
1.000000000000000E+20
  9
$PEXTMAX
 10
-1.000000000000000E+20
 20
-1.000000000000000E+20
 30
-1.000000000000000E+20
  9
$PLIMMIN
 10
0.0
 20
0.0
  9
$PLIMMAX
 10
12.0
 20
9.0
  9
$UNITMODE
 70
     0
  9
$VISRETAIN
 70
     0
  9
$PLINEGEN
 70
     0
  9
$PSLTSCALE
 70
     0
  9
$TREEDEPTH
 70
  3020
  9
$CMLSTYLE
  2
STANDARD
  9
$CMLJUST
 70
     0
  9
$CMLSCALE
 40
1.0
  9
$PROXYGRAPHICS
 70
     1
  9
$MEASUREMENT
 70
     0
  9
$CELWEIGHT
370
    -1
  9
$ENDCAPS
280
     0
  9
$JOINSTYLE
280
     0
  9
$LWDISPLAY
290
     0
  9
$INSUNITS
 70
     0
  9
$HYPERLINKBASE
  1

  9
$STYLESHEET
  1
monochrome 1.ctb
  9
$XEDIT
290
     1
  9
$CEPSNTYPE
380
     0
  9
$PSTYLEMODE
290
     1
  9
$FINGERPRINTGUID
  2
{C80A233E-B386-4AB6-A927-E1DF00D99C08}
  9
$VERSIONGUID
  2
{46B7B465-FFF1-440A-8775-173B29A8B1BF}
  9
$EXTNAMES
290
     1
  9
$PSVPSCALE
 40
0.0
  9
$OLESTARTUP
290
     0
  9
$SORTENTS
280
   127
  9
$INDEXCTL
280
     0
  9
$HIDETEXT
280
     0
  9
$XCLIPFRAME
290
     0
  9
$HALOGAP
280
     0
  9
$OBSCOLOR
 70
   257
  9
$OBSLTYPE
280
     0
  9
$INTERSECTIONDISPLAY
280
     0
  9
$INTERSECTIONCOLOR
 70
   257
  9
$DIMASSOC
280
     1
  9
$PROJECTNAME
  1

  0
ENDSEC
  0
SECTION
  2
CLASSES
  0
CLASS
  1
DICTIONARYVAR
  2
AcDbDictionaryVar
  3
ObjectDBX Classes
 90
        0
 91
        3
280
     0
281
     0
  0
CLASS
  1
ACDBDICTIONARYWDFLT
  2
AcDbDictionaryWithDefault
  3
ObjectDBX Classes
 90
        0
 91
        1
280
     0
281
     0
  0
ENDSEC
  0
SECTION
  2
TABLES
  0
TABLE
  2
VPORT
  5
8
330
0
100
AcDbSymbolTable
 70
     3
  0
VPORT
  5
B65
330
8
100
AcDbSymbolTableRecord
100
AcDbViewportTableRecord
  2
*Active
 70
     0
 10
0.0
 20
0.0
 11
1.0
 21
1.0
 12
297.0
 22
420.0
 13
0.0
 23
0.0
 14
2.5
 24
2.5
 15
20.0
 25
20.0
 16
0.0
 26
0.0
 36
1.0
 17
0.0
 27
0.0
 37
0.0
 40
840.0
 41
1.334231805929919
 42
50.0
 43
0.0
 44
0.0
 50
0.0
 51
0.0
 71
     0
 72
   500
 73
     1
 74
     0
 75
     0
 76
     0
 77
     0
 78
     0
281
     0
 65
     1
110
0.0
120
0.0
130
0.0
111
1.0
121
0.0
131
0.0
112
0.0
122
1.0
132
0.0
 79
     0
146
0.0
  0
ENDTAB
  0
TABLE
  2
LTYPE
  5
5
330
0
100
AcDbSymbolTable
 70
     3
  0
LTYPE
  5
11
330
5
100
AcDbSymbolTableRecord
100
AcDbLinetypeTableRecord
  2
BYBLOCK
 70
     0
  3

 72
    65
 73
     0
 40
0.0
  0
LTYPE
  5
12
330
5
100
AcDbSymbolTableRecord
100
AcDbLinetypeTableRecord
  2
BYLAYER
 70
     0
  3

 72
    65
 73
     0
 40
0.0
  0
LTYPE
  5
13
330
5
100
AcDbSymbolTableRecord
100
AcDbLinetypeTableRecord
  2
AUSGEZOGEN
 70
     0
  3
Ausgezogene Linie
 72
    65
 73
     0
 40
0.0
  0
LTYPE
  5
1E
330
5
100
AcDbSymbolTableRecord
100
AcDbLinetypeTableRecord
  2
STRICHPUNKT
 70
     0
  3
Strichpunkt __ . __ . __ . __ . __ . __ . __ . 
 72
    65
 73
     4
 40
1.0
 49
0.5
 74
     0
 49
-0.25
 74
     0
 49
0.0
 74
     0
 49
-0.25
 74
     0
  0
LTYPE
  5
2B
330
5
100
AcDbSymbolTableRecord
100
AcDbLinetypeTableRecord
  2
CONTINUOUS
 70
     0
  3
Solid line
 72
    65
 73
     0
 40
0.0
  0
ENDTAB
  0
TABLE
  2
LAYER
  5
2
330
0
100
AcDbSymbolTable
 70
     9
  0
LAYER
  5
E
330
2
100
AcDbSymbolTableRecord
100
AcDbLayerTableRecord
  2
0
 70
     0
 62
     7
  6
AUSGEZOGEN
370
    -3
390
17D
  0
LAYER
  5
22
330
2
100
AcDbSymbolTableRecord
100
AcDbLayerTableRecord
  2
VOLL
 70
     0
 62
     1
  6
AUSGEZOGEN
370
    -3
390
17D
  0
LAYER
  5
25
330
2
100
AcDbSymbolTableRecord
100
AcDbLayerTableRecord
  2
HILF
 70
     0
 62
     2
  6
AUSGEZOGEN
370
    -3
390
17D
  0
LAYER
  5
27
330
2
100
AcDbSymbolTableRecord
100
AcDbLayerTableRecord
  2
STEMPEL
 70
     0
 62
     3
  6
AUSGEZOGEN
370
    -3
390
17D
  0
LAYER
  5
BC
330
2
100
AcDbSymbolTableRecord
100
AcDbLayerTableRecord
  2
MITTEL
 70
     0
 62
     2
  6
STRICHPUNKT
370
    -3
390
17D
  0
LAYER
  5
EA
330
2
100
AcDbSymbolTableRecord
100
AcDbLayerTableRecord
  2
SCHRAFF
 70
     0
 62
     7
  6
AUSGEZOGEN
370
    -3
390
17D
  0
LAYER
  5
1B8
330
2
100
AcDbSymbolTableRecord
100
AcDbLayerTableRecord
  2
Defpoints
 70
     0
 62
     7
  6
AUSGEZOGEN
290
     0
370
    -3
390
17D
  0
LAYER
  5
295
330
2
100
AcDbSymbolTableRecord
100
AcDbLayerTableRecord
  2
BEM
 70
     0
 62
     7
  6
CONTINUOUS
370
    -3
390
17D
  0
LAYER
  5
296
330
2
100
AcDbSymbolTableRecord
100
AcDbLayerTableRecord
  2
TEXT
 70
     0
 62
     7
  6
CONTINUOUS
370
    -3
390
17D
  0
ENDTAB
  0
TABLE
  2
STYLE
  5
3
330
0
100
AcDbSymbolTable
 70
     2
  0
STYLE
  5
F
330
3
100
AcDbSymbolTableRecord
100
AcDbTextStyleTableRecord
  2
STANDARD
 70
     0
 40
0.0
 41
0.8
 50
0.0
 71
     0
 42
2.0
  3
SIMPLEX.shx
  4

  0
STYLE
  5
297
330
3
100
AcDbSymbolTableRecord
100
AcDbTextStyleTableRecord
  2
GREEKS
 70
     0
 40
0.0
 41
0.8
 50
0.0
 71
     0
 42
2.5
  3
SIMPLEX.shx
  4

  0
ENDTAB
  0
TABLE
  2
VIEW
  5
6
330
0
100
AcDbSymbolTable
 70
     0
  0
ENDTAB
  0
TABLE
  2
UCS
  5
7
330
0
100
AcDbSymbolTable
 70
     0
  0
ENDTAB
  0
TABLE
  2
APPID
  5
9
330
0
100
AcDbSymbolTable
 70
     2
  0
APPID
  5
10
330
9
100
AcDbSymbolTableRecord
100
AcDbRegAppTableRecord
  2
ACAD
 70
     0
  0
APPID
  5
97
330
9
100
AcDbSymbolTableRecord
100
AcDbRegAppTableRecord
  2
RAK
 70
     0
  0
ENDTAB
  0
TABLE
  2
DIMSTYLE
  5
A
330
0
100
AcDbSymbolTable
 70
     1
100
AcDbDimStyleTable
 71
     1
340
95
  0
DIMSTYLE
105
95
102
{ACAD_REACTORS
330
61C
330
61D
330
648
330
672
330
673
330
692
330
585
330
586
330
B33
102
}
330
A
100
AcDbSymbolTableRecord
100
AcDbDimStyleTableRecord
  2
STANDARD
 70
     0
 40
2.0
 41
3.5
 42
1.0
 43
8.0
 44
1.5
 73
     0
 74
     0
 77
     1
 78
     8
140
3.5
141
1.5
145
0.5714285714285714
147
1.0
172
     1
178
     1
271
     2
272
     2
284
     8
285
     8
286
     8
340
F
  0
ENDTAB
  0
TABLE
  2
BLOCK_RECORD
  5
1
330
0
100
AcDbSymbolTable
 70
    11
  0
BLOCK_RECORD
  5
17
330
1
100
AcDbSymbolTableRecord
100
AcDbBlockTableRecord
  2
*MODEL_SPACE
340
182
  0
BLOCK_RECORD
  5
14
330
1
100
AcDbSymbolTableRecord
100
AcDbBlockTableRecord
  2
*PAPER_SPACE
340
183
  0
BLOCK_RECORD
  5
1C
330
1
100
AcDbSymbolTableRecord
100
AcDbBlockTableRecord
  2
LOGO
340
0
102
{BLKREFS
331
21B
102
}
  0
BLOCK_RECORD
  5
219
330
1
100
AcDbSymbolTableRecord
100
AcDbBlockTableRecord
  2
LORO
340
0
102
{BLKREFS
331
6D2
102
}
  0
BLOCK_RECORD
  5
6DE
330
1
100
AcDbSymbolTableRecord
100
AcDbBlockTableRecord
  2
*D2
340
0
  0
BLOCK_RECORD
  5
6EA
330
1
100
AcDbSymbolTableRecord
100
AcDbBlockTableRecord
  2
*D3
340
0
  0
BLOCK_RECORD
  5
6F6
330
1
100
AcDbSymbolTableRecord
100
AcDbBlockTableRecord
  2
*D4
340
0
  0
BLOCK_RECORD
  5
702
330
1
100
AcDbSymbolTableRecord
100
AcDbBlockTableRecord
  2
*D5
340
0
  0
BLOCK_RECORD
  5
70E
330
1
100
AcDbSymbolTableRecord
100
AcDbBlockTableRecord
  2
*D6
340
0
  0
BLOCK_RECORD
  5
71A
330
1
100
AcDbSymbolTableRecord
100
AcDbBlockTableRecord
  2
*D7
340
0
  0
BLOCK_RECORD
  5
73E
330
1
100
AcDbSymbolTableRecord
100
AcDbBlockTableRecord
  2
*D8
340
0
  0
BLOCK_RECORD
  5
74A
330
1
100
AcDbSymbolTableRecord
100
AcDbBlockTableRecord
  2
*D9
340
0
  0
BLOCK_RECORD
  5
B34
330
1
100
AcDbSymbolTableRecord
100
AcDbBlockTableRecord
  2
*D10
340
0
  0
ENDTAB
  0
ENDSEC
  0
SECTION
  2
BLOCKS
  0
BLOCK
  5
2E
330
17
100
AcDbEntity
  8
0
100
AcDbBlockBegin
  2
*MODEL_SPACE
 70
     0
 10
0.0
 20
0.0
 30
0.0
  3
*MODEL_SPACE
  1

  0
ENDBLK
  5
2F
330
17
100
AcDbEntity
  8
0
100
AcDbBlockEnd
  0
BLOCK
  5
2C
330
14
100
AcDbEntity
 67
     1
  8
0
100
AcDbBlockBegin
  2
*PAPER_SPACE
 70
     0
 10
0.0
 20
0.0
 30
0.0
  3
*PAPER_SPACE
  1

  0
ENDBLK
  5
2D
330
14
100
AcDbEntity
 67
     1
  8
0
100
AcDbBlockEnd
  0
BLOCK
  5
32
330
1C
100
AcDbEntity
  8
0
100
AcDbBlockBegin
  2
LOGO
 70
     0
 10
0.0
 20
0.0
 30
0.0
  3
LOGO
  1

  0
ARC
  5
33
330
1C
100
AcDbEntity
  8
0
100
AcDbCircle
 10
11.59973089678112
 20
-9.271599258481501
 30
0.0
 40
4.5
100
AcDbArc
 50
270.0
 51
231.0575587310159
  0
LINE
  5
34
330
1C
100
AcDbEntity
  8
0
100
AcDbLine
 10
3.599730896781125
 20
-4.771599258481529
 30
0.0
 11
3.599730896781153
 21
-11.77159925848133
 31
0.0
  0
LINE
  5
35
330
1C
100
AcDbEntity
  8
0
100
AcDbLine
 10
2.599730896781125
 20
-4.771599258481529
 30
0.0
 11
2.599730896781153
 21
-11.77159925848133
 31
0.0
  0
CIRCLE
  5
36
330
1C
100
AcDbEntity
  8
0
100
AcDbCircle
 10
11.59973089678112
 20
-9.271599258481501
 30
0.0
 40
3.5
  0
ARC
  5
37
330
1C
100
AcDbEntity
  8
0
100
AcDbCircle
 10
31.59973089678115
 20
-9.271599258481472
 30
0.0
 40
4.5
100
AcDbArc
 50
270.0
 51
231.0575587310182
  0
LINE
  5
38
330
1C
100
AcDbEntity
  8
0
100
AcDbLine
 10
17.59973089678112
 20
-4.771599258481472
 30
0.0
 11
17.59973089678115
 21
-13.77159925848147
 31
0.0
  0
ARC
  5
39
330
1C
100
AcDbEntity
  8
0
100
AcDbCircle
 10
22.59973089678116
 20
-7.271599258481472
 30
0.0
 40
2.5
100
AcDbArc
 50
293.1161887722295
 51
90.0
  0
CIRCLE
  5
3A
330
1C
100
AcDbEntity
  8
0
100
AcDbCircle
 10
31.59973089678115
 20
-9.271599258481472
 30
0.0
 40
3.5
  0
ARC
  5
3B
330
1C
100
AcDbEntity
  8
0
100
AcDbCircle
 10
4.599730896781153
 20
-11.77159925848133
 30
0.0
 40
1.0
100
AcDbArc
 50
180.0
 51
270.0
  0
ARC
  5
3C
330
1C
100
AcDbEntity
  8
0
100
AcDbCircle
 10
4.599730896781153
 20
-11.77159925848133
 30
0.0
 40
2.0
100
AcDbArc
 50
179.9999999999992
 51
270.0
  0
LINE
  5
3D
330
1C
100
AcDbEntity
  8
0
100
AcDbLine
 10
11.59973089678115
 20
-13.77159925848144
 30
0.0
 11
4.599730896781153
 21
-13.77159925848147
 31
0.0
  0
LINE
  5
3E
330
1C
100
AcDbEntity
  8
0
100
AcDbLine
 10
8.771303772034769
 20
-12.77159925848136
 30
0.0
 11
4.599730896781153
 21
-12.77159925848133
 31
0.0
  0
LINE
  5
3F
330
1C
100
AcDbEntity
  8
0
100
AcDbLine
 10
31.59973089678115
 20
-13.77159925848147
 30
0.0
 11
23.6715276665056
 21
-13.77159925848144
 31
0.0
  0
LINE
  5
40
330
1C
100
AcDbEntity
  8
0
100
AcDbLine
 10
23.56565672307022
 20
-9.51278021337896
 30
0.0
 11
24.4388546544846
 21
-12.77159925848144
 31
0.0
  0
LINE
  5
41
330
1C
100
AcDbEntity
  8
0
100
AcDbLine
 10
22.59973089678116
 20
-9.771599258481472
 30
0.0
 11
18.59973089678112
 21
-9.771599258481472
 31
0.0
  0
LINE
  5
42
330
1C
100
AcDbEntity
  8
0
100
AcDbLine
 10
18.59973089678115
 20
-13.77159925848144
 30
0.0
 11
17.59973089678115
 21
-13.77159925848144
 31
0.0
  0
LINE
  5
43
330
1C
100
AcDbEntity
  8
0
100
AcDbLine
 10
18.59973089678115
 20
-9.771599258481472
 30
0.0
 11
18.59973089678115
 21
-13.77159925848144
 31
0.0
  0
LINE
  5
44
330
1C
100
AcDbEntity
  8
0
100
AcDbLine
 10
22.59973089678116
 20
-9.771599258481472
 30
0.0
 11
23.67152766650562
 21
-13.77159925848147
 31
0.0
  0
ARC
  5
45
330
1C
100
AcDbEntity
  8
0
100
AcDbCircle
 10
22.59973089678116
 20
-7.271599258481472
 30
0.0
 40
2.5
100
AcDbArc
 50
270.0
 51
270.0000000000007
  0
LINE
  5
46
330
1C
100
AcDbEntity
  8
0
100
AcDbLine
 10
28.77130377203494
 20
-12.77159925848147
 30
0.0
 11
24.43885465448463
 21
-12.77159925848144
 31
0.0
  0
LINE
  5
47
330
1C
100
AcDbEntity
  8
0
100
AcDbLine
 10
3.599730896781125
 20
-4.771599258481472
 30
0.0
 11
2.599730896781125
 21
-4.771599258481472
 31
0.0
  0
LINE
  5
48
330
1C
100
AcDbEntity
  8
0
100
AcDbLine
 10
22.59973089678116
 20
-8.771599258481472
 30
0.0
 11
18.59973089678115
 21
-8.771599258481472
 31
0.0
  0
LINE
  5
49
330
1C
100
AcDbEntity
  8
0
100
AcDbLine
 10
22.59973089678116
 20
-5.771599258481472
 30
0.0
 11
18.59973089678115
 21
-5.771599258481472
 31
0.0
  0
LINE
  5
4A
330
1C
100
AcDbEntity
  8
0
100
AcDbLine
 10
22.59973089678116
 20
-4.771599258481472
 30
0.0
 11
17.59973089678115
 21
-4.771599258481472
 31
0.0
  0
LINE
  5
4B
330
1C
100
AcDbEntity
  8
0
100
AcDbLine
 10
18.59973089678115
 20
-5.771599258481472
 30
0.0
 11
18.59973089678115
 21
-8.771599258481472
 31
0.0
  0
ARC
  5
4C
330
1C
100
AcDbEntity
  8
0
100
AcDbCircle
 10
22.59973089678116
 20
-7.271599258481472
 30
0.0
 40
1.5
100
AcDbArc
 50
270.0
 51
90.0
  0
ENDBLK
  5
4D
330
1C
100
AcDbEntity
  8
0
100
AcDbBlockEnd
  0
BLOCK
  5
21A
330
219
100
AcDbEntity
  8
0
100
AcDbBlockBegin
  2
LORO
 70
     0
 10
0.0
 20
0.0
 30
0.0
  3
LORO
  1

  0
INSERT
  5
21B
330
219
100
AcDbEntity
  8
STEMPEL
100
AcDbBlockReference
  2
LOGO
 10
-1.748032802467321
 20
3.771489518552062
 30
0.0
  0
ENDBLK
  5
21C
330
219
100
AcDbEntity
  8
0
100
AcDbBlockEnd
  0
BLOCK
  5
6E8
330
6DE
100
AcDbEntity
  8
0
100
AcDbBlockBegin
  2
*D2
 70
     1
 10
0.0
 20
0.0
 30
0.0
  3
*D2
  1

  0
LINE
  5
AFA
330
6DE
100
AcDbEntity
  8
BEM
 62
     0
370
    -2
100
AcDbLine
 10
55.77936246922354
 20
350.0872236504246
 30
0.0
 11
55.77936246922354
 21
307.1532633678606
 31
0.0
  0
LINE
  5
AFB
330
6DE
100
AcDbEntity
  8
BEM
 62
     0
370
    -2
100
AcDbLine
 10
400.7793624692234
 20
350.0872236504248
 30
0.0
 11
400.7793624692234
 21
307.1532633678606
 31
0.0
  0
LINE
  5
AFC
330
6DE
100
AcDbEntity
  8
BEM
 62
     0
370
    -2
100
AcDbLine
 10
62.77936246922354
 20
309.1532633678606
 30
0.0
 11
393.7793624692234
 21
309.1532633678606
 31
0.0
  0
SOLID
  5
AFD
330
6DE
100
AcDbEntity
  8
BEM
 62
     0
100
AcDbTrace
 10
62.77936246922354
 20
310.3199300345273
 30
0.0
 11
62.77936246922354
 21
307.986596701194
 31
0.0
 12
55.77936246922354
 22
309.1532633678606
 32
0.0
 13
55.77936246922354
 23
309.1532633678606
 33
0.0
  0
SOLID
  5
AFE
330
6DE
100
AcDbEntity
  8
BEM
 62
     0
100
AcDbTrace
 10
393.7793624692234
 20
310.3199300345273
 30
0.0
 11
393.7793624692234
 21
307.986596701194
 31
0.0
 12
400.7793624692234
 22
309.1532633678606
 32
0.0
 13
400.7793624692234
 23
309.1532633678606
 33
0.0
  0
MTEXT
  5
AFF
330
6DE
100
AcDbEntity
  8
BEM
 62
     1
100
AcDbMText
 10
228.2793624692235
 20
315.6532633678606
 30
0.0
 40
7.0
 41
0.0
 71
     5
 72
     1
  1
\A1;%%c345
 73
     1
 44
1.0
  0
POINT
  5
B00
330
6DE
100
AcDbEntity
  8
Defpoints
 62
     0
100
AcDbPoint
 10
55.77936246922354
 20
352.0872236504246
 30
0.0
  0
POINT
  5
B01
330
6DE
100
AcDbEntity
  8
Defpoints
 62
     0
100
AcDbPoint
 10
400.7793624692234
 20
352.0872236504248
 30
0.0
  0
POINT
  5
B02
330
6DE
100
AcDbEntity
  8
Defpoints
 62
     0
100
AcDbPoint
 10
400.7793624692234
 20
309.1532633678606
 30
0.0
  0
ENDBLK
  5
6E9
330
6DE
100
AcDbEntity
  8
0
100
AcDbBlockEnd
  0
BLOCK
  5
6F4
330
6EA
100
AcDbEntity
  8
0
100
AcDbBlockBegin
  2
*D3
 70
     1
 10
0.0
 20
0.0
 30
0.0
  3
*D3
  1

  0
LINE
  5
AF1
330
6EA
100
AcDbEntity
  8
BEM
 62
     0
370
    -2
100
AcDbLine
 10
86.27936246922354
 20
353.0872236504245
 30
0.0
 11
86.27936246922354
 21
323.1532633678606
 31
0.0
  0
LINE
  5
AF2
330
6EA
100
AcDbEntity
  8
BEM
 62
     0
370
    -2
100
AcDbLine
 10
370.2793624692234
 20
353.0872236504245
 30
0.0
 11
370.2793624692234
 21
323.1532633678606
 31
0.0
  0
LINE
  5
AF3
330
6EA
100
AcDbEntity
  8
BEM
 62
     0
370
    -2
100
AcDbLine
 10
93.27936246922353
 20
325.1532633678607
 30
0.0
 11
363.2793624692234
 21
325.1532633678607
 31
0.0
  0
SOLID
  5
AF4
330
6EA
100
AcDbEntity
  8
BEM
 62
     0
100
AcDbTrace
 10
93.27936246922353
 20
326.3199300345273
 30
0.0
 11
93.27936246922353
 21
323.9865967011939
 31
0.0
 12
86.27936246922354
 22
325.1532633678607
 32
0.0
 13
86.27936246922354
 23
325.1532633678607
 33
0.0
  0
SOLID
  5
AF5
330
6EA
100
AcDbEntity
  8
BEM
 62
     0
100
AcDbTrace
 10
363.2793624692234
 20
326.3199300345273
 30
0.0
 11
363.2793624692234
 21
323.9865967011939
 31
0.0
 12
370.2793624692234
 22
325.1532633678607
 32
0.0
 13
370.2793624692234
 23
325.1532633678607
 33
0.0
  0
MTEXT
  5
AF6
330
6EA
100
AcDbEntity
  8
BEM
 62
     1
100
AcDbMText
 10
228.2793624692235
 20
331.6532633678606
 30
0.0
 40
7.0
 41
0.0
 71
     5
 72
     1
  1
\A1;%%c284
 73
     1
 44
1.0
  0
POINT
  5
AF7
330
6EA
100
AcDbEntity
  8
Defpoints
 62
     0
100
AcDbPoint
 10
86.27936246922354
 20
355.0872236504245
 30
0.0
  0
POINT
  5
AF8
330
6EA
100
AcDbEntity
  8
Defpoints
 62
     0
100
AcDbPoint
 10
370.2793624692234
 20
355.0872236504245
 30
0.0
  0
POINT
  5
AF9
330
6EA
100
AcDbEntity
  8
Defpoints
 62
     0
100
AcDbPoint
 10
370.2793624692234
 20
325.1532633678607
 30
0.0
  0
ENDBLK
  5
6F5
330
6EA
100
AcDbEntity
  8
0
100
AcDbBlockEnd
  0
BLOCK
  5
700
330
6F6
100
AcDbEntity
  8
0
100
AcDbBlockBegin
  2
*D4
 70
     1
 10
0.0
 20
0.0
 30
0.0
  3
*D4
  1

  0
LINE
  5
AE8
330
6F6
100
AcDbEntity
  8
BEM
 62
     0
370
    -2
100
AcDbLine
 10
148.7793624692235
 20
184.0201851595637
 30
0.0
 11
148.7793624692235
 21
84.72689731898299
 31
0.0
  0
LINE
  5
AE9
330
6F6
100
AcDbEntity
  8
BEM
 62
     0
370
    -2
100
AcDbLine
 10
307.7793624692235
 20
184.0201851595637
 30
0.0
 11
307.7793624692235
 21
84.72689731898299
 31
0.0
  0
LINE
  5
AEA
330
6F6
100
AcDbEntity
  8
BEM
 62
     0
370
    -2
100
AcDbLine
 10
155.7793624692235
 20
87.72689731898299
 30
0.0
 11
300.7793624692236
 21
87.72689731898299
 31
0.0
  0
SOLID
  5
AEB
330
6F6
100
AcDbEntity
  8
BEM
 62
     0
100
AcDbTrace
 10
155.7793624692235
 20
88.89356398564967
 30
0.0
 11
155.7793624692235
 21
86.56023065231632
 31
0.0
 12
148.7793624692235
 22
87.72689731898299
 32
0.0
 13
148.7793624692235
 23
87.72689731898299
 33
0.0
  0
SOLID
  5
AEC
330
6F6
100
AcDbEntity
  8
BEM
 62
     0
100
AcDbTrace
 10
300.7793624692236
 20
88.89356398564967
 30
0.0
 11
300.7793624692236
 21
86.56023065231632
 31
0.0
 12
307.7793624692235
 22
87.72689731898299
 32
0.0
 13
307.7793624692235
 23
87.72689731898299
 33
0.0
  0
MTEXT
  5
AED
330
6F6
100
AcDbEntity
  8
BEM
 62
     1
100
AcDbMText
 10
228.2793624692236
 20
93.22689731898298
 30
0.0
 40
7.0
 41
0.0
 71
     5
 72
     1
  1
\A1;%%c159
 73
     1
 44
1.0
  0
POINT
  5
AEE
330
6F6
100
AcDbEntity
  8
Defpoints
 62
     0
100
AcDbPoint
 10
148.7793624692235
 20
186.0201851595637
 30
0.0
  0
POINT
  5
AEF
330
6F6
100
AcDbEntity
  8
Defpoints
 62
     0
100
AcDbPoint
 10
307.7793624692235
 20
186.0201851595637
 30
0.0
  0
POINT
  5
AF0
330
6F6
100
AcDbEntity
  8
Defpoints
 62
     0
100
AcDbPoint
 10
307.7793624692235
 20
87.72689731898299
 30
0.0
  0
ENDBLK
  5
701
330
6F6
100
AcDbEntity
  8
0
100
AcDbBlockEnd
  0
BLOCK
  5
70C
330
702
100
AcDbEntity
  8
0
100
AcDbBlockBegin
  2
*D5
 70
     1
 10
0.0
 20
0.0
 30
0.0
  3
*D5
  1

  0
LINE
  5
B5B
330
702
100
AcDbEntity
  8
BEM
 62
     0
370
    -2
100
AcDbLine
 10
146.7793624692235
 20
186.0201851595636
 30
0.0
 11
40.2701207144346
 21
186.0201851595637
 31
0.0
  0
LINE
  5
B5C
330
702
100
AcDbEntity
  8
BEM
 62
     0
370
    -2
100
AcDbLine
 10
160.4697221835727
 20
126.0201851595637
 30
0.0
 11
40.2701207144346
 21
126.0201851595637
 31
0.0
  0
LINE
  5
B5D
330
702
100
AcDbEntity
  8
BEM
 62
     0
370
    -2
100
AcDbLine
 10
42.27012071443461
 20
179.0201851595637
 30
0.0
 11
42.2701207144346
 21
133.0201851595637
 31
0.0
  0
SOLID
  5
B5E
330
702
100
AcDbEntity
  8
BEM
 62
     0
100
AcDbTrace
 10
41.10345404776794
 20
179.0201851595637
 30
0.0
 11
43.43678738110127
 21
179.0201851595637
 31
0.0
 12
42.27012071443461
 22
186.0201851595637
 32
0.0
 13
42.27012071443461
 23
186.0201851595637
 33
0.0
  0
SOLID
  5
B5F
330
702
100
AcDbEntity
  8
BEM
 62
     0
100
AcDbTrace
 10
41.10345404776793
 20
133.0201851595637
 30
0.0
 11
43.43678738110126
 21
133.0201851595637
 31
0.0
 12
42.2701207144346
 22
126.0201851595637
 32
0.0
 13
42.2701207144346
 23
126.0201851595637
 33
0.0
  0
MTEXT
  5
B60
330
702
100
AcDbEntity
  8
BEM
 62
     1
100
AcDbMText
 10
35.77012071443458
 20
156.0201851595637
 30
0.0
 40
7.0
 41
0.0
 71
     5
 72
     1
  1
\A1;60
  7
GREEKS
 11
0.0000000000000001
 21
1.0
 31
0.0
 73
     1
 44
1.0
  0
POINT
  5
B61
330
702
100
AcDbEntity
  8
Defpoints
 62
     0
100
AcDbPoint
 10
148.7793624692235
 20
186.0201851595636
 30
0.0
  0
POINT
  5
B62
330
702
100
AcDbEntity
  8
Defpoints
 62
     0
100
AcDbPoint
 10
162.4697221835727
 20
126.0201851595637
 30
0.0
  0
POINT
  5
B63
330
702
100
AcDbEntity
  8
Defpoints
 62
     0
100
AcDbPoint
 10
42.2701207144346
 20
126.0201851595637
 30
0.0
  0
ENDBLK
  5
70D
330
702
100
AcDbEntity
  8
0
100
AcDbBlockEnd
  0
BLOCK
  5
718
330
70E
100
AcDbEntity
  8
0
100
AcDbBlockBegin
  2
*D6
 70
     1
 10
0.0
 20
0.0
 30
0.0
  3
*D6
  1

  0
LINE
  5
B52
330
70E
100
AcDbEntity
  8
BEM
 62
     0
370
    -2
100
AcDbLine
 10
146.7793624692235
 20
746.8567364650905
 30
0.0
 11
40.27012071443471
 21
746.8567364650905
 31
0.0
  0
LINE
  5
B53
330
70E
100
AcDbEntity
  8
BEM
 62
     0
370
    -2
100
AcDbLine
 10
146.7793624692235
 20
186.0201851595637
 30
0.0
 11
40.2701207144346
 21
186.0201851595637
 31
0.0
  0
LINE
  5
B54
330
70E
100
AcDbEntity
  8
BEM
 62
     0
370
    -2
100
AcDbLine
 10
42.27012071443471
 20
739.8567364650905
 30
0.0
 11
42.2701207144346
 21
193.0201851595637
 31
0.0
  0
SOLID
  5
B55
330
70E
100
AcDbEntity
  8
BEM
 62
     0
100
AcDbTrace
 10
41.10345404776805
 20
739.8567364650905
 30
0.0
 11
43.43678738110138
 21
739.8567364650905
 31
0.0
 12
42.27012071443471
 22
746.8567364650905
 32
0.0
 13
42.27012071443471
 23
746.8567364650905
 33
0.0
  0
SOLID
  5
B56
330
70E
100
AcDbEntity
  8
BEM
 62
     0
100
AcDbTrace
 10
41.10345404776793
 20
193.0201851595637
 30
0.0
 11
43.43678738110126
 21
193.0201851595637
 31
0.0
 12
42.2701207144346
 22
186.0201851595637
 32
0.0
 13
42.2701207144346
 23
186.0201851595637
 33
0.0
  0
MTEXT
  5
B57
330
70E
100
AcDbEntity
  8
BEM
 62
     1
100
AcDbMText
 10
35.77012071443459
 20
466.4384608123271
 30
0.0
 40
7.0
 41
0.0
 71
     5
 72
     1
  1
\A1;765
  7
GREEKS
 11
0.0000000000000001
 21
1.0
 31
0.0
 73
     1
 44
1.0
  0
POINT
  5
B58
330
70E
100
AcDbEntity
  8
Defpoints
 62
     0
100
AcDbPoint
 10
148.7793624692235
 20
746.8567364650905
 30
0.0
  0
POINT
  5
B59
330
70E
100
AcDbEntity
  8
Defpoints
 62
     0
100
AcDbPoint
 10
148.7793624692235
 20
186.0201851595637
 30
0.0
  0
POINT
  5
B5A
330
70E
100
AcDbEntity
  8
Defpoints
 62
     0
100
AcDbPoint
 10
42.2701207144346
 20
186.0201851595637
 30
0.0
  0
ENDBLK
  5
719
330
70E
100
AcDbEntity
  8
0
100
AcDbBlockEnd
  0
BLOCK
  5
724
330
71A
100
AcDbEntity
  8
0
100
AcDbBlockBegin
  2
*D7
 70
     1
 10
0.0
 20
0.0
 30
0.0
  3
*D7
  1

  0
LINE
  5
ACD
330
71A
100
AcDbEntity
  8
BEM
 62
     0
370
    -2
100
AcDbLine
 10
161.7793624692235
 20
131.9110328022939
 30
0.0
 11
161.7793624692235
 21
101.726037434897
 31
0.0
  0
LINE
  5
ACE
330
71A
100
AcDbEntity
  8
BEM
 62
     0
370
    -2
100
AcDbLine
 10
294.7793624692236
 20
132.0201851595637
 30
0.0
 11
294.7793624692236
 21
101.726037434897
 31
0.0
  0
LINE
  5
ACF
330
71A
100
AcDbEntity
  8
BEM
 62
     0
370
    -2
100
AcDbLine
 10
168.7793624692235
 20
103.7260374348971
 30
0.0
 11
287.7793624692235
 21
103.7260374348971
 31
0.0
  0
SOLID
  5
AD0
330
71A
100
AcDbEntity
  8
BEM
 62
     0
100
AcDbTrace
 10
168.7793624692235
 20
104.8927041015637
 30
0.0
 11
168.7793624692235
 21
102.5593707682304
 31
0.0
 12
161.7793624692235
 22
103.7260374348971
 32
0.0
 13
161.7793624692235
 23
103.7260374348971
 33
0.0
  0
SOLID
  5
AD1
330
71A
100
AcDbEntity
  8
BEM
 62
     0
100
AcDbTrace
 10
287.7793624692235
 20
104.8927041015637
 30
0.0
 11
287.7793624692235
 21
102.5593707682304
 31
0.0
 12
294.7793624692236
 22
103.7260374348971
 32
0.0
 13
294.7793624692236
 23
103.7260374348971
 33
0.0
  0
MTEXT
  5
AD2
330
71A
100
AcDbEntity
  8
BEM
 62
     1
100
AcDbMText
 10
228.2793624692236
 20
110.226037434897
 30
0.0
 40
7.0
 41
0.0
 71
     5
 72
     1
  1
\A1;%%c133
  7
GREEKS
 73
     1
 44
1.0
  0
POINT
  5
AD3
330
71A
100
AcDbEntity
  8
Defpoints
 62
     0
100
AcDbPoint
 10
161.7793624692235
 20
133.9110328022939
 30
0.0
  0
POINT
  5
AD4
330
71A
100
AcDbEntity
  8
Defpoints
 62
     0
100
AcDbPoint
 10
294.7793624692236
 20
134.0201851595637
 30
0.0
  0
POINT
  5
AD5
330
71A
100
AcDbEntity
  8
Defpoints
 62
     0
100
AcDbPoint
 10
294.7793624692236
 20
103.7260374348971
 30
0.0
  0
ENDBLK
  5
725
330
71A
100
AcDbEntity
  8
0
100
AcDbBlockEnd
  0
BLOCK
  5
748
330
73E
100
AcDbEntity
  8
0
100
AcDbBlockBegin
  2
*D8
 70
     1
 10
0.0
 20
0.0
 30
0.0
  3
*D8
  1

  0
LINE
  5
B0C
330
73E
100
AcDbEntity
  8
BEM
 62
     0
370
    -2
100
AcDbLine
 10
315.9982858303343
 20
382.087223650425
 30
0.0
 11
425.0259566072559
 21
382.0872236504249
 31
0.0
  0
LINE
  5
B0D
330
73E
100
AcDbEntity
  8
BEM
 62
     0
370
    -2
100
AcDbLine
 10
402.7793624692234
 20
352.0872236504244
 30
0.0
 11
425.0259566072559
 21
352.0872236504244
 31
0.0
  0
LINE
  5
B0E
330
73E
100
AcDbEntity
  8
BEM
 62
     0
370
    -2
100
AcDbLine
 10
423.0259566072559
 20
375.0872236504249
 30
0.0
 11
423.0259566072559
 21
359.0872236504245
 31
0.0
  0
SOLID
  5
B0F
330
73E
100
AcDbEntity
  8
BEM
 62
     0
100
AcDbTrace
 10
421.8592899405892
 20
375.0872236504249
 30
0.0
 11
424.1926232739226
 21
375.0872236504249
 31
0.0
 12
423.0259566072559
 22
382.0872236504249
 32
0.0
 13
423.0259566072559
 23
382.0872236504249
 33
0.0
  0
SOLID
  5
B10
330
73E
100
AcDbEntity
  8
BEM
 62
     0
100
AcDbTrace
 10
421.8592899405892
 20
359.0872236504245
 30
0.0
 11
424.1926232739226
 21
359.0872236504245
 31
0.0
 12
423.0259566072559
 22
352.0872236504244
 32
0.0
 13
423.0259566072559
 23
352.0872236504244
 33
0.0
  0
MTEXT
  5
B11
330
73E
100
AcDbEntity
  8
BEM
 62
     1
100
AcDbMText
 10
416.5259566072558
 20
367.0872236504248
 30
0.0
 40
7.0
 41
0.0
 71
     5
 72
     1
  1
\A1;30
  7
GREEKS
 11
0.0000000000000001
 21
1.0
 31
0.0
 73
     1
 44
1.0
  0
POINT
  5
B12
330
73E
100
AcDbEntity
  8
Defpoints
 62
     0
100
AcDbPoint
 10
313.9982858303343
 20
382.087223650425
 30
0.0
  0
POINT
  5
B13
330
73E
100
AcDbEntity
  8
Defpoints
 62
     0
100
AcDbPoint
 10
400.7793624692234
 20
352.0872236504244
 30
0.0
  0
POINT
  5
B14
330
73E
100
AcDbEntity
  8
Defpoints
 62
     0
100
AcDbPoint
 10
423.0259566072559
 20
352.0872236504244
 30
0.0
  0
ENDBLK
  5
749
330
73E
100
AcDbEntity
  8
0
100
AcDbBlockEnd
  0
BLOCK
  5
754
330
74A
100
AcDbEntity
  8
0
100
AcDbBlockBegin
  2
*D9
 70
     1
 10
0.0
 20
0.0
 30
0.0
  3
*D9
  1

  0
LINE
  5
B03
330
74A
100
AcDbEntity
  8
BEM
 62
     0
370
    -2
100
AcDbLine
 10
53.27936246922354
 20
365.087223650425
 30
0.0
 11
53.27936246922354
 21
406.3660256008327
 31
0.0
  0
LINE
  5
B04
330
74A
100
AcDbEntity
  8
BEM
 62
     0
370
    -2
100
AcDbLine
 10
403.2793624692234
 20
365.087223650425
 30
0.0
 11
403.2793624692234
 21
406.3660256008327
 31
0.0
  0
LINE
  5
B05
330
74A
100
AcDbEntity
  8
BEM
 62
     0
370
    -2
100
AcDbLine
 10
60.27936246922354
 20
404.3660256008328
 30
0.0
 11
396.2793624692234
 21
404.3660256008328
 31
0.0
  0
SOLID
  5
B06
330
74A
100
AcDbEntity
  8
BEM
 62
     0
100
AcDbTrace
 10
60.27936246922354
 20
405.5326922674995
 30
0.0
 11
60.27936246922354
 21
403.1993589341661
 31
0.0
 12
53.27936246922354
 22
404.3660256008328
 32
0.0
 13
53.27936246922354
 23
404.3660256008328
 33
0.0
  0
SOLID
  5
B07
330
74A
100
AcDbEntity
  8
BEM
 62
     0
100
AcDbTrace
 10
396.2793624692234
 20
405.5326922674995
 30
0.0
 11
396.2793624692234
 21
403.1993589341661
 31
0.0
 12
403.2793624692234
 22
404.3660256008328
 32
0.0
 13
403.2793624692234
 23
404.3660256008328
 33
0.0
  0
MTEXT
  5
B08
330
74A
100
AcDbEntity
  8
BEM
 62
     1
100
AcDbMText
 10
228.2793624692235
 20
410.8660256008327
 30
0.0
 40
7.0
 41
0.0
 71
     5
 72
     1
  1
\A1;%%c350
  7
GREEKS
 73
     1
 44
1.0
  0
POINT
  5
B09
330
74A
100
AcDbEntity
  8
Defpoints
 62
     0
100
AcDbPoint
 10
53.27936246922354
 20
363.087223650425
 30
0.0
  0
POINT
  5
B0A
330
74A
100
AcDbEntity
  8
Defpoints
 62
     0
100
AcDbPoint
 10
403.2793624692234
 20
363.087223650425
 30
0.0
  0
POINT
  5
B0B
330
74A
100
AcDbEntity
  8
Defpoints
 62
     0
100
AcDbPoint
 10
403.2793624692234
 20
404.3660256008328
 30
0.0
  0
ENDBLK
  5
755
330
74A
100
AcDbEntity
  8
0
100
AcDbBlockEnd
  0
BLOCK
  5
B3E
330
B34
100
AcDbEntity
  8
0
100
AcDbBlockBegin
  2
*D10
 70
     1
 10
0.0
 20
0.0
 30
0.0
  3
*D10
  1

  0
LINE
  5
B49
330
B34
100
AcDbEntity
  8
BEM
 62
     0
370
    -2
100
AcDbLine
 10
146.7793624692235
 20
746.8567364650905
 30
0.0
 11
22.64896918398031
 21
746.8567364650905
 31
0.0
  0
LINE
  5
B4A
330
B34
100
AcDbEntity
  8
BEM
 62
     0
370
    -2
100
AcDbLine
 10
160.4697221835727
 20
126.0201851595637
 30
0.0
 11
22.64896918398017
 21
126.0201851595637
 31
0.0
  0
LINE
  5
B4B
330
B34
100
AcDbEntity
  8
BEM
 62
     0
370
    -2
100
AcDbLine
 10
25.64896918398031
 20
739.8567364650905
 30
0.0
 11
25.64896918398017
 21
133.0201851595637
 31
0.0
  0
SOLID
  5
B4C
330
B34
100
AcDbEntity
  8
BEM
 62
     0
100
AcDbTrace
 10
24.48230251731363
 20
739.8567364650905
 30
0.0
 11
26.81563585064697
 21
739.8567364650905
 31
0.0
 12
25.64896918398031
 22
746.8567364650905
 32
0.0
 13
25.64896918398031
 23
746.8567364650905
 33
0.0
  0
SOLID
  5
B4D
330
B34
100
AcDbEntity
  8
BEM
 62
     0
100
AcDbTrace
 10
24.4823025173135
 20
133.0201851595637
 30
0.0
 11
26.81563585064683
 21
133.0201851595637
 31
0.0
 12
25.64896918398017
 22
126.0201851595637
 32
0.0
 13
25.64896918398017
 23
126.0201851595637
 33
0.0
  0
MTEXT
  5
B4E
330
B34
100
AcDbEntity
  8
BEM
 62
     1
100
AcDbMText
 10
20.14896918398017
 20
436.4384608123272
 30
0.0
 40
7.0
 41
0.0
 71
     5
 72
     1
  1
\A1;825
 11
0.0000000000000001
 21
1.0
 31
0.0
 73
     1
 44
1.0
  0
POINT
  5
B4F
330
B34
100
AcDbEntity
  8
Defpoints
 62
     0
100
AcDbPoint
 10
148.7793624692235
 20
746.8567364650905
 30
0.0
  0
POINT
  5
B50
330
B34
100
AcDbEntity
  8
Defpoints
 62
     0
100
AcDbPoint
 10
162.4697221835727
 20
126.0201851595637
 30
0.0
  0
POINT
  5
B51
330
B34
100
AcDbEntity
  8
Defpoints
 62
     0
100
AcDbPoint
 10
25.64896918398017
 20
126.0201851595637
 30
0.0
  0
ENDBLK
  5
B3F
330
B34
100
AcDbEntity
  8
0
100
AcDbBlockEnd
  0
ENDSEC
  0
SECTION
  2
ENTITIES
  0
LINE
  5
57D
330
17
100
AcDbEntity
  8
STEMPEL
100
AcDbLine
 10
148.7793624692235
 20
352.0872236504247
 30
0.0
 11
55.77936246922354
 21
352.0872236504246
 31
0.0
  0
HATCH
  5
57E
330
17
100
AcDbEntity
  8
SCHRAFF
100
AcDbHatch
 10
0.0
 20
0.0
 30
0.0
210
0.0
220
0.0
230
1.0
  2
ANSI37
 70
     0
 71
     0
 91
        2
 92
        7
 72
     1
 73
     1
 93
       17
 10
148.7793624692235
 20
382.0872236504239
 42
0.0
 10
146.1322660255495
 20
388.2342712631809
 42
0.3649644247068629
 10
143.4908207431759
 20
390.0769301629015
 42
0.2924258340981792
 10
141.0991265170635
 20
388.8372236504246
 42
0.0
 10
138.1142989597621
 20
383.6673506693468
 42
0.1316524975873975
 10
137.7793624692232
 20
382.4173506693468
 42
0.0
 10
137.7793624692232
 20
382.0872236504245
 42
0.0
 10
142.5604391081136
 20
382.0872236504246
 42
0.0
 10
145.2793624692234
 20
380.8193688652027
 42
0.0
 10
137.891194529999
 20
364.9753915896488
 42
0.0
 10
140.7793624692232
 20
362.0872236504245
 42
0.0
 10
140.7793624692232
 20
361.2833760731313
 42
0.0
 10
137.7793624692232
 20
356.0872236504246
 42
0.0
 10
139.7793624692233
 20
356.0872236504246
 42
0.0
 10
142.7793624692232
 20
359.0872236504246
 42
0.0
 10
144.8511592389475
 20
359.0872236504246
 42
0.1672335555029036
 10
148.7793624692235
 20
355.6710251633288
 42
0.0
 97
        0
 92
        7
 72
     1
 73
     1
 93
       17
 10
311.2793624692236
 20
380.8193688652027
 42
0.0
 10
313.9982858303335
 20
382.0872236504245
 42
0.0
 10
318.7793624692231
 20
382.0872236504246
 42
0.0
 10
318.7793624692231
 20
382.4173506693468
 42
0.1316524975873909
 10
318.4444259786843
 20
383.6673506693467
 42
0.0
 10
315.459598421383
 20
388.8372236504246
 42
0.2924258340981822
 10
313.0679041952705
 20
390.0769301629015
 42
0.3649644247068388
 10
310.4264589128971
 20
388.2342712631809
 42
0.0
 10
307.7793624692235
 20
382.0872236504253
 42
0.0
 10
307.7793624692235
 20
355.6710251633291
 42
0.1672335555028828
 10
311.707565699499
 20
359.0872236504246
 42
0.0
 10
313.7793624692231
 20
359.0872236504246
 42
0.0
 10
316.7793624692231
 20
356.0872236504245
 42
0.0
 10
318.7793624692231
 20
356.0872236504246
 42
0.0
 10
315.7793624692232
 20
361.2833760731313
 42
0.0
 10
315.7793624692231
 20
362.0872236504245
 42
0.0
 10
318.6675304084479
 20
364.9753915896492
 42
0.0
 97
        0
 75
     0
 76
     1
 52
0.0
 41
20.0
 77
     0
 78
     2
 53
45.0
 43
-1.472243370990781
 44
1.455760961680425
 45
-1.767766952966368
 46
1.767766952966368
 79
     0
 53
135.0
 43
-1.472243370990781
 44
1.455760961680425
 45
-1.767766952966368
 46
-1.767766952966368
 79
     0
 47
0.4597774962840677
 98
        2
 10
144.8789881069165
 20
370.4502323465745
 10
311.4446405302256
 20
369.5306781458803
  0
LINE
  5
57F
330
17
100
AcDbEntity
  8
MITTEL
100
AcDbLine
 10
228.2793624692236
 20
395.9941238016863
 30
0.0
 11
228.2793624692236
 21
341.5987997208058
 31
0.0
  0
LINE
  5
580
330
17
100
AcDbEntity
  8
MITTEL
100
AcDbLine
 10
228.2793624692236
 20
298.3446828171441
 30
0.0
 11
228.2793624692236
 21
121.0201851595636
 31
0.0
  0
DIMENSION
  5
585
330
17
100
AcDbEntity
  8
BEM
100
AcDbDimension
  2
*D8
 10
423.0259566072559
 20
352.0872236504244
 30
0.0
 11
416.5259566072558
 21
367.0872236504248
 31
0.0
 70
    32
 71
     5
 42
30.00000000000046
  3
STANDARD
100
AcDbAlignedDimension
 13
313.9982858303343
 23
382.087223650425
 33
0.0
 14
400.7793624692234
 24
352.0872236504244
 34
0.0
 50
90.0
100
AcDbRotatedDimension
1001
ACAD
1000
DSTYLE
1002
{
1070
    40
1040
2.0
1070
    41
1040
3.5
1070
    42
1040
1.0
1070
    43
1040
7.0
1070
    44
1040
1.0
1070
    73
1070
     0
1070
    74
1070
     0
1070
    77
1070
     1
1070
    78
1070
     8
1070
    79
1070
     2
1070
   140
1040
3.5
1070
   141
1040
1.5
1070
   146
1040
0.5
1070
   147
1040
1.5
1070
   172
1070
     1
1070
   178
1070
     1
1070
   179
1070
     2
1070
   271
1070
     2
1070
   272
1070
     2
1070
   284
1070
     8
1070
   285
1070
     8
1070
   286
1070
     8
1070
   340
1005
297
1002
}
  0
DIMENSION
  5
586
330
17
100
AcDbEntity
  8
BEM
100
AcDbDimension
  2
*D9
 10
403.2793624692234
 20
404.3660256008328
 30
0.0
 11
228.2793624692235
 21
410.8660256008327
 31
0.0
 70
    32
  1
%%c<>
 71
     5
 42
349.9999999999999
  3
STANDARD
100
AcDbAlignedDimension
 13
53.27936246922354
 23
363.087223650425
 33
0.0
 14
403.2793624692234
 24
363.087223650425
 34
0.0
100
AcDbRotatedDimension
1001
ACAD
1000
DSTYLE
1002
{
1070
    40
1040
2.0
1070
    41
1040
3.5
1070
    42
1040
1.0
1070
    43
1040
7.0
1070
    44
1040
1.0
1070
    73
1070
     0
1070
    74
1070
     0
1070
    77
1070
     1
1070
    78
1070
     8
1070
    79
1070
     2
1070
   140
1040
3.5
1070
   141
1040
1.5
1070
   146
1040
0.5
1070
   147
1040
1.5
1070
   172
1070
     1
1070
   178
1070
     1
1070
   179
1070
     2
1070
   271
1070
     2
1070
   272
1070
     2
1070
   284
1070
     8
1070
   285
1070
     8
1070
   286
1070
     8
1070
   340
1005
297
1002
}
  0
LINE
  5
587
330
17
100
AcDbEntity
  8
STEMPEL
100
AcDbLine
 10
365.2793624692234
 20
364.087223650425
 30
0.0
 11
365.2793624692234
 21
355.0872236504245
 31
0.0
  0
LINE
  5
588
330
17
100
AcDbEntity
  8
HILF
100
AcDbLine
 10
366.2793624692235
 20
364.087223650425
 30
0.0
 11
366.2793624692235
 21
355.0872236504245
 31
0.0
  0
LINE
  5
589
330
17
100
AcDbEntity
  8
HILF
100
AcDbLine
 10
374.2793624692234
 20
364.087223650425
 30
0.0
 11
374.2793624692234
 21
355.0872236504245
 31
0.0
  0
LINE
  5
58A
330
17
100
AcDbEntity
  8
STEMPEL
100
AcDbLine
 10
375.2793624692234
 20
364.087223650425
 30
0.0
 11
375.2793624692234
 21
355.0872236504245
 31
0.0
  0
ARC
  5
58B
330
17
100
AcDbEntity
  8
STEMPEL
100
AcDbCircle
 10
377.2918624692237
 20
370.4552705254247
 30
0.0
 40
3.231953125000015
100
AcDbArc
 50
43.67679672809952
 51
136.3232032718993
  0
ARC
  5
58C
330
17
100
AcDbEntity
  8
STEMPEL
100
AcDbCircle
 10
370.2793624692237
 20
362.2594111504251
 30
0.0
 40
11.42781249999961
100
AcDbArc
 50
65.85233813010086
 51
114.1476618698991
  0
LINE
  5
58D
330
17
100
AcDbEntity
  8
STEMPEL
100
AcDbLine
 10
380.7793624692239
 20
366.0872236504246
 30
0.0
 11
380.7793624692239
 21
364.0872236504246
 31
0.0
  0
ARC
  5
58E
330
17
100
AcDbEntity
  8
STEMPEL
100
AcDbCircle
 10
377.2918624692237
 20
369.3191767754246
 30
0.0
 40
3.231953125000015
100
AcDbArc
 50
223.6767967281007
 51
316.3232032719005
  0
ARC
  5
58F
330
17
100
AcDbEntity
  8
STEMPEL
100
AcDbCircle
 10
370.2793624692237
 20
377.5150361504242
 30
0.0
 40
11.42781249999961
100
AcDbArc
 50
245.8523381301009
 51
294.1476618698991
  0
LINE
  5
590
330
17
100
AcDbEntity
  8
STEMPEL
100
AcDbLine
 10
374.9543624692236
 20
372.6872236504247
 30
0.0
 11
374.9543624692238
 21
367.0872236504246
 31
0.0
  0
LINE
  5
591
330
17
100
AcDbEntity
  8
STEMPEL
100
AcDbLine
 10
379.6293624692238
 20
372.6872236504245
 30
0.0
 11
379.6293624692238
 21
367.0872236504246
 31
0.0
  0
LINE
  5
592
330
17
100
AcDbEntity
  8
STEMPEL
100
AcDbLine
 10
365.6043624692237
 20
372.6872236504249
 30
0.0
 11
365.6043624692237
 21
367.0872236504241
 31
0.0
  0
LINE
  5
593
330
17
100
AcDbEntity
  8
STEMPEL
100
AcDbLine
 10
359.7793624692239
 20
366.0872236504246
 30
0.0
 11
359.7793624692239
 21
364.0872236504246
 31
0.0
  0
LINE
  5
594
330
17
100
AcDbEntity
  8
STEMPEL
100
AcDbLine
 10
360.929362469224
 20
372.6872236504251
 30
0.0
 11
360.9293624692238
 21
367.0872236504241
 31
0.0
  0
LINE
  5
595
330
17
100
AcDbEntity
  8
STEMPEL
100
AcDbLine
 10
363.2668624692236
 20
373.6872236504247
 30
0.0
 11
377.2918624692237
 21
373.6872236504247
 31
0.0
  0
ARC
  5
596
330
17
100
AcDbEntity
  8
STEMPEL
100
AcDbCircle
 10
363.2668624692236
 20
370.4552705254249
 30
0.0
 40
3.231953125000015
100
AcDbArc
 50
43.67679672809952
 51
136.3232032718993
  0
ARC
  5
597
330
17
100
AcDbEntity
  8
STEMPEL
100
AcDbCircle
 10
363.2668624692236
 20
369.3191767754241
 30
0.0
 40
3.231953125000015
100
AcDbArc
 50
223.6767967281007
 51
316.3232032719005
  0
LINE
  5
598
330
17
100
AcDbEntity
  8
STEMPEL
100
AcDbLine
 10
359.7793624692239
 20
366.0872236504248
 30
0.0
 11
380.7793624692239
 21
366.0872236504246
 31
0.0
  0
LINE
  5
599
330
17
100
AcDbEntity
  8
STEMPEL
100
AcDbLine
 10
321.4592083608135
 20
366.0872236504249
 30
0.0
 11
339.1885253977138
 21
366.0872236504247
 31
0.0
  0
ARC
  5
59A
330
17
100
AcDbEntity
  8
STEMPEL
100
AcDbCircle
 10
321.676025397714
 20
369.3191767754242
 30
0.0
 40
3.231953125000015
100
AcDbArc
 50
266.0911024625781
 51
316.3232032719005
  0
ARC
  5
59B
330
17
100
AcDbEntity
  8
STEMPEL
100
AcDbCircle
 10
321.676025397714
 20
370.455270525425
 30
0.0
 40
3.231953125000015
100
AcDbArc
 50
43.67679672809952
 51
136.3232032718993
  0
LINE
  5
59C
330
17
100
AcDbEntity
  8
STEMPEL
100
AcDbLine
 10
321.676025397714
 20
373.6872236504248
 30
0.0
 11
335.701025397714
 21
373.6872236504248
 31
0.0
  0
LINE
  5
59D
330
17
100
AcDbEntity
  8
STEMPEL
100
AcDbLine
 10
319.3385253977139
 20
372.6872236504253
 30
0.0
 11
319.3385253977139
 21
370.6350429409986
 31
0.0
  0
LINE
  5
59E
330
17
100
AcDbEntity
  8
STEMPEL
100
AcDbLine
 10
324.013525397714
 20
372.6872236504251
 30
0.0
 11
324.0135253977138
 21
367.0872236504242
 31
0.0
  0
LINE
  5
59F
330
17
100
AcDbEntity
  8
STEMPEL
100
AcDbLine
 10
338.0385253977139
 20
372.6872236504246
 30
0.0
 11
338.0385253977139
 21
367.0872236504247
 31
0.0
  0
LINE
  5
5A0
330
17
100
AcDbEntity
  8
STEMPEL
100
AcDbLine
 10
333.3635253977139
 20
372.6872236504248
 30
0.0
 11
333.3635253977139
 21
367.0872236504247
 31
0.0
  0
ARC
  5
5A1
330
17
100
AcDbEntity
  8
STEMPEL
100
AcDbCircle
 10
328.6885253977138
 20
377.5150361504243
 30
0.0
 40
11.42781249999961
100
AcDbArc
 50
245.8523381301009
 51
294.1476618698991
  0
ARC
  5
5A2
330
17
100
AcDbEntity
  8
STEMPEL
100
AcDbCircle
 10
335.7010253977138
 20
369.3191767754247
 30
0.0
 40
3.231953125000015
100
AcDbArc
 50
223.6767967281007
 51
316.3232032719005
  0
LINE
  5
5A3
330
17
100
AcDbEntity
  8
STEMPEL
100
AcDbLine
 10
339.1885253977138
 20
366.0872236504247
 30
0.0
 11
339.1885253977138
 21
364.0872236504247
 31
0.0
  0
ARC
  5
5A4
330
17
100
AcDbEntity
  8
STEMPEL
100
AcDbCircle
 10
328.6885253977138
 20
362.2594111504252
 30
0.0
 40
11.42781249999961
100
AcDbArc
 50
65.85233813010086
 51
114.1476618698991
  0
ARC
  5
5A5
330
17
100
AcDbEntity
  8
STEMPEL
100
AcDbCircle
 10
335.7010253977138
 20
370.4552705254248
 30
0.0
 40
3.231953125000015
100
AcDbArc
 50
43.67679672809952
 51
136.3232032718993
  0
ARC
  5
5A6
330
17
100
AcDbEntity
  8
STEMPEL
100
AcDbCircle
 10
120.8576995407333
 20
370.4552705254248
 30
0.0
 40
3.231953125000015
100
AcDbArc
 50
43.6767967281007
 51
136.3232032719004
  0
ARC
  5
5A7
330
17
100
AcDbEntity
  8
STEMPEL
100
AcDbCircle
 10
127.8701995407333
 20
362.2594111504252
 30
0.0
 40
11.42781249999961
100
AcDbArc
 50
65.85233813010086
 51
114.1476618698991
  0
LINE
  5
5A8
330
17
100
AcDbEntity
  8
STEMPEL
100
AcDbLine
 10
117.3701995407332
 20
366.0872236504247
 30
0.0
 11
117.3701995407332
 21
364.0872236504247
 31
0.0
  0
ARC
  5
5A9
330
17
100
AcDbEntity
  8
STEMPEL
100
AcDbCircle
 10
120.8576995407333
 20
369.3191767754247
 30
0.0
 40
3.231953125000015
100
AcDbArc
 50
223.6767967280995
 51
316.3232032718993
  0
ARC
  5
5AA
330
17
100
AcDbEntity
  8
STEMPEL
100
AcDbCircle
 10
127.8701995407333
 20
377.5150361504243
 30
0.0
 40
11.42781249999961
100
AcDbArc
 50
245.8523381301009
 51
294.1476618698991
  0
LINE
  5
5AB
330
17
100
AcDbEntity
  8
STEMPEL
100
AcDbLine
 10
123.1951995407332
 20
372.6872236504248
 30
0.0
 11
123.1951995407331
 21
367.0872236504247
 31
0.0
  0
LINE
  5
5AC
330
17
100
AcDbEntity
  8
STEMPEL
100
AcDbLine
 10
118.5201995407332
 20
372.6872236504246
 30
0.0
 11
118.5201995407332
 21
367.0872236504247
 31
0.0
  0
LINE
  5
5AD
330
17
100
AcDbEntity
  8
STEMPEL
100
AcDbLine
 10
132.5451995407331
 20
372.6872236504251
 30
0.0
 11
132.5451995407332
 21
367.0872236504242
 31
0.0
  0
LINE
  5
5AE
330
17
100
AcDbEntity
  8
STEMPEL
100
AcDbLine
 10
137.2201995407331
 20
372.6872236504253
 30
0.0
 11
137.2201995407332
 21
370.6350429409986
 31
0.0
  0
LINE
  5
5AF
330
17
100
AcDbEntity
  8
STEMPEL
100
AcDbLine
 10
134.8826995407332
 20
373.6872236504248
 30
0.0
 11
120.8576995407331
 21
373.6872236504248
 31
0.0
  0
ARC
  5
5B0
330
17
100
AcDbEntity
  8
STEMPEL
100
AcDbCircle
 10
134.8826995407332
 20
370.455270525425
 30
0.0
 40
3.231953125000015
100
AcDbArc
 50
43.6767967281007
 51
136.3232032719004
  0
ARC
  5
5B1
330
17
100
AcDbEntity
  8
STEMPEL
100
AcDbCircle
 10
134.8826995407332
 20
369.3191767754242
 30
0.0
 40
3.231953125000015
100
AcDbArc
 50
223.6767967280995
 51
273.9088975374218
  0
LINE
  5
5B2
330
17
100
AcDbEntity
  8
STEMPEL
100
AcDbLine
 10
135.0995165776337
 20
366.0872236504249
 30
0.0
 11
117.3701995407332
 21
366.0872236504247
 31
0.0
  0
LINE
  5
5B3
330
17
100
AcDbEntity
  8
STEMPEL
100
AcDbLine
 10
81.27936246922354
 20
364.087223650425
 30
0.0
 11
81.27936246922354
 21
355.0872236504245
 31
0.0
  0
LINE
  5
5B4
330
17
100
AcDbEntity
  8
HILF
100
AcDbLine
 10
82.27936246922354
 20
364.087223650425
 30
0.0
 11
82.27936246922354
 21
355.0872236504245
 31
0.0
  0
LINE
  5
5B5
330
17
100
AcDbEntity
  8
STEMPEL
100
AcDbLine
 10
91.27936246922354
 20
364.087223650425
 30
0.0
 11
91.27936246922354
 21
355.0872236504245
 31
0.0
  0
LINE
  5
5B6
330
17
100
AcDbEntity
  8
HILF
100
AcDbLine
 10
90.27936246922354
 20
364.087223650425
 30
0.0
 11
90.27936246922354
 21
355.0872236504245
 31
0.0
  0
LINE
  5
5B7
330
17
100
AcDbEntity
  8
STEMPEL
100
AcDbLine
 10
96.77936246922332
 20
366.0872236504248
 30
0.0
 11
75.77936246922331
 21
366.0872236504246
 31
0.0
  0
ARC
  5
5B8
330
17
100
AcDbEntity
  8
STEMPEL
100
AcDbCircle
 10
93.29186246922336
 20
369.3191767754241
 30
0.0
 40
3.231953125000015
100
AcDbArc
 50
223.6767967280995
 51
316.3232032718993
  0
ARC
  5
5B9
330
17
100
AcDbEntity
  8
STEMPEL
100
AcDbCircle
 10
93.29186246922336
 20
370.4552705254249
 30
0.0
 40
3.231953125000015
100
AcDbArc
 50
43.6767967281007
 51
136.3232032719004
  0
LINE
  5
5BA
330
17
100
AcDbEntity
  8
STEMPEL
100
AcDbLine
 10
93.29186246922336
 20
373.6872236504247
 30
0.0
 11
79.26686246922327
 21
373.6872236504247
 31
0.0
  0
LINE
  5
5BB
330
17
100
AcDbEntity
  8
STEMPEL
100
AcDbLine
 10
95.62936246922323
 20
372.6872236504251
 30
0.0
 11
95.62936246922333
 21
367.0872236504241
 31
0.0
  0
LINE
  5
5BC
330
17
100
AcDbEntity
  8
STEMPEL
100
AcDbLine
 10
96.77936246922332
 20
366.0872236504246
 30
0.0
 11
96.77936246922332
 21
364.0872236504246
 31
0.0
  0
LINE
  5
5BD
330
17
100
AcDbEntity
  8
STEMPEL
100
AcDbLine
 10
90.95436246922327
 20
372.6872236504249
 30
0.0
 11
90.95436246922337
 21
367.0872236504241
 31
0.0
  0
LINE
  5
5BE
330
17
100
AcDbEntity
  8
STEMPEL
100
AcDbLine
 10
76.92936246922329
 20
372.6872236504245
 30
0.0
 11
76.92936246922329
 21
367.0872236504246
 31
0.0
  0
LINE
  5
5BF
330
17
100
AcDbEntity
  8
STEMPEL
100
AcDbLine
 10
81.60436246922335
 20
372.6872236504247
 30
0.0
 11
81.60436246922325
 21
367.0872236504246
 31
0.0
  0
ARC
  5
5C0
330
17
100
AcDbEntity
  8
STEMPEL
100
AcDbCircle
 10
86.27936246922343
 20
377.5150361504242
 30
0.0
 40
11.42781249999961
100
AcDbArc
 50
245.8523381301009
 51
294.1476618698991
  0
ARC
  5
5C1
330
17
100
AcDbEntity
  8
STEMPEL
100
AcDbCircle
 10
79.26686246922338
 20
369.3191767754246
 30
0.0
 40
3.231953125000015
100
AcDbArc
 50
223.6767967280995
 51
316.3232032718993
  0
LINE
  5
5C2
330
17
100
AcDbEntity
  8
STEMPEL
100
AcDbLine
 10
75.77936246922331
 20
366.0872236504246
 30
0.0
 11
75.77936246922331
 21
364.0872236504246
 31
0.0
  0
ARC
  5
5C3
330
17
100
AcDbEntity
  8
STEMPEL
100
AcDbCircle
 10
86.27936246922343
 20
362.2594111504251
 30
0.0
 40
11.42781249999961
100
AcDbArc
 50
65.85233813010086
 51
114.1476618698991
  0
ARC
  5
5C4
330
17
100
AcDbEntity
  8
STEMPEL
100
AcDbCircle
 10
79.26686246922338
 20
370.4552705254247
 30
0.0
 40
3.231953125000015
100
AcDbArc
 50
43.6767967281007
 51
136.3232032719004
  0
LINE
  5
5C5
102
{ACAD_REACTORS
330
AC3
102
}
330
17
100
AcDbEntity
  8
STEMPEL
100
AcDbLine
 10
91.27936246922354
 20
358.087223650425
 30
0.0
 11
131.3690553123938
 21
358.087223650425
 31
0.0
  0
LINE
  5
5C6
330
17
100
AcDbEntity
  8
STEMPEL
100
AcDbLine
 10
122.8701995407334
 20
358.087223650425
 30
0.0
 11
122.8701995407334
 21
355.087223650425
 31
0.0
  0
LINE
  5
5C7
330
17
100
AcDbEntity
  8
HILF
100
AcDbLine
 10
123.8701995407333
 20
358.087223650425
 30
0.0
 11
123.8701995407333
 21
355.087223650425
 31
0.0
  0
LINE
  5
5C8
330
17
100
AcDbEntity
  8
STEMPEL
100
AcDbLine
 10
333.6885253977138
 20
358.087223650425
 30
0.0
 11
333.6885253977138
 21
355.087223650425
 31
0.0
  0
LINE
  5
5C9
330
17
100
AcDbEntity
  8
HILF
100
AcDbLine
 10
332.6885253977138
 20
358.087223650425
 30
0.0
 11
332.6885253977138
 21
355.087223650425
 31
0.0
  0
LINE
  5
5CA
102
{ACAD_REACTORS
330
AC3
102
}
330
17
100
AcDbEntity
  8
STEMPEL
100
AcDbLine
 10
325.1896696260532
 20
358.087223650425
 30
0.0
 11
365.2793624692234
 21
358.087223650425
 31
0.0
  0
LINE
  5
5CB
102
{ACAD_REACTORS
330
AC3
102
}
330
17
100
AcDbEntity
  8
STEMPEL
100
AcDbLine
 10
322.3918236771232
 20
364.087223650425
 30
0.0
 11
402.2793624692234
 21
364.087223650425
 31
0.0
  0
LINE
  5
5CC
102
{ACAD_REACTORS
330
AC3
102
}
330
17
100
AcDbEntity
  8
STEMPEL
100
AcDbLine
 10
375.2793624692234
 20
358.087223650425
 30
0.0
 11
402.2793624692234
 21
358.087223650425
 31
0.0
  0
LINE
  5
5CE
102
{ACAD_REACTORS
330
AC3
102
}
330
17
100
AcDbEntity
  8
STEMPEL
100
AcDbLine
 10
54.27936246922377
 20
364.087223650425
 30
0.0
 11
134.1669012613237
 21
364.087223650425
 31
0.0
  0
LINE
  5
5CF
102
{ACAD_REACTORS
330
AC3
102
}
330
17
100
AcDbEntity
  8
STEMPEL
100
AcDbLine
 10
54.27936246922377
 20
358.087223650425
 30
0.0
 11
81.27936246922354
 21
358.087223650425
 31
0.0
  0
LINE
  5
5D0
102
{ACAD_REACTORS
330
AC3
102
}
330
17
100
AcDbEntity
  8
STEMPEL
100
AcDbLine
 10
363.2793624692234
 20
358.0872236504249
 30
0.0
 11
363.2793624692234
 21
364.087223650425
 31
0.0
  0
LINE
  5
5D1
102
{ACAD_REACTORS
330
AC3
102
}
330
17
100
AcDbEntity
  8
STEMPEL
100
AcDbLine
 10
377.2954829057604
 20
358.2660559869856
 30
0.0
 11
377.2954829057604
 21
364.2660559869857
 31
0.0
  0
LINE
  5
5D2
102
{ACAD_REACTORS
330
AC3
102
}
330
17
100
AcDbEntity
  8
STEMPEL
100
AcDbLine
 10
403.2793624692234
 20
359.087223650425
 30
0.0
 11
403.2793624692234
 21
363.087223650425
 31
0.0
  0
LINE
  5
5D3
102
{ACAD_REACTORS
330
AC3
102
}
330
17
100
AcDbEntity
  8
STEMPEL
100
AcDbLine
 10
402.2793624692234
 20
364.087223650425
 30
0.0
 11
403.2793624692234
 21
363.087223650425
 31
0.0
  0
LINE
  5
5D4
102
{ACAD_REACTORS
330
AC3
102
}
330
17
100
AcDbEntity
  8
STEMPEL
100
AcDbLine
 10
403.2793624692234
 20
359.087223650425
 30
0.0
 11
402.2793624692234
 21
358.087223650425
 31
0.0
  0
LINE
  5
5D5
102
{ACAD_REACTORS
330
AC3
102
}
330
17
100
AcDbEntity
  8
STEMPEL
100
AcDbLine
 10
337.2793624692239
 20
359.087223650425
 30
0.0
 11
338.2793624692239
 21
358.087223650425
 31
0.0
  0
LINE
  5
5D6
102
{ACAD_REACTORS
330
AC3
102
}
330
17
100
AcDbEntity
  8
STEMPEL
100
AcDbLine
 10
338.2793624692239
 20
364.087223650425
 30
0.0
 11
337.2793624692239
 21
363.087223650425
 31
0.0
  0
LINE
  5
5D7
102
{ACAD_REACTORS
330
AC3
102
}
330
17
100
AcDbEntity
  8
STEMPEL
100
AcDbLine
 10
337.2793624692239
 20
359.087223650425
 30
0.0
 11
337.2793624692239
 21
363.087223650425
 31
0.0
  0
LINE
  5
5D8
102
{ACAD_REACTORS
330
AC3
102
}
330
17
100
AcDbEntity
  8
STEMPEL
100
AcDbLine
 10
119.2793624692233
 20
359.087223650425
 30
0.0
 11
119.2793624692233
 21
363.087223650425
 31
0.0
  0
LINE
  5
5D9
102
{ACAD_REACTORS
330
AC3
102
}
330
17
100
AcDbEntity
  8
STEMPEL
100
AcDbLine
 10
118.2793624692233
 20
364.087223650425
 30
0.0
 11
119.2793624692233
 21
363.087223650425
 31
0.0
  0
LINE
  5
5DA
102
{ACAD_REACTORS
330
AC3
102
}
330
17
100
AcDbEntity
  8
STEMPEL
100
AcDbLine
 10
119.2793624692233
 20
359.087223650425
 30
0.0
 11
118.2793624692233
 21
358.087223650425
 31
0.0
  0
LINE
  5
5DB
102
{ACAD_REACTORS
330
AC3
102
}
330
17
100
AcDbEntity
  8
STEMPEL
100
AcDbLine
 10
53.27936246922354
 20
359.087223650425
 30
0.0
 11
54.27936246922354
 21
358.087223650425
 31
0.0
  0
LINE
  5
5DC
102
{ACAD_REACTORS
330
AC3
102
}
330
17
100
AcDbEntity
  8
STEMPEL
100
AcDbLine
 10
54.27936246922354
 20
364.087223650425
 30
0.0
 11
53.27936246922354
 21
363.087223650425
 31
0.0
  0
LINE
  5
5DD
102
{ACAD_REACTORS
330
AC3
102
}
330
17
100
AcDbEntity
  8
STEMPEL
100
AcDbLine
 10
53.27936246922354
 20
359.087223650425
 30
0.0
 11
53.27936246922354
 21
363.087223650425
 31
0.0
  0
LINE
  5
5DE
102
{ACAD_REACTORS
330
AC3
102
}
330
17
100
AcDbEntity
  8
STEMPEL
100
AcDbLine
 10
79.27798113437711
 20
358.1397666005411
 30
0.0
 11
79.27798113437711
 21
364.1397666005412
 31
0.0
  0
LINE
  5
5DF
102
{ACAD_REACTORS
330
AC3
102
}
330
17
100
AcDbEntity
  8
STEMPEL
100
AcDbLine
 10
93.27936246922376
 20
358.0872236504249
 30
0.0
 11
93.27936246922376
 21
364.087223650425
 31
0.0
  0
ARC
  5
5E0
330
17
100
AcDbEntity
  8
STEMPEL
100
AcDbCircle
 10
313.2945349119219
 20
387.5872236504246
 30
0.0
 40
2.5
100
AcDbArc
 50
30.00000000000055
 51
90.0
  0
ARC
  5
5E1
330
17
100
AcDbEntity
  8
STEMPEL
100
AcDbCircle
 10
312.8412734786196
 20
387.5872236504246
 30
0.0
 40
2.5
100
AcDbArc
 50
90.0
 51
164.9999999999992
  0
ARC
  5
5E2
330
17
100
AcDbEntity
  8
STEMPEL
100
AcDbCircle
 10
316.2793624692231
 20
382.4173506693468
 30
0.0
 40
2.5
100
AcDbArc
 50
0.0
 51
30.00000000000055
  0
LINE
  5
5E3
330
17
100
AcDbEntity
  8
STEMPEL
100
AcDbLine
 10
318.7793624692231
 20
382.4173506693468
 30
0.0
 11
318.7793624692231
 21
382.0872236504246
 31
0.0
  0
LINE
  5
5E4
330
17
100
AcDbEntity
  8
STEMPEL
100
AcDbLine
 10
318.7793624692231
 20
382.0872236504246
 30
0.0
 11
313.9982858303338
 21
382.0872236504246
 31
0.0
  0
LINE
  5
5E5
330
17
100
AcDbEntity
  8
STEMPEL
100
AcDbLine
 10
307.7793624692233
 20
382.0872236504246
 30
0.0
 11
310.4264589128971
 21
388.2342712631809
 31
0.0
  0
LINE
  5
5E6
330
17
100
AcDbEntity
  8
STEMPEL
100
AcDbLine
 10
318.4444259786843
 20
383.6673506693468
 30
0.0
 11
315.459598421383
 21
388.8372236504246
 31
0.0
  0
LINE
  5
5E7
330
17
100
AcDbEntity
  8
STEMPEL
100
AcDbLine
 10
318.6675304084479
 20
364.9753915896493
 30
0.0
 11
315.7793624692232
 21
362.0872236504246
 31
0.0
  0
LINE
  5
5E8
330
17
100
AcDbEntity
  8
STEMPEL
100
AcDbLine
 10
315.7793624692232
 20
362.0872236504246
 30
0.0
 11
315.7793624692232
 21
361.2833760731313
 31
0.0
  0
LINE
  5
5E9
330
17
100
AcDbEntity
  8
STEMPEL
100
AcDbLine
 10
313.7793624692231
 20
359.0872236504246
 30
0.0
 11
311.707565699499
 21
359.0872236504246
 31
0.0
  0
LINE
  5
5EA
330
17
100
AcDbEntity
  8
STEMPEL
100
AcDbLine
 10
316.7793624692231
 20
356.0872236504246
 30
0.0
 11
313.7793624692231
 21
359.0872236504246
 31
0.0
  0
LINE
  5
5EB
330
17
100
AcDbEntity
  8
STEMPEL
100
AcDbLine
 10
318.7793624692231
 20
356.0872236504246
 30
0.0
 11
308.6523458154307
 21
356.0872236504246
 31
0.0
  0
ARC
  5
5EC
330
17
100
AcDbEntity
  8
STEMPEL
100
AcDbCircle
 10
304.7793624692232
 20
363.0872236504246
 30
0.0
 40
8.0
100
AcDbArc
 50
292.0243128370431
 51
329.9999999999995
  0
LINE
  5
5ED
330
17
100
AcDbEntity
  8
STEMPEL
100
AcDbLine
 10
318.7793624692231
 20
356.0872236504246
 30
0.0
 11
315.7793624692232
 21
361.2833760731313
 31
0.0
  0
LINE
  5
5EE
330
17
100
AcDbEntity
  8
STEMPEL
100
AcDbLine
 10
313.2945349119219
 20
390.0872236504246
 30
0.0
 11
307.7793624692233
 21
390.0872236504246
 31
0.0
  0
ARC
  5
5EF
330
17
100
AcDbEntity
  8
STEMPEL
100
AcDbCircle
 10
143.7174514598268
 20
387.5872236504246
 30
0.0
 40
2.5
100
AcDbArc
 50
15.00000000000074
 51
90.0
  0
ARC
  5
5F0
330
17
100
AcDbEntity
  8
STEMPEL
100
AcDbCircle
 10
143.2641900265246
 20
387.5872236504246
 30
0.0
 40
2.5
100
AcDbArc
 50
90.0
 51
149.9999999999994
  0
LINE
  5
5F1
330
17
100
AcDbEntity
  8
STEMPEL
100
AcDbLine
 10
137.7793624692232
 20
382.4173506693468
 30
0.0
 11
137.7793624692232
 21
382.0872236504246
 31
0.0
  0
ARC
  5
5F2
330
17
100
AcDbEntity
  8
STEMPEL
100
AcDbCircle
 10
140.2793624692232
 20
382.4173506693468
 30
0.0
 40
2.5
100
AcDbArc
 50
149.9999999999994
 51
180.0
  0
LINE
  5
5F3
330
17
100
AcDbEntity
  8
STEMPEL
100
AcDbLine
 10
137.7793624692232
 20
382.0872236504246
 30
0.0
 11
142.5604391081136
 21
382.0872236504246
 31
0.0
  0
LINE
  5
5F4
330
17
100
AcDbEntity
  8
STEMPEL
100
AcDbLine
 10
148.7793624692233
 20
382.0872236504246
 30
0.0
 11
146.1322660255495
 21
388.2342712631809
 31
0.0
  0
LINE
  5
5F5
330
17
100
AcDbEntity
  8
STEMPEL
100
AcDbLine
 10
138.1142989597621
 20
383.6673506693468
 30
0.0
 11
141.0991265170635
 21
388.8372236504246
 31
0.0
  0
LINE
  5
5F6
330
17
100
AcDbEntity
  8
STEMPEL
100
AcDbLine
 10
140.7793624692232
 20
362.0872236504246
 30
0.0
 11
140.7793624692232
 21
361.2833760731313
 31
0.0
  0
LINE
  5
5F7
330
17
100
AcDbEntity
  8
STEMPEL
100
AcDbLine
 10
137.891194529999
 20
364.9753915896488
 30
0.0
 11
140.7793624692232
 21
362.0872236504246
 31
0.0
  0
LINE
  5
5F8
330
17
100
AcDbEntity
  8
STEMPEL
100
AcDbLine
 10
142.7793624692232
 20
359.0872236504246
 30
0.0
 11
144.8511592389475
 21
359.0872236504246
 31
0.0
  0
LINE
  5
5F9
330
17
100
AcDbEntity
  8
STEMPEL
100
AcDbLine
 10
137.7793624692232
 20
356.0872236504246
 30
0.0
 11
147.9063791230158
 21
356.0872236504246
 31
0.0
  0
LINE
  5
5FA
330
17
100
AcDbEntity
  8
STEMPEL
100
AcDbLine
 10
139.7793624692232
 20
356.0872236504246
 30
0.0
 11
142.7793624692232
 21
359.0872236504246
 31
0.0
  0
LINE
  5
5FB
330
17
100
AcDbEntity
  8
STEMPEL
100
AcDbLine
 10
137.7793624692232
 20
356.0872236504246
 30
0.0
 11
140.7793624692232
 21
361.2833760731313
 31
0.0
  0
ARC
  5
5FC
330
17
100
AcDbEntity
  8
STEMPEL
100
AcDbCircle
 10
151.7793624692232
 20
363.0872236504246
 30
0.0
 40
8.0
100
AcDbArc
 50
210.0000000000005
 51
247.9756871629578
  0
LINE
  5
5FD
330
17
100
AcDbEntity
  8
STEMPEL
100
AcDbLine
 10
143.2641900265246
 20
390.0872236504246
 30
0.0
 11
148.7793624692232
 21
390.0872236504245
 31
0.0
  0
HATCH
  5
5FE
330
17
100
AcDbEntity
  8
SCHRAFF
100
AcDbHatch
 10
0.0
 20
0.0
 30
0.0
210
0.0
220
0.0
230
1.0
  2
_USER
 70
     0
 71
     0
 91
        2
 92
        7
 72
     1
 73
     1
 93
        9
 10
56.77936246922354
 20
355.0872236504245
 42
0.0
 10
55.77936246922354
 20
354.0872236504246
 42
0.0
 10
55.77936246922354
 20
352.0872236504246
 42
0.0
 10
128.0589215555062
 20
352.0872236504246
 42
0.2914734195860852
 10
133.496768277726
 20
355.5515140799804
 42
0.0
 10
145.2793624692234
 20
380.8193688652026
 42
0.0
 10
142.5604391081135
 20
382.0872236504246
 42
0.0
 10
130.7778449166161
 20
356.8193688652026
 42
-0.2914734195860891
 10
128.0589215555062
 20
355.0872236504245
 42
0.0
 97
        0
 92
        7
 72
     1
 73
     1
 93
        8
 10
400.7793624692234
 20
352.0872236504248
 42
0.0
 10
400.7793624692234
 20
354.0872236504252
 42
0.0
 10
399.7793624692235
 20
355.087223650425
 42
0.0
 10
326.5885926005182
 20
355.087223650425
 42
0.0
 10
313.9982858303337
 20
382.0872236504248
 42
0.0
 10
311.2793624692236
 20
380.8193688652026
 42
0.0
 10
323.0619566607207
 20
355.5515140799808
 42
0.2914734195860982
 10
328.4998033829408
 20
352.0872236504248
 42
0.0
 97
        0
 75
     0
 76
     0
 52
135.0
 41
2.0
 77
     0
 78
     1
 53
135.0
 43
10.18058490253406
 44
0.0
 45
-1.414213562373095
 46
-1.414213562373094
 79
     0
 47
0.3918458513578915
 98
        2
 10
115.6095577634785
 20
353.7448634120263
 10
343.4446208639027
 20
353.3530176036096
  0
ARC
  5
5FF
330
17
100
AcDbEntity
  8
STEMPEL
100
AcDbCircle
 10
128.0589215555062
 20
358.0872236504246
 30
0.0
 40
6.0
100
AcDbArc
 50
270.0
 51
335.0000000000006
  0
ARC
  5
600
330
17
100
AcDbEntity
  8
STEMPEL
100
AcDbCircle
 10
128.0589215555062
 20
358.0872236504246
 30
0.0
 40
3.0
100
AcDbArc
 50
270.0
 51
335.0000000000006
  0
ARC
  5
601
330
17
100
AcDbEntity
  8
STEMPEL
100
AcDbCircle
 10
328.4998033829405
 20
358.087223650425
 30
0.0
 40
6.0
100
AcDbArc
 50
204.9999999999994
 51
270.0
  0
ARC
  5
602
330
17
100
AcDbEntity
  8
STEMPEL
100
AcDbCircle
 10
328.4998033829405
 20
358.087223650425
 30
0.0
 40
3.0
100
AcDbArc
 50
204.9999999999994
 51
270.0
  0
LINE
  5
603
330
17
100
AcDbEntity
  8
STEMPEL
100
AcDbLine
 10
142.5604391081135
 20
382.0872236504248
 30
0.0
 11
130.7778449166161
 21
356.8193688652026
 31
0.0
  0
LINE
  5
604
330
17
100
AcDbEntity
  8
STEMPEL
100
AcDbLine
 10
145.2793624692234
 20
380.8193688652026
 30
0.0
 11
133.496768277726
 21
355.5515140799804
 31
0.0
  0
LINE
  5
605
330
17
100
AcDbEntity
  8
STEMPEL
100
AcDbLine
 10
142.5604391081136
 20
382.0872236504246
 30
0.0
 11
145.2793624692235
 21
380.8193688652026
 31
0.0
  0
LINE
  5
606
330
17
100
AcDbEntity
  8
STEMPEL
100
AcDbLine
 10
313.9982858303334
 20
382.0872236504246
 30
0.0
 11
311.2793624692234
 21
380.8193688652026
 31
0.0
  0
LINE
  5
607
330
17
100
AcDbEntity
  8
STEMPEL
100
AcDbLine
 10
311.2793624692236
 20
380.8193688652026
 30
0.0
 11
323.0619566607208
 21
355.551514079981
 31
0.0
  0
LINE
  5
608
330
17
100
AcDbEntity
  8
STEMPEL
100
AcDbLine
 10
313.9982858303337
 20
382.0872236504248
 30
0.0
 11
325.7808800218307
 21
356.819368865203
 31
0.0
  0
LINE
  5
60B
330
17
100
AcDbEntity
  8
STEMPEL
100
AcDbLine
 10
122.8701995407334
 20
379.087223650425
 30
0.0
 11
122.8701995407334
 21
373.6872236504248
 31
0.0
  0
LINE
  5
60C
330
17
100
AcDbEntity
  8
STEMPEL
100
AcDbLine
 10
132.8701995407334
 20
379.087223650425
 30
0.0
 11
132.8701995407333
 21
373.6872236504248
 31
0.0
  0
LINE
  5
60D
330
17
100
AcDbEntity
  8
MITTEL
100
AcDbLine
 10
127.8701995407334
 20
384.5777179374094
 30
0.0
 11
127.8701995407334
 21
355.0872236504245
 31
0.0
  0
LINE
  5
60E
330
17
100
AcDbEntity
  8
HILF
100
AcDbLine
 10
131.8701995407334
 20
380.087223650425
 30
0.0
 11
131.8701995407334
 21
373.6872236504248
 31
0.0
  0
LINE
  5
60F
330
17
100
AcDbEntity
  8
HILF
100
AcDbLine
 10
123.8701995407334
 20
380.087223650425
 30
0.0
 11
123.8701995407334
 21
373.6872236504248
 31
0.0
  0
LINE
  5
610
330
17
100
AcDbEntity
  8
STEMPEL
100
AcDbLine
 10
131.8701995407334
 20
380.087223650425
 30
0.0
 11
123.8701995407334
 21
380.087223650425
 31
0.0
  0
LINE
  5
611
330
17
100
AcDbEntity
  8
STEMPEL
100
AcDbLine
 10
122.8701995407334
 20
379.087223650425
 30
0.0
 11
132.8701995407334
 21
379.087223650425
 31
0.0
  0
LINE
  5
612
330
17
100
AcDbEntity
  8
STEMPEL
100
AcDbLine
 10
123.8701995407334
 20
380.087223650425
 30
0.0
 11
122.8701995407334
 21
379.087223650425
 31
0.0
  0
LINE
  5
613
330
17
100
AcDbEntity
  8
STEMPEL
100
AcDbLine
 10
132.8701995407334
 20
379.087223650425
 30
0.0
 11
131.8701995407334
 21
380.087223650425
 31
0.0
  0
LINE
  5
615
330
17
100
AcDbEntity
  8
STEMPEL
100
AcDbLine
 10
56.77936246922354
 20
355.0872236504245
 30
0.0
 11
55.77936246922354
 21
354.0872236504246
 31
0.0
  0
LINE
  5
616
330
17
100
AcDbEntity
  8
STEMPEL
100
AcDbLine
 10
128.0589215555062
 20
355.0872236504245
 30
0.0
 11
56.77936246922354
 21
355.0872236504245
 31
0.0
  0
LINE
  5
617
330
17
100
AcDbEntity
  8
STEMPEL
100
AcDbLine
 10
399.7793624692235
 20
355.087223650425
 30
0.0
 11
400.7793624692234
 21
354.087223650425
 31
0.0
  0
LINE
  5
618
330
17
100
AcDbEntity
  8
STEMPEL
100
AcDbLine
 10
400.7793624692234
 20
354.087223650425
 30
0.0
 11
400.7793624692234
 21
352.0872236504248
 31
0.0
  0
LINE
  5
619
330
17
100
AcDbEntity
  8
STEMPEL
100
AcDbLine
 10
55.77936246922354
 20
354.0872236504246
 30
0.0
 11
55.77936246922354
 21
352.0872236504246
 31
0.0
  0
LINE
  5
61A
330
17
100
AcDbEntity
  8
STEMPEL
100
AcDbLine
 10
399.7793624692235
 20
355.087223650425
 30
0.0
 11
328.4998033829405
 21
355.087223650425
 31
0.0
  0
LINE
  5
61B
330
17
100
AcDbEntity
  8
STEMPEL
100
AcDbLine
 10
400.7793624692234
 20
352.0872236504248
 30
0.0
 11
307.7793624692235
 21
352.0872236504247
 31
0.0
  0
DIMENSION
  5
61C
330
17
100
AcDbEntity
  8
BEM
100
AcDbDimension
  2
*D2
 10
400.7793624692234
 20
309.1532633678606
 30
0.0
 11
228.2793624692235
 21
315.6532633678606
 31
0.0
 70
    32
  1
%%c<>
 71
     5
 42
344.9999999999999
  3
STANDARD
100
AcDbAlignedDimension
 13
55.77936246922354
 23
352.0872236504246
 33
0.0
 14
400.7793624692234
 24
352.0872236504248
 34
0.0
100
AcDbRotatedDimension
1001
ACAD
1000
DSTYLE
1002
{
1070
    40
1040
2.0
1070
    41
1040
3.5
1070
    42
1040
1.0
1070
    43
1040
7.0
1070
    44
1040
1.0
1070
    73
1070
     0
1070
    74
1070
     0
1070
    77
1070
     1
1070
    78
1070
     8
1070
    79
1070
     2
1070
   140
1040
3.5
1070
   141
1040
1.5
1070
   146
1040
0.5
1070
   147
1040
1.5
1070
   172
1070
     1
1070
   178
1070
     1
1070
   179
1070
     2
1070
   271
1070
     1
1070
   272
1070
     1
1070
   284
1070
     8
1070
   285
1070
     8
1070
   286
1070
     8
1002
}
  0
DIMENSION
  5
61D
330
17
100
AcDbEntity
  8
BEM
100
AcDbDimension
  2
*D3
 10
370.2793624692234
 20
325.1532633678607
 30
0.0
 11
228.2793624692235
 21
331.6532633678606
 31
0.0
 70
    32
  1
%%c<>
 71
     5
 42
283.9999999999999
  3
STANDARD
100
AcDbAlignedDimension
 13
86.27936246922354
 23
355.0872236504245
 33
0.0
 14
370.2793624692234
 24
355.0872236504245
 34
0.0
100
AcDbRotatedDimension
1001
ACAD
1000
DSTYLE
1002
{
1070
    40
1040
2.0
1070
    41
1040
3.5
1070
    42
1040
1.0
1070
    43
1040
7.0
1070
    44
1040
1.0
1070
    73
1070
     0
1070
    74
1070
     0
1070
    77
1070
     1
1070
    78
1070
     8
1070
    79
1070
     2
1070
   140
1040
3.5
1070
   141
1040
1.5
1070
   146
1040
0.5
1070
   147
1040
1.5
1070
   172
1070
     1
1070
   178
1070
     1
1070
   179
1070
     2
1070
   271
1070
     1
1070
   272
1070
     1
1070
   284
1070
     8
1070
   285
1070
     8
1070
   286
1070
     8
1002
}
  0
LINE
  5
61E
330
17
100
AcDbEntity
  8
STEMPEL
100
AcDbLine
 10
91.27936246922354
 20
379.0872236504246
 30
0.0
 11
90.27936246922354
 21
380.0872236504245
 31
0.0
  0
LINE
  5
61F
330
17
100
AcDbEntity
  8
STEMPEL
100
AcDbLine
 10
82.27936246922354
 20
380.0872236504245
 30
0.0
 11
81.27936246922354
 21
379.0872236504246
 31
0.0
  0
LINE
  5
620
330
17
100
AcDbEntity
  8
STEMPEL
100
AcDbLine
 10
81.27936246922354
 20
379.0872236504246
 30
0.0
 11
91.27936246922354
 21
379.0872236504246
 31
0.0
  0
LINE
  5
621
330
17
100
AcDbEntity
  8
STEMPEL
100
AcDbLine
 10
90.27936246922354
 20
380.0872236504245
 30
0.0
 11
82.27936246922354
 21
380.0872236504245
 31
0.0
  0
LINE
  5
622
330
17
100
AcDbEntity
  8
HILF
100
AcDbLine
 10
82.27936246922354
 20
380.0872236504245
 30
0.0
 11
82.27936246922354
 21
373.6872236504248
 31
0.0
  0
LINE
  5
623
330
17
100
AcDbEntity
  8
HILF
100
AcDbLine
 10
90.27936246922354
 20
380.0872236504245
 30
0.0
 11
90.27936246922354
 21
373.6872236504248
 31
0.0
  0
LINE
  5
624
330
17
100
AcDbEntity
  8
MITTEL
100
AcDbLine
 10
86.27936246922354
 20
384.5777179374089
 30
0.0
 11
86.27936246922354
 21
355.0872236504245
 31
0.0
  0
LINE
  5
625
330
17
100
AcDbEntity
  8
STEMPEL
100
AcDbLine
 10
91.27936246922354
 20
379.0872236504246
 30
0.0
 11
91.27936246922354
 21
373.6872236504248
 31
0.0
  0
LINE
  5
626
330
17
100
AcDbEntity
  8
STEMPEL
100
AcDbLine
 10
81.27936246922354
 20
379.0872236504246
 30
0.0
 11
81.27936246922354
 21
373.6872236504248
 31
0.0
  0
LINE
  5
62D
330
17
100
AcDbEntity
  8
STEMPEL
100
AcDbLine
 10
375.2793624692234
 20
379.0872236504246
 30
0.0
 11
375.2793624692234
 21
373.6872236504247
 31
0.0
  0
LINE
  5
62E
330
17
100
AcDbEntity
  8
STEMPEL
100
AcDbLine
 10
365.2793624692234
 20
379.0872236504246
 30
0.0
 11
365.2793624692234
 21
373.6872236504247
 31
0.0
  0
LINE
  5
62F
330
17
100
AcDbEntity
  8
MITTEL
100
AcDbLine
 10
370.2793624692234
 20
384.5777179374089
 30
0.0
 11
370.2793624692234
 21
355.0872236504245
 31
0.0
  0
LINE
  5
630
330
17
100
AcDbEntity
  8
HILF
100
AcDbLine
 10
366.2793624692235
 20
380.0872236504245
 30
0.0
 11
366.2793624692235
 21
373.6872236504247
 31
0.0
  0
LINE
  5
631
330
17
100
AcDbEntity
  8
HILF
100
AcDbLine
 10
374.2793624692234
 20
380.0872236504245
 30
0.0
 11
374.2793624692234
 21
373.6872236504247
 31
0.0
  0
LINE
  5
632
330
17
100
AcDbEntity
  8
STEMPEL
100
AcDbLine
 10
366.2793624692235
 20
380.0872236504245
 30
0.0
 11
374.2793624692234
 21
380.0872236504245
 31
0.0
  0
LINE
  5
633
330
17
100
AcDbEntity
  8
STEMPEL
100
AcDbLine
 10
375.2793624692234
 20
379.0872236504246
 30
0.0
 11
365.2793624692234
 21
379.0872236504246
 31
0.0
  0
LINE
  5
634
330
17
100
AcDbEntity
  8
STEMPEL
100
AcDbLine
 10
374.2793624692234
 20
380.0872236504245
 30
0.0
 11
375.2793624692234
 21
379.0872236504246
 31
0.0
  0
LINE
  5
635
330
17
100
AcDbEntity
  8
STEMPEL
100
AcDbLine
 10
365.2793624692234
 20
379.0872236504246
 30
0.0
 11
366.2793624692235
 21
380.0872236504245
 31
0.0
  0
LINE
  5
636
330
17
100
AcDbEntity
  8
STEMPEL
100
AcDbLine
 10
323.6885253977137
 20
379.087223650425
 30
0.0
 11
324.6885253977138
 21
380.087223650425
 31
0.0
  0
LINE
  5
637
330
17
100
AcDbEntity
  8
STEMPEL
100
AcDbLine
 10
332.6885253977138
 20
380.087223650425
 30
0.0
 11
333.6885253977138
 21
379.087223650425
 31
0.0
  0
LINE
  5
638
330
17
100
AcDbEntity
  8
STEMPEL
100
AcDbLine
 10
333.6885253977138
 20
379.087223650425
 30
0.0
 11
323.6885253977137
 21
379.087223650425
 31
0.0
  0
LINE
  5
639
330
17
100
AcDbEntity
  8
STEMPEL
100
AcDbLine
 10
324.6885253977138
 20
380.087223650425
 30
0.0
 11
332.6885253977138
 21
380.087223650425
 31
0.0
  0
LINE
  5
63A
330
17
100
AcDbEntity
  8
HILF
100
AcDbLine
 10
332.6885253977138
 20
380.087223650425
 30
0.0
 11
332.6885253977135
 21
373.6872236504248
 31
0.0
  0
LINE
  5
63B
330
17
100
AcDbEntity
  8
HILF
100
AcDbLine
 10
324.6885253977138
 20
380.087223650425
 30
0.0
 11
324.6885253977136
 21
373.6872236504248
 31
0.0
  0
LINE
  5
63C
330
17
100
AcDbEntity
  8
MITTEL
100
AcDbLine
 10
328.6885253977138
 20
384.5777179374094
 30
0.0
 11
328.6885253977136
 21
355.087223650425
 31
0.0
  0
LINE
  5
63D
330
17
100
AcDbEntity
  8
STEMPEL
100
AcDbLine
 10
323.6885253977137
 20
379.087223650425
 30
0.0
 11
323.6885253977137
 21
373.6872236504248
 31
0.0
  0
LINE
  5
63E
330
17
100
AcDbEntity
  8
STEMPEL
100
AcDbLine
 10
333.6885253977138
 20
379.087223650425
 30
0.0
 11
333.6885253977138
 21
373.6872236504248
 31
0.0
  0
HATCH
  5
640
330
17
100
AcDbEntity
  8
SCHRAFF
100
AcDbHatch
 10
0.0
 20
0.0
 30
0.0
210
0.0
220
0.0
230
1.0
  2
_USER
 70
     0
 71
     0
 91
        2
 92
        5
 93
        4
 72
     4
 94
        3
 73
     0
 74
     0
 95
        8
 96
        4
 40
161.3924139022538
 40
161.3924139022538
 40
161.3924139022538
 40
161.3924139022538
 40
162.9294845108468
 40
162.9294845108468
 40
162.9294845108468
 40
162.9294845108468
 10
307.7793624692235
 20
568.0473253975333
 10
307.2793624692236
 20
567.879556169276
 10
306.7793624692236
 20
567.7117869410188
 10
306.2793624692235
 20
567.5442566151868
 72
     1
 10
306.2793624692235
 20
567.544256615187
 11
306.2793624692235
 21
186.0201851595627
 72
     1
 10
306.2793624692235
 20
186.0201851595627
 11
307.7793624692236
 21
186.0201851595627
 72
     1
 10
307.7793624692236
 20
186.0201851595627
 11
307.7793624692235
 21
568.0473253975332
 97
        0
 92
        5
 93
        4
 72
     4
 94
        3
 73
     0
 74
     0
 95
        8
 96
        4
 40
0.0
 40
0.0
 40
0.0
 40
0.0
 40
1.53707060859287
 40
1.53707060859287
 40
1.53707060859287
 40
1.53707060859287
 10
150.2793624692235
 20
568.5503941798796
 10
149.7793624692235
 20
568.3828638540478
 10
149.2793624692235
 20
568.2150946257905
 10
148.7793624692235
 20
568.0473253975333
 72
     1
 10
148.7793624692235
 20
568.0473253975333
 11
148.7793624692235
 21
186.0201851595637
 72
     1
 10
148.7793624692235
 20
186.0201851595637
 11
150.2793624692235
 21
186.0201851595637
 72
     1
 10
150.2793624692235
 20
186.0201851595637
 11
150.2793624692235
 21
568.5503941798797
 97
        0
 75
     0
 76
     0
 52
135.0
 41
2.0
 77
     0
 78
     1
 53
135.0
 43
-1.472243370990781
 44
1.455760961680425
 45
-1.414213562373095
 46
-1.414213562373094
 79
     0
 47
0.8094712855657498
 98
        2
 10
307.2352419909334
 20
516.1680925116752
 10
149.2686599694848
 20
490.2650129268622
  0
HATCH
  5
641
330
17
100
AcDbEntity
  8
SCHRAFF
100
AcDbHatch
 10
0.0
 20
0.0
 30
0.0
210
0.0
220
0.0
230
1.0
  2
_USER
 70
     0
 71
     0
 91
        2
 92
        5
 93
        4
 72
     1
 10
150.2793624692234
 20
746.8567364650905
 11
148.7793624692235
 21
746.8567364650905
 72
     1
 10
148.7793624692235
 20
746.8567364650905
 11
148.7793624692235
 21
583.8157392847744
 72
     4
 94
        3
 73
     0
 74
     0
 95
        8
 96
        4
 40
0.0
 40
0.0
 40
0.0
 40
0.0
 40
1.537070608592856
 40
1.537070608592856
 40
1.537070608592856
 40
1.537070608592856
 10
148.7793624692235
 20
583.8157392847742
 10
149.2793624692235
 20
583.9835085130316
 10
149.7793624692235
 20
584.1512777412886
 10
150.2793624692235
 20
584.3188080671204
 72
     1
 10
150.2793624692235
 20
584.3188080671203
 11
150.2793624692234
 21
746.8567364650905
 97
        0
 92
        5
 93
        4
 72
     1
 10
307.7793624692235
 20
746.8567364650904
 11
306.2793624692235
 21
746.8567364650903
 72
     1
 10
306.2793624692235
 20
746.8567364650903
 11
306.2793624692235
 21
583.3126705024279
 72
     4
 94
        3
 73
     0
 74
     0
 95
        8
 96
        4
 40
161.3924139022539
 40
161.3924139022539
 40
161.3924139022539
 40
161.3924139022539
 40
162.9294845108467
 40
162.9294845108467
 40
162.9294845108467
 40
162.9294845108467
 10
306.2793624692236
 20
583.3126705024279
 10
306.7793624692236
 20
583.4802008282597
 10
307.2793624692236
 20
583.647970056517
 10
307.7793624692235
 20
583.8157392847742
 72
     1
 10
307.7793624692235
 20
583.8157392847741
 11
307.7793624692235
 21
746.8567364650904
 97
        0
 75
     0
 76
     0
 52
135.0
 41
2.0
 77
     0
 78
     1
 53
135.0
 43
-1.472243370990781
 44
1.455760961680425
 45
-1.414213562373095
 46
-1.414213562373094
 79
     0
 47
0.4505443296039294
 98
        2
 10
149.4254846080989
 20
699.3830710811307
 10
307.2355708068449
 20
692.6249041573864
  0
HATCH
  5
642
330
17
100
AcDbEntity
  8
SCHRAFF
100
AcDbHatch
 10
0.0
 20
0.0
 30
0.0
210
0.0
220
0.0
230
1.0
  2
_USER
 70
     0
 71
     0
 91
        2
 92
        5
 93
        6
 72
     4
 94
        3
 73
     0
 74
     0
 95
        8
 96
        4
 40
13.32127860780494
 40
13.32127860780494
 40
13.32127860780494
 40
13.32127860780494
 40
15.88306295545989
 40
15.88306295545989
 40
15.88306295545989
 40
15.88306295545989
 10
164.2793624692235
 20
572.9845736158804
 10
163.4460291358901
 20
572.74747401894
 10
162.6126958025567
 20
572.5035170375658
 10
161.7793624692234
 20
572.2538087015055
 72
     1
 10
161.7793624692234
 20
572.2538087015057
 11
161.7793624692235
 21
133.9110328022938
 72
     1
 10
161.7793624692235
 20
133.9110328022938
 11
162.4697221835726
 21
126.0201851595637
 72
     1
 10
162.4697221835726
 20
126.0201851595637
 11
164.9792717774308
 21
126.0201851595637
 72
     1
 10
164.9792717774308
 20
126.0201851595637
 11
164.2793624692235
 21
134.020185159563
 72
     1
 10
164.2793624692235
 20
134.020185159563
 11
164.2793624692235
 21
572.9845736158804
 97
        0
 92
        5
 93
        6
 72
     4
 94
        3
 73
     0
 74
     0
 95
        8
 96
        4
 40
147.0464215553868
 40
147.0464215553868
 40
147.0464215553868
 40
147.0464215553868
 40
149.6082059030416
 40
149.6082059030416
 40
149.6082059030416
 40
149.6082059030416
 10
294.7793624692234
 20
563.8408420935609
 10
293.9460291358901
 20
563.5911337575006
 10
293.1126958025568
 20
563.3471767761266
 10
292.2793624692235
 20
563.1100771791862
 72
     1
 10
292.2793624692236
 20
563.1100771791862
 11
292.2793624692236
 21
134.0201851595604
 72
     1
 10
292.2793624692236
 20
134.0201851595605
 11
291.5794531610162
 21
126.0201851595637
 72
     1
 10
291.5794531610162
 20
126.0201851595637
 11
294.0890027548746
 21
126.0201851595637
 72
     1
 10
294.0890027548746
 20
126.0201851595637
 11
294.7793624692236
 21
133.9110328022911
 72
     1
 10
294.7793624692236
 20
133.9110328022911
 11
294.7793624692236
 21
563.840842093561
 97
        0
 75
     0
 76
     0
 52
45.0
 41
2.0
 77
     0
 78
     1
 53
45.0
 43
-1.472243370990781
 44
1.455760961680425
 45
-1.414213562373094
 46
1.414213562373095
 79
     0
 47
0.9153961847146831
 98
        2
 10
163.6543081290279
 20
501.1768326045439
 10
293.7391299253018
 20
502.0922317511722
  0
HATCH
  5
643
330
17
100
AcDbEntity
  8
SCHRAFF
100
AcDbHatch
 10
0.0
 20
0.0
 30
0.0
210
0.0
220
0.0
230
1.0
  2
_USER
 70
     0
 71
     0
 91
        2
 92
        5
 93
       21
 72
     2
 10
182.2793624692236
 20
733.2543590206264
 40
27.50000000000012
 50
179.9999999999998
 51
204.9999999999994
 73
     0
 72
     1
 10
157.3558983257155
 20
744.8763612184954
 11
158.2793624692235
 21
746.8567364650905
 72
     1
 10
158.2793624692235
 20
746.8567364650905
 11
155.5209176718172
 21
746.8567364650905
 72
     1
 10
155.5209176718172
 20
746.8567364650905
 11
155.090128858124
 21
745.9329068728475
 72
     2
 10
182.2793624692236
 20
733.2543590206267
 40
30.00000000000003
 50
155.0000000000003
 51
180.0
 73
     1
 72
     1
 10
152.2793624692235
 20
733.2543590206267
 11
152.2793624692235
 21
714.1477364650908
 72
     1
 10
152.2793624692235
 20
714.1477364650908
 11
152.2796262095314
 21
714.1477364650905
 72
     2
 10
182.2793624692237
 20
714.1477364650905
 40
29.99973625969222
 50
179.9999999999998
 51
205.0071583365522
 73
     1
 72
     2
 10
138.7793624692234
 20
693.8567364650905
 40
18.00000000000011
 50
334.9928416634477
 51
360.0000000000004
 73
     0
 72
     1
 10
156.7793624692235
 20
693.8567364650904
 11
156.7793624692234
 21
680.3254558877617
 72
     2
 10
174.7793624692234
 20
680.3254558877618
 40
18.00000000000003
 50
180.0000000000004
 51
214.7719440319484
 73
     1
 72
     2
 10
151.7793624692232
 20
664.3567364650907
 40
10.00000000000007
 50
325.2280559680525
 51
360.0
 73
     0
 72
     1
 10
161.7793624692233
 20
664.3567364650907
 11
161.7793624692234
 21
588.0222225887467
 72
     4
 94
        3
 73
     0
 74
     0
 95
        8
 96
        4
 40
13.32127860780493
 40
13.32127860780493
 40
13.32127860780493
 40
13.32127860780493
 40
15.88306295545989
 40
15.88306295545989
 40
15.88306295545989
 40
15.88306295545989
 10
161.7793624692234
 20
588.0222225887466
 10
162.6126958025568
 20
588.2719309248068
 10
163.4460291358901
 20
588.5158879061808
 10
164.2793624692235
 20
588.7529875031212
 72
     1
 10
164.2793624692235
 20
588.7529875031212
 11
164.2793624692235
 21
664.3567364650905
 72
     2
 10
151.7793624692236
 20
664.3567364650904
 40
12.49999999999992
 50
0.0000000000005211
 51
34.77194403194837
 73
     1
 72
     2
 10
174.7793624692235
 20
680.3254558877617
 40
15.5
 50
145.2280559680508
 51
180.0
 73
     0
 72
     1
 10
159.2793624692235
 20
680.3254558877617
 11
159.2793624692235
 21
693.8567364650905
 72
     2
 10
138.7793624692234
 20
693.8567364650905
 40
20.50000000000013
 50
0.0
 51
24.78717230718679
 73
     1
 72
     2
 10
182.2793624692234
 20
714.1477364650905
 40
27.49999999999991
 50
154.8288522569339
 51
180.0000000000002
 73
     0
 72
     1
 10
154.7793624692235
 20
714.1477364650905
 11
154.7793624692235
 21
733.2543590206263
 97
        0
 92
        5
 93
       21
 72
     2
 10
317.7793624692236
 20
693.8567364650905
 40
18.00000000000002
 50
180.0
 51
205.0071583365424
 73
     0
 72
     2
 10
274.2793624692236
 20
714.1477364650905
 40
29.99973625969202
 50
334.9928416634416
 51
360.0
 73
     1
 72
     1
 10
304.2790987289156
 20
714.1477364650905
 11
304.2793624692235
 21
714.1477364650903
 72
     1
 10
304.2793624692235
 20
714.1477364650903
 11
304.2793624692235
 21
733.2543590206262
 72
     2
 10
274.2793624692235
 20
733.2543590206262
 40
30.00000000000007
 50
0.0
 51
25.00000000000064
 73
     1
 72
     1
 10
301.4685960803229
 20
745.9329068728475
 11
301.0378072666296
 21
746.8567364650905
 72
     1
 10
301.0378072666296
 20
746.8567364650905
 11
298.2793624692235
 21
746.8567364650905
 72
     1
 10
298.2793624692235
 20
746.8567364650905
 11
299.2028266127313
 21
744.8763612184954
 72
     2
 10
274.2793624692235
 20
733.254359020626
 40
27.50000000000007
 50
334.9999999999994
 51
360.0
 73
     0
 72
     1
 10
301.7793624692235
 20
733.254359020626
 11
301.7793624692235
 21
714.1477364650905
 72
     2
 10
274.2793624692234
 20
714.1477364650903
 40
27.50000000000014
 50
359.9999999999997
 51
385.1711477430833
 73
     0
 72
     2
 10
317.7793624692236
 20
693.8567364650905
 40
20.50000000000005
 50
155.2128276928369
 51
180.0
 73
     1
 72
     1
 10
297.2793624692235
 20
693.8567364650905
 11
297.2793624692235
 21
680.3254558877616
 72
     2
 10
281.7793624692235
 20
680.3254558877617
 40
15.50000000000002
 50
0.0000000000004071
 51
34.77194403194979
 73
     0
 72
     2
 10
304.7793624692235
 20
664.3567364650905
 40
12.49999999999992
 50
145.2280559680529
 51
180.0
 73
     1
 72
     1
 10
292.2793624692236
 20
664.3567364650905
 11
292.2793624692236
 21
578.878491066427
 72
     4
 94
        3
 73
     0
 74
     0
 95
        8
 96
        4
 40
147.0464215553869
 40
147.0464215553869
 40
147.0464215553869
 40
147.0464215553869
 40
149.6082059030417
 40
149.6082059030417
 40
149.6082059030417
 40
149.6082059030417
 10
292.2793624692237
 20
578.8784910664271
 10
293.112695802557
 20
579.1155906633675
 10
293.9460291358903
 20
579.3595476447416
 10
294.7793624692236
 20
579.6092559808019
 72
     1
 10
294.7793624692236
 20
579.6092559808019
 11
294.7793624692236
 21
664.3567364650905
 72
     2
 10
304.7793624692237
 20
664.3567364650905
 40
10.00000000000007
 50
180.0
 51
214.7719440319495
 73
     0
 72
     2
 10
281.7793624692235
 20
680.3254558877618
 40
18.00000000000003
 50
325.228055968052
 51
359.9999999999992
 73
     1
 72
     1
 10
299.7793624692235
 20
680.3254558877616
 11
299.7793624692235
 21
693.8567364650905
 97
        0
 75
     0
 76
     0
 52
45.0
 41
2.0
 77
     0
 78
     1
 53
45.0
 43
-1.472243370990781
 44
1.455760961680425
 45
-1.414213562373094
 46
1.414213562373095
 79
     0
 47
0.4503079552252717
 98
        2
 10
154.3027082628928
 20
724.6225192806559
 10
298.0598669021688
 20
689.9488049237507
  0
SPLINE
  5
644
102
{ACAD_REACTORS
330
A9C
102
}
330
17
100
AcDbEntity
  8
HILF
100
AcDbSpline
210
0.0
220
0.0
230
1.0
 70
     8
 71
     3
 72
    10
 73
     6
 74
     4
 42
0.0000000001
 43
0.0000000001
 44
0.0000000001
 40
0.0
 40
0.0
 40
0.0
 40
0.0
 40
40.73237112771169
 40
122.197113383135
 40
162.9294845108467
 40
162.9294845108467
 40
162.9294845108467
 40
162.9294845108467
 10
148.7793624692235
 20
568.0473253975333
 30
0.0
 10
162.0293624692235
 20
572.4932099463504
 30
0.0
 10
201.7793624692235
 20
585.8308635928015
 30
0.0
 10
254.7793624692236
 20
550.2637872022651
 30
0.0
 10
294.5293624692236
 20
563.6014408487162
 30
0.0
 10
307.7793624692235
 20
568.0473253975333
 30
0.0
 11
148.7793624692235
 21
568.0473253975333
 31
0.0
 11
188.5293624692235
 21
576.9390944951673
 31
0.0
 11
268.0293624692235
 21
559.1555562998991
 31
0.0
 11
307.7793624692235
 21
568.0473253975333
 31
0.0
  0
SPLINE
  5
645
102
{ACAD_REACTORS
330
A9C
102
}
330
17
100
AcDbEntity
  8
HILF
100
AcDbSpline
210
0.0
220
0.0
230
1.0
 70
     8
 71
     3
 72
    10
 73
     6
 74
     4
 42
0.0000000001
 43
0.0000000001
 44
0.0000000001
 40
0.0
 40
0.0
 40
0.0
 40
0.0
 40
40.73237112771169
 40
122.197113383135
 40
162.9294845108467
 40
162.9294845108467
 40
162.9294845108467
 40
162.9294845108467
 10
148.7793624692235
 20
583.8157392847742
 30
0.0
 10
162.0293624692235
 20
588.2616238335913
 30
0.0
 10
201.7793624692235
 20
601.5992774800422
 30
0.0
 10
254.7793624692236
 20
566.032201089506
 30
0.0
 10
294.5293624692236
 20
579.3698547359572
 30
0.0
 10
307.7793624692235
 20
583.8157392847742
 30
0.0
 11
148.7793624692235
 21
583.8157392847742
 31
0.0
 11
188.5293624692235
 21
592.7075083824083
 31
0.0
 11
268.0293624692235
 21
574.9239701871402
 31
0.0
 11
307.7793624692235
 21
583.8157392847742
 31
0.0
  0
DIMENSION
  5
648
330
17
100
AcDbEntity
  8
BEM
100
AcDbDimension
  2
*D4
 10
307.7793624692235
 20
87.72689731898299
 30
0.0
 11
228.2793624692236
 21
93.22689731898298
 31
0.0
 70
    32
  1
%%c<>
 71
     5
 42
159.0
  3
STANDARD
100
AcDbAlignedDimension
 13
148.7793624692235
 23
186.0201851595637
 33
0.0
 14
307.7793624692235
 24
186.0201851595637
 34
0.0
100
AcDbRotatedDimension
  0
LINE
  5
649
102
{ACAD_REACTORS
330
A9C
102
}
330
17
100
AcDbEntity
  8
STEMPEL
100
AcDbLine
 10
150.2793624692235
 20
568.5503941798796
 30
0.0
 11
150.2793624692235
 21
186.0201851595637
 31
0.0
  0
LINE
  5
64A
330
17
100
AcDbEntity
  8
STEMPEL
100
AcDbLine
 10
148.7793624692235
 20
568.0473253975333
 30
0.0
 11
148.7793624692235
 21
186.0201851595637
 31
0.0
  0
LINE
  5
64B
102
{ACAD_REACTORS
330
A9C
102
}
330
17
100
AcDbEntity
  8
STEMPEL
100
AcDbLine
 10
306.2793624692235
 20
567.544256615187
 30
0.0
 11
306.2793624692235
 21
186.0201851595627
 31
0.0
  0
LINE
  5
64C
330
17
100
AcDbEntity
  8
STEMPEL
100
AcDbLine
 10
307.7793624692235
 20
568.0473253975333
 30
0.0
 11
307.7793624692235
 21
186.0201851595626
 31
0.0
  0
LINE
  5
64D
102
{ACAD_REACTORS
330
A9C
102
}
330
17
100
AcDbEntity
  8
STEMPEL
100
AcDbLine
 10
150.2793624692234
 20
746.8567364650905
 30
0.0
 11
150.2793624692235
 21
584.3188080671206
 31
0.0
  0
LINE
  5
64E
102
{ACAD_REACTORS
330
A9C
102
}
330
17
100
AcDbEntity
  8
STEMPEL
100
AcDbLine
 10
306.2793624692235
 20
746.8567364650905
 30
0.0
 11
306.2793624692235
 21
583.3126705024279
 31
0.0
  0
LINE
  5
64F
330
17
100
AcDbEntity
  8
STEMPEL
100
AcDbLine
 10
148.7793624692235
 20
746.8567364650905
 30
0.0
 11
148.7793624692235
 21
583.8157392847742
 31
0.0
  0
LINE
  5
650
330
17
100
AcDbEntity
  8
STEMPEL
100
AcDbLine
 10
307.7793624692235
 20
746.8567364650905
 30
0.0
 11
307.7793624692235
 21
583.8157392847742
 31
0.0
  0
LINE
  5
651
102
{ACAD_REACTORS
330
A9C
102
}
330
17
100
AcDbEntity
  8
STEMPEL
100
AcDbLine
 10
161.7793624692231
 20
186.0201851595636
 30
0.0
 11
148.7793624692235
 21
186.0201851595637
 31
0.0
  0
LINE
  5
652
102
{ACAD_REACTORS
330
A9C
102
}
330
17
100
AcDbEntity
  8
STEMPEL
100
AcDbLine
 10
152.2793624692233
 20
186.0201851595637
 30
0.0
 11
154.4229560086725
 21
194.0201851595637
 31
0.0
  0
LINE
  5
653
102
{ACAD_REACTORS
330
A9C
102
}
330
17
100
AcDbEntity
  8
STEMPEL
100
AcDbLine
 10
307.7793624692235
 20
186.0201851595627
 30
0.0
 11
294.7793624692232
 21
186.0201851595627
 31
0.0
  0
LINE
  5
654
102
{ACAD_REACTORS
330
A9C
102
}
330
17
100
AcDbEntity
  8
STEMPEL
100
AcDbLine
 10
304.2793624692237
 20
186.0201851595627
 30
0.0
 11
302.1357689297744
 21
194.0201851595637
 31
0.0
  0
LINE
  5
655
102
{ACAD_REACTORS
330
A9C
102
}
330
17
100
AcDbEntity
  8
STEMPEL
100
AcDbLine
 10
161.7793624692234
 20
572.2538087015057
 30
0.0
 11
161.7793624692235
 21
133.9110328022939
 31
0.0
  0
LINE
  5
656
330
17
100
AcDbEntity
  8
STEMPEL
100
AcDbLine
 10
164.2793624692235
 20
572.9845736158803
 30
0.0
 11
164.2793624692235
 21
134.0201851595628
 31
0.0
  0
LINE
  5
657
330
17
100
AcDbEntity
  8
STEMPEL
100
AcDbLine
 10
292.2793624692236
 20
563.1100771791862
 30
0.0
 11
292.2793624692236
 21
134.0201851595637
 31
0.0
  0
LINE
  5
658
102
{ACAD_REACTORS
330
A9C
102
}
330
17
100
AcDbEntity
  8
STEMPEL
100
AcDbLine
 10
294.7793624692236
 20
563.8408420935609
 30
0.0
 11
294.7793624692236
 21
134.0201851595637
 31
0.0
  0
LINE
  5
659
102
{ACAD_REACTORS
330
A9C
102
}
330
17
100
AcDbEntity
  8
STEMPEL
100
AcDbLine
 10
301.0378072666297
 20
746.8567364650905
 30
0.0
 11
301.4685960803229
 21
745.9329068728475
 31
0.0
  0
LINE
  5
65A
330
17
100
AcDbEntity
  8
STEMPEL
100
AcDbLine
 10
298.2793624692235
 20
746.8567364650905
 30
0.0
 11
299.2028266127313
 21
744.8763612184954
 31
0.0
  0
ARC
  5
65B
330
17
100
AcDbEntity
  8
STEMPEL
100
AcDbCircle
 10
274.2793624692235
 20
733.2543590206262
 30
0.0
 40
27.5
100
AcDbArc
 50
0.0
 51
24.99999999999271
  0
ARC
  5
65C
102
{ACAD_REACTORS
330
A9C
102
}
330
17
100
AcDbEntity
  8
STEMPEL
100
AcDbCircle
 10
274.2793624692235
 20
733.2543590206262
 30
0.0
 40
30.0
100
AcDbArc
 50
0.0
 51
24.99999999999271
  0
LINE
  5
65E
102
{ACAD_REACTORS
330
A9C
102
}
330
17
100
AcDbEntity
  8
STEMPEL
100
AcDbLine
 10
304.2790987289156
 20
714.1477364650905
 30
0.0
 11
304.2793624692235
 21
714.1477364650905
 31
0.0
  0
LINE
  5
65F
102
{ACAD_REACTORS
330
A9C
102
}
330
17
100
AcDbEntity
  8
STEMPEL
100
AcDbLine
 10
304.2793624692235
 20
733.2543590206262
 30
0.0
 11
304.2793624692235
 21
714.1477364650905
 31
0.0
  0
LINE
  5
660
330
17
100
AcDbEntity
  8
STEMPEL
100
AcDbLine
 10
301.7793624692235
 20
733.2543590206262
 30
0.0
 11
301.7793624692235
 21
714.1477364650905
 31
0.0
  0
ARC
  5
661
330
17
100
AcDbEntity
  8
STEMPEL
100
AcDbCircle
 10
317.7793624692236
 20
693.8567364650905
 30
0.0
 40
20.5
100
AcDbArc
 50
154.772855634097
 51
180.0
  0
ARC
  5
662
102
{ACAD_REACTORS
330
A9C
102
}
330
17
100
AcDbEntity
  8
STEMPEL
100
AcDbCircle
 10
317.7793624692236
 20
693.8567364650905
 30
0.0
 40
18.0
100
AcDbArc
 50
154.9928416634576
 51
180.0
  0
ARC
  5
663
102
{ACAD_REACTORS
330
A9C
102
}
330
17
100
AcDbEntity
  8
STEMPEL
100
AcDbCircle
 10
281.7793624692235
 20
680.3254558877616
 30
0.0
 40
18.0
100
AcDbArc
 50
325.2280559680503
 51
0.0
  0
LINE
  5
664
102
{ACAD_REACTORS
330
A9C
102
}
330
17
100
AcDbEntity
  8
STEMPEL
100
AcDbLine
 10
299.7793624692235
 20
693.8567364650905
 30
0.0
 11
299.7793624692235
 21
680.3254558877616
 31
0.0
  0
LINE
  5
665
330
17
100
AcDbEntity
  8
STEMPEL
100
AcDbLine
 10
297.2793624692235
 20
693.8567364650905
 30
0.0
 11
297.2793624692235
 21
680.3254558877616
 31
0.0
  0
ARC
  5
666
330
17
100
AcDbEntity
  8
STEMPEL
100
AcDbCircle
 10
304.7793624692236
 20
664.3567364650905
 30
0.0
 40
12.5
100
AcDbArc
 50
145.2280559680503
 51
180.0
  0
ARC
  5
667
330
17
100
AcDbEntity
  8
STEMPEL
100
AcDbCircle
 10
281.7793624692235
 20
680.3254558877617
 30
0.0
 40
15.5
100
AcDbArc
 50
325.2280559680503
 51
0.0
  0
ARC
  5
668
102
{ACAD_REACTORS
330
A9C
102
}
330
17
100
AcDbEntity
  8
STEMPEL
100
AcDbCircle
 10
304.7793624692236
 20
664.3567364650905
 30
0.0
 40
10.0
100
AcDbArc
 50
145.2280559680503
 51
180.0
  0
ARC
  5
669
102
{ACAD_REACTORS
330
A9C
102
}
330
17
100
AcDbEntity
  8
STEMPEL
100
AcDbCircle
 10
274.2793624692235
 20
714.1477364650905
 30
0.0
 40
29.99973625969209
100
AcDbArc
 50
334.9928416634577
 51
0.0
  0
ARC
  5
66A
330
17
100
AcDbEntity
  8
STEMPEL
100
AcDbCircle
 10
274.2793624692235
 20
714.1477364650905
 30
0.0
 40
27.5
100
AcDbArc
 50
335.156831069967
 51
0.0
  0
LINE
  5
66C
102
{ACAD_REACTORS
330
A9C
102
}
330
17
100
AcDbEntity
  8
STEMPEL
100
AcDbLine
 10
302.1357689297747
 20
194.0201851595637
 30
0.0
 11
294.7793624692236
 21
194.0201851595637
 31
0.0
  0
LINE
  5
66D
330
17
100
AcDbEntity
  8
STEMPEL
100
AcDbLine
 10
294.7793624692238
 20
133.9110328022939
 30
0.0
 11
294.0890027548746
 21
126.0201851595637
 31
0.0
  0
LINE
  5
66E
330
17
100
AcDbEntity
  8
STEMPEL
100
AcDbLine
 10
292.2793624692238
 20
134.0201851595628
 30
0.0
 11
291.5794531610163
 21
126.0201851595637
 31
0.0
  0
LINE
  5
66F
330
17
100
AcDbEntity
  8
MITTEL
100
AcDbLine
 10
228.2793624692236
 20
751.8567364650905
 30
0.0
 11
228.2793624692236
 21
425.4855691818829
 31
0.0
  0
LINE
  5
670
102
{ACAD_REACTORS
330
A9C
102
}
330
17
100
AcDbEntity
  8
STEMPEL
100
AcDbLine
 10
294.7793624692236
 20
664.3567364650905
 30
0.0
 11
294.7793624692236
 21
579.6092559808019
 31
0.0
  0
LINE
  5
671
330
17
100
AcDbEntity
  8
STEMPEL
100
AcDbLine
 10
292.2793624692236
 20
664.3567364650905
 30
0.0
 11
292.2793624692236
 21
578.8784910664271
 31
0.0
  0
DIMENSION
  5
672
330
17
100
AcDbEntity
  8
BEM
100
AcDbDimension
  2
*D5
 10
42.2701207144346
 20
126.0201851595637
 30
0.0
 11
35.77012071443458
 21
156.0201851595637
 31
0.0
 70
    32
 71
     5
 42
59.99999999999992
  3
STANDARD
100
AcDbAlignedDimension
 13
148.7793624692235
 23
186.0201851595636
 33
0.0
 14
162.4697221835727
 24
126.0201851595637
 34
0.0
 50
90.0
100
AcDbRotatedDimension
1001
ACAD
1000
DSTYLE
1002
{
1070
    40
1040
2.0
1070
    41
1040
3.5
1070
    42
1040
1.0
1070
    43
1040
7.0
1070
    44
1040
1.0
1070
    73
1070
     0
1070
    74
1070
     0
1070
    77
1070
     1
1070
    78
1070
     8
1070
    79
1070
     2
1070
   140
1040
3.5
1070
   141
1040
1.5
1070
   146
1040
0.5142857142857144
1070
   147
1040
1.5
1070
   172
1070
     1
1070
   178
1070
     1
1070
   179
1070
     2
1070
   271
1070
     2
1070
   272
1070
     2
1070
   284
1070
     8
1070
   285
1070
     8
1070
   286
1070
     8
1070
   289
1070
     0
1070
   340
1005
297
1002
}
  0
DIMENSION
  5
673
330
17
100
AcDbEntity
  8
BEM
100
AcDbDimension
  2
*D6
 10
42.2701207144346
 20
186.0201851595637
 30
0.0
 11
35.77012071443459
 21
466.4384608123271
 31
0.0
 70
    32
  1
765
 71
     5
 42
560.8365513055267
  3
STANDARD
100
AcDbAlignedDimension
 13
148.7793624692235
 23
746.8567364650905
 33
0.0
 14
148.7793624692235
 24
186.0201851595637
 34
0.0
 50
90.0
100
AcDbRotatedDimension
1001
ACAD
1000
DSTYLE
1002
{
1070
    40
1040
2.0
1070
    41
1040
3.5
1070
    42
1040
1.0
1070
    43
1040
7.0
1070
    44
1040
1.0
1070
    73
1070
     0
1070
    74
1070
     0
1070
    77
1070
     1
1070
    78
1070
     8
1070
    79
1070
     2
1070
   140
1040
3.5
1070
   141
1040
1.5
1070
   146
1040
0.5142857142857144
1070
   147
1040
1.5
1070
   172
1070
     1
1070
   178
1070
     1
1070
   179
1070
     2
1070
   271
1070
     2
1070
   272
1070
     2
1070
   284
1070
     8
1070
   285
1070
     8
1070
   286
1070
     8
1070
   289
1070
     0
1070
   340
1005
297
1002
}
  0
LINE
  5
674
330
17
100
AcDbEntity
  8
STEMPEL
100
AcDbLine
 10
158.2793624692235
 20
746.8567364650905
 30
0.0
 11
157.3558983257155
 21
744.8763612184954
 31
0.0
  0
LINE
  5
675
102
{ACAD_REACTORS
330
A9C
102
}
330
17
100
AcDbEntity
  8
STEMPEL
100
AcDbLine
 10
155.5209176718172
 20
746.8567364650905
 30
0.0
 11
155.090128858124
 21
745.9329068728475
 31
0.0
  0
ARC
  5
676
102
{ACAD_REACTORS
330
A9C
102
}
330
17
100
AcDbEntity
  8
STEMPEL
100
AcDbCircle
 10
182.2793624692235
 20
733.2543590206263
 30
0.0
 40
30.0
100
AcDbArc
 50
155.0000000000065
 51
180.0
  0
ARC
  5
677
330
17
100
AcDbEntity
  8
STEMPEL
100
AcDbCircle
 10
182.2793624692235
 20
733.2543590206263
 30
0.0
 40
27.5
100
AcDbArc
 50
155.0000000000065
 51
180.0
  0
LINE
  5
678
102
{ACAD_REACTORS
330
A9C
102
}
330
17
100
AcDbEntity
  8
STEMPEL
100
AcDbLine
 10
152.2796262095314
 20
714.1477364650905
 30
0.0
 11
152.2793624692235
 21
714.1477364650905
 31
0.0
  0
LINE
  5
679
330
17
100
AcDbEntity
  8
STEMPEL
100
AcDbLine
 10
154.7793624692235
 20
733.2543590206263
 30
0.0
 11
154.7793624692235
 21
714.1477364650905
 31
0.0
  0
LINE
  5
67A
102
{ACAD_REACTORS
330
A9C
102
}
330
17
100
AcDbEntity
  8
STEMPEL
100
AcDbLine
 10
152.2793624692235
 20
733.2543590206263
 30
0.0
 11
152.2793624692235
 21
714.1477364650905
 31
0.0
  0
ARC
  5
67C
330
17
100
AcDbEntity
  8
STEMPEL
100
AcDbCircle
 10
138.7793624692235
 20
693.8567364650905
 30
0.0
 40
20.5
100
AcDbArc
 50
0.0
 51
25.22714436590881
  0
ARC
  5
67D
102
{ACAD_REACTORS
330
A9C
102
}
330
17
100
AcDbEntity
  8
STEMPEL
100
AcDbCircle
 10
138.7793624692235
 20
693.8567364650905
 30
0.0
 40
18.0
100
AcDbArc
 50
0.0
 51
25.00715833655098
  0
ARC
  5
67E
102
{ACAD_REACTORS
330
A9C
102
}
330
17
100
AcDbEntity
  8
STEMPEL
100
AcDbCircle
 10
151.7793624692233
 20
664.3567364650905
 30
0.0
 40
10.0
100
AcDbArc
 50
0.0
 51
34.7719440319497
  0
ARC
  5
67F
330
17
100
AcDbEntity
  8
STEMPEL
100
AcDbCircle
 10
174.7793624692235
 20
680.3254558877617
 30
0.0
 40
15.5
100
AcDbArc
 50
180.0
 51
214.7719440319497
  0
ARC
  5
680
102
{ACAD_REACTORS
330
A9C
102
}
330
17
100
AcDbEntity
  8
STEMPEL
100
AcDbCircle
 10
174.7793624692235
 20
680.3254558877617
 30
0.0
 40
18.0
100
AcDbArc
 50
180.0
 51
214.7719440319497
  0
LINE
  5
681
330
17
100
AcDbEntity
  8
STEMPEL
100
AcDbLine
 10
159.2793624692235
 20
693.8567364650905
 30
0.0
 11
159.2793624692235
 21
680.3254558877617
 31
0.0
  0
LINE
  5
682
102
{ACAD_REACTORS
330
A9C
102
}
330
17
100
AcDbEntity
  8
STEMPEL
100
AcDbLine
 10
156.7793624692235
 20
693.8567364650905
 30
0.0
 11
156.7793624692234
 21
680.3254558877617
 31
0.0
  0
ARC
  5
683
330
17
100
AcDbEntity
  8
STEMPEL
100
AcDbCircle
 10
151.7793624692233
 20
664.3567364650905
 30
0.0
 40
12.5
100
AcDbArc
 50
0.0
 51
34.7719440319497
  0
ARC
  5
684
330
17
100
AcDbEntity
  8
STEMPEL
100
AcDbCircle
 10
182.2793624692235
 20
714.1477364650905
 30
0.0
 40
27.5
100
AcDbArc
 50
180.0
 51
204.8431689300329
  0
ARC
  5
685
102
{ACAD_REACTORS
330
A9C
102
}
330
17
100
AcDbEntity
  8
STEMPEL
100
AcDbCircle
 10
182.2793624692235
 20
714.1477364650905
 30
0.0
 40
29.99973625969209
100
AcDbArc
 50
180.0
 51
205.007158336551
  0
LINE
  5
687
102
{ACAD_REACTORS
330
A9C
102
}
330
17
100
AcDbEntity
  8
STEMPEL
100
AcDbLine
 10
161.7793624692239
 20
194.0201851595637
 30
0.0
 11
154.4229560086727
 21
194.0201851595637
 31
0.0
  0
LINE
  5
688
330
17
100
AcDbEntity
  8
STEMPEL
100
AcDbLine
 10
164.2793624692235
 20
134.0201851595628
 30
0.0
 11
164.9792717774307
 21
126.0201851595637
 31
0.0
  0
LINE
  5
689
330
17
100
AcDbEntity
  8
STEMPEL
100
AcDbLine
 10
161.7793624692235
 20
133.9110328022939
 30
0.0
 11
162.4697221835727
 21
126.0201851595637
 31
0.0
  0
LINE
  5
68A
330
17
100
AcDbEntity
  8
STEMPEL
100
AcDbLine
 10
164.2793624692235
 20
664.3567364650905
 30
0.0
 11
164.2793624692235
 21
588.7529875031212
 31
0.0
  0
LINE
  5
68B
102
{ACAD_REACTORS
330
A9C
102
}
330
17
100
AcDbEntity
  8
STEMPEL
100
AcDbLine
 10
161.7793624692233
 20
664.3567364650905
 30
0.0
 11
161.7793624692234
 21
588.0222225887466
 31
0.0
  0
LINE
  5
68C
330
17
100
AcDbEntity
  8
HILF
100
AcDbLine
 10
160.8295184180417
 20
698.3334118646239
 30
0.0
 11
295.7292065204051
 21
698.3334118646239
 31
0.0
  0
LINE
  5
68D
330
17
100
AcDbEntity
  8
HILF
100
AcDbLine
 10
165.7900407948027
 20
668.0918258692604
 30
0.0
 11
290.7686841436441
 21
668.0918258692604
 31
0.0
  0
LINE
  5
68E
330
17
100
AcDbEntity
  8
HILF
100
AcDbLine
 10
162.0987036873281
 20
675.6939450265909
 30
0.0
 11
294.4600212511191
 21
675.6939450265909
 31
0.0
  0
LINE
  5
68F
102
{ACAD_REACTORS
330
A9C
102
}
330
17
100
AcDbEntity
  8
STEMPEL
100
AcDbLine
 10
307.7793624692235
 20
746.8567364650905
 30
0.0
 11
148.7793624692235
 21
746.8567364650905
 31
0.0
  0
LINE
  5
690
330
17
100
AcDbEntity
  8
STEMPEL
100
AcDbLine
 10
294.0890027548746
 20
126.0201851595637
 30
0.0
 11
162.4697221835727
 21
126.0201851595637
 31
0.0
  0
LINE
  5
691
330
17
100
AcDbEntity
  8
HILF
100
AcDbLine
 10
289.7698128753652
 20
134.0201851595637
 30
0.0
 11
166.7889120630819
 21
134.0201851595637
 31
0.0
  0
DIMENSION
  5
692
330
17
100
AcDbEntity
  8
BEM
100
AcDbDimension
  2
*D7
 10
294.7793624692236
 20
103.7260374348971
 30
0.0
 11
228.2793624692236
 21
110.226037434897
 31
0.0
 70
    32
  1
%%c<>
 71
     5
 42
133.0
  3
STANDARD
100
AcDbAlignedDimension
 13
161.7793624692235
 23
133.9110328022939
 33
0.0
 14
294.7793624692236
 24
134.0201851595637
 34
0.0
100
AcDbRotatedDimension
1001
ACAD
1000
DSTYLE
1002
{
1070
    40
1040
2.0
1070
    41
1040
3.5
1070
    42
1040
1.0
1070
    43
1040
7.0
1070
    44
1040
1.0
1070
    73
1070
     0
1070
    74
1070
     0
1070
    77
1070
     1
1070
    78
1070
     8
1070
    79
1070
     2
1070
   140
1040
3.5
1070
   141
1040
1.5
1070
   146
1040
0.5142857142857144
1070
   147
1040
1.5
1070
   172
1070
     1
1070
   178
1070
     1
1070
   179
1070
     2
1070
   271
1070
     2
1070
   272
1070
     2
1070
   284
1070
     8
1070
   285
1070
     8
1070
   286
1070
     8
1070
   289
1070
     0
1070
   340
1005
297
1002
}
  0
TEXT
  5
693
330
17
100
AcDbEntity
  8
TEXT
 62
     1
100
AcDbText
 10
214.4446862122748
 20
628.2701413541142
 30
0.0
 40
7.0
  1
DN125
 50
90.0
 41
0.8
  7
GREEKS
100
AcDbText
  0
LINE
  5
694
330
17
100
AcDbEntity
  8
STEMPEL
100
AcDbLine
 10
484.0
 20
830.0000000000002
 30
0.0
 11
484.0
 21
470.0000000000001
 31
0.0
  0
LINE
  5
695
330
17
100
AcDbEntity
  8
STEMPEL
100
AcDbLine
 10
484.0
 20
470.0000000000001
 30
0.0
 11
584.0
 21
470.0000000000001
 31
0.0
  0
LINE
  5
696
330
17
100
AcDbEntity
  8
STEMPEL
100
AcDbLine
 10
484.0000000000001
 20
566.0000000000002
 30
0.0
 11
584.0000000000001
 21
566.0000000000001
 31
0.0
  0
LINE
  5
697
330
17
100
AcDbEntity
  8
STEMPEL
100
AcDbLine
 10
484.0
 20
650.0
 30
0.0
 11
584.0
 21
650.0
 31
0.0
  0
LINE
  5
698
330
17
100
AcDbEntity
  8
STEMPEL
100
AcDbLine
 10
484.0000000000003
 20
752.0000000000002
 30
0.0
 11
554.0
 21
752.0000000000002
 31
0.0
  0
LINE
  5
699
330
17
100
AcDbEntity
  8
STEMPEL
100
AcDbLine
 10
564.0
 20
566.0
 30
0.0
 11
564.0
 21
470.0000000000001
 31
0.0
  0
LINE
  5
69A
330
17
100
AcDbEntity
  8
STEMPEL
100
AcDbLine
 10
554.0
 20
830.0000000000002
 30
0.0
 11
554.0
 21
566.0000000000001
 31
0.0
  0
LINE
  5
69B
330
17
100
AcDbEntity
  8
STEMPEL
100
AcDbLine
 10
514.0
 20
830.0000000000002
 30
0.0
 11
514.0
 21
566.0000000000002
 31
0.0
  0
LINE
  5
69C
330
17
100
AcDbEntity
  8
VOLL
100
AcDbLine
 10
484.0
 20
484.0000000000002
 30
0.0
 11
584.0
 21
484.0000000000001
 31
0.0
  0
LINE
  5
69D
330
17
100
AcDbEntity
  8
VOLL
100
AcDbLine
 10
484.0000000000001
 20
524.0000000000001
 30
0.0
 11
584.0000000000001
 21
524.0000000000001
 31
0.0
  0
LINE
  5
69E
330
17
100
AcDbEntity
  8
VOLL
100
AcDbLine
 10
484.0000000000001
 20
544.0000000000002
 30
0.0
 11
584.0000000000001
 21
544.0000000000001
 31
0.0
  0
LINE
  5
69F
330
17
100
AcDbEntity
  8
VOLL
100
AcDbLine
 10
514.0
 20
584.0000000000002
 30
0.0
 11
554.0
 21
584.0000000000002
 31
0.0
  0
LINE
  5
6A0
330
17
100
AcDbEntity
  8
VOLL
100
AcDbLine
 10
484.0000000000002
 20
610.0000000000002
 30
0.0
 11
554.0
 21
610.0000000000001
 31
0.0
  0
LINE
  5
6A1
330
17
100
AcDbEntity
  8
HILF
100
AcDbLine
 10
494.0
 20
470.0000000000001
 30
0.0
 11
494.0
 21
566.0000000000002
 31
0.0
  0
LINE
  5
6A2
330
17
100
AcDbEntity
  8
HILF
100
AcDbLine
 10
504.0
 20
470.0000000000001
 30
0.0
 11
504.0
 21
566.0000000000002
 31
0.0
  0
LINE
  5
6A3
330
17
100
AcDbEntity
  8
HILF
100
AcDbLine
 10
514.0
 20
470.0000000000001
 30
0.0
 11
514.0
 21
566.0000000000002
 31
0.0
  0
LINE
  5
6A4
330
17
100
AcDbEntity
  8
HILF
100
AcDbLine
 10
524.0
 20
470.0000000000001
 30
0.0
 11
524.0
 21
566.0000000000002
 31
0.0
  0
LINE
  5
6A5
330
17
100
AcDbEntity
  8
HILF
100
AcDbLine
 10
534.0
 20
470.0000000000001
 30
0.0
 11
534.0
 21
566.0000000000002
 31
0.0
  0
LINE
  5
6A6
330
17
100
AcDbEntity
  8
HILF
100
AcDbLine
 10
544.0
 20
470.0000000000001
 30
0.0
 11
544.0
 21
566.0000000000002
 31
0.0
  0
LINE
  5
6A7
330
17
100
AcDbEntity
  8
HILF
100
AcDbLine
 10
554.0
 20
470.0000000000001
 30
0.0
 11
554.0
 21
566.0000000000002
 31
0.0
  0
LINE
  5
6A8
330
17
100
AcDbEntity
  8
HILF
100
AcDbLine
 10
524.0
 20
566.0000000000002
 30
0.0
 11
524.0
 21
650.0
 31
0.0
  0
LINE
  5
6A9
330
17
100
AcDbEntity
  8
HILF
100
AcDbLine
 10
534.0
 20
566.0000000000002
 30
0.0
 11
534.0
 21
650.0
 31
0.0
  0
LINE
  5
6AA
330
17
100
AcDbEntity
  8
HILF
100
AcDbLine
 10
544.0
 20
566.0000000000002
 30
0.0
 11
544.0
 21
650.0
 31
0.0
  0
LINE
  5
6AB
330
17
100
AcDbEntity
  8
HILF
100
AcDbLine
 10
509.9624175243587
 20
654.7736801096948
 30
0.0
 11
509.9624175243587
 21
746.6297842514811
 31
0.0
  0
LINE
  5
6AC
330
17
100
AcDbEntity
  8
HILF
100
AcDbLine
 10
524.0
 20
654.7736801096948
 30
0.0
 11
524.0
 21
746.6297842514811
 31
0.0
  0
LINE
  5
6AD
330
17
100
AcDbEntity
  8
HILF
100
AcDbLine
 10
534.0
 20
654.7736801096948
 30
0.0
 11
534.0
 21
746.6297842514811
 31
0.0
  0
LINE
  5
6AE
330
17
100
AcDbEntity
  8
HILF
100
AcDbLine
 10
544.0
 20
654.7736801096948
 30
0.0
 11
544.0
 21
746.6297842514811
 31
0.0
  0
LINE
  5
6AF
330
17
100
AcDbEntity
  8
VOLL
100
AcDbLine
 10
534.0
 20
752.0000000000002
 30
0.0
 11
534.0
 21
830.0000000000002
 31
0.0
  0
LINE
  5
6B0
330
17
100
AcDbEntity
  8
HILF
100
AcDbLine
 10
510.2201636304418
 20
756.7238616296995
 30
0.0
 11
510.2201636304418
 21
824.858883932673
 31
0.0
  0
LINE
  5
6B1
330
17
100
AcDbEntity
  8
HILF
100
AcDbLine
 10
579.1060174197169
 20
654.7736801096948
 30
0.0
 11
579.1060174197169
 21
824.858883932673
 31
0.0
  0
TEXT
  5
6B2
330
17
100
AcDbEntity
  8
TEXT
100
AcDbText
 10
575.3261810501587
 20
492.3998239263297
 30
0.0
 40
4.0
  1
Änderung
 50
90.0
 41
0.8
  7
GREEKS
 72
     1
 11
575.3261810501587
 21
503.1426810691868
 31
0.0
100
AcDbText
  0
TEXT
  5
6B3
330
17
100
AcDbEntity
  8
TEXT
100
AcDbText
 10
491.5379104912911
 20
573.5163572150378
 30
0.0
 40
5.0
  1
Maßstab
 50
90.0
 41
0.8
  7
GREEKS
100
AcDbText
  0
TEXT
  5
6B4
330
17
100
AcDbEntity
  8
TEXT
100
AcDbText
 10
491.4510671988221
 20
654.8779403809011
 30
0.0
 40
5.0
  1
Benennung
 50
90.0
 41
0.8
  7
GREEKS
100
AcDbText
  0
TEXT
  5
6B5
330
17
100
AcDbEntity
  8
TEXT
100
AcDbText
 10
491.6867965462865
 20
756.1787549576343
 30
0.0
 40
5.0
  1
Zeichnungs Nr.
 50
90.0
 41
0.8
  7
GREEKS
100
AcDbText
  0
TEXT
  5
6B6
330
17
100
AcDbEntity
  8
TEXT
100
AcDbText
 10
563.1543942980695
 20
654.742238391136
 30
0.0
 40
5.0
  1
Bauvorhaben
 50
90.0
 41
0.8
  7
GREEKS
100
AcDbText
  0
TEXT
  5
6B7
330
17
100
AcDbEntity
  8
TEXT
100
AcDbText
 10
520.8188176290003
 20
756.7238616296995
 30
0.0
 40
5.0
  1
Ersatz für:
 50
90.0
 41
0.8
  7
GREEKS
100
AcDbText
  0
TEXT
  5
6B8
330
17
100
AcDbEntity
  8
TEXT
100
AcDbText
 10
580.3453415397281
 20
478.2664110704577
 30
0.0
 40
4.0
  1
Index
 50
180.0
 41
0.8
  7
GREEKS
100
AcDbText
  0
TEXT
  5
6B9
330
17
100
AcDbEntity
  8
TEXT
100
AcDbText
 10
575.3284373066019
 20
529.8990113186979
 30
0.0
 40
4.0
  1
Tag
 50
90.0
 41
0.8
  7
GREEKS
 72
     1
 11
575.3284373066019
 21
533.6323446520313
 31
0.0
100
AcDbText
  0
TEXT
  5
6BA
330
17
100
AcDbEntity
  8
TEXT
100
AcDbText
 10
575.4067578303359
 20
548.9795678138293
 30
0.0
 40
4.0
  1
Name
 50
90.0
 41
0.8
  7
GREEKS
 72
     1
 11
575.4067578303359
 21
555.3033773376388
 31
0.0
100
AcDbText
  0
TEXT
  5
6BB
330
17
100
AcDbEntity
  8
TEXT
100
AcDbText
 10
520.6811949877008
 20
592.3311673153651
 30
0.0
 40
4.0
  1
Tag
 50
90.0
 41
0.8
  7
GREEKS
100
AcDbText
  0
TEXT
  5
6BC
330
17
100
AcDbEntity
  8
TEXT
100
AcDbText
 10
520.6903890808478
 20
622.4626584226296
 30
0.0
 40
4.0
  1
Name
 50
90.0
 41
0.8
  7
GREEKS
100
AcDbText
  0
TEXT
  5
6BD
330
17
100
AcDbEntity
  8
TEXT
100
AcDbText
 10
530.3700963038204
 20
567.5836127167616
 30
0.0
 40
4.0
  1
Gez.
 50
90.0
 41
0.8
  7
GREEKS
100
AcDbText
  0
TEXT
  5
6BE
330
17
100
AcDbEntity
  8
TEXT
100
AcDbText
 10
540.3107370857163
 20
567.5515086571673
 30
0.0
 40
4.0
  1
Gepr.
 50
90.0
 41
0.8
  7
GREEKS
100
AcDbText
  0
TEXT
  5
6BF
330
17
100
AcDbEntity
  8
TEXT
100
AcDbText
 10
550.470536103502
 20
567.6006777387304
 30
0.0
 40
4.0
  1
Norm.
 50
90.0
 41
0.8
  7
GREEKS
100
AcDbText
  0
TEXT
  5
6C0
330
17
100
AcDbEntity
  8
TEXT
100
AcDbText
 10
541.9258382212141
 20
757.2400861497007
 30
0.0
 40
5.0
  1
ersetzt durch:
 50
90.0
 41
0.8
  7
GREEKS
100
AcDbText
  0
TEXT
  5
6C1
330
17
100
AcDbEntity
  8
TEXT
100
AcDbText
 10
521.0331740347628
 20
569.5106266687155
 30
0.0
 40
4.0
  1
2011
 50
90.0
 41
0.8
  7
GREEKS
100
AcDbText
  0
LINE
  5
6C2
330
17
100
AcDbEntity
  8
HILF
100
AcDbLine
 10
594.0
 20
0.0
 30
0.0
 11
594.0
 21
840.0
 31
0.0
  0
LINE
  5
6C3
330
17
100
AcDbEntity
  8
HILF
100
AcDbLine
 10
594.0
 20
840.0
 30
0.0
 11
0.0
 21
840.0
 31
0.0
  0
LINE
  5
6C4
330
17
100
AcDbEntity
  8
HILF
100
AcDbLine
 10
0.0
 20
840.0
 30
0.0
 11
0.0
 21
0.0
 31
0.0
  0
LINE
  5
6C5
330
17
100
AcDbEntity
  8
STEMPEL
100
AcDbLine
 10
10.0
 20
830.0
 30
0.0
 11
10.0
 21
40.0
 31
0.0
  0
LINE
  5
6C6
330
17
100
AcDbEntity
  8
STEMPEL
100
AcDbLine
 10
584.0
 20
40.0
 30
0.0
 11
584.0
 21
830.0
 31
0.0
  0
LINE
  5
6C7
330
17
100
AcDbEntity
  8
STEMPEL
100
AcDbLine
 10
584.0
 20
830.0
 30
0.0
 11
10.0
 21
830.0
 31
0.0
  0
TEXT
  5
6C8
330
17
100
AcDbEntity
  8
TEXT
 62
     1
100
AcDbText
 10
506.6265692434746
 20
655.0390572473189
 30
0.0
 40
7.0
  1
LORO-FLEX 
 50
90.0
 41
0.8
  7
GREEKS
100
AcDbText
  0
TEXT
  5
6C9
330
17
100
AcDbEntity
  8
TEXT
 62
     1
100
AcDbText
 10
506.6265692434746
 20
767.1961422184136
 30
0.0
 40
7.0
  1
21820125W
 50
90.0
 41
0.8
  7
GREEKS
 72
     1
 11
506.6265692434746
 21
790.1294755517469
 31
0.0
100
AcDbText
  0
TEXT
  5
6CA
330
17
100
AcDbEntity
  8
TEXT
100
AcDbText
 10
491.16010388621
 20
618.509022641583
 30
0.0
 40
5.0
  1
Zul.Abw.
 50
90.0
 41
0.8
  7
GREEKS
100
AcDbText
  0
TEXT
  5
6CB
330
17
100
AcDbEntity
  8
TEXT
100
AcDbText
 10
530.8491412387978
 20
590.1565237511869
 30
0.0
 40
4.0
  1
05.04.
 50
90.0
 41
0.8
  7
GREEKS
 72
     1
 11
530.8491412387978
 21
597.1660475607107
 31
0.0
100
AcDbText
  0
TEXT
  5
6CC
330
17
100
AcDbEntity
  8
TEXT
100
AcDbText
 10
531.0570234483454
 20
624.023175322661
 30
0.0
 40
4.0
  1
Koeh
 50
90.0
 41
0.8
  7
GREEKS
 72
     1
 11
531.0570234483454
 21
629.2803181798038
 31
0.0
100
AcDbText
  0
TEXT
  5
6CD
330
17
100
AcDbEntity
  8
TEXT
100
AcDbText
 10
521.8997861689248
 20
654.7736801096948
 30
0.0
 40
5.0
  1
Rohr- und Dachdurchführung
 50
90.0
 41
0.8
  7
GREEKS
100
AcDbText
  0
TEXT
  5
6CE
330
17
100
AcDbEntity
  8
TEXT
100
AcDbText
 10
541.4090266215395
 20
654.7736801096948
 30
0.0
 40
5.0
  1
EDV-Art.Nr. 21820.125X
 50
90.0
 41
0.8
  7
GREEKS
100
AcDbText
  0
TEXT
  5
6CF
330
17
100
AcDbEntity
  8
TEXT
100
AcDbText
 10
550.6887237520849
 20
654.7736801096948
 30
0.0
 40
4.0
  1
21820125W.DWG
 50
90.0
 41
0.8
  7
GREEKS
100
AcDbText
  0
TEXT
  5
6D0
330
17
100
AcDbEntity
  8
TEXT
 62
     1
100
AcDbText
 10
506.5292291158502
 20
582.7034912034222
 30
0.0
 40
7.0
  1
1:2
 50
90.0
 41
0.8
  7
GREEKS
100
AcDbText
  0
TEXT
  5
6D1
330
17
100
AcDbEntity
  8
TEXT
100
AcDbText
 10
479.8856414948956
 20
470.0441139350127
 30
0.0
 40
5.0
  1
Erstellt mit AUTOCAD 2004
 50
90.0
 41
0.8
  7
GREEKS
100
AcDbText
  0
INSERT
  5
6D2
330
17
100
AcDbEntity
  8
HILF
100
AcDbBlockReference
  2
LORO
 10
557.0194069970105
 20
573.0624985962354
 30
0.0
 41
2.0
 42
2.0
 43
2.0
 50
90.0
  0
LINE
  5
6D3
330
17
100
AcDbEntity
  8
BEM
100
AcDbLine
 10
594.0
 20
456.0
 30
0.0
 11
584.0
 21
456.0
 31
0.0
  0
LINE
  5
6D4
330
17
100
AcDbEntity
  8
HILF
100
AcDbLine
 10
594.0
 20
0.0
 30
0.0
 11
0.0
 21
0.0
 31
0.0
  0
LINE
  5
6D5
330
17
100
AcDbEntity
  8
STEMPEL
100
AcDbLine
 10
584.0
 20
40.0
 30
0.0
 11
10.0
 21
40.0
 31
0.0
  0
LINE
  5
6D6
330
17
100
AcDbEntity
  8
HILF
100
AcDbLine
 10
297.0
 20
0.0
 30
0.0
 11
297.0
 21
40.0
 31
0.0
  0
TEXT
  5
6D7
330
17
100
AcDbEntity
  8
BEM
100
AcDbText
 10
583.8320989200114
 20
837.3022923857165
 30
0.0
 40
4.0
  1
Diese Zeichnung ist urheberrechtlich geschützt und bleibt unser Eigentum. Sie darf weder ganz noch teilweise verfielfältigt und nicht an Dritte weitergegeben werden.
 50
180.0
 41
0.8
  7
GREEKS
100
AcDbText
  0
TEXT
  5
6D9
330
17
100
AcDbEntity
  8
TEXT
 62
     1
100
AcDbText
 10
335.2749409284828
 20
674.6359999258035
 30
0.0
 40
7.0
  1
EDV-Art.Nr. 21801.125X
 41
0.8
  7
GREEKS
100
AcDbText
  0
TEXT
  5
6DA
330
17
100
AcDbEntity
  8
TEXT
 62
     1
100
AcDbText
 10
335.2749409284828
 20
687.2751769960272
 30
0.0
 40
7.0
  1
LORO-FLEX Lüftungsrohr DN125
 41
0.8
  7
GREEKS
100
AcDbText
  0
LINE
  5
6DB
330
17
100
AcDbEntity
  8
HILF
100
AcDbLine
 10
474.4953439618081
 20
684.8830872423603
 30
0.0
 11
330.0911347516363
 21
684.8830872423603
 31
0.0
  0
LINE
  5
6DC
330
17
100
AcDbEntity
  8
HILF
100
AcDbLine
 10
330.0911347516363
 20
684.8830872423603
 30
0.0
 11
307.4023651222891
 21
667.3862986027174
 31
0.0
  0
TEXT
  5
6DD
330
17
100
AcDbEntity
  8
TEXT
100
AcDbText
 10
531.8997861689248
 20
654.7736801096948
 30
0.0
 40
5.0
  1
DN125, einteilig
 50
90.0
 41
0.8
  7
GREEKS
100
AcDbText
  0
TEXT
  5
9A4
330
17
100
AcDbEntity
  8
TEXT
100
AcDbText
 10
504.3450101094537
 20
612.9198097350654
 30
0.0
 40
4.0
  1
DIN EN1124-3
 50
90.0
 41
0.8
  7
GREEKS
 72
     1
 11
504.3450101094537
 21
629.9102859255416
 31
0.0
100
AcDbText
  0
TEXT
  5
9D2
330
17
100
AcDbEntity
  8
TEXT
 62
     1
100
AcDbText
 10
354.7947606916043
 20
437.2490617141206
 30
0.0
 40
7.0
  1
EDV-Art.Nr. 00911.150X
 41
0.8
  7
GREEKS
100
AcDbText
  0
TEXT
  5
9D3
330
17
100
AcDbEntity
  8
TEXT
 62
     1
100
AcDbText
 10
354.8049463374223
 20
450.9812732005594
 30
0.0
 40
7.0
  1
Dichtelement DN150
 41
0.8
  7
GREEKS
100
AcDbText
  0
LINE
  5
9D4
330
17
100
AcDbEntity
  8
TEXT
 62
     2
100
AcDbLine
 10
353.8058745552807
 20
447.6133454144285
 30
0.0
 11
458.61703710658
 21
447.6133454144285
 31
0.0
  0
LINE
  5
9D5
330
17
100
AcDbEntity
  8
TEXT
 62
     2
100
AcDbLine
 10
353.8058745552807
 20
447.6133454144285
 30
0.0
 11
325.8344099617386
 21
406.9862085090681
 31
0.0
  0
TEXT
  5
9D6
330
17
100
AcDbEntity
  8
TEXT
 62
     1
100
AcDbText
 10
434.5321528620347
 20
329.8649314674524
 30
0.0
 40
7.0
  1
EDV-Art.Nr. 21805.150X
 41
0.8
  7
GREEKS
100
AcDbText
  0
TEXT
  5
9D7
330
17
100
AcDbEntity
  8
TEXT
 62
     1
100
AcDbText
 10
434.5321528620347
 20
343.5733596937591
 30
0.0
 40
7.0
  1
Losflansch DN150
 41
0.8
  7
GREEKS
100
AcDbText
  0
LINE
  5
9D8
330
17
100
AcDbEntity
  8
TEXT
 62
     2
100
AcDbLine
 10
433.2852716861989
 20
339.6852630130823
 30
0.0
 11
540.0660417172527
 21
339.6852630130823
 31
0.0
  0
LINE
  5
9D9
330
17
100
AcDbEntity
  8
TEXT
 62
     2
100
AcDbLine
 10
433.2852716861989
 20
339.6852630130823
 30
0.0
 11
396.1553883609044
 21
362.1706206172236
 31
0.0
  0
TEXT
  5
9DA
330
17
100
AcDbEntity
  8
TEXT
 62
     1
100
AcDbText
 10
433.561167850773
 20
314.3005664525166
 30
0.0
 40
7.0
  1
Festflansch DN150
 41
0.8
  7
GREEKS
100
AcDbText
  0
LINE
  5
9DB
330
17
100
AcDbEntity
  8
TEXT
 62
     2
100
AcDbLine
 10
433.2852716861989
 20
310.4124697718398
 30
0.0
 11
539.2672554449347
 21
310.4124697718398
 31
0.0
  0
TEXT
  5
9DC
330
17
100
AcDbEntity
  8
TEXT
 62
     1
100
AcDbText
 10
433.561167850773
 20
300.5843148003668
 30
0.0
 40
7.0
  1
EDV-Art.Nr. 21806.150X
 41
0.8
  7
GREEKS
100
AcDbText
  0
LINE
  5
9DD
330
17
100
AcDbEntity
  8
TEXT
 62
     2
100
AcDbLine
 10
433.2852716861989
 20
310.4124697718398
 30
0.0
 11
387.6983129019395
 21
354.1742565360261
 31
0.0
  0
LINE
  5
A3E
330
17
100
AcDbEntity
  8
TEXT
 62
     2
100
AcDbLine
 10
322.685593699774
 20
402.4127122254951
 30
0.0
 11
311.6380858362049
 21
386.3667660815136
 31
0.0
  0
TEXT
  5
A3F
330
17
100
AcDbEntity
  8
TEXT
 62
     1
100
AcDbText
 10
531.3613401396042
 20
790.1294755517469
 30
0.0
 40
7.0
  1

 50
90.0
 41
0.8
  7
GREEKS
 72
     1
 11
531.3613401396042
 21
790.1294755517469
 31
0.0
100
AcDbText
  0
HATCH
  5
A9C
330
17
100
AcDbEntity
  8
SCHRAFF
100
AcDbHatch
 10
0.0
 20
0.0
 30
0.0
210
0.0
220
0.0
230
1.0
  2
HONEY
 70
     0
 71
     1
 91
        4
 92
        5
 93
        6
 72
     1
 10
294.7793624692236
 20
194.0201851595637
 11
302.1357689297744
 21
194.0201851595637
 72
     1
 10
302.1357689297744
 20
194.0201851595637
 11
304.2793624692237
 21
186.0201851595627
 72
     1
 10
304.2793624692237
 20
186.0201851595627
 11
306.2793624692236
 21
186.0201851595626
 72
     1
 10
306.2793624692236
 20
186.0201851595626
 11
306.2793624692235
 21
567.5442566151868
 72
     4
 94
        3
 73
     0
 74
     0
 95
        8
 96
        4
 40
149.6082059030416
 40
149.6082059030416
 40
149.6082059030416
 40
149.6082059030416
 40
161.3924139022538
 40
161.3924139022538
 40
161.3924139022538
 40
161.3924139022538
 10
306.2793624692235
 20
567.5442566151868
 10
302.4460291358902
 20
566.2598574504763
 10
298.6126958025569
 20
564.9895004394381
 10
294.7793624692236
 20
563.8408420935609
 72
     1
 10
294.7793624692236
 20
563.8408420935609
 11
294.7793624692236
 21
194.0201851595637
 97
        6
330
644
330
658
330
66C
330
654
330
653
330
64B
 92
        5
 93
        6
 72
     4
 94
        3
 73
     0
 74
     0
 95
        8
 96
        4
 40
1.537070608592969
 40
1.537070608592969
 40
1.537070608592969
 40
1.537070608592969
 40
13.32127860780502
 40
13.32127860780502
 40
13.32127860780502
 40
13.32127860780502
 10
161.7793624692234
 20
572.2538087015054
 10
157.9460291358901
 20
571.1051503556282
 10
154.1126958025568
 20
569.83479334459
 10
150.2793624692236
 20
568.5503941798795
 72
     1
 10
150.2793624692236
 20
568.5503941798796
 11
150.2793624692235
 21
186.0201851595636
 72
     1
 10
150.2793624692235
 20
186.0201851595637
 11
152.2793624692233
 21
186.0201851595636
 72
     1
 10
152.2793624692233
 20
186.0201851595636
 11
154.4229560086725
 21
194.0201851595637
 72
     1
 10
154.4229560086725
 20
194.0201851595637
 11
161.7793624692235
 21
194.0201851595637
 72
     1
 10
161.7793624692235
 20
194.0201851595637
 11
161.7793624692234
 21
572.2538087015055
 97
        6
330
644
330
649
330
651
330
652
330
687
330
655
 92
        5
 93
       13
 72
     2
 10
151.7793624692232
 20
664.3567364650906
 40
10.00000000000007
 50
359.9999999999993
 51
394.7719440319474
 73
     1
 72
     2
 10
174.7793624692234
 20
680.3254558877617
 40
18.00000000000002
 50
145.2280559680515
 51
180.0
 73
     0
 72
     1
 10
156.7793624692234
 20
680.3254558877617
 11
156.7793624692235
 21
693.8567364650905
 72
     2
 10
138.7793624692234
 20
693.8567364650905
 40
18.00000000000011
 50
0.0
 51
25.00715833655223
 73
     1
 72
     2
 10
182.2793624692237
 20
714.1477364650905
 40
29.99973625969223
 50
154.9928416634478
 51
180.0000000000002
 73
     0
 72
     1
 10
152.2796262095315
 20
714.1477364650905
 11
152.2793624692235
 21
714.1477364650905
 72
     1
 10
152.2793624692235
 20
714.1477364650905
 11
152.2793624692235
 21
733.2543590206263
 72
     2
 10
182.2793624692236
 20
733.2543590206267
 40
30.00000000000003
 50
179.9999999999993
 51
204.9999999999997
 73
     0
 72
     1
 10
155.090128858124
 20
745.9329068728475
 11
155.5209176718172
 21
746.8567364650905
 72
     1
 10
155.5209176718172
 20
746.8567364650905
 11
150.2793624692234
 21
746.8567364650905
 72
     1
 10
150.2793624692234
 20
746.8567364650905
 11
150.2793624692235
 21
584.3188080671206
 72
     4
 94
        3
 73
     0
 74
     0
 95
        8
 96
        4
 40
1.537070608592857
 40
1.537070608592857
 40
1.537070608592857
 40
1.537070608592857
 40
13.321278607805
 40
13.321278607805
 40
13.321278607805
 40
13.321278607805
 10
150.2793624692235
 20
584.3188080671206
 10
154.1126958025568
 20
585.6032072318312
 10
157.9460291358902
 20
586.8735642428694
 10
161.7793624692235
 20
588.0222225887466
 72
     1
 10
161.7793624692234
 20
588.0222225887466
 11
161.7793624692233
 21
664.3567364650905
 97
       13
330
67E
330
680
330
682
330
67D
330
685
330
678
330
67A
330
676
330
675
330
68F
330
64D
330
645
330
68B
 92
        5
 93
       13
 72
     1
 10
306.2793624692235
 20
746.8567364650906
 11
301.0378072666296
 21
746.8567364650907
 72
     1
 10
301.0378072666296
 20
746.8567364650907
 11
301.4685960803229
 21
745.9329068728475
 72
     2
 10
274.2793624692235
 20
733.2543590206262
 40
30.00000000000007
 50
334.9999999999994
 51
360.0
 73
     0
 72
     1
 10
304.2793624692235
 20
733.2543590206262
 11
304.2793624692235
 21
714.1477364650905
 72
     1
 10
304.2793624692235
 20
714.1477364650905
 11
304.2790987289156
 21
714.1477364650905
 72
     2
 10
274.2793624692236
 20
714.1477364650905
 40
29.99973625969202
 50
360.0
 51
385.0071583365424
 73
     0
 72
     2
 10
317.7793624692236
 20
693.8567364650905
 40
18.00000000000002
 50
154.9928416634309
 51
180.0
 73
     1
 72
     1
 10
299.7793624692235
 20
693.8567364650905
 11
299.7793624692235
 21
680.3254558877616
 72
     2
 10
281.7793624692235
 20
680.3254558877616
 40
18.00000000000003
 50
359.9999999999996
 51
394.7719440319494
 73
     0
 72
     2
 10
304.7793624692236
 20
664.3567364650903
 40
10.00000000000007
 50
145.2280559680533
 51
180.0
 73
     1
 72
     1
 10
294.7793624692236
 20
664.3567364650903
 11
294.7793624692236
 21
579.6092559808019
 72
     4
 94
        3
 73
     0
 74
     0
 95
        8
 96
        4
 40
149.6082059030416
 40
149.6082059030416
 40
149.6082059030416
 40
149.6082059030416
 40
161.3924139022538
 40
161.3924139022538
 40
161.3924139022538
 40
161.3924139022538
 10
294.7793624692236
 20
579.6092559808019
 10
298.6126958025569
 20
580.7579143266791
 10
302.4460291358902
 20
582.0282713377173
 10
306.2793624692235
 20
583.3126705024278
 72
     1
 10
306.2793624692235
 20
583.3126705024277
 11
306.2793624692235
 21
746.8567364650906
 97
       13
330
68F
330
659
330
65C
330
65F
330
65E
330
669
330
662
330
664
330
663
330
668
330
670
330
645
330
64E
 75
     0
 76
     1
 52
0.0
 41
25.0
 77
     0
 78
     3
 53
0.0
 43
10.18058490253406
 44
0.0
 45
4.6875
 46
2.706329374999999
 79
     2
 49
3.125
 49
-6.25
 53
120.0
 43
10.18058490253406
 44
0.0
 45
-4.687499989758061
 46
2.706329392739557
 79
     2
 49
3.124999999999999
 49
-6.249999999999999
 53
60.0
 43
10.18058490253406
 44
0.0
 45
0.0000000102419385
 46
5.412658767739556
 79
     2
 49
-6.25
 49
3.125
 47
1.145231000100166
 98
        4
 10
300.518431322309
 20
480.14480238803
 10
157.2819137290248
 20
516.7921953717748
 10
156.136022389684
 20
600.39405737644
 10
301.6643263718611
 20
612.9915997536884
  0
HATCH
  5
AC3
330
17
100
AcDbEntity
  8
SCHRAFF
100
AcDbHatch
 10
0.0
 20
0.0
 30
0.0
210
0.0
220
0.0
230
1.0
  2
_USER
 70
     0
 71
     1
 91
        4
 92
        7
 72
     0
 73
     1
 93
        6
 10
377.2954829057604
 20
364.0872236504251
 10
377.2954829057604
 20
358.0872236504251
 10
402.2793624692234
 20
358.0872236504251
 10
403.2793624692234
 20
359.087223650425
 10
403.2793624692234
 20
363.087223650425
 10
402.2793624692234
 20
364.087223650425
 97
        6
330
5D3
330
5CB
330
5D1
330
5CC
330
5D4
330
5D2
 92
        7
 72
     0
 73
     1
 93
        6
 10
338.2793624692238
 20
364.087223650425
 10
337.2793624692239
 20
363.087223650425
 10
337.2793624692239
 20
359.087223650425
 10
338.2793624692238
 20
358.087223650425
 10
363.2793624692234
 20
358.087223650425
 10
363.2793624692234
 20
364.087223650425
 97
        6
330
5CB
330
5D6
330
5D7
330
5D5
330
5CA
330
5D0
 92
        7
 72
     0
 73
     1
 93
        6
 10
93.27936246922376
 20
364.087223650425
 10
93.27936246922376
 20
358.0872236504251
 10
118.2793624692233
 20
358.087223650425
 10
119.2793624692233
 20
359.087223650425
 10
119.2793624692233
 20
363.087223650425
 10
118.2793624692233
 20
364.087223650425
 97
        6
330
5D9
330
5CE
330
5DF
330
5C5
330
5DA
330
5D8
 92
        7
 72
     0
 73
     1
 93
        6
 10
54.27936246922353
 20
364.0872236504251
 10
53.27936246922354
 20
363.087223650425
 10
53.27936246922354
 20
359.087223650425
 10
54.2793624692235
 20
358.087223650425
 10
79.27798113437711
 20
358.0872236504251
 10
79.27798113437711
 20
364.087223650425
 97
        6
330
5CE
330
5DC
330
5DD
330
5DB
330
5CF
330
5DE
 75
     0
 76
     0
 52
45.0
 41
5.0
 77
     0
 78
     1
 53
45.0
 43
10.18058490253406
 44
0.0
 45
-3.535533905932737
 46
3.535533905932737
 79
     0
 47
0.4007275170282744
 98
        4
 10
386.4515608535739
 20
361.3670975585055
 10
356.3876130942813
 20
362.5692802984977
 10
109.4623971622204
 20
361.7678266477296
 10
69.3771354480059
 20
361.7678266477296
  0
DIMENSION
  5
B33
330
17
100
AcDbEntity
  8
BEM
100
AcDbDimension
  2
*D10
 10
25.64896918398017
 20
126.0201851595637
 30
0.0
 11
20.14896918398017
 21
436.4384608123272
 31
0.0
 70
    32
  1
825
 71
     5
 42
620.8365513055268
  3
STANDARD
100
AcDbAlignedDimension
 13
148.7793624692235
 23
746.8567364650905
 33
0.0
 14
162.4697221835727
 24
126.0201851595637
 34
0.0
 50
90.0
100
AcDbRotatedDimension
  0
ENDSEC
  0
SECTION
  2
OBJECTS
  0
DICTIONARY
  5
C
330
0
100
AcDbDictionary
281
     1
  3
ACAD_COLOR
350
17F
  3
ACAD_GROUP
350
D
  3
ACAD_LAYOUT
350
180
  3
ACAD_MATERIAL
350
17E
  3
ACAD_MLINESTYLE
350
1A
  3
ACAD_PLOTSETTINGS
350
181
  3
ACAD_PLOTSTYLENAME
350
17C
  3
ACDBVARIABLEDICTIONARY
350
30
  0
DICTIONARY
  5
17F
102
{ACAD_REACTORS
330
C
102
}
330
C
100
AcDbDictionary
281
     1
  0
DICTIONARY
  5
D
102
{ACAD_REACTORS
330
C
102
}
330
C
100
AcDbDictionary
281
     1
  0
DICTIONARY
  5
180
102
{ACAD_REACTORS
330
C
102
}
330
C
100
AcDbDictionary
281
     1
  3
Layout1
350
183
  3
Model
350
182
  0
DICTIONARY
  5
17E
102
{ACAD_REACTORS
330
C
102
}
330
C
100
AcDbDictionary
281
     1
  0
DICTIONARY
  5
1A
102
{ACAD_REACTORS
330
C
102
}
330
C
100
AcDbDictionary
281
     1
  3
STANDARD
350
1B
  0
DICTIONARY
  5
181
102
{ACAD_REACTORS
330
C
102
}
330
C
100
AcDbDictionary
281
     1
  0
ACDBDICTIONARYWDFLT
  5
17C
102
{ACAD_REACTORS
330
C
102
}
330
C
100
AcDbDictionary
281
     1
  3
Normal
350
17D
100
AcDbDictionaryWithDefault
340
17D
  0
DICTIONARY
  5
30
102
{ACAD_REACTORS
330
C
102
}
330
C
100
AcDbDictionary
281
     1
  3
DIMADEC
350
31
  3
DIMASSOC
350
191
  3
PROJECTNAME
350
192
  0
LAYOUT
  5
183
102
{ACAD_REACTORS
330
180
102
}
330
180
100
AcDbPlotSettings
  1

  2
RICOH Aficio 2027 PCL 6
  4

  6

 40
0.0
 41
0.0
 42
0.0
 43
0.0
 44
0.0
 45
0.0
 46
0.0
 47
0.0
 48
0.0
 49
0.0
140
0.0
141
0.0
142
1.0
143
1.0
 70
   688
 72
     0
 73
     0
 74
     5
  7

 75
    16
147
1.0
 76
     0
 77
     2
 78
   300
148
0.0
149
0.0
100
AcDbLayout
  1
Layout1
 70
     0
 71
     1
 10
0.0
 20
0.0
 11
12.0
 21
9.0
 12
0.0
 22
0.0
 32
0.0
 14
1.000000000000000E+20
 24
1.000000000000000E+20
 34
1.000000000000000E+20
 15
-1.000000000000000E+20
 25
-1.000000000000000E+20
 35
-1.000000000000000E+20
146
0.0
 13
0.0
 23
0.0
 33
0.0
 16
1.0
 26
0.0
 36
0.0
 17
0.0
 27
1.0
 37
0.0
 76
     0
330
14
  0
LAYOUT
  5
182
102
{ACAD_REACTORS
330
180
102
}
330
180
100
AcDbPlotSettings
  1

  2
RICOH Aficio 2027 PCL 6
  4
A4
  6

 40
5.027083396911621
 41
5.027085304260253
 42
5.027084350585937
 43
5.027069091796875
 44
209.9733276367187
 45
296.9259948730469
 46
0.0
 47
2.08
 48
0.0
 49
0.0
140
0.0
141
0.0
142
1.0
143
2.971200961074196
 70
 11956
 72
     1
 73
     0
 74
     2
  7
monochrome1.ctb
 75
     0
147
0.3365642422377461
 76
     0
 77
     2
 78
   300
148
0.0
149
0.0
100
AcDbLayout
  1
Model
 70
     1
 71
     0
 10
0.0
 20
0.0
 11
12.0
 21
9.0
 12
0.0
 22
0.0
 32
0.0
 14
0.0
 24
0.0
 34
0.0
 15
0.0
 25
0.0
 35
0.0
146
0.0
 13
0.0
 23
0.0
 33
0.0
 16
1.0
 26
0.0
 36
0.0
 17
0.0
 27
1.0
 37
0.0
 76
     0
330
17
  0
MLINESTYLE
  5
1B
102
{ACAD_REACTORS
330
1A
102
}
330
1A
100
AcDbMlineStyle
  2
STANDARD
 70
     0
  3

 62
   256
 51
90.0
 52
90.0
 71
     2
 49
0.5
 62
   256
  6
BYLAYER
 49
-0.5
 62
   256
  6
BYLAYER
  0
ACDBPLACEHOLDER
  5
17D
102
{ACAD_REACTORS
330
17C
102
}
330
17C
  0
DICTIONARYVAR
  5
31
102
{ACAD_REACTORS
330
30
102
}
330
30
100
DictionaryVariables
280
     0
  1
0
  0
DICTIONARYVAR
  5
191
102
{ACAD_REACTORS
330
30
102
}
330
30
100
DictionaryVariables
280
     0
  1
1
  0
DICTIONARYVAR
  5
192
102
{ACAD_REACTORS
330
30
102
}
330
30
100
DictionaryVariables
280
     0
  1

  0
ENDSEC
  0
EOF
