  0
SECTION
  2
HEADER
  9
$ACADVER
  1
AC1018
  9
$ACADMAINTVER
 70
   104
  9
$DWGCODEPAGE
  3
ANSI_1252
  9
$LASTSAVEDBY
  1
w.koehlhoff
  9
$INSBASE
 10
0.0
 20
0.0
 30
0.0
  9
$EXTMIN
 10
-0.0362442327386816
 20
-0.0512544705397886
 30
-0.000000000000013
  9
$EXTMAX
 10
594.0362629045896
 20
840.0512808751777
 30
0.0000000000000023
  9
$LIMMIN
 10
0.0
 20
0.0
  9
$LIMMAX
 10
594.0
 20
840.0
  9
$ORTHOMODE
 70
     1
  9
$REGENMODE
 70
     1
  9
$FILLMODE
 70
     1
  9
$QTEXTMODE
 70
     0
  9
$MIRRTEXT
 70
     1
  9
$LTSCALE
 40
20.0
  9
$ATTMODE
 70
     1
  9
$TEXTSIZE
 40
3.5
  9
$TRACEWID
 40
1.0
  9
$TEXTSTYLE
  7
STANDARD
  9
$CLAYER
  8
SCHRAFF
  9
$CELTYPE
  6
ByLayer
  9
$CECOLOR
 62
   256
  9
$CELTSCALE
 40
1.0
  9
$DISPSILH
 70
     0
  9
$DIMSCALE
 40
2.0
  9
$DIMASZ
 40
3.5
  9
$DIMEXO
 40
1.0
  9
$DIMDLI
 40
7.0
  9
$DIMRND
 40
0.0
  9
$DIMDLE
 40
0.0
  9
$DIMEXE
 40
1.0
  9
$DIMTP
 40
0.0
  9
$DIMTM
 40
0.0
  9
$DIMTXT
 40
3.5
  9
$DIMCEN
 40
1.5
  9
$DIMTSZ
 40
0.0
  9
$DIMTOL
 70
     0
  9
$DIMLIM
 70
     0
  9
$DIMTIH
 70
     0
  9
$DIMTOH
 70
     0
  9
$DIMSE1
 70
     0
  9
$DIMSE2
 70
     0
  9
$DIMTAD
 70
     1
  9
$DIMZIN
 70
     8
  9
$DIMBLK
  1

  9
$DIMASO
 70
     1
  9
$DIMSHO
 70
     0
  9
$DIMPOST
  1

  9
$DIMAPOST
  1

  9
$DIMALT
 70
     0
  9
$DIMALTD
 70
     2
  9
$DIMALTF
 40
25.4
  9
$DIMLFAC
 40
1.0
  9
$DIMTOFL
 70
     1
  9
$DIMTVP
 40
0.0
  9
$DIMTIX
 70
     0
  9
$DIMSOXD
 70
     0
  9
$DIMSAH
 70
     0
  9
$DIMBLK1
  1

  9
$DIMBLK2
  1

  9
$DIMSTYLE
  2
Standard
  9
$DIMCLRD
 70
     0
  9
$DIMCLRE
 70
     0
  9
$DIMCLRT
 70
     1
  9
$DIMTFAC
 40
0.5142857142857144
  9
$DIMGAP
 40
1.5
  9
$DIMJUST
 70
     0
  9
$DIMSD1
 70
     0
  9
$DIMSD2
 70
     0
  9
$DIMTOLJ
 70
     1
  9
$DIMTZIN
 70
     8
  9
$DIMALTZ
 70
     8
  9
$DIMALTTZ
 70
     8
  9
$DIMUPT
 70
     0
  9
$DIMDEC
 70
     2
  9
$DIMTDEC
 70
     2
  9
$DIMALTU
 70
     2
  9
$DIMALTTD
 70
     2
  9
$DIMTXSTY
  7
STANDARD
  9
$DIMAUNIT
 70
     0
  9
$DIMADEC
 70
     2
  9
$DIMALTRND
 40
0.0
  9
$DIMAZIN
 70
     2
  9
$DIMDSEP
 70
    46
  9
$DIMATFIT
 70
     3
  9
$DIMFRAC
 70
     0
  9
$DIMLDRBLK
  1

  9
$DIMLUNIT
 70
     2
  9
$DIMLWD
 70
    -2
  9
$DIMLWE
 70
    -2
  9
$DIMTMOVE
 70
     0
  9
$LUNITS
 70
     2
  9
$LUPREC
 70
     2
  9
$SKETCHINC
 40
1.0
  9
$FILLETRAD
 40
0.0
  9
$AUNITS
 70
     0
  9
$AUPREC
 70
     0
  9
$MENU
  1
ACAD
  9
$ELEVATION
 40
0.0
  9
$PELEVATION
 40
0.0
  9
$THICKNESS
 40
0.0
  9
$LIMCHECK
 70
     0
  9
$CHAMFERA
 40
0.0
  9
$CHAMFERB
 40
0.0
  9
$CHAMFERC
 40
0.0
  9
$CHAMFERD
 40
0.0
  9
$SKPOLY
 70
     0
  9
$TDCREATE
 40
2455397.867059838
  9
$TDUCREATE
 40
2455397.783726505
  9
$TDUPDATE
 40
2456899.341512153
  9
$TDUUPDATE
 40
2456899.258178820
  9
$TDINDWG
 40
0.1268146875
  9
$TDUSRTIMER
 40
0.1268146875
  9
$USRTIMER
 70
     1
  9
$ANGBASE
 50
0.0
  9
$ANGDIR
 70
     0
  9
$PDMODE
 70
     0
  9
$PDSIZE
 40
0.0
  9
$PLINEWID
 40
0.0
  9
$SPLFRAME
 70
     0
  9
$SPLINETYPE
 70
     6
  9
$SPLINESEGS
 70
     8
  9
$HANDSEED
  5
1110
  9
$SURFTAB1
 70
     6
  9
$SURFTAB2
 70
     6
  9
$SURFTYPE
 70
     6
  9
$SURFU
 70
     6
  9
$SURFV
 70
     6
  9
$UCSBASE
  2

  9
$UCSNAME
  2

  9
$UCSORG
 10
0.0
 20
0.0
 30
0.0
  9
$UCSXDIR
 10
1.0
 20
0.0
 30
0.0
  9
$UCSYDIR
 10
0.0
 20
1.0
 30
0.0
  9
$UCSORTHOREF
  2

  9
$UCSORTHOVIEW
 70
     0
  9
$UCSORGTOP
 10
0.0
 20
0.0
 30
0.0
  9
$UCSORGBOTTOM
 10
0.0
 20
0.0
 30
0.0
  9
$UCSORGLEFT
 10
0.0
 20
0.0
 30
0.0
  9
$UCSORGRIGHT
 10
0.0
 20
0.0
 30
0.0
  9
$UCSORGFRONT
 10
0.0
 20
0.0
 30
0.0
  9
$UCSORGBACK
 10
0.0
 20
0.0
 30
0.0
  9
$PUCSBASE
  2

  9
$PUCSNAME
  2

  9
$PUCSORG
 10
0.0
 20
0.0
 30
0.0
  9
$PUCSXDIR
 10
1.0
 20
0.0
 30
0.0
  9
$PUCSYDIR
 10
0.0
 20
1.0
 30
0.0
  9
$PUCSORTHOREF
  2

  9
$PUCSORTHOVIEW
 70
     0
  9
$PUCSORGTOP
 10
0.0
 20
0.0
 30
0.0
  9
$PUCSORGBOTTOM
 10
0.0
 20
0.0
 30
0.0
  9
$PUCSORGLEFT
 10
0.0
 20
0.0
 30
0.0
  9
$PUCSORGRIGHT
 10
0.0
 20
0.0
 30
0.0
  9
$PUCSORGFRONT
 10
0.0
 20
0.0
 30
0.0
  9
$PUCSORGBACK
 10
0.0
 20
0.0
 30
0.0
  9
$USERI1
 70
     0
  9
$USERI2
 70
     0
  9
$USERI3
 70
     0
  9
$USERI4
 70
     0
  9
$USERI5
 70
     0
  9
$USERR1
 40
0.0
  9
$USERR2
 40
0.0
  9
$USERR3
 40
0.0
  9
$USERR4
 40
0.0
  9
$USERR5
 40
0.0
  9
$WORLDVIEW
 70
     1
  9
$SHADEDGE
 70
     3
  9
$SHADEDIF
 70
    70
  9
$TILEMODE
 70
     1
  9
$MAXACTVP
 70
    16
  9
$PINSBASE
 10
0.0
 20
0.0
 30
0.0
  9
$PLIMCHECK
 70
     0
  9
$PEXTMIN
 10
1.000000000000000E+20
 20
1.000000000000000E+20
 30
1.000000000000000E+20
  9
$PEXTMAX
 10
-1.000000000000000E+20
 20
-1.000000000000000E+20
 30
-1.000000000000000E+20
  9
$PLIMMIN
 10
0.0
 20
0.0
  9
$PLIMMAX
 10
12.0
 20
9.0
  9
$UNITMODE
 70
     0
  9
$VISRETAIN
 70
     0
  9
$PLINEGEN
 70
     0
  9
$PSLTSCALE
 70
     0
  9
$TREEDEPTH
 70
  3020
  9
$CMLSTYLE
  2
Standard
  9
$CMLJUST
 70
     0
  9
$CMLSCALE
 40
1.0
  9
$PROXYGRAPHICS
 70
     1
  9
$MEASUREMENT
 70
     0
  9
$CELWEIGHT
370
    -1
  9
$ENDCAPS
280
     0
  9
$JOINSTYLE
280
     0
  9
$LWDISPLAY
290
     0
  9
$INSUNITS
 70
     0
  9
$HYPERLINKBASE
  1

  9
$STYLESHEET
  1
monochrome1.ctb
  9
$XEDIT
290
     1
  9
$CEPSNTYPE
380
     0
  9
$PSTYLEMODE
290
     1
  9
$FINGERPRINTGUID
  2
{D68B0D0D-A558-11D7-B632-000102183313}
  9
$VERSIONGUID
  2
{8CCA381F-7A6C-42ED-B3B2-3C2D33FF1690}
  9
$EXTNAMES
290
     1
  9
$PSVPSCALE
 40
0.0
  9
$OLESTARTUP
290
     0
  9
$SORTENTS
280
   127
  9
$INDEXCTL
280
     0
  9
$HIDETEXT
280
     0
  9
$XCLIPFRAME
290
     0
  9
$HALOGAP
280
     0
  9
$OBSCOLOR
 70
   257
  9
$OBSLTYPE
280
     0
  9
$INTERSECTIONDISPLAY
280
     0
  9
$INTERSECTIONCOLOR
 70
   257
  9
$DIMASSOC
280
     1
  9
$PROJECTNAME
  1

  0
ENDSEC
  0
SECTION
  2
CLASSES
  0
CLASS
  1
ACDBDICTIONARYWDFLT
  2
AcDbDictionaryWithDefault
  3
ObjectDBX Classes
 90
        0
 91
        1
280
     0
281
     0
  0
CLASS
  1
DICTIONARYVAR
  2
AcDbDictionaryVar
  3
ObjectDBX Classes
 90
        0
 91
       12
280
     0
281
     0
  0
CLASS
  1
MATERIAL
  2
AcDbMaterial
  3
ObjectDBX Classes
 90
     1153
 91
        3
280
     0
281
     0
  0
CLASS
  1
VISUALSTYLE
  2
AcDbVisualStyle
  3
ObjectDBX Classes
 90
     4095
 91
       24
280
     0
281
     0
  0
CLASS
  1
TABLESTYLE
  2
AcDbTableStyle
  3
ObjectDBX Classes
 90
     4095
 91
        1
280
     0
281
     0
  0
CLASS
  1
SCALE
  2
AcDbScale
  3
ObjectDBX Classes
 90
     1153
 91
       17
280
     0
281
     0
  0
CLASS
  1
MLEADERSTYLE
  2
AcDbMLeaderStyle
  3
ACDB_MLEADERSTYLE_CLASS
 90
     4095
 91
        1
280
     0
281
     0
  0
CLASS
  1
ACDBSECTIONVIEWSTYLE
  2
AcDbSectionViewStyle
  3
ObjectDBX Classes
 90
     1025
 91
        1
280
     0
281
     0
  0
CLASS
  1
ACDBDETAILVIEWSTYLE
  2
AcDbDetailViewStyle
  3
ObjectDBX Classes
 90
     1025
 91
        1
280
     0
281
     0
  0
CLASS
  1
CELLSTYLEMAP
  2
AcDbCellStyleMap
  3
ObjectDBX Classes
 90
     1152
 91
        2
280
     0
281
     0
  0
ENDSEC
  0
SECTION
  2
TABLES
  0
TABLE
  2
VPORT
  5
8
330
0
100
AcDbSymbolTable
 70
     1
  0
VPORT
  5
FFE
330
8
100
AcDbSymbolTableRecord
100
AcDbViewportTableRecord
  2
*Active
 70
     0
 10
0.0
 20
0.0
 11
1.0
 21
1.0
 12
297.0000093359255
 22
420.0000132023189
 13
0.0
 23
0.0
 14
1.0
 24
1.0
 15
10.0
 25
10.0
 16
0.0
 26
0.0
 36
1.0
 17
0.0
 27
0.0
 37
0.0
 40
846.1682576225818
 41
1.821686746987951
 42
50.0
 43
0.0
 44
0.0
 50
0.0
 51
0.0
 71
     0
 72
  1500
 73
     1
 74
     0
 75
     0
 76
     0
 77
     0
 78
     0
281
     0
 65
     1
110
0.0
120
0.0
130
0.0
111
1.0
121
0.0
131
0.0
112
0.0
122
1.0
132
0.0
 79
     0
146
0.0
1001
ACAD_NAV_VCDISPLAY
1070
     3
  0
ENDTAB
  0
TABLE
  2
LTYPE
  5
5
330
0
100
AcDbSymbolTable
 70
     4
  0
LTYPE
  5
13
330
5
100
AcDbSymbolTableRecord
100
AcDbLinetypeTableRecord
  2
ByBlock
 70
     0
  3

 72
    65
 73
     0
 40
0.0
  0
LTYPE
  5
14
330
5
100
AcDbSymbolTableRecord
100
AcDbLinetypeTableRecord
  2
ByLayer
 70
     0
  3

 72
    65
 73
     0
 40
0.0
  0
LTYPE
  5
15
330
5
100
AcDbSymbolTableRecord
100
AcDbLinetypeTableRecord
  2
Continuous
 70
     0
  3
Solid line
 72
    65
 73
     0
 40
0.0
  0
LTYPE
  5
25
330
5
100
AcDbSymbolTableRecord
100
AcDbLinetypeTableRecord
  2
STRICHPUNKT
 70
     0
  3
__ . __ . __ . __ . __ . __ . __ . __ . __ . __
 72
    65
 73
     4
 40
1.0
 49
0.5
 74
     0
 49
-0.25
 74
     0
 49
0.0
 74
     0
 49
-0.25
 74
     0
  0
LTYPE
  5
1048
330
5
100
AcDbSymbolTableRecord
100
AcDbLinetypeTableRecord
  2
PHANTOM2
 70
     0
  3
Phantom (.5x) ___ _ _ ___ _ _ ___ _ _ ___ _ _
 72
    65
 73
     6
 40
1.25
 49
0.625
 74
     0
 49
-0.125
 74
     0
 49
0.125
 74
     0
 49
-0.125
 74
     0
 49
0.125
 74
     0
 49
-0.125
 74
     0
  0
ENDTAB
  0
TABLE
  2
LAYER
  5
2
102
{ACAD_XDICTIONARY
360
106D
102
}
330
0
100
AcDbSymbolTable
 70
     9
  0
LAYER
  5
10
102
{ACAD_XDICTIONARY
360
105A
102
}
330
2
100
AcDbSymbolTableRecord
100
AcDbLayerTableRecord
  2
0
 70
     0
 62
     7
  6
Continuous
370
    -3
390
F
  0
LAYER
  5
2B
102
{ACAD_XDICTIONARY
360
105C
102
}
330
2
100
AcDbSymbolTableRecord
100
AcDbLayerTableRecord
  2
VOLL
 70
     0
 62
     1
  6
Continuous
370
    -3
390
F
  0
LAYER
  5
2C
102
{ACAD_XDICTIONARY
360
105E
102
}
330
2
100
AcDbSymbolTableRecord
100
AcDbLayerTableRecord
  2
HILF
 70
     0
 62
     2
  6
Continuous
370
    -3
390
F
  0
LAYER
  5
2D
102
{ACAD_XDICTIONARY
360
1060
102
}
330
2
100
AcDbSymbolTableRecord
100
AcDbLayerTableRecord
  2
MITTEL
 70
     0
 62
     2
  6
STRICHPUNKT
370
    -3
390
F
  0
LAYER
  5
2F
102
{ACAD_XDICTIONARY
360
1062
102
}
330
2
100
AcDbSymbolTableRecord
100
AcDbLayerTableRecord
  2
BEM
 70
     0
 62
     7
  6
Continuous
370
    -3
390
F
  0
LAYER
  5
30
102
{ACAD_XDICTIONARY
360
1064
102
}
330
2
100
AcDbSymbolTableRecord
100
AcDbLayerTableRecord
  2
STEMPEL
 70
     0
 62
     3
  6
Continuous
370
    -3
390
F
  0
LAYER
  5
2B8
330
2
100
AcDbSymbolTableRecord
100
AcDbLayerTableRecord
  2
Defpoints
 70
     0
 62
     7
  6
Continuous
290
     0
370
    -3
390
F
  0
LAYER
  5
2B9
102
{ACAD_XDICTIONARY
360
1066
102
}
330
2
100
AcDbSymbolTableRecord
100
AcDbLayerTableRecord
  2
SCHRAFF
 70
     0
 62
     7
  6
Continuous
370
    -3
390
F
  0
LAYER
  5
B8A
102
{ACAD_XDICTIONARY
360
1068
102
}
330
2
100
AcDbSymbolTableRecord
100
AcDbLayerTableRecord
  2
TEXT
 70
     0
 62
     7
  6
Continuous
370
    -3
390
F
  0
ENDTAB
  0
TABLE
  2
STYLE
  5
3
330
0
100
AcDbSymbolTable
 70
     3
  0
STYLE
  5
11
330
3
100
AcDbSymbolTableRecord
100
AcDbTextStyleTableRecord
  2
STANDARD
 70
     0
 40
0.0
 41
0.8
 50
0.0
 71
     0
 42
3.5
  3
simplex.shx
  4

  0
STYLE
  5
B8B
330
3
100
AcDbSymbolTableRecord
100
AcDbTextStyleTableRecord
  2
GREEKS
 70
     0
 40
0.0
 41
0.8
 50
0.0
 71
     0
 42
2.5
  3
SIMPLEX.shx
  4

  0
ENDTAB
  0
TABLE
  2
VIEW
  5
6
330
0
100
AcDbSymbolTable
 70
     1
  0
ENDTAB
  0
TABLE
  2
UCS
  5
7
330
0
100
AcDbSymbolTable
 70
     0
  0
ENDTAB
  0
TABLE
  2
APPID
  5
9
330
0
100
AcDbSymbolTable
 70
     5
  0
APPID
  5
12
330
9
100
AcDbSymbolTableRecord
100
AcDbRegAppTableRecord
  2
ACAD
 70
     0
  0
APPID
  5
1058
330
9
100
AcDbSymbolTableRecord
100
AcDbRegAppTableRecord
  2
ACAD_EXEMPT_FROM_CAD_STANDARDS
 70
     0
  0
APPID
  5
1073
330
9
100
AcDbSymbolTableRecord
100
AcDbRegAppTableRecord
  2
ACAD_NAV_VCDISPLAY
 70
     0
  0
APPID
  5
10BF
330
9
100
AcDbSymbolTableRecord
100
AcDbRegAppTableRecord
  2
ACAD_PSEXT
 70
     0
  0
APPID
  5
110D
330
9
100
AcDbSymbolTableRecord
100
AcDbRegAppTableRecord
  2
ACAD_MLEADERVER
 70
     0
  0
ENDTAB
  0
TABLE
  2
DIMSTYLE
  5
A
330
0
100
AcDbSymbolTable
 70
     2
100
AcDbDimStyleTable
 71
     1
340
A2
  0
DIMSTYLE
105
A2
102
{ACAD_REACTORS
330
E4E
330
E59
330
E5A
330
D6A
330
DA0
330
D32
330
D33
102
}
330
A
100
AcDbSymbolTableRecord
100
AcDbDimStyleTableRecord
  2
Standard
 70
     0
340
11
  0
ENDTAB
  0
TABLE
  2
BLOCK_RECORD
  5
1
330
0
100
AcDbSymbolTable
 70
    10
  0
BLOCK_RECORD
  5
1E
102
{ACAD_XDICTIONARY
360
DB
102
}
330
1
100
AcDbSymbolTableRecord
100
AcDbBlockTableRecord
  2
*Model_Space
340
21
  0
BLOCK_RECORD
  5
1A
102
{ACAD_XDICTIONARY
360
DD
102
}
330
1
100
AcDbSymbolTableRecord
100
AcDbBlockTableRecord
  2
*Paper_Space
340
1D
  0
BLOCK_RECORD
  5
22
330
1
100
AcDbSymbolTableRecord
100
AcDbBlockTableRecord
  2
LOGO
340
0
102
{BLKREFS
331
B33
102
}
  0
BLOCK_RECORD
  5
B31
330
1
100
AcDbSymbolTableRecord
100
AcDbBlockTableRecord
  2
LORO
340
0
102
{BLKREFS
331
E9A
102
}
  0
BLOCK_RECORD
  5
EAA
330
1
100
AcDbSymbolTableRecord
100
AcDbBlockTableRecord
  2
*D2
340
0
  0
BLOCK_RECORD
  5
EB6
330
1
100
AcDbSymbolTableRecord
100
AcDbBlockTableRecord
  2
*D3
340
0
  0
BLOCK_RECORD
  5
EC3
330
1
100
AcDbSymbolTableRecord
100
AcDbBlockTableRecord
  2
*D4
340
0
  0
BLOCK_RECORD
  5
ECF
330
1
100
AcDbSymbolTableRecord
100
AcDbBlockTableRecord
  2
*D5
340
0
  0
BLOCK_RECORD
  5
EDC
330
1
100
AcDbSymbolTableRecord
100
AcDbBlockTableRecord
  2
*D6
340
0
  0
BLOCK_RECORD
  5
EE9
330
1
100
AcDbSymbolTableRecord
100
AcDbBlockTableRecord
  2
*D7
340
0
  0
BLOCK_RECORD
  5
EF5
330
1
100
AcDbSymbolTableRecord
100
AcDbBlockTableRecord
  2
*D8
340
0
  0
ENDTAB
  0
ENDSEC
  0
SECTION
  2
BLOCKS
  0
BLOCK
  5
37
330
1E
100
AcDbEntity
  8
0
100
AcDbBlockBegin
  2
*Model_Space
 70
     0
 10
0.0
 20
0.0
 30
0.0
  3
*Model_Space
  1

  0
ENDBLK
  5
38
330
1E
100
AcDbEntity
  8
0
100
AcDbBlockEnd
  0
BLOCK
  5
35
330
1A
100
AcDbEntity
 67
     1
  8
0
100
AcDbBlockBegin
  2
*Paper_Space
 70
     0
 10
0.0
 20
0.0
 30
0.0
  3
*Paper_Space
  1

  0
ENDBLK
  5
36
330
1A
100
AcDbEntity
 67
     1
  8
0
100
AcDbBlockEnd
  0
BLOCK
  5
39
330
22
100
AcDbEntity
  8
0
100
AcDbBlockBegin
  2
LOGO
 70
     0
 10
0.0
 20
0.0
 30
0.0
  3
LOGO
  1

  0
ARC
  5
3A
330
22
100
AcDbEntity
  8
0
100
AcDbCircle
 10
11.59973089678112
 20
-9.271599258481501
 30
0.0
 40
4.5
100
AcDbArc
 50
270.0
 51
231.0575587310159
  0
LINE
  5
3B
330
22
100
AcDbEntity
  8
0
100
AcDbLine
 10
3.599730896781125
 20
-4.771599258481529
 30
0.0
 11
3.599730896781153
 21
-11.77159925848133
 31
0.0
  0
LINE
  5
3C
330
22
100
AcDbEntity
  8
0
100
AcDbLine
 10
2.599730896781125
 20
-4.771599258481529
 30
0.0
 11
2.599730896781153
 21
-11.77159925848133
 31
0.0
  0
CIRCLE
  5
3D
330
22
100
AcDbEntity
  8
0
100
AcDbCircle
 10
11.59973089678112
 20
-9.271599258481501
 30
0.0
 40
3.5
  0
ARC
  5
3E
330
22
100
AcDbEntity
  8
0
100
AcDbCircle
 10
31.59973089678115
 20
-9.271599258481472
 30
0.0
 40
4.5
100
AcDbArc
 50
270.0
 51
231.0575587310182
  0
LINE
  5
3F
330
22
100
AcDbEntity
  8
0
100
AcDbLine
 10
17.59973089678112
 20
-4.771599258481472
 30
0.0
 11
17.59973089678115
 21
-13.77159925848147
 31
0.0
  0
ARC
  5
40
330
22
100
AcDbEntity
  8
0
100
AcDbCircle
 10
22.59973089678116
 20
-7.271599258481472
 30
0.0
 40
2.5
100
AcDbArc
 50
293.1161887722295
 51
90.0
  0
CIRCLE
  5
41
330
22
100
AcDbEntity
  8
0
100
AcDbCircle
 10
31.59973089678115
 20
-9.271599258481472
 30
0.0
 40
3.5
  0
ARC
  5
42
330
22
100
AcDbEntity
  8
0
100
AcDbCircle
 10
4.599730896781153
 20
-11.77159925848133
 30
0.0
 40
1.0
100
AcDbArc
 50
180.0
 51
270.0
  0
ARC
  5
43
330
22
100
AcDbEntity
  8
0
100
AcDbCircle
 10
4.599730896781153
 20
-11.77159925848133
 30
0.0
 40
2.0
100
AcDbArc
 50
179.9999999999992
 51
270.0
  0
LINE
  5
44
330
22
100
AcDbEntity
  8
0
100
AcDbLine
 10
11.59973089678115
 20
-13.77159925848144
 30
0.0
 11
4.599730896781153
 21
-13.77159925848147
 31
0.0
  0
LINE
  5
45
330
22
100
AcDbEntity
  8
0
100
AcDbLine
 10
8.771303772034769
 20
-12.77159925848136
 30
0.0
 11
4.599730896781153
 21
-12.77159925848133
 31
0.0
  0
LINE
  5
46
330
22
100
AcDbEntity
  8
0
100
AcDbLine
 10
31.59973089678115
 20
-13.77159925848147
 30
0.0
 11
23.6715276665056
 21
-13.77159925848144
 31
0.0
  0
LINE
  5
47
330
22
100
AcDbEntity
  8
0
100
AcDbLine
 10
23.56565672307022
 20
-9.51278021337896
 30
0.0
 11
24.4388546544846
 21
-12.77159925848144
 31
0.0
  0
LINE
  5
48
330
22
100
AcDbEntity
  8
0
100
AcDbLine
 10
22.59973089678116
 20
-9.771599258481472
 30
0.0
 11
18.59973089678112
 21
-9.771599258481472
 31
0.0
  0
LINE
  5
49
330
22
100
AcDbEntity
  8
0
100
AcDbLine
 10
18.59973089678115
 20
-13.77159925848144
 30
0.0
 11
17.59973089678115
 21
-13.77159925848144
 31
0.0
  0
LINE
  5
4A
330
22
100
AcDbEntity
  8
0
100
AcDbLine
 10
18.59973089678115
 20
-9.771599258481472
 30
0.0
 11
18.59973089678115
 21
-13.77159925848144
 31
0.0
  0
LINE
  5
4B
330
22
100
AcDbEntity
  8
0
100
AcDbLine
 10
22.59973089678116
 20
-9.771599258481472
 30
0.0
 11
23.67152766650562
 21
-13.77159925848147
 31
0.0
  0
ARC
  5
4C
330
22
100
AcDbEntity
  8
0
100
AcDbCircle
 10
22.59973089678116
 20
-7.271599258481472
 30
0.0
 40
2.5
100
AcDbArc
 50
270.0
 51
270.0000000000007
  0
LINE
  5
4D
330
22
100
AcDbEntity
  8
0
100
AcDbLine
 10
28.77130377203494
 20
-12.77159925848147
 30
0.0
 11
24.43885465448463
 21
-12.77159925848144
 31
0.0
  0
LINE
  5
4E
330
22
100
AcDbEntity
  8
0
100
AcDbLine
 10
3.599730896781125
 20
-4.771599258481472
 30
0.0
 11
2.599730896781125
 21
-4.771599258481472
 31
0.0
  0
LINE
  5
4F
330
22
100
AcDbEntity
  8
0
100
AcDbLine
 10
22.59973089678116
 20
-8.771599258481472
 30
0.0
 11
18.59973089678115
 21
-8.771599258481472
 31
0.0
  0
LINE
  5
50
330
22
100
AcDbEntity
  8
0
100
AcDbLine
 10
22.59973089678116
 20
-5.771599258481472
 30
0.0
 11
18.59973089678115
 21
-5.771599258481472
 31
0.0
  0
LINE
  5
51
330
22
100
AcDbEntity
  8
0
100
AcDbLine
 10
22.59973089678116
 20
-4.771599258481472
 30
0.0
 11
17.59973089678115
 21
-4.771599258481472
 31
0.0
  0
LINE
  5
52
330
22
100
AcDbEntity
  8
0
100
AcDbLine
 10
18.59973089678115
 20
-5.771599258481472
 30
0.0
 11
18.59973089678115
 21
-8.771599258481472
 31
0.0
  0
ARC
  5
53
330
22
100
AcDbEntity
  8
0
100
AcDbCircle
 10
22.59973089678116
 20
-7.271599258481472
 30
0.0
 40
1.5
100
AcDbArc
 50
270.0
 51
90.0
  0
ENDBLK
  5
54
330
22
100
AcDbEntity
  8
0
100
AcDbBlockEnd
  0
BLOCK
  5
B32
330
B31
100
AcDbEntity
  8
0
100
AcDbBlockBegin
  2
LORO
 70
     0
 10
0.0
 20
0.0
 30
0.0
  3
LORO
  1

  0
INSERT
  5
B33
330
B31
100
AcDbEntity
  8
STEMPEL
100
AcDbBlockReference
  2
LOGO
 10
-1.748032802467321
 20
3.771489518552062
 30
0.0
  0
ENDBLK
  5
B34
330
B31
100
AcDbEntity
  8
0
100
AcDbBlockEnd
  0
BLOCK
  5
EB4
330
EAA
100
AcDbEntity
  8
0
100
AcDbBlockBegin
  2
*D2
 70
     1
 10
0.0
 20
0.0
 30
0.0
  3
*D2
  1

  0
LINE
  5
F01
330
EAA
100
AcDbEntity
  8
BEM
 62
     0
440
 16777216
370
    -2
100
AcDbLine
 10
111.5571404833181
 20
451.2004427367827
 30
0.0
 11
111.5571404833181
 21
417.777207559518
 31
0.0
  0
LINE
  5
F02
330
EAA
100
AcDbEntity
  8
BEM
 62
     0
440
 16777216
370
    -2
100
AcDbLine
 10
335.5571404833181
 20
451.2004427367827
 30
0.0
 11
335.5571404833181
 21
417.777207559518
 31
0.0
  0
LINE
  5
F03
330
EAA
100
AcDbEntity
  8
BEM
 62
     0
440
 16777216
370
    -2
100
AcDbLine
 10
118.5571404833181
 20
419.777207559518
 30
0.0
 11
328.5571404833181
 21
419.777207559518
 31
0.0
  0
SOLID
  5
F04
330
EAA
100
AcDbEntity
  8
BEM
 62
     0
440
 16777216
100
AcDbTrace
 10
118.5571404833181
 20
420.9438742261847
 30
0.0
 11
118.5571404833181
 21
418.6105408928513
 31
0.0
 12
111.5571404833181
 22
419.777207559518
 32
0.0
 13
111.5571404833181
 23
419.777207559518
 33
0.0
  0
SOLID
  5
F05
330
EAA
100
AcDbEntity
  8
BEM
 62
     0
440
 16777216
100
AcDbTrace
 10
328.5571404833181
 20
420.9438742261847
 30
0.0
 11
328.5571404833181
 21
418.6105408928513
 31
0.0
 12
335.5571404833181
 22
419.777207559518
 32
0.0
 13
335.5571404833181
 23
419.777207559518
 33
0.0
  0
MTEXT
  5
F06
330
EAA
100
AcDbEntity
  8
BEM
 62
     1
440
 16777216
100
AcDbMText
 10
223.5571404833181
 20
426.277207559518
 30
0.0
 40
7.0
 41
0.0
 71
     5
 72
     1
  1
\A1;%%c224
  7
GREEKS
 73
     1
 44
1.0
  0
POINT
  5
F07
330
EAA
100
AcDbEntity
  8
Defpoints
 62
     0
440
 16777216
100
AcDbPoint
 10
111.5571404833181
 20
453.2004427367827
 30
0.0
  0
POINT
  5
F08
330
EAA
100
AcDbEntity
  8
Defpoints
 62
     0
440
 16777216
100
AcDbPoint
 10
335.5571404833181
 20
453.2004427367827
 30
0.0
  0
POINT
  5
F09
330
EAA
100
AcDbEntity
  8
Defpoints
 62
     0
440
 16777216
100
AcDbPoint
 10
335.5571404833181
 20
419.777207559518
 30
0.0
  0
ENDBLK
  5
EB5
330
EAA
100
AcDbEntity
  8
0
100
AcDbBlockEnd
  0
BLOCK
  5
EC1
330
EB6
100
AcDbEntity
  8
0
100
AcDbBlockBegin
  2
*D3
 70
     1
 10
0.0
 20
0.0
 30
0.0
  3
*D3
  1

  0
LINE
  5
F0A
330
EB6
100
AcDbEntity
  8
BEM
 62
     0
440
 16777216
370
    -2
100
AcDbLine
 10
280.6784608268777
 20
471.8217630803411
 30
0.0
 11
399.5875037944287
 21
471.8217630803411
 31
0.0
  0
LINE
  5
F0B
330
EB6
100
AcDbEntity
  8
BEM
 62
     0
440
 16777216
370
    -2
100
AcDbLine
 10
370.5571404833181
 20
450.2004427367825
 30
0.0
 11
399.5875037944287
 21
450.2004427367825
 31
0.0
  0
LINE
  5
F0C
330
EB6
100
AcDbEntity
  8
BEM
 62
     0
440
 16777216
370
    -2
100
AcDbLine
 10
397.5875037944287
 20
457.2004427367824
 30
0.0
 11
397.5875037944287
 21
464.8217630803411
 31
0.0
  0
LINE
  5
F0D
330
EB6
100
AcDbEntity
  8
BEM
 62
     0
440
 16777216
370
    -2
100
AcDbLine
 10
397.5875037944287
 20
471.8217630803411
 30
0.0
 11
397.5875037944287
 21
502.7211277828475
 31
0.0
  0
SOLID
  5
F0E
330
EB6
100
AcDbEntity
  8
BEM
 62
     0
440
 16777216
100
AcDbTrace
 10
396.4208371277621
 20
457.2004427367824
 30
0.0
 11
398.7541704610955
 21
457.2004427367824
 31
0.0
 12
397.5875037944287
 22
450.2004427367825
 32
0.0
 13
397.5875037944287
 23
450.2004427367825
 33
0.0
  0
SOLID
  5
F0F
330
EB6
100
AcDbEntity
  8
BEM
 62
     0
440
 16777216
100
AcDbTrace
 10
396.4208371277621
 20
464.8217630803411
 30
0.0
 11
398.7541704610955
 21
464.8217630803411
 31
0.0
 12
397.5875037944287
 22
471.8217630803411
 32
0.0
 13
397.5875037944287
 23
471.8217630803411
 33
0.0
  0
MTEXT
  5
F10
330
EB6
100
AcDbEntity
  8
BEM
 62
     1
440
 16777216
100
AcDbMText
 10
391.0875037944287
 20
491.7211277828475
 30
0.0
 40
7.0
 41
0.0
 71
     5
 72
     1
  1
\A1;21.5
  7
GREEKS
 11
0.0000000000000001
 21
1.0
 31
0.0
 73
     1
 44
1.0
  0
POINT
  5
F11
330
EB6
100
AcDbEntity
  8
Defpoints
 62
     0
440
 16777216
100
AcDbPoint
 10
278.6784608268778
 20
471.8217630803411
 30
0.0
  0
POINT
  5
F12
330
EB6
100
AcDbEntity
  8
Defpoints
 62
     0
440
 16777216
100
AcDbPoint
 10
368.5571404833181
 20
450.2004427367825
 30
0.0
  0
POINT
  5
F13
330
EB6
100
AcDbEntity
  8
Defpoints
 62
     0
440
 16777216
100
AcDbPoint
 10
397.5875037944287
 20
450.2004427367825
 30
0.0
  0
ENDBLK
  5
EC2
330
EB6
100
AcDbEntity
  8
0
100
AcDbBlockEnd
  0
BLOCK
  5
ECD
330
EC3
100
AcDbEntity
  8
0
100
AcDbBlockBegin
  2
*D4
 70
     1
 10
0.0
 20
0.0
 30
0.0
  3
*D4
  1

  0
LINE
  5
F14
330
EC3
100
AcDbEntity
  8
BEM
 62
     0
440
 16777216
370
    -2
100
AcDbLine
 10
78.55714048331811
 20
448.2004427367834
 30
0.0
 11
78.55714048331811
 21
401.777207559518
 31
0.0
  0
LINE
  5
F15
330
EC3
100
AcDbEntity
  8
BEM
 62
     0
440
 16777216
370
    -2
100
AcDbLine
 10
368.5571404833181
 20
448.2004427367825
 30
0.0
 11
368.5571404833181
 21
401.777207559518
 31
0.0
  0
LINE
  5
F16
330
EC3
100
AcDbEntity
  8
BEM
 62
     0
440
 16777216
370
    -2
100
AcDbLine
 10
85.55714048331811
 20
403.777207559518
 30
0.0
 11
361.5571404833181
 21
403.777207559518
 31
0.0
  0
SOLID
  5
F17
330
EC3
100
AcDbEntity
  8
BEM
 62
     0
440
 16777216
100
AcDbTrace
 10
85.55714048331811
 20
404.9438742261846
 30
0.0
 11
85.55714048331811
 21
402.6105408928513
 31
0.0
 12
78.55714048331811
 22
403.777207559518
 32
0.0
 13
78.55714048331811
 23
403.777207559518
 33
0.0
  0
SOLID
  5
F18
330
EC3
100
AcDbEntity
  8
BEM
 62
     0
440
 16777216
100
AcDbTrace
 10
361.5571404833181
 20
404.9438742261846
 30
0.0
 11
361.5571404833181
 21
402.6105408928513
 31
0.0
 12
368.5571404833181
 22
403.777207559518
 32
0.0
 13
368.5571404833181
 23
403.777207559518
 33
0.0
  0
MTEXT
  5
F19
330
EC3
100
AcDbEntity
  8
BEM
 62
     1
440
 16777216
100
AcDbMText
 10
223.5571404833181
 20
410.277207559518
 30
0.0
 40
7.0
 41
0.0
 71
     5
 72
     1
  1
\A1;%%c290
  7
GREEKS
 73
     1
 44
1.0
  0
POINT
  5
F1A
330
EC3
100
AcDbEntity
  8
Defpoints
 62
     0
440
 16777216
100
AcDbPoint
 10
78.55714048331811
 20
450.2004427367834
 30
0.0
  0
POINT
  5
F1B
330
EC3
100
AcDbEntity
  8
Defpoints
 62
     0
440
 16777216
100
AcDbPoint
 10
368.5571404833181
 20
450.2004427367825
 30
0.0
  0
POINT
  5
F1C
330
EC3
100
AcDbEntity
  8
Defpoints
 62
     0
440
 16777216
100
AcDbPoint
 10
368.5571404833181
 20
403.777207559518
 30
0.0
  0
ENDBLK
  5
ECE
330
EC3
100
AcDbEntity
  8
0
100
AcDbBlockEnd
  0
BLOCK
  5
EDA
330
ECF
100
AcDbEntity
  8
0
100
AcDbBlockBegin
  2
*D5
 70
     1
 10
0.0
 20
0.0
 30
0.0
  3
*D5
  1

  0
LINE
  5
F4D
330
ECF
100
AcDbEntity
  8
BEM
 62
     0
440
 16777216
370
    -2
100
AcDbLine
 10
170.757140483318
 20
233.0915554391463
 30
0.0
 11
136.5122120990045
 21
233.0915554391463
 31
0.0
  0
LINE
  5
F4E
330
ECF
100
AcDbEntity
  8
BEM
 62
     0
440
 16777216
370
    -2
100
AcDbLine
 10
185.4884720608774
 20
188.091555439146
 30
0.0
 11
136.5122120990045
 21
188.091555439146
 31
0.0
  0
LINE
  5
F4F
330
ECF
100
AcDbEntity
  8
BEM
 62
     0
440
 16777216
370
    -2
100
AcDbLine
 10
138.5122120990045
 20
226.0915554391463
 30
0.0
 11
138.5122120990045
 21
195.0915554391461
 31
0.0
  0
SOLID
  5
F50
330
ECF
100
AcDbEntity
  8
BEM
 62
     0
440
 16777216
100
AcDbTrace
 10
137.3455454323379
 20
226.0915554391463
 30
0.0
 11
139.6788787656712
 21
226.0915554391463
 31
0.0
 12
138.5122120990045
 22
233.0915554391463
 32
0.0
 13
138.5122120990045
 23
233.0915554391463
 33
0.0
  0
SOLID
  5
F51
330
ECF
100
AcDbEntity
  8
BEM
 62
     0
440
 16777216
100
AcDbTrace
 10
137.3455454323379
 20
195.0915554391461
 30
0.0
 11
139.6788787656712
 21
195.0915554391461
 31
0.0
 12
138.5122120990045
 22
188.091555439146
 32
0.0
 13
138.5122120990045
 23
188.091555439146
 33
0.0
  0
MTEXT
  5
F52
330
ECF
100
AcDbEntity
  8
BEM
 62
     1
440
 16777216
100
AcDbMText
 10
132.0122120990044
 20
210.5915554391462
 30
0.0
 40
7.0
 41
0.0
 71
     5
 72
     1
  1
\A1;45
 11
0.0000000000000001
 21
1.0
 31
0.0
 73
     1
 44
1.0
  0
POINT
  5
F53
330
ECF
100
AcDbEntity
  8
Defpoints
 62
     0
440
 16777216
100
AcDbPoint
 10
172.757140483318
 20
233.0915554391463
 30
0.0
  0
POINT
  5
F54
330
ECF
100
AcDbEntity
  8
Defpoints
 62
     0
440
 16777216
100
AcDbPoint
 10
187.4884720608775
 20
188.091555439146
 30
0.0
  0
POINT
  5
F55
330
ECF
100
AcDbEntity
  8
Defpoints
 62
     0
440
 16777216
100
AcDbPoint
 10
138.5122120990045
 20
188.091555439146
 30
0.0
  0
ENDBLK
  5
EDB
330
ECF
100
AcDbEntity
  8
0
100
AcDbBlockEnd
  0
BLOCK
  5
EE7
330
EDC
100
AcDbEntity
  8
0
100
AcDbBlockBegin
  2
*D6
 70
     1
 10
0.0
 20
0.0
 30
0.0
  3
*D6
  1

  0
LINE
  5
104F
330
EDC
100
AcDbEntity
  8
BEM
 62
     0
440
 16777216
370
    -2
100
AcDbLine
 10
172.757140483318
 20
229.0915554391463
 30
0.0
 11
172.757140483318
 21
153.2568169953419
 31
0.0
  0
LINE
  5
1050
330
EDC
100
AcDbEntity
  8
BEM
 62
     0
440
 16777216
370
    -2
100
AcDbLine
 10
274.357140483318
 20
229.0915554391458
 30
0.0
 11
274.357140483318
 21
153.2568169953419
 31
0.0
  0
LINE
  5
1051
330
EDC
100
AcDbEntity
  8
BEM
 62
     0
440
 16777216
370
    -2
100
AcDbLine
 10
179.757140483318
 20
155.2568169953419
 30
0.0
 11
267.3571404833181
 21
155.2568169953419
 31
0.0
  0
SOLID
  5
1052
330
EDC
100
AcDbEntity
  8
BEM
 62
     0
440
 16777216
100
AcDbTrace
 10
179.757140483318
 20
156.4234836620086
 30
0.0
 11
179.757140483318
 21
154.0901503286753
 31
0.0
 12
172.757140483318
 22
155.2568169953419
 32
0.0
 13
172.757140483318
 23
155.2568169953419
 33
0.0
  0
SOLID
  5
1053
330
EDC
100
AcDbEntity
  8
BEM
 62
     0
440
 16777216
100
AcDbTrace
 10
267.3571404833181
 20
156.4234836620086
 30
0.0
 11
267.3571404833181
 21
154.0901503286753
 31
0.0
 12
274.357140483318
 22
155.2568169953419
 32
0.0
 13
274.357140483318
 23
155.2568169953419
 33
0.0
  0
MTEXT
  5
1054
330
EDC
100
AcDbEntity
  8
BEM
 62
     1
440
 16777216
100
AcDbMText
 10
223.557140483318
 20
161.756816995342
 30
0.0
 40
7.0
 41
0.0
 71
     5
 72
     1
  1
\A1;%%c101.6
 73
     1
 44
1.0
  0
POINT
  5
1055
330
EDC
100
AcDbEntity
  8
Defpoints
 62
     0
440
 16777216
100
AcDbPoint
 10
172.757140483318
 20
231.0915554391463
 30
0.0
  0
POINT
  5
1056
330
EDC
100
AcDbEntity
  8
Defpoints
 62
     0
440
 16777216
100
AcDbPoint
 10
274.357140483318
 20
231.0915554391459
 30
0.0
  0
POINT
  5
1057
330
EDC
100
AcDbEntity
  8
Defpoints
 62
     0
440
 16777216
100
AcDbPoint
 10
274.357140483318
 20
155.2568169953419
 30
0.0
  0
ENDBLK
  5
EE8
330
EDC
100
AcDbEntity
  8
0
100
AcDbBlockEnd
  0
BLOCK
  5
EF3
330
EE9
100
AcDbEntity
  8
0
100
AcDbBlockBegin
  2
*D7
 70
     1
 10
0.0
 20
0.0
 30
0.0
  3
*D7
  1

  0
LINE
  5
FBD
330
EE9
100
AcDbEntity
  8
BEM
 62
     0
440
 16777216
370
    -2
100
AcDbLine
 10
171.5571404833181
 20
753.2236449017841
 30
0.0
 11
56.09880112162466
 21
753.2236449017841
 31
0.0
  0
LINE
  5
FBE
330
EE9
100
AcDbEntity
  8
BEM
 62
     0
440
 16777216
370
    -2
100
AcDbLine
 10
170.757140483318
 20
233.0915554391463
 30
0.0
 11
56.09880112162453
 21
233.0915554391463
 31
0.0
  0
LINE
  5
FBF
330
EE9
100
AcDbEntity
  8
BEM
 62
     0
440
 16777216
370
    -2
100
AcDbLine
 10
58.09880112162466
 20
746.2236449017841
 30
0.0
 11
58.09880112162455
 21
240.0915554391463
 31
0.0
  0
SOLID
  5
FC0
330
EE9
100
AcDbEntity
  8
BEM
 62
     0
440
 16777216
100
AcDbTrace
 10
56.932134454958
 20
746.2236449017841
 30
0.0
 11
59.26546778829132
 21
746.2236449017841
 31
0.0
 12
58.09880112162467
 22
753.2236449017841
 32
0.0
 13
58.09880112162467
 23
753.2236449017841
 33
0.0
  0
SOLID
  5
FC1
330
EE9
100
AcDbEntity
  8
BEM
 62
     0
440
 16777216
100
AcDbTrace
 10
56.93213445495789
 20
240.0915554391463
 30
0.0
 11
59.26546778829122
 21
240.0915554391463
 31
0.0
 12
58.09880112162455
 22
233.0915554391463
 32
0.0
 13
58.09880112162455
 23
233.0915554391463
 33
0.0
  0
MTEXT
  5
FC2
330
EE9
100
AcDbEntity
  8
BEM
 62
     1
440
 16777216
100
AcDbMText
 10
51.59880112162452
 20
493.1576001704652
 30
0.0
 40
7.0
 41
0.0
 71
     5
 72
     1
  1
\A1;760
  7
GREEKS
 11
0.0000000000000001
 21
1.0
 31
0.0
 73
     1
 44
1.0
  0
POINT
  5
FC3
330
EE9
100
AcDbEntity
  8
Defpoints
 62
     0
440
 16777216
100
AcDbPoint
 10
173.5571404833181
 20
753.2236449017841
 30
0.0
  0
POINT
  5
FC4
330
EE9
100
AcDbEntity
  8
Defpoints
 62
     0
440
 16777216
100
AcDbPoint
 10
172.757140483318
 20
233.0915554391463
 30
0.0
  0
POINT
  5
FC5
330
EE9
100
AcDbEntity
  8
Defpoints
 62
     0
440
 16777216
100
AcDbPoint
 10
58.09880112162455
 20
233.0915554391463
 30
0.0
  0
ENDBLK
  5
EF4
330
EE9
100
AcDbEntity
  8
0
100
AcDbBlockEnd
  0
BLOCK
  5
EFF
330
EF5
100
AcDbEntity
  8
0
100
AcDbBlockBegin
  2
*D8
 70
     1
 10
0.0
 20
0.0
 30
0.0
  3
*D8
  1

  0
LINE
  5
F3A
330
EF5
100
AcDbEntity
  8
BEM
 62
     0
440
 16777216
370
    -2
100
AcDbLine
 10
187.0571404833181
 20
191.0216979304837
 30
0.0
 11
187.0571404833181
 21
165.8379627677029
 31
0.0
  0
LINE
  5
F3B
330
EF5
100
AcDbEntity
  8
BEM
 62
     0
440
 16777216
370
    -2
100
AcDbLine
 10
260.0571404833181
 20
191.0216979304843
 30
0.0
 11
260.0571404833181
 21
165.8379627677029
 31
0.0
  0
LINE
  5
F3C
330
EF5
100
AcDbEntity
  8
BEM
 62
     0
440
 16777216
370
    -2
100
AcDbLine
 10
194.0571404833181
 20
167.8379627677029
 30
0.0
 11
253.0571404833181
 21
167.8379627677029
 31
0.0
  0
SOLID
  5
F3D
330
EF5
100
AcDbEntity
  8
BEM
 62
     0
440
 16777216
100
AcDbTrace
 10
194.0571404833181
 20
169.0046294343696
 30
0.0
 11
194.0571404833181
 21
166.6712961010363
 31
0.0
 12
187.0571404833181
 22
167.8379627677029
 32
0.0
 13
187.0571404833181
 23
167.8379627677029
 33
0.0
  0
SOLID
  5
F3E
330
EF5
100
AcDbEntity
  8
BEM
 62
     0
440
 16777216
100
AcDbTrace
 10
253.0571404833181
 20
169.0046294343696
 30
0.0
 11
253.0571404833181
 21
166.6712961010363
 31
0.0
 12
260.0571404833181
 22
167.8379627677029
 32
0.0
 13
260.0571404833181
 23
167.8379627677029
 33
0.0
  0
MTEXT
  5
F3F
330
EF5
100
AcDbEntity
  8
BEM
 62
     1
440
 16777216
100
AcDbMText
 10
223.5571404833181
 20
174.3379627677029
 30
0.0
 40
7.0
 41
0.0
 71
     5
 72
     1
  1
\A1;%%c73
  7
GREEKS
 73
     1
 44
1.0
  0
POINT
  5
F40
330
EF5
100
AcDbEntity
  8
Defpoints
 62
     0
440
 16777216
100
AcDbPoint
 10
187.0571404833181
 20
193.0216979304837
 30
0.0
  0
POINT
  5
F41
330
EF5
100
AcDbEntity
  8
Defpoints
 62
     0
440
 16777216
100
AcDbPoint
 10
260.0571404833181
 20
193.0216979304844
 30
0.0
  0
POINT
  5
F42
330
EF5
100
AcDbEntity
  8
Defpoints
 62
     0
440
 16777216
100
AcDbPoint
 10
260.0571404833181
 20
167.8379627677029
 30
0.0
  0
ENDBLK
  5
F00
330
EF5
100
AcDbEntity
  8
0
100
AcDbBlockEnd
  0
ENDSEC
  0
SECTION
  2
ENTITIES
  0
TEXT
  5
D1D
330
1E
100
AcDbEntity
  8
TEXT
100
AcDbText
 10
505.2884088972201
 20
612.9198097350654
 30
0.0
 40
4.0
  1
DIN EN1123-2
 50
90.0
 41
0.8
  7
GREEKS
 72
     1
 11
505.2884088972201
 21
629.9102859255416
 31
0.0
100
AcDbText
  0
HATCH
  5
D1E
330
1E
100
AcDbEntity
  8
SCHRAFF
100
AcDbHatch
 10
0.0
 20
0.0
 30
0.0
210
0.0
220
0.0
230
1.0
  2
_USER
 70
     0
 71
     1
 91
        2
 92
        7
 72
     0
 73
     1
 93
        6
 10
173.9571404833179
 20
620.5713720321151
 10
172.757140483318
 20
620.3660599904011
 10
172.757140483318
 20
241.091555439148
 10
173.557140483318
 20
233.0915554391463
 10
174.7631255578526
 20
233.0915554391463
 10
173.9571404833179
 20
241.1514061844937
 97
        6
330
D34
330
D48
330
D25
330
D94
330
D24
330
D47
 92
        7
 72
     0
 73
     1
 93
        6
 10
274.357140483318
 20
620.2976226431628
 10
273.1571404833181
 20
620.0923106014487
 10
273.1571404833181
 20
241.1514061844913
 10
272.3511554087837
 20
233.0915554391463
 10
273.5571404833182
 20
233.0915554391463
 10
274.357140483318
 20
241.0915554391459
 97
        6
330
D34
330
D5D
330
D26
330
D7D
330
D27
330
D5E
 75
     0
 76
     0
 52
135.0
 41
2.0
 77
     0
 78
     1
 53
135.0
 43
-0.0000017408610802
 44
-0.0000009229893294
 45
-1.414213562373095
 46
-1.414213562373094
 79
     0
 47
0.7644897427378968
 98
        2
 10
173.5351605235601
 20
389.9316419009886
 10
273.762390270771
 20
379.2287854656422
  0
HATCH
  5
D1F
330
1E
100
AcDbEntity
  8
SCHRAFF
100
AcDbHatch
 10
0.0
 20
0.0
 30
0.0
210
0.0
220
0.0
230
1.0
  2
_USER
 70
     0
 71
     1
 91
        2
 92
        7
 72
     0
 73
     1
 93
        6
 10
173.957140483318
 20
745.1637941564373
 10
174.7631255578526
 20
753.2236449017842
 10
173.5571404833181
 20
753.223644901784
 10
172.757140483318
 20
745.2236449017825
 10
172.757140483318
 20
630.022287418074
 10
173.957140483318
 20
630.2275994597882
 97
        6
330
D28
330
D9D
330
D29
330
D61
330
D49
330
D5C
 92
        7
 72
     0
 73
     1
 93
        6
 10
274.357140483318
 20
745.223644901785
 10
273.5571404833181
 20
753.2236449017844
 10
272.3511554087836
 20
753.2236449017845
 10
273.1571404833181
 20
745.1637941564403
 10
273.1571404833181
 20
629.7485380291217
 10
274.3571404833181
 20
629.953850070836
 97
        6
330
D2B
330
D9D
330
D2A
330
D5F
330
D49
330
D60
 75
     0
 76
     0
 52
135.0
 41
2.0
 77
     0
 78
     1
 53
135.0
 43
-0.0000017408610802
 44
-0.0000009229893294
 45
-1.414213562373095
 46
-1.414213562373094
 79
     0
 47
0.3592200009524253
 98
        2
 10
173.684426447925
 20
700.5397117238806
 10
273.9859396365591
 20
703.413471787024
  0
HATCH
  5
D20
330
1E
100
AcDbEntity
  8
SCHRAFF
100
AcDbHatch
 10
0.0
 20
0.0
 30
0.0
210
0.0
220
0.0
230
1.0
  2
NET
 70
     0
 71
     1
 91
        2
 92
        7
 72
     0
 73
     1
 93
        9
 10
173.9571404833179
 20
249.0915554391459
 10
173.9571404833179
 20
241.1514061844935
 10
174.7631255578526
 20
233.0915554391463
 10
172.757140483318
 20
233.0915554391463
 10
172.757140483318
 20
231.0915554391463
 10
179.538338329801
 20
231.0915554391463
 10
184.157140483318
 20
239.0915554391461
 10
187.0571404833181
 20
239.0915554391461
 10
187.057140483318
 20
249.0915554391459
 97
        9
330
D95
330
D47
330
D24
330
D94
330
D22
330
D62
330
D63
330
D93
330
D66
 92
        7
 72
     0
 73
     1
 93
        9
 10
273.1571404833181
 20
249.0915554391461
 10
260.0571404833181
 20
249.091555439146
 10
260.0571404833181
 20
239.0915554391461
 10
262.9571404833179
 20
239.091555439146
 10
267.5759426368349
 20
231.0915554391458
 10
274.357140483318
 20
231.0915554391459
 10
274.357140483318
 20
233.0915554391463
 10
272.3511554087837
 20
233.0915554391463
 10
273.1571404833181
 20
241.1514061844907
 97
        9
330
D7C
330
D69
330
D7B
330
D65
330
D64
330
D23
330
D7D
330
D26
330
D5D
 75
     0
 76
     1
 52
45.0
 41
20.0
 77
     0
 78
     2
 53
45.0
 43
0.0
 44
0.0
 45
-1.767766952966368
 46
1.767766952966368
 79
     0
 53
135.0
 43
0.0
 44
0.0
 45
-1.767766952966368
 46
-1.767766952966368
 79
     0
 47
1.041481121673409
 98
        2
 10
178.75617484251
 20
245.4063009520264
 10
269.4365740038133
 20
243.3233384606731
  0
HATCH
  5
D21
330
1E
100
AcDbEntity
  8
SCHRAFF
100
AcDbHatch
 10
0.0
 20
0.0
 30
0.0
210
0.0
220
0.0
230
1.0
  2
NET
 70
     0
 71
     1
 91
        2
 92
        7
 72
     1
 73
     1
 93
        6
 10
173.9571404833179
 20
745.1637941564371
 42
0.0
 10
173.9571404833179
 20
739.2236449017842
 42
0.0
 10
181.457140483318
 20
739.2236449017842
 42
0.0
 10
181.457140483318
 20
742.6747224946653
 42
-0.1093332246020783
 10
183.7917431550428
 20
753.2236449017841
 42
0.0
 10
174.7631255578526
 20
753.223644901784
 42
0.0
 97
        6
330
D9D
330
D28
330
D5C
330
D92
330
D8B
330
D84
 92
        7
 72
     1
 73
     1
 93
        6
 10
265.657140483318
 20
742.6747224946658
 42
0.0
 10
265.657140483318
 20
739.2236449017842
 42
0.0
 10
273.157140483318
 20
739.2236449017842
 42
0.0
 10
273.157140483318
 20
745.1637941564403
 42
0.0
 10
272.3511554087837
 20
753.2236449017842
 42
0.0
 10
263.3225378115932
 20
753.2236449017842
 42
-0.109333224602073
 97
        6
330
D9D
330
D6D
330
D74
330
D72
330
D5F
330
D2A
 75
     0
 76
     1
 52
45.0
 41
20.0
 77
     0
 78
     2
 53
45.0
 43
0.0
 44
0.0
 45
-1.767766952966368
 46
1.767766952966368
 79
     0
 53
135.0
 43
0.0
 44
0.0
 45
-1.767766952966368
 46
-1.767766952966368
 79
     0
 47
1.041481121673409
 98
        2
 10
177.713873097518
 20
748.441684193516
 10
268.3942722588213
 20
745.3172414466609
  0
LINE
  5
D22
102
{ACAD_REACTORS
330
D20
102
}
330
1E
100
AcDbEntity
  8
STEMPEL
100
AcDbLine
 10
172.757140483318
 20
233.0915554391463
 30
0.0
 11
172.757140483318
 21
231.0915554391463
 31
0.0
  0
LINE
  5
D23
102
{ACAD_REACTORS
330
D20
102
}
330
1E
100
AcDbEntity
  8
STEMPEL
100
AcDbLine
 10
274.357140483318
 20
233.0915554391463
 30
0.0
 11
274.357140483318
 21
231.0915554391459
 31
0.0
  0
LINE
  5
D24
102
{ACAD_REACTORS
330
D20
330
D1E
102
}
330
1E
100
AcDbEntity
  8
STEMPEL
100
AcDbLine
 10
174.7631255578526
 20
233.0915554391463
 30
0.0
 11
173.957140483318
 21
241.1514061844928
 31
0.0
  0
LINE
  5
D25
102
{ACAD_REACTORS
330
D1E
102
}
330
1E
100
AcDbEntity
  8
STEMPEL
100
AcDbLine
 10
173.5571404833181
 20
233.0915554391463
 30
0.0
 11
172.7571404833181
 21
241.0915554391472
 31
0.0
  0
LINE
  5
D26
102
{ACAD_REACTORS
330
D20
330
D1E
102
}
330
1E
100
AcDbEntity
  8
STEMPEL
100
AcDbLine
 10
272.3511554087837
 20
233.0915554391463
 30
0.0
 11
273.1630958550661
 21
241.2109599019714
 31
0.0
  0
LINE
  5
D27
102
{ACAD_REACTORS
330
D1E
102
}
330
1E
100
AcDbEntity
  8
STEMPEL
100
AcDbLine
 10
273.5571404833182
 20
233.0915554391463
 30
0.0
 11
274.3571404833181
 21
241.0915554391463
 31
0.0
  0
LINE
  5
D28
102
{ACAD_REACTORS
330
D21
330
D1F
102
}
330
1E
100
AcDbEntity
  8
STEMPEL
100
AcDbLine
 10
174.7631255578526
 20
753.2236449017841
 30
0.0
 11
173.957140483318
 21
745.1637941564377
 31
0.0
  0
LINE
  5
D29
102
{ACAD_REACTORS
330
D1F
102
}
330
1E
100
AcDbEntity
  8
STEMPEL
100
AcDbLine
 10
173.5571404833181
 20
753.2236449017841
 30
0.0
 11
172.7571404833181
 21
745.2236449017832
 31
0.0
  0
LINE
  5
D2A
102
{ACAD_REACTORS
330
D21
330
D1F
102
}
330
1E
100
AcDbEntity
  8
STEMPEL
100
AcDbLine
 10
272.3511554087837
 20
753.2236449017841
 30
0.0
 11
273.1630958550661
 21
745.1042404389588
 31
0.0
  0
LINE
  5
D2B
102
{ACAD_REACTORS
330
D1F
102
}
330
1E
100
AcDbEntity
  8
STEMPEL
100
AcDbLine
 10
273.5571404833182
 20
753.2236449017841
 30
0.0
 11
274.3571404833181
 21
745.2236449017841
 31
0.0
  0
HATCH
  5
D2D
330
1E
100
AcDbEntity
  8
SCHRAFF
100
AcDbHatch
 10
0.0
 20
0.0
 30
0.0
210
0.0
220
0.0
230
1.0
  2
_USER
 70
     0
 71
     1
 91
        2
 92
        7
 72
     0
 73
     1
 93
        6
 10
260.0571404833181
 20
618.1536189306488
 10
258.457140483318
 20
617.9677439536987
 10
258.457140483318
 20
193.091555439137
 10
258.0196971656892
 20
188.091555439146
 10
259.6258089057585
 20
188.091555439146
 10
260.0571404833181
 20
193.0216979304841
 97
        6
330
D34
330
D68
330
D7F
330
D9E
330
D7E
330
D69
 92
        7
 72
     0
 73
     1
 93
        6
 10
188.6571404833178
 20
622.6959386798652
 10
187.057140483318
 20
622.5100637029153
 10
187.0571404833181
 20
193.0216979304836
 10
187.4884720608775
 20
188.091555439146
 10
189.0945838009469
 20
188.091555439146
 10
188.6571404833173
 20
193.0915554391463
 97
        6
330
D34
330
D66
330
D97
330
D9E
330
D96
330
D67
 75
     0
 76
     0
 52
45.0
 41
2.0
 77
     0
 78
     1
 53
45.0
 43
-0.0000017408610802
 44
-0.0000009229893294
 45
-1.414213562373094
 46
1.414213562373095
 79
     0
 47
0.8390319908635149
 98
        2
 10
258.9338648074654
 20
536.745538730217
 10
187.562071004625
 20
491.437810964132
  0
HATCH
  5
D2E
330
1E
100
AcDbEntity
  8
SCHRAFF
100
AcDbHatch
 10
0.0
 20
0.0
 30
0.0
210
0.0
220
0.0
230
1.0
  2
_USER
 70
     0
 71
     1
 91
        2
 92
        7
 72
     1
 73
     1
 93
       19
 10
185.5571404833181
 20
720.2236449017841
 42
0.0926930603363551
 10
184.638189607084
 20
725.1380108955449
 42
-0.0934049271926022
 10
183.0571404833181
 20
733.6597038676996
 42
0.0
 10
183.0571404833181
 20
742.6747224946653
 42
-0.1095178116832437
 10
185.2495382666604
 20
752.5639898193978
 42
0.0
 10
185.557140483318
 20
753.2236449017841
 42
0.0
 10
183.7917431550428
 20
753.2236449017841
 42
0.1093332246020783
 10
181.457140483318
 20
742.6747224946653
 42
0.0
 10
181.457140483318
 20
733.6619249499749
 42
0.0933817694259112
 10
183.1463014748762
 20
724.5598501903966
 42
-0.0926930603363613
 10
183.9571404833181
 20
720.2236449017838
 42
0.0
 10
183.9571404833181
 20
703.612371319201
 42
0.1420008527982317
 10
185.817140483318
 20
697.1951756700096
 42
-0.1420008527982351
 10
187.0571404833181
 20
692.9170452372152
 42
0.0
 10
187.0571404833181
 20
632.1662911305881
 42
0.0
 10
188.6571404833178
 20
632.3521661075381
 42
0.0
 10
188.657140483318
 20
692.9170452372154
 42
0.1420008527982317
 10
187.169140483318
 20
698.0508017565686
 42
-0.1420008527982251
 10
185.5571404833181
 20
703.612371319201
 42
0.0
 97
       19
330
D86
330
D89
330
D8A
330
D85
330
D83
330
D9D
330
D84
330
D8B
330
D87
330
D88
330
D90
330
D8D
330
D8E
330
D99
330
D49
330
D98
330
D8F
330
D8C
330
D91
 92
        7
 72
     1
 73
     1
 93
       19
 10
263.157140483318
 20
720.2236449017841
 42
-0.0926930603363638
 10
263.9679794917599
 20
724.559850190397
 42
0.0933817694259075
 10
265.657140483318
 20
733.6619249499749
 42
0.0
 10
265.657140483318
 20
742.6747224946653
 42
0.1093332246020787
 10
263.3225378115932
 20
753.2236449017842
 42
0.0
 10
261.5571404833182
 20
753.2236449017841
 42
0.0
 10
261.8647426999757
 20
752.5639898193978
 42
-0.1095178116832413
 10
264.0571404833181
 20
742.6747224946654
 42
0.0
 10
264.0571404833181
 20
733.6597038676996
 42
-0.0934049271926088
 10
262.4760913595518
 20
725.1380108955444
 42
0.0926930603363457
 10
261.557140483318
 20
720.2236449017841
 42
0.0
 10
261.557140483318
 20
703.612371319201
 42
-0.1420008527982353
 10
259.9451404833179
 20
698.0508017565682
 42
0.1420008527982215
 10
258.457140483318
 20
692.9170452372154
 42
0.0
 10
258.457140483318
 20
627.6239713813717
 42
0.0
 10
260.0571404833181
 20
627.8098463583219
 42
0.0
 10
260.0571404833181
 20
692.9170452372154
 42
-0.1420008527982343
 10
261.2971404833181
 20
697.1951756700097
 42
0.1420008527982267
 10
263.157140483318
 20
703.612371319201
 42
0.0
 97
       19
330
D6E
330
D71
330
D74
330
D6D
330
D9D
330
D6B
330
D6C
330
D73
330
D70
330
D6F
330
D79
330
D75
330
D78
330
D81
330
D49
330
D82
330
D77
330
D76
330
D7A
 75
     0
 76
     0
 52
45.0
 41
2.0
 77
     0
 78
     1
 53
45.0
 43
-0.0000017408610802
 44
-0.0000009229893294
 45
-1.414213562373094
 46
1.414213562373095
 79
     0
 47
0.269873925982028
 98
        2
 10
184.9063769870317
 20
713.7782436149345
 10
262.4189251846401
 20
716.207111739498
  0
HATCH
  5
D2F
330
1E
100
AcDbEntity
  8
SCHRAFF
100
AcDbHatch
 10
0.0
 20
0.0
 30
0.0
210
0.0
220
0.0
230
1.0
  2
NET
 70
     0
 71
     0
 91
        2
 92
        7
 72
     1
 73
     1
 93
       18
 10
172.757140483318
 20
472.621763080341
 42
0.0
 10
169.6937537477102
 20
477.709991647995
 42
0.6565381519876337
 10
166.9707755642919
 20
478.1134044693089
 42
0.0
 10
164.4095686326921
 20
473.991327527796
 42
0.1436237563963219
 10
163.8075685909055
 20
471.8217630803411
 42
0.0
 10
168.4358201397579
 20
471.8217630803412
 42
0.0
 10
170.5571404833174
 20
469.7004427367813
 42
0.0
 10
166.9848273860254
 20
466.1281296394898
 42
0.0
 10
166.0528098169804
 20
463.5674324140035
 42
0.0
 10
163.8071404833179
 20
461.3217630803412
 42
0.0
 10
163.8071404833179
 20
460.3217630803412
 42
0.0
 10
165.8071404833179
 20
458.3217630803412
 42
0.0
 10
165.8071404833179
 20
457.7188773973711
 42
0.0
 10
163.5571404833179
 20
453.8217630803412
 42
0.0
 10
165.5571404833179
 20
453.8217630803412
 42
0.0
 10
166.9575555597374
 20
455.8217630803413
 42
0.0
 10
169.1581609977519
 20
455.8217630803413
 42
0.283881146809468
 10
172.757140483318
 20
451.9937199985118
 42
0.0
 97
        0
 92
        7
 72
     1
 73
     1
 93
       18
 10
283.3071404833179
 20
460.3217630803412
 42
0.0
 10
283.3071404833179
 20
461.3217630803413
 42
0.0
 10
281.0614711496557
 20
463.5674324140035
 42
0.0
 10
280.1294535806109
 20
466.128129639489
 42
0.0
 10
276.557140483318
 20
469.7004427367814
 42
0.0
 10
278.6784608268773
 20
471.821763080341
 42
0.0
 10
283.3067123757303
 20
471.8217630803411
 42
0.1436237563963265
 10
282.7047123339437
 20
473.991327527796
 42
0.0
 10
280.1435054023441
 20
478.1134044693089
 42
0.6565381519876166
 10
277.4205272189258
 20
477.709991647995
 42
0.0
 10
274.357140483318
 20
472.6217630803414
 42
0.0
 10
274.357140483318
 20
451.993719998512
 42
0.2838811468094691
 10
277.9561199688842
 20
455.8217630803413
 42
0.0
 10
280.1567254068985
 20
455.8217630803413
 42
0.0
 10
281.557140483318
 20
453.8217630803412
 42
0.0
 10
283.5571404833179
 20
453.8217630803412
 42
0.0
 10
281.3071404833179
 20
457.718877397371
 42
0.0
 10
281.3071404833179
 20
458.3217630803412
 42
0.0
 97
        0
 75
     0
 76
     1
 52
45.0
 41
15.0
 77
     0
 78
     2
 53
45.0
 43
0.0
 44
0.0
 45
-1.325825214724776
 46
1.325825214724776
 79
     0
 53
135.0
 43
0.0
 44
0.0
 45
-1.325825214724776
 46
-1.325825214724776
 79
     0
 47
0.2470848825781648
 98
        2
 10
168.6561675479934
 20
463.3055705334221
 10
278.1977659214526
 20
459.846383042923
  0
LINE
  5
D30
330
1E
100
AcDbEntity
  8
STEMPEL
100
AcDbLine
 10
274.357140483318
 20
450.2004427367831
 30
0.0
 11
368.5571404833181
 21
450.2004427367825
 31
0.0
  0
LINE
  5
D31
330
1E
100
AcDbEntity
  8
MITTEL
100
AcDbLine
 10
223.5571404833181
 20
400.551937778655
 30
0.0
 11
223.5571404833181
 21
183.091555439146
 31
0.0
  0
DIMENSION
  5
D32
330
1E
100
AcDbEntity
  8
BEM
100
AcDbDimension
  2
*D5
 10
138.5122120990045
 20
188.091555439146
 30
0.0
 11
132.0122120990044
 21
210.5915554391462
 31
0.0
 70
    32
 71
     5
 42
45.00000000000023
  3
Standard
100
AcDbAlignedDimension
 13
172.757140483318
 23
233.0915554391463
 33
0.0
 14
187.4884720608775
 24
188.091555439146
 34
0.0
 50
90.0
100
AcDbRotatedDimension
1001
ACAD
1000
DSTYLE
1002
{
1070
    40
1040
2.0
1070
    41
1040
3.5
1070
    42
1040
1.0
1070
    43
1040
7.0
1070
    44
1040
1.0
1070
    73
1070
     0
1070
    74
1070
     0
1070
    77
1070
     1
1070
    78
1070
     8
1070
    79
1070
     2
1070
   140
1040
3.5
1070
   141
1040
1.5
1070
   146
1040
0.5142857142857144
1070
   147
1040
1.5
1070
   172
1070
     1
1070
   178
1070
     1
1070
   179
1070
     2
1070
   271
1070
     2
1070
   272
1070
     2
1070
   284
1070
     8
1070
   285
1070
     8
1070
   286
1070
     8
1002
}
  0
DIMENSION
  5
D33
330
1E
100
AcDbEntity
  8
BEM
100
AcDbDimension
  2
*D6
 10
274.357140483318
 20
155.2568169953419
 30
0.0
 11
223.557140483318
 21
161.756816995342
 31
0.0
 70
    32
  1
%%c<>
 71
     5
 42
101.6
  3
Standard
100
AcDbAlignedDimension
 13
172.757140483318
 23
231.0915554391463
 33
0.0
 14
274.357140483318
 24
231.0915554391459
 34
0.0
100
AcDbRotatedDimension
1001
ACAD
1000
DSTYLE
1002
{
1070
    40
1040
2.0
1070
    41
1040
3.5
1070
    42
1040
1.0
1070
    43
1040
7.0
1070
    44
1040
1.0
1070
    73
1070
     0
1070
    74
1070
     0
1070
    77
1070
     1
1070
    78
1070
     8
1070
    79
1070
     2
1070
   140
1040
3.5
1070
   141
1040
1.5
1070
   146
1040
0.5142857142857144
1070
   147
1040
1.5
1070
   172
1070
     1
1070
   178
1070
     1
1070
   179
1070
     2
1070
   271
1070
     2
1070
   272
1070
     2
1070
   284
1070
     8
1070
   285
1070
     8
1070
   286
1070
     8
1002
}
  0
POLYLINE
  5
D34
102
{ACAD_REACTORS
330
D2D
330
D1E
330
FBC
102
}
330
1E
100
AcDbEntity
  8
HILF
100
AcDb2dPolyline
 66
     1
 10
0.0
 20
0.0
 30
0.0
  0
VERTEX
  5
D35
330
D34
100
AcDbEntity
  8
HILF
100
AcDbVertex
100
AcDb2dVertex
 10
172.757140483318
 20
620.366059990401
 30
0.0
  0
VERTEX
  5
D36
330
D34
100
AcDbEntity
  8
HILF
100
AcDbVertex
100
AcDb2dVertex
 10
181.5468865770681
 20
621.8699272542819
 30
0.0
  0
VERTEX
  5
D37
330
D34
100
AcDbEntity
  8
HILF
100
AcDbVertex
100
AcDb2dVertex
 10
189.4907342333181
 20
622.7927788167819
 30
0.0
  0
VERTEX
  5
D38
330
D34
100
AcDbEntity
  8
HILF
100
AcDbVertex
100
AcDb2dVertex
 10
196.5380975145681
 20
623.1882866292819
 30
0.0
  0
VERTEX
  5
D39
330
D34
100
AcDbEntity
  8
HILF
100
AcDbVertex
100
AcDb2dVertex
 10
202.838390483318
 20
623.1443413167819
 30
0.0
  0
VERTEX
  5
D3A
330
D34
100
AcDbEntity
  8
HILF
100
AcDbVertex
100
AcDb2dVertex
 10
208.541027202068
 20
622.7488335042819
 30
0.0
  0
VERTEX
  5
D3B
330
D34
100
AcDbEntity
  8
HILF
100
AcDbVertex
100
AcDb2dVertex
 10
213.795421733318
 20
622.0896538167819
 30
0.0
  0
VERTEX
  5
D3C
330
D34
100
AcDbEntity
  8
HILF
100
AcDbVertex
100
AcDb2dVertex
 10
218.750988139568
 20
621.2546928792819
 30
0.0
  0
VERTEX
  5
D3D
330
D34
100
AcDbEntity
  8
HILF
100
AcDbVertex
100
AcDb2dVertex
 10
223.5571404833181
 20
620.3318413167819
 30
0.0
  0
VERTEX
  5
D3E
330
D34
100
AcDbEntity
  8
HILF
100
AcDbVertex
100
AcDb2dVertex
 10
228.3632928270681
 20
619.4089897542819
 30
0.0
  0
VERTEX
  5
D3F
330
D34
100
AcDbEntity
  8
HILF
100
AcDbVertex
100
AcDb2dVertex
 10
233.3188592333181
 20
618.5740288167819
 30
0.0
  0
VERTEX
  5
D40
330
D34
100
AcDbEntity
  8
HILF
100
AcDbVertex
100
AcDb2dVertex
 10
238.5732537645681
 20
617.9148491292819
 30
0.0
  0
VERTEX
  5
D41
330
D34
100
AcDbEntity
  8
HILF
100
AcDbVertex
100
AcDb2dVertex
 10
244.2758904833181
 20
617.5193413167819
 30
0.0
  0
VERTEX
  5
D42
330
D34
100
AcDbEntity
  8
HILF
100
AcDbVertex
100
AcDb2dVertex
 10
250.5761834520681
 20
617.4753960042819
 30
0.0
  0
VERTEX
  5
D43
330
D34
100
AcDbEntity
  8
HILF
100
AcDbVertex
100
AcDb2dVertex
 10
257.6235467333181
 20
617.8709038167819
 30
0.0
  0
VERTEX
  5
D44
330
D34
100
AcDbEntity
  8
HILF
100
AcDbVertex
100
AcDb2dVertex
 10
265.5673943895681
 20
618.7937553792819
 30
0.0
  0
VERTEX
  5
D45
330
D34
100
AcDbEntity
  8
HILF
100
AcDbVertex
100
AcDb2dVertex
 10
274.357140483318
 20
620.2976226431628
 30
0.0
  0
SEQEND
  5
D46
330
D34
100
AcDbEntity
  8
HILF
  0
LINE
  5
D47
102
{ACAD_REACTORS
330
D20
330
D1E
330
FBC
102
}
330
1E
100
AcDbEntity
  8
STEMPEL
100
AcDbLine
 10
173.9571404833179
 20
620.5713720321151
 30
0.0
 11
173.9571404833179
 21
241.1514061844933
 31
0.0
  0
LINE
  5
D48
102
{ACAD_REACTORS
330
D1E
102
}
330
1E
100
AcDbEntity
  8
STEMPEL
100
AcDbLine
 10
172.757140483318
 20
620.366059990401
 30
0.0
 11
172.757140483318
 21
241.0915554391477
 31
0.0
  0
POLYLINE
  5
D49
102
{ACAD_REACTORS
330
D2E
330
D1F
330
FBC
102
}
330
1E
100
AcDbEntity
  8
HILF
100
AcDb2dPolyline
 66
     1
 10
0.0
 20
0.0
 30
0.0
  0
VERTEX
  5
D4A
330
D49
100
AcDbEntity
  8
HILF
100
AcDbVertex
100
AcDb2dVertex
 10
172.757140483318
 20
630.022287418074
 30
0.0
  0
VERTEX
  5
D4B
330
D49
100
AcDbEntity
  8
HILF
100
AcDbVertex
100
AcDb2dVertex
 10
181.5468865770681
 20
631.5261546819549
 30
0.0
  0
VERTEX
  5
D4C
330
D49
100
AcDbEntity
  8
HILF
100
AcDbVertex
100
AcDb2dVertex
 10
189.4907342333181
 20
632.4490062444549
 30
0.0
  0
VERTEX
  5
D4D
330
D49
100
AcDbEntity
  8
HILF
100
AcDbVertex
100
AcDb2dVertex
 10
196.5380975145681
 20
632.8445140569549
 30
0.0
  0
VERTEX
  5
D4E
330
D49
100
AcDbEntity
  8
HILF
100
AcDbVertex
100
AcDb2dVertex
 10
202.838390483318
 20
632.8005687444549
 30
0.0
  0
VERTEX
  5
D4F
330
D49
100
AcDbEntity
  8
HILF
100
AcDbVertex
100
AcDb2dVertex
 10
208.541027202068
 20
632.4050609319549
 30
0.0
  0
VERTEX
  5
D50
330
D49
100
AcDbEntity
  8
HILF
100
AcDbVertex
100
AcDb2dVertex
 10
213.795421733318
 20
631.7458812444549
 30
0.0
  0
VERTEX
  5
D51
330
D49
100
AcDbEntity
  8
HILF
100
AcDbVertex
100
AcDb2dVertex
 10
218.750988139568
 20
630.9109203069549
 30
0.0
  0
VERTEX
  5
D52
330
D49
100
AcDbEntity
  8
HILF
100
AcDbVertex
100
AcDb2dVertex
 10
223.5571404833181
 20
629.9880687444549
 30
0.0
  0
VERTEX
  5
D53
330
D49
100
AcDbEntity
  8
HILF
100
AcDbVertex
100
AcDb2dVertex
 10
228.3632928270681
 20
629.0652171819549
 30
0.0
  0
VERTEX
  5
D54
330
D49
100
AcDbEntity
  8
HILF
100
AcDbVertex
100
AcDb2dVertex
 10
233.3188592333181
 20
628.2302562444549
 30
0.0
  0
VERTEX
  5
D55
330
D49
100
AcDbEntity
  8
HILF
100
AcDbVertex
100
AcDb2dVertex
 10
238.5732537645681
 20
627.5710765569549
 30
0.0
  0
VERTEX
  5
D56
330
D49
100
AcDbEntity
  8
HILF
100
AcDbVertex
100
AcDb2dVertex
 10
244.2758904833181
 20
627.1755687444549
 30
0.0
  0
VERTEX
  5
D57
330
D49
100
AcDbEntity
  8
HILF
100
AcDbVertex
100
AcDb2dVertex
 10
250.5761834520681
 20
627.1316234319549
 30
0.0
  0
VERTEX
  5
D58
330
D49
100
AcDbEntity
  8
HILF
100
AcDbVertex
100
AcDb2dVertex
 10
257.6235467333181
 20
627.5271312444549
 30
0.0
  0
VERTEX
  5
D59
330
D49
100
AcDbEntity
  8
HILF
100
AcDbVertex
100
AcDb2dVertex
 10
265.5673943895681
 20
628.4499828069549
 30
0.0
  0
VERTEX
  5
D5A
330
D49
100
AcDbEntity
  8
HILF
100
AcDbVertex
100
AcDb2dVertex
 10
274.357140483318
 20
629.9538500708358
 30
0.0
  0
SEQEND
  5
D5B
330
D49
100
AcDbEntity
  8
HILF
  0
LINE
  5
D5C
102
{ACAD_REACTORS
330
D21
330
D1F
330
FBC
102
}
330
1E
100
AcDbEntity
  8
STEMPEL
100
AcDbLine
 10
173.957140483318
 20
745.163794156437
 30
0.0
 11
173.957140483318
 21
630.2275994597883
 31
0.0
  0
LINE
  5
D5D
102
{ACAD_REACTORS
330
D20
330
D1E
330
FBC
102
}
330
1E
100
AcDbEntity
  8
STEMPEL
100
AcDbLine
 10
273.1571404833181
 20
620.0923106014487
 30
0.0
 11
273.1571404833181
 21
241.1514061844914
 31
0.0
  0
LINE
  5
D5E
102
{ACAD_REACTORS
330
D1E
102
}
330
1E
100
AcDbEntity
  8
STEMPEL
100
AcDbLine
 10
274.357140483318
 20
620.297622643163
 30
0.0
 11
274.3571404833181
 21
241.0915554391459
 31
0.0
  0
LINE
  5
D5F
102
{ACAD_REACTORS
330
D21
330
D1F
330
FBC
102
}
330
1E
100
AcDbEntity
  8
STEMPEL
100
AcDbLine
 10
273.157140483318
 20
745.1637941564405
 30
0.0
 11
273.157140483318
 21
629.7485380291216
 31
0.0
  0
LINE
  5
D60
102
{ACAD_REACTORS
330
D1F
102
}
330
1E
100
AcDbEntity
  8
STEMPEL
100
AcDbLine
 10
274.357140483318
 20
745.2236449017846
 30
0.0
 11
274.357140483318
 21
629.9538500708358
 31
0.0
  0
LINE
  5
D61
102
{ACAD_REACTORS
330
D1F
102
}
330
1E
100
AcDbEntity
  8
STEMPEL
100
AcDbLine
 10
172.757140483318
 20
745.2236449017825
 30
0.0
 11
172.757140483318
 21
630.022287418074
 31
0.0
  0
LINE
  5
D62
102
{ACAD_REACTORS
330
D20
102
}
330
1E
100
AcDbEntity
  8
STEMPEL
100
AcDbLine
 10
187.0571404833178
 20
231.0915554391463
 30
0.0
 11
172.757140483318
 21
231.0915554391463
 31
0.0
  0
LINE
  5
D63
102
{ACAD_REACTORS
330
D20
102
}
330
1E
100
AcDbEntity
  8
STEMPEL
100
AcDbLine
 10
184.157140483318
 20
239.0915554391461
 30
0.0
 11
179.538338329801
 21
231.0915554391463
 31
0.0
  0
LINE
  5
D64
102
{ACAD_REACTORS
330
D20
102
}
330
1E
100
AcDbEntity
  8
STEMPEL
100
AcDbLine
 10
274.357140483318
 20
231.0915554391459
 30
0.0
 11
260.057140483318
 21
231.0915554391459
 31
0.0
  0
LINE
  5
D65
102
{ACAD_REACTORS
330
D20
102
}
330
1E
100
AcDbEntity
  8
STEMPEL
100
AcDbLine
 10
262.957140483318
 20
239.0915554391461
 30
0.0
 11
267.575942636835
 21
231.0915554391459
 31
0.0
  0
LINE
  5
D66
102
{ACAD_REACTORS
330
D2D
330
D20
330
FBC
102
}
330
1E
100
AcDbEntity
  8
STEMPEL
100
AcDbLine
 10
187.0571404833181
 20
622.5100637029149
 30
0.0
 11
187.0571404833181
 21
193.0216979304837
 31
0.0
  0
LINE
  5
D67
102
{ACAD_REACTORS
330
D2D
102
}
330
1E
100
AcDbEntity
  8
STEMPEL
100
AcDbLine
 10
188.6571404833177
 20
622.695938679865
 30
0.0
 11
188.6571404833173
 21
193.0915554391462
 31
0.0
  0
LINE
  5
D68
102
{ACAD_REACTORS
330
D2D
102
}
330
1E
100
AcDbEntity
  8
STEMPEL
100
AcDbLine
 10
258.4571404833181
 20
617.9677439536987
 30
0.0
 11
258.457140483318
 21
193.091555439137
 31
0.0
  0
LINE
  5
D69
102
{ACAD_REACTORS
330
D2D
330
D20
330
FBC
102
}
330
1E
100
AcDbEntity
  8
STEMPEL
100
AcDbLine
 10
260.0571404833181
 20
618.1536189306488
 30
0.0
 11
260.0571404833181
 21
193.0216979304844
 31
0.0
  0
DIMENSION
  5
D6A
330
1E
100
AcDbEntity
  8
BEM
100
AcDbDimension
  2
*D7
 10
58.09880112162455
 20
233.0915554391463
 30
0.0
 11
51.59880112162452
 21
493.1576001704652
 31
0.0
 70
    32
  1
760
 71
     5
 42
520.1320894626378
  3
Standard
100
AcDbAlignedDimension
 13
173.5571404833181
 23
753.2236449017841
 33
0.0
 14
172.757140483318
 24
233.0915554391463
 34
0.0
 50
90.0
100
AcDbRotatedDimension
1001
ACAD
1000
DSTYLE
1002
{
1070
    40
1040
2.0
1070
    41
1040
3.5
1070
    42
1040
1.0
1070
    43
1040
7.0
1070
    44
1040
1.0
1070
    73
1070
     0
1070
    74
1070
     0
1070
    77
1070
     1
1070
    78
1070
     8
1070
    79
1070
     2
1070
   140
1040
3.5
1070
   141
1040
1.5
1070
   146
1040
0.5142857142857144
1070
   147
1040
1.5
1070
   172
1070
     1
1070
   178
1070
     1
1070
   179
1070
     2
1070
   271
1070
     2
1070
   272
1070
     2
1070
   284
1070
     8
1070
   285
1070
     8
1070
   286
1070
     8
1070
   289
1070
     0
1070
   340
1005
B8B
1002
}
  0
LINE
  5
D6B
102
{ACAD_REACTORS
330
D2E
102
}
330
1E
100
AcDbEntity
  8
STEMPEL
100
AcDbLine
 10
261.5571404833181
 20
753.2236449017841
 30
0.0
 11
261.8647426999757
 21
752.5639898193978
 31
0.0
  0
ARC
  5
D6C
102
{ACAD_REACTORS
330
D2E
102
}
330
1E
100
AcDbEntity
  8
STEMPEL
100
AcDbCircle
 10
240.657140483318
 20
742.6747224946653
 30
0.0
 40
23.4
100
AcDbArc
 50
0.0
 51
24.99999999999344
  0
ARC
  5
D6D
102
{ACAD_REACTORS
330
D2E
330
D21
102
}
330
1E
100
AcDbEntity
  8
STEMPEL
100
AcDbCircle
 10
240.657140483318
 20
742.6747224946653
 30
0.0
 40
25.0
100
AcDbArc
 50
0.0
 51
24.9581963123036
  0
ARC
  5
D6E
102
{ACAD_REACTORS
330
D2E
330
FBC
102
}
330
1E
100
AcDbEntity
  8
STEMPEL
100
AcDbCircle
 10
275.157140483318
 20
720.2236449017841
 30
0.0
 40
12.0
100
AcDbArc
 50
158.816845606963
 51
180.0
  0
ARC
  5
D6F
102
{ACAD_REACTORS
330
D2E
102
}
330
1E
100
AcDbEntity
  8
STEMPEL
100
AcDbCircle
 10
275.157140483318
 20
720.2236449017841
 30
0.0
 40
13.6
100
AcDbArc
 50
158.816845606963
 51
180.0
  0
ARC
  5
D70
102
{ACAD_REACTORS
330
D2E
102
}
330
1E
100
AcDbEntity
  8
STEMPEL
100
AcDbCircle
 10
240.657140483318
 20
733.593644901784
 30
0.0
 40
23.40009324312573
100
AcDbArc
 50
338.816845606963
 51
0.1617474312572272
  0
ARC
  5
D71
102
{ACAD_REACTORS
330
D2E
330
FBC
102
}
330
1E
100
AcDbEntity
  8
STEMPEL
100
AcDbCircle
 10
240.657140483318
 20
733.593644901784
 30
0.0
 40
25.00009324312574
100
AcDbArc
 50
338.816845606963
 51
0.1564859543538863
  0
LINE
  5
D72
102
{ACAD_REACTORS
330
D21
330
FBC
102
}
330
1E
100
AcDbEntity
  8
STEMPEL
100
AcDbLine
 10
273.157140483318
 20
739.2236449017842
 30
0.0
 11
265.657140483318
 21
739.2236449017842
 31
0.0
  0
LINE
  5
D73
102
{ACAD_REACTORS
330
D2E
102
}
330
1E
100
AcDbEntity
  8
STEMPEL
100
AcDbLine
 10
264.0571404833181
 20
742.6747224946653
 30
0.0
 11
264.0571404833181
 21
733.6597038676996
 31
0.0
  0
LINE
  5
D74
102
{ACAD_REACTORS
330
D2E
330
D21
330
FBC
102
}
330
1E
100
AcDbEntity
  8
STEMPEL
100
AcDbLine
 10
265.657140483318
 20
742.6747224946653
 30
0.0
 11
265.657140483318
 21
733.6619249499749
 31
0.0
  0
ARC
  5
D75
102
{ACAD_REACTORS
330
D2E
102
}
330
1E
100
AcDbEntity
  8
STEMPEL
100
AcDbCircle
 10
251.157140483318
 20
703.612371319201
 30
0.0
 40
10.4
100
AcDbArc
 50
327.6719358778364
 51
0.0
  0
ARC
  5
D76
102
{ACAD_REACTORS
330
D2E
330
FBC
102
}
330
1E
100
AcDbEntity
  8
STEMPEL
100
AcDbCircle
 10
251.157140483318
 20
703.612371319201
 30
0.0
 40
12.0
100
AcDbArc
 50
327.6719358778364
 51
0.0
  0
ARC
  5
D77
102
{ACAD_REACTORS
330
D2E
330
FBC
102
}
330
1E
100
AcDbEntity
  8
STEMPEL
100
AcDbCircle
 10
268.057140483318
 20
692.9170452372154
 30
0.0
 40
8.0
100
AcDbArc
 50
147.6719358778364
 51
180.0
  0
ARC
  5
D78
102
{ACAD_REACTORS
330
D2E
102
}
330
1E
100
AcDbEntity
  8
STEMPEL
100
AcDbCircle
 10
268.0571404833181
 20
692.9170452372154
 30
0.0
 40
9.599999999999999
100
AcDbArc
 50
147.6719358778364
 51
180.0
  0
LINE
  5
D79
102
{ACAD_REACTORS
330
D2E
102
}
330
1E
100
AcDbEntity
  8
STEMPEL
100
AcDbLine
 10
261.557140483318
 20
720.2236449017841
 30
0.0
 11
261.557140483318
 21
703.612371319201
 31
0.0
  0
LINE
  5
D7A
102
{ACAD_REACTORS
330
D2E
330
FBC
102
}
330
1E
100
AcDbEntity
  8
STEMPEL
100
AcDbLine
 10
263.157140483318
 20
720.2236449017841
 30
0.0
 11
263.157140483318
 21
703.612371319201
 31
0.0
  0
LINE
  5
D7B
102
{ACAD_REACTORS
330
D20
102
}
330
1E
100
AcDbEntity
  8
STEMPEL
100
AcDbLine
 10
260.0571404833177
 20
239.0915554391461
 30
0.0
 11
262.9571404833182
 21
239.0915554391461
 31
0.0
  0
LINE
  5
D7C
102
{ACAD_REACTORS
330
D20
330
FBC
102
}
330
1E
100
AcDbEntity
  8
STEMPEL
100
AcDbLine
 10
260.0571404833179
 20
249.0915554391461
 30
0.0
 11
273.157140483318
 21
249.0915554391461
 31
0.0
  0
LINE
  5
D7D
102
{ACAD_REACTORS
330
D20
330
D1E
102
}
330
1E
100
AcDbEntity
  8
STEMPEL
100
AcDbLine
 10
274.357140483318
 20
233.0915554391463
 30
0.0
 11
272.3511554087837
 21
233.0915554391463
 31
0.0
  0
LINE
  5
D7E
102
{ACAD_REACTORS
330
D2D
102
}
330
1E
100
AcDbEntity
  8
STEMPEL
100
AcDbLine
 10
260.0571404833181
 20
193.0216979304844
 30
0.0
 11
259.6258089057585
 21
188.091555439146
 31
0.0
  0
LINE
  5
D7F
102
{ACAD_REACTORS
330
D2D
102
}
330
1E
100
AcDbEntity
  8
STEMPEL
100
AcDbLine
 10
258.457140483318
 20
193.091555439137
 30
0.0
 11
258.0196971656892
 21
188.091555439146
 31
0.0
  0
LINE
  5
D80
330
1E
100
AcDbEntity
  8
MITTEL
100
AcDbLine
 10
223.5571404833181
 20
758.2236449017841
 30
0.0
 11
223.5571404833181
 21
432.1945361167167
 31
0.0
  0
LINE
  5
D81
102
{ACAD_REACTORS
330
D2E
102
}
330
1E
100
AcDbEntity
  8
STEMPEL
100
AcDbLine
 10
258.457140483318
 20
692.9170452372154
 30
0.0
 11
258.4571404833181
 21
627.6239713813717
 31
0.0
  0
LINE
  5
D82
102
{ACAD_REACTORS
330
D2E
330
FBC
102
}
330
1E
100
AcDbEntity
  8
STEMPEL
100
AcDbLine
 10
260.0571404833181
 20
692.9170452372154
 30
0.0
 11
260.0571404833181
 21
627.8098463583219
 31
0.0
  0
LINE
  5
D83
102
{ACAD_REACTORS
330
D2E
102
}
330
1E
100
AcDbEntity
  8
STEMPEL
100
AcDbLine
 10
185.557140483318
 20
753.2236449017841
 30
0.0
 11
185.2495382666604
 21
752.5639898193978
 31
0.0
  0
ARC
  5
D84
102
{ACAD_REACTORS
330
D2E
330
D21
102
}
330
1E
100
AcDbEntity
  8
STEMPEL
100
AcDbCircle
 10
206.457140483318
 20
742.6747224946653
 30
0.0
 40
25.0
100
AcDbArc
 50
155.0418036876905
 51
180.0
  0
ARC
  5
D85
102
{ACAD_REACTORS
330
D2E
102
}
330
1E
100
AcDbEntity
  8
STEMPEL
100
AcDbCircle
 10
206.457140483318
 20
742.6747224946653
 30
0.0
 40
23.4
100
AcDbArc
 50
155.0000000000006
 51
180.0
  0
ARC
  5
D86
102
{ACAD_REACTORS
330
D2E
102
}
330
1E
100
AcDbEntity
  8
STEMPEL
100
AcDbCircle
 10
171.9571404833181
 20
720.2236449017841
 30
0.0
 40
13.6
100
AcDbArc
 50
0.0
 51
21.183154393037
  0
ARC
  5
D87
102
{ACAD_REACTORS
330
D2E
330
FBC
102
}
330
1E
100
AcDbEntity
  8
STEMPEL
100
AcDbCircle
 10
206.457140483318
 20
733.593644901784
 30
0.0
 40
25.00009324312574
100
AcDbArc
 50
179.8435140456461
 51
201.183154393037
  0
ARC
  5
D88
102
{ACAD_REACTORS
330
D2E
330
FBC
102
}
330
1E
100
AcDbEntity
  8
STEMPEL
100
AcDbCircle
 10
171.9571404833181
 20
720.2236449017841
 30
0.0
 40
12.0
100
AcDbArc
 50
0.0
 51
21.183154393037
  0
ARC
  5
D89
102
{ACAD_REACTORS
330
D2E
102
}
330
1E
100
AcDbEntity
  8
STEMPEL
100
AcDbCircle
 10
206.457140483318
 20
733.593644901784
 30
0.0
 40
23.40009324312573
100
AcDbArc
 50
179.8382525687427
 51
201.183154393037
  0
LINE
  5
D8A
102
{ACAD_REACTORS
330
D2E
102
}
330
1E
100
AcDbEntity
  8
STEMPEL
100
AcDbLine
 10
183.0571404833181
 20
742.6747224946653
 30
0.0
 11
183.0571404833181
 21
733.6597038676996
 31
0.0
  0
LINE
  5
D8B
102
{ACAD_REACTORS
330
D2E
330
D21
330
FBC
102
}
330
1E
100
AcDbEntity
  8
STEMPEL
100
AcDbLine
 10
181.457140483318
 20
742.6747224946653
 30
0.0
 11
181.457140483318
 21
733.6619249499749
 31
0.0
  0
ARC
  5
D8C
102
{ACAD_REACTORS
330
D2E
102
}
330
1E
100
AcDbEntity
  8
STEMPEL
100
AcDbCircle
 10
195.9571404833179
 20
703.612371319201
 30
0.0
 40
10.4
100
AcDbArc
 50
180.0
 51
212.3280641221636
  0
ARC
  5
D8D
102
{ACAD_REACTORS
330
D2E
330
FBC
102
}
330
1E
100
AcDbEntity
  8
STEMPEL
100
AcDbCircle
 10
195.9571404833179
 20
703.612371319201
 30
0.0
 40
12.0
100
AcDbArc
 50
180.0
 51
212.3280641221636
  0
ARC
  5
D8E
102
{ACAD_REACTORS
330
D2E
330
FBC
102
}
330
1E
100
AcDbEntity
  8
STEMPEL
100
AcDbCircle
 10
179.0571404833181
 20
692.9170452372154
 30
0.0
 40
8.0
100
AcDbArc
 50
0.0
 51
32.32806412216358
  0
ARC
  5
D8F
102
{ACAD_REACTORS
330
D2E
102
}
330
1E
100
AcDbEntity
  8
STEMPEL
100
AcDbCircle
 10
179.0571404833181
 20
692.9170452372154
 30
0.0
 40
9.599999999999999
100
AcDbArc
 50
0.0
 51
32.32806412216358
  0
LINE
  5
D90
102
{ACAD_REACTORS
330
D2E
330
FBC
102
}
330
1E
100
AcDbEntity
  8
STEMPEL
100
AcDbLine
 10
183.9571404833181
 20
720.2236449017841
 30
0.0
 11
183.9571404833181
 21
703.612371319201
 31
0.0
  0
LINE
  5
D91
102
{ACAD_REACTORS
330
D2E
102
}
330
1E
100
AcDbEntity
  8
STEMPEL
100
AcDbLine
 10
185.5571404833181
 20
720.2236449017841
 30
0.0
 11
185.5571404833181
 21
703.612371319201
 31
0.0
  0
LINE
  5
D92
102
{ACAD_REACTORS
330
D21
330
FBC
102
}
330
1E
100
AcDbEntity
  8
STEMPEL
100
AcDbLine
 10
181.457140483318
 20
739.2236449017842
 30
0.0
 11
173.957140483318
 21
739.2236449017842
 31
0.0
  0
LINE
  5
D93
102
{ACAD_REACTORS
330
D20
102
}
330
1E
100
AcDbEntity
  8
STEMPEL
100
AcDbLine
 10
184.157140483318
 20
239.0915554391461
 30
0.0
 11
187.0571404833183
 21
239.0915554391461
 31
0.0
  0
LINE
  5
D94
102
{ACAD_REACTORS
330
D20
330
D1E
102
}
330
1E
100
AcDbEntity
  8
STEMPEL
100
AcDbLine
 10
174.7631255578526
 20
233.0915554391463
 30
0.0
 11
172.757140483318
 21
233.0915554391463
 31
0.0
  0
LINE
  5
D95
102
{ACAD_REACTORS
330
D20
330
FBC
102
}
330
1E
100
AcDbEntity
  8
STEMPEL
100
AcDbLine
 10
173.957140483318
 20
249.0915554391459
 30
0.0
 11
187.0571404833181
 21
249.0915554391459
 31
0.0
  0
LINE
  5
D96
102
{ACAD_REACTORS
330
D2D
102
}
330
1E
100
AcDbEntity
  8
STEMPEL
100
AcDbLine
 10
188.6571404833173
 20
193.0915554391462
 30
0.0
 11
189.0945838009469
 21
188.091555439146
 31
0.0
  0
LINE
  5
D97
102
{ACAD_REACTORS
330
D2D
102
}
330
1E
100
AcDbEntity
  8
STEMPEL
100
AcDbLine
 10
187.0571404833181
 20
193.0216979304837
 30
0.0
 11
187.4884720608775
 21
188.091555439146
 31
0.0
  0
LINE
  5
D98
102
{ACAD_REACTORS
330
D2E
102
}
330
1E
100
AcDbEntity
  8
STEMPEL
100
AcDbLine
 10
188.657140483318
 20
692.9170452372154
 30
0.0
 11
188.6571404833179
 21
632.3521661075381
 31
0.0
  0
LINE
  5
D99
102
{ACAD_REACTORS
330
D2E
330
FBC
102
}
330
1E
100
AcDbEntity
  8
STEMPEL
100
AcDbLine
 10
187.0571404833181
 20
692.9170452372154
 30
0.0
 11
187.0571404833181
 21
632.1662911305882
 31
0.0
  0
LINE
  5
D9A
330
1E
100
AcDbEntity
  8
HILF
100
AcDbLine
 10
187.254236091361
 20
722.7234180831729
 30
0.0
 11
259.860044875275
 21
722.7234180831729
 31
0.0
  0
LINE
  5
D9B
330
1E
100
AcDbEntity
  8
HILF
100
AcDbLine
 10
187.9654197674772
 20
700.7171338505295
 30
0.0
 11
259.1488611991588
 21
700.7171338505295
 31
0.0
  0
LINE
  5
D9C
330
1E
100
AcDbEntity
  8
HILF
100
AcDbLine
 10
190.2422913540037
 20
695.5895721313738
 30
0.0
 11
256.8719896126324
 21
695.5895721313738
 31
0.0
  0
LINE
  5
D9D
102
{ACAD_REACTORS
330
D2E
330
D21
330
D1F
102
}
330
1E
100
AcDbEntity
  8
STEMPEL
100
AcDbLine
 10
273.5571404833182
 20
753.2236449017842
 30
0.0
 11
173.5571404833181
 21
753.2236449017841
 31
0.0
  0
LINE
  5
D9E
102
{ACAD_REACTORS
330
D2D
102
}
330
1E
100
AcDbEntity
  8
STEMPEL
100
AcDbLine
 10
259.6258089057585
 20
188.091555439146
 30
0.0
 11
187.4884720608775
 21
188.091555439146
 31
0.0
  0
LINE
  5
D9F
330
1E
100
AcDbEntity
  8
HILF
100
AcDbLine
 10
256.8510287432496
 20
193.0915554391461
 30
0.0
 11
190.2632522233866
 21
193.0915554391461
 31
0.0
  0
DIMENSION
  5
DA0
330
1E
100
AcDbEntity
  8
BEM
100
AcDbDimension
  2
*D8
 10
260.0571404833181
 20
167.8379627677029
 30
0.0
 11
223.5571404833181
 21
174.3379627677029
 31
0.0
 70
    32
  1
%%c<>
 71
     5
 42
73.0
  3
Standard
100
AcDbAlignedDimension
 13
187.0571404833181
 23
193.0216979304837
 33
0.0
 14
260.0571404833181
 24
193.0216979304844
 34
0.0
100
AcDbRotatedDimension
1001
ACAD
1000
DSTYLE
1002
{
1070
    40
1040
2.0
1070
    41
1040
3.5
1070
    42
1040
1.0
1070
    43
1040
7.0
1070
    44
1040
1.0
1070
    73
1070
     0
1070
    74
1070
     0
1070
    77
1070
     1
1070
    78
1070
     8
1070
    79
1070
     2
1070
   140
1040
3.5
1070
   141
1040
1.5
1070
   146
1040
0.5142857142857144
1070
   147
1040
1.5
1070
   172
1070
     1
1070
   178
1070
     1
1070
   179
1070
     2
1070
   271
1070
     2
1070
   272
1070
     2
1070
   284
1070
     8
1070
   285
1070
     8
1070
   286
1070
     8
1070
   289
1070
     0
1070
   340
1005
B8B
1002
}
  0
TEXT
  5
DA1
330
1E
100
AcDbEntity
  8
TEXT
 62
     1
100
AcDbText
 10
211.6023927433931
 20
664.103643266386
 30
0.0
 40
7.0
  1
DN70
 50
90.0
 41
0.8
  7
GREEKS
100
AcDbText
  0
LINE
  5
DA2
330
1E
100
AcDbEntity
  8
STEMPEL
100
AcDbLine
 10
149.3611809904248
 20
456.2004427367827
 30
0.0
 11
149.3611809904248
 21
453.2004427367827
 31
0.0
  0
LINE
  5
DA3
330
1E
100
AcDbEntity
  8
HILF
100
AcDbLine
 10
148.3611809904247
 20
456.2004427367827
 30
0.0
 11
148.3611809904248
 21
453.2004427367827
 31
0.0
  0
LINE
  5
DA4
330
1E
100
AcDbEntity
  8
HILF
100
AcDbLine
 10
140.3611809904247
 20
456.2004427367827
 30
0.0
 11
140.3611809904248
 21
453.2004427367827
 31
0.0
  0
LINE
  5
DA5
330
1E
100
AcDbEntity
  8
STEMPEL
100
AcDbLine
 10
139.3611809904248
 20
456.2004427367827
 30
0.0
 11
139.3611809904248
 21
453.2004427367827
 31
0.0
  0
LINE
  5
DA6
330
1E
100
AcDbEntity
  8
STEMPEL
100
AcDbLine
 10
148.3611809904248
 20
478.2004427367827
 30
0.0
 11
140.3611809904248
 21
478.2004427367827
 31
0.0
  0
LINE
  5
DA7
330
1E
100
AcDbEntity
  8
STEMPEL
100
AcDbLine
 10
139.3611809904248
 20
477.2004427367829
 30
0.0
 11
149.3611809904248
 21
477.2004427367829
 31
0.0
  0
LINE
  5
DA8
330
1E
100
AcDbEntity
  8
HILF
100
AcDbLine
 10
140.3611809904248
 20
478.2004427367827
 30
0.0
 11
140.3611809904248
 21
471.8004427367832
 31
0.0
  0
LINE
  5
DA9
330
1E
100
AcDbEntity
  8
STEMPEL
100
AcDbLine
 10
139.3611809904248
 20
477.2004427367827
 30
0.0
 11
139.3611809904248
 21
471.8004427367832
 31
0.0
  0
LINE
  5
DAA
330
1E
100
AcDbEntity
  8
STEMPEL
100
AcDbLine
 10
140.3611809904248
 20
478.2004427367827
 30
0.0
 11
139.3611809904248
 21
477.2004427367827
 31
0.0
  0
LINE
  5
DAB
330
1E
100
AcDbEntity
  8
HILF
100
AcDbLine
 10
148.3611809904248
 20
478.2004427367827
 30
0.0
 11
148.3611809904248
 21
471.8004427367832
 31
0.0
  0
LINE
  5
DAC
330
1E
100
AcDbEntity
  8
STEMPEL
100
AcDbLine
 10
149.3611809904248
 20
477.2004427367827
 30
0.0
 11
149.3611809904248
 21
471.8004427367832
 31
0.0
  0
LINE
  5
DAD
330
1E
100
AcDbEntity
  8
STEMPEL
100
AcDbLine
 10
149.3611809904248
 20
477.2004427367827
 30
0.0
 11
148.3611809904248
 21
478.2004427367827
 31
0.0
  0
LINE
  5
DAE
330
1E
100
AcDbEntity
  8
STEMPEL
100
AcDbLine
 10
133.861180990425
 20
464.2004427367833
 30
0.0
 11
154.861180990425
 21
464.200442736783
 31
0.0
  0
ARC
  5
DAF
330
1E
100
AcDbEntity
  8
STEMPEL
100
AcDbCircle
 10
137.348680990425
 20
467.4323958617826
 30
0.0
 40
3.231953125000015
100
AcDbArc
 50
223.6767967281013
 51
316.3232032718999
  0
ARC
  5
DB0
330
1E
100
AcDbEntity
  8
STEMPEL
100
AcDbCircle
 10
137.348680990425
 20
468.5684896117834
 30
0.0
 40
3.231953125000015
100
AcDbArc
 50
43.67679672810011
 51
136.3232032718987
  0
LINE
  5
DB1
330
1E
100
AcDbEntity
  8
STEMPEL
100
AcDbLine
 10
137.348680990425
 20
471.8004427367832
 30
0.0
 11
151.3736809904251
 21
471.8004427367832
 31
0.0
  0
LINE
  5
DB2
330
1E
100
AcDbEntity
  8
STEMPEL
100
AcDbLine
 10
135.0111809904251
 20
470.8004427367836
 30
0.0
 11
135.0111809904249
 21
465.2004427367826
 31
0.0
  0
LINE
  5
DB3
330
1E
100
AcDbEntity
  8
STEMPEL
100
AcDbLine
 10
133.861180990425
 20
464.200442736783
 30
0.0
 11
133.861180990425
 21
462.2004427367831
 31
0.0
  0
LINE
  5
DB4
330
1E
100
AcDbEntity
  8
STEMPEL
100
AcDbLine
 10
139.6861809904251
 20
470.8004427367834
 30
0.0
 11
139.6861809904248
 21
465.2004427367826
 31
0.0
  0
LINE
  5
DB5
330
1E
100
AcDbEntity
  8
STEMPEL
100
AcDbLine
 10
153.7111809904249
 20
470.8004427367829
 30
0.0
 11
153.7111809904249
 21
465.200442736783
 31
0.0
  0
LINE
  5
DB6
330
1E
100
AcDbEntity
  8
STEMPEL
100
AcDbLine
 10
149.036180990425
 20
470.8004427367832
 30
0.0
 11
149.036180990425
 21
465.200442736783
 31
0.0
  0
ARC
  5
DB7
330
1E
100
AcDbEntity
  8
STEMPEL
100
AcDbCircle
 10
144.3611809904248
 20
475.6282552367827
 30
0.0
 40
11.42781249999961
100
AcDbArc
 50
245.8523381301012
 51
294.1476618698995
  0
ARC
  5
DB8
330
1E
100
AcDbEntity
  8
STEMPEL
100
AcDbCircle
 10
151.3736809904249
 20
467.4323958617831
 30
0.0
 40
3.231953125000015
100
AcDbArc
 50
223.6767967281013
 51
316.3232032718999
  0
LINE
  5
DB9
330
1E
100
AcDbEntity
  8
STEMPEL
100
AcDbLine
 10
154.861180990425
 20
464.200442736783
 30
0.0
 11
154.861180990425
 21
462.2004427367831
 31
0.0
  0
ARC
  5
DBA
330
1E
100
AcDbEntity
  8
STEMPEL
100
AcDbCircle
 10
144.3611809904248
 20
460.3726302367836
 30
0.0
 40
11.42781249999961
100
AcDbArc
 50
65.85233813010053
 51
114.1476618698988
  0
ARC
  5
DBB
330
1E
100
AcDbEntity
  8
STEMPEL
100
AcDbCircle
 10
151.3736809904249
 20
468.5684896117832
 30
0.0
 40
3.231953125000015
100
AcDbArc
 50
43.67679672810011
 51
136.3232032718987
  0
LINE
  5
DBC
330
1E
100
AcDbEntity
  8
MITTEL
100
AcDbLine
 10
144.3611809904248
 20
482.6909370237673
 30
0.0
 11
144.3611809904248
 21
453.2004427367827
 31
0.0
  0
LINE
  5
DBD
330
1E
100
AcDbEntity
  8
MITTEL
100
AcDbLine
 10
302.7530999762114
 20
482.6909370237673
 30
0.0
 11
302.7530999762114
 21
453.2004427367827
 31
0.0
  0
LINE
  5
DBE
330
1E
100
AcDbEntity
  8
HILF
100
AcDbLine
 10
298.7530999762115
 20
456.2004427367827
 30
0.0
 11
298.7530999762114
 21
453.2004427367827
 31
0.0
  0
LINE
  5
DBF
330
1E
100
AcDbEntity
  8
STEMPEL
100
AcDbLine
 10
297.7530999762114
 20
456.2004427367827
 30
0.0
 11
297.7530999762114
 21
453.2359342107035
 31
0.0
  0
LINE
  5
DC0
330
1E
100
AcDbEntity
  8
STEMPEL
100
AcDbLine
 10
307.7530999762114
 20
456.2004427367827
 30
0.0
 11
307.7530999762114
 21
453.2004427367827
 31
0.0
  0
LINE
  5
DC1
330
1E
100
AcDbEntity
  8
HILF
100
AcDbLine
 10
306.7530999762115
 20
456.2004427367827
 30
0.0
 11
306.7530999762114
 21
453.2004427367827
 31
0.0
  0
ARC
  5
DC2
330
1E
100
AcDbEntity
  8
STEMPEL
100
AcDbCircle
 10
295.7405999762114
 20
468.5684896117832
 30
0.0
 40
3.231953125000015
100
AcDbArc
 50
43.67679672810129
 51
136.3232032718999
  0
ARC
  5
DC3
330
1E
100
AcDbEntity
  8
STEMPEL
100
AcDbCircle
 10
302.7530999762114
 20
460.3726302367836
 30
0.0
 40
11.42781249999961
100
AcDbArc
 50
65.8523381301012
 51
114.1476618698994
  0
LINE
  5
DC4
330
1E
100
AcDbEntity
  8
STEMPEL
100
AcDbLine
 10
292.2530999762112
 20
464.200442736783
 30
0.0
 11
292.2530999762112
 21
462.2004427367831
 31
0.0
  0
ARC
  5
DC5
330
1E
100
AcDbEntity
  8
STEMPEL
100
AcDbCircle
 10
295.7405999762114
 20
467.4323958617831
 30
0.0
 40
3.231953125000015
100
AcDbArc
 50
223.6767967281001
 51
316.3232032718987
  0
ARC
  5
DC6
330
1E
100
AcDbEntity
  8
STEMPEL
100
AcDbCircle
 10
302.7530999762114
 20
475.6282552367827
 30
0.0
 40
11.42781249999961
100
AcDbArc
 50
245.8523381301005
 51
294.1476618698988
  0
LINE
  5
DC7
330
1E
100
AcDbEntity
  8
STEMPEL
100
AcDbLine
 10
298.0780999762112
 20
470.8004427367832
 30
0.0
 11
298.0780999762112
 21
465.200442736783
 31
0.0
  0
LINE
  5
DC8
330
1E
100
AcDbEntity
  8
STEMPEL
100
AcDbLine
 10
293.4030999762113
 20
470.8004427367829
 30
0.0
 11
293.4030999762113
 21
465.200442736783
 31
0.0
  0
LINE
  5
DC9
330
1E
100
AcDbEntity
  8
STEMPEL
100
AcDbLine
 10
307.4280999762111
 20
470.8004427367834
 30
0.0
 11
307.4280999762113
 21
465.2004427367826
 31
0.0
  0
LINE
  5
DCA
330
1E
100
AcDbEntity
  8
STEMPEL
100
AcDbLine
 10
313.2530999762112
 20
464.200442736783
 30
0.0
 11
313.2530999762112
 21
462.2004427367831
 31
0.0
  0
LINE
  5
DCB
330
1E
100
AcDbEntity
  8
STEMPEL
100
AcDbLine
 10
312.1030999762111
 20
470.8004427367836
 30
0.0
 11
312.1030999762113
 21
465.2004427367826
 31
0.0
  0
LINE
  5
DCC
330
1E
100
AcDbEntity
  8
STEMPEL
100
AcDbLine
 10
309.7655999762112
 20
471.8004427367832
 30
0.0
 11
295.7405999762111
 21
471.8004427367832
 31
0.0
  0
ARC
  5
DCD
330
1E
100
AcDbEntity
  8
STEMPEL
100
AcDbCircle
 10
309.7655999762112
 20
468.5684896117834
 30
0.0
 40
3.231953125000015
100
AcDbArc
 50
43.67679672810129
 51
136.3232032718999
  0
ARC
  5
DCE
330
1E
100
AcDbEntity
  8
STEMPEL
100
AcDbCircle
 10
309.7655999762112
 20
467.4323958617826
 30
0.0
 40
3.231953125000015
100
AcDbArc
 50
223.6767967281001
 51
316.3232032718987
  0
LINE
  5
DCF
330
1E
100
AcDbEntity
  8
STEMPEL
100
AcDbLine
 10
313.2530999762112
 20
464.2004427367833
 30
0.0
 11
292.2530999762112
 21
464.200442736783
 31
0.0
  0
LINE
  5
DD0
330
1E
100
AcDbEntity
  8
STEMPEL
100
AcDbLine
 10
297.7530999762114
 20
477.2004427367827
 30
0.0
 11
298.7530999762114
 21
478.2004427367827
 31
0.0
  0
LINE
  5
DD1
330
1E
100
AcDbEntity
  8
STEMPEL
100
AcDbLine
 10
297.7530999762114
 20
477.2004427367827
 30
0.0
 11
297.7530999762114
 21
471.8004427367832
 31
0.0
  0
LINE
  5
DD2
330
1E
100
AcDbEntity
  8
HILF
100
AcDbLine
 10
298.7530999762114
 20
478.2004427367827
 30
0.0
 11
298.7530999762114
 21
471.8004427367832
 31
0.0
  0
LINE
  5
DD3
330
1E
100
AcDbEntity
  8
STEMPEL
100
AcDbLine
 10
306.7530999762114
 20
478.2004427367827
 30
0.0
 11
307.7530999762114
 21
477.2004427367827
 31
0.0
  0
LINE
  5
DD4
330
1E
100
AcDbEntity
  8
STEMPEL
100
AcDbLine
 10
307.7530999762114
 20
477.2004427367827
 30
0.0
 11
307.7530999762114
 21
471.8004427367832
 31
0.0
  0
LINE
  5
DD5
330
1E
100
AcDbEntity
  8
HILF
100
AcDbLine
 10
306.7530999762114
 20
478.2004427367827
 30
0.0
 11
306.7530999762114
 21
471.8004427367832
 31
0.0
  0
LINE
  5
DD6
330
1E
100
AcDbEntity
  8
STEMPEL
100
AcDbLine
 10
307.7530999762114
 20
477.2004427367829
 30
0.0
 11
297.7530999762114
 21
477.2004427367829
 31
0.0
  0
LINE
  5
DD7
330
1E
100
AcDbEntity
  8
STEMPEL
100
AcDbLine
 10
298.7530999762114
 20
478.2004427367827
 30
0.0
 11
306.7530999762114
 21
478.2004427367827
 31
0.0
  0
LINE
  5
DD8
330
1E
100
AcDbEntity
  8
STEMPEL
100
AcDbLine
 10
283.3071404833179
 20
471.8802838238818
 30
0.0
 11
283.3071404833179
 21
471.8217630803411
 31
0.0
  0
LINE
  5
DD9
330
1E
100
AcDbEntity
  8
STEMPEL
100
AcDbLine
 10
278.6784608268777
 20
471.8217630803411
 30
0.0
 11
283.3071404833179
 21
471.8217630803411
 31
0.0
  0
ARC
  5
DDA
330
1E
100
AcDbEntity
  8
STEMPEL
100
AcDbCircle
 10
279.3071404833179
 20
471.8802838238818
 30
0.0
 40
4.0
100
AcDbArc
 50
0.0
 51
31.85429407935322
  0
LINE
  5
DDB
330
1E
100
AcDbEntity
  8
STEMPEL
100
AcDbLine
 10
282.7047123339438
 20
473.991327527796
 30
0.0
 11
280.1435054023441
 21
478.1134044693089
 31
0.0
  0
LINE
  5
DDC
330
1E
100
AcDbEntity
  8
STEMPEL
100
AcDbLine
 10
283.3071404833179
 20
461.3217630803412
 30
0.0
 11
283.3071404833179
 21
460.3217630803412
 31
0.0
  0
LINE
  5
DDD
330
1E
100
AcDbEntity
  8
STEMPEL
100
AcDbLine
 10
283.3071404833179
 20
461.3217630803412
 30
0.0
 11
281.0614711496556
 21
463.5674324140036
 31
0.0
  0
LINE
  5
DDE
330
1E
100
AcDbEntity
  8
STEMPEL
100
AcDbLine
 10
281.3071404833179
 20
458.3217630803412
 30
0.0
 11
281.3071404833179
 21
457.7188773973712
 31
0.0
  0
LINE
  5
DDF
330
1E
100
AcDbEntity
  8
STEMPEL
100
AcDbLine
 10
281.5571404833179
 20
453.8217630803412
 30
0.0
 11
280.1567254068985
 21
455.8217630803413
 31
0.0
  0
LINE
  5
DE0
330
1E
100
AcDbEntity
  8
STEMPEL
100
AcDbLine
 10
283.5571404833179
 20
453.8217630803412
 30
0.0
 11
281.3071404833179
 21
457.7188773973712
 31
0.0
  0
LINE
  5
DE1
330
1E
100
AcDbEntity
  8
STEMPEL
100
AcDbLine
 10
283.3071404833179
 20
460.3217630803412
 30
0.0
 11
281.3071404833179
 21
458.3217630803412
 31
0.0
  0
LINE
  5
DE2
330
1E
100
AcDbEntity
  8
STEMPEL
100
AcDbLine
 10
274.3571404833179
 20
472.6217630803412
 30
0.0
 11
277.4205272189258
 21
477.709991647995
 31
0.0
  0
ARC
  5
DE3
330
1E
100
AcDbEntity
  8
STEMPEL
100
AcDbCircle
 10
273.0571404833179
 20
456.8217630803412
 30
0.0
 40
5.0
100
AcDbArc
 50
285.0700621448882
 51
348.4630409671819
  0
LINE
  5
DE4
330
1E
100
AcDbEntity
  8
STEMPEL
100
AcDbLine
 10
277.956119968884
 20
455.8217630803413
 30
0.0
 11
280.1567254068985
 21
455.8217630803413
 31
0.0
  0
LINE
  5
DE5
330
1E
100
AcDbEntity
  8
STEMPEL
100
AcDbLine
 10
277.0571404833179
 20
453.8217630803412
 30
0.0
 11
283.5571404833179
 21
453.8217630803412
 31
0.0
  0
LINE
  5
DE6
330
1E
100
AcDbEntity
  8
STEMPEL
100
AcDbLine
 10
280.1294535806108
 20
466.128129639489
 30
0.0
 11
281.0614711496556
 21
463.5674324140036
 31
0.0
  0
ARC
  5
DE7
330
1E
100
AcDbEntity
  8
STEMPEL
100
AcDbCircle
 10
278.8694159583594
 20
477.3217630803412
 30
0.0
 40
1.5
100
AcDbArc
 50
31.85429407935322
 51
164.9999999999992
  0
LINE
  5
DE8
330
1E
100
AcDbEntity
  8
STEMPEL
100
AcDbLine
 10
274.3571404833179
 20
478.8217630803412
 30
0.0
 11
278.8694159583594
 21
478.8217630803412
 31
0.0
  0
ARC
  5
DE9
330
1E
100
AcDbEntity
  8
STEMPEL
100
AcDbCircle
 10
168.2448650082766
 20
477.3217630803412
 30
0.0
 40
1.5
100
AcDbArc
 50
15.00000000000074
 51
148.1457059206467
  0
LINE
  5
DEA
330
1E
100
AcDbEntity
  8
STEMPEL
100
AcDbLine
 10
172.7571404833179
 20
472.6217630803412
 30
0.0
 11
169.6937537477102
 21
477.709991647995
 31
0.0
  0
LINE
  5
DEB
330
1E
100
AcDbEntity
  8
STEMPEL
100
AcDbLine
 10
164.4095686326921
 20
473.991327527796
 30
0.0
 11
166.9707755642919
 21
478.1134044693089
 31
0.0
  0
LINE
  5
DEC
330
1E
100
AcDbEntity
  8
STEMPEL
100
AcDbLine
 10
166.9848273860254
 20
466.1281296394897
 30
0.0
 11
166.0528098169804
 21
463.5674324140036
 31
0.0
  0
LINE
  5
DED
330
1E
100
AcDbEntity
  8
STEMPEL
100
AcDbLine
 10
163.8071404833179
 20
471.8802838238818
 30
0.0
 11
163.8071404833179
 21
471.8217630803411
 31
0.0
  0
LINE
  5
DEE
330
1E
100
AcDbEntity
  8
STEMPEL
100
AcDbLine
 10
163.8071404833179
 20
461.3217630803412
 30
0.0
 11
163.8071404833179
 21
460.3217630803412
 31
0.0
  0
LINE
  5
DEF
330
1E
100
AcDbEntity
  8
STEMPEL
100
AcDbLine
 10
163.8071404833179
 20
461.3217630803412
 30
0.0
 11
166.0528098169804
 21
463.5674324140036
 31
0.0
  0
ARC
  5
DF0
330
1E
100
AcDbEntity
  8
STEMPEL
100
AcDbCircle
 10
167.8071404833179
 20
471.8802838238818
 30
0.0
 40
4.0
100
AcDbArc
 50
148.1457059206467
 51
180.0
  0
LINE
  5
DF1
330
1E
100
AcDbEntity
  8
STEMPEL
100
AcDbLine
 10
168.4358201397573
 20
471.8217630803411
 30
0.0
 11
163.8071404833179
 21
471.8217630803411
 31
0.0
  0
LINE
  5
DF2
330
1E
100
AcDbEntity
  8
STEMPEL
100
AcDbLine
 10
165.8071404833179
 20
458.3217630803412
 30
0.0
 11
165.8071404833179
 21
457.7188773973712
 31
0.0
  0
LINE
  5
DF3
330
1E
100
AcDbEntity
  8
STEMPEL
100
AcDbLine
 10
165.5571404833179
 20
453.8217630803412
 30
0.0
 11
166.9575555597374
 21
455.8217630803413
 31
0.0
  0
LINE
  5
DF4
330
1E
100
AcDbEntity
  8
STEMPEL
100
AcDbLine
 10
169.1581609977519
 20
455.8217630803413
 30
0.0
 11
166.9575555597374
 21
455.8217630803413
 31
0.0
  0
ARC
  5
DF5
330
1E
100
AcDbEntity
  8
STEMPEL
100
AcDbCircle
 10
174.0571404833179
 20
456.8217630803412
 30
0.0
 40
5.0
100
AcDbArc
 50
191.5369590328181
 51
254.9299378551102
  0
LINE
  5
DF6
330
1E
100
AcDbEntity
  8
STEMPEL
100
AcDbLine
 10
170.0571404833179
 20
453.8217630803412
 30
0.0
 11
163.5571404833179
 21
453.8217630803412
 31
0.0
  0
LINE
  5
DF7
330
1E
100
AcDbEntity
  8
STEMPEL
100
AcDbLine
 10
163.5571404833179
 20
453.8217630803412
 30
0.0
 11
165.8071404833179
 21
457.7188773973712
 31
0.0
  0
LINE
  5
DF8
330
1E
100
AcDbEntity
  8
STEMPEL
100
AcDbLine
 10
163.8071404833179
 20
460.3217630803412
 30
0.0
 11
165.8071404833179
 21
458.3217630803412
 31
0.0
  0
LINE
  5
DF9
330
1E
100
AcDbEntity
  8
STEMPEL
100
AcDbLine
 10
172.7571404833179
 20
478.8217630803411
 30
0.0
 11
168.2448650082766
 21
478.8217630803412
 31
0.0
  0
LINE
  5
DFA
330
1E
100
AcDbEntity
  8
MITTEL
100
AcDbLine
 10
335.5571404833181
 20
482.6909370237673
 30
0.0
 11
335.5571404833181
 21
453.2004427367827
 31
0.0
  0
LINE
  5
DFB
330
1E
100
AcDbEntity
  8
STEMPEL
100
AcDbLine
 10
330.5571404833181
 20
462.2004427367829
 30
0.0
 11
330.5571404833181
 21
453.2004427367827
 31
0.0
  0
LINE
  5
DFC
330
1E
100
AcDbEntity
  8
HILF
100
AcDbLine
 10
331.5571404833181
 20
462.2004427367829
 30
0.0
 11
331.5571404833181
 21
453.2004427367827
 31
0.0
  0
LINE
  5
DFD
330
1E
100
AcDbEntity
  8
HILF
100
AcDbLine
 10
339.5571404833181
 20
462.2004427367829
 30
0.0
 11
339.5571404833181
 21
453.2004427367827
 31
0.0
  0
LINE
  5
DFE
330
1E
100
AcDbEntity
  8
STEMPEL
100
AcDbLine
 10
340.5571404833181
 20
462.2004427367829
 30
0.0
 11
340.5571404833181
 21
453.2004427367827
 31
0.0
  0
LINE
  5
DFF
330
1E
100
AcDbEntity
  8
STEMPEL
100
AcDbLine
 10
331.5571404833181
 20
478.2004427367827
 30
0.0
 11
339.5571404833181
 21
478.2004427367827
 31
0.0
  0
LINE
  5
E00
330
1E
100
AcDbEntity
  8
STEMPEL
100
AcDbLine
 10
340.5571404833181
 20
477.2004427367829
 30
0.0
 11
330.5571404833181
 21
477.2004427367829
 31
0.0
  0
LINE
  5
E01
330
1E
100
AcDbEntity
  8
HILF
100
AcDbLine
 10
339.5571404833181
 20
478.2004427367827
 30
0.0
 11
339.5571404833181
 21
471.8004427367832
 31
0.0
  0
LINE
  5
E02
330
1E
100
AcDbEntity
  8
STEMPEL
100
AcDbLine
 10
340.5571404833181
 20
477.2004427367827
 30
0.0
 11
340.5571404833181
 21
471.8004427367832
 31
0.0
  0
LINE
  5
E03
330
1E
100
AcDbEntity
  8
STEMPEL
100
AcDbLine
 10
339.5571404833181
 20
478.2004427367827
 30
0.0
 11
340.5571404833181
 21
477.2004427367827
 31
0.0
  0
LINE
  5
E04
330
1E
100
AcDbEntity
  8
HILF
100
AcDbLine
 10
331.5571404833181
 20
478.2004427367827
 30
0.0
 11
331.5571404833181
 21
471.8004427367832
 31
0.0
  0
LINE
  5
E05
330
1E
100
AcDbEntity
  8
STEMPEL
100
AcDbLine
 10
330.5571404833181
 20
477.2004427367827
 30
0.0
 11
330.5571404833181
 21
471.8004427367832
 31
0.0
  0
LINE
  5
E06
330
1E
100
AcDbEntity
  8
STEMPEL
100
AcDbLine
 10
330.5571404833181
 20
477.2004427367827
 30
0.0
 11
331.5571404833181
 21
478.2004427367827
 31
0.0
  0
LINE
  5
E07
330
1E
100
AcDbEntity
  8
STEMPEL
100
AcDbLine
 10
346.0571404833179
 20
464.2004427367833
 30
0.0
 11
325.0571404833179
 21
464.200442736783
 31
0.0
  0
ARC
  5
E08
330
1E
100
AcDbEntity
  8
STEMPEL
100
AcDbCircle
 10
342.5696404833179
 20
467.4323958617826
 30
0.0
 40
3.231953125000015
100
AcDbArc
 50
223.6767967281001
 51
316.3232032718987
  0
ARC
  5
E09
330
1E
100
AcDbEntity
  8
STEMPEL
100
AcDbCircle
 10
342.5696404833179
 20
468.5684896117834
 30
0.0
 40
3.231953125000015
100
AcDbArc
 50
43.67679672810129
 51
136.3232032718999
  0
LINE
  5
E0A
330
1E
100
AcDbEntity
  8
STEMPEL
100
AcDbLine
 10
342.5696404833179
 20
471.8004427367832
 30
0.0
 11
328.5446404833178
 21
471.8004427367832
 31
0.0
  0
LINE
  5
E0B
330
1E
100
AcDbEntity
  8
STEMPEL
100
AcDbLine
 10
344.9071404833178
 20
470.8004427367836
 30
0.0
 11
344.907140483318
 21
465.2004427367826
 31
0.0
  0
LINE
  5
E0C
330
1E
100
AcDbEntity
  8
STEMPEL
100
AcDbLine
 10
346.0571404833179
 20
464.200442736783
 30
0.0
 11
346.0571404833179
 21
462.2004427367831
 31
0.0
  0
LINE
  5
E0D
330
1E
100
AcDbEntity
  8
STEMPEL
100
AcDbLine
 10
340.2321404833178
 20
470.8004427367834
 30
0.0
 11
340.2321404833178
 21
465.2004427367826
 31
0.0
  0
LINE
  5
E0E
330
1E
100
AcDbEntity
  8
STEMPEL
100
AcDbLine
 10
326.2071404833177
 20
470.8004427367829
 30
0.0
 11
326.2071404833177
 21
465.200442736783
 31
0.0
  0
LINE
  5
E0F
330
1E
100
AcDbEntity
  8
STEMPEL
100
AcDbLine
 10
330.8821404833179
 20
470.8004427367832
 30
0.0
 11
330.8821404833179
 21
465.200442736783
 31
0.0
  0
ARC
  5
E10
330
1E
100
AcDbEntity
  8
STEMPEL
100
AcDbCircle
 10
335.5571404833181
 20
475.6282552367827
 30
0.0
 40
11.42781249999961
100
AcDbArc
 50
245.8523381301005
 51
294.1476618698988
  0
ARC
  5
E11
330
1E
100
AcDbEntity
  8
STEMPEL
100
AcDbCircle
 10
328.5446404833178
 20
467.4323958617831
 30
0.0
 40
3.231953125000015
100
AcDbArc
 50
223.6767967281001
 51
316.3232032718987
  0
LINE
  5
E12
330
1E
100
AcDbEntity
  8
STEMPEL
100
AcDbLine
 10
325.0571404833179
 20
464.200442736783
 30
0.0
 11
325.0571404833179
 21
462.2004427367831
 31
0.0
  0
ARC
  5
E13
330
1E
100
AcDbEntity
  8
STEMPEL
100
AcDbCircle
 10
335.5571404833181
 20
460.3726302367836
 30
0.0
 40
11.42781249999961
100
AcDbArc
 50
65.8523381301012
 51
114.1476618698994
  0
ARC
  5
E14
330
1E
100
AcDbEntity
  8
STEMPEL
100
AcDbCircle
 10
328.5446404833178
 20
468.5684896117832
 30
0.0
 40
3.231953125000015
100
AcDbArc
 50
43.67679672810129
 51
136.3232032718999
  0
LINE
  5
E15
330
1E
100
AcDbEntity
  8
STEMPEL
100
AcDbLine
 10
106.5571404833181
 20
462.2004427367829
 30
0.0
 11
106.5571404833181
 21
453.2004427367827
 31
0.0
  0
LINE
  5
E16
330
1E
100
AcDbEntity
  8
HILF
100
AcDbLine
 10
107.5571404833181
 20
462.2004427367829
 30
0.0
 11
107.5571404833181
 21
453.2004427367827
 31
0.0
  0
LINE
  5
E17
330
1E
100
AcDbEntity
  8
HILF
100
AcDbLine
 10
115.5571404833181
 20
462.2004427367829
 30
0.0
 11
115.5571404833181
 21
453.2004427367827
 31
0.0
  0
LINE
  5
E18
330
1E
100
AcDbEntity
  8
STEMPEL
100
AcDbLine
 10
116.5571404833181
 20
462.2004427367829
 30
0.0
 11
116.5571404833181
 21
453.2004427367827
 31
0.0
  0
ARC
  5
E19
330
1E
100
AcDbEntity
  8
STEMPEL
100
AcDbCircle
 10
118.5696404833182
 20
468.5684896117832
 30
0.0
 40
3.231953125000015
100
AcDbArc
 50
43.67679672810011
 51
136.3232032718987
  0
ARC
  5
E1A
330
1E
100
AcDbEntity
  8
STEMPEL
100
AcDbCircle
 10
111.5571404833182
 20
460.3726302367836
 30
0.0
 40
11.42781249999961
100
AcDbArc
 50
65.85233813010053
 51
114.1476618698988
  0
LINE
  5
E1B
330
1E
100
AcDbEntity
  8
STEMPEL
100
AcDbLine
 10
122.0571404833183
 20
464.200442736783
 30
0.0
 11
122.0571404833183
 21
462.2004427367831
 31
0.0
  0
ARC
  5
E1C
330
1E
100
AcDbEntity
  8
STEMPEL
100
AcDbCircle
 10
118.5696404833182
 20
467.4323958617831
 30
0.0
 40
3.231953125000015
100
AcDbArc
 50
223.6767967281013
 51
316.3232032718999
  0
ARC
  5
E1D
330
1E
100
AcDbEntity
  8
STEMPEL
100
AcDbCircle
 10
111.5571404833182
 20
475.6282552367827
 30
0.0
 40
11.42781249999961
100
AcDbArc
 50
245.8523381301012
 51
294.1476618698995
  0
LINE
  5
E1E
330
1E
100
AcDbEntity
  8
STEMPEL
100
AcDbLine
 10
116.2321404833183
 20
470.8004427367832
 30
0.0
 11
116.2321404833184
 21
465.200442736783
 31
0.0
  0
LINE
  5
E1F
330
1E
100
AcDbEntity
  8
STEMPEL
100
AcDbLine
 10
120.9071404833183
 20
470.8004427367829
 30
0.0
 11
120.9071404833183
 21
465.200442736783
 31
0.0
  0
LINE
  5
E20
330
1E
100
AcDbEntity
  8
STEMPEL
100
AcDbLine
 10
106.8821404833184
 20
470.8004427367834
 30
0.0
 11
106.8821404833182
 21
465.2004427367826
 31
0.0
  0
LINE
  5
E21
330
1E
100
AcDbEntity
  8
STEMPEL
100
AcDbLine
 10
101.0571404833183
 20
464.200442736783
 30
0.0
 11
101.0571404833183
 21
462.2004427367831
 31
0.0
  0
LINE
  5
E22
330
1E
100
AcDbEntity
  8
STEMPEL
100
AcDbLine
 10
102.2071404833184
 20
470.8004427367836
 30
0.0
 11
102.2071404833183
 21
465.2004427367826
 31
0.0
  0
LINE
  5
E23
330
1E
100
AcDbEntity
  8
STEMPEL
100
AcDbLine
 10
104.5446404833183
 20
471.8004427367832
 30
0.0
 11
118.5696404833183
 21
471.8004427367832
 31
0.0
  0
ARC
  5
E24
330
1E
100
AcDbEntity
  8
STEMPEL
100
AcDbCircle
 10
104.5446404833183
 20
468.5684896117834
 30
0.0
 40
3.231953125000015
100
AcDbArc
 50
43.67679672810011
 51
136.3232032718987
  0
ARC
  5
E25
330
1E
100
AcDbEntity
  8
STEMPEL
100
AcDbCircle
 10
104.5446404833183
 20
467.4323958617826
 30
0.0
 40
3.231953125000015
100
AcDbArc
 50
223.6767967281013
 51
316.3232032718999
  0
LINE
  5
E26
330
1E
100
AcDbEntity
  8
STEMPEL
100
AcDbLine
 10
101.0571404833183
 20
464.2004427367833
 30
0.0
 11
122.0571404833183
 21
464.200442736783
 31
0.0
  0
LINE
  5
E27
102
{ACAD_REACTORS
330
FF0
102
}
330
1E
100
AcDbEntity
  8
STEMPEL
100
AcDbLine
 10
294.2997811704372
 20
456.2004427367827
 30
0.0
 11
330.5571404833181
 21
456.2004427367829
 31
0.0
  0
LINE
  5
E28
102
{ACAD_REACTORS
330
FF0
102
}
330
1E
100
AcDbEntity
  8
STEMPEL
100
AcDbLine
 10
288.2997811704363
 20
462.2004427367834
 30
0.0
 11
367.557140483317
 21
462.2004427367834
 31
0.0
  0
LINE
  5
E29
102
{ACAD_REACTORS
330
FF0
102
}
330
1E
100
AcDbEntity
  8
STEMPEL
100
AcDbLine
 10
340.5571404833181
 20
456.2004427367829
 30
0.0
 11
367.5571404833172
 21
456.2004427367829
 31
0.0
  0
LINE
  5
E2A
102
{ACAD_REACTORS
330
FF0
102
}
330
1E
100
AcDbEntity
  8
STEMPEL
100
AcDbLine
 10
116.5571404833181
 20
456.2004427367829
 30
0.0
 11
152.8144997961981
 21
456.2004427367829
 31
0.0
  0
LINE
  5
E2B
102
{ACAD_REACTORS
330
FF0
102
}
330
1E
100
AcDbEntity
  8
STEMPEL
100
AcDbLine
 10
79.5571404833172
 20
462.2004427367829
 30
0.0
 11
158.8144997961987
 21
462.2004427367832
 31
0.0
  0
LINE
  5
E2D
102
{ACAD_REACTORS
330
FF0
102
}
330
1E
100
AcDbEntity
  8
STEMPEL
100
AcDbLine
 10
342.5571404833172
 20
456.2004427367829
 30
0.0
 11
342.5571404833172
 21
462.2004427367831
 31
0.0
  0
LINE
  5
E2E
102
{ACAD_REACTORS
330
FF0
102
}
330
1E
100
AcDbEntity
  8
STEMPEL
100
AcDbLine
 10
328.5571404833172
 20
456.2004427367829
 30
0.0
 11
328.5571404833172
 21
462.2004427367831
 31
0.0
  0
LINE
  5
E2F
102
{ACAD_REACTORS
330
FF0
102
}
330
1E
100
AcDbEntity
  8
STEMPEL
100
AcDbLine
 10
368.5571404833172
 20
457.2004427367829
 30
0.0
 11
367.5571404833172
 21
456.2004427367829
 31
0.0
  0
LINE
  5
E30
102
{ACAD_REACTORS
330
FF0
102
}
330
1E
100
AcDbEntity
  8
STEMPEL
100
AcDbLine
 10
368.5571404833172
 20
461.2004427367832
 30
0.0
 11
367.5571404833172
 21
462.2004427367832
 31
0.0
  0
LINE
  5
E31
102
{ACAD_REACTORS
330
FF0
102
}
330
1E
100
AcDbEntity
  8
STEMPEL
100
AcDbLine
 10
368.5571404833172
 20
457.2004427367829
 30
0.0
 11
368.5571404833172
 21
461.2004427367832
 31
0.0
  0
LINE
  5
E32
102
{ACAD_REACTORS
330
FF0
102
}
330
1E
100
AcDbEntity
  8
STEMPEL
100
AcDbLine
 10
144.5571404833172
 20
457.2004427367829
 30
0.0
 11
143.5571404833172
 21
456.2004427367829
 31
0.0
  0
LINE
  5
E33
102
{ACAD_REACTORS
330
FF0
102
}
330
1E
100
AcDbEntity
  8
STEMPEL
100
AcDbLine
 10
143.5571404833172
 20
462.2004427367831
 30
0.0
 11
144.5571404833172
 21
461.200442736783
 31
0.0
  0
LINE
  5
E34
102
{ACAD_REACTORS
330
FF0
102
}
330
1E
100
AcDbEntity
  8
STEMPEL
100
AcDbLine
 10
302.5571404833172
 20
457.2004427367829
 30
0.0
 11
303.5571404833172
 21
456.2004427367829
 31
0.0
  0
LINE
  5
E35
102
{ACAD_REACTORS
330
FF0
102
}
330
1E
100
AcDbEntity
  8
STEMPEL
100
AcDbLine
 10
303.5571404833172
 20
462.2004427367832
 30
0.0
 11
302.5571404833172
 21
461.2004427367832
 31
0.0
  0
LINE
  5
E36
102
{ACAD_REACTORS
330
FF0
102
}
330
1E
100
AcDbEntity
  8
STEMPEL
100
AcDbLine
 10
78.55714048331719
 20
457.2004427367829
 30
0.0
 11
79.5571404833172
 21
456.2004427367829
 31
0.0
  0
LINE
  5
E37
102
{ACAD_REACTORS
330
FF0
102
}
330
1E
100
AcDbEntity
  8
STEMPEL
100
AcDbLine
 10
79.5571404833172
 20
462.2004427367829
 30
0.0
 11
78.55714048331719
 21
461.2004427367829
 31
0.0
  0
LINE
  5
E38
102
{ACAD_REACTORS
330
FF0
102
}
330
1E
100
AcDbEntity
  8
STEMPEL
100
AcDbLine
 10
78.55714048331719
 20
461.2004427367829
 30
0.0
 11
78.55714048331719
 21
457.2004427367829
 31
0.0
  0
LINE
  5
E39
102
{ACAD_REACTORS
330
FF0
102
}
330
1E
100
AcDbEntity
  8
STEMPEL
100
AcDbLine
 10
302.5571404833172
 20
457.2004427367829
 30
0.0
 11
302.5571404833172
 21
461.2004427367832
 31
0.0
  0
LINE
  5
E3A
102
{ACAD_REACTORS
330
FF0
102
}
330
1E
100
AcDbEntity
  8
STEMPEL
100
AcDbLine
 10
144.5571404833172
 20
457.2004427367829
 30
0.0
 11
144.5571404833172
 21
461.200442736783
 31
0.0
  0
LINE
  5
E3B
102
{ACAD_REACTORS
330
FF0
102
}
330
1E
100
AcDbEntity
  8
STEMPEL
100
AcDbLine
 10
118.5571404833172
 20
456.2004427367829
 30
0.0
 11
118.5571404833172
 21
462.2004427367831
 31
0.0
  0
LINE
  5
E3C
102
{ACAD_REACTORS
330
FF0
102
}
330
1E
100
AcDbEntity
  8
STEMPEL
100
AcDbLine
 10
104.5571404833172
 20
456.2004427367829
 30
0.0
 11
104.5571404833172
 21
462.2004427367831
 31
0.0
  0
LINE
  5
E3D
102
{ACAD_REACTORS
330
FF0
102
}
330
1E
100
AcDbEntity
  8
STEMPEL
100
AcDbLine
 10
79.5571404833172
 20
456.2004427367829
 30
0.0
 11
106.5571404833181
 21
456.2004427367829
 31
0.0
  0
HATCH
  5
E3E
330
1E
100
AcDbEntity
  8
SCHRAFF
100
AcDbHatch
 10
0.0
 20
0.0
 30
0.0
210
0.0
220
0.0
230
1.0
  2
_USER
 70
     0
 71
     0
 91
        2
 92
        7
 72
     1
 73
     1
 93
        9
 10
170.5571404833173
 20
469.7004427367814
 42
0.0
 10
168.4358201397575
 20
471.8217630803411
 42
0.0
 10
150.4002862338245
 20
453.7862291744096
 42
-0.1989123673796237
 10
148.9860726714517
 20
453.2004427367832
 42
0.0
 10
79.5571404833181
 20
453.2004427367834
 42
0.0
 10
78.55714048331811
 20
452.2004427367834
 42
0.0
 10
78.55714048331811
 20
450.2004427367843
 42
0.0
 10
148.9860726714517
 20
450.2004427367839
 42
0.1989123673797055
 10
152.5216065773854
 20
451.6649088308509
 42
0.0
 97
        0
 92
        7
 72
     1
 73
     1
 93
        9
 10
367.557140483319
 20
453.2004427367822
 42
0.0
 10
298.1282082951837
 20
453.2004427367827
 42
-0.1989123673796506
 10
296.7139947328107
 20
453.7862291744096
 42
0.0
 10
278.6784608268777
 20
471.8217630803414
 42
0.0
 10
276.5571404833181
 20
469.7004427367816
 42
0.0
 10
294.5926743892511
 20
451.6649088308498
 42
0.1989123673796418
 10
298.1282082951836
 20
450.2004427367829
 42
0.0
 10
368.5571404833181
 20
450.2004427367825
 42
0.0
 10
368.5571404833181
 20
452.2004427367835
 42
0.0
 97
        0
 75
     0
 76
     0
 52
135.0
 41
2.0
 77
     0
 78
     1
 53
135.0
 43
20.74599392659184
 44
-81.72993682497406
 45
-1.414213562373095
 46
-1.414213562373094
 79
     0
 47
0.4066471926477464
 98
        2
 10
130.8842573199285
 20
451.8002695835285
 10
317.6768430753077
 20
452.61356385895
  0
LINE
  5
E3F
330
1E
100
AcDbEntity
  8
STEMPEL
100
AcDbLine
 10
298.1282082951837
 20
453.2004427367826
 30
0.0
 11
367.557140483319
 21
453.2004427367825
 31
0.0
  0
LINE
  5
E40
330
1E
100
AcDbEntity
  8
STEMPEL
100
AcDbLine
 10
150.4002862338245
 20
453.7862291744096
 30
0.0
 11
168.4358201397576
 21
471.8217630803414
 31
0.0
  0
LINE
  5
E41
330
1E
100
AcDbEntity
  8
STEMPEL
  6
STRICHPUNKT
100
AcDbLine
 10
170.5571404833172
 20
469.7004427367816
 30
0.0
 11
168.4358201397576
 21
471.8217630803414
 31
0.0
  0
LINE
  5
E42
330
1E
100
AcDbEntity
  8
STEMPEL
100
AcDbLine
 10
152.5216065773842
 20
451.6649088308498
 30
0.0
 11
170.5571404833173
 21
469.7004427367813
 31
0.0
  0
ARC
  5
E43
330
1E
100
AcDbEntity
  8
STEMPEL
100
AcDbCircle
 10
148.9860726714517
 20
455.2004427367827
 30
0.0
 40
5.0
100
AcDbArc
 50
270.0
 51
315.0
  0
ARC
  5
E44
330
1E
100
AcDbEntity
  8
STEMPEL
100
AcDbCircle
 10
148.9860726714517
 20
455.2004427367827
 30
0.0
 40
2.0
100
AcDbArc
 50
270.0
 51
315.0
  0
LINE
  5
E45
330
1E
100
AcDbEntity
  8
STEMPEL
100
AcDbLine
 10
294.5926743892512
 20
451.6649088308498
 30
0.0
 11
276.5571404833181
 21
469.7004427367816
 31
0.0
  0
LINE
  5
E46
330
1E
100
AcDbEntity
  8
STEMPEL
100
AcDbLine
 10
296.7139947328107
 20
453.7862291744096
 30
0.0
 11
278.6784608268777
 21
471.8217630803411
 31
0.0
  0
ARC
  5
E47
330
1E
100
AcDbEntity
  8
STEMPEL
100
AcDbCircle
 10
298.1282082951837
 20
455.2004427367827
 30
0.0
 40
2.0
100
AcDbArc
 50
225.0
 51
270.0
  0
ARC
  5
E48
330
1E
100
AcDbEntity
  8
STEMPEL
100
AcDbCircle
 10
298.1282082951837
 20
455.2004427367827
 30
0.0
 40
5.0
100
AcDbArc
 50
225.0
 51
270.0
  0
LINE
  5
E49
330
1E
100
AcDbEntity
  8
STEMPEL
  6
STRICHPUNKT
100
AcDbLine
 10
276.5571404833181
 20
469.7004427367816
 30
0.0
 11
278.6784608268777
 21
471.8217630803414
 31
0.0
  0
LINE
  5
E4A
330
1E
100
AcDbEntity
  8
STEMPEL
100
AcDbLine
 10
368.5571404833181
 20
452.2004427367834
 30
0.0
 11
368.5571404833181
 21
450.2004427367825
 31
0.0
  0
LINE
  5
E4B
330
1E
100
AcDbEntity
  8
STEMPEL
100
AcDbLine
 10
367.557140483319
 20
453.2004427367825
 30
0.0
 11
368.5571404833181
 21
452.2004427367834
 31
0.0
  0
LINE
  5
E4C
330
1E
100
AcDbEntity
  8
STEMPEL
100
AcDbLine
 10
79.5571404833181
 20
453.2004427367834
 30
0.0
 11
78.55714048331811
 21
452.2004427367834
 31
0.0
  0
LINE
  5
E4D
330
1E
100
AcDbEntity
  8
STEMPEL
100
AcDbLine
 10
78.55714048331811
 20
452.2004427367834
 30
0.0
 11
78.55714048331811
 21
450.2004427367834
 31
0.0
  0
DIMENSION
  5
E4E
330
1E
100
AcDbEntity
  8
BEM
100
AcDbDimension
  2
*D2
 10
335.5571404833181
 20
419.777207559518
 30
0.0
 11
223.5571404833181
 21
426.277207559518
 31
0.0
 70
    32
  1
%%c<>
 71
     5
 42
224.0
  3
Standard
100
AcDbAlignedDimension
 13
111.5571404833181
 23
453.2004427367827
 33
0.0
 14
335.5571404833181
 24
453.2004427367827
 34
0.0
100
AcDbRotatedDimension
1001
ACAD
1000
DSTYLE
1002
{
1070
    40
1040
2.0
1070
    41
1040
3.5
1070
    42
1040
1.0
1070
    43
1040
7.0
1070
    44
1040
1.0
1070
    73
1070
     0
1070
    74
1070
     0
1070
    77
1070
     1
1070
    78
1070
     8
1070
    79
1070
     2
1070
   140
1040
3.5
1070
   141
1040
1.5
1070
   146
1040
0.5
1070
   147
1040
1.5
1070
   172
1070
     1
1070
   178
1070
     1
1070
   179
1070
     2
1070
   271
1070
     2
1070
   272
1070
     2
1070
   284
1070
     8
1070
   285
1070
     8
1070
   286
1070
     8
1070
   340
1005
B8B
1002
}
  0
LINE
  5
E4F
330
1E
100
AcDbEntity
  8
STEMPEL
100
AcDbLine
 10
116.5571404833181
 20
477.2004427367827
 30
0.0
 11
115.5571404833181
 21
478.2004427367827
 31
0.0
  0
LINE
  5
E50
330
1E
100
AcDbEntity
  8
MITTEL
100
AcDbLine
 10
111.5571404833181
 20
482.6909370237673
 30
0.0
 11
111.5571404833181
 21
453.2004427367827
 31
0.0
  0
LINE
  5
E51
330
1E
100
AcDbEntity
  8
STEMPEL
100
AcDbLine
 10
116.5571404833181
 20
477.2004427367827
 30
0.0
 11
116.5571404833181
 21
471.8004427367832
 31
0.0
  0
LINE
  5
E52
330
1E
100
AcDbEntity
  8
HILF
100
AcDbLine
 10
115.5571404833181
 20
478.2004427367827
 30
0.0
 11
115.5571404833181
 21
471.8004427367832
 31
0.0
  0
LINE
  5
E53
330
1E
100
AcDbEntity
  8
STEMPEL
100
AcDbLine
 10
107.5571404833181
 20
478.2004427367827
 30
0.0
 11
106.5571404833181
 21
477.2004427367827
 31
0.0
  0
LINE
  5
E54
330
1E
100
AcDbEntity
  8
STEMPEL
100
AcDbLine
 10
106.5571404833181
 20
477.2004427367827
 30
0.0
 11
106.5571404833181
 21
471.8004427367832
 31
0.0
  0
LINE
  5
E55
330
1E
100
AcDbEntity
  8
HILF
100
AcDbLine
 10
107.5571404833181
 20
478.2004427367827
 30
0.0
 11
107.5571404833181
 21
471.8004427367832
 31
0.0
  0
LINE
  5
E56
330
1E
100
AcDbEntity
  8
STEMPEL
100
AcDbLine
 10
106.5571404833181
 20
477.2004427367829
 30
0.0
 11
116.5571404833181
 21
477.2004427367829
 31
0.0
  0
LINE
  5
E57
330
1E
100
AcDbEntity
  8
STEMPEL
100
AcDbLine
 10
115.5571404833181
 20
478.2004427367827
 30
0.0
 11
107.5571404833181
 21
478.2004427367827
 31
0.0
  0
LINE
  5
E58
330
1E
100
AcDbEntity
  8
STEMPEL
100
AcDbLine
 10
78.55714048331811
 20
450.2004427367843
 30
0.0
 11
172.757140483318
 21
450.2004427367837
 31
0.0
  0
DIMENSION
  5
E59
330
1E
100
AcDbEntity
  8
BEM
100
AcDbDimension
  2
*D3
 10
397.5875037944287
 20
450.2004427367825
 30
0.0
 11
397.5875037944287
 21
491.7211277828475
 31
0.0
 70
   160
  1
21.5
 71
     5
 42
21.62132034355864
  3
Standard
100
AcDbAlignedDimension
 13
278.6784608268778
 23
471.8217630803411
 33
0.0
 14
368.5571404833181
 24
450.2004427367825
 34
0.0
 50
90.0
100
AcDbRotatedDimension
1001
ACAD
1000
DSTYLE
1002
{
1070
    40
1040
2.0
1070
    41
1040
3.5
1070
    42
1040
1.0
1070
    43
1040
7.0
1070
    44
1040
1.0
1070
    73
1070
     0
1070
    74
1070
     0
1070
    77
1070
     1
1070
    78
1070
     8
1070
    79
1070
     2
1070
   140
1040
3.5
1070
   141
1040
1.5
1070
   146
1040
0.5
1070
   147
1040
1.5
1070
   172
1070
     1
1070
   178
1070
     1
1070
   179
1070
     2
1070
   271
1070
     1
1070
   272
1070
     2
1070
   284
1070
     8
1070
   285
1070
     8
1070
   286
1070
     8
1070
   340
1005
B8B
1002
}
  0
DIMENSION
  5
E5A
330
1E
100
AcDbEntity
  8
BEM
100
AcDbDimension
  2
*D4
 10
368.5571404833181
 20
403.777207559518
 30
0.0
 11
223.5571404833181
 21
410.277207559518
 31
0.0
 70
    32
  1
%%c<>
 71
     5
 42
290.0
  3
Standard
100
AcDbAlignedDimension
 13
78.55714048331811
 23
450.2004427367834
 33
0.0
 14
368.5571404833181
 24
450.2004427367825
 34
0.0
100
AcDbRotatedDimension
1001
ACAD
1000
DSTYLE
1002
{
1070
    40
1040
2.0
1070
    41
1040
3.5
1070
    42
1040
1.0
1070
    43
1040
7.0
1070
    44
1040
1.0
1070
    73
1070
     0
1070
    74
1070
     0
1070
    77
1070
     1
1070
    78
1070
     8
1070
    79
1070
     2
1070
   140
1040
3.5
1070
   141
1040
1.5
1070
   146
1040
0.5
1070
   147
1040
1.5
1070
   172
1070
     1
1070
   178
1070
     1
1070
   179
1070
     2
1070
   271
1070
     2
1070
   272
1070
     2
1070
   284
1070
     8
1070
   285
1070
     8
1070
   286
1070
     8
1070
   340
1005
B8B
1002
}
  0
LINE
  5
E5B
330
1E
100
AcDbEntity
  8
STEMPEL
100
AcDbLine
 10
79.5571404833181
 20
453.2004427367834
 30
0.0
 11
148.9860726714517
 21
453.2004427367832
 31
0.0
  0
LINE
  5
E5C
330
1E
100
AcDbEntity
  8
STEMPEL
100
AcDbLine
 10
484.0
 20
830.0000000000002
 30
0.0
 11
484.0
 21
470.0000000000001
 31
0.0
  0
LINE
  5
E5D
330
1E
100
AcDbEntity
  8
STEMPEL
100
AcDbLine
 10
484.0
 20
470.0000000000001
 30
0.0
 11
584.0
 21
470.0000000000001
 31
0.0
  0
LINE
  5
E5E
330
1E
100
AcDbEntity
  8
STEMPEL
100
AcDbLine
 10
484.0000000000001
 20
566.0000000000002
 30
0.0
 11
584.0000000000001
 21
566.0000000000001
 31
0.0
  0
LINE
  5
E5F
330
1E
100
AcDbEntity
  8
STEMPEL
100
AcDbLine
 10
484.0
 20
650.0
 30
0.0
 11
584.0
 21
650.0
 31
0.0
  0
LINE
  5
E60
330
1E
100
AcDbEntity
  8
STEMPEL
100
AcDbLine
 10
484.0000000000003
 20
752.0000000000002
 30
0.0
 11
554.0
 21
752.0000000000002
 31
0.0
  0
LINE
  5
E61
330
1E
100
AcDbEntity
  8
STEMPEL
100
AcDbLine
 10
564.0
 20
566.0
 30
0.0
 11
564.0
 21
470.0000000000001
 31
0.0
  0
LINE
  5
E62
330
1E
100
AcDbEntity
  8
STEMPEL
100
AcDbLine
 10
554.0
 20
830.0000000000002
 30
0.0
 11
554.0
 21
566.0000000000001
 31
0.0
  0
LINE
  5
E63
330
1E
100
AcDbEntity
  8
STEMPEL
100
AcDbLine
 10
514.0
 20
830.0000000000002
 30
0.0
 11
514.0
 21
566.0000000000002
 31
0.0
  0
LINE
  5
E64
330
1E
100
AcDbEntity
  8
VOLL
100
AcDbLine
 10
484.0
 20
484.0000000000002
 30
0.0
 11
584.0
 21
484.0000000000001
 31
0.0
  0
LINE
  5
E65
330
1E
100
AcDbEntity
  8
VOLL
100
AcDbLine
 10
484.0000000000001
 20
524.0000000000001
 30
0.0
 11
584.0000000000001
 21
524.0000000000001
 31
0.0
  0
LINE
  5
E66
330
1E
100
AcDbEntity
  8
VOLL
100
AcDbLine
 10
484.0000000000001
 20
544.0000000000002
 30
0.0
 11
584.0000000000001
 21
544.0000000000001
 31
0.0
  0
LINE
  5
E67
330
1E
100
AcDbEntity
  8
VOLL
100
AcDbLine
 10
514.0
 20
584.0000000000002
 30
0.0
 11
554.0
 21
584.0000000000002
 31
0.0
  0
LINE
  5
E68
330
1E
100
AcDbEntity
  8
VOLL
100
AcDbLine
 10
484.0000000000002
 20
610.0000000000002
 30
0.0
 11
554.0
 21
610.0000000000001
 31
0.0
  0
LINE
  5
E69
330
1E
100
AcDbEntity
  8
HILF
100
AcDbLine
 10
494.0
 20
470.0000000000001
 30
0.0
 11
494.0
 21
566.0000000000002
 31
0.0
  0
LINE
  5
E6A
330
1E
100
AcDbEntity
  8
HILF
100
AcDbLine
 10
504.0
 20
470.0000000000001
 30
0.0
 11
504.0
 21
566.0000000000002
 31
0.0
  0
LINE
  5
E6B
330
1E
100
AcDbEntity
  8
HILF
100
AcDbLine
 10
514.0
 20
470.0000000000001
 30
0.0
 11
514.0
 21
566.0000000000002
 31
0.0
  0
LINE
  5
E6C
330
1E
100
AcDbEntity
  8
HILF
100
AcDbLine
 10
524.0
 20
470.0000000000001
 30
0.0
 11
524.0
 21
566.0000000000002
 31
0.0
  0
LINE
  5
E6D
330
1E
100
AcDbEntity
  8
HILF
100
AcDbLine
 10
534.0
 20
470.0000000000001
 30
0.0
 11
534.0
 21
566.0000000000002
 31
0.0
  0
LINE
  5
E6E
330
1E
100
AcDbEntity
  8
HILF
100
AcDbLine
 10
544.0
 20
470.0000000000001
 30
0.0
 11
544.0
 21
566.0000000000002
 31
0.0
  0
LINE
  5
E6F
330
1E
100
AcDbEntity
  8
HILF
100
AcDbLine
 10
554.0
 20
470.0000000000001
 30
0.0
 11
554.0
 21
566.0000000000002
 31
0.0
  0
LINE
  5
E70
330
1E
100
AcDbEntity
  8
HILF
100
AcDbLine
 10
524.0
 20
566.0000000000002
 30
0.0
 11
524.0
 21
650.0
 31
0.0
  0
LINE
  5
E71
330
1E
100
AcDbEntity
  8
HILF
100
AcDbLine
 10
534.0
 20
566.0000000000002
 30
0.0
 11
534.0
 21
650.0
 31
0.0
  0
LINE
  5
E72
330
1E
100
AcDbEntity
  8
HILF
100
AcDbLine
 10
544.0
 20
566.0000000000002
 30
0.0
 11
544.0
 21
650.0
 31
0.0
  0
LINE
  5
E73
330
1E
100
AcDbEntity
  8
HILF
100
AcDbLine
 10
509.9624175243587
 20
654.7736801096948
 30
0.0
 11
509.9624175243587
 21
746.6297842514811
 31
0.0
  0
LINE
  5
E74
330
1E
100
AcDbEntity
  8
HILF
100
AcDbLine
 10
524.0
 20
654.7736801096948
 30
0.0
 11
524.0
 21
746.6297842514811
 31
0.0
  0
LINE
  5
E75
330
1E
100
AcDbEntity
  8
HILF
100
AcDbLine
 10
534.0
 20
654.7736801096948
 30
0.0
 11
534.0
 21
746.6297842514811
 31
0.0
  0
LINE
  5
E76
330
1E
100
AcDbEntity
  8
HILF
100
AcDbLine
 10
544.0
 20
654.7736801096948
 30
0.0
 11
544.0
 21
746.6297842514811
 31
0.0
  0
LINE
  5
E77
330
1E
100
AcDbEntity
  8
VOLL
100
AcDbLine
 10
534.0
 20
752.0000000000002
 30
0.0
 11
534.0
 21
830.0000000000002
 31
0.0
  0
LINE
  5
E78
330
1E
100
AcDbEntity
  8
HILF
100
AcDbLine
 10
510.2201636304418
 20
756.7238616296995
 30
0.0
 11
510.2201636304418
 21
824.858883932673
 31
0.0
  0
LINE
  5
E79
330
1E
100
AcDbEntity
  8
HILF
100
AcDbLine
 10
579.1060174197169
 20
654.7736801096948
 30
0.0
 11
579.1060174197169
 21
824.858883932673
 31
0.0
  0
TEXT
  5
E7A
330
1E
100
AcDbEntity
  8
TEXT
100
AcDbText
 10
575.3261810501587
 20
492.3998239263297
 30
0.0
 40
4.0
  1
Änderung
 50
90.0
 41
0.8
  7
GREEKS
 72
     1
 11
575.3261810501587
 21
503.1426810691868
 31
0.0
100
AcDbText
  0
TEXT
  5
E7B
330
1E
100
AcDbEntity
  8
TEXT
100
AcDbText
 10
491.5379104912911
 20
573.5163572150378
 30
0.0
 40
5.0
  1
Maßstab
 50
90.0
 41
0.8
  7
GREEKS
100
AcDbText
  0
TEXT
  5
E7C
330
1E
100
AcDbEntity
  8
TEXT
100
AcDbText
 10
491.4510671988221
 20
654.8779403809011
 30
0.0
 40
5.0
  1
Benennung
 50
90.0
 41
0.8
  7
GREEKS
100
AcDbText
  0
TEXT
  5
E7D
330
1E
100
AcDbEntity
  8
TEXT
100
AcDbText
 10
491.6867965462865
 20
756.1787549576343
 30
0.0
 40
5.0
  1
Zeichnungs Nr.
 50
90.0
 41
0.8
  7
GREEKS
100
AcDbText
  0
TEXT
  5
E7E
330
1E
100
AcDbEntity
  8
TEXT
100
AcDbText
 10
563.1543942980695
 20
654.742238391136
 30
0.0
 40
5.0
  1
Bauvorhaben
 50
90.0
 41
0.8
  7
GREEKS
100
AcDbText
  0
TEXT
  5
E7F
330
1E
100
AcDbEntity
  8
TEXT
100
AcDbText
 10
520.8188176290003
 20
756.7238616296995
 30
0.0
 40
5.0
  1
Ersatz für:
 50
90.0
 41
0.8
  7
GREEKS
100
AcDbText
  0
TEXT
  5
E80
330
1E
100
AcDbEntity
  8
TEXT
100
AcDbText
 10
580.3453415397281
 20
478.2664110704577
 30
0.0
 40
4.0
  1
Index
 50
180.0
 41
0.8
  7
GREEKS
100
AcDbText
  0
TEXT
  5
E81
330
1E
100
AcDbEntity
  8
TEXT
100
AcDbText
 10
575.3284373066019
 20
529.8990113186979
 30
0.0
 40
4.0
  1
Tag
 50
90.0
 41
0.8
  7
GREEKS
 72
     1
 11
575.3284373066019
 21
533.6323446520313
 31
0.0
100
AcDbText
  0
TEXT
  5
E82
330
1E
100
AcDbEntity
  8
TEXT
100
AcDbText
 10
575.4067578303359
 20
548.9795678138293
 30
0.0
 40
4.0
  1
Name
 50
90.0
 41
0.8
  7
GREEKS
 72
     1
 11
575.4067578303359
 21
555.3033773376388
 31
0.0
100
AcDbText
  0
TEXT
  5
E83
330
1E
100
AcDbEntity
  8
TEXT
100
AcDbText
 10
520.6811949877008
 20
592.3311673153651
 30
0.0
 40
4.0
  1
Tag
 50
90.0
 41
0.8
  7
GREEKS
100
AcDbText
  0
TEXT
  5
E84
330
1E
100
AcDbEntity
  8
TEXT
100
AcDbText
 10
520.6903890808478
 20
622.4626584226296
 30
0.0
 40
4.0
  1
Name
 50
90.0
 41
0.8
  7
GREEKS
100
AcDbText
  0
TEXT
  5
E85
330
1E
100
AcDbEntity
  8
TEXT
100
AcDbText
 10
530.3700963038204
 20
567.5836127167616
 30
0.0
 40
4.0
  1
Gez.
 50
90.0
 41
0.8
  7
GREEKS
100
AcDbText
  0
TEXT
  5
E86
330
1E
100
AcDbEntity
  8
TEXT
100
AcDbText
 10
540.3107370857163
 20
567.5515086571673
 30
0.0
 40
4.0
  1
Gepr.
 50
90.0
 41
0.8
  7
GREEKS
100
AcDbText
  0
TEXT
  5
E87
330
1E
100
AcDbEntity
  8
TEXT
100
AcDbText
 10
550.470536103502
 20
567.6006777387304
 30
0.0
 40
4.0
  1
Norm.
 50
90.0
 41
0.8
  7
GREEKS
100
AcDbText
  0
TEXT
  5
E88
330
1E
100
AcDbEntity
  8
TEXT
100
AcDbText
 10
541.9258382212141
 20
757.2400861497007
 30
0.0
 40
5.0
  1
ersetzt durch:
 50
90.0
 41
0.8
  7
GREEKS
100
AcDbText
  0
TEXT
  5
E89
330
1E
100
AcDbEntity
  8
TEXT
100
AcDbText
 10
521.0331740347628
 20
569.5106266687155
 30
0.0
 40
4.0
  1
2014
 50
90.0
 41
0.8
  7
GREEKS
100
AcDbText
  0
LINE
  5
E8A
330
1E
100
AcDbEntity
  8
HILF
100
AcDbLine
 10
594.0
 20
0.0
 30
0.0
 11
594.0
 21
840.0
 31
0.0
  0
LINE
  5
E8B
330
1E
100
AcDbEntity
  8
HILF
100
AcDbLine
 10
594.0
 20
840.0
 30
0.0
 11
0.0
 21
840.0
 31
0.0
  0
LINE
  5
E8C
330
1E
100
AcDbEntity
  8
HILF
100
AcDbLine
 10
0.0
 20
840.0
 30
0.0
 11
0.0
 21
0.0
 31
0.0
  0
LINE
  5
E8D
330
1E
100
AcDbEntity
  8
STEMPEL
100
AcDbLine
 10
10.0
 20
830.0
 30
0.0
 11
10.0
 21
40.0
 31
0.0
  0
LINE
  5
E8E
330
1E
100
AcDbEntity
  8
STEMPEL
100
AcDbLine
 10
584.0
 20
40.0
 30
0.0
 11
584.0
 21
830.0
 31
0.0
  0
LINE
  5
E8F
330
1E
100
AcDbEntity
  8
STEMPEL
100
AcDbLine
 10
584.0
 20
830.0
 30
0.0
 11
10.0
 21
830.0
 31
0.0
  0
TEXT
  5
E90
330
1E
100
AcDbEntity
  8
TEXT
 62
     1
100
AcDbText
 10
506.6265692434746
 20
655.0390572473189
 30
0.0
 40
7.0
  1
LORO-FLEX 
 50
90.0
 41
0.8
  7
GREEKS
100
AcDbText
  0
TEXT
  5
E91
330
1E
100
AcDbEntity
  8
TEXT
 62
     1
100
AcDbText
 10
506.6265692434746
 20
766.6628088850802
 30
0.0
 40
7.0
  1
21820070W
 50
90.0
 41
0.8
  7
GREEKS
 72
     1
 11
506.6265692434746
 21
790.1294755517469
 31
0.0
100
AcDbText
  0
TEXT
  5
E92
330
1E
100
AcDbEntity
  8
TEXT
100
AcDbText
 10
491.16010388621
 20
618.509022641583
 30
0.0
 40
5.0
  1
Zul.Abw.
 50
90.0
 41
0.8
  7
GREEKS
100
AcDbText
  0
TEXT
  5
E93
330
1E
100
AcDbEntity
  8
TEXT
100
AcDbText
 10
530.8491412387978
 20
590.1565237511869
 30
0.0
 40
4.0
  1
29.08.
 50
90.0
 41
0.8
  7
GREEKS
 72
     1
 11
530.8491412387978
 21
597.1660475607107
 31
0.0
100
AcDbText
  0
TEXT
  5
E94
330
1E
100
AcDbEntity
  8
TEXT
100
AcDbText
 10
531.0570234483454
 20
624.023175322661
 30
0.0
 40
4.0
  1
Koeh
 50
90.0
 41
0.8
  7
GREEKS
 72
     1
 11
531.0570234483454
 21
629.2803181798038
 31
0.0
100
AcDbText
  0
TEXT
  5
E95
330
1E
100
AcDbEntity
  8
TEXT
100
AcDbText
 10
521.8997861689248
 20
654.7736801096948
 30
0.0
 40
5.0
  1
Rohr- und Dachdurchführung
 50
90.0
 41
0.8
  7
GREEKS
100
AcDbText
  0
TEXT
  5
E96
330
1E
100
AcDbEntity
  8
TEXT
100
AcDbText
 10
541.4090266215395
 20
654.7736801096948
 30
0.0
 40
5.0
  1
EDV-Art.Nr. 21820.070X
 50
90.0
 41
0.8
  7
GREEKS
100
AcDbText
  0
TEXT
  5
E97
330
1E
100
AcDbEntity
  8
TEXT
100
AcDbText
 10
550.6887237520849
 20
654.7736801096948
 30
0.0
 40
4.0
  1
21820070W.DWG
 50
90.0
 41
0.8
  7
GREEKS
100
AcDbText
  0
TEXT
  5
E98
330
1E
100
AcDbEntity
  8
TEXT
 62
     1
100
AcDbText
 10
506.5292291158502
 20
582.7034912034222
 30
0.0
 40
7.0
  1
1:2
 50
90.0
 41
0.8
  7
GREEKS
100
AcDbText
  0
TEXT
  5
E99
330
1E
100
AcDbEntity
  8
TEXT
100
AcDbText
 10
479.8856414948956
 20
470.0441139350127
 30
0.0
 40
5.0
  1
Erstellt mit AUTOCAD 2004
 50
90.0
 41
0.8
  7
GREEKS
100
AcDbText
  0
INSERT
  5
E9A
330
1E
100
AcDbEntity
  8
HILF
100
AcDbBlockReference
  2
LORO
 10
557.0194069970105
 20
573.0624985962354
 30
0.0
 41
2.0
 42
2.0
 43
2.0
 50
90.0
  0
LINE
  5
E9B
330
1E
100
AcDbEntity
  8
BEM
100
AcDbLine
 10
594.0
 20
456.0
 30
0.0
 11
584.0
 21
456.0
 31
0.0
  0
LINE
  5
E9C
330
1E
100
AcDbEntity
  8
HILF
100
AcDbLine
 10
594.0
 20
0.0
 30
0.0
 11
0.0
 21
0.0
 31
0.0
  0
LINE
  5
E9D
330
1E
100
AcDbEntity
  8
STEMPEL
100
AcDbLine
 10
584.0
 20
40.0
 30
0.0
 11
10.0
 21
40.0
 31
0.0
  0
LINE
  5
E9E
330
1E
100
AcDbEntity
  8
HILF
100
AcDbLine
 10
297.0
 20
0.0
 30
0.0
 11
297.0
 21
40.0
 31
0.0
  0
TEXT
  5
E9F
330
1E
100
AcDbEntity
  8
BEM
100
AcDbText
 10
583.8320989200114
 20
837.3022923857165
 30
0.0
 40
4.0
  1
Diese Zeichnung ist urheberrechtlich geschützt und bleibt unser Eigentum. Sie darf weder ganz noch teilweise verfielfältigt und nicht an Dritte weitergegeben werden.
 50
180.0
 41
0.8
  7
GREEKS
100
AcDbText
  0
TEXT
  5
EA0
330
1E
100
AcDbEntity
  8
TEXT
100
AcDbText
 10
508.3510969238846
 20
629.9102859255416
 30
0.0
 40
4.0
  1

 50
90.0
 41
0.7
  7
GREEKS
 72
     1
 11
508.3510969238846
 21
629.9102859255416
 31
0.0
100
AcDbText
  0
TEXT
  5
EA5
330
1E
100
AcDbEntity
  8
TEXT
 62
     1
100
AcDbText
 10
301.8527189425774
 20
664.5450519835568
 30
0.0
 40
7.0
  1
EDV-Art.Nr. 21801.070X
 41
0.8
  7
GREEKS
100
AcDbText
  0
TEXT
  5
EA6
330
1E
100
AcDbEntity
  8
TEXT
 62
     1
100
AcDbText
 10
301.8527189425774
 20
677.1842290537805
 30
0.0
 40
7.0
  1
LORO-FLEX Lüftungsrohr DN70
 41
0.8
  7
GREEKS
100
AcDbText
  0
LINE
  5
EA7
330
1E
100
AcDbEntity
  8
HILF
100
AcDbLine
 10
441.0731219759027
 20
674.7921393001137
 30
0.0
 11
296.668912765731
 21
674.7921393001137
 31
0.0
  0
LINE
  5
EA8
330
1E
100
AcDbEntity
  8
HILF
100
AcDbLine
 10
296.668912765731
 20
674.7921393001137
 30
0.0
 11
274.357140483318
 21
657.2953506604707
 31
0.0
  0
TEXT
  5
EA9
330
1E
100
AcDbEntity
  8
TEXT
100
AcDbText
 10
531.8997861689248
 20
654.7736801096948
 30
0.0
 40
5.0
  1
DN70, einteilig
 50
90.0
 41
0.8
  7
GREEKS
100
AcDbText
  0
TEXT
  5
F6C
330
1E
100
AcDbEntity
  8
TEXT
 62
     1
100
AcDbText
 10
411.3149704662546
 20
415.1368363899345
 30
0.0
 40
7.0
  1
EDV-Art.Nr. 21805.100X
 41
0.8
  7
GREEKS
100
AcDbText
  0
TEXT
  5
F6D
330
1E
100
AcDbEntity
  8
TEXT
 62
     1
100
AcDbText
 10
411.3149704662546
 20
428.8452646162413
 30
0.0
 40
7.0
  1
Losflansch DN100
 41
0.8
  7
GREEKS
100
AcDbText
  0
LINE
  5
F6E
330
1E
100
AcDbEntity
  8
TEXT
 62
     2
100
AcDbLine
 10
409.7269052531214
 20
424.9571679355645
 30
0.0
 11
516.8488593214727
 21
424.9571679355645
 31
0.0
  0
TEXT
  5
F6F
330
1E
100
AcDbEntity
  8
TEXT
 62
     1
100
AcDbText
 10
328.8157993656728
 20
519.7910404386091
 30
0.0
 40
7.0
  1
EDV-Art.Nr. 00937.100X
 41
0.8
  7
GREEKS
100
AcDbText
  0
TEXT
  5
F70
330
1E
100
AcDbEntity
  8
TEXT
 62
     1
100
AcDbText
 10
328.8157993656728
 20
533.4994686649159
 30
0.0
 40
7.0
  1
Dichtelement DN100
 41
0.8
  7
GREEKS
100
AcDbText
  0
LINE
  5
F71
330
1E
100
AcDbEntity
  8
TEXT
 62
     2
100
AcDbLine
 10
325.8566590658201
 20
529.6113719842391
 30
0.0
 11
432.7765086289027
 21
529.6113719842391
 31
0.0
  0
TEXT
  5
F72
330
1E
100
AcDbEntity
  8
TEXT
 62
     1
100
AcDbText
 10
411.3149704662546
 20
398.6776558822139
 30
0.0
 40
7.0
  1
Festflansch DN100
 41
0.8
  7
GREEKS
100
AcDbText
  0
LINE
  5
F73
330
1E
100
AcDbEntity
  8
TEXT
 62
     2
100
AcDbLine
 10
409.7269052531214
 20
394.789559201537
 30
0.0
 11
516.8488593214727
 21
394.789559201537
 31
0.0
  0
TEXT
  5
F74
330
1E
100
AcDbEntity
  8
TEXT
 62
     1
100
AcDbText
 10
411.3149704662546
 20
384.9614042300641
 30
0.0
 40
7.0
  1
EDV-Art.Nr. 21806.100X
 41
0.8
  7
GREEKS
100
AcDbText
  0
LINE
  5
F75
330
1E
100
AcDbEntity
  8
TEXT
 62
     2
100
AcDbLine
 10
409.7269052531214
 20
394.789559201537
 30
0.0
 11
351.6474925779716
 21
451.9158941308489
 31
0.0
  0
LINE
  5
F76
330
1E
100
AcDbEntity
  8
TEXT
 62
     2
100
AcDbLine
 10
325.8566590658201
 20
529.6113719842391
 30
0.0
 11
279.0920581937944
 21
474.0105300232739
 31
0.0
  0
LINE
  5
F77
330
1E
100
AcDbEntity
  8
TEXT
 62
     2
100
AcDbLine
 10
409.7269052531214
 20
424.9571679355645
 30
0.0
 11
364.3497509412441
 21
459.6624031778567
 31
0.0
  0
HATCH
  5
FBC
330
1E
100
AcDbEntity
  8
SCHRAFF
100
AcDbHatch
 10
0.0
 20
0.0
 30
0.0
210
0.0
220
0.0
230
1.0
  2
HONEY
 70
     0
 71
     1
 91
        4
 92
        7
 72
     0
 73
     1
 93
        5
 10
273.1571404833181
 20
620.0923106014487
 10
265.567394389568
 20
618.7937553792822
 10
260.0571404833181
 20
618.1536189306489
 10
260.0571404833181
 20
249.0915554391461
 10
273.1571404833181
 20
249.0915554391461
 97
        4
330
D34
330
D69
330
D7C
330
D5D
 92
        7
 72
     0
 73
     1
 93
        5
 10
187.057140483318
 20
622.5100637029149
 10
181.5468865770687
 20
621.8699272542821
 10
173.9571404833179
 20
620.5713720321151
 10
173.957140483318
 20
249.0915554391459
 10
187.0571404833181
 20
249.0915554391459
 97
        4
330
D34
330
D47
330
D95
330
D66
 92
        7
 72
     1
 73
     1
 93
       11
 10
187.0571404833181
 20
692.9170452372154
 42
0.1420008527982317
 10
185.817140483318
 20
697.1951756700097
 42
-0.1420008527982291
 10
183.9571404833181
 20
703.612371319201
 42
0.0
 10
183.9571404833181
 20
720.2236449017841
 42
0.0926930603363565
 10
183.1463014748762
 20
724.5598501903966
 42
-0.0933817694259112
 10
181.457140483318
 20
733.6619249499749
 42
0.0
 10
181.4571404833179
 20
739.2236449017842
 42
0.0
 10
173.957140483318
 20
739.2236449017842
 42
0.0
 10
173.957140483318
 20
630.2275994597883
 42
0.0
 10
181.5468865770683
 20
631.526154681955
 42
0.0
 10
187.0571404833181
 20
632.1662911305881
 42
0.0
 97
       10
330
D8E
330
D8D
330
D90
330
D88
330
D87
330
D8B
330
D92
330
D5C
330
D49
330
D99
 92
        7
 72
     1
 73
     1
 93
       11
 10
273.157140483318
 20
739.2236449017842
 42
0.0
 10
265.6571404833179
 20
739.2236449017842
 42
0.0
 10
265.657140483318
 20
733.6619249499749
 42
-0.0933817694259184
 10
263.9679794917595
 20
724.559850190396
 42
0.0926930603363433
 10
263.157140483318
 20
720.223644901784
 42
0.0
 10
263.157140483318
 20
703.612371319201
 42
-0.1420008527982353
 10
261.2971404833179
 20
697.1951756700094
 42
0.1420008527982214
 10
260.0571404833181
 20
692.9170452372154
 42
0.0
 10
260.0571404833181
 20
627.8098463583217
 42
0.0
 10
265.5673943895679
 20
628.449982806955
 42
0.0
 10
273.1571404833181
 20
629.7485380291217
 42
0.0
 97
       10
330
D72
330
D74
330
D71
330
D6E
330
D7A
330
D76
330
D77
330
D82
330
D49
330
D5F
 75
     0
 76
     1
 52
0.0
 41
30.0
 77
     0
 78
     3
 53
0.0
 43
0.0
 44
0.0
 45
5.625
 46
3.247595249999999
 79
     2
 49
3.75
 49
-7.5
 53
120.0
 43
0.0
 44
0.0
 45
-5.624999987709673
 46
3.247595271287468
 79
     2
 49
3.75
 49
-7.5
 53
60.0
 43
0.0
 44
0.0
 45
0.0000000122903263
 46
6.495190521287468
 79
     2
 49
-7.5
 49
3.75
 47
0.9188613512107323
 98
        4
 10
267.8442892679586
 20
569.9691661993585
 10
178.6632854686227
 20
591.1029760324679
 10
184.1796353010645
 20
648.9912409809241
 10
268.7636809066989
 20
653.5855493373548
  0
TEXT
  5
FC8
330
1E
100
AcDbEntity
  8
TEXT
 62
     1
100
AcDbText
 10
531.0654029352178
 20
790.1294755517469
 30
0.0
 40
7.0
  1

 50
90.0
 41
0.8
  7
GREEKS
 72
     1
 11
531.0654029352178
 21
790.1294755517469
 31
0.0
100
AcDbText
  0
HATCH
  5
FF0
330
1E
100
AcDbEntity
  8
SCHRAFF
100
AcDbHatch
 10
0.0
 20
0.0
 30
0.0
210
0.0
220
0.0
230
1.0
  2
_USER
 70
     0
 71
     1
 91
        4
 92
        7
 72
     0
 73
     1
 93
        6
 10
368.5571404833173
 20
461.200442736783
 10
367.5571404833169
 20
462.2004427367834
 10
342.5571404833172
 20
462.2004427367834
 10
342.5571404833172
 20
456.2004427367829
 10
367.5571404833172
 20
456.2004427367829
 10
368.5571404833172
 20
457.200442736783
 97
        6
330
E30
330
E28
330
E2D
330
E29
330
E2F
330
E31
 92
        7
 72
     0
 73
     1
 93
        6
 10
328.5571404833172
 20
462.2004427367835
 10
303.5571404833175
 20
462.2004427367834
 10
302.5571404833172
 20
461.2004427367832
 10
302.5571404833172
 20
457.2004427367829
 10
303.5571404833174
 20
456.2004427367828
 10
328.5571404833172
 20
456.2004427367829
 97
        6
330
E28
330
E35
330
E39
330
E34
330
E27
330
E2E
 92
        7
 72
     0
 73
     1
 93
        6
 10
144.5571404833172
 20
461.200442736783
 10
143.5571404833171
 20
462.2004427367831
 10
118.5571404833172
 20
462.2004427367831
 10
118.5571404833172
 20
456.2004427367829
 10
143.5571404833171
 20
456.2004427367829
 10
144.5571404833172
 20
457.2004427367828
 97
        6
330
E33
330
E2B
330
E3B
330
E2A
330
E32
330
E3A
 92
        7
 72
     0
 73
     1
 93
        6
 10
104.5571404833172
 20
462.2004427367831
 10
79.55714048331714
 20
462.2004427367829
 10
78.55714048331719
 20
461.2004427367829
 10
78.55714048331719
 20
457.2004427367829
 10
79.55714048331721
 20
456.2004427367829
 10
104.5571404833172
 20
456.2004427367829
 97
        6
330
E2B
330
E37
330
E38
330
E36
330
E3D
330
E3C
 75
     0
 76
     0
 52
45.0
 41
5.0
 77
     0
 78
     1
 53
45.0
 43
0.0
 44
0.0
 45
-3.535533905932737
 46
3.535533905932737
 79
     0
 47
0.3423504583265294
 98
        4
 10
344.897844654904
 20
460.0314353370342
 10
323.3230337800565
 20
460.3737863667658
 10
134.9714980490134
 20
459.3467332775706
 10
100.0408472300041
 20
459.3467332775706
  0
ENDSEC
  0
SECTION
  2
OBJECTS
  0
DICTIONARY
  5
C
330
0
100
AcDbDictionary
281
     1
  3
ACAD_CIP_PREVIOUS_PRODUCT_INFO
350
104E
  3
ACAD_COLOR
350
11A
  3
ACAD_DETAILVIEWSTYLE
350
104A
  3
ACAD_GROUP
350
D
  3
ACAD_LAYOUT
350
19
  3
ACAD_MATERIAL
350
119
  3
ACAD_MLEADERSTYLE
350
1045
  3
ACAD_MLINESTYLE
350
16
  3
ACAD_PLOTSETTINGS
350
18
  3
ACAD_PLOTSTYLENAME
350
E
  3
ACAD_SCALELIST
350
1033
  3
ACAD_SECTIONVIEWSTYLE
350
1047
  3
ACAD_TABLESTYLE
350
1031
  3
ACAD_VISUALSTYLE
350
1018
  3
ACDB_RECOMPOSE_DATA
350
10D0
  3
AcDbVariableDictionary
350
125
  3
AcDsDecomposeData
350
10D6
  0
DICTIONARY
  5
106D
330
2
100
AcDbDictionary
280
     1
281
     1
  3
ACAD_LAYERSTATES
360
106E
  0
DICTIONARY
  5
105A
330
10
100
AcDbDictionary
280
     1
281
     1
  3
ADSK_XREC_LAYER_RECONCILED
360
105B
  0
DICTIONARY
  5
105C
330
2B
100
AcDbDictionary
280
     1
281
     1
  3
ADSK_XREC_LAYER_RECONCILED
360
105D
  0
DICTIONARY
  5
105E
330
2C
100
AcDbDictionary
280
     1
281
     1
  3
ADSK_XREC_LAYER_RECONCILED
360
105F
  0
DICTIONARY
  5
1060
330
2D
100
AcDbDictionary
280
     1
281
     1
  3
ADSK_XREC_LAYER_RECONCILED
360
1061
  0
DICTIONARY
  5
1062
330
2F
100
AcDbDictionary
280
     1
281
     1
  3
ADSK_XREC_LAYER_RECONCILED
360
1063
  0
DICTIONARY
  5
1064
330
30
100
AcDbDictionary
280
     1
281
     1
  3
ADSK_XREC_LAYER_RECONCILED
360
1065
  0
DICTIONARY
  5
1066
330
2B9
100
AcDbDictionary
280
     1
281
     1
  3
ADSK_XREC_LAYER_RECONCILED
360
1067
  0
DICTIONARY
  5
1068
330
B8A
100
AcDbDictionary
280
     1
281
     1
  3
ADSK_XREC_LAYER_RECONCILED
360
1069
  0
DICTIONARY
  5
DB
330
1E
100
AcDbDictionary
280
     1
281
     1
  3
ACAD_LAYOUTSELFREF
360
10F
  0
DICTIONARY
  5
DD
330
1A
100
AcDbDictionary
280
     1
281
     1
  3
ACAD_LAYOUTSELFREF
360
10E
  0
XRECORD
  5
104E
102
{ACAD_REACTORS
330
C
102
}
330
C
100
AcDbXrecord
280
     1
300
ACD
300
2013
300
ACD_F_S
  0
DICTIONARY
  5
11A
102
{ACAD_REACTORS
330
C
102
}
330
C
100
AcDbDictionary
281
     1
  0
DICTIONARY
  5
104A
102
{ACAD_REACTORS
330
C
102
}
330
C
100
AcDbDictionary
281
     1
  3
Imperial24
350
104B
  0
DICTIONARY
  5
D
102
{ACAD_REACTORS
330
C
102
}
330
C
100
AcDbDictionary
281
     1
  0
DICTIONARY
  5
19
102
{ACAD_REACTORS
330
C
102
}
330
C
100
AcDbDictionary
281
     1
  3
Layout1
350
1D
  3
Model
350
21
  0
DICTIONARY
  5
119
102
{ACAD_REACTORS
330
C
102
}
330
C
100
AcDbDictionary
281
     1
  3
ByBlock
350
1008
  3
ByLayer
350
1000
  3
Global
350
1010
  0
DICTIONARY
  5
1045
102
{ACAD_REACTORS
330
C
102
}
330
C
100
AcDbDictionary
281
     1
  3
Standard
350
1046
  0
DICTIONARY
  5
16
102
{ACAD_REACTORS
330
C
102
}
330
C
100
AcDbDictionary
281
     1
  3
Standard
350
17
  0
DICTIONARY
  5
18
102
{ACAD_REACTORS
330
C
102
}
330
C
100
AcDbDictionary
281
     1
  0
ACDBDICTIONARYWDFLT
  5
E
102
{ACAD_REACTORS
330
C
102
}
330
C
100
AcDbDictionary
281
     1
  3
Normal
350
F
100
AcDbDictionaryWithDefault
340
F
  0
DICTIONARY
  5
1033
102
{ACAD_REACTORS
330
C
102
}
330
C
100
AcDbDictionary
281
     1
  3
A0
350
1034
  3
A1
350
1035
  3
A2
350
1036
  3
A3
350
1037
  3
A4
350
1038
  3
A5
350
1039
  3
A6
350
103A
  3
A7
350
103B
  3
A8
350
103C
  3
A9
350
103D
  3
B0
350
103E
  3
B1
350
103F
  3
B2
350
1040
  3
B3
350
1041
  3
B4
350
1042
  3
B5
350
1043
  3
B6
350
1044
  0
DICTIONARY
  5
1047
102
{ACAD_REACTORS
330
C
102
}
330
C
100
AcDbDictionary
281
     1
  3
Imperial24
350
1049
  0
DICTIONARY
  5
1031
102
{ACAD_REACTORS
330
C
102
}
330
C
100
AcDbDictionary
281
     1
  3
Standard
350
1032
  0
DICTIONARY
  5
1018
102
{ACAD_REACTORS
330
C
102
}
330
C
100
AcDbDictionary
281
     1
  3
2dWireframe
350
101E
  3
Basic
350
101D
  3
Brighten
350
1024
  3
ColorChange
350
1028
  3
Conceptual
350
1021
  3
Dim
350
1023
  3
EdgeColorOff
350
1030
  3
Facepattern
350
1027
  3
Flat
350
1019
  3
FlatWithEdges
350
101A
  3
Gouraud
350
101B
  3
GouraudWithEdges
350
101C
  3
Hidden
350
1020
  3
JitterOff
350
102E
  3
Linepattern
350
1026
  3
OverhangOff
350
102F
  3
Realistic
350
1022
  3
Shaded
350
102D
  3
Shaded with edges
350
102C
  3
Shades of Gray
350
1029
  3
Sketchy
350
102A
  3
Thicken
350
1025
  3
Wireframe
350
101F
  3
X-Ray
350
102B
  0
XRECORD
  5
10D0
102
{ACAD_REACTORS
330
C
102
}
330
C
100
AcDbXrecord
280
     1
 90
        1
330
1032
  0
DICTIONARY
  5
125
102
{ACAD_REACTORS
330
C
102
}
330
C
100
AcDbDictionary
281
     1
  3
CANNOSCALE
350
10CD
  3
CMLEADERSTYLE
350
10CA
  3
CTABLESTYLE
350
10C9
  3
CVIEWDETAILSTYLE
350
10CB
  3
CVIEWSECTIONSTYLE
350
10CC
  3
DIMASSOC
350
126
  3
PROJECTNAME
350
127
  0
DICTIONARY
  5
10D6
102
{ACAD_REACTORS
330
C
102
}
330
C
100
AcDbDictionary
281
     1
  3
AcDsRecords
350
10D8
  3
AcDsSchemas
350
10D7
1001
ACAD
1070
     2
  0
DICTIONARY
  5
106E
102
{ACAD_REACTORS
330
106D
102
}
330
106D
100
AcDbDictionary
281
     1
  0
XRECORD
  5
105B
102
{ACAD_REACTORS
330
105A
102
}
330
105A
100
AcDbXrecord
280
     1
290
     1
  0
XRECORD
  5
105D
102
{ACAD_REACTORS
330
105C
102
}
330
105C
100
AcDbXrecord
280
     1
290
     1
  0
XRECORD
  5
105F
102
{ACAD_REACTORS
330
105E
102
}
330
105E
100
AcDbXrecord
280
     1
290
     1
  0
XRECORD
  5
1061
102
{ACAD_REACTORS
330
1060
102
}
330
1060
100
AcDbXrecord
280
     1
290
     1
  0
XRECORD
  5
1063
102
{ACAD_REACTORS
330
1062
102
}
330
1062
100
AcDbXrecord
280
     1
290
     1
  0
XRECORD
  5
1065
102
{ACAD_REACTORS
330
1064
102
}
330
1064
100
AcDbXrecord
280
     1
290
     1
  0
XRECORD
  5
1067
102
{ACAD_REACTORS
330
1066
102
}
330
1066
100
AcDbXrecord
280
     1
290
     1
  0
XRECORD
  5
1069
102
{ACAD_REACTORS
330
1068
102
}
330
1068
100
AcDbXrecord
280
     1
290
     1
  0
XRECORD
  5
10F
102
{ACAD_REACTORS
330
DB
102
}
330
DB
100
AcDbXrecord
280
     1
340
1E
  0
XRECORD
  5
10E
102
{ACAD_REACTORS
330
DD
102
}
330
DD
100
AcDbXrecord
280
     1
340
1A
  0
ACDBDETAILVIEWSTYLE
  5
104B
102
{ACAD_REACTORS
330
104A
102
}
330
104A
100
AcDbModelDocViewStyle
 70
     0
  3
Imperial24
290
     0
100
AcDbDetailViewStyle
 70
     0
 71
     0
 90
        3
 71
     1
340
11
 62
   256
 40
0.24
340
0
 62
   256
 40
0.24
300

 40
0.36
280
     3
 71
     2
340
15
 90
       25
 62
   256
 71
     3
340
11
 62
   256
 40
0.24
 90
        1
 40
0.75
 90
        1
300
%<\AcVar ViewType \f "%tc1">% %<\AcVar ViewDetailId>%\PVARIA %<\AcVar ViewScale \f "%sn">%
 71
     4
340
15
 90
       25
 62
   256
340
15
 90
       25
 62
   256
280
     0
  0
LAYOUT
  5
1D
102
{ACAD_REACTORS
330
19
102
}
330
19
100
AcDbPlotSettings
  1

  2
\\NT_WORK01\HP LaserJet 5000 PCL 6
  4

  6

 40
0.0
 41
0.0
 42
0.0
 43
0.0
 44
0.0
 45
0.0
 46
0.0
 47
0.0
 48
0.0
 49
0.0
140
0.0
141
0.0
142
1.0
143
1.0
 70
   688
 72
     0
 73
     0
 74
     5
  7
monochrome1.ctb
 75
    16
147
1.0
 76
     0
 77
     2
 78
   300
148
0.0
149
0.0
100
AcDbLayout
  1
Layout1
 70
     0
 71
     1
 10
0.0
 20
0.0
 11
12.0
 21
9.0
 12
0.0
 22
0.0
 32
0.0
 14
1.000000000000000E+20
 24
1.000000000000000E+20
 34
1.000000000000000E+20
 15
-1.000000000000000E+20
 25
-1.000000000000000E+20
 35
-1.000000000000000E+20
146
0.0
 13
0.0
 23
0.0
 33
0.0
 16
1.0
 26
0.0
 36
0.0
 17
0.0
 27
1.0
 37
0.0
 76
     0
330
1A
  0
LAYOUT
  5
21
102
{ACAD_REACTORS
330
19
102
}
330
19
100
AcDbPlotSettings
  1

  2
none_device
  4
Letter_(8.50_x_11.00_Inches)
  6

 40
6.349999904632568
 41
6.349999904632568
 42
6.350006103515625
 43
6.350006103515625
 44
215.8999938964844
 45
279.3999938964844
 46
0.0
 47
0.0
 48
0.0
 49
0.0
140
0.0
141
0.0
142
1.0
143
146.8051019652449
 70
 11952
 72
     0
 73
     1
 74
     0
  7
monochrome1.ctb
 75
     0
147
0.0068117523615545
 76
     0
 77
     2
 78
   300
148
12032.65922090589
149
78.33653646788768
100
AcDbLayout
  1
Model
 70
     1
 71
     0
 10
0.0
 20
0.0
 11
12.0
 21
9.0
 12
0.0
 22
0.0
 32
0.0
 14
0.0
 24
0.0
 34
0.0
 15
0.0
 25
0.0
 35
0.0
146
0.0
 13
0.0
 23
0.0
 33
0.0
 16
1.0
 26
0.0
 36
0.0
 17
0.0
 27
1.0
 37
0.0
 76
     0
330
1E
331
FFE
1001
ACAD_PSEXT
1000
Kein
1000
Kein
1000
Nicht anwendbar
1000
Das Layout wird erst geplottet, wenn ein neuer Plotter-Konfigurationsname ausgewählt wird.
1070
     0
  0
MATERIAL
  5
1008
102
{ACAD_XDICTIONARY
360
1009
102
}
102
{ACAD_REACTORS
330
119
102
}
330
119
100
AcDbMaterial
  1
ByBlock
 72
     0
 43
0.0208333333333333
 43
0.0
 43
0.0
 43
0.0
 43
0.0
 43
0.0208333333333333
 43
0.0
 43
0.0
 43
0.0
 43
0.0
 43
1.0
 43
0.0
 43
0.0
 43
0.0
 43
0.0
 43
1.0
 77
     0
 47
0.0208333333333333
 47
0.0
 47
0.0
 47
0.0
 47
0.0
 47
0.0208333333333333
 47
0.0
 47
0.0
 47
0.0
 47
0.0
 47
1.0
 47
0.0
 47
0.0
 47
0.0
 47
0.0
 47
1.0
171
     0
 49
0.0208333333333333
 49
0.0
 49
0.0
 49
0.0
 49
0.0
 49
0.0208333333333333
 49
0.0
 49
0.0
 49
0.0
 49
0.0
 49
1.0
 49
0.0
 49
0.0
 49
0.0
 49
0.0
 49
1.0
175
     0
142
0.0208333333333333
142
0.0
142
0.0
142
0.0
142
0.0
142
0.0208333333333333
142
0.0
142
0.0
142
0.0
142
0.0
142
1.0
142
0.0
142
0.0
142
0.0
142
0.0
142
1.0
179
     0
144
0.0208333333333333
144
0.0
144
0.0
144
0.0
144
0.0
144
0.0208333333333333
144
0.0
144
0.0
144
0.0
144
0.0
144
1.0
144
0.0
144
0.0
144
0.0
144
0.0
144
1.0
147
0.0208333333333333
147
0.0
147
0.0
147
0.0
147
0.0
147
0.0208333333333333
147
0.0
147
0.0
147
0.0
147
0.0
147
1.0
147
0.0
147
0.0
147
0.0
147
0.0
147
1.0
  0
MATERIAL
  5
1000
102
{ACAD_XDICTIONARY
360
1001
102
}
102
{ACAD_REACTORS
330
119
102
}
330
119
100
AcDbMaterial
  1
ByLayer
 72
     0
 43
0.0208333333333333
 43
0.0
 43
0.0
 43
0.0
 43
0.0
 43
0.0208333333333333
 43
0.0
 43
0.0
 43
0.0
 43
0.0
 43
1.0
 43
0.0
 43
0.0
 43
0.0
 43
0.0
 43
1.0
 77
     0
 47
0.0208333333333333
 47
0.0
 47
0.0
 47
0.0
 47
0.0
 47
0.0208333333333333
 47
0.0
 47
0.0
 47
0.0
 47
0.0
 47
1.0
 47
0.0
 47
0.0
 47
0.0
 47
0.0
 47
1.0
171
     0
 49
0.0208333333333333
 49
0.0
 49
0.0
 49
0.0
 49
0.0
 49
0.0208333333333333
 49
0.0
 49
0.0
 49
0.0
 49
0.0
 49
1.0
 49
0.0
 49
0.0
 49
0.0
 49
0.0
 49
1.0
175
     0
142
0.0208333333333333
142
0.0
142
0.0
142
0.0
142
0.0
142
0.0208333333333333
142
0.0
142
0.0
142
0.0
142
0.0
142
1.0
142
0.0
142
0.0
142
0.0
142
0.0
142
1.0
179
     0
144
0.0208333333333333
144
0.0
144
0.0
144
0.0
144
0.0
144
0.0208333333333333
144
0.0
144
0.0
144
0.0
144
0.0
144
1.0
144
0.0
144
0.0
144
0.0
144
0.0
144
1.0
147
0.0208333333333333
147
0.0
147
0.0
147
0.0
147
0.0
147
0.0208333333333333
147
0.0
147
0.0
147
0.0
147
0.0
147
1.0
147
0.0
147
0.0
147
0.0
147
0.0
147
1.0
  0
MATERIAL
  5
1010
102
{ACAD_XDICTIONARY
360
1011
102
}
102
{ACAD_REACTORS
330
119
102
}
330
119
100
AcDbMaterial
  1
Global
 72
     0
 43
0.0208333333333333
 43
0.0
 43
0.0
 43
0.0
 43
0.0
 43
0.0208333333333333
 43
0.0
 43
0.0
 43
0.0
 43
0.0
 43
1.0
 43
0.0
 43
0.0
 43
0.0
 43
0.0
 43
1.0
 77
     0
 47
0.0208333333333333
 47
0.0
 47
0.0
 47
0.0
 47
0.0
 47
0.0208333333333333
 47
0.0
 47
0.0
 47
0.0
 47
0.0
 47
1.0
 47
0.0
 47
0.0
 47
0.0
 47
0.0
 47
1.0
171
     0
 49
0.0208333333333333
 49
0.0
 49
0.0
 49
0.0
 49
0.0
 49
0.0208333333333333
 49
0.0
 49
0.0
 49
0.0
 49
0.0
 49
1.0
 49
0.0
 49
0.0
 49
0.0
 49
0.0
 49
1.0
175
     0
142
0.0208333333333333
142
0.0
142
0.0
142
0.0
142
0.0
142
0.0208333333333333
142
0.0
142
0.0
142
0.0
142
0.0
142
1.0
142
0.0
142
0.0
142
0.0
142
0.0
142
1.0
179
     0
144
0.0208333333333333
144
0.0
144
0.0
144
0.0
144
0.0
144
0.0208333333333333
144
0.0
144
0.0
144
0.0
144
0.0
144
1.0
144
0.0
144
0.0
144
0.0
144
0.0
144
1.0
147
0.0208333333333333
147
0.0
147
0.0
147
0.0
147
0.0
147
0.0208333333333333
147
0.0
147
0.0
147
0.0
147
0.0
147
1.0
147
0.0
147
0.0
147
0.0
147
0.0
147
1.0
  0
MLEADERSTYLE
  5
1046
102
{ACAD_XDICTIONARY
360
110E
102
}
102
{ACAD_REACTORS
330
1045
102
}
330
1045
100
AcDbMLeaderStyle
170
     2
171
     1
172
     0
 90
        2
 40
0.0
 41
0.0
173
     1
 91
-1056964608
340
13
 92
       -2
290
     1
 42
0.09
291
     1
 43
0.36
  3
Standard
 44
0.18
300

342
11
174
     1
178
     6
175
     1
176
     0
 93
-1056964608
 45
0.18
292
     0
297
     0
 46
0.18
 94
-1056964608
 47
1.0
 49
1.0
140
1.0
293
     1
141
0.0
294
     1
177
     0
142
1.0
295
     0
296
     0
143
0.125
1001
ACAD_MLEADERVER
1070
     2
  0
MLINESTYLE
  5
17
102
{ACAD_REACTORS
330
16
102
}
330
16
100
AcDbMlineStyle
  2
STANDARD
 70
     0
  3

 62
   256
 51
90.0
 52
90.0
 71
     2
 49
0.5
 62
   256
  6
BYLAYER
 49
-0.5
 62
   256
  6
BYLAYER
  0
ACDBPLACEHOLDER
  5
F
102
{ACAD_REACTORS
330
E
102
}
330
E
  0
SCALE
  5
1034
102
{ACAD_REACTORS
330
1033
102
}
330
1033
100
AcDbScale
 70
     0
300
1:1
140
1.0
141
1.0
290
     1
  0
SCALE
  5
1035
102
{ACAD_REACTORS
330
1033
102
}
330
1033
100
AcDbScale
 70
     0
300
1/128" = 1'-0"
140
0.0078125
141
12.0
290
     0
  0
SCALE
  5
1036
102
{ACAD_REACTORS
330
1033
102
}
330
1033
100
AcDbScale
 70
     0
300
1/64" = 1'-0"
140
0.015625
141
12.0
290
     0
  0
SCALE
  5
1037
102
{ACAD_REACTORS
330
1033
102
}
330
1033
100
AcDbScale
 70
     0
300
1/32" = 1'-0"
140
0.03125
141
12.0
290
     0
  0
SCALE
  5
1038
102
{ACAD_REACTORS
330
1033
102
}
330
1033
100
AcDbScale
 70
     0
300
1/16" = 1'-0"
140
0.0625
141
12.0
290
     0
  0
SCALE
  5
1039
102
{ACAD_REACTORS
330
1033
102
}
330
1033
100
AcDbScale
 70
     0
300
3/32" = 1'-0"
140
0.09375
141
12.0
290
     0
  0
SCALE
  5
103A
102
{ACAD_REACTORS
330
1033
102
}
330
1033
100
AcDbScale
 70
     0
300
1/8" = 1'-0"
140
0.125
141
12.0
290
     0
  0
SCALE
  5
103B
102
{ACAD_REACTORS
330
1033
102
}
330
1033
100
AcDbScale
 70
     0
300
3/16" = 1'-0"
140
0.1875
141
12.0
290
     0
  0
SCALE
  5
103C
102
{ACAD_REACTORS
330
1033
102
}
330
1033
100
AcDbScale
 70
     0
300
1/4" = 1'-0"
140
0.25
141
12.0
290
     0
  0
SCALE
  5
103D
102
{ACAD_REACTORS
330
1033
102
}
330
1033
100
AcDbScale
 70
     0
300
3/8" = 1'-0"
140
0.375
141
12.0
290
     0
  0
SCALE
  5
103E
102
{ACAD_REACTORS
330
1033
102
}
330
1033
100
AcDbScale
 70
     0
300
1/2" = 1'-0"
140
0.5
141
12.0
290
     0
  0
SCALE
  5
103F
102
{ACAD_REACTORS
330
1033
102
}
330
1033
100
AcDbScale
 70
     0
300
3/4" = 1'-0"
140
0.75
141
12.0
290
     0
  0
SCALE
  5
1040
102
{ACAD_REACTORS
330
1033
102
}
330
1033
100
AcDbScale
 70
     0
300
1" = 1'-0"
140
1.0
141
12.0
290
     0
  0
SCALE
  5
1041
102
{ACAD_REACTORS
330
1033
102
}
330
1033
100
AcDbScale
 70
     0
300
1-1/2" = 1'-0"
140
1.5
141
12.0
290
     0
  0
SCALE
  5
1042
102
{ACAD_REACTORS
330
1033
102
}
330
1033
100
AcDbScale
 70
     0
300
3" = 1'-0"
140
3.0
141
12.0
290
     0
  0
SCALE
  5
1043
102
{ACAD_REACTORS
330
1033
102
}
330
1033
100
AcDbScale
 70
     0
300
6" = 1'-0"
140
6.0
141
12.0
290
     0
  0
SCALE
  5
1044
102
{ACAD_REACTORS
330
1033
102
}
330
1033
100
AcDbScale
 70
     0
300
1'-0" = 1'-0"
140
12.0
141
12.0
290
     0
  0
ACDBSECTIONVIEWSTYLE
  5
1049
102
{ACAD_REACTORS
330
1047
102
}
330
1047
100
AcDbModelDocViewStyle
 70
     0
  3
Imperial24
290
     0
100
AcDbSectionViewStyle
 70
     0
 71
     0
 90
       78
 71
     1
340
11
 62
   256
 40
0.24
340
0
340
0
 62
   256
 40
0.24
300
I, O, Q, S, X, Z
 40
0.48
 90
        3
 40
0.18
 90
        1
 71
     2
340
1048
 90
       25
 62
   256
340
15
 90
       50
 62
   256
 40
0.24
 40
0.0
 40
0.24
 71
     3
340
11
 62
   256
 40
0.24
 90
        1
 40
0.75
 90
        1
300
%<\AcVar ViewType \f "%tc1">% %<\AcVar ViewSectionStartId>%-%<\AcVar ViewSectionEndId>%\PVARIA %<\AcVar ViewScale \f "%sn">%
 71
     4
 62
   256
 62
   257
300
ANSI31
 40
1.0
 90
        0
290
     0
290
     0
 90
        6
 40
0.0
 40
1.570796326794896
 40
0.2617993877991494
 40
1.308996938995747
 40
-0.2617993877991494
 40
1.832595714594046
  0
TABLESTYLE
  5
1032
102
{ACAD_XDICTIONARY
360
10CE
102
}
102
{ACAD_REACTORS
330
1031
102
}
330
1031
100
AcDbTableStyle
  3
Standard
 70
     0
 71
     0
 40
0.06
 41
0.06
280
     0
281
     0
  7
STANDARD
140
0.18
170
     2
 62
     0
 63
     7
283
     0
274
    -2
284
     1
 64
     0
275
    -2
285
     1
 65
     0
276
    -2
286
     1
 66
     0
277
    -2
287
     1
 67
     0
278
    -2
288
     1
 68
     0
279
    -2
289
     1
 69
     0
  7
STANDARD
140
0.25
170
     5
 62
     0
 63
     7
283
     0
274
    -2
284
     1
 64
     0
275
    -2
285
     1
 65
     0
276
    -2
286
     1
 66
     0
277
    -2
287
     1
 67
     0
278
    -2
288
     1
 68
     0
279
    -2
289
     1
 69
     0
  7
STANDARD
140
0.18
170
     5
 62
     0
 63
     7
283
     0
274
    -2
284
     1
 64
     0
275
    -2
285
     1
 65
     0
276
    -2
286
     1
 66
     0
277
    -2
287
     1
 67
     0
278
    -2
288
     1
 68
     0
279
    -2
289
     1
 69
     0
  0
VISUALSTYLE
  5
101E
102
{ACAD_XDICTIONARY
360
10E6
102
}
102
{ACAD_REACTORS
330
1018
102
}
330
1018
100
AcDbVisualStyle
  2
2dWireframe
 70
     4
 71
     0
 72
     2
 73
     0
 90
        0
 40
-0.6
 41
-30.0
 62
     5
 63
     7
421
 16777215
 74
     1
 91
        4
 64
     7
 65
   257
 75
     1
175
     1
 42
1.0
 92
        0
 66
   257
 43
1.0
 76
     1
 77
     6
 78
     2
 67
     7
 79
     5
170
     0
171
     0
290
     0
174
     0
 93
        1
 44
0.0
173
     0
291
     0
 45
0.0
1001
ACAD
1000
AcDbSavedByObjectVersion
1070
     0
  0
VISUALSTYLE
  5
101D
102
{ACAD_XDICTIONARY
360
10E4
102
}
102
{ACAD_REACTORS
330
1018
102
}
330
1018
100
AcDbVisualStyle
  2
Basic
 70
     7
 71
     1
 72
     0
 73
     1
 90
        0
 40
-0.6
 41
-30.0
 62
     5
 63
     7
421
 16777215
 74
     0
 91
        4
 64
     7
 65
   257
 75
     1
175
     1
 42
1.0
 92
        8
 66
     7
 43
1.0
 76
     1
 77
     6
 78
     2
 67
     7
 79
     5
170
     0
171
     0
290
     0
174
     0
 93
        1
 44
0.0
173
     0
291
     1
 45
0.0
1001
ACAD
1000
AcDbSavedByObjectVersion
1070
     0
  0
VISUALSTYLE
  5
1024
102
{ACAD_XDICTIONARY
360
10F2
102
}
102
{ACAD_REACTORS
330
1018
102
}
330
1018
100
AcDbVisualStyle
  2
Brighten
 70
    12
 71
     2
 72
     2
 73
     0
 90
        0
 40
-0.6
 41
-30.0
 62
     5
 63
     7
421
 16777215
 74
     1
 91
        4
 64
     7
 65
   257
 75
     1
175
     1
 42
1.0
 92
        8
 66
     7
 43
1.0
 76
     1
 77
     6
 78
     2
 67
     7
 79
     5
170
     0
171
     0
290
     0
174
     0
 93
        1
 44
50.0
173
     0
291
     1
 45
0.0
1001
ACAD
1000
AcDbSavedByObjectVersion
1070
     0
  0
VISUALSTYLE
  5
1028
102
{ACAD_XDICTIONARY
360
10FA
102
}
102
{ACAD_REACTORS
330
1018
102
}
330
1018
100
AcDbVisualStyle
  2
ColorChange
 70
    16
 71
     2
 72
     2
 73
     3
 90
        0
 40
-0.6
 41
-30.0
 62
     5
 63
     8
421
  8421504
 74
     1
 91
        4
 64
     7
 65
   257
 75
     1
175
     1
 42
1.0
 92
        8
 66
     8
424
  8421504
 43
1.0
 76
     1
 77
     6
 78
     2
 67
     7
 79
     5
170
     0
171
     0
290
     0
174
     0
 93
        1
 44
0.0
173
     0
291
     1
 45
0.0
1001
ACAD
1000
AcDbSavedByObjectVersion
1070
     0
  0
VISUALSTYLE
  5
1021
102
{ACAD_XDICTIONARY
360
10EC
102
}
102
{ACAD_REACTORS
330
1018
102
}
330
1018
100
AcDbVisualStyle
  2
Conceptual
 70
     9
 71
     3
 72
     2
 73
     0
 90
        0
 40
-0.6
 41
-30.0
 62
     5
 63
     7
421
 16777215
 74
     2
 91
        2
 64
     7
 65
   257
 75
     1
175
     1
 42
179.0
 92
        8
 66
     7
 43
1.0
 76
     1
 77
     6
 78
     2
 67
     7
 79
     3
170
     0
171
     0
290
     0
174
     0
 93
        1
 44
0.0
173
     0
291
     0
 45
0.0
1001
ACAD
1000
AcDbSavedByObjectVersion
1070
     0
  0
VISUALSTYLE
  5
1023
102
{ACAD_XDICTIONARY
360
10F0
102
}
102
{ACAD_REACTORS
330
1018
102
}
330
1018
100
AcDbVisualStyle
  2
Dim
 70
    11
 71
     2
 72
     2
 73
     0
 90
        0
 40
-0.6
 41
-30.0
 62
     5
 63
     7
421
 16777215
 74
     1
 91
        4
 64
     7
 65
   257
 75
     1
175
     1
 42
1.0
 92
        8
 66
     7
 43
1.0
 76
     1
 77
     6
 78
     2
 67
     7
 79
     5
170
     0
171
     0
290
     0
174
     0
 93
        1
 44
-50.0
173
     0
291
     1
 45
0.0
1001
ACAD
1000
AcDbSavedByObjectVersion
1070
     0
  0
VISUALSTYLE
  5
1030
102
{ACAD_XDICTIONARY
360
110A
102
}
102
{ACAD_REACTORS
330
1018
102
}
330
1018
100
AcDbVisualStyle
  2
EdgeColorOff
 70
    22
 71
     2
 72
     2
 73
     0
 90
        0
 40
-0.6
 41
-30.0
 62
     5
 63
     7
421
 16777215
 74
     1
 91
        4
 64
     7
 65
   257
 75
     1
175
     1
 42
1.0
 92
        8
 66
     7
 43
1.0
 76
     1
 77
     6
 78
     2
 67
     7
 79
     5
170
     0
171
     0
290
     0
174
     0
 93
        1
 44
0.0
173
     0
291
     1
 45
0.0
1001
ACAD
1000
AcDbSavedByObjectVersion
1070
     0
  0
VISUALSTYLE
  5
1027
102
{ACAD_XDICTIONARY
360
10F8
102
}
102
{ACAD_REACTORS
330
1018
102
}
330
1018
100
AcDbVisualStyle
  2
Facepattern
 70
    15
 71
     2
 72
     2
 73
     0
 90
        0
 40
-0.6
 41
-30.0
 62
     5
 63
     7
421
 16777215
 74
     1
 91
        4
 64
     7
 65
   257
 75
     1
175
     1
 42
1.0
 92
        8
 66
     7
 43
1.0
 76
     1
 77
     6
 78
     2
 67
     7
 79
     5
170
     0
171
     0
290
     0
174
     0
 93
        1
 44
0.0
173
     0
291
     1
 45
0.0
1001
ACAD
1000
AcDbSavedByObjectVersion
1070
     0
  0
VISUALSTYLE
  5
1019
102
{ACAD_XDICTIONARY
360
10DC
102
}
102
{ACAD_REACTORS
330
1018
102
}
330
1018
100
AcDbVisualStyle
  2
Flat
 70
     0
 71
     2
 72
     1
 73
     1
 90
        2
 40
-0.6
 41
30.0
 62
     5
 63
     7
421
 16777215
 74
     0
 91
        0
 64
     7
 65
   257
 75
     1
175
     1
 42
1.0
 92
        8
 66
     7
 43
1.0
 76
     1
 77
     6
 78
     2
 67
     7
 79
     5
170
     0
171
     0
290
     0
174
     0
 93
       13
 44
0.0
173
     0
291
     1
 45
0.0
1001
ACAD
1000
AcDbSavedByObjectVersion
1070
     0
  0
VISUALSTYLE
  5
101A
102
{ACAD_XDICTIONARY
360
10DE
102
}
102
{ACAD_REACTORS
330
1018
102
}
330
1018
100
AcDbVisualStyle
  2
FlatWithEdges
 70
     1
 71
     2
 72
     1
 73
     1
 90
        2
 40
-0.6
 41
30.0
 62
     5
 63
     7
421
 16777215
 74
     1
 91
        0
 64
     7
 65
   257
 75
     1
175
     1
 42
1.0
 92
        0
 66
   257
 43
1.0
 76
     1
 77
     6
 78
     2
 67
     7
 79
     5
170
     0
171
     0
290
     0
174
     0
 93
       13
 44
0.0
173
     0
291
     1
 45
0.0
1001
ACAD
1000
AcDbSavedByObjectVersion
1070
     0
  0
VISUALSTYLE
  5
101B
102
{ACAD_XDICTIONARY
360
10E0
102
}
102
{ACAD_REACTORS
330
1018
102
}
330
1018
100
AcDbVisualStyle
  2
Gouraud
 70
     2
 71
     2
 72
     2
 73
     1
 90
        2
 40
-0.6
 41
30.0
 62
     5
 63
     7
421
 16777215
 74
     0
 91
        0
 64
     7
 65
   257
 75
     1
175
     1
 42
1.0
 92
        0
 66
     7
 43
1.0
 76
     1
 77
     6
 78
     2
 67
     7
 79
     5
170
     0
171
     0
290
     0
174
     0
 93
       13
 44
0.0
173
     0
291
     1
 45
0.0
1001
ACAD
1000
AcDbSavedByObjectVersion
1070
     0
  0
VISUALSTYLE
  5
101C
102
{ACAD_XDICTIONARY
360
10E2
102
}
102
{ACAD_REACTORS
330
1018
102
}
330
1018
100
AcDbVisualStyle
  2
GouraudWithEdges
 70
     3
 71
     2
 72
     2
 73
     1
 90
        2
 40
-0.6
 41
30.0
 62
     5
 63
     7
421
 16777215
 74
     1
 91
        0
 64
     7
 65
   257
 75
     1
175
     1
 42
1.0
 92
        0
 66
   257
 43
1.0
 76
     1
 77
     6
 78
     2
 67
     7
 79
     5
170
     0
171
     0
290
     0
174
     0
 93
       13
 44
0.0
173
     0
291
     1
 45
0.0
1001
ACAD
1000
AcDbSavedByObjectVersion
1070
     0
  0
VISUALSTYLE
  5
1020
102
{ACAD_XDICTIONARY
360
10EA
102
}
102
{ACAD_REACTORS
330
1018
102
}
330
1018
100
AcDbVisualStyle
  2
Hidden
 70
     6
 71
     1
 72
     2
 73
     2
 90
        0
 40
-0.6
 41
-30.0
 62
     5
 63
     7
421
 16777215
 74
     2
 91
        2
 64
     7
 65
   257
 75
     2
175
     1
 42
40.0
 92
        0
 66
   257
 43
1.0
 76
     1
 77
     6
 78
     2
 67
     7
 79
     3
170
     0
171
     0
290
     0
174
     0
 93
        1
 44
0.0
173
     0
291
     0
 45
0.0
1001
ACAD
1000
AcDbSavedByObjectVersion
1070
     0
  0
VISUALSTYLE
  5
102E
102
{ACAD_XDICTIONARY
360
1106
102
}
102
{ACAD_REACTORS
330
1018
102
}
330
1018
100
AcDbVisualStyle
  2
JitterOff
 70
    20
 71
     2
 72
     2
 73
     0
 90
        0
 40
-0.6
 41
-30.0
 62
     5
 63
     7
421
 16777215
 74
     1
 91
        4
 64
     7
 65
   257
 75
     1
175
     1
 42
1.0
 92
       10
 66
     7
 43
1.0
 76
     1
 77
     6
 78
     2
 67
     7
 79
     5
170
     0
171
     0
290
     0
174
     0
 93
        1
 44
0.0
173
     0
291
     1
 45
0.0
1001
ACAD
1000
AcDbSavedByObjectVersion
1070
     0
  0
VISUALSTYLE
  5
1026
102
{ACAD_XDICTIONARY
360
10F6
102
}
102
{ACAD_REACTORS
330
1018
102
}
330
1018
100
AcDbVisualStyle
  2
Linepattern
 70
    14
 71
     2
 72
     2
 73
     0
 90
        0
 40
-0.6
 41
-30.0
 62
     5
 63
     7
421
 16777215
 74
     1
 91
        4
 64
     7
 65
   257
 75
     7
175
     7
 42
1.0
 92
        8
 66
     7
 43
1.0
 76
     1
 77
     6
 78
     2
 67
     7
 79
     5
170
     0
171
     0
290
     0
174
     0
 93
        1
 44
0.0
173
     0
291
     1
 45
0.0
1001
ACAD
1000
AcDbSavedByObjectVersion
1070
     0
  0
VISUALSTYLE
  5
102F
102
{ACAD_XDICTIONARY
360
1108
102
}
102
{ACAD_REACTORS
330
1018
102
}
330
1018
100
AcDbVisualStyle
  2
OverhangOff
 70
    21
 71
     2
 72
     2
 73
     0
 90
        0
 40
-0.6
 41
-30.0
 62
     5
 63
     7
421
 16777215
 74
     1
 91
        4
 64
     7
 65
   257
 75
     1
175
     1
 42
1.0
 92
        9
 66
     7
 43
1.0
 76
     1
 77
     6
 78
     2
 67
     7
 79
     5
170
     0
171
     0
290
     0
174
     0
 93
        1
 44
0.0
173
     0
291
     1
 45
0.0
1001
ACAD
1000
AcDbSavedByObjectVersion
1070
     0
  0
VISUALSTYLE
  5
1022
102
{ACAD_XDICTIONARY
360
10EE
102
}
102
{ACAD_REACTORS
330
1018
102
}
330
1018
100
AcDbVisualStyle
  2
Realistic
 70
     8
 71
     2
 72
     3
 73
     0
 90
        2
 40
-0.6
 41
30.0
 62
     5
 63
     7
421
 16777215
 74
     0
 91
        0
 64
     7
 65
   257
 75
     1
175
     1
 42
1.0
 92
        8
 66
   257
 43
1.0
 76
     1
 77
     6
 78
     2
 67
     7
 79
     3
170
     0
171
     0
290
     0
174
     0
 93
       13
 44
0.0
173
     0
291
     0
 45
0.0
1001
ACAD
1000
AcDbSavedByObjectVersion
1070
     0
  0
VISUALSTYLE
  5
102D
102
{ACAD_XDICTIONARY
360
1104
102
}
102
{ACAD_REACTORS
330
1018
102
}
330
1018
100
AcDbVisualStyle
  2
Shaded
 70
    27
 71
     2
 72
     2
 73
     1
 90
        2
 40
-0.6
 41
30.0
 62
     5
 63
     7
421
 16777215
 74
     0
 91
        4
 64
     7
 65
   257
 75
     1
175
     1
 42
1.0
 92
        8
 66
   257
 43
1.0
 76
     1
 77
     6
 78
     2
 67
     8
425
  7895160
 79
     3
170
     0
171
     0
290
     0
174
     0
 93
        5
 44
0.0
173
     0
291
     0
 45
0.0
1001
ACAD
1000
AcDbSavedByObjectVersion
1070
     0
  0
VISUALSTYLE
  5
102C
102
{ACAD_XDICTIONARY
360
1102
102
}
102
{ACAD_REACTORS
330
1018
102
}
330
1018
100
AcDbVisualStyle
  2
Shaded with edges
 70
    26
 71
     2
 72
     2
 73
     1
 90
        2
 40
-0.6
 41
30.0
 62
     5
 63
     7
421
 16777215
 74
     1
 91
       10
 64
     7
 65
   257
 75
     2
175
     1
 42
1.0
 92
        8
 66
   257
 43
1.0
 76
     1
 77
     6
 78
     2
 67
     7
 79
     3
170
     0
171
     0
290
     0
174
     0
 93
        5
 44
0.0
173
     0
291
     0
 45
0.0
1001
ACAD
1000
AcDbSavedByObjectVersion
1070
     0
  0
VISUALSTYLE
  5
1029
102
{ACAD_XDICTIONARY
360
10FC
102
}
102
{ACAD_REACTORS
330
1018
102
}
330
1018
100
AcDbVisualStyle
  2
Shades of Gray
 70
    23
 71
     2
 72
     2
 73
     3
 90
        0
 40
-0.6
 41
-30.0
 62
     5
 63
     7
421
 16777215
 74
     2
 91
        2
 64
     7
 65
     7
 75
     1
175
     1
 42
40.0
 92
        8
 66
     7
 43
1.0
 76
     1
 77
     6
 78
     2
 67
     7
 79
     3
170
     0
171
     0
290
     0
174
     0
 93
        1
 44
0.0
173
     0
291
     0
 45
0.0
1001
ACAD
1000
AcDbSavedByObjectVersion
1070
     0
  0
VISUALSTYLE
  5
102A
102
{ACAD_XDICTIONARY
360
10FE
102
}
102
{ACAD_REACTORS
330
1018
102
}
330
1018
100
AcDbVisualStyle
  2
Sketchy
 70
    24
 71
     1
 72
     2
 73
     2
 90
        0
 40
-0.6
 41
-30.0
 62
     5
 63
     7
421
 16777215
 74
     2
 91
        2
 64
     7
 65
     7
 75
     1
175
     1
 42
40.0
 92
       11
 66
     7
 43
1.0
 76
     1
 77
     6
 78
     2
 67
     7
 79
     6
170
     0
171
     0
290
     0
174
     0
 93
        1
 44
0.0
173
     0
291
     0
 45
0.0
1001
ACAD
1000
AcDbSavedByObjectVersion
1070
     0
  0
VISUALSTYLE
  5
1025
102
{ACAD_XDICTIONARY
360
10F4
102
}
102
{ACAD_REACTORS
330
1018
102
}
330
1018
100
AcDbVisualStyle
  2
Thicken
 70
    13
 71
     2
 72
     2
 73
     0
 90
        0
 40
-0.6
 41
-30.0
 62
     5
 63
     7
421
 16777215
 74
     1
 91
        4
 64
     7
 65
   257
 75
     1
175
     1
 42
1.0
 92
       12
 66
     7
 43
1.0
 76
     1
 77
     6
 78
     2
 67
     7
 79
     5
170
     0
171
     0
290
     0
174
     0
 93
        1
 44
0.0
173
     0
291
     1
 45
0.0
1001
ACAD
1000
AcDbSavedByObjectVersion
1070
     0
  0
VISUALSTYLE
  5
101F
102
{ACAD_XDICTIONARY
360
10E8
102
}
102
{ACAD_REACTORS
330
1018
102
}
330
1018
100
AcDbVisualStyle
  2
Wireframe
 70
     5
 71
     0
 72
     2
 73
     0
 90
        0
 40
-0.6
 41
-30.0
 62
     5
 63
     7
421
 16777215
 74
     1
 91
        4
 64
     7
 65
   257
 75
     1
175
     1
 42
1.0
 92
        0
 66
   257
 43
1.0
 76
     1
 77
     6
 78
     2
 67
     7
 79
     3
170
     0
171
     0
290
     0
174
     0
 93
        1
 44
0.0
173
     0
291
     0
 45
0.0
1001
ACAD
1000
AcDbSavedByObjectVersion
1070
     0
  0
VISUALSTYLE
  5
102B
102
{ACAD_XDICTIONARY
360
1100
102
}
102
{ACAD_REACTORS
330
1018
102
}
330
1018
100
AcDbVisualStyle
  2
X-Ray
 70
    25
 71
     2
 72
     2
 73
     1
 90
        1
 40
0.5
 41
-30.0
 62
     5
 63
     7
421
 16777215
 74
     1
 91
        0
 64
     7
 65
   257
 75
     1
175
     1
 42
1.0
 92
        8
 66
     7
 43
1.0
 76
     1
 77
     6
 78
     2
 67
     7
 79
     3
170
     0
171
     0
290
     0
174
     0
 93
       13
 44
0.0
173
     0
291
     0
 45
0.0
1001
ACAD
1000
AcDbSavedByObjectVersion
1070
     0
  0
DICTIONARYVAR
  5
10CD
102
{ACAD_REACTORS
330
125
102
}
330
125
100
DictionaryVariables
280
     0
  1
1:1
  0
DICTIONARYVAR
  5
10CA
102
{ACAD_REACTORS
330
125
102
}
330
125
100
DictionaryVariables
280
     0
  1
STANDARD
  0
DICTIONARYVAR
  5
10C9
102
{ACAD_REACTORS
330
125
102
}
330
125
100
DictionaryVariables
280
     0
  1
STANDARD
  0
DICTIONARYVAR
  5
10CB
102
{ACAD_REACTORS
330
125
102
}
330
125
100
DictionaryVariables
280
     0
  1
Imperial24
  0
DICTIONARYVAR
  5
10CC
102
{ACAD_REACTORS
330
125
102
}
330
125
100
DictionaryVariables
280
     0
  1
Imperial24
  0
DICTIONARYVAR
  5
126
102
{ACAD_REACTORS
330
125
102
}
330
125
100
DictionaryVariables
280
     0
  1
1
  0
DICTIONARYVAR
  5
127
102
{ACAD_REACTORS
330
125
102
}
330
125
100
DictionaryVariables
280
     0
  1

  0
DICTIONARY
  5
10D8
102
{ACAD_REACTORS
330
10D6
102
}
330
10D6
100
AcDbDictionary
281
     1
  0
DICTIONARY
  5
10D7
102
{ACAD_REACTORS
330
10D6
102
}
330
10D6
100
AcDbDictionary
281
     1
  3
8796084717840
350
10D1
  3
8796084717856
350
10D2
  3
8796084717872
350
10D3
  3
8796084717888
350
10D4
  3
8796084717904
350
10D5
  0
DICTIONARY
  5
1009
330
1008
100
AcDbDictionary
280
     1
281
     1
  3
ACAD_XREC_ROUNDTRIP
360
10DA
  3
BUMPTILE
360
100B
  3
DIFFUSETILE
360
100A
  3
OPACITYTILE
360
100E
  3
REFLECTIONTILE
360
100D
  3
REFRACTIONTILE
360
100F
  3
SPECULARTILE
360
100C
  0
DICTIONARY
  5
1001
330
1000
100
AcDbDictionary
280
     1
281
     1
  3
ACAD_XREC_ROUNDTRIP
360
10D9
  3
BUMPTILE
360
1003
  3
DIFFUSETILE
360
1002
  3
OPACITYTILE
360
1006
  3
REFLECTIONTILE
360
1005
  3
REFRACTIONTILE
360
1007
  3
SPECULARTILE
360
1004
  0
DICTIONARY
  5
1011
330
1010
100
AcDbDictionary
280
     1
281
     1
  3
ACAD_XREC_ROUNDTRIP
360
10DB
  3
BUMPTILE
360
1013
  3
DIFFUSETILE
360
1012
  3
OPACITYTILE
360
1016
  3
REFLECTIONTILE
360
1015
  3
REFRACTIONTILE
360
1017
  3
SPECULARTILE
360
1014
  0
DICTIONARY
  5
110E
330
1046
100
AcDbDictionary
280
     1
281
     1
  3
ACAD_XREC_ROUNDTRIP
360
110F
  0
DICTIONARY
  5
10CE
330
1032
100
AcDbDictionary
280
     1
281
     1
  3
ACAD_ROUNDTRIP_2008_TABLESTYLE_CELLSTYLEMAP
360
10CF
  3
ACAD_XREC_ROUNDTRIP
360
110C
  0
DICTIONARY
  5
10E6
330
101E
100
AcDbDictionary
280
     1
281
     1
  3
ACAD_XREC_ROUNDTRIP
360
10E7
  0
DICTIONARY
  5
10E4
330
101D
100
AcDbDictionary
280
     1
281
     1
  3
ACAD_XREC_ROUNDTRIP
360
10E5
  0
DICTIONARY
  5
10F2
330
1024
100
AcDbDictionary
280
     1
281
     1
  3
ACAD_XREC_ROUNDTRIP
360
10F3
  0
DICTIONARY
  5
10FA
330
1028
100
AcDbDictionary
280
     1
281
     1
  3
ACAD_XREC_ROUNDTRIP
360
10FB
  0
DICTIONARY
  5
10EC
330
1021
100
AcDbDictionary
280
     1
281
     1
  3
ACAD_XREC_ROUNDTRIP
360
10ED
  0
DICTIONARY
  5
10F0
330
1023
100
AcDbDictionary
280
     1
281
     1
  3
ACAD_XREC_ROUNDTRIP
360
10F1
  0
DICTIONARY
  5
110A
330
1030
100
AcDbDictionary
280
     1
281
     1
  3
ACAD_XREC_ROUNDTRIP
360
110B
  0
DICTIONARY
  5
10F8
330
1027
100
AcDbDictionary
280
     1
281
     1
  3
ACAD_XREC_ROUNDTRIP
360
10F9
  0
DICTIONARY
  5
10DC
330
1019
100
AcDbDictionary
280
     1
281
     1
  3
ACAD_XREC_ROUNDTRIP
360
10DD
  0
DICTIONARY
  5
10DE
330
101A
100
AcDbDictionary
280
     1
281
     1
  3
ACAD_XREC_ROUNDTRIP
360
10DF
  0
DICTIONARY
  5
10E0
330
101B
100
AcDbDictionary
280
     1
281
     1
  3
ACAD_XREC_ROUNDTRIP
360
10E1
  0
DICTIONARY
  5
10E2
330
101C
100
AcDbDictionary
280
     1
281
     1
  3
ACAD_XREC_ROUNDTRIP
360
10E3
  0
DICTIONARY
  5
10EA
330
1020
100
AcDbDictionary
280
     1
281
     1
  3
ACAD_XREC_ROUNDTRIP
360
10EB
  0
DICTIONARY
  5
1106
330
102E
100
AcDbDictionary
280
     1
281
     1
  3
ACAD_XREC_ROUNDTRIP
360
1107
  0
DICTIONARY
  5
10F6
330
1026
100
AcDbDictionary
280
     1
281
     1
  3
ACAD_XREC_ROUNDTRIP
360
10F7
  0
DICTIONARY
  5
1108
330
102F
100
AcDbDictionary
280
     1
281
     1
  3
ACAD_XREC_ROUNDTRIP
360
1109
  0
DICTIONARY
  5
10EE
330
1022
100
AcDbDictionary
280
     1
281
     1
  3
ACAD_XREC_ROUNDTRIP
360
10EF
  0
DICTIONARY
  5
1104
330
102D
100
AcDbDictionary
280
     1
281
     1
  3
ACAD_XREC_ROUNDTRIP
360
1105
  0
DICTIONARY
  5
1102
330
102C
100
AcDbDictionary
280
     1
281
     1
  3
ACAD_XREC_ROUNDTRIP
360
1103
  0
DICTIONARY
  5
10FC
330
1029
100
AcDbDictionary
280
     1
281
     1
  3
ACAD_XREC_ROUNDTRIP
360
10FD
  0
DICTIONARY
  5
10FE
330
102A
100
AcDbDictionary
280
     1
281
     1
  3
ACAD_XREC_ROUNDTRIP
360
10FF
  0
DICTIONARY
  5
10F4
330
1025
100
AcDbDictionary
280
     1
281
     1
  3
ACAD_XREC_ROUNDTRIP
360
10F5
  0
DICTIONARY
  5
10E8
330
101F
100
AcDbDictionary
280
     1
281
     1
  3
ACAD_XREC_ROUNDTRIP
360
10E9
  0
DICTIONARY
  5
1100
330
102B
100
AcDbDictionary
280
     1
281
     1
  3
ACAD_XREC_ROUNDTRIP
360
1101
  0
XRECORD
  5
10D1
102
{ACAD_REACTORS
330
10D7
102
}
330
10D7
100
AcDbXrecord
280
     1
  1
AcDb_Thumbnail_Schema
102
{ATTRRECORD
341
10D2
  2
AcDbDs::TreatedAsObjectData
280
     1
291
     1
102
ATTRRECORD}
102
{ATTRRECORD
341
10D3
  2
AcDbDs::Legacy
280
     1
291
     1
102
ATTRRECORD}
  2
AcDbDs::ID
280
    10
 91
        8
102
{ATTRRECORD
341
10D4
  2
AcDs:Indexable
280
     1
291
     1
102
ATTRRECORD}
102
{ATTRRECORD
341
10D5
  2
AcDbDs::HandleAttribute
280
     7
282
     1
102
ATTRRECORD}
  2
Thumbnail_Data
280
    15
 91
        0
  0
XRECORD
  5
10D2
102
{ACAD_REACTORS
330
10D7
102
}
330
10D7
100
AcDbXrecord
280
     1
  1
AcDbDs::TreatedAsObjectDataSchema
  2
AcDbDs::TreatedAsObjectData
280
     1
 91
        0
  0
XRECORD
  5
10D3
102
{ACAD_REACTORS
330
10D7
102
}
330
10D7
100
AcDbXrecord
280
     1
  1
AcDbDs::LegacySchema
  2
AcDbDs::Legacy
280
     1
 91
        0
  0
XRECORD
  5
10D4
102
{ACAD_REACTORS
330
10D7
102
}
330
10D7
100
AcDbXrecord
280
     1
  1
AcDbDs::IndexedPropertySchema
  2
AcDs:Indexable
280
     1
 91
        0
  0
XRECORD
  5
10D5
102
{ACAD_REACTORS
330
10D7
102
}
330
10D7
100
AcDbXrecord
280
     1
  1
AcDbDs::HandleAttributeSchema
  2
AcDbDs::HandleAttribute
280
     7
 91
        1
284
     1
  0
XRECORD
  5
10DA
102
{ACAD_REACTORS
330
1009
102
}
330
1009
100
AcDbXrecord
280
     1
102
MATERIAL
148
0.0
149
0.0
149
0.0
 93
        0
 94
      127
282
     0
 72
     0
 77
     0
171
     0
175
     0
179
     0
273
     0
  0
XRECORD
  5
100B
102
{ACAD_REACTORS
330
1009
102
}
330
1009
100
AcDbXrecord
280
     1
270
     1
271
     1
  0
XRECORD
  5
100A
102
{ACAD_REACTORS
330
1009
102
}
330
1009
100
AcDbXrecord
280
     1
270
     1
271
     1
  0
XRECORD
  5
100E
102
{ACAD_REACTORS
330
1009
102
}
330
1009
100
AcDbXrecord
280
     1
270
     1
271
     1
  0
XRECORD
  5
100D
102
{ACAD_REACTORS
330
1009
102
}
330
1009
100
AcDbXrecord
280
     1
270
     1
271
     1
  0
XRECORD
  5
100F
102
{ACAD_REACTORS
330
1009
102
}
330
1009
100
AcDbXrecord
280
     1
270
     1
271
     1
  0
XRECORD
  5
100C
102
{ACAD_REACTORS
330
1009
102
}
330
1009
100
AcDbXrecord
280
     1
270
     1
271
     1
  0
XRECORD
  5
10D9
102
{ACAD_REACTORS
330
1001
102
}
330
1001
100
AcDbXrecord
280
     1
102
MATERIAL
148
0.0
149
0.0
149
0.0
 93
        0
 94
      127
282
     0
 72
     0
 77
     0
171
     0
175
     0
179
     0
273
     0
  0
XRECORD
  5
1003
102
{ACAD_REACTORS
330
1001
102
}
330
1001
100
AcDbXrecord
280
     1
270
     1
271
     1
  0
XRECORD
  5
1002
102
{ACAD_REACTORS
330
1001
102
}
330
1001
100
AcDbXrecord
280
     1
270
     1
271
     1
  0
XRECORD
  5
1006
102
{ACAD_REACTORS
330
1001
102
}
330
1001
100
AcDbXrecord
280
     1
270
     1
271
     1
  0
XRECORD
  5
1005
102
{ACAD_REACTORS
330
1001
102
}
330
1001
100
AcDbXrecord
280
     1
270
     1
271
     1
  0
XRECORD
  5
1007
102
{ACAD_REACTORS
330
1001
102
}
330
1001
100
AcDbXrecord
280
     1
270
     1
271
     1
  0
XRECORD
  5
1004
102
{ACAD_REACTORS
330
1001
102
}
330
1001
100
AcDbXrecord
280
     1
270
     1
271
     1
  0
XRECORD
  5
10DB
102
{ACAD_REACTORS
330
1011
102
}
330
1011
100
AcDbXrecord
280
     1
102
MATERIAL
148
0.0
149
0.0
149
0.0
 93
        0
 94
      127
282
     0
 72
     0
 77
     0
171
     0
175
     0
179
     0
273
     0
  0
XRECORD
  5
1013
102
{ACAD_REACTORS
330
1011
102
}
330
1011
100
AcDbXrecord
280
     1
270
     1
271
     1
  0
XRECORD
  5
1012
102
{ACAD_REACTORS
330
1011
102
}
330
1011
100
AcDbXrecord
280
     1
270
     1
271
     1
  0
XRECORD
  5
1016
102
{ACAD_REACTORS
330
1011
102
}
330
1011
100
AcDbXrecord
280
     1
270
     1
271
     1
  0
XRECORD
  5
1015
102
{ACAD_REACTORS
330
1011
102
}
330
1011
100
AcDbXrecord
280
     1
270
     1
271
     1
  0
XRECORD
  5
1017
102
{ACAD_REACTORS
330
1011
102
}
330
1011
100
AcDbXrecord
280
     1
270
     1
271
     1
  0
XRECORD
  5
1014
102
{ACAD_REACTORS
330
1011
102
}
330
1011
100
AcDbXrecord
280
     1
270
     1
271
     1
  0
XRECORD
  5
110F
102
{ACAD_REACTORS
330
110E
102
}
330
110E
100
AcDbXrecord
280
     1
102
ACAD_ROUNDTRIP_2012_MLEADER_STYLE
298
     1
  0
CELLSTYLEMAP
  5
10CF
102
{ACAD_REACTORS
330
10CE
102
}
330
10CE
100
AcDbCellStyleMap
 90
        3
300
CELLSTYLE
  1
TABLEFORMAT_BEGIN
 90
        5
170
     1
 91
        0
 92
    32768
 62
   257
 93
        1
300
CONTENTFORMAT
  1
CONTENTFORMAT_BEGIN
 90
        0
 91
        0
 92
      512
 93
        0
300

 40
0.0
140
1.0
 94
        5
 62
     0
340
11
144
0.25
309
CONTENTFORMAT_END
171
     0
 94
        0
309
TABLEFORMAT_END
  1
CELLSTYLE_BEGIN
 90
        1
 91
        1
300
_TITLE
309
CELLSTYLE_END
300
CELLSTYLE
  1
TABLEFORMAT_BEGIN
 90
        5
170
     1
 91
        0
 92
        0
 62
   257
 93
        1
300
CONTENTFORMAT
  1
CONTENTFORMAT_BEGIN
 90
        0
 91
        0
 92
      512
 93
        0
300

 40
0.0
140
1.0
 94
        5
 62
     0
340
11
144
0.18
309
CONTENTFORMAT_END
171
     0
 94
        0
309
TABLEFORMAT_END
  1
CELLSTYLE_BEGIN
 90
        2
 91
        1
300
_HEADER
309
CELLSTYLE_END
300
CELLSTYLE
  1
TABLEFORMAT_BEGIN
 90
        5
170
     1
 91
        0
 92
        0
 62
   257
 93
        1
300
CONTENTFORMAT
  1
CONTENTFORMAT_BEGIN
 90
        0
 91
        0
 92
      512
 93
        0
300

 40
0.0
140
1.0
 94
        2
 62
     0
340
11
144
0.18
309
CONTENTFORMAT_END
171
     0
 94
        0
309
TABLEFORMAT_END
  1
CELLSTYLE_BEGIN
 90
        3
 91
        2
300
_DATA
309
CELLSTYLE_END
  0
XRECORD
  5
110C
102
{ACAD_REACTORS
330
10CE
102
}
330
10CE
100
AcDbXrecord
280
     1
102
ACAD_ROUNDTRIP_PRE2007_TABLESTYLE
 90
      512
 91
        0
  1

 92
      512
 93
        0
  2

 94
      512
 95
        0
  3

  0
XRECORD
  5
10E7
102
{ACAD_REACTORS
330
10E6
102
}
330
10E6
100
AcDbXrecord
280
     1
102
RTVSPost2010Prop28
280
     1
102
RTVSPost2010PropOp28
 70
     1
102
RTVSPost2010Prop29
280
     1
102
RTVSPost2010PropOp29
 70
     1
102
RTVSPost2010Prop30
280
     0
102
RTVSPost2010PropOp30
 70
     1
102
RTVSPost2010Prop31
280
     0
102
RTVSPost2010PropOp31
 70
     1
102
RTVSPost2010Prop32
280
     0
102
RTVSPost2010PropOp32
 70
     1
102
RTVSPost2010Prop33
280
     0
102
RTVSPost2010PropOp33
 70
     1
102
RTVSPost2010Prop34
280
     0
102
RTVSPost2010PropOp34
 70
     1
102
RTVSPost2010Prop35
280
     0
102
RTVSPost2010PropOp35
 70
     1
102
RTVSPost2010Prop36
280
     0
102
RTVSPost2010PropOp36
 70
     1
102
RTVSPost2010Prop37
 90
       50
102
RTVSPost2010PropOp37
 70
     1
102
RTVSPost2010Prop38
140
0.0
102
RTVSPost2010PropOp38
 70
     1
102
RTVSPost2010Prop39
140
1.0
102
RTVSPost2010PropOp39
 70
     1
102
RTVSPost2010Prop40
 90
        0
102
RTVSPost2010PropOp40
 70
     1
102
RTVSPost2010Prop41ColorIndex
 90
       18
102
RTVSPost2010Prop41ColorRGB
 90
        0
102
RTVSPost2010PropOp41
 70
     1
102
RTVSPost2010Prop42
 90
       50
102
RTVSPost2010PropOp42
 70
     1
102
RTVSPost2010Prop43
 90
        3
102
RTVSPost2010PropOp43
 70
     1
102
RTVSPost2010Prop44ColorIndex
 90
        5
102
RTVSPost2010Prop44ColorRGB
 90
      255
102
RTVSPost2010PropOp44
 70
     1
102
RTVSPost2010Prop45
280
     0
102
RTVSPost2010PropOp45
 70
     1
102
RTVSPost2010Prop46
 90
       50
102
RTVSPost2010PropOp46
 70
     1
102
RTVSPost2010Prop47
 90
       50
102
RTVSPost2010PropOp47
 70
     1
102
RTVSPost2010Prop48
 90
       50
102
RTVSPost2010PropOp48
 70
     1
102
RTVSPost2010Prop49
280
     0
102
RTVSPost2010PropOp49
 70
     1
102
RTVSPost2010Prop50
 90
       50
102
RTVSPost2010PropOp50
 70
     1
102
RTVSPost2010Prop51ColorIndex
 90
      256
102
RTVSPost2010Prop51ColorRGB
 90
-16777216
102
RTVSPost2010PropOp51
 70
     0
102
RTVSPost2010Prop52
140
1.0
102
RTVSPost2010PropOp52
 70
     0
102
RTVSPost2010Prop53
 90
        2
102
RTVSPost2010PropOp53
 70
     1
102
RTVSPost2010Prop54
  1
strokes_ogs.tif
102
RTVSPost2010PropOp54
 70
     1
102
RTVSPost2010Prop55
280
     0
102
RTVSPost2010PropOp55
 70
     1
102
RTVSPost2010Prop56
140
1.0
102
RTVSPost2010PropOp56
 70
     1
102
RTVSPost2010Prop57
140
1.0
102
RTVSPost2010PropOp57
 70
     1
102
RTVSPropertyOp0
 70
     1
102
RTVSPropertyOp1
 70
     1
102
RTVSPropertyOp2
 70
     1
102
RTVSPropertyOp3
 70
     1
102
RTVSPropertyOp4
 70
     1
102
RTVSPropertyOp5
 70
     1
102
RTVSPropertyOp6
 70
     1
102
RTVSPropertyOp7
 70
     1
102
RTVSPropertyOp8
 70
     1
102
RTVSPropertyOp9
 70
     1
102
RTVSPropertyOp10
 70
     1
102
RTVSPropertyOp11
 70
     1
102
RTVSPropertyOp12
 70
     1
102
RTVSPropertyOp13
 70
     1
102
RTVSPropertyOp14
 70
     1
102
RTVSPropertyOp15
 70
     1
102
RTVSPropertyOp16
 70
     1
102
RTVSPropertyOp17
 70
     1
102
RTVSPropertyOp18
 70
     1
102
RTVSPropertyOp19
 70
     1
102
RTVSPropertyOp20
 70
     1
102
RTVSPropertyOp21
 70
     1
102
RTVSPropertyOp22
 70
     1
102
RTVSPropertyOp23
 70
     1
102
RTVSPropertyOp24
 70
     1
102
RTVSPropertyOp25
 70
     1
102
RTVSPropertyOp26
 70
     1
102
RTVSPropertyOp27
 70
     1
102
RTVSPropertyOp28
 70
     1
102
RTVSPropertyOp29
 70
     1
102
RTVSPropertyOp30
 70
     1
102
RTVSPropertyOp31
 70
     1
102
RTVSPropertyOp32
 70
     1
102
RTVSPropertyOp33
 70
     1
102
RTVSPropertyOp34
 70
     1
102
RTVSPropertyOp35
 70
     1
102
RTVSPropertyOp36
 70
     1
102
RTVSPropertyOp37
 70
     1
102
RTVSPropertyOp38
 70
     1
102
RTVSPropertyOp39
 70
     1
102
RTVSPropertyOp40
 70
     1
102
RTVSPropertyOp41
 70
     1
102
RTVSPropertyOp42
 70
     1
102
RTVSPropertyOp43
 70
     1
102
RTVSPropertyOp44
 70
     1
102
RTVSPropertyOp45
 70
     1
102
RTVSPropertyOp46
 70
     1
102
RTVSPropertyOp47
 70
     1
102
RTVSPropertyOp48
 70
     1
102
RTVSPropertyOp49
 70
     1
102
RTVSPropertyOp50
 70
     1
102
RTVSPropertyOp51
 70
     0
102
RTVSPropertyOp52
 70
     0
102
RTVSPropertyOp53
 70
     1
102
RTVSPropertyOp54
 70
     1
102
RTVSPropertyOp55
 70
     1
102
RTVSPropertyOp56
 70
     1
102
RTVSPropertyOp57
 70
     1
102
RTVSPropertyOp58
 70
     1
102
RTVSPropertyOp59
 70
     1
102
RTVSPropertyOp60
 70
     1
102
RTVSPropertyOp61
 70
     1
102
RTVSPropertyOp62
 70
     1
  0
XRECORD
  5
10E5
102
{ACAD_REACTORS
330
10E4
102
}
330
10E4
100
AcDbXrecord
280
     1
102
RTVSPost2010Prop28
280
     0
102
RTVSPost2010PropOp28
 70
     1
102
RTVSPost2010Prop29
280
     1
102
RTVSPost2010PropOp29
 70
     1
102
RTVSPost2010Prop30
280
     1
102
RTVSPost2010PropOp30
 70
     1
102
RTVSPost2010Prop31
280
     0
102
RTVSPost2010PropOp31
 70
     1
102
RTVSPost2010Prop32
280
     0
102
RTVSPost2010PropOp32
 70
     1
102
RTVSPost2010Prop33
280
     0
102
RTVSPost2010PropOp33
 70
     1
102
RTVSPost2010Prop34
280
     0
102
RTVSPost2010PropOp34
 70
     1
102
RTVSPost2010Prop35
280
     0
102
RTVSPost2010PropOp35
 70
     1
102
RTVSPost2010Prop36
280
     0
102
RTVSPost2010PropOp36
 70
     1
102
RTVSPost2010Prop37
 90
       50
102
RTVSPost2010PropOp37
 70
     1
102
RTVSPost2010Prop38
140
0.0
102
RTVSPost2010PropOp38
 70
     1
102
RTVSPost2010Prop39
140
1.0
102
RTVSPost2010PropOp39
 70
     1
102
RTVSPost2010Prop40
 90
        0
102
RTVSPost2010PropOp40
 70
     1
102
RTVSPost2010Prop41ColorIndex
 90
       18
102
RTVSPost2010Prop41ColorRGB
 90
        0
102
RTVSPost2010PropOp41
 70
     1
102
RTVSPost2010Prop42
 90
       50
102
RTVSPost2010PropOp42
 70
     1
102
RTVSPost2010Prop43
 90
        3
102
RTVSPost2010PropOp43
 70
     1
102
RTVSPost2010Prop44ColorIndex
 90
        5
102
RTVSPost2010Prop44ColorRGB
 90
      255
102
RTVSPost2010PropOp44
 70
     1
102
RTVSPost2010Prop45
280
     0
102
RTVSPost2010PropOp45
 70
     1
102
RTVSPost2010Prop46
 90
       50
102
RTVSPost2010PropOp46
 70
     1
102
RTVSPost2010Prop47
 90
       50
102
RTVSPost2010PropOp47
 70
     1
102
RTVSPost2010Prop48
 90
       50
102
RTVSPost2010PropOp48
 70
     1
102
RTVSPost2010Prop49
280
     0
102
RTVSPost2010PropOp49
 70
     1
102
RTVSPost2010Prop50
 90
       50
102
RTVSPost2010PropOp50
 70
     1
102
RTVSPost2010Prop51ColorIndex
 90
      256
102
RTVSPost2010Prop51ColorRGB
 90
-16777216
102
RTVSPost2010PropOp51
 70
     0
102
RTVSPost2010Prop52
140
1.0
102
RTVSPost2010PropOp52
 70
     0
102
RTVSPost2010Prop53
 90
        2
102
RTVSPost2010PropOp53
 70
     1
102
RTVSPost2010Prop54
  1
strokes_ogs.tif
102
RTVSPost2010PropOp54
 70
     1
102
RTVSPost2010Prop55
280
     0
102
RTVSPost2010PropOp55
 70
     1
102
RTVSPost2010Prop56
140
1.0
102
RTVSPost2010PropOp56
 70
     1
102
RTVSPost2010Prop57
140
1.0
102
RTVSPost2010PropOp57
 70
     1
102
RTVSPropertyOp0
 70
     1
102
RTVSPropertyOp1
 70
     1
102
RTVSPropertyOp2
 70
     1
102
RTVSPropertyOp3
 70
     1
102
RTVSPropertyOp4
 70
     1
102
RTVSPropertyOp5
 70
     1
102
RTVSPropertyOp6
 70
     1
102
RTVSPropertyOp7
 70
     1
102
RTVSPropertyOp8
 70
     1
102
RTVSPropertyOp9
 70
     1
102
RTVSPropertyOp10
 70
     1
102
RTVSPropertyOp11
 70
     1
102
RTVSPropertyOp12
 70
     1
102
RTVSPropertyOp13
 70
     1
102
RTVSPropertyOp14
 70
     1
102
RTVSPropertyOp15
 70
     1
102
RTVSPropertyOp16
 70
     1
102
RTVSPropertyOp17
 70
     1
102
RTVSPropertyOp18
 70
     1
102
RTVSPropertyOp19
 70
     1
102
RTVSPropertyOp20
 70
     1
102
RTVSPropertyOp21
 70
     1
102
RTVSPropertyOp22
 70
     1
102
RTVSPropertyOp23
 70
     1
102
RTVSPropertyOp24
 70
     1
102
RTVSPropertyOp25
 70
     1
102
RTVSPropertyOp26
 70
     1
102
RTVSPropertyOp27
 70
     1
102
RTVSPropertyOp28
 70
     1
102
RTVSPropertyOp29
 70
     1
102
RTVSPropertyOp30
 70
     1
102
RTVSPropertyOp31
 70
     1
102
RTVSPropertyOp32
 70
     1
102
RTVSPropertyOp33
 70
     1
102
RTVSPropertyOp34
 70
     1
102
RTVSPropertyOp35
 70
     1
102
RTVSPropertyOp36
 70
     1
102
RTVSPropertyOp37
 70
     1
102
RTVSPropertyOp38
 70
     1
102
RTVSPropertyOp39
 70
     1
102
RTVSPropertyOp40
 70
     1
102
RTVSPropertyOp41
 70
     1
102
RTVSPropertyOp42
 70
     1
102
RTVSPropertyOp43
 70
     1
102
RTVSPropertyOp44
 70
     1
102
RTVSPropertyOp45
 70
     1
102
RTVSPropertyOp46
 70
     1
102
RTVSPropertyOp47
 70
     1
102
RTVSPropertyOp48
 70
     1
102
RTVSPropertyOp49
 70
     1
102
RTVSPropertyOp50
 70
     1
102
RTVSPropertyOp51
 70
     0
102
RTVSPropertyOp52
 70
     0
102
RTVSPropertyOp53
 70
     1
102
RTVSPropertyOp54
 70
     1
102
RTVSPropertyOp55
 70
     1
102
RTVSPropertyOp56
 70
     1
102
RTVSPropertyOp57
 70
     1
102
RTVSPropertyOp58
 70
     1
102
RTVSPropertyOp59
 70
     1
102
RTVSPropertyOp60
 70
     1
102
RTVSPropertyOp61
 70
     1
102
RTVSPropertyOp62
 70
     1
  0
XRECORD
  5
10F3
102
{ACAD_REACTORS
330
10F2
102
}
330
10F2
100
AcDbXrecord
280
     1
102
RTVSPost2010Prop28
280
     0
102
RTVSPost2010PropOp28
 70
     1
102
RTVSPost2010Prop29
280
     1
102
RTVSPost2010PropOp29
 70
     1
102
RTVSPost2010Prop30
280
     1
102
RTVSPost2010PropOp30
 70
     1
102
RTVSPost2010Prop31
280
     0
102
RTVSPost2010PropOp31
 70
     1
102
RTVSPost2010Prop32
280
     0
102
RTVSPost2010PropOp32
 70
     1
102
RTVSPost2010Prop33
280
     0
102
RTVSPost2010PropOp33
 70
     1
102
RTVSPost2010Prop34
280
     0
102
RTVSPost2010PropOp34
 70
     1
102
RTVSPost2010Prop35
280
     0
102
RTVSPost2010PropOp35
 70
     1
102
RTVSPost2010Prop36
280
     0
102
RTVSPost2010PropOp36
 70
     1
102
RTVSPost2010Prop37
 90
       50
102
RTVSPost2010PropOp37
 70
     1
102
RTVSPost2010Prop38
140
0.0
102
RTVSPost2010PropOp38
 70
     1
102
RTVSPost2010Prop39
140
1.0
102
RTVSPost2010PropOp39
 70
     1
102
RTVSPost2010Prop40
 90
        0
102
RTVSPost2010PropOp40
 70
     1
102
RTVSPost2010Prop41ColorIndex
 90
       18
102
RTVSPost2010Prop41ColorRGB
 90
        0
102
RTVSPost2010PropOp41
 70
     1
102
RTVSPost2010Prop42
 90
       50
102
RTVSPost2010PropOp42
 70
     1
102
RTVSPost2010Prop43
 90
        3
102
RTVSPost2010PropOp43
 70
     1
102
RTVSPost2010Prop44ColorIndex
 90
        5
102
RTVSPost2010Prop44ColorRGB
 90
      255
102
RTVSPost2010PropOp44
 70
     1
102
RTVSPost2010Prop45
280
     0
102
RTVSPost2010PropOp45
 70
     1
102
RTVSPost2010Prop46
 90
       50
102
RTVSPost2010PropOp46
 70
     1
102
RTVSPost2010Prop47
 90
       50
102
RTVSPost2010PropOp47
 70
     1
102
RTVSPost2010Prop48
 90
       50
102
RTVSPost2010PropOp48
 70
     1
102
RTVSPost2010Prop49
280
     0
102
RTVSPost2010PropOp49
 70
     1
102
RTVSPost2010Prop50
 90
       50
102
RTVSPost2010PropOp50
 70
     1
102
RTVSPost2010Prop51ColorIndex
 90
      256
102
RTVSPost2010Prop51ColorRGB
 90
-16777216
102
RTVSPost2010PropOp51
 70
     0
102
RTVSPost2010Prop52
140
1.0
102
RTVSPost2010PropOp52
 70
     0
102
RTVSPost2010Prop53
 90
        2
102
RTVSPost2010PropOp53
 70
     1
102
RTVSPost2010Prop54
  1
strokes_ogs.tif
102
RTVSPost2010PropOp54
 70
     1
102
RTVSPost2010Prop55
280
     0
102
RTVSPost2010PropOp55
 70
     1
102
RTVSPost2010Prop56
140
1.0
102
RTVSPost2010PropOp56
 70
     1
102
RTVSPost2010Prop57
140
1.0
102
RTVSPost2010PropOp57
 70
     1
102
RTVSPropertyOp0
 70
     1
102
RTVSPropertyOp1
 70
     1
102
RTVSPropertyOp2
 70
     1
102
RTVSPropertyOp3
 70
     1
102
RTVSPropertyOp4
 70
     1
102
RTVSPropertyOp5
 70
     1
102
RTVSPropertyOp6
 70
     1
102
RTVSPropertyOp7
 70
     1
102
RTVSPropertyOp8
 70
     1
102
RTVSPropertyOp9
 70
     1
102
RTVSPropertyOp10
 70
     1
102
RTVSPropertyOp11
 70
     1
102
RTVSPropertyOp12
 70
     1
102
RTVSPropertyOp13
 70
     1
102
RTVSPropertyOp14
 70
     1
102
RTVSPropertyOp15
 70
     1
102
RTVSPropertyOp16
 70
     1
102
RTVSPropertyOp17
 70
     1
102
RTVSPropertyOp18
 70
     1
102
RTVSPropertyOp19
 70
     1
102
RTVSPropertyOp20
 70
     1
102
RTVSPropertyOp21
 70
     1
102
RTVSPropertyOp22
 70
     1
102
RTVSPropertyOp23
 70
     1
102
RTVSPropertyOp24
 70
     1
102
RTVSPropertyOp25
 70
     1
102
RTVSPropertyOp26
 70
     1
102
RTVSPropertyOp27
 70
     1
102
RTVSPropertyOp28
 70
     1
102
RTVSPropertyOp29
 70
     1
102
RTVSPropertyOp30
 70
     1
102
RTVSPropertyOp31
 70
     1
102
RTVSPropertyOp32
 70
     1
102
RTVSPropertyOp33
 70
     1
102
RTVSPropertyOp34
 70
     1
102
RTVSPropertyOp35
 70
     1
102
RTVSPropertyOp36
 70
     1
102
RTVSPropertyOp37
 70
     1
102
RTVSPropertyOp38
 70
     1
102
RTVSPropertyOp39
 70
     1
102
RTVSPropertyOp40
 70
     1
102
RTVSPropertyOp41
 70
     1
102
RTVSPropertyOp42
 70
     1
102
RTVSPropertyOp43
 70
     1
102
RTVSPropertyOp44
 70
     1
102
RTVSPropertyOp45
 70
     1
102
RTVSPropertyOp46
 70
     1
102
RTVSPropertyOp47
 70
     1
102
RTVSPropertyOp48
 70
     1
102
RTVSPropertyOp49
 70
     1
102
RTVSPropertyOp50
 70
     1
102
RTVSPropertyOp51
 70
     0
102
RTVSPropertyOp52
 70
     0
102
RTVSPropertyOp53
 70
     1
102
RTVSPropertyOp54
 70
     1
102
RTVSPropertyOp55
 70
     1
102
RTVSPropertyOp56
 70
     1
102
RTVSPropertyOp57
 70
     1
102
RTVSPropertyOp58
 70
     1
102
RTVSPropertyOp59
 70
     1
102
RTVSPropertyOp60
 70
     1
102
RTVSPropertyOp61
 70
     1
102
RTVSPropertyOp62
 70
     1
  0
XRECORD
  5
10FB
102
{ACAD_REACTORS
330
10FA
102
}
330
10FA
100
AcDbXrecord
280
     1
102
RTVSPost2010Prop28
280
     0
102
RTVSPost2010PropOp28
 70
     1
102
RTVSPost2010Prop29
280
     1
102
RTVSPost2010PropOp29
 70
     1
102
RTVSPost2010Prop30
280
     1
102
RTVSPost2010PropOp30
 70
     1
102
RTVSPost2010Prop31
280
     0
102
RTVSPost2010PropOp31
 70
     1
102
RTVSPost2010Prop32
280
     0
102
RTVSPost2010PropOp32
 70
     1
102
RTVSPost2010Prop33
280
     0
102
RTVSPost2010PropOp33
 70
     1
102
RTVSPost2010Prop34
280
     0
102
RTVSPost2010PropOp34
 70
     1
102
RTVSPost2010Prop35
280
     0
102
RTVSPost2010PropOp35
 70
     1
102
RTVSPost2010Prop36
280
     0
102
RTVSPost2010PropOp36
 70
     1
102
RTVSPost2010Prop37
 90
       50
102
RTVSPost2010PropOp37
 70
     1
102
RTVSPost2010Prop38
140
0.0
102
RTVSPost2010PropOp38
 70
     1
102
RTVSPost2010Prop39
140
1.0
102
RTVSPost2010PropOp39
 70
     1
102
RTVSPost2010Prop40
 90
        0
102
RTVSPost2010PropOp40
 70
     1
102
RTVSPost2010Prop41ColorIndex
 90
       18
102
RTVSPost2010Prop41ColorRGB
 90
        0
102
RTVSPost2010PropOp41
 70
     1
102
RTVSPost2010Prop42
 90
       50
102
RTVSPost2010PropOp42
 70
     1
102
RTVSPost2010Prop43
 90
        3
102
RTVSPost2010PropOp43
 70
     1
102
RTVSPost2010Prop44ColorIndex
 90
        5
102
RTVSPost2010Prop44ColorRGB
 90
      255
102
RTVSPost2010PropOp44
 70
     1
102
RTVSPost2010Prop45
280
     0
102
RTVSPost2010PropOp45
 70
     1
102
RTVSPost2010Prop46
 90
       50
102
RTVSPost2010PropOp46
 70
     1
102
RTVSPost2010Prop47
 90
       50
102
RTVSPost2010PropOp47
 70
     1
102
RTVSPost2010Prop48
 90
       50
102
RTVSPost2010PropOp48
 70
     1
102
RTVSPost2010Prop49
280
     0
102
RTVSPost2010PropOp49
 70
     1
102
RTVSPost2010Prop50
 90
       50
102
RTVSPost2010PropOp50
 70
     1
102
RTVSPost2010Prop51ColorIndex
 90
      256
102
RTVSPost2010Prop51ColorRGB
 90
-16777216
102
RTVSPost2010PropOp51
 70
     0
102
RTVSPost2010Prop52
140
1.0
102
RTVSPost2010PropOp52
 70
     0
102
RTVSPost2010Prop53
 90
        2
102
RTVSPost2010PropOp53
 70
     1
102
RTVSPost2010Prop54
  1
strokes_ogs.tif
102
RTVSPost2010PropOp54
 70
     1
102
RTVSPost2010Prop55
280
     0
102
RTVSPost2010PropOp55
 70
     1
102
RTVSPost2010Prop56
140
1.0
102
RTVSPost2010PropOp56
 70
     1
102
RTVSPost2010Prop57
140
1.0
102
RTVSPost2010PropOp57
 70
     1
102
RTVSPropertyOp0
 70
     1
102
RTVSPropertyOp1
 70
     1
102
RTVSPropertyOp2
 70
     1
102
RTVSPropertyOp3
 70
     1
102
RTVSPropertyOp4
 70
     1
102
RTVSPropertyOp5
 70
     1
102
RTVSPropertyOp6
 70
     1
102
RTVSPropertyOp7
 70
     1
102
RTVSPropertyOp8
 70
     1
102
RTVSPropertyOp9
 70
     1
102
RTVSPropertyOp10
 70
     1
102
RTVSPropertyOp11
 70
     1
102
RTVSPropertyOp12
 70
     1
102
RTVSPropertyOp13
 70
     1
102
RTVSPropertyOp14
 70
     1
102
RTVSPropertyOp15
 70
     1
102
RTVSPropertyOp16
 70
     1
102
RTVSPropertyOp17
 70
     1
102
RTVSPropertyOp18
 70
     1
102
RTVSPropertyOp19
 70
     1
102
RTVSPropertyOp20
 70
     1
102
RTVSPropertyOp21
 70
     1
102
RTVSPropertyOp22
 70
     1
102
RTVSPropertyOp23
 70
     1
102
RTVSPropertyOp24
 70
     1
102
RTVSPropertyOp25
 70
     1
102
RTVSPropertyOp26
 70
     1
102
RTVSPropertyOp27
 70
     1
102
RTVSPropertyOp28
 70
     1
102
RTVSPropertyOp29
 70
     1
102
RTVSPropertyOp30
 70
     1
102
RTVSPropertyOp31
 70
     1
102
RTVSPropertyOp32
 70
     1
102
RTVSPropertyOp33
 70
     1
102
RTVSPropertyOp34
 70
     1
102
RTVSPropertyOp35
 70
     1
102
RTVSPropertyOp36
 70
     1
102
RTVSPropertyOp37
 70
     1
102
RTVSPropertyOp38
 70
     1
102
RTVSPropertyOp39
 70
     1
102
RTVSPropertyOp40
 70
     1
102
RTVSPropertyOp41
 70
     1
102
RTVSPropertyOp42
 70
     1
102
RTVSPropertyOp43
 70
     1
102
RTVSPropertyOp44
 70
     1
102
RTVSPropertyOp45
 70
     1
102
RTVSPropertyOp46
 70
     1
102
RTVSPropertyOp47
 70
     1
102
RTVSPropertyOp48
 70
     1
102
RTVSPropertyOp49
 70
     1
102
RTVSPropertyOp50
 70
     1
102
RTVSPropertyOp51
 70
     0
102
RTVSPropertyOp52
 70
     0
102
RTVSPropertyOp53
 70
     1
102
RTVSPropertyOp54
 70
     1
102
RTVSPropertyOp55
 70
     1
102
RTVSPropertyOp56
 70
     1
102
RTVSPropertyOp57
 70
     1
102
RTVSPropertyOp58
 70
     1
102
RTVSPropertyOp59
 70
     1
102
RTVSPropertyOp60
 70
     1
102
RTVSPropertyOp61
 70
     1
102
RTVSPropertyOp62
 70
     1
  0
XRECORD
  5
10ED
102
{ACAD_REACTORS
330
10EC
102
}
330
10EC
100
AcDbXrecord
280
     1
102
RTVSPost2010Prop28
280
     0
102
RTVSPost2010PropOp28
 70
     1
102
RTVSPost2010Prop29
280
     1
102
RTVSPost2010PropOp29
 70
     1
102
RTVSPost2010Prop30
280
     1
102
RTVSPost2010PropOp30
 70
     1
102
RTVSPost2010Prop31
280
     0
102
RTVSPost2010PropOp31
 70
     1
102
RTVSPost2010Prop32
280
     0
102
RTVSPost2010PropOp32
 70
     1
102
RTVSPost2010Prop33
280
     0
102
RTVSPost2010PropOp33
 70
     1
102
RTVSPost2010Prop34
280
     0
102
RTVSPost2010PropOp34
 70
     1
102
RTVSPost2010Prop35
280
     0
102
RTVSPost2010PropOp35
 70
     1
102
RTVSPost2010Prop36
280
     0
102
RTVSPost2010PropOp36
 70
     1
102
RTVSPost2010Prop37
 90
       50
102
RTVSPost2010PropOp37
 70
     1
102
RTVSPost2010Prop38
140
0.0
102
RTVSPost2010PropOp38
 70
     1
102
RTVSPost2010Prop39
140
1.0
102
RTVSPost2010PropOp39
 70
     1
102
RTVSPost2010Prop40
 90
        0
102
RTVSPost2010PropOp40
 70
     1
102
RTVSPost2010Prop41ColorIndex
 90
       18
102
RTVSPost2010Prop41ColorRGB
 90
        0
102
RTVSPost2010PropOp41
 70
     1
102
RTVSPost2010Prop42
 90
       50
102
RTVSPost2010PropOp42
 70
     1
102
RTVSPost2010Prop43
 90
        3
102
RTVSPost2010PropOp43
 70
     1
102
RTVSPost2010Prop44ColorIndex
 90
        5
102
RTVSPost2010Prop44ColorRGB
 90
      255
102
RTVSPost2010PropOp44
 70
     1
102
RTVSPost2010Prop45
280
     0
102
RTVSPost2010PropOp45
 70
     1
102
RTVSPost2010Prop46
 90
       50
102
RTVSPost2010PropOp46
 70
     1
102
RTVSPost2010Prop47
 90
       50
102
RTVSPost2010PropOp47
 70
     1
102
RTVSPost2010Prop48
 90
       50
102
RTVSPost2010PropOp48
 70
     1
102
RTVSPost2010Prop49
280
     0
102
RTVSPost2010PropOp49
 70
     1
102
RTVSPost2010Prop50
 90
       50
102
RTVSPost2010PropOp50
 70
     1
102
RTVSPost2010Prop51ColorIndex
 90
      256
102
RTVSPost2010Prop51ColorRGB
 90
-16777216
102
RTVSPost2010PropOp51
 70
     0
102
RTVSPost2010Prop52
140
1.0
102
RTVSPost2010PropOp52
 70
     0
102
RTVSPost2010Prop53
 90
        2
102
RTVSPost2010PropOp53
 70
     1
102
RTVSPost2010Prop54
  1
strokes_ogs.tif
102
RTVSPost2010PropOp54
 70
     1
102
RTVSPost2010Prop55
280
     0
102
RTVSPost2010PropOp55
 70
     1
102
RTVSPost2010Prop56
140
1.0
102
RTVSPost2010PropOp56
 70
     1
102
RTVSPost2010Prop57
140
1.0
102
RTVSPost2010PropOp57
 70
     1
102
RTVSPropertyOp0
 70
     1
102
RTVSPropertyOp1
 70
     1
102
RTVSPropertyOp2
 70
     1
102
RTVSPropertyOp3
 70
     1
102
RTVSPropertyOp4
 70
     1
102
RTVSPropertyOp5
 70
     1
102
RTVSPropertyOp6
 70
     1
102
RTVSPropertyOp7
 70
     1
102
RTVSPropertyOp8
 70
     1
102
RTVSPropertyOp9
 70
     1
102
RTVSPropertyOp10
 70
     1
102
RTVSPropertyOp11
 70
     1
102
RTVSPropertyOp12
 70
     1
102
RTVSPropertyOp13
 70
     1
102
RTVSPropertyOp14
 70
     1
102
RTVSPropertyOp15
 70
     1
102
RTVSPropertyOp16
 70
     1
102
RTVSPropertyOp17
 70
     1
102
RTVSPropertyOp18
 70
     1
102
RTVSPropertyOp19
 70
     1
102
RTVSPropertyOp20
 70
     1
102
RTVSPropertyOp21
 70
     1
102
RTVSPropertyOp22
 70
     1
102
RTVSPropertyOp23
 70
     1
102
RTVSPropertyOp24
 70
     1
102
RTVSPropertyOp25
 70
     1
102
RTVSPropertyOp26
 70
     1
102
RTVSPropertyOp27
 70
     1
102
RTVSPropertyOp28
 70
     1
102
RTVSPropertyOp29
 70
     1
102
RTVSPropertyOp30
 70
     1
102
RTVSPropertyOp31
 70
     1
102
RTVSPropertyOp32
 70
     1
102
RTVSPropertyOp33
 70
     1
102
RTVSPropertyOp34
 70
     1
102
RTVSPropertyOp35
 70
     1
102
RTVSPropertyOp36
 70
     1
102
RTVSPropertyOp37
 70
     1
102
RTVSPropertyOp38
 70
     1
102
RTVSPropertyOp39
 70
     1
102
RTVSPropertyOp40
 70
     1
102
RTVSPropertyOp41
 70
     1
102
RTVSPropertyOp42
 70
     1
102
RTVSPropertyOp43
 70
     1
102
RTVSPropertyOp44
 70
     1
102
RTVSPropertyOp45
 70
     1
102
RTVSPropertyOp46
 70
     1
102
RTVSPropertyOp47
 70
     1
102
RTVSPropertyOp48
 70
     1
102
RTVSPropertyOp49
 70
     1
102
RTVSPropertyOp50
 70
     1
102
RTVSPropertyOp51
 70
     0
102
RTVSPropertyOp52
 70
     0
102
RTVSPropertyOp53
 70
     1
102
RTVSPropertyOp54
 70
     1
102
RTVSPropertyOp55
 70
     1
102
RTVSPropertyOp56
 70
     1
102
RTVSPropertyOp57
 70
     1
102
RTVSPropertyOp58
 70
     1
102
RTVSPropertyOp59
 70
     1
102
RTVSPropertyOp60
 70
     1
102
RTVSPropertyOp61
 70
     1
102
RTVSPropertyOp62
 70
     1
  0
XRECORD
  5
10F1
102
{ACAD_REACTORS
330
10F0
102
}
330
10F0
100
AcDbXrecord
280
     1
102
RTVSPost2010Prop28
280
     0
102
RTVSPost2010PropOp28
 70
     1
102
RTVSPost2010Prop29
280
     1
102
RTVSPost2010PropOp29
 70
     1
102
RTVSPost2010Prop30
280
     1
102
RTVSPost2010PropOp30
 70
     1
102
RTVSPost2010Prop31
280
     0
102
RTVSPost2010PropOp31
 70
     1
102
RTVSPost2010Prop32
280
     0
102
RTVSPost2010PropOp32
 70
     1
102
RTVSPost2010Prop33
280
     0
102
RTVSPost2010PropOp33
 70
     1
102
RTVSPost2010Prop34
280
     0
102
RTVSPost2010PropOp34
 70
     1
102
RTVSPost2010Prop35
280
     0
102
RTVSPost2010PropOp35
 70
     1
102
RTVSPost2010Prop36
280
     0
102
RTVSPost2010PropOp36
 70
     1
102
RTVSPost2010Prop37
 90
       50
102
RTVSPost2010PropOp37
 70
     1
102
RTVSPost2010Prop38
140
0.0
102
RTVSPost2010PropOp38
 70
     1
102
RTVSPost2010Prop39
140
1.0
102
RTVSPost2010PropOp39
 70
     1
102
RTVSPost2010Prop40
 90
        0
102
RTVSPost2010PropOp40
 70
     1
102
RTVSPost2010Prop41ColorIndex
 90
       18
102
RTVSPost2010Prop41ColorRGB
 90
        0
102
RTVSPost2010PropOp41
 70
     1
102
RTVSPost2010Prop42
 90
       50
102
RTVSPost2010PropOp42
 70
     1
102
RTVSPost2010Prop43
 90
        3
102
RTVSPost2010PropOp43
 70
     1
102
RTVSPost2010Prop44ColorIndex
 90
        5
102
RTVSPost2010Prop44ColorRGB
 90
      255
102
RTVSPost2010PropOp44
 70
     1
102
RTVSPost2010Prop45
280
     0
102
RTVSPost2010PropOp45
 70
     1
102
RTVSPost2010Prop46
 90
       50
102
RTVSPost2010PropOp46
 70
     1
102
RTVSPost2010Prop47
 90
       50
102
RTVSPost2010PropOp47
 70
     1
102
RTVSPost2010Prop48
 90
       50
102
RTVSPost2010PropOp48
 70
     1
102
RTVSPost2010Prop49
280
     0
102
RTVSPost2010PropOp49
 70
     1
102
RTVSPost2010Prop50
 90
       50
102
RTVSPost2010PropOp50
 70
     1
102
RTVSPost2010Prop51ColorIndex
 90
      256
102
RTVSPost2010Prop51ColorRGB
 90
-16777216
102
RTVSPost2010PropOp51
 70
     0
102
RTVSPost2010Prop52
140
1.0
102
RTVSPost2010PropOp52
 70
     0
102
RTVSPost2010Prop53
 90
        2
102
RTVSPost2010PropOp53
 70
     1
102
RTVSPost2010Prop54
  1
strokes_ogs.tif
102
RTVSPost2010PropOp54
 70
     1
102
RTVSPost2010Prop55
280
     0
102
RTVSPost2010PropOp55
 70
     1
102
RTVSPost2010Prop56
140
1.0
102
RTVSPost2010PropOp56
 70
     1
102
RTVSPost2010Prop57
140
1.0
102
RTVSPost2010PropOp57
 70
     1
102
RTVSPropertyOp0
 70
     1
102
RTVSPropertyOp1
 70
     1
102
RTVSPropertyOp2
 70
     1
102
RTVSPropertyOp3
 70
     1
102
RTVSPropertyOp4
 70
     1
102
RTVSPropertyOp5
 70
     1
102
RTVSPropertyOp6
 70
     1
102
RTVSPropertyOp7
 70
     1
102
RTVSPropertyOp8
 70
     1
102
RTVSPropertyOp9
 70
     1
102
RTVSPropertyOp10
 70
     1
102
RTVSPropertyOp11
 70
     1
102
RTVSPropertyOp12
 70
     1
102
RTVSPropertyOp13
 70
     1
102
RTVSPropertyOp14
 70
     1
102
RTVSPropertyOp15
 70
     1
102
RTVSPropertyOp16
 70
     1
102
RTVSPropertyOp17
 70
     1
102
RTVSPropertyOp18
 70
     1
102
RTVSPropertyOp19
 70
     1
102
RTVSPropertyOp20
 70
     1
102
RTVSPropertyOp21
 70
     1
102
RTVSPropertyOp22
 70
     1
102
RTVSPropertyOp23
 70
     1
102
RTVSPropertyOp24
 70
     1
102
RTVSPropertyOp25
 70
     1
102
RTVSPropertyOp26
 70
     1
102
RTVSPropertyOp27
 70
     1
102
RTVSPropertyOp28
 70
     1
102
RTVSPropertyOp29
 70
     1
102
RTVSPropertyOp30
 70
     1
102
RTVSPropertyOp31
 70
     1
102
RTVSPropertyOp32
 70
     1
102
RTVSPropertyOp33
 70
     1
102
RTVSPropertyOp34
 70
     1
102
RTVSPropertyOp35
 70
     1
102
RTVSPropertyOp36
 70
     1
102
RTVSPropertyOp37
 70
     1
102
RTVSPropertyOp38
 70
     1
102
RTVSPropertyOp39
 70
     1
102
RTVSPropertyOp40
 70
     1
102
RTVSPropertyOp41
 70
     1
102
RTVSPropertyOp42
 70
     1
102
RTVSPropertyOp43
 70
     1
102
RTVSPropertyOp44
 70
     1
102
RTVSPropertyOp45
 70
     1
102
RTVSPropertyOp46
 70
     1
102
RTVSPropertyOp47
 70
     1
102
RTVSPropertyOp48
 70
     1
102
RTVSPropertyOp49
 70
     1
102
RTVSPropertyOp50
 70
     1
102
RTVSPropertyOp51
 70
     0
102
RTVSPropertyOp52
 70
     0
102
RTVSPropertyOp53
 70
     1
102
RTVSPropertyOp54
 70
     1
102
RTVSPropertyOp55
 70
     1
102
RTVSPropertyOp56
 70
     1
102
RTVSPropertyOp57
 70
     1
102
RTVSPropertyOp58
 70
     1
102
RTVSPropertyOp59
 70
     1
102
RTVSPropertyOp60
 70
     1
102
RTVSPropertyOp61
 70
     1
102
RTVSPropertyOp62
 70
     1
  0
XRECORD
  5
110B
102
{ACAD_REACTORS
330
110A
102
}
330
110A
100
AcDbXrecord
280
     1
102
RTVSPost2010Prop28
280
     0
102
RTVSPost2010PropOp28
 70
     0
102
RTVSPost2010Prop29
280
     1
102
RTVSPost2010PropOp29
 70
     0
102
RTVSPost2010Prop30
280
     1
102
RTVSPost2010PropOp30
 70
     0
102
RTVSPost2010Prop31
280
     0
102
RTVSPost2010PropOp31
 70
     0
102
RTVSPost2010Prop32
280
     0
102
RTVSPost2010PropOp32
 70
     0
102
RTVSPost2010Prop33
280
     0
102
RTVSPost2010PropOp33
 70
     0
102
RTVSPost2010Prop34
280
     0
102
RTVSPost2010PropOp34
 70
     0
102
RTVSPost2010Prop35
280
     0
102
RTVSPost2010PropOp35
 70
     0
102
RTVSPost2010Prop36
280
     0
102
RTVSPost2010PropOp36
 70
     0
102
RTVSPost2010Prop37
 90
       50
102
RTVSPost2010PropOp37
 70
     0
102
RTVSPost2010Prop38
140
0.0
102
RTVSPost2010PropOp38
 70
     0
102
RTVSPost2010Prop39
140
1.0
102
RTVSPost2010PropOp39
 70
     0
102
RTVSPost2010Prop40
 90
        0
102
RTVSPost2010PropOp40
 70
     0
102
RTVSPost2010Prop41ColorIndex
 90
       18
102
RTVSPost2010Prop41ColorRGB
 90
        0
102
RTVSPost2010PropOp41
 70
     0
102
RTVSPost2010Prop42
 90
       50
102
RTVSPost2010PropOp42
 70
     0
102
RTVSPost2010Prop43
 90
        3
102
RTVSPost2010PropOp43
 70
     0
102
RTVSPost2010Prop44ColorIndex
 90
        5
102
RTVSPost2010Prop44ColorRGB
 90
      255
102
RTVSPost2010PropOp44
 70
     0
102
RTVSPost2010Prop45
280
     0
102
RTVSPost2010PropOp45
 70
     0
102
RTVSPost2010Prop46
 90
       50
102
RTVSPost2010PropOp46
 70
     0
102
RTVSPost2010Prop47
 90
       50
102
RTVSPost2010PropOp47
 70
     0
102
RTVSPost2010Prop48
 90
       50
102
RTVSPost2010PropOp48
 70
     0
102
RTVSPost2010Prop49
280
     0
102
RTVSPost2010PropOp49
 70
     0
102
RTVSPost2010Prop50
 90
       50
102
RTVSPost2010PropOp50
 70
     0
102
RTVSPost2010Prop51ColorIndex
 90
      256
102
RTVSPost2010Prop51ColorRGB
 90
-16777216
102
RTVSPost2010PropOp51
 70
     0
102
RTVSPost2010Prop52
140
1.0
102
RTVSPost2010PropOp52
 70
     0
102
RTVSPost2010Prop53
 90
        2
102
RTVSPost2010PropOp53
 70
     0
102
RTVSPost2010Prop54
  1
strokes_ogs.tif
102
RTVSPost2010PropOp54
 70
     0
102
RTVSPost2010Prop55
280
     0
102
RTVSPost2010PropOp55
 70
     0
102
RTVSPost2010Prop56
140
1.0
102
RTVSPost2010PropOp56
 70
     0
102
RTVSPost2010Prop57
140
1.0
102
RTVSPost2010PropOp57
 70
     0
102
RTVSPropertyOp0
 70
     0
102
RTVSPropertyOp1
 70
     0
102
RTVSPropertyOp2
 70
     0
102
RTVSPropertyOp3
 70
     0
102
RTVSPropertyOp4
 70
     0
102
RTVSPropertyOp5
 70
     0
102
RTVSPropertyOp6
 70
     0
102
RTVSPropertyOp7
 70
     0
102
RTVSPropertyOp8
 70
     0
102
RTVSPropertyOp9
 70
     0
102
RTVSPropertyOp10
 70
     0
102
RTVSPropertyOp11
 70
     0
102
RTVSPropertyOp12
 70
     0
102
RTVSPropertyOp13
 70
     0
102
RTVSPropertyOp14
 70
     2
102
RTVSPropertyOp15
 70
     0
102
RTVSPropertyOp16
 70
     0
102
RTVSPropertyOp17
 70
     0
102
RTVSPropertyOp18
 70
     0
102
RTVSPropertyOp19
 70
     0
102
RTVSPropertyOp20
 70
     0
102
RTVSPropertyOp21
 70
     0
102
RTVSPropertyOp22
 70
     0
102
RTVSPropertyOp23
 70
     0
102
RTVSPropertyOp24
 70
     0
102
RTVSPropertyOp25
 70
     0
102
RTVSPropertyOp26
 70
     0
102
RTVSPropertyOp27
 70
     0
102
RTVSPropertyOp28
 70
     0
102
RTVSPropertyOp29
 70
     0
102
RTVSPropertyOp30
 70
     0
102
RTVSPropertyOp31
 70
     0
102
RTVSPropertyOp32
 70
     0
102
RTVSPropertyOp33
 70
     0
102
RTVSPropertyOp34
 70
     0
102
RTVSPropertyOp35
 70
     0
102
RTVSPropertyOp36
 70
     0
102
RTVSPropertyOp37
 70
     0
102
RTVSPropertyOp38
 70
     0
102
RTVSPropertyOp39
 70
     0
102
RTVSPropertyOp40
 70
     0
102
RTVSPropertyOp41
 70
     0
102
RTVSPropertyOp42
 70
     0
102
RTVSPropertyOp43
 70
     0
102
RTVSPropertyOp44
 70
     0
102
RTVSPropertyOp45
 70
     0
102
RTVSPropertyOp46
 70
     0
102
RTVSPropertyOp47
 70
     0
102
RTVSPropertyOp48
 70
     0
102
RTVSPropertyOp49
 70
     0
102
RTVSPropertyOp50
 70
     0
102
RTVSPropertyOp51
 70
     0
102
RTVSPropertyOp52
 70
     0
102
RTVSPropertyOp53
 70
     0
102
RTVSPropertyOp54
 70
     0
102
RTVSPropertyOp55
 70
     0
102
RTVSPropertyOp56
 70
     0
102
RTVSPropertyOp57
 70
     0
102
RTVSPropertyOp58
 70
     0
102
RTVSPropertyOp59
 70
     0
102
RTVSPropertyOp60
 70
     0
102
RTVSPropertyOp61
 70
     0
102
RTVSPropertyOp62
 70
     0
  0
XRECORD
  5
10F9
102
{ACAD_REACTORS
330
10F8
102
}
330
10F8
100
AcDbXrecord
280
     1
102
RTVSPost2010Prop28
280
     0
102
RTVSPost2010PropOp28
 70
     1
102
RTVSPost2010Prop29
280
     1
102
RTVSPost2010PropOp29
 70
     1
102
RTVSPost2010Prop30
280
     1
102
RTVSPost2010PropOp30
 70
     1
102
RTVSPost2010Prop31
280
     0
102
RTVSPost2010PropOp31
 70
     1
102
RTVSPost2010Prop32
280
     0
102
RTVSPost2010PropOp32
 70
     1
102
RTVSPost2010Prop33
280
     0
102
RTVSPost2010PropOp33
 70
     1
102
RTVSPost2010Prop34
280
     0
102
RTVSPost2010PropOp34
 70
     1
102
RTVSPost2010Prop35
280
     0
102
RTVSPost2010PropOp35
 70
     1
102
RTVSPost2010Prop36
280
     0
102
RTVSPost2010PropOp36
 70
     1
102
RTVSPost2010Prop37
 90
       50
102
RTVSPost2010PropOp37
 70
     1
102
RTVSPost2010Prop38
140
0.0
102
RTVSPost2010PropOp38
 70
     1
102
RTVSPost2010Prop39
140
1.0
102
RTVSPost2010PropOp39
 70
     1
102
RTVSPost2010Prop40
 90
        0
102
RTVSPost2010PropOp40
 70
     1
102
RTVSPost2010Prop41ColorIndex
 90
       18
102
RTVSPost2010Prop41ColorRGB
 90
        0
102
RTVSPost2010PropOp41
 70
     1
102
RTVSPost2010Prop42
 90
       50
102
RTVSPost2010PropOp42
 70
     1
102
RTVSPost2010Prop43
 90
        3
102
RTVSPost2010PropOp43
 70
     1
102
RTVSPost2010Prop44ColorIndex
 90
        5
102
RTVSPost2010Prop44ColorRGB
 90
      255
102
RTVSPost2010PropOp44
 70
     1
102
RTVSPost2010Prop45
280
     0
102
RTVSPost2010PropOp45
 70
     1
102
RTVSPost2010Prop46
 90
       50
102
RTVSPost2010PropOp46
 70
     1
102
RTVSPost2010Prop47
 90
       50
102
RTVSPost2010PropOp47
 70
     1
102
RTVSPost2010Prop48
 90
       50
102
RTVSPost2010PropOp48
 70
     1
102
RTVSPost2010Prop49
280
     0
102
RTVSPost2010PropOp49
 70
     1
102
RTVSPost2010Prop50
 90
       50
102
RTVSPost2010PropOp50
 70
     1
102
RTVSPost2010Prop51ColorIndex
 90
      256
102
RTVSPost2010Prop51ColorRGB
 90
-16777216
102
RTVSPost2010PropOp51
 70
     0
102
RTVSPost2010Prop52
140
1.0
102
RTVSPost2010PropOp52
 70
     0
102
RTVSPost2010Prop53
 90
        2
102
RTVSPost2010PropOp53
 70
     1
102
RTVSPost2010Prop54
  1
strokes_ogs.tif
102
RTVSPost2010PropOp54
 70
     1
102
RTVSPost2010Prop55
280
     0
102
RTVSPost2010PropOp55
 70
     1
102
RTVSPost2010Prop56
140
1.0
102
RTVSPost2010PropOp56
 70
     1
102
RTVSPost2010Prop57
140
1.0
102
RTVSPost2010PropOp57
 70
     1
102
RTVSPropertyOp0
 70
     1
102
RTVSPropertyOp1
 70
     1
102
RTVSPropertyOp2
 70
     1
102
RTVSPropertyOp3
 70
     1
102
RTVSPropertyOp4
 70
     1
102
RTVSPropertyOp5
 70
     1
102
RTVSPropertyOp6
 70
     1
102
RTVSPropertyOp7
 70
     1
102
RTVSPropertyOp8
 70
     1
102
RTVSPropertyOp9
 70
     1
102
RTVSPropertyOp10
 70
     1
102
RTVSPropertyOp11
 70
     1
102
RTVSPropertyOp12
 70
     1
102
RTVSPropertyOp13
 70
     1
102
RTVSPropertyOp14
 70
     1
102
RTVSPropertyOp15
 70
     1
102
RTVSPropertyOp16
 70
     1
102
RTVSPropertyOp17
 70
     1
102
RTVSPropertyOp18
 70
     1
102
RTVSPropertyOp19
 70
     1
102
RTVSPropertyOp20
 70
     1
102
RTVSPropertyOp21
 70
     1
102
RTVSPropertyOp22
 70
     1
102
RTVSPropertyOp23
 70
     1
102
RTVSPropertyOp24
 70
     1
102
RTVSPropertyOp25
 70
     1
102
RTVSPropertyOp26
 70
     1
102
RTVSPropertyOp27
 70
     1
102
RTVSPropertyOp28
 70
     1
102
RTVSPropertyOp29
 70
     1
102
RTVSPropertyOp30
 70
     1
102
RTVSPropertyOp31
 70
     1
102
RTVSPropertyOp32
 70
     1
102
RTVSPropertyOp33
 70
     1
102
RTVSPropertyOp34
 70
     1
102
RTVSPropertyOp35
 70
     1
102
RTVSPropertyOp36
 70
     1
102
RTVSPropertyOp37
 70
     1
102
RTVSPropertyOp38
 70
     1
102
RTVSPropertyOp39
 70
     1
102
RTVSPropertyOp40
 70
     1
102
RTVSPropertyOp41
 70
     1
102
RTVSPropertyOp42
 70
     1
102
RTVSPropertyOp43
 70
     1
102
RTVSPropertyOp44
 70
     1
102
RTVSPropertyOp45
 70
     1
102
RTVSPropertyOp46
 70
     1
102
RTVSPropertyOp47
 70
     1
102
RTVSPropertyOp48
 70
     1
102
RTVSPropertyOp49
 70
     1
102
RTVSPropertyOp50
 70
     1
102
RTVSPropertyOp51
 70
     0
102
RTVSPropertyOp52
 70
     0
102
RTVSPropertyOp53
 70
     1
102
RTVSPropertyOp54
 70
     1
102
RTVSPropertyOp55
 70
     1
102
RTVSPropertyOp56
 70
     1
102
RTVSPropertyOp57
 70
     1
102
RTVSPropertyOp58
 70
     1
102
RTVSPropertyOp59
 70
     1
102
RTVSPropertyOp60
 70
     1
102
RTVSPropertyOp61
 70
     1
102
RTVSPropertyOp62
 70
     1
  0
XRECORD
  5
10DD
102
{ACAD_REACTORS
330
10DC
102
}
330
10DC
100
AcDbXrecord
280
     1
102
RTVSPost2010Prop28
280
     0
102
RTVSPost2010PropOp28
 70
     1
102
RTVSPost2010Prop29
280
     1
102
RTVSPost2010PropOp29
 70
     1
102
RTVSPost2010Prop30
280
     1
102
RTVSPost2010PropOp30
 70
     1
102
RTVSPost2010Prop31
280
     0
102
RTVSPost2010PropOp31
 70
     1
102
RTVSPost2010Prop32
280
     0
102
RTVSPost2010PropOp32
 70
     1
102
RTVSPost2010Prop33
280
     0
102
RTVSPost2010PropOp33
 70
     1
102
RTVSPost2010Prop34
280
     0
102
RTVSPost2010PropOp34
 70
     1
102
RTVSPost2010Prop35
280
     0
102
RTVSPost2010PropOp35
 70
     1
102
RTVSPost2010Prop36
280
     0
102
RTVSPost2010PropOp36
 70
     1
102
RTVSPost2010Prop37
 90
       50
102
RTVSPost2010PropOp37
 70
     1
102
RTVSPost2010Prop38
140
0.0
102
RTVSPost2010PropOp38
 70
     1
102
RTVSPost2010Prop39
140
1.0
102
RTVSPost2010PropOp39
 70
     1
102
RTVSPost2010Prop40
 90
        0
102
RTVSPost2010PropOp40
 70
     1
102
RTVSPost2010Prop41ColorIndex
 90
       18
102
RTVSPost2010Prop41ColorRGB
 90
        0
102
RTVSPost2010PropOp41
 70
     1
102
RTVSPost2010Prop42
 90
       50
102
RTVSPost2010PropOp42
 70
     1
102
RTVSPost2010Prop43
 90
        3
102
RTVSPost2010PropOp43
 70
     1
102
RTVSPost2010Prop44ColorIndex
 90
        5
102
RTVSPost2010Prop44ColorRGB
 90
      255
102
RTVSPost2010PropOp44
 70
     1
102
RTVSPost2010Prop45
280
     0
102
RTVSPost2010PropOp45
 70
     1
102
RTVSPost2010Prop46
 90
       50
102
RTVSPost2010PropOp46
 70
     1
102
RTVSPost2010Prop47
 90
       50
102
RTVSPost2010PropOp47
 70
     1
102
RTVSPost2010Prop48
 90
       50
102
RTVSPost2010PropOp48
 70
     1
102
RTVSPost2010Prop49
280
     0
102
RTVSPost2010PropOp49
 70
     1
102
RTVSPost2010Prop50
 90
       50
102
RTVSPost2010PropOp50
 70
     1
102
RTVSPost2010Prop51ColorIndex
 90
      256
102
RTVSPost2010Prop51ColorRGB
 90
-16777216
102
RTVSPost2010PropOp51
 70
     0
102
RTVSPost2010Prop52
140
1.0
102
RTVSPost2010PropOp52
 70
     0
102
RTVSPost2010Prop53
 90
        2
102
RTVSPost2010PropOp53
 70
     1
102
RTVSPost2010Prop54
  1
strokes_ogs.tif
102
RTVSPost2010PropOp54
 70
     1
102
RTVSPost2010Prop55
280
     0
102
RTVSPost2010PropOp55
 70
     1
102
RTVSPost2010Prop56
140
1.0
102
RTVSPost2010PropOp56
 70
     1
102
RTVSPost2010Prop57
140
1.0
102
RTVSPost2010PropOp57
 70
     1
102
RTVSPropertyOp0
 70
     1
102
RTVSPropertyOp1
 70
     1
102
RTVSPropertyOp2
 70
     1
102
RTVSPropertyOp3
 70
     1
102
RTVSPropertyOp4
 70
     1
102
RTVSPropertyOp5
 70
     1
102
RTVSPropertyOp6
 70
     1
102
RTVSPropertyOp7
 70
     1
102
RTVSPropertyOp8
 70
     1
102
RTVSPropertyOp9
 70
     1
102
RTVSPropertyOp10
 70
     1
102
RTVSPropertyOp11
 70
     1
102
RTVSPropertyOp12
 70
     1
102
RTVSPropertyOp13
 70
     1
102
RTVSPropertyOp14
 70
     1
102
RTVSPropertyOp15
 70
     1
102
RTVSPropertyOp16
 70
     1
102
RTVSPropertyOp17
 70
     1
102
RTVSPropertyOp18
 70
     1
102
RTVSPropertyOp19
 70
     1
102
RTVSPropertyOp20
 70
     1
102
RTVSPropertyOp21
 70
     1
102
RTVSPropertyOp22
 70
     1
102
RTVSPropertyOp23
 70
     1
102
RTVSPropertyOp24
 70
     1
102
RTVSPropertyOp25
 70
     1
102
RTVSPropertyOp26
 70
     1
102
RTVSPropertyOp27
 70
     1
102
RTVSPropertyOp28
 70
     1
102
RTVSPropertyOp29
 70
     1
102
RTVSPropertyOp30
 70
     1
102
RTVSPropertyOp31
 70
     1
102
RTVSPropertyOp32
 70
     1
102
RTVSPropertyOp33
 70
     1
102
RTVSPropertyOp34
 70
     1
102
RTVSPropertyOp35
 70
     1
102
RTVSPropertyOp36
 70
     1
102
RTVSPropertyOp37
 70
     1
102
RTVSPropertyOp38
 70
     1
102
RTVSPropertyOp39
 70
     1
102
RTVSPropertyOp40
 70
     1
102
RTVSPropertyOp41
 70
     1
102
RTVSPropertyOp42
 70
     1
102
RTVSPropertyOp43
 70
     1
102
RTVSPropertyOp44
 70
     1
102
RTVSPropertyOp45
 70
     1
102
RTVSPropertyOp46
 70
     1
102
RTVSPropertyOp47
 70
     1
102
RTVSPropertyOp48
 70
     1
102
RTVSPropertyOp49
 70
     1
102
RTVSPropertyOp50
 70
     1
102
RTVSPropertyOp51
 70
     0
102
RTVSPropertyOp52
 70
     0
102
RTVSPropertyOp53
 70
     1
102
RTVSPropertyOp54
 70
     1
102
RTVSPropertyOp55
 70
     1
102
RTVSPropertyOp56
 70
     1
102
RTVSPropertyOp57
 70
     1
102
RTVSPropertyOp58
 70
     1
102
RTVSPropertyOp59
 70
     1
102
RTVSPropertyOp60
 70
     1
102
RTVSPropertyOp61
 70
     1
102
RTVSPropertyOp62
 70
     1
  0
XRECORD
  5
10DF
102
{ACAD_REACTORS
330
10DE
102
}
330
10DE
100
AcDbXrecord
280
     1
102
RTVSPost2010Prop28
280
     0
102
RTVSPost2010PropOp28
 70
     1
102
RTVSPost2010Prop29
280
     1
102
RTVSPost2010PropOp29
 70
     1
102
RTVSPost2010Prop30
280
     1
102
RTVSPost2010PropOp30
 70
     1
102
RTVSPost2010Prop31
280
     0
102
RTVSPost2010PropOp31
 70
     1
102
RTVSPost2010Prop32
280
     0
102
RTVSPost2010PropOp32
 70
     1
102
RTVSPost2010Prop33
280
     0
102
RTVSPost2010PropOp33
 70
     1
102
RTVSPost2010Prop34
280
     0
102
RTVSPost2010PropOp34
 70
     1
102
RTVSPost2010Prop35
280
     0
102
RTVSPost2010PropOp35
 70
     1
102
RTVSPost2010Prop36
280
     0
102
RTVSPost2010PropOp36
 70
     1
102
RTVSPost2010Prop37
 90
       50
102
RTVSPost2010PropOp37
 70
     1
102
RTVSPost2010Prop38
140
0.0
102
RTVSPost2010PropOp38
 70
     1
102
RTVSPost2010Prop39
140
1.0
102
RTVSPost2010PropOp39
 70
     1
102
RTVSPost2010Prop40
 90
        0
102
RTVSPost2010PropOp40
 70
     1
102
RTVSPost2010Prop41ColorIndex
 90
       18
102
RTVSPost2010Prop41ColorRGB
 90
        0
102
RTVSPost2010PropOp41
 70
     1
102
RTVSPost2010Prop42
 90
       50
102
RTVSPost2010PropOp42
 70
     1
102
RTVSPost2010Prop43
 90
        3
102
RTVSPost2010PropOp43
 70
     1
102
RTVSPost2010Prop44ColorIndex
 90
        5
102
RTVSPost2010Prop44ColorRGB
 90
      255
102
RTVSPost2010PropOp44
 70
     1
102
RTVSPost2010Prop45
280
     0
102
RTVSPost2010PropOp45
 70
     1
102
RTVSPost2010Prop46
 90
       50
102
RTVSPost2010PropOp46
 70
     1
102
RTVSPost2010Prop47
 90
       50
102
RTVSPost2010PropOp47
 70
     1
102
RTVSPost2010Prop48
 90
       50
102
RTVSPost2010PropOp48
 70
     1
102
RTVSPost2010Prop49
280
     0
102
RTVSPost2010PropOp49
 70
     1
102
RTVSPost2010Prop50
 90
       50
102
RTVSPost2010PropOp50
 70
     1
102
RTVSPost2010Prop51ColorIndex
 90
      256
102
RTVSPost2010Prop51ColorRGB
 90
-16777216
102
RTVSPost2010PropOp51
 70
     0
102
RTVSPost2010Prop52
140
1.0
102
RTVSPost2010PropOp52
 70
     0
102
RTVSPost2010Prop53
 90
        2
102
RTVSPost2010PropOp53
 70
     1
102
RTVSPost2010Prop54
  1
strokes_ogs.tif
102
RTVSPost2010PropOp54
 70
     1
102
RTVSPost2010Prop55
280
     0
102
RTVSPost2010PropOp55
 70
     1
102
RTVSPost2010Prop56
140
1.0
102
RTVSPost2010PropOp56
 70
     1
102
RTVSPost2010Prop57
140
1.0
102
RTVSPost2010PropOp57
 70
     1
102
RTVSPropertyOp0
 70
     1
102
RTVSPropertyOp1
 70
     1
102
RTVSPropertyOp2
 70
     1
102
RTVSPropertyOp3
 70
     1
102
RTVSPropertyOp4
 70
     1
102
RTVSPropertyOp5
 70
     1
102
RTVSPropertyOp6
 70
     1
102
RTVSPropertyOp7
 70
     1
102
RTVSPropertyOp8
 70
     1
102
RTVSPropertyOp9
 70
     1
102
RTVSPropertyOp10
 70
     1
102
RTVSPropertyOp11
 70
     1
102
RTVSPropertyOp12
 70
     1
102
RTVSPropertyOp13
 70
     1
102
RTVSPropertyOp14
 70
     1
102
RTVSPropertyOp15
 70
     1
102
RTVSPropertyOp16
 70
     1
102
RTVSPropertyOp17
 70
     1
102
RTVSPropertyOp18
 70
     1
102
RTVSPropertyOp19
 70
     1
102
RTVSPropertyOp20
 70
     1
102
RTVSPropertyOp21
 70
     1
102
RTVSPropertyOp22
 70
     1
102
RTVSPropertyOp23
 70
     1
102
RTVSPropertyOp24
 70
     1
102
RTVSPropertyOp25
 70
     1
102
RTVSPropertyOp26
 70
     1
102
RTVSPropertyOp27
 70
     1
102
RTVSPropertyOp28
 70
     1
102
RTVSPropertyOp29
 70
     1
102
RTVSPropertyOp30
 70
     1
102
RTVSPropertyOp31
 70
     1
102
RTVSPropertyOp32
 70
     1
102
RTVSPropertyOp33
 70
     1
102
RTVSPropertyOp34
 70
     1
102
RTVSPropertyOp35
 70
     1
102
RTVSPropertyOp36
 70
     1
102
RTVSPropertyOp37
 70
     1
102
RTVSPropertyOp38
 70
     1
102
RTVSPropertyOp39
 70
     1
102
RTVSPropertyOp40
 70
     1
102
RTVSPropertyOp41
 70
     1
102
RTVSPropertyOp42
 70
     1
102
RTVSPropertyOp43
 70
     1
102
RTVSPropertyOp44
 70
     1
102
RTVSPropertyOp45
 70
     1
102
RTVSPropertyOp46
 70
     1
102
RTVSPropertyOp47
 70
     1
102
RTVSPropertyOp48
 70
     1
102
RTVSPropertyOp49
 70
     1
102
RTVSPropertyOp50
 70
     1
102
RTVSPropertyOp51
 70
     0
102
RTVSPropertyOp52
 70
     0
102
RTVSPropertyOp53
 70
     1
102
RTVSPropertyOp54
 70
     1
102
RTVSPropertyOp55
 70
     1
102
RTVSPropertyOp56
 70
     1
102
RTVSPropertyOp57
 70
     1
102
RTVSPropertyOp58
 70
     1
102
RTVSPropertyOp59
 70
     1
102
RTVSPropertyOp60
 70
     1
102
RTVSPropertyOp61
 70
     1
102
RTVSPropertyOp62
 70
     1
  0
XRECORD
  5
10E1
102
{ACAD_REACTORS
330
10E0
102
}
330
10E0
100
AcDbXrecord
280
     1
102
RTVSPost2010Prop28
280
     0
102
RTVSPost2010PropOp28
 70
     1
102
RTVSPost2010Prop29
280
     1
102
RTVSPost2010PropOp29
 70
     1
102
RTVSPost2010Prop30
280
     1
102
RTVSPost2010PropOp30
 70
     1
102
RTVSPost2010Prop31
280
     0
102
RTVSPost2010PropOp31
 70
     1
102
RTVSPost2010Prop32
280
     0
102
RTVSPost2010PropOp32
 70
     1
102
RTVSPost2010Prop33
280
     0
102
RTVSPost2010PropOp33
 70
     1
102
RTVSPost2010Prop34
280
     0
102
RTVSPost2010PropOp34
 70
     1
102
RTVSPost2010Prop35
280
     0
102
RTVSPost2010PropOp35
 70
     1
102
RTVSPost2010Prop36
280
     0
102
RTVSPost2010PropOp36
 70
     1
102
RTVSPost2010Prop37
 90
       50
102
RTVSPost2010PropOp37
 70
     1
102
RTVSPost2010Prop38
140
0.0
102
RTVSPost2010PropOp38
 70
     1
102
RTVSPost2010Prop39
140
1.0
102
RTVSPost2010PropOp39
 70
     1
102
RTVSPost2010Prop40
 90
        0
102
RTVSPost2010PropOp40
 70
     1
102
RTVSPost2010Prop41ColorIndex
 90
       18
102
RTVSPost2010Prop41ColorRGB
 90
        0
102
RTVSPost2010PropOp41
 70
     1
102
RTVSPost2010Prop42
 90
       50
102
RTVSPost2010PropOp42
 70
     1
102
RTVSPost2010Prop43
 90
        3
102
RTVSPost2010PropOp43
 70
     1
102
RTVSPost2010Prop44ColorIndex
 90
        5
102
RTVSPost2010Prop44ColorRGB
 90
      255
102
RTVSPost2010PropOp44
 70
     1
102
RTVSPost2010Prop45
280
     0
102
RTVSPost2010PropOp45
 70
     1
102
RTVSPost2010Prop46
 90
       50
102
RTVSPost2010PropOp46
 70
     1
102
RTVSPost2010Prop47
 90
       50
102
RTVSPost2010PropOp47
 70
     1
102
RTVSPost2010Prop48
 90
       50
102
RTVSPost2010PropOp48
 70
     1
102
RTVSPost2010Prop49
280
     0
102
RTVSPost2010PropOp49
 70
     1
102
RTVSPost2010Prop50
 90
       50
102
RTVSPost2010PropOp50
 70
     1
102
RTVSPost2010Prop51ColorIndex
 90
      256
102
RTVSPost2010Prop51ColorRGB
 90
-16777216
102
RTVSPost2010PropOp51
 70
     0
102
RTVSPost2010Prop52
140
1.0
102
RTVSPost2010PropOp52
 70
     0
102
RTVSPost2010Prop53
 90
        2
102
RTVSPost2010PropOp53
 70
     1
102
RTVSPost2010Prop54
  1
strokes_ogs.tif
102
RTVSPost2010PropOp54
 70
     1
102
RTVSPost2010Prop55
280
     0
102
RTVSPost2010PropOp55
 70
     1
102
RTVSPost2010Prop56
140
1.0
102
RTVSPost2010PropOp56
 70
     1
102
RTVSPost2010Prop57
140
1.0
102
RTVSPost2010PropOp57
 70
     1
102
RTVSPropertyOp0
 70
     1
102
RTVSPropertyOp1
 70
     1
102
RTVSPropertyOp2
 70
     1
102
RTVSPropertyOp3
 70
     1
102
RTVSPropertyOp4
 70
     1
102
RTVSPropertyOp5
 70
     1
102
RTVSPropertyOp6
 70
     1
102
RTVSPropertyOp7
 70
     1
102
RTVSPropertyOp8
 70
     1
102
RTVSPropertyOp9
 70
     1
102
RTVSPropertyOp10
 70
     1
102
RTVSPropertyOp11
 70
     1
102
RTVSPropertyOp12
 70
     1
102
RTVSPropertyOp13
 70
     1
102
RTVSPropertyOp14
 70
     1
102
RTVSPropertyOp15
 70
     1
102
RTVSPropertyOp16
 70
     1
102
RTVSPropertyOp17
 70
     1
102
RTVSPropertyOp18
 70
     1
102
RTVSPropertyOp19
 70
     1
102
RTVSPropertyOp20
 70
     1
102
RTVSPropertyOp21
 70
     1
102
RTVSPropertyOp22
 70
     1
102
RTVSPropertyOp23
 70
     1
102
RTVSPropertyOp24
 70
     1
102
RTVSPropertyOp25
 70
     1
102
RTVSPropertyOp26
 70
     1
102
RTVSPropertyOp27
 70
     1
102
RTVSPropertyOp28
 70
     1
102
RTVSPropertyOp29
 70
     1
102
RTVSPropertyOp30
 70
     1
102
RTVSPropertyOp31
 70
     1
102
RTVSPropertyOp32
 70
     1
102
RTVSPropertyOp33
 70
     1
102
RTVSPropertyOp34
 70
     1
102
RTVSPropertyOp35
 70
     1
102
RTVSPropertyOp36
 70
     1
102
RTVSPropertyOp37
 70
     1
102
RTVSPropertyOp38
 70
     1
102
RTVSPropertyOp39
 70
     1
102
RTVSPropertyOp40
 70
     1
102
RTVSPropertyOp41
 70
     1
102
RTVSPropertyOp42
 70
     1
102
RTVSPropertyOp43
 70
     1
102
RTVSPropertyOp44
 70
     1
102
RTVSPropertyOp45
 70
     1
102
RTVSPropertyOp46
 70
     1
102
RTVSPropertyOp47
 70
     1
102
RTVSPropertyOp48
 70
     1
102
RTVSPropertyOp49
 70
     1
102
RTVSPropertyOp50
 70
     1
102
RTVSPropertyOp51
 70
     0
102
RTVSPropertyOp52
 70
     0
102
RTVSPropertyOp53
 70
     1
102
RTVSPropertyOp54
 70
     1
102
RTVSPropertyOp55
 70
     1
102
RTVSPropertyOp56
 70
     1
102
RTVSPropertyOp57
 70
     1
102
RTVSPropertyOp58
 70
     1
102
RTVSPropertyOp59
 70
     1
102
RTVSPropertyOp60
 70
     1
102
RTVSPropertyOp61
 70
     1
102
RTVSPropertyOp62
 70
     1
  0
XRECORD
  5
10E3
102
{ACAD_REACTORS
330
10E2
102
}
330
10E2
100
AcDbXrecord
280
     1
102
RTVSPost2010Prop28
280
     0
102
RTVSPost2010PropOp28
 70
     1
102
RTVSPost2010Prop29
280
     1
102
RTVSPost2010PropOp29
 70
     1
102
RTVSPost2010Prop30
280
     1
102
RTVSPost2010PropOp30
 70
     1
102
RTVSPost2010Prop31
280
     0
102
RTVSPost2010PropOp31
 70
     1
102
RTVSPost2010Prop32
280
     0
102
RTVSPost2010PropOp32
 70
     1
102
RTVSPost2010Prop33
280
     0
102
RTVSPost2010PropOp33
 70
     1
102
RTVSPost2010Prop34
280
     0
102
RTVSPost2010PropOp34
 70
     1
102
RTVSPost2010Prop35
280
     0
102
RTVSPost2010PropOp35
 70
     1
102
RTVSPost2010Prop36
280
     0
102
RTVSPost2010PropOp36
 70
     1
102
RTVSPost2010Prop37
 90
       50
102
RTVSPost2010PropOp37
 70
     1
102
RTVSPost2010Prop38
140
0.0
102
RTVSPost2010PropOp38
 70
     1
102
RTVSPost2010Prop39
140
1.0
102
RTVSPost2010PropOp39
 70
     1
102
RTVSPost2010Prop40
 90
        0
102
RTVSPost2010PropOp40
 70
     1
102
RTVSPost2010Prop41ColorIndex
 90
       18
102
RTVSPost2010Prop41ColorRGB
 90
        0
102
RTVSPost2010PropOp41
 70
     1
102
RTVSPost2010Prop42
 90
       50
102
RTVSPost2010PropOp42
 70
     1
102
RTVSPost2010Prop43
 90
        3
102
RTVSPost2010PropOp43
 70
     1
102
RTVSPost2010Prop44ColorIndex
 90
        5
102
RTVSPost2010Prop44ColorRGB
 90
      255
102
RTVSPost2010PropOp44
 70
     1
102
RTVSPost2010Prop45
280
     0
102
RTVSPost2010PropOp45
 70
     1
102
RTVSPost2010Prop46
 90
       50
102
RTVSPost2010PropOp46
 70
     1
102
RTVSPost2010Prop47
 90
       50
102
RTVSPost2010PropOp47
 70
     1
102
RTVSPost2010Prop48
 90
       50
102
RTVSPost2010PropOp48
 70
     1
102
RTVSPost2010Prop49
280
     0
102
RTVSPost2010PropOp49
 70
     1
102
RTVSPost2010Prop50
 90
       50
102
RTVSPost2010PropOp50
 70
     1
102
RTVSPost2010Prop51ColorIndex
 90
      256
102
RTVSPost2010Prop51ColorRGB
 90
-16777216
102
RTVSPost2010PropOp51
 70
     0
102
RTVSPost2010Prop52
140
1.0
102
RTVSPost2010PropOp52
 70
     0
102
RTVSPost2010Prop53
 90
        2
102
RTVSPost2010PropOp53
 70
     1
102
RTVSPost2010Prop54
  1
strokes_ogs.tif
102
RTVSPost2010PropOp54
 70
     1
102
RTVSPost2010Prop55
280
     0
102
RTVSPost2010PropOp55
 70
     1
102
RTVSPost2010Prop56
140
1.0
102
RTVSPost2010PropOp56
 70
     1
102
RTVSPost2010Prop57
140
1.0
102
RTVSPost2010PropOp57
 70
     1
102
RTVSPropertyOp0
 70
     1
102
RTVSPropertyOp1
 70
     1
102
RTVSPropertyOp2
 70
     1
102
RTVSPropertyOp3
 70
     1
102
RTVSPropertyOp4
 70
     1
102
RTVSPropertyOp5
 70
     1
102
RTVSPropertyOp6
 70
     1
102
RTVSPropertyOp7
 70
     1
102
RTVSPropertyOp8
 70
     1
102
RTVSPropertyOp9
 70
     1
102
RTVSPropertyOp10
 70
     1
102
RTVSPropertyOp11
 70
     1
102
RTVSPropertyOp12
 70
     1
102
RTVSPropertyOp13
 70
     1
102
RTVSPropertyOp14
 70
     1
102
RTVSPropertyOp15
 70
     1
102
RTVSPropertyOp16
 70
     1
102
RTVSPropertyOp17
 70
     1
102
RTVSPropertyOp18
 70
     1
102
RTVSPropertyOp19
 70
     1
102
RTVSPropertyOp20
 70
     1
102
RTVSPropertyOp21
 70
     1
102
RTVSPropertyOp22
 70
     1
102
RTVSPropertyOp23
 70
     1
102
RTVSPropertyOp24
 70
     1
102
RTVSPropertyOp25
 70
     1
102
RTVSPropertyOp26
 70
     1
102
RTVSPropertyOp27
 70
     1
102
RTVSPropertyOp28
 70
     1
102
RTVSPropertyOp29
 70
     1
102
RTVSPropertyOp30
 70
     1
102
RTVSPropertyOp31
 70
     1
102
RTVSPropertyOp32
 70
     1
102
RTVSPropertyOp33
 70
     1
102
RTVSPropertyOp34
 70
     1
102
RTVSPropertyOp35
 70
     1
102
RTVSPropertyOp36
 70
     1
102
RTVSPropertyOp37
 70
     1
102
RTVSPropertyOp38
 70
     1
102
RTVSPropertyOp39
 70
     1
102
RTVSPropertyOp40
 70
     1
102
RTVSPropertyOp41
 70
     1
102
RTVSPropertyOp42
 70
     1
102
RTVSPropertyOp43
 70
     1
102
RTVSPropertyOp44
 70
     1
102
RTVSPropertyOp45
 70
     1
102
RTVSPropertyOp46
 70
     1
102
RTVSPropertyOp47
 70
     1
102
RTVSPropertyOp48
 70
     1
102
RTVSPropertyOp49
 70
     1
102
RTVSPropertyOp50
 70
     1
102
RTVSPropertyOp51
 70
     0
102
RTVSPropertyOp52
 70
     0
102
RTVSPropertyOp53
 70
     1
102
RTVSPropertyOp54
 70
     1
102
RTVSPropertyOp55
 70
     1
102
RTVSPropertyOp56
 70
     1
102
RTVSPropertyOp57
 70
     1
102
RTVSPropertyOp58
 70
     1
102
RTVSPropertyOp59
 70
     1
102
RTVSPropertyOp60
 70
     1
102
RTVSPropertyOp61
 70
     1
102
RTVSPropertyOp62
 70
     1
  0
XRECORD
  5
10EB
102
{ACAD_REACTORS
330
10EA
102
}
330
10EA
100
AcDbXrecord
280
     1
102
RTVSPost2010Prop28
280
     0
102
RTVSPost2010PropOp28
 70
     1
102
RTVSPost2010Prop29
280
     1
102
RTVSPost2010PropOp29
 70
     1
102
RTVSPost2010Prop30
280
     1
102
RTVSPost2010PropOp30
 70
     1
102
RTVSPost2010Prop31
280
     0
102
RTVSPost2010PropOp31
 70
     1
102
RTVSPost2010Prop32
280
     0
102
RTVSPost2010PropOp32
 70
     1
102
RTVSPost2010Prop33
280
     0
102
RTVSPost2010PropOp33
 70
     1
102
RTVSPost2010Prop34
280
     0
102
RTVSPost2010PropOp34
 70
     1
102
RTVSPost2010Prop35
280
     0
102
RTVSPost2010PropOp35
 70
     1
102
RTVSPost2010Prop36
280
     0
102
RTVSPost2010PropOp36
 70
     1
102
RTVSPost2010Prop37
 90
       50
102
RTVSPost2010PropOp37
 70
     1
102
RTVSPost2010Prop38
140
0.0
102
RTVSPost2010PropOp38
 70
     1
102
RTVSPost2010Prop39
140
1.0
102
RTVSPost2010PropOp39
 70
     1
102
RTVSPost2010Prop40
 90
        0
102
RTVSPost2010PropOp40
 70
     1
102
RTVSPost2010Prop41ColorIndex
 90
       18
102
RTVSPost2010Prop41ColorRGB
 90
        0
102
RTVSPost2010PropOp41
 70
     1
102
RTVSPost2010Prop42
 90
       50
102
RTVSPost2010PropOp42
 70
     1
102
RTVSPost2010Prop43
 90
        3
102
RTVSPost2010PropOp43
 70
     1
102
RTVSPost2010Prop44ColorIndex
 90
        5
102
RTVSPost2010Prop44ColorRGB
 90
      255
102
RTVSPost2010PropOp44
 70
     1
102
RTVSPost2010Prop45
280
     0
102
RTVSPost2010PropOp45
 70
     1
102
RTVSPost2010Prop46
 90
       50
102
RTVSPost2010PropOp46
 70
     1
102
RTVSPost2010Prop47
 90
       50
102
RTVSPost2010PropOp47
 70
     1
102
RTVSPost2010Prop48
 90
       50
102
RTVSPost2010PropOp48
 70
     1
102
RTVSPost2010Prop49
280
     0
102
RTVSPost2010PropOp49
 70
     1
102
RTVSPost2010Prop50
 90
       50
102
RTVSPost2010PropOp50
 70
     1
102
RTVSPost2010Prop51ColorIndex
 90
      256
102
RTVSPost2010Prop51ColorRGB
 90
-16777216
102
RTVSPost2010PropOp51
 70
     0
102
RTVSPost2010Prop52
140
1.0
102
RTVSPost2010PropOp52
 70
     0
102
RTVSPost2010Prop53
 90
        2
102
RTVSPost2010PropOp53
 70
     1
102
RTVSPost2010Prop54
  1
strokes_ogs.tif
102
RTVSPost2010PropOp54
 70
     1
102
RTVSPost2010Prop55
280
     0
102
RTVSPost2010PropOp55
 70
     1
102
RTVSPost2010Prop56
140
1.0
102
RTVSPost2010PropOp56
 70
     1
102
RTVSPost2010Prop57
140
1.0
102
RTVSPost2010PropOp57
 70
     1
102
RTVSPropertyOp0
 70
     1
102
RTVSPropertyOp1
 70
     1
102
RTVSPropertyOp2
 70
     1
102
RTVSPropertyOp3
 70
     1
102
RTVSPropertyOp4
 70
     1
102
RTVSPropertyOp5
 70
     1
102
RTVSPropertyOp6
 70
     1
102
RTVSPropertyOp7
 70
     1
102
RTVSPropertyOp8
 70
     1
102
RTVSPropertyOp9
 70
     1
102
RTVSPropertyOp10
 70
     1
102
RTVSPropertyOp11
 70
     1
102
RTVSPropertyOp12
 70
     1
102
RTVSPropertyOp13
 70
     1
102
RTVSPropertyOp14
 70
     1
102
RTVSPropertyOp15
 70
     1
102
RTVSPropertyOp16
 70
     1
102
RTVSPropertyOp17
 70
     1
102
RTVSPropertyOp18
 70
     1
102
RTVSPropertyOp19
 70
     1
102
RTVSPropertyOp20
 70
     1
102
RTVSPropertyOp21
 70
     1
102
RTVSPropertyOp22
 70
     1
102
RTVSPropertyOp23
 70
     1
102
RTVSPropertyOp24
 70
     1
102
RTVSPropertyOp25
 70
     1
102
RTVSPropertyOp26
 70
     1
102
RTVSPropertyOp27
 70
     1
102
RTVSPropertyOp28
 70
     1
102
RTVSPropertyOp29
 70
     1
102
RTVSPropertyOp30
 70
     1
102
RTVSPropertyOp31
 70
     1
102
RTVSPropertyOp32
 70
     1
102
RTVSPropertyOp33
 70
     1
102
RTVSPropertyOp34
 70
     1
102
RTVSPropertyOp35
 70
     1
102
RTVSPropertyOp36
 70
     1
102
RTVSPropertyOp37
 70
     1
102
RTVSPropertyOp38
 70
     1
102
RTVSPropertyOp39
 70
     1
102
RTVSPropertyOp40
 70
     1
102
RTVSPropertyOp41
 70
     1
102
RTVSPropertyOp42
 70
     1
102
RTVSPropertyOp43
 70
     1
102
RTVSPropertyOp44
 70
     1
102
RTVSPropertyOp45
 70
     1
102
RTVSPropertyOp46
 70
     1
102
RTVSPropertyOp47
 70
     1
102
RTVSPropertyOp48
 70
     1
102
RTVSPropertyOp49
 70
     1
102
RTVSPropertyOp50
 70
     1
102
RTVSPropertyOp51
 70
     0
102
RTVSPropertyOp52
 70
     0
102
RTVSPropertyOp53
 70
     1
102
RTVSPropertyOp54
 70
     1
102
RTVSPropertyOp55
 70
     1
102
RTVSPropertyOp56
 70
     1
102
RTVSPropertyOp57
 70
     1
102
RTVSPropertyOp58
 70
     1
102
RTVSPropertyOp59
 70
     1
102
RTVSPropertyOp60
 70
     1
102
RTVSPropertyOp61
 70
     1
102
RTVSPropertyOp62
 70
     1
  0
XRECORD
  5
1107
102
{ACAD_REACTORS
330
1106
102
}
330
1106
100
AcDbXrecord
280
     1
102
RTVSPost2010Prop28
280
     0
102
RTVSPost2010PropOp28
 70
     0
102
RTVSPost2010Prop29
280
     1
102
RTVSPost2010PropOp29
 70
     0
102
RTVSPost2010Prop30
280
     1
102
RTVSPost2010PropOp30
 70
     0
102
RTVSPost2010Prop31
280
     0
102
RTVSPost2010PropOp31
 70
     0
102
RTVSPost2010Prop32
280
     0
102
RTVSPost2010PropOp32
 70
     0
102
RTVSPost2010Prop33
280
     0
102
RTVSPost2010PropOp33
 70
     0
102
RTVSPost2010Prop34
280
     0
102
RTVSPost2010PropOp34
 70
     0
102
RTVSPost2010Prop35
280
     0
102
RTVSPost2010PropOp35
 70
     0
102
RTVSPost2010Prop36
280
     0
102
RTVSPost2010PropOp36
 70
     0
102
RTVSPost2010Prop37
 90
       50
102
RTVSPost2010PropOp37
 70
     0
102
RTVSPost2010Prop38
140
0.0
102
RTVSPost2010PropOp38
 70
     0
102
RTVSPost2010Prop39
140
1.0
102
RTVSPost2010PropOp39
 70
     0
102
RTVSPost2010Prop40
 90
        0
102
RTVSPost2010PropOp40
 70
     0
102
RTVSPost2010Prop41ColorIndex
 90
       18
102
RTVSPost2010Prop41ColorRGB
 90
        0
102
RTVSPost2010PropOp41
 70
     0
102
RTVSPost2010Prop42
 90
       50
102
RTVSPost2010PropOp42
 70
     0
102
RTVSPost2010Prop43
 90
        3
102
RTVSPost2010PropOp43
 70
     0
102
RTVSPost2010Prop44ColorIndex
 90
        5
102
RTVSPost2010Prop44ColorRGB
 90
      255
102
RTVSPost2010PropOp44
 70
     0
102
RTVSPost2010Prop45
280
     0
102
RTVSPost2010PropOp45
 70
     0
102
RTVSPost2010Prop46
 90
       50
102
RTVSPost2010PropOp46
 70
     0
102
RTVSPost2010Prop47
 90
       50
102
RTVSPost2010PropOp47
 70
     0
102
RTVSPost2010Prop48
 90
       50
102
RTVSPost2010PropOp48
 70
     0
102
RTVSPost2010Prop49
280
     0
102
RTVSPost2010PropOp49
 70
     0
102
RTVSPost2010Prop50
 90
       50
102
RTVSPost2010PropOp50
 70
     0
102
RTVSPost2010Prop51ColorIndex
 90
      256
102
RTVSPost2010Prop51ColorRGB
 90
-16777216
102
RTVSPost2010PropOp51
 70
     0
102
RTVSPost2010Prop52
140
1.0
102
RTVSPost2010PropOp52
 70
     0
102
RTVSPost2010Prop53
 90
        2
102
RTVSPost2010PropOp53
 70
     0
102
RTVSPost2010Prop54
  1
strokes_ogs.tif
102
RTVSPost2010PropOp54
 70
     0
102
RTVSPost2010Prop55
280
     0
102
RTVSPost2010PropOp55
 70
     0
102
RTVSPost2010Prop56
140
1.0
102
RTVSPost2010PropOp56
 70
     0
102
RTVSPost2010Prop57
140
1.0
102
RTVSPost2010PropOp57
 70
     0
102
RTVSPropertyOp0
 70
     0
102
RTVSPropertyOp1
 70
     0
102
RTVSPropertyOp2
 70
     0
102
RTVSPropertyOp3
 70
     0
102
RTVSPropertyOp4
 70
     0
102
RTVSPropertyOp5
 70
     0
102
RTVSPropertyOp6
 70
     0
102
RTVSPropertyOp7
 70
     0
102
RTVSPropertyOp8
 70
     0
102
RTVSPropertyOp9
 70
     0
102
RTVSPropertyOp10
 70
     0
102
RTVSPropertyOp11
 70
     0
102
RTVSPropertyOp12
 70
     0
102
RTVSPropertyOp13
 70
     0
102
RTVSPropertyOp14
 70
     2
102
RTVSPropertyOp15
 70
     0
102
RTVSPropertyOp16
 70
     0
102
RTVSPropertyOp17
 70
     0
102
RTVSPropertyOp18
 70
     0
102
RTVSPropertyOp19
 70
     0
102
RTVSPropertyOp20
 70
     0
102
RTVSPropertyOp21
 70
     0
102
RTVSPropertyOp22
 70
     0
102
RTVSPropertyOp23
 70
     0
102
RTVSPropertyOp24
 70
     0
102
RTVSPropertyOp25
 70
     0
102
RTVSPropertyOp26
 70
     0
102
RTVSPropertyOp27
 70
     0
102
RTVSPropertyOp28
 70
     0
102
RTVSPropertyOp29
 70
     0
102
RTVSPropertyOp30
 70
     0
102
RTVSPropertyOp31
 70
     0
102
RTVSPropertyOp32
 70
     0
102
RTVSPropertyOp33
 70
     0
102
RTVSPropertyOp34
 70
     0
102
RTVSPropertyOp35
 70
     0
102
RTVSPropertyOp36
 70
     0
102
RTVSPropertyOp37
 70
     0
102
RTVSPropertyOp38
 70
     0
102
RTVSPropertyOp39
 70
     0
102
RTVSPropertyOp40
 70
     0
102
RTVSPropertyOp41
 70
     0
102
RTVSPropertyOp42
 70
     0
102
RTVSPropertyOp43
 70
     0
102
RTVSPropertyOp44
 70
     0
102
RTVSPropertyOp45
 70
     0
102
RTVSPropertyOp46
 70
     0
102
RTVSPropertyOp47
 70
     0
102
RTVSPropertyOp48
 70
     0
102
RTVSPropertyOp49
 70
     0
102
RTVSPropertyOp50
 70
     0
102
RTVSPropertyOp51
 70
     0
102
RTVSPropertyOp52
 70
     0
102
RTVSPropertyOp53
 70
     0
102
RTVSPropertyOp54
 70
     0
102
RTVSPropertyOp55
 70
     0
102
RTVSPropertyOp56
 70
     0
102
RTVSPropertyOp57
 70
     0
102
RTVSPropertyOp58
 70
     0
102
RTVSPropertyOp59
 70
     0
102
RTVSPropertyOp60
 70
     0
102
RTVSPropertyOp61
 70
     0
102
RTVSPropertyOp62
 70
     0
  0
XRECORD
  5
10F7
102
{ACAD_REACTORS
330
10F6
102
}
330
10F6
100
AcDbXrecord
280
     1
102
RTVSPost2010Prop28
280
     0
102
RTVSPost2010PropOp28
 70
     1
102
RTVSPost2010Prop29
280
     1
102
RTVSPost2010PropOp29
 70
     1
102
RTVSPost2010Prop30
280
     1
102
RTVSPost2010PropOp30
 70
     1
102
RTVSPost2010Prop31
280
     0
102
RTVSPost2010PropOp31
 70
     1
102
RTVSPost2010Prop32
280
     0
102
RTVSPost2010PropOp32
 70
     1
102
RTVSPost2010Prop33
280
     0
102
RTVSPost2010PropOp33
 70
     1
102
RTVSPost2010Prop34
280
     0
102
RTVSPost2010PropOp34
 70
     1
102
RTVSPost2010Prop35
280
     0
102
RTVSPost2010PropOp35
 70
     1
102
RTVSPost2010Prop36
280
     0
102
RTVSPost2010PropOp36
 70
     1
102
RTVSPost2010Prop37
 90
       50
102
RTVSPost2010PropOp37
 70
     1
102
RTVSPost2010Prop38
140
0.0
102
RTVSPost2010PropOp38
 70
     1
102
RTVSPost2010Prop39
140
1.0
102
RTVSPost2010PropOp39
 70
     1
102
RTVSPost2010Prop40
 90
        0
102
RTVSPost2010PropOp40
 70
     1
102
RTVSPost2010Prop41ColorIndex
 90
       18
102
RTVSPost2010Prop41ColorRGB
 90
        0
102
RTVSPost2010PropOp41
 70
     1
102
RTVSPost2010Prop42
 90
       50
102
RTVSPost2010PropOp42
 70
     1
102
RTVSPost2010Prop43
 90
        3
102
RTVSPost2010PropOp43
 70
     1
102
RTVSPost2010Prop44ColorIndex
 90
        5
102
RTVSPost2010Prop44ColorRGB
 90
      255
102
RTVSPost2010PropOp44
 70
     1
102
RTVSPost2010Prop45
280
     0
102
RTVSPost2010PropOp45
 70
     1
102
RTVSPost2010Prop46
 90
       50
102
RTVSPost2010PropOp46
 70
     1
102
RTVSPost2010Prop47
 90
       50
102
RTVSPost2010PropOp47
 70
     1
102
RTVSPost2010Prop48
 90
       50
102
RTVSPost2010PropOp48
 70
     1
102
RTVSPost2010Prop49
280
     0
102
RTVSPost2010PropOp49
 70
     1
102
RTVSPost2010Prop50
 90
       50
102
RTVSPost2010PropOp50
 70
     1
102
RTVSPost2010Prop51ColorIndex
 90
      256
102
RTVSPost2010Prop51ColorRGB
 90
-16777216
102
RTVSPost2010PropOp51
 70
     0
102
RTVSPost2010Prop52
140
1.0
102
RTVSPost2010PropOp52
 70
     0
102
RTVSPost2010Prop53
 90
        2
102
RTVSPost2010PropOp53
 70
     1
102
RTVSPost2010Prop54
  1
strokes_ogs.tif
102
RTVSPost2010PropOp54
 70
     1
102
RTVSPost2010Prop55
280
     0
102
RTVSPost2010PropOp55
 70
     1
102
RTVSPost2010Prop56
140
1.0
102
RTVSPost2010PropOp56
 70
     1
102
RTVSPost2010Prop57
140
1.0
102
RTVSPost2010PropOp57
 70
     1
102
RTVSPropertyOp0
 70
     1
102
RTVSPropertyOp1
 70
     1
102
RTVSPropertyOp2
 70
     1
102
RTVSPropertyOp3
 70
     1
102
RTVSPropertyOp4
 70
     1
102
RTVSPropertyOp5
 70
     1
102
RTVSPropertyOp6
 70
     1
102
RTVSPropertyOp7
 70
     1
102
RTVSPropertyOp8
 70
     1
102
RTVSPropertyOp9
 70
     1
102
RTVSPropertyOp10
 70
     1
102
RTVSPropertyOp11
 70
     1
102
RTVSPropertyOp12
 70
     1
102
RTVSPropertyOp13
 70
     1
102
RTVSPropertyOp14
 70
     1
102
RTVSPropertyOp15
 70
     1
102
RTVSPropertyOp16
 70
     1
102
RTVSPropertyOp17
 70
     1
102
RTVSPropertyOp18
 70
     1
102
RTVSPropertyOp19
 70
     1
102
RTVSPropertyOp20
 70
     1
102
RTVSPropertyOp21
 70
     1
102
RTVSPropertyOp22
 70
     1
102
RTVSPropertyOp23
 70
     1
102
RTVSPropertyOp24
 70
     1
102
RTVSPropertyOp25
 70
     1
102
RTVSPropertyOp26
 70
     1
102
RTVSPropertyOp27
 70
     1
102
RTVSPropertyOp28
 70
     1
102
RTVSPropertyOp29
 70
     1
102
RTVSPropertyOp30
 70
     1
102
RTVSPropertyOp31
 70
     1
102
RTVSPropertyOp32
 70
     1
102
RTVSPropertyOp33
 70
     1
102
RTVSPropertyOp34
 70
     1
102
RTVSPropertyOp35
 70
     1
102
RTVSPropertyOp36
 70
     1
102
RTVSPropertyOp37
 70
     1
102
RTVSPropertyOp38
 70
     1
102
RTVSPropertyOp39
 70
     1
102
RTVSPropertyOp40
 70
     1
102
RTVSPropertyOp41
 70
     1
102
RTVSPropertyOp42
 70
     1
102
RTVSPropertyOp43
 70
     1
102
RTVSPropertyOp44
 70
     1
102
RTVSPropertyOp45
 70
     1
102
RTVSPropertyOp46
 70
     1
102
RTVSPropertyOp47
 70
     1
102
RTVSPropertyOp48
 70
     1
102
RTVSPropertyOp49
 70
     1
102
RTVSPropertyOp50
 70
     1
102
RTVSPropertyOp51
 70
     0
102
RTVSPropertyOp52
 70
     0
102
RTVSPropertyOp53
 70
     1
102
RTVSPropertyOp54
 70
     1
102
RTVSPropertyOp55
 70
     1
102
RTVSPropertyOp56
 70
     1
102
RTVSPropertyOp57
 70
     1
102
RTVSPropertyOp58
 70
     1
102
RTVSPropertyOp59
 70
     1
102
RTVSPropertyOp60
 70
     1
102
RTVSPropertyOp61
 70
     1
102
RTVSPropertyOp62
 70
     1
  0
XRECORD
  5
1109
102
{ACAD_REACTORS
330
1108
102
}
330
1108
100
AcDbXrecord
280
     1
102
RTVSPost2010Prop28
280
     0
102
RTVSPost2010PropOp28
 70
     0
102
RTVSPost2010Prop29
280
     1
102
RTVSPost2010PropOp29
 70
     0
102
RTVSPost2010Prop30
280
     1
102
RTVSPost2010PropOp30
 70
     0
102
RTVSPost2010Prop31
280
     0
102
RTVSPost2010PropOp31
 70
     0
102
RTVSPost2010Prop32
280
     0
102
RTVSPost2010PropOp32
 70
     0
102
RTVSPost2010Prop33
280
     0
102
RTVSPost2010PropOp33
 70
     0
102
RTVSPost2010Prop34
280
     0
102
RTVSPost2010PropOp34
 70
     0
102
RTVSPost2010Prop35
280
     0
102
RTVSPost2010PropOp35
 70
     0
102
RTVSPost2010Prop36
280
     0
102
RTVSPost2010PropOp36
 70
     0
102
RTVSPost2010Prop37
 90
       50
102
RTVSPost2010PropOp37
 70
     0
102
RTVSPost2010Prop38
140
0.0
102
RTVSPost2010PropOp38
 70
     0
102
RTVSPost2010Prop39
140
1.0
102
RTVSPost2010PropOp39
 70
     0
102
RTVSPost2010Prop40
 90
        0
102
RTVSPost2010PropOp40
 70
     0
102
RTVSPost2010Prop41ColorIndex
 90
       18
102
RTVSPost2010Prop41ColorRGB
 90
        0
102
RTVSPost2010PropOp41
 70
     0
102
RTVSPost2010Prop42
 90
       50
102
RTVSPost2010PropOp42
 70
     0
102
RTVSPost2010Prop43
 90
        3
102
RTVSPost2010PropOp43
 70
     0
102
RTVSPost2010Prop44ColorIndex
 90
        5
102
RTVSPost2010Prop44ColorRGB
 90
      255
102
RTVSPost2010PropOp44
 70
     0
102
RTVSPost2010Prop45
280
     0
102
RTVSPost2010PropOp45
 70
     0
102
RTVSPost2010Prop46
 90
       50
102
RTVSPost2010PropOp46
 70
     0
102
RTVSPost2010Prop47
 90
       50
102
RTVSPost2010PropOp47
 70
     0
102
RTVSPost2010Prop48
 90
       50
102
RTVSPost2010PropOp48
 70
     0
102
RTVSPost2010Prop49
280
     0
102
RTVSPost2010PropOp49
 70
     0
102
RTVSPost2010Prop50
 90
       50
102
RTVSPost2010PropOp50
 70
     0
102
RTVSPost2010Prop51ColorIndex
 90
      256
102
RTVSPost2010Prop51ColorRGB
 90
-16777216
102
RTVSPost2010PropOp51
 70
     0
102
RTVSPost2010Prop52
140
1.0
102
RTVSPost2010PropOp52
 70
     0
102
RTVSPost2010Prop53
 90
        2
102
RTVSPost2010PropOp53
 70
     0
102
RTVSPost2010Prop54
  1
strokes_ogs.tif
102
RTVSPost2010PropOp54
 70
     0
102
RTVSPost2010Prop55
280
     0
102
RTVSPost2010PropOp55
 70
     0
102
RTVSPost2010Prop56
140
1.0
102
RTVSPost2010PropOp56
 70
     0
102
RTVSPost2010Prop57
140
1.0
102
RTVSPost2010PropOp57
 70
     0
102
RTVSPropertyOp0
 70
     0
102
RTVSPropertyOp1
 70
     0
102
RTVSPropertyOp2
 70
     0
102
RTVSPropertyOp3
 70
     0
102
RTVSPropertyOp4
 70
     0
102
RTVSPropertyOp5
 70
     0
102
RTVSPropertyOp6
 70
     0
102
RTVSPropertyOp7
 70
     0
102
RTVSPropertyOp8
 70
     0
102
RTVSPropertyOp9
 70
     0
102
RTVSPropertyOp10
 70
     0
102
RTVSPropertyOp11
 70
     0
102
RTVSPropertyOp12
 70
     0
102
RTVSPropertyOp13
 70
     0
102
RTVSPropertyOp14
 70
     2
102
RTVSPropertyOp15
 70
     0
102
RTVSPropertyOp16
 70
     0
102
RTVSPropertyOp17
 70
     0
102
RTVSPropertyOp18
 70
     0
102
RTVSPropertyOp19
 70
     0
102
RTVSPropertyOp20
 70
     0
102
RTVSPropertyOp21
 70
     0
102
RTVSPropertyOp22
 70
     0
102
RTVSPropertyOp23
 70
     0
102
RTVSPropertyOp24
 70
     0
102
RTVSPropertyOp25
 70
     0
102
RTVSPropertyOp26
 70
     0
102
RTVSPropertyOp27
 70
     0
102
RTVSPropertyOp28
 70
     0
102
RTVSPropertyOp29
 70
     0
102
RTVSPropertyOp30
 70
     0
102
RTVSPropertyOp31
 70
     0
102
RTVSPropertyOp32
 70
     0
102
RTVSPropertyOp33
 70
     0
102
RTVSPropertyOp34
 70
     0
102
RTVSPropertyOp35
 70
     0
102
RTVSPropertyOp36
 70
     0
102
RTVSPropertyOp37
 70
     0
102
RTVSPropertyOp38
 70
     0
102
RTVSPropertyOp39
 70
     0
102
RTVSPropertyOp40
 70
     0
102
RTVSPropertyOp41
 70
     0
102
RTVSPropertyOp42
 70
     0
102
RTVSPropertyOp43
 70
     0
102
RTVSPropertyOp44
 70
     0
102
RTVSPropertyOp45
 70
     0
102
RTVSPropertyOp46
 70
     0
102
RTVSPropertyOp47
 70
     0
102
RTVSPropertyOp48
 70
     0
102
RTVSPropertyOp49
 70
     0
102
RTVSPropertyOp50
 70
     0
102
RTVSPropertyOp51
 70
     0
102
RTVSPropertyOp52
 70
     0
102
RTVSPropertyOp53
 70
     0
102
RTVSPropertyOp54
 70
     0
102
RTVSPropertyOp55
 70
     0
102
RTVSPropertyOp56
 70
     0
102
RTVSPropertyOp57
 70
     0
102
RTVSPropertyOp58
 70
     0
102
RTVSPropertyOp59
 70
     0
102
RTVSPropertyOp60
 70
     0
102
RTVSPropertyOp61
 70
     0
102
RTVSPropertyOp62
 70
     0
  0
XRECORD
  5
10EF
102
{ACAD_REACTORS
330
10EE
102
}
330
10EE
100
AcDbXrecord
280
     1
102
RTVSPost2010Prop28
280
     0
102
RTVSPost2010PropOp28
 70
     1
102
RTVSPost2010Prop29
280
     1
102
RTVSPost2010PropOp29
 70
     1
102
RTVSPost2010Prop30
280
     1
102
RTVSPost2010PropOp30
 70
     1
102
RTVSPost2010Prop31
280
     0
102
RTVSPost2010PropOp31
 70
     1
102
RTVSPost2010Prop32
280
     0
102
RTVSPost2010PropOp32
 70
     1
102
RTVSPost2010Prop33
280
     0
102
RTVSPost2010PropOp33
 70
     1
102
RTVSPost2010Prop34
280
     0
102
RTVSPost2010PropOp34
 70
     1
102
RTVSPost2010Prop35
280
     0
102
RTVSPost2010PropOp35
 70
     1
102
RTVSPost2010Prop36
280
     0
102
RTVSPost2010PropOp36
 70
     1
102
RTVSPost2010Prop37
 90
       50
102
RTVSPost2010PropOp37
 70
     1
102
RTVSPost2010Prop38
140
0.0
102
RTVSPost2010PropOp38
 70
     1
102
RTVSPost2010Prop39
140
1.0
102
RTVSPost2010PropOp39
 70
     1
102
RTVSPost2010Prop40
 90
        0
102
RTVSPost2010PropOp40
 70
     1
102
RTVSPost2010Prop41ColorIndex
 90
       18
102
RTVSPost2010Prop41ColorRGB
 90
        0
102
RTVSPost2010PropOp41
 70
     1
102
RTVSPost2010Prop42
 90
       50
102
RTVSPost2010PropOp42
 70
     1
102
RTVSPost2010Prop43
 90
        3
102
RTVSPost2010PropOp43
 70
     1
102
RTVSPost2010Prop44ColorIndex
 90
        5
102
RTVSPost2010Prop44ColorRGB
 90
      255
102
RTVSPost2010PropOp44
 70
     1
102
RTVSPost2010Prop45
280
     0
102
RTVSPost2010PropOp45
 70
     1
102
RTVSPost2010Prop46
 90
       50
102
RTVSPost2010PropOp46
 70
     1
102
RTVSPost2010Prop47
 90
       50
102
RTVSPost2010PropOp47
 70
     1
102
RTVSPost2010Prop48
 90
       50
102
RTVSPost2010PropOp48
 70
     1
102
RTVSPost2010Prop49
280
     0
102
RTVSPost2010PropOp49
 70
     1
102
RTVSPost2010Prop50
 90
       50
102
RTVSPost2010PropOp50
 70
     1
102
RTVSPost2010Prop51ColorIndex
 90
      256
102
RTVSPost2010Prop51ColorRGB
 90
-16777216
102
RTVSPost2010PropOp51
 70
     0
102
RTVSPost2010Prop52
140
1.0
102
RTVSPost2010PropOp52
 70
     0
102
RTVSPost2010Prop53
 90
        2
102
RTVSPost2010PropOp53
 70
     1
102
RTVSPost2010Prop54
  1
strokes_ogs.tif
102
RTVSPost2010PropOp54
 70
     1
102
RTVSPost2010Prop55
280
     0
102
RTVSPost2010PropOp55
 70
     1
102
RTVSPost2010Prop56
140
1.0
102
RTVSPost2010PropOp56
 70
     1
102
RTVSPost2010Prop57
140
1.0
102
RTVSPost2010PropOp57
 70
     1
102
RTVSPropertyOp0
 70
     1
102
RTVSPropertyOp1
 70
     1
102
RTVSPropertyOp2
 70
     1
102
RTVSPropertyOp3
 70
     1
102
RTVSPropertyOp4
 70
     1
102
RTVSPropertyOp5
 70
     1
102
RTVSPropertyOp6
 70
     1
102
RTVSPropertyOp7
 70
     1
102
RTVSPropertyOp8
 70
     1
102
RTVSPropertyOp9
 70
     1
102
RTVSPropertyOp10
 70
     1
102
RTVSPropertyOp11
 70
     1
102
RTVSPropertyOp12
 70
     1
102
RTVSPropertyOp13
 70
     1
102
RTVSPropertyOp14
 70
     1
102
RTVSPropertyOp15
 70
     1
102
RTVSPropertyOp16
 70
     1
102
RTVSPropertyOp17
 70
     1
102
RTVSPropertyOp18
 70
     1
102
RTVSPropertyOp19
 70
     1
102
RTVSPropertyOp20
 70
     1
102
RTVSPropertyOp21
 70
     1
102
RTVSPropertyOp22
 70
     1
102
RTVSPropertyOp23
 70
     1
102
RTVSPropertyOp24
 70
     1
102
RTVSPropertyOp25
 70
     1
102
RTVSPropertyOp26
 70
     1
102
RTVSPropertyOp27
 70
     1
102
RTVSPropertyOp28
 70
     1
102
RTVSPropertyOp29
 70
     1
102
RTVSPropertyOp30
 70
     1
102
RTVSPropertyOp31
 70
     1
102
RTVSPropertyOp32
 70
     1
102
RTVSPropertyOp33
 70
     1
102
RTVSPropertyOp34
 70
     1
102
RTVSPropertyOp35
 70
     1
102
RTVSPropertyOp36
 70
     1
102
RTVSPropertyOp37
 70
     1
102
RTVSPropertyOp38
 70
     1
102
RTVSPropertyOp39
 70
     1
102
RTVSPropertyOp40
 70
     1
102
RTVSPropertyOp41
 70
     1
102
RTVSPropertyOp42
 70
     1
102
RTVSPropertyOp43
 70
     1
102
RTVSPropertyOp44
 70
     1
102
RTVSPropertyOp45
 70
     1
102
RTVSPropertyOp46
 70
     1
102
RTVSPropertyOp47
 70
     1
102
RTVSPropertyOp48
 70
     1
102
RTVSPropertyOp49
 70
     1
102
RTVSPropertyOp50
 70
     1
102
RTVSPropertyOp51
 70
     0
102
RTVSPropertyOp52
 70
     0
102
RTVSPropertyOp53
 70
     1
102
RTVSPropertyOp54
 70
     1
102
RTVSPropertyOp55
 70
     1
102
RTVSPropertyOp56
 70
     1
102
RTVSPropertyOp57
 70
     1
102
RTVSPropertyOp58
 70
     1
102
RTVSPropertyOp59
 70
     1
102
RTVSPropertyOp60
 70
     1
102
RTVSPropertyOp61
 70
     1
102
RTVSPropertyOp62
 70
     1
  0
XRECORD
  5
1105
102
{ACAD_REACTORS
330
1104
102
}
330
1104
100
AcDbXrecord
280
     1
102
RTVSPost2010Prop28
280
     0
102
RTVSPost2010PropOp28
 70
     1
102
RTVSPost2010Prop29
280
     1
102
RTVSPost2010PropOp29
 70
     1
102
RTVSPost2010Prop30
280
     1
102
RTVSPost2010PropOp30
 70
     1
102
RTVSPost2010Prop31
280
     0
102
RTVSPost2010PropOp31
 70
     1
102
RTVSPost2010Prop32
280
     0
102
RTVSPost2010PropOp32
 70
     1
102
RTVSPost2010Prop33
280
     0
102
RTVSPost2010PropOp33
 70
     1
102
RTVSPost2010Prop34
280
     0
102
RTVSPost2010PropOp34
 70
     1
102
RTVSPost2010Prop35
280
     0
102
RTVSPost2010PropOp35
 70
     1
102
RTVSPost2010Prop36
280
     0
102
RTVSPost2010PropOp36
 70
     1
102
RTVSPost2010Prop37
 90
       50
102
RTVSPost2010PropOp37
 70
     1
102
RTVSPost2010Prop38
140
0.0
102
RTVSPost2010PropOp38
 70
     1
102
RTVSPost2010Prop39
140
1.0
102
RTVSPost2010PropOp39
 70
     1
102
RTVSPost2010Prop40
 90
        0
102
RTVSPost2010PropOp40
 70
     1
102
RTVSPost2010Prop41ColorIndex
 90
       18
102
RTVSPost2010Prop41ColorRGB
 90
        0
102
RTVSPost2010PropOp41
 70
     1
102
RTVSPost2010Prop42
 90
       50
102
RTVSPost2010PropOp42
 70
     1
102
RTVSPost2010Prop43
 90
        3
102
RTVSPost2010PropOp43
 70
     1
102
RTVSPost2010Prop44ColorIndex
 90
        5
102
RTVSPost2010Prop44ColorRGB
 90
      255
102
RTVSPost2010PropOp44
 70
     1
102
RTVSPost2010Prop45
280
     0
102
RTVSPost2010PropOp45
 70
     1
102
RTVSPost2010Prop46
 90
       50
102
RTVSPost2010PropOp46
 70
     1
102
RTVSPost2010Prop47
 90
       50
102
RTVSPost2010PropOp47
 70
     1
102
RTVSPost2010Prop48
 90
       50
102
RTVSPost2010PropOp48
 70
     1
102
RTVSPost2010Prop49
280
     0
102
RTVSPost2010PropOp49
 70
     1
102
RTVSPost2010Prop50
 90
       50
102
RTVSPost2010PropOp50
 70
     1
102
RTVSPost2010Prop51ColorIndex
 90
      256
102
RTVSPost2010Prop51ColorRGB
 90
-16777216
102
RTVSPost2010PropOp51
 70
     0
102
RTVSPost2010Prop52
140
1.0
102
RTVSPost2010PropOp52
 70
     0
102
RTVSPost2010Prop53
 90
        2
102
RTVSPost2010PropOp53
 70
     1
102
RTVSPost2010Prop54
  1
strokes_ogs.tif
102
RTVSPost2010PropOp54
 70
     1
102
RTVSPost2010Prop55
280
     0
102
RTVSPost2010PropOp55
 70
     1
102
RTVSPost2010Prop56
140
1.0
102
RTVSPost2010PropOp56
 70
     1
102
RTVSPost2010Prop57
140
1.0
102
RTVSPost2010PropOp57
 70
     1
102
RTVSPropertyOp0
 70
     1
102
RTVSPropertyOp1
 70
     1
102
RTVSPropertyOp2
 70
     1
102
RTVSPropertyOp3
 70
     1
102
RTVSPropertyOp4
 70
     1
102
RTVSPropertyOp5
 70
     1
102
RTVSPropertyOp6
 70
     1
102
RTVSPropertyOp7
 70
     1
102
RTVSPropertyOp8
 70
     1
102
RTVSPropertyOp9
 70
     1
102
RTVSPropertyOp10
 70
     1
102
RTVSPropertyOp11
 70
     1
102
RTVSPropertyOp12
 70
     1
102
RTVSPropertyOp13
 70
     1
102
RTVSPropertyOp14
 70
     1
102
RTVSPropertyOp15
 70
     1
102
RTVSPropertyOp16
 70
     1
102
RTVSPropertyOp17
 70
     1
102
RTVSPropertyOp18
 70
     1
102
RTVSPropertyOp19
 70
     1
102
RTVSPropertyOp20
 70
     1
102
RTVSPropertyOp21
 70
     1
102
RTVSPropertyOp22
 70
     1
102
RTVSPropertyOp23
 70
     1
102
RTVSPropertyOp24
 70
     1
102
RTVSPropertyOp25
 70
     1
102
RTVSPropertyOp26
 70
     1
102
RTVSPropertyOp27
 70
     1
102
RTVSPropertyOp28
 70
     1
102
RTVSPropertyOp29
 70
     1
102
RTVSPropertyOp30
 70
     1
102
RTVSPropertyOp31
 70
     1
102
RTVSPropertyOp32
 70
     1
102
RTVSPropertyOp33
 70
     1
102
RTVSPropertyOp34
 70
     1
102
RTVSPropertyOp35
 70
     1
102
RTVSPropertyOp36
 70
     1
102
RTVSPropertyOp37
 70
     1
102
RTVSPropertyOp38
 70
     1
102
RTVSPropertyOp39
 70
     1
102
RTVSPropertyOp40
 70
     1
102
RTVSPropertyOp41
 70
     1
102
RTVSPropertyOp42
 70
     1
102
RTVSPropertyOp43
 70
     1
102
RTVSPropertyOp44
 70
     1
102
RTVSPropertyOp45
 70
     1
102
RTVSPropertyOp46
 70
     1
102
RTVSPropertyOp47
 70
     1
102
RTVSPropertyOp48
 70
     1
102
RTVSPropertyOp49
 70
     1
102
RTVSPropertyOp50
 70
     1
102
RTVSPropertyOp51
 70
     0
102
RTVSPropertyOp52
 70
     0
102
RTVSPropertyOp53
 70
     1
102
RTVSPropertyOp54
 70
     1
102
RTVSPropertyOp55
 70
     1
102
RTVSPropertyOp56
 70
     1
102
RTVSPropertyOp57
 70
     1
102
RTVSPropertyOp58
 70
     1
102
RTVSPropertyOp59
 70
     1
102
RTVSPropertyOp60
 70
     1
102
RTVSPropertyOp61
 70
     1
102
RTVSPropertyOp62
 70
     1
  0
XRECORD
  5
1103
102
{ACAD_REACTORS
330
1102
102
}
330
1102
100
AcDbXrecord
280
     1
102
RTVSPost2010Prop28
280
     0
102
RTVSPost2010PropOp28
 70
     1
102
RTVSPost2010Prop29
280
     1
102
RTVSPost2010PropOp29
 70
     1
102
RTVSPost2010Prop30
280
     1
102
RTVSPost2010PropOp30
 70
     1
102
RTVSPost2010Prop31
280
     0
102
RTVSPost2010PropOp31
 70
     1
102
RTVSPost2010Prop32
280
     0
102
RTVSPost2010PropOp32
 70
     1
102
RTVSPost2010Prop33
280
     0
102
RTVSPost2010PropOp33
 70
     1
102
RTVSPost2010Prop34
280
     0
102
RTVSPost2010PropOp34
 70
     1
102
RTVSPost2010Prop35
280
     0
102
RTVSPost2010PropOp35
 70
     1
102
RTVSPost2010Prop36
280
     0
102
RTVSPost2010PropOp36
 70
     1
102
RTVSPost2010Prop37
 90
       50
102
RTVSPost2010PropOp37
 70
     1
102
RTVSPost2010Prop38
140
0.0
102
RTVSPost2010PropOp38
 70
     1
102
RTVSPost2010Prop39
140
1.0
102
RTVSPost2010PropOp39
 70
     1
102
RTVSPost2010Prop40
 90
        0
102
RTVSPost2010PropOp40
 70
     1
102
RTVSPost2010Prop41ColorIndex
 90
       18
102
RTVSPost2010Prop41ColorRGB
 90
        0
102
RTVSPost2010PropOp41
 70
     1
102
RTVSPost2010Prop42
 90
       50
102
RTVSPost2010PropOp42
 70
     1
102
RTVSPost2010Prop43
 90
        3
102
RTVSPost2010PropOp43
 70
     1
102
RTVSPost2010Prop44ColorIndex
 90
        5
102
RTVSPost2010Prop44ColorRGB
 90
      255
102
RTVSPost2010PropOp44
 70
     1
102
RTVSPost2010Prop45
280
     0
102
RTVSPost2010PropOp45
 70
     1
102
RTVSPost2010Prop46
 90
       50
102
RTVSPost2010PropOp46
 70
     1
102
RTVSPost2010Prop47
 90
       50
102
RTVSPost2010PropOp47
 70
     1
102
RTVSPost2010Prop48
 90
       50
102
RTVSPost2010PropOp48
 70
     1
102
RTVSPost2010Prop49
280
     0
102
RTVSPost2010PropOp49
 70
     1
102
RTVSPost2010Prop50
 90
       50
102
RTVSPost2010PropOp50
 70
     1
102
RTVSPost2010Prop51ColorIndex
 90
      256
102
RTVSPost2010Prop51ColorRGB
 90
-16777216
102
RTVSPost2010PropOp51
 70
     0
102
RTVSPost2010Prop52
140
1.0
102
RTVSPost2010PropOp52
 70
     0
102
RTVSPost2010Prop53
 90
        2
102
RTVSPost2010PropOp53
 70
     1
102
RTVSPost2010Prop54
  1
strokes_ogs.tif
102
RTVSPost2010PropOp54
 70
     1
102
RTVSPost2010Prop55
280
     0
102
RTVSPost2010PropOp55
 70
     1
102
RTVSPost2010Prop56
140
1.0
102
RTVSPost2010PropOp56
 70
     1
102
RTVSPost2010Prop57
140
1.0
102
RTVSPost2010PropOp57
 70
     1
102
RTVSPropertyOp0
 70
     1
102
RTVSPropertyOp1
 70
     1
102
RTVSPropertyOp2
 70
     1
102
RTVSPropertyOp3
 70
     1
102
RTVSPropertyOp4
 70
     1
102
RTVSPropertyOp5
 70
     1
102
RTVSPropertyOp6
 70
     1
102
RTVSPropertyOp7
 70
     1
102
RTVSPropertyOp8
 70
     1
102
RTVSPropertyOp9
 70
     1
102
RTVSPropertyOp10
 70
     1
102
RTVSPropertyOp11
 70
     1
102
RTVSPropertyOp12
 70
     1
102
RTVSPropertyOp13
 70
     1
102
RTVSPropertyOp14
 70
     1
102
RTVSPropertyOp15
 70
     1
102
RTVSPropertyOp16
 70
     1
102
RTVSPropertyOp17
 70
     1
102
RTVSPropertyOp18
 70
     1
102
RTVSPropertyOp19
 70
     1
102
RTVSPropertyOp20
 70
     1
102
RTVSPropertyOp21
 70
     1
102
RTVSPropertyOp22
 70
     1
102
RTVSPropertyOp23
 70
     1
102
RTVSPropertyOp24
 70
     1
102
RTVSPropertyOp25
 70
     1
102
RTVSPropertyOp26
 70
     1
102
RTVSPropertyOp27
 70
     1
102
RTVSPropertyOp28
 70
     1
102
RTVSPropertyOp29
 70
     1
102
RTVSPropertyOp30
 70
     1
102
RTVSPropertyOp31
 70
     1
102
RTVSPropertyOp32
 70
     1
102
RTVSPropertyOp33
 70
     1
102
RTVSPropertyOp34
 70
     1
102
RTVSPropertyOp35
 70
     1
102
RTVSPropertyOp36
 70
     1
102
RTVSPropertyOp37
 70
     1
102
RTVSPropertyOp38
 70
     1
102
RTVSPropertyOp39
 70
     1
102
RTVSPropertyOp40
 70
     1
102
RTVSPropertyOp41
 70
     1
102
RTVSPropertyOp42
 70
     1
102
RTVSPropertyOp43
 70
     1
102
RTVSPropertyOp44
 70
     1
102
RTVSPropertyOp45
 70
     1
102
RTVSPropertyOp46
 70
     1
102
RTVSPropertyOp47
 70
     1
102
RTVSPropertyOp48
 70
     1
102
RTVSPropertyOp49
 70
     1
102
RTVSPropertyOp50
 70
     1
102
RTVSPropertyOp51
 70
     0
102
RTVSPropertyOp52
 70
     0
102
RTVSPropertyOp53
 70
     1
102
RTVSPropertyOp54
 70
     1
102
RTVSPropertyOp55
 70
     1
102
RTVSPropertyOp56
 70
     1
102
RTVSPropertyOp57
 70
     1
102
RTVSPropertyOp58
 70
     1
102
RTVSPropertyOp59
 70
     1
102
RTVSPropertyOp60
 70
     1
102
RTVSPropertyOp61
 70
     1
102
RTVSPropertyOp62
 70
     1
  0
XRECORD
  5
10FD
102
{ACAD_REACTORS
330
10FC
102
}
330
10FC
100
AcDbXrecord
280
     1
102
RTVSPost2010Prop28
280
     0
102
RTVSPost2010PropOp28
 70
     1
102
RTVSPost2010Prop29
280
     1
102
RTVSPost2010PropOp29
 70
     1
102
RTVSPost2010Prop30
280
     1
102
RTVSPost2010PropOp30
 70
     1
102
RTVSPost2010Prop31
280
     0
102
RTVSPost2010PropOp31
 70
     1
102
RTVSPost2010Prop32
280
     0
102
RTVSPost2010PropOp32
 70
     1
102
RTVSPost2010Prop33
280
     0
102
RTVSPost2010PropOp33
 70
     1
102
RTVSPost2010Prop34
280
     0
102
RTVSPost2010PropOp34
 70
     1
102
RTVSPost2010Prop35
280
     0
102
RTVSPost2010PropOp35
 70
     1
102
RTVSPost2010Prop36
280
     0
102
RTVSPost2010PropOp36
 70
     1
102
RTVSPost2010Prop37
 90
       50
102
RTVSPost2010PropOp37
 70
     1
102
RTVSPost2010Prop38
140
0.0
102
RTVSPost2010PropOp38
 70
     1
102
RTVSPost2010Prop39
140
1.0
102
RTVSPost2010PropOp39
 70
     1
102
RTVSPost2010Prop40
 90
        0
102
RTVSPost2010PropOp40
 70
     1
102
RTVSPost2010Prop41ColorIndex
 90
       18
102
RTVSPost2010Prop41ColorRGB
 90
        0
102
RTVSPost2010PropOp41
 70
     1
102
RTVSPost2010Prop42
 90
       50
102
RTVSPost2010PropOp42
 70
     1
102
RTVSPost2010Prop43
 90
        3
102
RTVSPost2010PropOp43
 70
     1
102
RTVSPost2010Prop44ColorIndex
 90
        5
102
RTVSPost2010Prop44ColorRGB
 90
      255
102
RTVSPost2010PropOp44
 70
     1
102
RTVSPost2010Prop45
280
     0
102
RTVSPost2010PropOp45
 70
     1
102
RTVSPost2010Prop46
 90
       50
102
RTVSPost2010PropOp46
 70
     1
102
RTVSPost2010Prop47
 90
       50
102
RTVSPost2010PropOp47
 70
     1
102
RTVSPost2010Prop48
 90
       50
102
RTVSPost2010PropOp48
 70
     1
102
RTVSPost2010Prop49
280
     0
102
RTVSPost2010PropOp49
 70
     1
102
RTVSPost2010Prop50
 90
       50
102
RTVSPost2010PropOp50
 70
     1
102
RTVSPost2010Prop51ColorIndex
 90
      256
102
RTVSPost2010Prop51ColorRGB
 90
-16777216
102
RTVSPost2010PropOp51
 70
     0
102
RTVSPost2010Prop52
140
1.0
102
RTVSPost2010PropOp52
 70
     0
102
RTVSPost2010Prop53
 90
        2
102
RTVSPost2010PropOp53
 70
     1
102
RTVSPost2010Prop54
  1
strokes_ogs.tif
102
RTVSPost2010PropOp54
 70
     1
102
RTVSPost2010Prop55
280
     0
102
RTVSPost2010PropOp55
 70
     1
102
RTVSPost2010Prop56
140
1.0
102
RTVSPost2010PropOp56
 70
     1
102
RTVSPost2010Prop57
140
1.0
102
RTVSPost2010PropOp57
 70
     1
102
RTVSPropertyOp0
 70
     1
102
RTVSPropertyOp1
 70
     1
102
RTVSPropertyOp2
 70
     1
102
RTVSPropertyOp3
 70
     1
102
RTVSPropertyOp4
 70
     1
102
RTVSPropertyOp5
 70
     1
102
RTVSPropertyOp6
 70
     1
102
RTVSPropertyOp7
 70
     1
102
RTVSPropertyOp8
 70
     1
102
RTVSPropertyOp9
 70
     1
102
RTVSPropertyOp10
 70
     1
102
RTVSPropertyOp11
 70
     1
102
RTVSPropertyOp12
 70
     1
102
RTVSPropertyOp13
 70
     1
102
RTVSPropertyOp14
 70
     1
102
RTVSPropertyOp15
 70
     1
102
RTVSPropertyOp16
 70
     1
102
RTVSPropertyOp17
 70
     1
102
RTVSPropertyOp18
 70
     1
102
RTVSPropertyOp19
 70
     1
102
RTVSPropertyOp20
 70
     1
102
RTVSPropertyOp21
 70
     1
102
RTVSPropertyOp22
 70
     1
102
RTVSPropertyOp23
 70
     1
102
RTVSPropertyOp24
 70
     1
102
RTVSPropertyOp25
 70
     1
102
RTVSPropertyOp26
 70
     1
102
RTVSPropertyOp27
 70
     1
102
RTVSPropertyOp28
 70
     1
102
RTVSPropertyOp29
 70
     1
102
RTVSPropertyOp30
 70
     1
102
RTVSPropertyOp31
 70
     1
102
RTVSPropertyOp32
 70
     1
102
RTVSPropertyOp33
 70
     1
102
RTVSPropertyOp34
 70
     1
102
RTVSPropertyOp35
 70
     1
102
RTVSPropertyOp36
 70
     1
102
RTVSPropertyOp37
 70
     1
102
RTVSPropertyOp38
 70
     1
102
RTVSPropertyOp39
 70
     1
102
RTVSPropertyOp40
 70
     1
102
RTVSPropertyOp41
 70
     1
102
RTVSPropertyOp42
 70
     1
102
RTVSPropertyOp43
 70
     1
102
RTVSPropertyOp44
 70
     1
102
RTVSPropertyOp45
 70
     1
102
RTVSPropertyOp46
 70
     1
102
RTVSPropertyOp47
 70
     1
102
RTVSPropertyOp48
 70
     1
102
RTVSPropertyOp49
 70
     1
102
RTVSPropertyOp50
 70
     1
102
RTVSPropertyOp51
 70
     0
102
RTVSPropertyOp52
 70
     0
102
RTVSPropertyOp53
 70
     1
102
RTVSPropertyOp54
 70
     1
102
RTVSPropertyOp55
 70
     1
102
RTVSPropertyOp56
 70
     1
102
RTVSPropertyOp57
 70
     1
102
RTVSPropertyOp58
 70
     1
102
RTVSPropertyOp59
 70
     1
102
RTVSPropertyOp60
 70
     1
102
RTVSPropertyOp61
 70
     1
102
RTVSPropertyOp62
 70
     1
  0
XRECORD
  5
10FF
102
{ACAD_REACTORS
330
10FE
102
}
330
10FE
100
AcDbXrecord
280
     1
102
RTVSPost2010Prop28
280
     0
102
RTVSPost2010PropOp28
 70
     1
102
RTVSPost2010Prop29
280
     1
102
RTVSPost2010PropOp29
 70
     1
102
RTVSPost2010Prop30
280
     1
102
RTVSPost2010PropOp30
 70
     1
102
RTVSPost2010Prop31
280
     0
102
RTVSPost2010PropOp31
 70
     1
102
RTVSPost2010Prop32
280
     0
102
RTVSPost2010PropOp32
 70
     1
102
RTVSPost2010Prop33
280
     0
102
RTVSPost2010PropOp33
 70
     1
102
RTVSPost2010Prop34
280
     0
102
RTVSPost2010PropOp34
 70
     1
102
RTVSPost2010Prop35
280
     0
102
RTVSPost2010PropOp35
 70
     1
102
RTVSPost2010Prop36
280
     0
102
RTVSPost2010PropOp36
 70
     1
102
RTVSPost2010Prop37
 90
       50
102
RTVSPost2010PropOp37
 70
     1
102
RTVSPost2010Prop38
140
0.0
102
RTVSPost2010PropOp38
 70
     1
102
RTVSPost2010Prop39
140
1.0
102
RTVSPost2010PropOp39
 70
     1
102
RTVSPost2010Prop40
 90
        0
102
RTVSPost2010PropOp40
 70
     1
102
RTVSPost2010Prop41ColorIndex
 90
       18
102
RTVSPost2010Prop41ColorRGB
 90
        0
102
RTVSPost2010PropOp41
 70
     1
102
RTVSPost2010Prop42
 90
       50
102
RTVSPost2010PropOp42
 70
     1
102
RTVSPost2010Prop43
 90
        3
102
RTVSPost2010PropOp43
 70
     1
102
RTVSPost2010Prop44ColorIndex
 90
        5
102
RTVSPost2010Prop44ColorRGB
 90
      255
102
RTVSPost2010PropOp44
 70
     1
102
RTVSPost2010Prop45
280
     0
102
RTVSPost2010PropOp45
 70
     1
102
RTVSPost2010Prop46
 90
       50
102
RTVSPost2010PropOp46
 70
     1
102
RTVSPost2010Prop47
 90
       50
102
RTVSPost2010PropOp47
 70
     1
102
RTVSPost2010Prop48
 90
       50
102
RTVSPost2010PropOp48
 70
     1
102
RTVSPost2010Prop49
280
     0
102
RTVSPost2010PropOp49
 70
     1
102
RTVSPost2010Prop50
 90
       50
102
RTVSPost2010PropOp50
 70
     1
102
RTVSPost2010Prop51ColorIndex
 90
      256
102
RTVSPost2010Prop51ColorRGB
 90
-16777216
102
RTVSPost2010PropOp51
 70
     0
102
RTVSPost2010Prop52
140
1.0
102
RTVSPost2010PropOp52
 70
     0
102
RTVSPost2010Prop53
 90
        2
102
RTVSPost2010PropOp53
 70
     1
102
RTVSPost2010Prop54
  1
strokes_ogs.tif
102
RTVSPost2010PropOp54
 70
     1
102
RTVSPost2010Prop55
280
     0
102
RTVSPost2010PropOp55
 70
     1
102
RTVSPost2010Prop56
140
1.0
102
RTVSPost2010PropOp56
 70
     1
102
RTVSPost2010Prop57
140
1.0
102
RTVSPost2010PropOp57
 70
     1
102
RTVSPropertyOp0
 70
     1
102
RTVSPropertyOp1
 70
     1
102
RTVSPropertyOp2
 70
     1
102
RTVSPropertyOp3
 70
     1
102
RTVSPropertyOp4
 70
     1
102
RTVSPropertyOp5
 70
     1
102
RTVSPropertyOp6
 70
     1
102
RTVSPropertyOp7
 70
     1
102
RTVSPropertyOp8
 70
     1
102
RTVSPropertyOp9
 70
     1
102
RTVSPropertyOp10
 70
     1
102
RTVSPropertyOp11
 70
     1
102
RTVSPropertyOp12
 70
     1
102
RTVSPropertyOp13
 70
     1
102
RTVSPropertyOp14
 70
     1
102
RTVSPropertyOp15
 70
     1
102
RTVSPropertyOp16
 70
     1
102
RTVSPropertyOp17
 70
     1
102
RTVSPropertyOp18
 70
     1
102
RTVSPropertyOp19
 70
     1
102
RTVSPropertyOp20
 70
     1
102
RTVSPropertyOp21
 70
     1
102
RTVSPropertyOp22
 70
     1
102
RTVSPropertyOp23
 70
     1
102
RTVSPropertyOp24
 70
     1
102
RTVSPropertyOp25
 70
     1
102
RTVSPropertyOp26
 70
     1
102
RTVSPropertyOp27
 70
     1
102
RTVSPropertyOp28
 70
     1
102
RTVSPropertyOp29
 70
     1
102
RTVSPropertyOp30
 70
     1
102
RTVSPropertyOp31
 70
     1
102
RTVSPropertyOp32
 70
     1
102
RTVSPropertyOp33
 70
     1
102
RTVSPropertyOp34
 70
     1
102
RTVSPropertyOp35
 70
     1
102
RTVSPropertyOp36
 70
     1
102
RTVSPropertyOp37
 70
     1
102
RTVSPropertyOp38
 70
     1
102
RTVSPropertyOp39
 70
     1
102
RTVSPropertyOp40
 70
     1
102
RTVSPropertyOp41
 70
     1
102
RTVSPropertyOp42
 70
     1
102
RTVSPropertyOp43
 70
     1
102
RTVSPropertyOp44
 70
     1
102
RTVSPropertyOp45
 70
     1
102
RTVSPropertyOp46
 70
     1
102
RTVSPropertyOp47
 70
     1
102
RTVSPropertyOp48
 70
     1
102
RTVSPropertyOp49
 70
     1
102
RTVSPropertyOp50
 70
     1
102
RTVSPropertyOp51
 70
     0
102
RTVSPropertyOp52
 70
     0
102
RTVSPropertyOp53
 70
     1
102
RTVSPropertyOp54
 70
     1
102
RTVSPropertyOp55
 70
     1
102
RTVSPropertyOp56
 70
     1
102
RTVSPropertyOp57
 70
     1
102
RTVSPropertyOp58
 70
     1
102
RTVSPropertyOp59
 70
     1
102
RTVSPropertyOp60
 70
     1
102
RTVSPropertyOp61
 70
     1
102
RTVSPropertyOp62
 70
     1
  0
XRECORD
  5
10F5
102
{ACAD_REACTORS
330
10F4
102
}
330
10F4
100
AcDbXrecord
280
     1
102
RTVSPost2010Prop28
280
     0
102
RTVSPost2010PropOp28
 70
     1
102
RTVSPost2010Prop29
280
     1
102
RTVSPost2010PropOp29
 70
     1
102
RTVSPost2010Prop30
280
     1
102
RTVSPost2010PropOp30
 70
     1
102
RTVSPost2010Prop31
280
     0
102
RTVSPost2010PropOp31
 70
     1
102
RTVSPost2010Prop32
280
     0
102
RTVSPost2010PropOp32
 70
     1
102
RTVSPost2010Prop33
280
     0
102
RTVSPost2010PropOp33
 70
     1
102
RTVSPost2010Prop34
280
     0
102
RTVSPost2010PropOp34
 70
     1
102
RTVSPost2010Prop35
280
     0
102
RTVSPost2010PropOp35
 70
     1
102
RTVSPost2010Prop36
280
     0
102
RTVSPost2010PropOp36
 70
     1
102
RTVSPost2010Prop37
 90
       50
102
RTVSPost2010PropOp37
 70
     1
102
RTVSPost2010Prop38
140
0.0
102
RTVSPost2010PropOp38
 70
     1
102
RTVSPost2010Prop39
140
1.0
102
RTVSPost2010PropOp39
 70
     1
102
RTVSPost2010Prop40
 90
        0
102
RTVSPost2010PropOp40
 70
     1
102
RTVSPost2010Prop41ColorIndex
 90
       18
102
RTVSPost2010Prop41ColorRGB
 90
        0
102
RTVSPost2010PropOp41
 70
     1
102
RTVSPost2010Prop42
 90
       50
102
RTVSPost2010PropOp42
 70
     1
102
RTVSPost2010Prop43
 90
        3
102
RTVSPost2010PropOp43
 70
     1
102
RTVSPost2010Prop44ColorIndex
 90
        5
102
RTVSPost2010Prop44ColorRGB
 90
      255
102
RTVSPost2010PropOp44
 70
     1
102
RTVSPost2010Prop45
280
     0
102
RTVSPost2010PropOp45
 70
     1
102
RTVSPost2010Prop46
 90
       50
102
RTVSPost2010PropOp46
 70
     1
102
RTVSPost2010Prop47
 90
       50
102
RTVSPost2010PropOp47
 70
     1
102
RTVSPost2010Prop48
 90
       50
102
RTVSPost2010PropOp48
 70
     1
102
RTVSPost2010Prop49
280
     0
102
RTVSPost2010PropOp49
 70
     1
102
RTVSPost2010Prop50
 90
       50
102
RTVSPost2010PropOp50
 70
     1
102
RTVSPost2010Prop51ColorIndex
 90
      256
102
RTVSPost2010Prop51ColorRGB
 90
-16777216
102
RTVSPost2010PropOp51
 70
     0
102
RTVSPost2010Prop52
140
1.0
102
RTVSPost2010PropOp52
 70
     0
102
RTVSPost2010Prop53
 90
        2
102
RTVSPost2010PropOp53
 70
     1
102
RTVSPost2010Prop54
  1
strokes_ogs.tif
102
RTVSPost2010PropOp54
 70
     1
102
RTVSPost2010Prop55
280
     0
102
RTVSPost2010PropOp55
 70
     1
102
RTVSPost2010Prop56
140
1.0
102
RTVSPost2010PropOp56
 70
     1
102
RTVSPost2010Prop57
140
1.0
102
RTVSPost2010PropOp57
 70
     1
102
RTVSPropertyOp0
 70
     1
102
RTVSPropertyOp1
 70
     1
102
RTVSPropertyOp2
 70
     1
102
RTVSPropertyOp3
 70
     1
102
RTVSPropertyOp4
 70
     1
102
RTVSPropertyOp5
 70
     1
102
RTVSPropertyOp6
 70
     1
102
RTVSPropertyOp7
 70
     1
102
RTVSPropertyOp8
 70
     1
102
RTVSPropertyOp9
 70
     1
102
RTVSPropertyOp10
 70
     1
102
RTVSPropertyOp11
 70
     1
102
RTVSPropertyOp12
 70
     1
102
RTVSPropertyOp13
 70
     1
102
RTVSPropertyOp14
 70
     1
102
RTVSPropertyOp15
 70
     1
102
RTVSPropertyOp16
 70
     1
102
RTVSPropertyOp17
 70
     1
102
RTVSPropertyOp18
 70
     1
102
RTVSPropertyOp19
 70
     1
102
RTVSPropertyOp20
 70
     1
102
RTVSPropertyOp21
 70
     1
102
RTVSPropertyOp22
 70
     1
102
RTVSPropertyOp23
 70
     1
102
RTVSPropertyOp24
 70
     1
102
RTVSPropertyOp25
 70
     1
102
RTVSPropertyOp26
 70
     1
102
RTVSPropertyOp27
 70
     1
102
RTVSPropertyOp28
 70
     1
102
RTVSPropertyOp29
 70
     1
102
RTVSPropertyOp30
 70
     1
102
RTVSPropertyOp31
 70
     1
102
RTVSPropertyOp32
 70
     1
102
RTVSPropertyOp33
 70
     1
102
RTVSPropertyOp34
 70
     1
102
RTVSPropertyOp35
 70
     1
102
RTVSPropertyOp36
 70
     1
102
RTVSPropertyOp37
 70
     1
102
RTVSPropertyOp38
 70
     1
102
RTVSPropertyOp39
 70
     1
102
RTVSPropertyOp40
 70
     1
102
RTVSPropertyOp41
 70
     1
102
RTVSPropertyOp42
 70
     1
102
RTVSPropertyOp43
 70
     1
102
RTVSPropertyOp44
 70
     1
102
RTVSPropertyOp45
 70
     1
102
RTVSPropertyOp46
 70
     1
102
RTVSPropertyOp47
 70
     1
102
RTVSPropertyOp48
 70
     1
102
RTVSPropertyOp49
 70
     1
102
RTVSPropertyOp50
 70
     1
102
RTVSPropertyOp51
 70
     0
102
RTVSPropertyOp52
 70
     0
102
RTVSPropertyOp53
 70
     1
102
RTVSPropertyOp54
 70
     1
102
RTVSPropertyOp55
 70
     1
102
RTVSPropertyOp56
 70
     1
102
RTVSPropertyOp57
 70
     1
102
RTVSPropertyOp58
 70
     1
102
RTVSPropertyOp59
 70
     1
102
RTVSPropertyOp60
 70
     1
102
RTVSPropertyOp61
 70
     1
102
RTVSPropertyOp62
 70
     1
  0
XRECORD
  5
10E9
102
{ACAD_REACTORS
330
10E8
102
}
330
10E8
100
AcDbXrecord
280
     1
102
RTVSPost2010Prop28
280
     0
102
RTVSPost2010PropOp28
 70
     1
102
RTVSPost2010Prop29
280
     1
102
RTVSPost2010PropOp29
 70
     1
102
RTVSPost2010Prop30
280
     1
102
RTVSPost2010PropOp30
 70
     1
102
RTVSPost2010Prop31
280
     0
102
RTVSPost2010PropOp31
 70
     1
102
RTVSPost2010Prop32
280
     0
102
RTVSPost2010PropOp32
 70
     1
102
RTVSPost2010Prop33
280
     0
102
RTVSPost2010PropOp33
 70
     1
102
RTVSPost2010Prop34
280
     0
102
RTVSPost2010PropOp34
 70
     1
102
RTVSPost2010Prop35
280
     0
102
RTVSPost2010PropOp35
 70
     1
102
RTVSPost2010Prop36
280
     0
102
RTVSPost2010PropOp36
 70
     1
102
RTVSPost2010Prop37
 90
       50
102
RTVSPost2010PropOp37
 70
     1
102
RTVSPost2010Prop38
140
0.0
102
RTVSPost2010PropOp38
 70
     1
102
RTVSPost2010Prop39
140
1.0
102
RTVSPost2010PropOp39
 70
     1
102
RTVSPost2010Prop40
 90
        0
102
RTVSPost2010PropOp40
 70
     1
102
RTVSPost2010Prop41ColorIndex
 90
       18
102
RTVSPost2010Prop41ColorRGB
 90
        0
102
RTVSPost2010PropOp41
 70
     1
102
RTVSPost2010Prop42
 90
       50
102
RTVSPost2010PropOp42
 70
     1
102
RTVSPost2010Prop43
 90
        3
102
RTVSPost2010PropOp43
 70
     1
102
RTVSPost2010Prop44ColorIndex
 90
        5
102
RTVSPost2010Prop44ColorRGB
 90
      255
102
RTVSPost2010PropOp44
 70
     1
102
RTVSPost2010Prop45
280
     0
102
RTVSPost2010PropOp45
 70
     1
102
RTVSPost2010Prop46
 90
       50
102
RTVSPost2010PropOp46
 70
     1
102
RTVSPost2010Prop47
 90
       50
102
RTVSPost2010PropOp47
 70
     1
102
RTVSPost2010Prop48
 90
       50
102
RTVSPost2010PropOp48
 70
     1
102
RTVSPost2010Prop49
280
     0
102
RTVSPost2010PropOp49
 70
     1
102
RTVSPost2010Prop50
 90
       50
102
RTVSPost2010PropOp50
 70
     1
102
RTVSPost2010Prop51ColorIndex
 90
      256
102
RTVSPost2010Prop51ColorRGB
 90
-16777216
102
RTVSPost2010PropOp51
 70
     0
102
RTVSPost2010Prop52
140
1.0
102
RTVSPost2010PropOp52
 70
     0
102
RTVSPost2010Prop53
 90
        2
102
RTVSPost2010PropOp53
 70
     1
102
RTVSPost2010Prop54
  1
strokes_ogs.tif
102
RTVSPost2010PropOp54
 70
     1
102
RTVSPost2010Prop55
280
     0
102
RTVSPost2010PropOp55
 70
     1
102
RTVSPost2010Prop56
140
1.0
102
RTVSPost2010PropOp56
 70
     1
102
RTVSPost2010Prop57
140
1.0
102
RTVSPost2010PropOp57
 70
     1
102
RTVSPropertyOp0
 70
     1
102
RTVSPropertyOp1
 70
     1
102
RTVSPropertyOp2
 70
     1
102
RTVSPropertyOp3
 70
     1
102
RTVSPropertyOp4
 70
     1
102
RTVSPropertyOp5
 70
     1
102
RTVSPropertyOp6
 70
     1
102
RTVSPropertyOp7
 70
     1
102
RTVSPropertyOp8
 70
     1
102
RTVSPropertyOp9
 70
     1
102
RTVSPropertyOp10
 70
     1
102
RTVSPropertyOp11
 70
     1
102
RTVSPropertyOp12
 70
     1
102
RTVSPropertyOp13
 70
     1
102
RTVSPropertyOp14
 70
     1
102
RTVSPropertyOp15
 70
     1
102
RTVSPropertyOp16
 70
     1
102
RTVSPropertyOp17
 70
     1
102
RTVSPropertyOp18
 70
     1
102
RTVSPropertyOp19
 70
     1
102
RTVSPropertyOp20
 70
     1
102
RTVSPropertyOp21
 70
     1
102
RTVSPropertyOp22
 70
     1
102
RTVSPropertyOp23
 70
     1
102
RTVSPropertyOp24
 70
     1
102
RTVSPropertyOp25
 70
     1
102
RTVSPropertyOp26
 70
     1
102
RTVSPropertyOp27
 70
     1
102
RTVSPropertyOp28
 70
     1
102
RTVSPropertyOp29
 70
     1
102
RTVSPropertyOp30
 70
     1
102
RTVSPropertyOp31
 70
     1
102
RTVSPropertyOp32
 70
     1
102
RTVSPropertyOp33
 70
     1
102
RTVSPropertyOp34
 70
     1
102
RTVSPropertyOp35
 70
     1
102
RTVSPropertyOp36
 70
     1
102
RTVSPropertyOp37
 70
     1
102
RTVSPropertyOp38
 70
     1
102
RTVSPropertyOp39
 70
     1
102
RTVSPropertyOp40
 70
     1
102
RTVSPropertyOp41
 70
     1
102
RTVSPropertyOp42
 70
     1
102
RTVSPropertyOp43
 70
     1
102
RTVSPropertyOp44
 70
     1
102
RTVSPropertyOp45
 70
     1
102
RTVSPropertyOp46
 70
     1
102
RTVSPropertyOp47
 70
     1
102
RTVSPropertyOp48
 70
     1
102
RTVSPropertyOp49
 70
     1
102
RTVSPropertyOp50
 70
     1
102
RTVSPropertyOp51
 70
     0
102
RTVSPropertyOp52
 70
     0
102
RTVSPropertyOp53
 70
     1
102
RTVSPropertyOp54
 70
     1
102
RTVSPropertyOp55
 70
     1
102
RTVSPropertyOp56
 70
     1
102
RTVSPropertyOp57
 70
     1
102
RTVSPropertyOp58
 70
     1
102
RTVSPropertyOp59
 70
     1
102
RTVSPropertyOp60
 70
     1
102
RTVSPropertyOp61
 70
     1
102
RTVSPropertyOp62
 70
     1
  0
XRECORD
  5
1101
102
{ACAD_REACTORS
330
1100
102
}
330
1100
100
AcDbXrecord
280
     1
102
RTVSPost2010Prop28
280
     0
102
RTVSPost2010PropOp28
 70
     1
102
RTVSPost2010Prop29
280
     1
102
RTVSPost2010PropOp29
 70
     1
102
RTVSPost2010Prop30
280
     1
102
RTVSPost2010PropOp30
 70
     1
102
RTVSPost2010Prop31
280
     0
102
RTVSPost2010PropOp31
 70
     1
102
RTVSPost2010Prop32
280
     0
102
RTVSPost2010PropOp32
 70
     1
102
RTVSPost2010Prop33
280
     0
102
RTVSPost2010PropOp33
 70
     1
102
RTVSPost2010Prop34
280
     0
102
RTVSPost2010PropOp34
 70
     1
102
RTVSPost2010Prop35
280
     0
102
RTVSPost2010PropOp35
 70
     1
102
RTVSPost2010Prop36
280
     0
102
RTVSPost2010PropOp36
 70
     1
102
RTVSPost2010Prop37
 90
       50
102
RTVSPost2010PropOp37
 70
     1
102
RTVSPost2010Prop38
140
0.0
102
RTVSPost2010PropOp38
 70
     1
102
RTVSPost2010Prop39
140
1.0
102
RTVSPost2010PropOp39
 70
     1
102
RTVSPost2010Prop40
 90
        0
102
RTVSPost2010PropOp40
 70
     1
102
RTVSPost2010Prop41ColorIndex
 90
       18
102
RTVSPost2010Prop41ColorRGB
 90
        0
102
RTVSPost2010PropOp41
 70
     1
102
RTVSPost2010Prop42
 90
       50
102
RTVSPost2010PropOp42
 70
     1
102
RTVSPost2010Prop43
 90
        3
102
RTVSPost2010PropOp43
 70
     1
102
RTVSPost2010Prop44ColorIndex
 90
        5
102
RTVSPost2010Prop44ColorRGB
 90
      255
102
RTVSPost2010PropOp44
 70
     1
102
RTVSPost2010Prop45
280
     0
102
RTVSPost2010PropOp45
 70
     1
102
RTVSPost2010Prop46
 90
       50
102
RTVSPost2010PropOp46
 70
     1
102
RTVSPost2010Prop47
 90
       50
102
RTVSPost2010PropOp47
 70
     1
102
RTVSPost2010Prop48
 90
       50
102
RTVSPost2010PropOp48
 70
     1
102
RTVSPost2010Prop49
280
     0
102
RTVSPost2010PropOp49
 70
     1
102
RTVSPost2010Prop50
 90
       50
102
RTVSPost2010PropOp50
 70
     1
102
RTVSPost2010Prop51ColorIndex
 90
      256
102
RTVSPost2010Prop51ColorRGB
 90
-16777216
102
RTVSPost2010PropOp51
 70
     0
102
RTVSPost2010Prop52
140
1.0
102
RTVSPost2010PropOp52
 70
     0
102
RTVSPost2010Prop53
 90
        2
102
RTVSPost2010PropOp53
 70
     1
102
RTVSPost2010Prop54
  1
strokes_ogs.tif
102
RTVSPost2010PropOp54
 70
     1
102
RTVSPost2010Prop55
280
     0
102
RTVSPost2010PropOp55
 70
     1
102
RTVSPost2010Prop56
140
1.0
102
RTVSPost2010PropOp56
 70
     1
102
RTVSPost2010Prop57
140
1.0
102
RTVSPost2010PropOp57
 70
     1
102
RTVSPropertyOp0
 70
     1
102
RTVSPropertyOp1
 70
     1
102
RTVSPropertyOp2
 70
     1
102
RTVSPropertyOp3
 70
     1
102
RTVSPropertyOp4
 70
     1
102
RTVSPropertyOp5
 70
     1
102
RTVSPropertyOp6
 70
     1
102
RTVSPropertyOp7
 70
     1
102
RTVSPropertyOp8
 70
     1
102
RTVSPropertyOp9
 70
     1
102
RTVSPropertyOp10
 70
     1
102
RTVSPropertyOp11
 70
     1
102
RTVSPropertyOp12
 70
     1
102
RTVSPropertyOp13
 70
     1
102
RTVSPropertyOp14
 70
     1
102
RTVSPropertyOp15
 70
     1
102
RTVSPropertyOp16
 70
     1
102
RTVSPropertyOp17
 70
     1
102
RTVSPropertyOp18
 70
     1
102
RTVSPropertyOp19
 70
     1
102
RTVSPropertyOp20
 70
     1
102
RTVSPropertyOp21
 70
     1
102
RTVSPropertyOp22
 70
     1
102
RTVSPropertyOp23
 70
     1
102
RTVSPropertyOp24
 70
     1
102
RTVSPropertyOp25
 70
     1
102
RTVSPropertyOp26
 70
     1
102
RTVSPropertyOp27
 70
     1
102
RTVSPropertyOp28
 70
     1
102
RTVSPropertyOp29
 70
     1
102
RTVSPropertyOp30
 70
     1
102
RTVSPropertyOp31
 70
     1
102
RTVSPropertyOp32
 70
     1
102
RTVSPropertyOp33
 70
     1
102
RTVSPropertyOp34
 70
     1
102
RTVSPropertyOp35
 70
     1
102
RTVSPropertyOp36
 70
     1
102
RTVSPropertyOp37
 70
     1
102
RTVSPropertyOp38
 70
     1
102
RTVSPropertyOp39
 70
     1
102
RTVSPropertyOp40
 70
     1
102
RTVSPropertyOp41
 70
     1
102
RTVSPropertyOp42
 70
     1
102
RTVSPropertyOp43
 70
     1
102
RTVSPropertyOp44
 70
     1
102
RTVSPropertyOp45
 70
     1
102
RTVSPropertyOp46
 70
     1
102
RTVSPropertyOp47
 70
     1
102
RTVSPropertyOp48
 70
     1
102
RTVSPropertyOp49
 70
     1
102
RTVSPropertyOp50
 70
     1
102
RTVSPropertyOp51
 70
     0
102
RTVSPropertyOp52
 70
     0
102
RTVSPropertyOp53
 70
     1
102
RTVSPropertyOp54
 70
     1
102
RTVSPropertyOp55
 70
     1
102
RTVSPropertyOp56
 70
     1
102
RTVSPropertyOp57
 70
     1
102
RTVSPropertyOp58
 70
     1
102
RTVSPropertyOp59
 70
     1
102
RTVSPropertyOp60
 70
     1
102
RTVSPropertyOp61
 70
     1
102
RTVSPropertyOp62
 70
     1
  0
ENDSEC
  0
EOF
