  0
SECTION
  2
HEADER
  9
$ACADVER
  1
AC1018
  9
$ACADMAINTVER
 70
     2
  9
$DWGCODEPAGE
  3
ANSI_1252
  9
$INSBASE
 10
0.0
 20
0.0
 30
0.0
  9
$EXTMIN
 10
0.0
 20
0.0
 30
0.0
  9
$EXTMAX
 10
594.0
 20
840.0000000000002
 30
0.0
  9
$LIMMIN
 10
0.0
 20
0.0
  9
$LIMMAX
 10
594.0
 20
840.0
  9
$ORTHOMODE
 70
     1
  9
$REGENMODE
 70
     1
  9
$FILLMODE
 70
     1
  9
$QTEXTMODE
 70
     0
  9
$MIRRTEXT
 70
     1
  9
$LTSCALE
 40
20.0
  9
$ATTMODE
 70
     1
  9
$TEXTSIZE
 40
3.5
  9
$TRACEWID
 40
1.0
  9
$TEXTSTYLE
  7
STANDARD
  9
$CLAYER
  8
BEM
  9
$CELTYPE
  6
ByLayer
  9
$CECOLOR
 62
   256
  9
$CELTSCALE
 40
1.0
  9
$DISPSILH
 70
     0
  9
$DIMSCALE
 40
2.0
  9
$DIMASZ
 40
3.5
  9
$DIMEXO
 40
1.0
  9
$DIMDLI
 40
7.0
  9
$DIMRND
 40
0.0
  9
$DIMDLE
 40
0.0
  9
$DIMEXE
 40
1.0
  9
$DIMTP
 40
1.5
  9
$DIMTM
 40
1.5
  9
$DIMTXT
 40
3.5
  9
$DIMCEN
 40
1.5
  9
$DIMTSZ
 40
0.0
  9
$DIMTOL
 70
     0
  9
$DIMLIM
 70
     0
  9
$DIMTIH
 70
     0
  9
$DIMTOH
 70
     0
  9
$DIMSE1
 70
     0
  9
$DIMSE2
 70
     0
  9
$DIMTAD
 70
     1
  9
$DIMZIN
 70
     8
  9
$DIMBLK
  1

  9
$DIMASO
 70
     1
  9
$DIMSHO
 70
     0
  9
$DIMPOST
  1

  9
$DIMAPOST
  1

  9
$DIMALT
 70
     0
  9
$DIMALTD
 70
     2
  9
$DIMALTF
 40
25.4
  9
$DIMLFAC
 40
1.0
  9
$DIMTOFL
 70
     1
  9
$DIMTVP
 40
0.0
  9
$DIMTIX
 70
     0
  9
$DIMSOXD
 70
     0
  9
$DIMSAH
 70
     0
  9
$DIMBLK1
  1

  9
$DIMBLK2
  1

  9
$DIMSTYLE
  2
Standard
  9
$DIMCLRD
 70
     0
  9
$DIMCLRE
 70
     0
  9
$DIMCLRT
 70
     1
  9
$DIMTFAC
 40
1.0
  9
$DIMGAP
 40
1.5
  9
$DIMJUST
 70
     0
  9
$DIMSD1
 70
     0
  9
$DIMSD2
 70
     0
  9
$DIMTOLJ
 70
     1
  9
$DIMTZIN
 70
     8
  9
$DIMALTZ
 70
     8
  9
$DIMALTTZ
 70
     8
  9
$DIMUPT
 70
     0
  9
$DIMDEC
 70
     2
  9
$DIMTDEC
 70
     2
  9
$DIMALTU
 70
     2
  9
$DIMALTTD
 70
     2
  9
$DIMTXSTY
  7
STANDARD
  9
$DIMAUNIT
 70
     0
  9
$DIMADEC
 70
     2
  9
$DIMALTRND
 40
0.0
  9
$DIMAZIN
 70
     2
  9
$DIMDSEP
 70
    46
  9
$DIMATFIT
 70
     3
  9
$DIMFRAC
 70
     0
  9
$DIMLDRBLK
  1

  9
$DIMLUNIT
 70
     2
  9
$DIMLWD
 70
    -2
  9
$DIMLWE
 70
    -2
  9
$DIMTMOVE
 70
     0
  9
$LUNITS
 70
     2
  9
$LUPREC
 70
     2
  9
$SKETCHINC
 40
1.0
  9
$FILLETRAD
 40
3.0
  9
$AUNITS
 70
     0
  9
$AUPREC
 70
     0
  9
$MENU
  1
ACAD
  9
$ELEVATION
 40
0.0
  9
$PELEVATION
 40
0.0
  9
$THICKNESS
 40
0.0
  9
$LIMCHECK
 70
     0
  9
$CHAMFERA
 40
0.0
  9
$CHAMFERB
 40
0.0
  9
$CHAMFERC
 40
0.0
  9
$CHAMFERD
 40
0.0
  9
$SKPOLY
 70
     0
  9
$TDCREATE
 40
2455397.825393172
  9
$TDUCREATE
 40
2455397.783726505
  9
$TDUPDATE
 40
2455531.528093982
  9
$TDUUPDATE
 40
2455531.486427315
  9
$TDINDWG
 40
0.1375022454
  9
$TDUSRTIMER
 40
0.1375022454
  9
$USRTIMER
 70
     1
  9
$ANGBASE
 50
0.0
  9
$ANGDIR
 70
     0
  9
$PDMODE
 70
     0
  9
$PDSIZE
 40
0.0
  9
$PLINEWID
 40
0.0
  9
$SPLFRAME
 70
     0
  9
$SPLINETYPE
 70
     6
  9
$SPLINESEGS
 70
     8
  9
$HANDSEED
  5
C88
  9
$SURFTAB1
 70
     6
  9
$SURFTAB2
 70
     6
  9
$SURFTYPE
 70
     6
  9
$SURFU
 70
     6
  9
$SURFV
 70
     6
  9
$UCSBASE
  2

  9
$UCSNAME
  2

  9
$UCSORG
 10
0.0
 20
0.0
 30
0.0
  9
$UCSXDIR
 10
1.0
 20
0.0
 30
0.0
  9
$UCSYDIR
 10
0.0
 20
1.0
 30
0.0
  9
$UCSORTHOREF
  2

  9
$UCSORTHOVIEW
 70
     0
  9
$UCSORGTOP
 10
0.0
 20
0.0
 30
0.0
  9
$UCSORGBOTTOM
 10
0.0
 20
0.0
 30
0.0
  9
$UCSORGLEFT
 10
0.0
 20
0.0
 30
0.0
  9
$UCSORGRIGHT
 10
0.0
 20
0.0
 30
0.0
  9
$UCSORGFRONT
 10
0.0
 20
0.0
 30
0.0
  9
$UCSORGBACK
 10
0.0
 20
0.0
 30
0.0
  9
$PUCSBASE
  2

  9
$PUCSNAME
  2

  9
$PUCSORG
 10
0.0
 20
0.0
 30
0.0
  9
$PUCSXDIR
 10
1.0
 20
0.0
 30
0.0
  9
$PUCSYDIR
 10
0.0
 20
1.0
 30
0.0
  9
$PUCSORTHOREF
  2

  9
$PUCSORTHOVIEW
 70
     0
  9
$PUCSORGTOP
 10
0.0
 20
0.0
 30
0.0
  9
$PUCSORGBOTTOM
 10
0.0
 20
0.0
 30
0.0
  9
$PUCSORGLEFT
 10
0.0
 20
0.0
 30
0.0
  9
$PUCSORGRIGHT
 10
0.0
 20
0.0
 30
0.0
  9
$PUCSORGFRONT
 10
0.0
 20
0.0
 30
0.0
  9
$PUCSORGBACK
 10
0.0
 20
0.0
 30
0.0
  9
$USERI1
 70
     0
  9
$USERI2
 70
     0
  9
$USERI3
 70
     0
  9
$USERI4
 70
     0
  9
$USERI5
 70
     0
  9
$USERR1
 40
0.0
  9
$USERR2
 40
0.0
  9
$USERR3
 40
0.0
  9
$USERR4
 40
0.0
  9
$USERR5
 40
0.0
  9
$WORLDVIEW
 70
     1
  9
$SHADEDGE
 70
     3
  9
$SHADEDIF
 70
    70
  9
$TILEMODE
 70
     1
  9
$MAXACTVP
 70
    16
  9
$PINSBASE
 10
0.0
 20
0.0
 30
0.0
  9
$PLIMCHECK
 70
     0
  9
$PEXTMIN
 10
1.000000000000000E+20
 20
1.000000000000000E+20
 30
1.000000000000000E+20
  9
$PEXTMAX
 10
-1.000000000000000E+20
 20
-1.000000000000000E+20
 30
-1.000000000000000E+20
  9
$PLIMMIN
 10
0.0
 20
0.0
  9
$PLIMMAX
 10
12.0
 20
9.0
  9
$UNITMODE
 70
     0
  9
$VISRETAIN
 70
     0
  9
$PLINEGEN
 70
     0
  9
$PSLTSCALE
 70
     0
  9
$TREEDEPTH
 70
  3020
  9
$CMLSTYLE
  2
Standard
  9
$CMLJUST
 70
     0
  9
$CMLSCALE
 40
1.0
  9
$PROXYGRAPHICS
 70
     1
  9
$MEASUREMENT
 70
     0
  9
$CELWEIGHT
370
    -1
  9
$ENDCAPS
280
     0
  9
$JOINSTYLE
280
     0
  9
$LWDISPLAY
290
     0
  9
$INSUNITS
 70
     0
  9
$HYPERLINKBASE
  1

  9
$STYLESHEET
  1
monochrome 1.ctb
  9
$XEDIT
290
     1
  9
$CEPSNTYPE
380
     0
  9
$PSTYLEMODE
290
     1
  9
$FINGERPRINTGUID
  2
{D68B0D0D-A558-11D7-B632-000102183313}
  9
$VERSIONGUID
  2
{45A17DC9-2231-4166-BC7D-E37384D2654C}
  9
$EXTNAMES
290
     1
  9
$PSVPSCALE
 40
0.0
  9
$OLESTARTUP
290
     0
  9
$SORTENTS
280
   127
  9
$INDEXCTL
280
     0
  9
$HIDETEXT
280
     0
  9
$XCLIPFRAME
290
     0
  9
$HALOGAP
280
     0
  9
$OBSCOLOR
 70
   257
  9
$OBSLTYPE
280
     0
  9
$INTERSECTIONDISPLAY
280
     0
  9
$INTERSECTIONCOLOR
 70
   257
  9
$DIMASSOC
280
     1
  9
$PROJECTNAME
  1

  0
ENDSEC
  0
SECTION
  2
CLASSES
  0
CLASS
  1
ACDBDICTIONARYWDFLT
  2
AcDbDictionaryWithDefault
  3
ObjectDBX Classes
 90
        0
 91
        1
280
     0
281
     0
  0
CLASS
  1
DICTIONARYVAR
  2
AcDbDictionaryVar
  3
ObjectDBX Classes
 90
        0
 91
        2
280
     0
281
     0
  0
ENDSEC
  0
SECTION
  2
TABLES
  0
TABLE
  2
VPORT
  5
8
330
0
100
AcDbSymbolTable
 70
     2
  0
VPORT
  5
C87
330
8
100
AcDbSymbolTableRecord
100
AcDbViewportTableRecord
  2
*Active
 70
     0
 10
0.0
 20
0.0
 11
1.0
 21
1.0
 12
297.000001383014
 22
420.0000019557777
 13
0.0
 23
0.0
 14
1.0
 24
1.0
 15
10.0
 25
10.0
 16
0.0
 26
0.0
 36
1.0
 17
0.0
 27
0.0
 37
0.0
 40
847.2924498858043
 41
1.336927223719676
 42
50.0
 43
0.0
 44
0.0
 50
0.0
 51
0.0
 71
     0
 72
  1500
 73
     1
 74
     0
 75
     0
 76
     0
 77
     0
 78
     0
281
     0
 65
     1
110
0.0
120
0.0
130
0.0
111
1.0
121
0.0
131
0.0
112
0.0
122
1.0
132
0.0
 79
     0
146
0.0
  0
ENDTAB
  0
TABLE
  2
LTYPE
  5
5
330
0
100
AcDbSymbolTable
 70
     3
  0
LTYPE
  5
13
330
5
100
AcDbSymbolTableRecord
100
AcDbLinetypeTableRecord
  2
ByBlock
 70
     0
  3

 72
    65
 73
     0
 40
0.0
  0
LTYPE
  5
14
330
5
100
AcDbSymbolTableRecord
100
AcDbLinetypeTableRecord
  2
ByLayer
 70
     0
  3

 72
    65
 73
     0
 40
0.0
  0
LTYPE
  5
15
330
5
100
AcDbSymbolTableRecord
100
AcDbLinetypeTableRecord
  2
Continuous
 70
     0
  3
Solid line
 72
    65
 73
     0
 40
0.0
  0
LTYPE
  5
25
330
5
100
AcDbSymbolTableRecord
100
AcDbLinetypeTableRecord
  2
STRICHPUNKT
 70
     0
  3
__ . __ . __ . __ . __ . __ . __ . __ . __ . __
 72
    65
 73
     4
 40
1.0
 49
0.5
 74
     0
 49
-0.25
 74
     0
 49
0.0
 74
     0
 49
-0.25
 74
     0
  0
LTYPE
  5
34
330
5
100
AcDbSymbolTableRecord
100
AcDbLinetypeTableRecord
  2
AUSGEZOGEN
 70
     0
  3
Ausgezogene Linie
 72
    65
 73
     0
 40
0.0
  0
ENDTAB
  0
TABLE
  2
LAYER
  5
2
330
0
100
AcDbSymbolTable
 70
     9
  0
LAYER
  5
10
330
2
100
AcDbSymbolTableRecord
100
AcDbLayerTableRecord
  2
0
 70
     0
 62
     7
  6
Continuous
370
    -3
390
F
  0
LAYER
  5
2B
330
2
100
AcDbSymbolTableRecord
100
AcDbLayerTableRecord
  2
VOLL
 70
     0
 62
     1
  6
Continuous
370
    -3
390
F
  0
LAYER
  5
2C
330
2
100
AcDbSymbolTableRecord
100
AcDbLayerTableRecord
  2
HILF
 70
     0
 62
     2
  6
Continuous
370
    -3
390
F
  0
LAYER
  5
2D
330
2
100
AcDbSymbolTableRecord
100
AcDbLayerTableRecord
  2
MITTEL
 70
     0
 62
     2
  6
STRICHPUNKT
370
    -3
390
F
  0
LAYER
  5
2F
330
2
100
AcDbSymbolTableRecord
100
AcDbLayerTableRecord
  2
BEM
 70
     0
 62
     7
  6
Continuous
370
    -3
390
F
  0
LAYER
  5
30
330
2
100
AcDbSymbolTableRecord
100
AcDbLayerTableRecord
  2
STEMPEL
 70
     0
 62
     3
  6
Continuous
370
    -3
390
F
  0
LAYER
  5
2B8
330
2
100
AcDbSymbolTableRecord
100
AcDbLayerTableRecord
  2
Defpoints
 70
     0
 62
     7
  6
Continuous
290
     0
370
    -3
390
F
  0
LAYER
  5
2B9
330
2
100
AcDbSymbolTableRecord
100
AcDbLayerTableRecord
  2
SCHRAFF
 70
     0
 62
     7
  6
Continuous
370
    -3
390
F
  0
LAYER
  5
2BA
330
2
100
AcDbSymbolTableRecord
100
AcDbLayerTableRecord
  2
TEXT
 70
     0
 62
     7
  6
AUSGEZOGEN
370
    -3
390
F
  0
ENDTAB
  0
TABLE
  2
STYLE
  5
3
330
0
100
AcDbSymbolTable
 70
     2
  0
STYLE
  5
11
330
3
100
AcDbSymbolTableRecord
100
AcDbTextStyleTableRecord
  2
STANDARD
 70
     0
 40
0.0
 41
0.8
 50
0.0
 71
     0
 42
3.5
  3
simplex.shx
  4

  0
STYLE
  5
BEB
330
3
100
AcDbSymbolTableRecord
100
AcDbTextStyleTableRecord
  2
GREEKS
 70
     0
 40
0.0
 41
0.8
 50
0.0
 71
     0
 42
2.5
  3
SIMPLEX.shx
  4

  0
ENDTAB
  0
TABLE
  2
VIEW
  5
6
330
0
100
AcDbSymbolTable
 70
     0
  0
ENDTAB
  0
TABLE
  2
UCS
  5
7
330
0
100
AcDbSymbolTable
 70
     0
  0
ENDTAB
  0
TABLE
  2
APPID
  5
9
330
0
100
AcDbSymbolTable
 70
     1
  0
APPID
  5
12
330
9
100
AcDbSymbolTableRecord
100
AcDbRegAppTableRecord
  2
ACAD
 70
     0
  0
ENDTAB
  0
TABLE
  2
DIMSTYLE
  5
A
330
0
100
AcDbSymbolTable
 70
     1
100
AcDbDimStyleTable
 71
     1
340
A2
  0
DIMSTYLE
105
A2
102
{ACAD_REACTORS
330
A08
330
B4D
330
B5C
330
A22
330
A21
330
9F8
330
9F6
330
A04
102
}
330
A
100
AcDbSymbolTableRecord
100
AcDbDimStyleTableRecord
  2
Standard
 70
     0
340
11
  0
ENDTAB
  0
TABLE
  2
BLOCK_RECORD
  5
1
330
0
100
AcDbSymbolTable
 70
     9
  0
BLOCK_RECORD
  5
1E
102
{ACAD_XDICTIONARY
360
DB
102
}
330
1
100
AcDbSymbolTableRecord
100
AcDbBlockTableRecord
  2
*Model_Space
340
21
  0
BLOCK_RECORD
  5
1A
102
{ACAD_XDICTIONARY
360
DD
102
}
330
1
100
AcDbSymbolTableRecord
100
AcDbBlockTableRecord
  2
*Paper_Space
340
1D
  0
BLOCK_RECORD
  5
22
330
1
100
AcDbSymbolTableRecord
100
AcDbBlockTableRecord
  2
LOGO
340
0
102
{BLKREFS
331
A69
102
}
  0
BLOCK_RECORD
  5
AA7
330
1
100
AcDbSymbolTableRecord
100
AcDbBlockTableRecord
  2
*D1
340
0
  0
BLOCK_RECORD
  5
AB3
330
1
100
AcDbSymbolTableRecord
100
AcDbBlockTableRecord
  2
*D2
340
0
  0
BLOCK_RECORD
  5
ABF
330
1
100
AcDbSymbolTableRecord
100
AcDbBlockTableRecord
  2
*D3
340
0
  0
BLOCK_RECORD
  5
ACB
330
1
100
AcDbSymbolTableRecord
100
AcDbBlockTableRecord
  2
*D4
340
0
  0
BLOCK_RECORD
  5
AD9
330
1
100
AcDbSymbolTableRecord
100
AcDbBlockTableRecord
  2
*D5
340
0
  0
BLOCK_RECORD
  5
AE5
330
1
100
AcDbSymbolTableRecord
100
AcDbBlockTableRecord
  2
*D6
340
0
  0
BLOCK_RECORD
  5
B4E
330
1
100
AcDbSymbolTableRecord
100
AcDbBlockTableRecord
  2
*D7
340
0
  0
BLOCK_RECORD
  5
B5D
330
1
100
AcDbSymbolTableRecord
100
AcDbBlockTableRecord
  2
*D8
340
0
  0
ENDTAB
  0
ENDSEC
  0
SECTION
  2
BLOCKS
  0
BLOCK
  5
37
330
1E
100
AcDbEntity
  8
0
100
AcDbBlockBegin
  2
*Model_Space
 70
     0
 10
0.0
 20
0.0
 30
0.0
  3
*Model_Space
  1

  0
ENDBLK
  5
38
330
1E
100
AcDbEntity
  8
0
100
AcDbBlockEnd
  0
BLOCK
  5
35
330
1A
100
AcDbEntity
 67
     1
  8
0
100
AcDbBlockBegin
  2
*Paper_Space
 70
     0
 10
0.0
 20
0.0
 30
0.0
  3
*Paper_Space
  1

  0
ENDBLK
  5
36
330
1A
100
AcDbEntity
 67
     1
  8
0
100
AcDbBlockEnd
  0
BLOCK
  5
39
330
22
100
AcDbEntity
  8
0
100
AcDbBlockBegin
  2
LOGO
 70
     0
 10
0.0
 20
0.0
 30
0.0
  3
LOGO
  1

  0
ARC
  5
3A
330
22
100
AcDbEntity
  8
0
100
AcDbCircle
 10
11.59973089678112
 20
-9.271599258481501
 30
0.0
 40
4.5
100
AcDbArc
 50
270.0
 51
231.0575587310159
  0
LINE
  5
3B
330
22
100
AcDbEntity
  8
0
100
AcDbLine
 10
3.599730896781125
 20
-4.771599258481529
 30
0.0
 11
3.599730896781153
 21
-11.77159925848133
 31
0.0
  0
LINE
  5
3C
330
22
100
AcDbEntity
  8
0
100
AcDbLine
 10
2.599730896781125
 20
-4.771599258481529
 30
0.0
 11
2.599730896781153
 21
-11.77159925848133
 31
0.0
  0
CIRCLE
  5
3D
330
22
100
AcDbEntity
  8
0
100
AcDbCircle
 10
11.59973089678112
 20
-9.271599258481501
 30
0.0
 40
3.5
  0
ARC
  5
3E
330
22
100
AcDbEntity
  8
0
100
AcDbCircle
 10
31.59973089678115
 20
-9.271599258481472
 30
0.0
 40
4.5
100
AcDbArc
 50
270.0
 51
231.0575587310182
  0
LINE
  5
3F
330
22
100
AcDbEntity
  8
0
100
AcDbLine
 10
17.59973089678112
 20
-4.771599258481472
 30
0.0
 11
17.59973089678115
 21
-13.77159925848147
 31
0.0
  0
ARC
  5
40
330
22
100
AcDbEntity
  8
0
100
AcDbCircle
 10
22.59973089678116
 20
-7.271599258481472
 30
0.0
 40
2.5
100
AcDbArc
 50
293.1161887722295
 51
90.0
  0
CIRCLE
  5
41
330
22
100
AcDbEntity
  8
0
100
AcDbCircle
 10
31.59973089678115
 20
-9.271599258481472
 30
0.0
 40
3.5
  0
ARC
  5
42
330
22
100
AcDbEntity
  8
0
100
AcDbCircle
 10
4.599730896781153
 20
-11.77159925848133
 30
0.0
 40
1.0
100
AcDbArc
 50
180.0
 51
270.0
  0
ARC
  5
43
330
22
100
AcDbEntity
  8
0
100
AcDbCircle
 10
4.599730896781153
 20
-11.77159925848133
 30
0.0
 40
2.0
100
AcDbArc
 50
179.9999999999992
 51
270.0
  0
LINE
  5
44
330
22
100
AcDbEntity
  8
0
100
AcDbLine
 10
11.59973089678115
 20
-13.77159925848144
 30
0.0
 11
4.599730896781153
 21
-13.77159925848147
 31
0.0
  0
LINE
  5
45
330
22
100
AcDbEntity
  8
0
100
AcDbLine
 10
8.771303772034769
 20
-12.77159925848136
 30
0.0
 11
4.599730896781153
 21
-12.77159925848133
 31
0.0
  0
LINE
  5
46
330
22
100
AcDbEntity
  8
0
100
AcDbLine
 10
31.59973089678115
 20
-13.77159925848147
 30
0.0
 11
23.6715276665056
 21
-13.77159925848144
 31
0.0
  0
LINE
  5
47
330
22
100
AcDbEntity
  8
0
100
AcDbLine
 10
23.56565672307022
 20
-9.51278021337896
 30
0.0
 11
24.4388546544846
 21
-12.77159925848144
 31
0.0
  0
LINE
  5
48
330
22
100
AcDbEntity
  8
0
100
AcDbLine
 10
22.59973089678116
 20
-9.771599258481472
 30
0.0
 11
18.59973089678112
 21
-9.771599258481472
 31
0.0
  0
LINE
  5
49
330
22
100
AcDbEntity
  8
0
100
AcDbLine
 10
18.59973089678115
 20
-13.77159925848144
 30
0.0
 11
17.59973089678115
 21
-13.77159925848144
 31
0.0
  0
LINE
  5
4A
330
22
100
AcDbEntity
  8
0
100
AcDbLine
 10
18.59973089678115
 20
-9.771599258481472
 30
0.0
 11
18.59973089678115
 21
-13.77159925848144
 31
0.0
  0
LINE
  5
4B
330
22
100
AcDbEntity
  8
0
100
AcDbLine
 10
22.59973089678116
 20
-9.771599258481472
 30
0.0
 11
23.67152766650562
 21
-13.77159925848147
 31
0.0
  0
ARC
  5
4C
330
22
100
AcDbEntity
  8
0
100
AcDbCircle
 10
22.59973089678116
 20
-7.271599258481472
 30
0.0
 40
2.5
100
AcDbArc
 50
270.0
 51
270.0000000000007
  0
LINE
  5
4D
330
22
100
AcDbEntity
  8
0
100
AcDbLine
 10
28.77130377203494
 20
-12.77159925848147
 30
0.0
 11
24.43885465448463
 21
-12.77159925848144
 31
0.0
  0
LINE
  5
4E
330
22
100
AcDbEntity
  8
0
100
AcDbLine
 10
3.599730896781125
 20
-4.771599258481472
 30
0.0
 11
2.599730896781125
 21
-4.771599258481472
 31
0.0
  0
LINE
  5
4F
330
22
100
AcDbEntity
  8
0
100
AcDbLine
 10
22.59973089678116
 20
-8.771599258481472
 30
0.0
 11
18.59973089678115
 21
-8.771599258481472
 31
0.0
  0
LINE
  5
50
330
22
100
AcDbEntity
  8
0
100
AcDbLine
 10
22.59973089678116
 20
-5.771599258481472
 30
0.0
 11
18.59973089678115
 21
-5.771599258481472
 31
0.0
  0
LINE
  5
51
330
22
100
AcDbEntity
  8
0
100
AcDbLine
 10
22.59973089678116
 20
-4.771599258481472
 30
0.0
 11
17.59973089678115
 21
-4.771599258481472
 31
0.0
  0
LINE
  5
52
330
22
100
AcDbEntity
  8
0
100
AcDbLine
 10
18.59973089678115
 20
-5.771599258481472
 30
0.0
 11
18.59973089678115
 21
-8.771599258481472
 31
0.0
  0
ARC
  5
53
330
22
100
AcDbEntity
  8
0
100
AcDbCircle
 10
22.59973089678116
 20
-7.271599258481472
 30
0.0
 40
1.5
100
AcDbArc
 50
270.0
 51
90.0
  0
ENDBLK
  5
54
330
22
100
AcDbEntity
  8
0
100
AcDbBlockEnd
  0
BLOCK
  5
AB1
330
AA7
100
AcDbEntity
  8
0
100
AcDbBlockBegin
  2
*D1
 70
     1
 10
0.0
 20
0.0
 30
0.0
  3
*D1
  1

  0
LINE
  5
C43
330
AA7
100
AcDbEntity
  8
SCHRAFF
 62
     0
370
    -2
100
AcDbLine
 10
131.3060198817861
 20
663.2356949646919
 30
0.0
 11
131.3060198817861
 21
680.199933178909
 31
0.0
  0
LINE
  5
C44
330
AA7
100
AcDbEntity
  8
SCHRAFF
 62
     0
370
    -2
100
AcDbLine
 10
357.3060198817861
 20
663.2356949646919
 30
0.0
 11
357.3060198817861
 21
680.199933178909
 31
0.0
  0
LINE
  5
C45
330
AA7
100
AcDbEntity
  8
SCHRAFF
 62
     0
370
    -2
100
AcDbLine
 10
138.3060198817861
 20
678.1999331789091
 30
0.0
 11
350.3060198817861
 21
678.1999331789091
 31
0.0
  0
SOLID
  5
C46
330
AA7
100
AcDbEntity
  8
SCHRAFF
 62
     0
100
AcDbTrace
 10
138.3060198817861
 20
679.3665998455757
 30
0.0
 11
138.3060198817861
 21
677.0332665122424
 31
0.0
 12
131.3060198817861
 22
678.1999331789091
 32
0.0
 13
131.3060198817861
 23
678.1999331789091
 33
0.0
  0
SOLID
  5
C47
330
AA7
100
AcDbEntity
  8
SCHRAFF
 62
     0
100
AcDbTrace
 10
350.3060198817861
 20
679.3665998455757
 30
0.0
 11
350.3060198817861
 21
677.0332665122424
 31
0.0
 12
357.3060198817861
 22
678.1999331789091
 32
0.0
 13
357.3060198817861
 23
678.1999331789091
 33
0.0
  0
MTEXT
  5
C48
330
AA7
100
AcDbEntity
  8
SCHRAFF
 62
     1
100
AcDbMText
 10
244.3060198817861
 20
684.699933178909
 30
0.0
 40
7.0
 41
0.0
 71
     5
 72
     1
  1
\A1;%%c226
 73
     1
 44
1.0
  0
POINT
  5
C49
330
AA7
100
AcDbEntity
  8
Defpoints
 62
     0
100
AcDbPoint
 10
131.3060198817861
 20
661.235694964692
 30
0.0
  0
POINT
  5
C4A
330
AA7
100
AcDbEntity
  8
Defpoints
 62
     0
100
AcDbPoint
 10
357.3060198817861
 20
661.235694964692
 30
0.0
  0
POINT
  5
C4B
330
AA7
100
AcDbEntity
  8
Defpoints
 62
     0
100
AcDbPoint
 10
357.3060198817861
 20
678.1999331789091
 30
0.0
  0
ENDBLK
  5
AB2
330
AA7
100
AcDbEntity
  8
0
100
AcDbBlockEnd
  0
BLOCK
  5
ABD
330
AB3
100
AcDbEntity
  8
0
100
AcDbBlockBegin
  2
*D2
 70
     1
 10
0.0
 20
0.0
 30
0.0
  3
*D2
  1

  0
LINE
  5
C7A
330
AB3
100
AcDbEntity
  8
BEM
 62
     0
370
    -2
100
AcDbLine
 10
113.624839719204
 20
618.2356949646918
 30
0.0
 11
113.624839719204
 21
582.6811996799995
 31
0.0
  0
LINE
  5
C7B
330
AB3
100
AcDbEntity
  8
BEM
 62
     0
370
    -2
100
AcDbLine
 10
374.9872000443681
 20
618.235694964692
 30
0.0
 11
374.9872000443681
 21
582.6811996799995
 31
0.0
  0
LINE
  5
C7C
330
AB3
100
AcDbEntity
  8
BEM
 62
     0
370
    -2
100
AcDbLine
 10
120.624839719204
 20
584.6811996799995
 30
0.0
 11
367.9872000443682
 21
584.6811996799995
 31
0.0
  0
SOLID
  5
C7D
330
AB3
100
AcDbEntity
  8
BEM
 62
     0
100
AcDbTrace
 10
120.624839719204
 20
585.8478663466661
 30
0.0
 11
120.624839719204
 21
583.5145330133328
 31
0.0
 12
113.624839719204
 22
584.6811996799995
 32
0.0
 13
113.624839719204
 23
584.6811996799995
 33
0.0
  0
SOLID
  5
C7E
330
AB3
100
AcDbEntity
  8
BEM
 62
     0
100
AcDbTrace
 10
367.9872000443682
 20
585.8478663466661
 30
0.0
 11
367.9872000443682
 21
583.5145330133328
 31
0.0
 12
374.9872000443681
 22
584.6811996799995
 32
0.0
 13
374.9872000443681
 23
584.6811996799995
 33
0.0
  0
MTEXT
  5
C7F
330
AB3
100
AcDbEntity
  8
BEM
 62
     1
100
AcDbMText
 10
244.3060198817861
 20
591.1811996799995
 30
0.0
 40
7.0
 41
0.0
 71
     5
 72
     1
  1
\A1;%%c261
 73
     1
 44
1.0
  0
POINT
  5
C80
330
AB3
100
AcDbEntity
  8
Defpoints
 62
     0
100
AcDbPoint
 10
113.624839719204
 20
620.2356949646919
 30
0.0
  0
POINT
  5
C81
330
AB3
100
AcDbEntity
  8
Defpoints
 62
     0
100
AcDbPoint
 10
374.9872000443681
 20
620.235694964692
 30
0.0
  0
POINT
  5
C82
330
AB3
100
AcDbEntity
  8
Defpoints
 62
     0
100
AcDbPoint
 10
374.9872000443681
 20
584.6811996799995
 30
0.0
  0
ENDBLK
  5
ABE
330
AB3
100
AcDbEntity
  8
0
100
AcDbBlockEnd
  0
BLOCK
  5
AC9
330
ABF
100
AcDbEntity
  8
0
100
AcDbBlockBegin
  2
*D3
 70
     1
 10
0.0
 20
0.0
 30
0.0
  3
*D3
  1

  0
LINE
  5
C70
330
ABF
100
AcDbEntity
  8
BEM
 62
     0
370
    -2
100
AcDbLine
 10
461.306019881786
 20
620.235694964692
 30
0.0
 11
477.4251511362849
 21
620.235694964692
 31
0.0
  0
LINE
  5
C71
330
ABF
100
AcDbEntity
  8
BEM
 62
     0
370
    -2
100
AcDbLine
 10
362.541624109819
 20
661.2356949646919
 30
0.0
 11
477.4251511362849
 21
661.2356949646919
 31
0.0
  0
LINE
  5
C72
330
ABF
100
AcDbEntity
  8
BEM
 62
     0
370
    -2
100
AcDbLine
 10
475.4251511362848
 20
627.235694964692
 30
0.0
 11
475.4251511362849
 21
654.2356949646919
 31
0.0
  0
SOLID
  5
C73
330
ABF
100
AcDbEntity
  8
BEM
 62
     0
100
AcDbTrace
 10
474.2584844696182
 20
627.235694964692
 30
0.0
 11
476.5918178029515
 21
627.235694964692
 31
0.0
 12
475.4251511362848
 22
620.235694964692
 32
0.0
 13
475.4251511362848
 23
620.235694964692
 33
0.0
  0
SOLID
  5
C74
330
ABF
100
AcDbEntity
  8
BEM
 62
     0
100
AcDbTrace
 10
474.2584844696183
 20
654.2356949646919
 30
0.0
 11
476.5918178029516
 21
654.2356949646919
 31
0.0
 12
475.4251511362849
 22
661.2356949646919
 32
0.0
 13
475.4251511362849
 23
661.2356949646919
 33
0.0
  0
MTEXT
  5
C75
330
ABF
100
AcDbEntity
  8
BEM
 62
     1
100
AcDbMText
 10
468.9251511362848
 20
640.7356949646921
 30
0.0
 40
7.0
 41
0.0
 71
     5
 72
     1
  1
\A1;41
 11
0.0000000000000001
 21
1.0
 31
0.0
 73
     1
 44
1.0
  0
POINT
  5
C76
330
ABF
100
AcDbEntity
  8
Defpoints
 62
     0
100
AcDbPoint
 10
459.3060198817861
 20
620.235694964692
 30
0.0
  0
POINT
  5
C77
330
ABF
100
AcDbEntity
  8
Defpoints
 62
     0
100
AcDbPoint
 10
360.541624109819
 20
661.2356949646919
 30
0.0
  0
POINT
  5
C78
330
ABF
100
AcDbEntity
  8
Defpoints
 62
     0
100
AcDbPoint
 10
475.4251511362849
 20
661.2356949646919
 30
0.0
  0
ENDBLK
  5
ACA
330
ABF
100
AcDbEntity
  8
0
100
AcDbBlockEnd
  0
BLOCK
  5
AD7
330
ACB
100
AcDbEntity
  8
0
100
AcDbBlockBegin
  2
*D4
 70
     1
 10
0.0
 20
0.0
 30
0.0
  3
*D4
  1

  0
LINE
  5
B0C
330
ACB
100
AcDbEntity
  8
BEM
 62
     0
370
    -2
100
AcDbLine
 10
457.306019881786
 20
620.235694964692
 30
0.0
 11
446.6960758222866
 21
620.235694964692
 31
0.0
  0
LINE
  5
B0D
330
ACB
100
AcDbEntity
  8
BEM
 62
     0
370
    -2
100
AcDbLine
 10
456.3060198817859
 20
623.235694964692
 30
0.0
 11
446.6960758222866
 21
623.235694964692
 31
0.0
  0
LINE
  5
B0E
330
ACB
100
AcDbEntity
  8
BEM
 62
     0
370
    -2
100
AcDbLine
 10
448.6960758222867
 20
613.2356949646919
 30
0.0
 11
448.6960758222867
 21
606.235694964692
 31
0.0
  0
LINE
  5
B0F
330
ACB
100
AcDbEntity
  8
BEM
 62
     0
370
    -2
100
AcDbLine
 10
448.6960758222867
 20
630.235694964692
 30
0.0
 11
448.6960758222868
 21
646.9690282980253
 31
0.0
  0
LINE
  5
B10
330
ACB
100
AcDbEntity
  8
BEM
 62
     0
370
    -2
100
AcDbLine
 10
448.6960758222867
 20
620.235694964692
 30
0.0
 11
448.6960758222867
 21
623.235694964692
 31
0.0
  0
SOLID
  5
B11
330
ACB
100
AcDbEntity
  8
BEM
 62
     0
100
AcDbTrace
 10
447.52940915562
 20
613.2356949646919
 30
0.0
 11
449.8627424889534
 21
613.2356949646919
 31
0.0
 12
448.6960758222867
 22
620.235694964692
 32
0.0
 13
448.6960758222867
 23
620.235694964692
 33
0.0
  0
SOLID
  5
B12
330
ACB
100
AcDbEntity
  8
BEM
 62
     0
100
AcDbTrace
 10
447.52940915562
 20
630.235694964692
 30
0.0
 11
449.8627424889534
 21
630.235694964692
 31
0.0
 12
448.6960758222867
 22
623.235694964692
 32
0.0
 13
448.6960758222867
 23
623.235694964692
 33
0.0
  0
MTEXT
  5
B13
330
ACB
100
AcDbEntity
  8
BEM
 62
     1
100
AcDbMText
 10
442.1960758222867
 20
642.1023616313588
 30
0.0
 40
7.0
 41
0.0
 71
     5
 72
     1
  1
\A1;3
 11
0.0000000000000001
 21
1.0
 31
0.0
 73
     1
 44
1.0
  0
POINT
  5
B14
330
ACB
100
AcDbEntity
  8
Defpoints
 62
     0
100
AcDbPoint
 10
459.3060198817861
 20
620.235694964692
 30
0.0
  0
POINT
  5
B15
330
ACB
100
AcDbEntity
  8
Defpoints
 62
     0
100
AcDbPoint
 10
458.3060198817859
 20
623.235694964692
 30
0.0
  0
POINT
  5
B16
330
ACB
100
AcDbEntity
  8
Defpoints
 62
     0
100
AcDbPoint
 10
448.6960758222867
 20
623.235694964692
 30
0.0
  0
ENDBLK
  5
AD8
330
ACB
100
AcDbEntity
  8
0
100
AcDbBlockEnd
  0
BLOCK
  5
AE3
330
AD9
100
AcDbEntity
  8
0
100
AcDbBlockBegin
  2
*D5
 70
     1
 10
0.0
 20
0.0
 30
0.0
  3
*D5
  1

  0
LINE
  5
C5E
330
AD9
100
AcDbEntity
  8
BEM
 62
     0
370
    -2
100
AcDbLine
 10
29.3060198817862
 20
618.2356949646917
 30
0.0
 11
29.3060198817862
 21
550.6811996799995
 31
0.0
  0
LINE
  5
C5F
330
AD9
100
AcDbEntity
  8
BEM
 62
     0
370
    -2
100
AcDbLine
 10
459.3060198817861
 20
618.235694964692
 30
0.0
 11
459.3060198817861
 21
550.6811996799995
 31
0.0
  0
LINE
  5
C60
330
AD9
100
AcDbEntity
  8
BEM
 62
     0
370
    -2
100
AcDbLine
 10
36.3060198817862
 20
552.6811996799994
 30
0.0
 11
452.306019881786
 21
552.6811996799994
 31
0.0
  0
SOLID
  5
C61
330
AD9
100
AcDbEntity
  8
BEM
 62
     0
100
AcDbTrace
 10
36.3060198817862
 20
553.8478663466661
 30
0.0
 11
36.3060198817862
 21
551.5145330133329
 31
0.0
 12
29.3060198817862
 22
552.6811996799994
 32
0.0
 13
29.3060198817862
 23
552.6811996799994
 33
0.0
  0
SOLID
  5
C62
330
AD9
100
AcDbEntity
  8
BEM
 62
     0
100
AcDbTrace
 10
452.306019881786
 20
553.8478663466661
 30
0.0
 11
452.306019881786
 21
551.5145330133329
 31
0.0
 12
459.3060198817861
 22
552.6811996799994
 32
0.0
 13
459.3060198817861
 23
552.6811996799994
 33
0.0
  0
MTEXT
  5
C63
330
AD9
100
AcDbEntity
  8
BEM
 62
     1
100
AcDbMText
 10
244.3060198817861
 20
559.1811996799995
 30
0.0
 40
7.0
 41
0.0
 71
     5
 72
     1
  1
\A1;%%c430
 73
     1
 44
1.0
  0
POINT
  5
C64
330
AD9
100
AcDbEntity
  8
Defpoints
 62
     0
100
AcDbPoint
 10
29.3060198817862
 20
620.2356949646918
 30
0.0
  0
POINT
  5
C65
330
AD9
100
AcDbEntity
  8
Defpoints
 62
     0
100
AcDbPoint
 10
459.3060198817861
 20
620.235694964692
 30
0.0
  0
POINT
  5
C66
330
AD9
100
AcDbEntity
  8
Defpoints
 62
     0
100
AcDbPoint
 10
459.3060198817861
 20
552.6811996799994
 30
0.0
  0
ENDBLK
  5
AE4
330
AD9
100
AcDbEntity
  8
0
100
AcDbBlockEnd
  0
BLOCK
  5
AEF
330
AE5
100
AcDbEntity
  8
0
100
AcDbBlockBegin
  2
*D6
 70
     1
 10
0.0
 20
0.0
 30
0.0
  3
*D6
  1

  0
LINE
  5
C55
330
AE5
100
AcDbEntity
  8
BEM
 62
     0
370
    -2
100
AcDbLine
 10
64.3060198817862
 20
621.2356949646919
 30
0.0
 11
64.3060198817862
 21
566.6811996799995
 31
0.0
  0
LINE
  5
C56
330
AE5
100
AcDbEntity
  8
BEM
 62
     0
370
    -2
100
AcDbLine
 10
424.306019881786
 20
621.2356949646917
 30
0.0
 11
424.306019881786
 21
566.6811996799995
 31
0.0
  0
LINE
  5
C57
330
AE5
100
AcDbEntity
  8
BEM
 62
     0
370
    -2
100
AcDbLine
 10
71.3060198817862
 20
568.6811996799995
 30
0.0
 11
417.306019881786
 21
568.6811996799995
 31
0.0
  0
SOLID
  5
C58
330
AE5
100
AcDbEntity
  8
BEM
 62
     0
100
AcDbTrace
 10
71.3060198817862
 20
569.8478663466661
 30
0.0
 11
71.3060198817862
 21
567.5145330133329
 31
0.0
 12
64.3060198817862
 22
568.6811996799995
 32
0.0
 13
64.3060198817862
 23
568.6811996799995
 33
0.0
  0
SOLID
  5
C59
330
AE5
100
AcDbEntity
  8
BEM
 62
     0
100
AcDbTrace
 10
417.306019881786
 20
569.8478663466661
 30
0.0
 11
417.306019881786
 21
567.5145330133329
 31
0.0
 12
424.306019881786
 22
568.6811996799995
 32
0.0
 13
424.306019881786
 23
568.6811996799995
 33
0.0
  0
MTEXT
  5
C5A
330
AE5
100
AcDbEntity
  8
BEM
 62
     1
100
AcDbMText
 10
244.3060198817861
 20
575.1811996799995
 30
0.0
 40
7.0
 41
0.0
 71
     5
 72
     1
  1
\A1;%%c360
 73
     1
 44
1.0
  0
POINT
  5
C5B
330
AE5
100
AcDbEntity
  8
Defpoints
 62
     0
100
AcDbPoint
 10
64.3060198817862
 20
623.2356949646919
 30
0.0
  0
POINT
  5
C5C
330
AE5
100
AcDbEntity
  8
Defpoints
 62
     0
100
AcDbPoint
 10
424.306019881786
 20
623.2356949646916
 30
0.0
  0
POINT
  5
C5D
330
AE5
100
AcDbEntity
  8
Defpoints
 62
     0
100
AcDbPoint
 10
424.306019881786
 20
568.6811996799995
 30
0.0
  0
ENDBLK
  5
AF0
330
AE5
100
AcDbEntity
  8
0
100
AcDbBlockEnd
  0
BLOCK
  5
B5A
330
B4E
100
AcDbEntity
  8
0
100
AcDbBlockBegin
  2
*D7
 70
     1
 10
0.0
 20
0.0
 30
0.0
  3
*D7
  1

  0
LINE
  5
B4F
330
B4E
100
AcDbEntity
  8
BEM
 62
     0
370
    -2
100
AcDbLine
 10
466.3060198817862
 20
294.3383757699491
 30
0.0
 11
482.6248208752797
 21
294.3383757699491
 31
0.0
  0
LINE
  5
B50
330
B4E
100
AcDbEntity
  8
BEM
 62
     0
370
    -2
100
AcDbLine
 10
410.5828974083983
 20
390.338375769949
 30
0.0
 11
450.6961557415999
 21
413.4977762666956
 31
0.0
  0
ARC
  5
B51
330
B4E
100
AcDbEntity
  8
BEM
 62
     0
370
    -2
100
AcDbCircle
 10
244.3060198817864
 20
294.3383757699491
 30
0.0
 40
236.3188009934934
100
AcDbArc
 50
1.697220529574983
 51
28.30277947042502
  0
SOLID
  5
B52
330
B4E
100
AcDbEntity
  8
BEM
 62
     0
100
AcDbTrace
 10
481.6876860684164
 20
301.3548869181145
 30
0.0
 11
479.3546086585715
 21
301.3203290808526
 31
0.0
 12
480.6248208752798
 22
294.3383757699491
 32
0.0
 13
480.6248208752798
 23
294.3383757699491
 33
0.0
  0
SOLID
  5
B53
330
B4E
100
AcDbEntity
  8
BEM
 62
     0
100
AcDbTrace
 10
451.3550455416161
 20
405.8161212230621
 30
0.0
 11
453.3928287661683
 21
406.9527319630159
 31
0.0
 12
448.9641049340311
 22
412.4977762666956
 32
0.0
 13
448.9641049340311
 23
412.4977762666956
 33
0.0
  0
MTEXT
  5
B54
330
B4E
100
AcDbEntity
  8
BEM
 62
     1
100
AcDbMText
 10
478.8509708699471
 20
357.1845059760241
 30
0.0
 40
7.0
 41
0.0
 71
     5
 72
     1
  1
\A1;30°
 11
0.2588190451025214
 21
-0.9659258262890681
 31
0.0
 73
     1
 44
1.0
  0
POINT
  5
B55
330
B4E
100
AcDbEntity
  8
Defpoints
 62
     0
100
AcDbPoint
 10
477.0346072827277
 20
335.3747049109031
 30
0.0
  0
POINT
  5
B56
330
B4E
100
AcDbEntity
  8
Defpoints
 62
     0
100
AcDbPoint
 10
24.30601988178614
 20
294.338375769949
 30
0.0
  0
POINT
  5
B57
330
B4E
100
AcDbEntity
  8
Defpoints
 62
     0
100
AcDbPoint
 10
408.8508466008295
 20
389.338375769949
 30
0.0
  0
POINT
  5
B58
330
B4E
100
AcDbEntity
  8
Defpoints
 62
     0
100
AcDbPoint
 10
391.5303385251407
 20
379.3383757699491
 30
0.0
  0
POINT
  5
B59
330
B4E
100
AcDbEntity
  8
Defpoints
 62
     0
100
AcDbPoint
 10
464.3060198817862
 20
294.3383757699491
 30
0.0
  0
ENDBLK
  5
B5B
330
B4E
100
AcDbEntity
  8
0
100
AcDbBlockEnd
  0
BLOCK
  5
B68
330
B5D
100
AcDbEntity
  8
0
100
AcDbBlockBegin
  2
*D8
 70
     1
 10
0.0
 20
0.0
 30
0.0
  3
*D8
  1

  0
LINE
  5
B5E
330
B5D
100
AcDbEntity
  8
BEM
 62
     0
370
    -2
100
AcDbLine
 10
410.5828974083983
 20
390.3383757699491
 30
0.0
 11
450.6961557415999
 21
413.4977762666961
 31
0.0
  0
LINE
  5
B5F
330
B5D
100
AcDbEntity
  8
BEM
 62
     0
370
    -2
100
AcDbLine
 10
340.3060198817863
 20
460.6152532965611
 30
0.0
 11
363.4654203785331
 21
500.7285116297627
 31
0.0
  0
ARC
  5
B60
330
B5D
100
AcDbEntity
  8
BEM
 62
     0
370
    -2
100
AcDbCircle
 10
244.3060198817863
 20
294.338375769949
 30
0.0
 40
236.3188009934938
100
AcDbArc
 50
31.69722052957504
 51
58.30277947042507
  0
SOLID
  5
B61
330
B5D
100
AcDbEntity
  8
BEM
 62
     0
100
AcDbTrace
 10
446.3763176180029
 20
419.1056857635124
 30
0.0
 11
444.3730922307126
 21
417.9092190936213
 31
0.0
 12
448.964104934031
 22
412.4977762666961
 32
0.0
 13
448.964104934031
 23
412.4977762666961
 33
0.0
  0
SOLID
  5
B62
330
B5D
100
AcDbEntity
  8
BEM
 62
     0
100
AcDbTrace
 10
367.8768632054584
 20
494.4054481188754
 30
0.0
 11
369.0733298753495
 21
496.4086735061657
 31
0.0
 12
362.4654203785331
 22
498.9964608221938
 32
0.0
 13
362.4654203785331
 23
498.9964608221938
 33
0.0
  0
MTEXT
  5
B63
330
B5D
100
AcDbEntity
  8
BEM
 62
     1
100
AcDbMText
 10
416.0048406638724
 20
466.0371965520353
 30
0.0
 40
7.0
 41
0.0
 71
     5
 72
     1
  1
\A1;30°
 11
0.7071067811865481
 21
-0.707106781186547
 31
0.0
 73
     1
 44
1.0
  0
POINT
  5
B64
330
B5D
100
AcDbEntity
  8
Defpoints
 62
     0
100
AcDbPoint
 10
244.3060198817863
 20
294.338375769949
 30
0.0
  0
POINT
  5
B65
330
B5D
100
AcDbEntity
  8
Defpoints
 62
     0
100
AcDbPoint
 10
408.8508466008295
 20
389.3383757699491
 30
0.0
  0
POINT
  5
B66
330
B5D
100
AcDbEntity
  8
Defpoints
 62
     0
100
AcDbPoint
 10
339.3060198817862
 20
458.8832024889923
 30
0.0
  0
POINT
  5
B67
330
B5D
100
AcDbEntity
  8
Defpoints
 62
     0
100
AcDbPoint
 10
425.3367241873917
 20
446.241172984546
 30
0.0
  0
ENDBLK
  5
B69
330
B5D
100
AcDbEntity
  8
0
100
AcDbBlockEnd
  0
ENDSEC
  0
SECTION
  2
ENTITIES
  0
LINE
  5
9E8
102
{ACAD_REACTORS
330
BC9
102
}
330
1E
100
AcDbEntity
  8
STEMPEL
100
AcDbLine
 10
130.8222464104884
 20
660.0413626155976
 30
0.0
 11
115.1144437442416
 21
623.8470302665026
 31
0.0
  0
LINE
  5
9EA
330
1E
100
AcDbEntity
  8
STEMPEL
100
AcDbLine
 10
357.8148860510264
 20
660.0413626155976
 30
0.0
 11
130.8222464104884
 21
660.0413626155976
 31
0.0
  0
LINE
  5
9EE
102
{ACAD_REACTORS
330
BC9
102
}
330
1E
100
AcDbEntity
  8
STEMPEL
100
AcDbLine
 10
29.30601988178614
 20
620.2356949646915
 30
0.0
 11
459.3060198817861
 21
620.2356949646921
 31
0.0
  0
TEXT
  5
9F0
330
1E
100
AcDbEntity
  8
TEXT
 62
     1
100
AcDbText
 10
214.7673647950989
 20
798.2347351379018
 30
0.0
 40
7.0
  1

 41
0.8
100
AcDbText
  0
CIRCLE
  5
9F2
330
1E
100
AcDbEntity
  8
HILF
100
AcDbCircle
 10
244.3060198817861
 20
294.338375769949
 30
0.0
 40
133.0506525532243
  0
CIRCLE
  5
9F3
330
1E
100
AcDbEntity
  8
STEMPEL
100
AcDbCircle
 10
244.3060198817861
 20
294.338375769949
 30
0.0
 40
113.0
  0
LINE
  5
9F4
102
{ACAD_REACTORS
330
BC9
102
}
330
1E
100
AcDbEntity
  8
STEMPEL
100
AcDbLine
 10
379.0016200890113
 20
623.2356949646917
 30
0.0
 11
458.3060198817859
 21
623.2356949646919
 31
0.0
  0
DIMENSION
  5
9F6
330
1E
100
AcDbEntity
  8
SCHRAFF
100
AcDbDimension
  2
*D1
 10
357.3060198817861
 20
678.1999331789091
 30
0.0
 11
244.3060198817861
 21
684.699933178909
 31
0.0
 70
    32
  1
%%c<>
 71
     5
 42
226.0
  3
Standard
100
AcDbAlignedDimension
 13
131.3060198817861
 23
661.235694964692
 33
0.0
 14
357.3060198817861
 24
661.235694964692
 34
0.0
100
AcDbRotatedDimension
1001
ACAD
1000
DSTYLE
1002
{
1070
    40
1040
2.0
1070
    41
1040
3.5
1070
    42
1040
1.0
1070
    43
1040
7.0
1070
    44
1040
1.0
1070
    47
1040
1.5
1070
    48
1040
1.5
1070
    73
1070
     0
1070
    74
1070
     0
1070
    77
1070
     1
1070
    78
1070
     8
1070
    79
1070
     2
1070
   140
1040
3.5
1070
   141
1040
1.5
1070
   147
1040
1.5
1070
   172
1070
     1
1070
   178
1070
     1
1070
   179
1070
     2
1070
   271
1070
     2
1070
   272
1070
     2
1070
   284
1070
     8
1070
   285
1070
     8
1070
   286
1070
     8
1002
}
  0
LINE
  5
9F7
102
{ACAD_REACTORS
330
BC9
102
}
330
1E
100
AcDbEntity
  8
STEMPEL
100
AcDbLine
 10
30.30601988178614
 20
623.2356949646919
 30
0.0
 11
109.610419674561
 21
623.235694964692
 31
0.0
  0
DIMENSION
  5
9F8
330
1E
100
AcDbEntity
  8
BEM
100
AcDbDimension
  2
*D2
 10
374.9872000443681
 20
584.6811996799995
 30
0.0
 11
244.3060198817861
 21
591.1811996799995
 31
0.0
 70
    32
  1
%%c261
 71
     5
 42
261.3623603251641
  3
Standard
100
AcDbAlignedDimension
 13
113.624839719204
 23
620.2356949646919
 33
0.0
 14
374.9872000443681
 24
620.235694964692
 34
0.0
100
AcDbRotatedDimension
1001
ACAD
1000
DSTYLE
1002
{
1070
    40
1040
2.0
1070
    41
1040
3.5
1070
    42
1040
1.0
1070
    43
1040
7.0
1070
    44
1040
1.0
1070
    47
1040
1.5
1070
    48
1040
1.5
1070
    73
1070
     0
1070
    74
1070
     0
1070
    77
1070
     1
1070
    78
1070
     8
1070
    79
1070
     2
1070
   140
1040
3.5
1070
   141
1040
1.5
1070
   147
1040
1.5
1070
   172
1070
     1
1070
   178
1070
     1
1070
   179
1070
     2
1070
   271
1070
     2
1070
   272
1070
     2
1070
   284
1070
     8
1070
   285
1070
     8
1070
   286
1070
     8
1002
}
  0
LINE
  5
9FC
330
1E
100
AcDbEntity
  8
MITTEL
100
AcDbLine
 10
339.3060198817862
 20
129.7935490509056
 30
0.0
 11
329.3060198817862
 21
147.1140571265944
 31
0.0
  0
LINE
  5
9FD
330
1E
100
AcDbEntity
  8
MITTEL
100
AcDbLine
 10
149.3060198817861
 20
129.7935490509056
 30
0.0
 11
159.3060198817861
 21
147.1140571265944
 31
0.0
  0
LINE
  5
9FE
330
1E
100
AcDbEntity
  8
MITTEL
100
AcDbLine
 10
149.3060198817861
 20
458.8832024889923
 30
0.0
 11
159.3060198817861
 21
441.5626944133036
 31
0.0
  0
LINE
  5
9FF
330
1E
100
AcDbEntity
  8
MITTEL
100
AcDbLine
 10
339.3060198817862
 20
458.8832024889923
 30
0.0
 11
329.3060198817863
 21
441.5626944133034
 31
0.0
  0
LINE
  5
A00
330
1E
100
AcDbEntity
  8
MITTEL
100
AcDbLine
 10
408.8508466008294
 20
199.3383757699488
 30
0.0
 11
391.5303385251407
 21
209.338375769949
 31
0.0
  0
LINE
  5
A01
330
1E
100
AcDbEntity
  8
MITTEL
100
AcDbLine
 10
408.8508466008294
 20
389.338375769949
 30
0.0
 11
391.5303385251407
 21
379.3383757699491
 31
0.0
  0
LINE
  5
A02
330
1E
100
AcDbEntity
  8
MITTEL
100
AcDbLine
 10
79.76119316274284
 20
199.3383757699489
 30
0.0
 11
97.08170123843158
 21
209.3383757699489
 31
0.0
  0
LINE
  5
A03
330
1E
100
AcDbEntity
  8
MITTEL
100
AcDbLine
 10
79.76119316274282
 20
389.338375769949
 30
0.0
 11
97.08170123843158
 21
379.3383757699489
 31
0.0
  0
DIMENSION
  5
A04
330
1E
100
AcDbEntity
  8
BEM
100
AcDbDimension
  2
*D3
 10
475.4251511362849
 20
661.2356949646919
 30
0.0
 11
468.9251511362848
 21
640.7356949646921
 31
0.0
 70
    32
 71
     5
 42
40.99999999999988
  3
Standard
100
AcDbAlignedDimension
 13
459.3060198817861
 23
620.235694964692
 33
0.0
 14
360.541624109819
 24
661.2356949646919
 34
0.0
 50
90.0
100
AcDbRotatedDimension
1001
ACAD
1000
DSTYLE
1002
{
1070
    40
1040
2.0
1070
    41
1040
3.5
1070
    42
1040
1.0
1070
    43
1040
7.0
1070
    44
1040
1.0
1070
    47
1040
1.5
1070
    48
1040
1.5
1070
    73
1070
     0
1070
    74
1070
     0
1070
    77
1070
     1
1070
    78
1070
     8
1070
    79
1070
     2
1070
   140
1040
3.5
1070
   141
1040
1.5
1070
   147
1040
1.5
1070
   172
1070
     1
1070
   178
1070
     1
1070
   179
1070
     2
1070
   271
1070
     2
1070
   272
1070
     2
1070
   284
1070
     8
1070
   285
1070
     8
1070
   286
1070
     8
1002
}
  0
DIMENSION
  5
A08
330
1E
100
AcDbEntity
  8
BEM
100
AcDbDimension
  2
*D4
 10
448.6960758222867
 20
623.235694964692
 30
0.0
 11
442.1960758222867
 21
642.1023616313588
 31
0.0
 70
    32
 71
     5
 42
3.0
  3
Standard
100
AcDbAlignedDimension
 13
459.3060198817861
 23
620.235694964692
 33
0.0
 14
458.3060198817859
 24
623.235694964692
 34
0.0
 50
90.0
100
AcDbRotatedDimension
1001
ACAD
1000
DSTYLE
1002
{
1070
    40
1040
2.0
1070
    41
1040
3.5
1070
    42
1040
1.0
1070
    43
1040
7.0
1070
    44
1040
1.0
1070
    47
1040
0.5
1070
    48
1040
0.5
1070
    73
1070
     0
1070
    74
1070
     0
1070
    77
1070
     1
1070
    78
1070
     8
1070
    79
1070
     2
1070
   140
1040
3.5
1070
   141
1040
1.5
1070
   147
1040
1.5
1070
   172
1070
     1
1070
   178
1070
     1
1070
   179
1070
     2
1070
   279
1070
     0
1002
}
  0
LINE
  5
A0C
330
1E
100
AcDbEntity
  8
STEMPEL
100
AcDbLine
 10
395.190592562985
 20
647.2356949646917
 30
0.0
 11
396.190592562985
 21
648.2356949646916
 31
0.0
  0
LINE
  5
A0D
330
1E
100
AcDbEntity
  8
HILF
100
AcDbLine
 10
396.190592562985
 20
648.2356949646916
 30
0.0
 11
396.190592562985
 21
623.2356949646916
 31
0.0
  0
LINE
  5
A0E
330
1E
100
AcDbEntity
  8
STEMPEL
100
AcDbLine
 10
395.190592562985
 20
647.2356949646917
 30
0.0
 11
395.190592562985
 21
623.2356949646916
 31
0.0
  0
LINE
  5
A0F
330
1E
100
AcDbEntity
  8
MITTEL
100
AcDbLine
 10
400.190592562985
 20
653.2356949646919
 30
0.0
 11
400.1905925629849
 21
623.2356949646916
 31
0.0
  0
LINE
  5
A10
330
1E
100
AcDbEntity
  8
STEMPEL
100
AcDbLine
 10
404.1905925629849
 20
648.2356949646916
 30
0.0
 11
405.1905925629849
 21
647.2356949646917
 31
0.0
  0
LINE
  5
A11
330
1E
100
AcDbEntity
  8
HILF
100
AcDbLine
 10
404.1905925629849
 20
648.2356949646916
 30
0.0
 11
404.1905925629849
 21
623.2356949646916
 31
0.0
  0
LINE
  5
A12
330
1E
100
AcDbEntity
  8
STEMPEL
100
AcDbLine
 10
405.1905925629849
 20
647.2356949646917
 30
0.0
 11
405.1905925629849
 21
623.2356949646916
 31
0.0
  0
LINE
  5
A13
330
1E
100
AcDbEntity
  8
STEMPEL
100
AcDbLine
 10
396.190592562985
 20
648.2356949646916
 30
0.0
 11
404.1905925629849
 21
648.2356949646916
 31
0.0
  0
LINE
  5
A14
330
1E
100
AcDbEntity
  8
STEMPEL
100
AcDbLine
 10
405.1905925629849
 20
647.2356949646918
 30
0.0
 11
395.190592562985
 21
647.2356949646918
 31
0.0
  0
LINE
  5
A15
330
1E
100
AcDbEntity
  8
STEMPEL
100
AcDbLine
 10
83.42144720058717
 20
647.2356949646921
 30
0.0
 11
93.42144720058717
 21
647.2356949646921
 31
0.0
  0
LINE
  5
A16
330
1E
100
AcDbEntity
  8
STEMPEL
100
AcDbLine
 10
92.42144720058718
 20
648.2356949646919
 30
0.0
 11
84.42144720058719
 21
648.2356949646919
 31
0.0
  0
LINE
  5
A17
330
1E
100
AcDbEntity
  8
STEMPEL
100
AcDbLine
 10
83.42144720058717
 20
647.2356949646918
 30
0.0
 11
83.42144720058717
 21
623.2356949646919
 31
0.0
  0
LINE
  5
A18
330
1E
100
AcDbEntity
  8
HILF
100
AcDbLine
 10
84.42144720058719
 20
648.2356949646919
 30
0.0
 11
84.42144720058719
 21
623.2356949646919
 31
0.0
  0
LINE
  5
A19
330
1E
100
AcDbEntity
  8
STEMPEL
100
AcDbLine
 10
84.42144720058719
 20
648.2356949646919
 30
0.0
 11
83.42144720058717
 21
647.2356949646918
 31
0.0
  0
LINE
  5
A1A
330
1E
100
AcDbEntity
  8
MITTEL
100
AcDbLine
 10
88.42144720058719
 20
653.235694964692
 30
0.0
 11
88.42144720058717
 21
623.2356949646919
 31
0.0
  0
LINE
  5
A1B
330
1E
100
AcDbEntity
  8
STEMPEL
100
AcDbLine
 10
93.42144720058717
 20
647.2356949646918
 30
0.0
 11
93.42144720058717
 21
623.2356949646919
 31
0.0
  0
LINE
  5
A1C
330
1E
100
AcDbEntity
  8
HILF
100
AcDbLine
 10
92.42144720058718
 20
648.2356949646919
 30
0.0
 11
92.42144720058718
 21
623.2356949646919
 31
0.0
  0
LINE
  5
A1D
330
1E
100
AcDbEntity
  8
STEMPEL
100
AcDbLine
 10
93.42144720058717
 20
647.2356949646918
 30
0.0
 11
92.42144720058718
 21
648.2356949646919
 31
0.0
  0
DIMENSION
  5
A21
330
1E
100
AcDbEntity
  8
BEM
100
AcDbDimension
  2
*D5
 10
459.3060198817861
 20
552.6811996799994
 30
0.0
 11
244.3060198817861
 21
559.1811996799995
 31
0.0
 70
    32
  1
%%c<>
 71
     5
 42
429.9999999999998
  3
Standard
100
AcDbAlignedDimension
 13
29.3060198817862
 23
620.2356949646918
 33
0.0
 14
459.3060198817861
 24
620.235694964692
 34
0.0
100
AcDbRotatedDimension
1001
ACAD
1000
DSTYLE
1002
{
1070
    40
1040
2.0
1070
    41
1040
3.5
1070
    42
1040
1.0
1070
    43
1040
7.0
1070
    44
1040
1.0
1070
    47
1040
1.5
1070
    48
1040
1.5
1070
    73
1070
     0
1070
    74
1070
     0
1070
    77
1070
     1
1070
    78
1070
     8
1070
    79
1070
     2
1070
   140
1040
3.5
1070
   141
1040
1.5
1070
   147
1040
1.5
1070
   172
1070
     1
1070
   178
1070
     1
1070
   179
1070
     2
1070
   271
1070
     2
1070
   272
1070
     2
1070
   284
1070
     8
1070
   285
1070
     8
1070
   286
1070
     8
1002
}
  0
DIMENSION
  5
A22
330
1E
100
AcDbEntity
  8
BEM
100
AcDbDimension
  2
*D6
 10
424.306019881786
 20
568.6811996799995
 30
0.0
 11
244.3060198817861
 21
575.1811996799995
 31
0.0
 70
    32
  1
%%c<>
 71
     5
 42
359.9999999999998
  3
Standard
100
AcDbAlignedDimension
 13
64.3060198817862
 23
623.2356949646919
 33
0.0
 14
424.306019881786
 24
623.2356949646916
 34
0.0
100
AcDbRotatedDimension
1001
ACAD
1000
DSTYLE
1002
{
1070
    40
1040
2.0
1070
    41
1040
3.5
1070
    42
1040
1.0
1070
    43
1040
7.0
1070
    44
1040
1.0
1070
    47
1040
1.5
1070
    48
1040
1.5
1070
    73
1070
     0
1070
    74
1070
     0
1070
    77
1070
     1
1070
    78
1070
     8
1070
    79
1070
     2
1070
   140
1040
3.5
1070
   141
1040
1.5
1070
   147
1040
1.5
1070
   172
1070
     1
1070
   178
1070
     1
1070
   179
1070
     2
1070
   271
1070
     2
1070
   272
1070
     2
1070
   284
1070
     8
1070
   285
1070
     8
1070
   286
1070
     8
1002
}
  0
LINE
  5
A23
102
{ACAD_REACTORS
330
BC9
102
}
330
1E
100
AcDbEntity
  8
STEMPEL
100
AcDbLine
 10
458.3060198817859
 20
623.235694964692
 30
0.0
 11
459.3060198817861
 21
622.2356949646918
 31
0.0
  0
LINE
  5
A24
102
{ACAD_REACTORS
330
BC9
102
}
330
1E
100
AcDbEntity
  8
STEMPEL
100
AcDbLine
 10
30.30601988178614
 20
623.2356949646919
 30
0.0
 11
29.30601988178614
 21
622.2356949646918
 31
0.0
  0
LINE
  5
A25
102
{ACAD_REACTORS
330
BC9
102
}
330
1E
100
AcDbEntity
  8
STEMPEL
100
AcDbLine
 10
29.30601988178614
 20
622.2356949646918
 30
0.0
 11
29.30601988178614
 21
620.2356949646918
 31
0.0
  0
LINE
  5
A29
330
1E
100
AcDbEntity
  8
STEMPEL
100
AcDbLine
 10
69.30601988178614
 20
647.2356949646918
 30
0.0
 11
68.30601988178614
 21
648.2356949646919
 31
0.0
  0
LINE
  5
A2A
330
1E
100
AcDbEntity
  8
HILF
100
AcDbLine
 10
68.30601988178614
 20
648.2356949646919
 30
0.0
 11
68.30601988178614
 21
623.2356949646919
 31
0.0
  0
LINE
  5
A2B
330
1E
100
AcDbEntity
  8
STEMPEL
100
AcDbLine
 10
69.30601988178614
 20
647.2356949646918
 30
0.0
 11
69.30601988178614
 21
623.2356949646919
 31
0.0
  0
LINE
  5
A2C
330
1E
100
AcDbEntity
  8
MITTEL
100
AcDbLine
 10
64.30601988178614
 20
653.235694964692
 30
0.0
 11
64.30601988178614
 21
623.2356949646919
 31
0.0
  0
LINE
  5
A2D
330
1E
100
AcDbEntity
  8
STEMPEL
100
AcDbLine
 10
60.30601988178614
 20
648.2356949646919
 30
0.0
 11
59.30601988178614
 21
647.2356949646918
 31
0.0
  0
LINE
  5
A2E
330
1E
100
AcDbEntity
  8
HILF
100
AcDbLine
 10
60.30601988178614
 20
648.2356949646919
 30
0.0
 11
60.30601988178614
 21
623.2356949646919
 31
0.0
  0
LINE
  5
A2F
330
1E
100
AcDbEntity
  8
STEMPEL
100
AcDbLine
 10
59.30601988178614
 20
647.2356949646918
 30
0.0
 11
59.30601988178614
 21
623.2356949646919
 31
0.0
  0
LINE
  5
A30
330
1E
100
AcDbEntity
  8
STEMPEL
100
AcDbLine
 10
68.30601988178614
 20
648.2356949646919
 30
0.0
 11
60.30601988178614
 21
648.2356949646919
 31
0.0
  0
LINE
  5
A31
330
1E
100
AcDbEntity
  8
STEMPEL
100
AcDbLine
 10
59.30601988178614
 20
647.2356949646921
 30
0.0
 11
69.30601988178614
 21
647.2356949646921
 31
0.0
  0
CIRCLE
  5
A32
330
1E
100
AcDbEntity
  8
STEMPEL
100
AcDbCircle
 10
244.3060198817861
 20
294.338375769949
 30
0.0
 40
215.0
  0
CIRCLE
  5
A33
330
1E
100
AcDbEntity
  8
STEMPEL
100
AcDbCircle
 10
400.1905925629851
 20
204.338375769949
 30
0.0
 40
5.0
  0
ARC
  5
A34
330
1E
100
AcDbEntity
  8
HILF
100
AcDbCircle
 10
400.1905925629851
 20
204.338375769949
 30
0.0
 40
4.0
100
AcDbArc
 50
90.00000000000019
 51
0.9023330394917348
  0
CIRCLE
  5
A35
330
1E
100
AcDbEntity
  8
STEMPEL
100
AcDbCircle
 10
334.3060198817862
 20
138.45380308875
 30
0.0
 40
5.0
  0
ARC
  5
A36
330
1E
100
AcDbEntity
  8
HILF
100
AcDbCircle
 10
334.3060198817862
 20
138.45380308875
 30
0.0
 40
4.0
100
AcDbArc
 50
60.00000000000017
 51
330.9023330394917
  0
CIRCLE
  5
A37
330
1E
100
AcDbEntity
  8
STEMPEL
100
AcDbCircle
 10
244.3060198817861
 20
114.338375769949
 30
0.0
 40
5.0
  0
ARC
  5
A38
330
1E
100
AcDbEntity
  8
HILF
100
AcDbCircle
 10
244.3060198817861
 20
114.338375769949
 30
0.0
 40
4.0
100
AcDbArc
 50
30.00000000000016
 51
300.9023330394917
  0
CIRCLE
  5
A39
330
1E
100
AcDbEntity
  8
STEMPEL
100
AcDbCircle
 10
154.3060198817861
 20
138.4538030887499
 30
0.0
 40
5.0
  0
ARC
  5
A3A
330
1E
100
AcDbEntity
  8
HILF
100
AcDbCircle
 10
154.3060198817861
 20
138.4538030887499
 30
0.0
 40
4.0
100
AcDbArc
 50
0.0000000000001527
 51
270.9023330394917
  0
CIRCLE
  5
A3B
330
1E
100
AcDbEntity
  8
STEMPEL
100
AcDbCircle
 10
88.42144720058707
 20
204.338375769949
 30
0.0
 40
5.0
  0
ARC
  5
A3C
330
1E
100
AcDbEntity
  8
HILF
100
AcDbCircle
 10
88.42144720058707
 20
204.338375769949
 30
0.0
 40
4.0
100
AcDbArc
 50
330.0000000000001
 51
240.9023330394917
  0
CIRCLE
  5
A3D
330
1E
100
AcDbEntity
  8
STEMPEL
100
AcDbCircle
 10
64.30601988178614
 20
294.338375769949
 30
0.0
 40
5.0
  0
ARC
  5
A3E
330
1E
100
AcDbEntity
  8
HILF
100
AcDbCircle
 10
64.30601988178614
 20
294.338375769949
 30
0.0
 40
4.0
100
AcDbArc
 50
300.0000000000002
 51
210.9023330394917
  0
CIRCLE
  5
A3F
330
1E
100
AcDbEntity
  8
STEMPEL
100
AcDbCircle
 10
88.42144720058717
 20
384.338375769949
 30
0.0
 40
5.0
  0
ARC
  5
A40
330
1E
100
AcDbEntity
  8
HILF
100
AcDbCircle
 10
88.42144720058717
 20
384.338375769949
 30
0.0
 40
4.0
100
AcDbArc
 50
270.0000000000002
 51
180.9023330394917
  0
CIRCLE
  5
A41
330
1E
100
AcDbEntity
  8
STEMPEL
100
AcDbCircle
 10
154.3060198817861
 20
450.222948451148
 30
0.0
 40
5.0
  0
ARC
  5
A42
330
1E
100
AcDbEntity
  8
HILF
100
AcDbCircle
 10
154.3060198817861
 20
450.222948451148
 30
0.0
 40
4.0
100
AcDbArc
 50
240.0000000000002
 51
150.9023330394917
  0
CIRCLE
  5
A43
330
1E
100
AcDbEntity
  8
STEMPEL
100
AcDbCircle
 10
244.306019881786
 20
474.3383757699489
 30
0.0
 40
5.0
  0
ARC
  5
A44
330
1E
100
AcDbEntity
  8
HILF
100
AcDbCircle
 10
244.306019881786
 20
474.3383757699489
 30
0.0
 40
4.0
100
AcDbArc
 50
210.0000000000002
 51
120.9023330394917
  0
CIRCLE
  5
A45
330
1E
100
AcDbEntity
  8
STEMPEL
100
AcDbCircle
 10
334.3060198817862
 20
450.2229484511478
 30
0.0
 40
5.0
  0
ARC
  5
A46
330
1E
100
AcDbEntity
  8
HILF
100
AcDbCircle
 10
334.3060198817862
 20
450.2229484511478
 30
0.0
 40
4.0
100
AcDbArc
 50
180.0000000000001
 51
90.90233303949172
  0
CIRCLE
  5
A47
330
1E
100
AcDbEntity
  8
STEMPEL
100
AcDbCircle
 10
400.190592562985
 20
384.338375769949
 30
0.0
 40
5.0
  0
ARC
  5
A48
330
1E
100
AcDbEntity
  8
HILF
100
AcDbCircle
 10
400.190592562985
 20
384.338375769949
 30
0.0
 40
4.0
100
AcDbArc
 50
150.0000000000001
 51
60.90233303949172
  0
CIRCLE
  5
A49
330
1E
100
AcDbEntity
  8
MITTEL
100
AcDbCircle
 10
244.3060198817861
 20
294.338375769949
 30
0.0
 40
180.0
  0
ARC
  5
A4A
330
1E
100
AcDbEntity
  8
HILF
100
AcDbCircle
 10
424.3060198817861
 20
294.3383757699491
 30
0.0
 40
4.0
100
AcDbArc
 50
120.0000000000001
 51
30.90233303949172
  0
CIRCLE
  5
A4B
330
1E
100
AcDbEntity
  8
STEMPEL
100
AcDbCircle
 10
424.3060198817861
 20
294.3383757699491
 30
0.0
 40
5.0
  0
LINE
  5
A4C
330
1E
100
AcDbEntity
  8
MITTEL
100
AcDbLine
 10
244.3060198817861
 20
514.3383757699488
 30
0.0
 11
244.3060198817861
 21
74.33837576994898
 31
0.0
  0
LINE
  5
A4D
330
1E
100
AcDbEntity
  8
MITTEL
100
AcDbLine
 10
24.30601988178614
 20
294.3383757699489
 30
0.0
 11
464.3060198817861
 21
294.3383757699491
 31
0.0
  0
LINE
  5
A4E
330
1E
100
AcDbEntity
  8
STEMPEL
100
AcDbLine
 10
429.306019881786
 20
647.2356949646918
 30
0.0
 11
419.3060198817859
 21
647.2356949646918
 31
0.0
  0
LINE
  5
A4F
330
1E
100
AcDbEntity
  8
STEMPEL
100
AcDbLine
 10
420.306019881786
 20
648.2356949646916
 30
0.0
 11
428.306019881786
 21
648.2356949646916
 31
0.0
  0
LINE
  5
A50
330
1E
100
AcDbEntity
  8
STEMPEL
100
AcDbLine
 10
429.306019881786
 20
647.2356949646917
 30
0.0
 11
429.306019881786
 21
623.2356949646916
 31
0.0
  0
LINE
  5
A51
330
1E
100
AcDbEntity
  8
HILF
100
AcDbLine
 10
428.306019881786
 20
648.2356949646916
 30
0.0
 11
428.306019881786
 21
623.2356949646916
 31
0.0
  0
LINE
  5
A52
330
1E
100
AcDbEntity
  8
STEMPEL
100
AcDbLine
 10
428.306019881786
 20
648.2356949646916
 30
0.0
 11
429.306019881786
 21
647.2356949646917
 31
0.0
  0
LINE
  5
A53
330
1E
100
AcDbEntity
  8
MITTEL
100
AcDbLine
 10
424.306019881786
 20
653.2356949646919
 30
0.0
 11
424.306019881786
 21
623.2356949646916
 31
0.0
  0
LINE
  5
A54
330
1E
100
AcDbEntity
  8
STEMPEL
100
AcDbLine
 10
419.3060198817859
 20
647.2356949646917
 30
0.0
 11
419.3060198817859
 21
623.2356949646916
 31
0.0
  0
LINE
  5
A55
330
1E
100
AcDbEntity
  8
HILF
100
AcDbLine
 10
420.306019881786
 20
648.2356949646916
 30
0.0
 11
420.306019881786
 21
623.2356949646916
 31
0.0
  0
LINE
  5
A56
330
1E
100
AcDbEntity
  8
STEMPEL
100
AcDbLine
 10
419.3060198817859
 20
647.2356949646917
 30
0.0
 11
420.306019881786
 21
648.2356949646916
 31
0.0
  0
LINE
  5
A5A
102
{ACAD_REACTORS
330
BC9
102
}
330
1E
100
AcDbEntity
  8
STEMPEL
100
AcDbLine
 10
459.3060198817861
 20
622.2356949646918
 30
0.0
 11
459.3060198817861
 21
620.2356949646921
 31
0.0
  0
LINE
  5
A5B
330
1E
100
AcDbEntity
  8
MITTEL
100
AcDbLine
 10
244.3060198817861
 20
666.235694964692
 30
0.0
 11
244.3060198817861
 21
615.2356949646919
 31
0.0
  0
LINE
  5
A5C
330
1E
100
AcDbEntity
  8
STEMPEL
100
AcDbLine
 10
128.070234375648
 20
661.2356949646921
 30
0.0
 11
360.541624109819
 21
661.2356949646919
 31
0.0
  0
TEXT
  5
A5D
330
1E
100
AcDbEntity
  8
TEXT
100
AcDbText
 10
478.5631960397552
 20
473.1328892168325
 30
0.0
 40
5.0
  1
Erstellt mit AUTOCAD 2004
 50
90.0
 41
0.8
100
AcDbText
  0
TEXT
  5
A5E
330
1E
100
AcDbEntity
  8
TEXT
100
AcDbText
 10
531.0
 20
624.7428571428571
 30
0.0
 40
4.0
  1
Koeh
 50
90.0
 41
0.8
 72
     4
 11
529.0
 21
630.0
 31
0.0
100
AcDbText
  0
TEXT
  5
A5F
330
1E
100
AcDbEntity
  8
TEXT
100
AcDbText
 10
531.0
 20
590.2190476190476
 30
0.0
 40
4.0
  1
30:11:
 50
90.0
 41
0.8
 72
     4
 11
529.0
 21
597.0
 31
0.0
100
AcDbText
  0
TEXT
  5
A60
330
1E
100
AcDbEntity
  8
TEXT
100
AcDbText
 10
521.0
 20
623.6761904761905
 30
0.0
 40
4.0
  1
Name
 50
90.0
 41
0.8
 72
     4
 11
519.0
 21
630.0
 31
0.0
100
AcDbText
  0
TEXT
  5
A61
330
1E
100
AcDbEntity
  8
TEXT
100
AcDbText
 10
520.3333333333334
 20
593.2666666666666
 30
0.0
 40
4.0
  1
Tag
 50
90.0
 41
0.8
 72
     4
 11
519.0
 21
597.0
 31
0.0
100
AcDbText
  0
TEXT
  5
A62
330
1E
100
AcDbEntity
  8
TEXT
100
AcDbText
 10
521.0
 20
569.6666666666666
 30
0.0
 40
4.0
  1
2010
 50
90.0
 41
0.8
 72
     4
 11
519.0
 21
575.0
 31
0.0
100
AcDbText
  0
TEXT
  5
A63
330
1E
100
AcDbEntity
  8
TEXT
 62
     1
100
AcDbText
 10
505.8017341629681
 20
582.0000000000001
 30
0.0
 40
7.0
  1
1:2
 50
90.0
 41
0.8
 72
     1
 11
505.8017341629681
 21
588.0000000000001
 31
0.0
100
AcDbText
  0
TEXT
  5
A64
330
1E
100
AcDbEntity
  8
TEXT
100
AcDbText
 10
506.0254814117802
 20
614.1333333333333
 30
0.0
 40
4.0
  1
DIN ISO2768-c
 50
90.0
 41
0.7
 72
     1
 11
506.0254814117802
 21
630.0
 31
0.0
100
AcDbText
  0
TEXT
  5
A65
330
1E
100
AcDbEntity
  8
TEXT
100
AcDbText
 10
491.4510671988221
 20
616.5714285714285
 30
0.0
 40
5.0
  1
Zul. Abw.
 50
90.0
 41
0.8
 72
     1
 11
491.4510671988221
 21
630.0
 31
0.0
100
AcDbText
  0
TEXT
  5
A66
330
1E
100
AcDbEntity
  8
TEXT
100
AcDbText
 10
491.4510671988221
 20
576.1904761904762
 30
0.0
 40
5.0
  1
Maßstab
 50
90.0
 41
0.8
 72
     1
 11
491.4510671988221
 21
588.0000000000001
 31
0.0
100
AcDbText
  0
LINE
  5
A67
330
1E
100
AcDbEntity
  8
HILF
100
AcDbLine
 10
10.0
 20
460.0000000000001
 30
0.0
 11
0.0
 21
460.0000000000001
 31
0.0
  0
LINE
  5
A68
330
1E
100
AcDbEntity
  8
HILF
100
AcDbLine
 10
594.0
 20
460.0000000000001
 30
0.0
 11
584.0
 21
460.0000000000001
 31
0.0
  0
INSERT
  5
A69
330
1E
100
AcDbEntity
  8
STEMPEL
100
AcDbBlockReference
  2
LOGO
 10
549.6760802813287
 20
568.9705276546529
 30
0.0
 41
2.0
 42
2.0
 43
2.0
 50
90.0
  0
TEXT
  5
A6A
330
1E
100
AcDbEntity
  8
TEXT
100
AcDbText
 10
552.0
 20
654.9713400534564
 30
0.0
 40
4.0
  1
21806200W.DWG
 50
90.0
 41
0.8
100
AcDbText
  0
TEXT
  5
A6B
330
1E
100
AcDbEntity
  8
TEXT
100
AcDbText
 10
532.0
 20
654.8863039776644
 30
0.0
 40
5.0
  1
für LORO-FLEX Rohrdurchführung DN150
 50
90.0
 41
0.57
100
AcDbText
  0
TEXT
  5
A6C
330
1E
100
AcDbEntity
  8
TEXT
 62
     1
100
AcDbText
 10
508.2201636304419
 20
766.9044394842363
 30
0.0
 40
7.0
  1
21806200W
 50
90.0
 41
0.8
 72
     1
 11
508.2201636304419
 21
790.3711061509031
 31
0.0
100
AcDbText
  0
TEXT
  5
A6D
330
1E
100
AcDbEntity
  8
TEXT
100
AcDbText
 10
583.4462193823214
 20
836.4132055378062
 30
0.0
 40
4.0
  1
Diese Zeichnung ist urheberrechtlich geschuetzt und bleibt unser Eigentum. Sie darf weder ganz noch teilweise vervielfaeltigt und nicht an Dritte weitergegeben werden.
 50
180.0
 41
0.8
100
AcDbText
  0
TEXT
  5
A6E
330
1E
100
AcDbEntity
  8
TEXT
100
AcDbText
 10
542.0
 20
655.162303158329
 30
0.0
 40
5.0
  1
EDV-Art.Nr. 21806.200X
 50
90.0
 41
0.8
100
AcDbText
  0
TEXT
  5
A6F
330
1E
100
AcDbEntity
  8
TEXT
100
AcDbText
 10
522.0
 20
654.862987254257
 30
0.0
 40
5.0
  1
DN200 mit Bolzen
 50
90.0
 41
0.8
100
AcDbText
  0
LINE
  5
A70
330
1E
100
AcDbEntity
  8
STEMPEL
100
AcDbLine
 10
10.0
 20
40.0
 30
0.0
 11
584.0
 21
40.0
 31
0.0
  0
LINE
  5
A71
330
1E
100
AcDbEntity
  8
STEMPEL
100
AcDbLine
 10
584.0
 20
830.0
 30
0.0
 11
10.0
 21
830.0
 31
0.0
  0
LINE
  5
A72
330
1E
100
AcDbEntity
  8
STEMPEL
100
AcDbLine
 10
584.0
 20
40.0
 30
0.0
 11
584.0
 21
830.0
 31
0.0
  0
LINE
  5
A73
330
1E
100
AcDbEntity
  8
STEMPEL
100
AcDbLine
 10
10.0
 20
830.0
 30
0.0
 11
10.0
 21
40.0
 31
0.0
  0
LINE
  5
A74
330
1E
100
AcDbEntity
  8
HILF
100
AcDbLine
 10
0.0
 20
0.0
 30
0.0
 11
594.0
 21
0.0
 31
0.0
  0
LINE
  5
A75
330
1E
100
AcDbEntity
  8
HILF
100
AcDbLine
 10
0.0
 20
840.0000000000002
 30
0.0
 11
0.0
 21
0.0
 31
0.0
  0
LINE
  5
A76
330
1E
100
AcDbEntity
  8
HILF
100
AcDbLine
 10
594.0
 20
840.0000000000002
 30
0.0
 11
0.0
 21
840.0000000000002
 31
0.0
  0
LINE
  5
A77
330
1E
100
AcDbEntity
  8
HILF
100
AcDbLine
 10
594.0
 20
0.0
 30
0.0
 11
594.0
 21
840.0000000000002
 31
0.0
  0
TEXT
  5
A78
330
1E
100
AcDbEntity
  8
TEXT
100
AcDbText
 10
541.925838221214
 20
757.2400861497007
 30
0.0
 40
5.0
  1
ersetzt durch:
 50
90.0
 41
0.8
100
AcDbText
  0
TEXT
  5
A79
330
1E
100
AcDbEntity
  8
TEXT
100
AcDbText
 10
550.470536103502
 20
567.6006777387303
 30
0.0
 40
4.0
  1
Norm.
 50
90.0
 41
0.8
100
AcDbText
  0
TEXT
  5
A7A
330
1E
100
AcDbEntity
  8
TEXT
100
AcDbText
 10
540.3107370857163
 20
567.5515086571671
 30
0.0
 40
4.0
  1
Gepr.
 50
90.0
 41
0.8
100
AcDbText
  0
TEXT
  5
A7B
330
1E
100
AcDbEntity
  8
TEXT
100
AcDbText
 10
530.3700963038204
 20
567.5836127167614
 30
0.0
 40
4.0
  1
Gez.
 50
90.0
 41
0.8
100
AcDbText
  0
TEXT
  5
A7C
330
1E
100
AcDbEntity
  8
TEXT
100
AcDbText
 10
576.0
 20
548.6761904761904
 30
0.0
 40
4.0
  1
Name
 50
90.0
 41
0.8
 72
     4
 11
574.0
 21
554.9999999999998
 31
0.0
100
AcDbText
  0
TEXT
  5
A7D
330
1E
100
AcDbEntity
  8
TEXT
100
AcDbText
 10
575.3333333333333
 20
530.2666666666666
 30
0.0
 40
4.0
  1
Tag
 50
90.0
 41
0.8
 72
     4
 11
574.0
 21
534.0
 31
0.0
100
AcDbText
  0
TEXT
  5
A7E
330
1E
100
AcDbEntity
  8
TEXT
100
AcDbText
 10
580.345341539728
 20
478.2664110704574
 30
0.0
 40
4.0
  1
Index
 50
180.0
 41
0.8
100
AcDbText
  0
TEXT
  5
A7F
330
1E
100
AcDbEntity
  8
TEXT
100
AcDbText
 10
520.8188176290004
 20
756.7238616296994
 30
0.0
 40
5.0
  1
Ersatz für:
 50
90.0
 41
0.8
100
AcDbText
  0
TEXT
  5
A80
330
1E
100
AcDbEntity
  8
TEXT
100
AcDbText
 10
563.1543942980695
 20
654.7422383911358
 30
0.0
 40
5.0
  1
Bauvorhaben
 50
90.0
 41
0.8
100
AcDbText
  0
TEXT
  5
A81
330
1E
100
AcDbEntity
  8
TEXT
100
AcDbText
 10
491.6867965462865
 20
756.1787549576341
 30
0.0
 40
5.0
  1
Zeichnungs Nr.
 50
90.0
 41
0.8
100
AcDbText
  0
TEXT
  5
A82
330
1E
100
AcDbEntity
  8
TEXT
100
AcDbText
 10
491.4510671988221
 20
654.8779403809009
 30
0.0
 40
5.0
  1
Benennung
 50
90.0
 41
0.8
100
AcDbText
  0
TEXT
  5
A83
330
1E
100
AcDbEntity
  8
TEXT
100
AcDbText
 10
575.7142857142857
 20
493.2571428571428
 30
0.0
 40
4.0
  1
Änderung
 50
90.0
 41
0.8
 72
     4
 11
574.0
 21
503.9999999999999
 31
0.0
100
AcDbText
  0
LINE
  5
A84
330
1E
100
AcDbEntity
  8
HILF
100
AcDbLine
 10
579.1060174197168
 20
654.7736801096947
 30
0.0
 11
579.1060174197168
 21
824.8588839326728
 31
0.0
  0
LINE
  5
A85
330
1E
100
AcDbEntity
  8
HILF
100
AcDbLine
 10
510.2201636304418
 20
756.7238616296994
 30
0.0
 11
510.2201636304418
 21
824.8588839326728
 31
0.0
  0
LINE
  5
A86
330
1E
100
AcDbEntity
  8
VOLL
100
AcDbLine
 10
534.0
 20
752.0000000000001
 30
0.0
 11
534.0
 21
830.0
 31
0.0
  0
LINE
  5
A87
330
1E
100
AcDbEntity
  8
HILF
100
AcDbLine
 10
544.0
 20
654.7736801096947
 30
0.0
 11
544.0
 21
746.629784251481
 31
0.0
  0
LINE
  5
A88
330
1E
100
AcDbEntity
  8
HILF
100
AcDbLine
 10
534.0
 20
654.7736801096947
 30
0.0
 11
534.0
 21
746.629784251481
 31
0.0
  0
LINE
  5
A89
330
1E
100
AcDbEntity
  8
HILF
100
AcDbLine
 10
524.0
 20
654.7736801096947
 30
0.0
 11
524.0
 21
746.629784251481
 31
0.0
  0
LINE
  5
A8A
330
1E
100
AcDbEntity
  8
HILF
100
AcDbLine
 10
509.9624175243587
 20
654.7736801096947
 30
0.0
 11
509.9624175243587
 21
746.629784251481
 31
0.0
  0
LINE
  5
A8B
330
1E
100
AcDbEntity
  8
HILF
100
AcDbLine
 10
544.0
 20
566.0000000000001
 30
0.0
 11
544.0
 21
649.9999999999999
 31
0.0
  0
LINE
  5
A8C
330
1E
100
AcDbEntity
  8
HILF
100
AcDbLine
 10
534.0
 20
566.0000000000001
 30
0.0
 11
534.0
 21
649.9999999999999
 31
0.0
  0
LINE
  5
A8D
330
1E
100
AcDbEntity
  8
HILF
100
AcDbLine
 10
524.0
 20
566.0000000000001
 30
0.0
 11
524.0
 21
649.9999999999999
 31
0.0
  0
LINE
  5
A8E
330
1E
100
AcDbEntity
  8
HILF
100
AcDbLine
 10
554.0
 20
470.0
 30
0.0
 11
554.0
 21
566.0000000000001
 31
0.0
  0
LINE
  5
A8F
330
1E
100
AcDbEntity
  8
HILF
100
AcDbLine
 10
544.0
 20
470.0
 30
0.0
 11
544.0
 21
566.0000000000001
 31
0.0
  0
LINE
  5
A90
330
1E
100
AcDbEntity
  8
HILF
100
AcDbLine
 10
534.0
 20
470.0
 30
0.0
 11
534.0
 21
566.0000000000001
 31
0.0
  0
LINE
  5
A91
330
1E
100
AcDbEntity
  8
HILF
100
AcDbLine
 10
524.0
 20
470.0
 30
0.0
 11
524.0
 21
566.0000000000001
 31
0.0
  0
LINE
  5
A92
330
1E
100
AcDbEntity
  8
HILF
100
AcDbLine
 10
514.0
 20
470.0
 30
0.0
 11
514.0
 21
566.0000000000001
 31
0.0
  0
LINE
  5
A93
330
1E
100
AcDbEntity
  8
HILF
100
AcDbLine
 10
504.0
 20
470.0
 30
0.0
 11
504.0
 21
566.0000000000001
 31
0.0
  0
LINE
  5
A94
330
1E
100
AcDbEntity
  8
HILF
100
AcDbLine
 10
494.0
 20
470.0
 30
0.0
 11
494.0
 21
566.0000000000001
 31
0.0
  0
LINE
  5
A95
330
1E
100
AcDbEntity
  8
VOLL
100
AcDbLine
 10
484.0000000000002
 20
610.0000000000001
 30
0.0
 11
554.0
 21
609.9999999999998
 31
0.0
  0
LINE
  5
A96
330
1E
100
AcDbEntity
  8
VOLL
100
AcDbLine
 10
514.0
 20
584.0000000000001
 30
0.0
 11
554.0
 21
584.0000000000001
 31
0.0
  0
LINE
  5
A97
330
1E
100
AcDbEntity
  8
VOLL
100
AcDbLine
 10
484.0
 20
544.0000000000001
 30
0.0
 11
584.0
 21
543.9999999999998
 31
0.0
  0
LINE
  5
A98
330
1E
100
AcDbEntity
  8
VOLL
100
AcDbLine
 10
484.0
 20
524.0000000000001
 30
0.0
 11
584.0
 21
523.9999999999999
 31
0.0
  0
LINE
  5
A99
330
1E
100
AcDbEntity
  8
VOLL
100
AcDbLine
 10
484.0
 20
484.0
 30
0.0
 11
584.0
 21
483.9999999999998
 31
0.0
  0
LINE
  5
A9A
330
1E
100
AcDbEntity
  8
STEMPEL
100
AcDbLine
 10
514.0
 20
830.0
 30
0.0
 11
514.0
 21
566.0000000000001
 31
0.0
  0
LINE
  5
A9B
330
1E
100
AcDbEntity
  8
STEMPEL
100
AcDbLine
 10
554.0
 20
830.0
 30
0.0
 11
554.0
 21
565.9999999999999
 31
0.0
  0
LINE
  5
A9C
330
1E
100
AcDbEntity
  8
STEMPEL
100
AcDbLine
 10
564.0
 20
565.9999999999999
 30
0.0
 11
564.0
 21
469.9999999999999
 31
0.0
  0
LINE
  5
A9D
330
1E
100
AcDbEntity
  8
STEMPEL
100
AcDbLine
 10
484.0000000000004
 20
752.0000000000001
 30
0.0
 11
554.0
 21
752.0000000000001
 31
0.0
  0
LINE
  5
A9E
330
1E
100
AcDbEntity
  8
STEMPEL
100
AcDbLine
 10
484.0
 20
649.9999999999999
 30
0.0
 11
584.0
 21
649.9999999999999
 31
0.0
  0
LINE
  5
A9F
330
1E
100
AcDbEntity
  8
STEMPEL
100
AcDbLine
 10
484.0
 20
566.0000000000001
 30
0.0
 11
584.0
 21
565.9999999999999
 31
0.0
  0
LINE
  5
AA0
330
1E
100
AcDbEntity
  8
STEMPEL
100
AcDbLine
 10
484.0
 20
470.0
 30
0.0
 11
584.0
 21
469.9999999999999
 31
0.0
  0
LINE
  5
AA1
330
1E
100
AcDbEntity
  8
STEMPEL
100
AcDbLine
 10
484.0
 20
830.0
 30
0.0
 11
484.0
 21
470.0
 31
0.0
  0
TEXT
  5
AA2
330
1E
100
AcDbEntity
  8
TEXT
 62
     1
100
AcDbText
 10
507.9624175243586
 20
654.979117340995
 30
0.0
 40
7.0
  1
Festflansch
 50
90.0
 41
0.8
100
AcDbText
  0
DIMENSION
  5
B4D
330
1E
100
AcDbEntity
  8
BEM
100
AcDbDimension
  2
*D7
 10
464.3060198817861
 20
294.3383757699491
 30
0.0
 11
478.8509708699473
 21
357.184505976024
 31
0.0
 70
    34
 71
     5
 42
0.5235987755982981
  3
Standard
100
AcDb2LineAngularDimension
 13
408.8508466008294
 23
389.338375769949
 33
0.0
 14
391.5303385251407
 24
379.3383757699491
 34
0.0
 15
24.30601988178614
 25
294.3383757699489
 35
0.0
 16
477.0346072827277
 26
335.3747049109031
 36
0.0
1001
ACAD
1000
DSTYLE
1002
{
1070
    40
1040
2.0
1070
    41
1040
3.5
1070
    42
1040
1.0
1070
    43
1040
7.0
1070
    44
1040
1.0
1070
    47
1040
0.5
1070
    48
1040
1.5
1070
    73
1070
     0
1070
    74
1070
     0
1070
    77
1070
     1
1070
    78
1070
     8
1070
    79
1070
     2
1070
   140
1040
3.5
1070
   141
1040
1.5
1070
   146
1040
0.5
1070
   147
1040
1.5
1070
   172
1070
     1
1070
   178
1070
     1
1070
   179
1070
     2
1070
   271
1070
     2
1070
   272
1070
     2
1070
   284
1070
     8
1070
   285
1070
     8
1070
   286
1070
     8
1002
}
  0
DIMENSION
  5
B5C
330
1E
100
AcDbEntity
  8
BEM
100
AcDbDimension
  2
*D8
 10
425.3367241873917
 20
446.241172984546
 30
0.0
 11
416.0048406638724
 21
466.0371965520353
 31
0.0
 70
    37
 71
     5
 42
0.5235987755982981
  3
Standard
100
AcDb3PointAngularDimension
 13
408.8508466008294
 23
389.338375769949
 33
0.0
 14
339.3060198817862
 24
458.8832024889923
 34
0.0
 15
244.3060198817863
 25
294.338375769949
 35
0.0
1001
ACAD
1000
DSTYLE
1002
{
1070
   279
1070
     1
1070
    40
1040
2.0
1070
    41
1040
3.5
1070
    42
1040
1.0
1070
    43
1040
7.0
1070
    44
1040
1.0
1070
    47
1040
0.5
1070
    48
1040
1.5
1070
    73
1070
     0
1070
    74
1070
     0
1070
    77
1070
     1
1070
    78
1070
     8
1070
    79
1070
     2
1070
   140
1040
3.5
1070
   141
1040
1.5
1070
   146
1040
0.5
1070
   147
1040
1.5
1070
   172
1070
     1
1070
   178
1070
     1
1070
   179
1070
     2
1070
   271
1070
     2
1070
   272
1070
     2
1070
   284
1070
     8
1070
   285
1070
     8
1070
   286
1070
     8
1002
}
  0
LINE
  5
B96
102
{ACAD_REACTORS
330
BC9
102
}
330
1E
100
AcDbEntity
  8
STEMPEL
100
AcDbLine
 10
128.070234375648
 20
661.2356949646921
 30
0.0
 11
112.3624317094013
 21
625.0413626155973
 31
0.0
  0
LINE
  5
B98
102
{ACAD_REACTORS
330
BC9
102
}
330
1E
100
AcDbEntity
  8
STEMPEL
100
AcDbLine
 10
128.070234375648
 20
661.2356949646921
 30
0.0
 11
130.8222464104884
 21
660.0413626155976
 31
0.0
  0
ARC
  5
B99
102
{ACAD_REACTORS
330
BC9
102
}
330
1E
100
AcDbEntity
  8
STEMPEL
100
AcDbCircle
 10
109.610419674561
 20
626.235694964692
 30
0.0
 40
3.0
100
AcDbArc
 50
270.0000000000001
 51
336.5398725880985
  0
ARC
  5
B9A
102
{ACAD_REACTORS
330
BC9
102
}
330
1E
100
AcDbEntity
  8
STEMPEL
100
AcDbCircle
 10
109.610419674561
 20
626.235694964692
 30
0.0
 40
6.0
100
AcDbArc
 50
270.0000000000001
 51
336.5398725880985
  0
ARC
  5
B9B
102
{ACAD_REACTORS
330
BC9
102
}
330
1E
100
AcDbEntity
  8
STEMPEL
100
AcDbCircle
 10
379.0016200890113
 20
626.235694964692
 30
0.0
 40
6.0
100
AcDbArc
 50
203.4601274119014
 51
269.9999999999999
  0
ARC
  5
B9C
102
{ACAD_REACTORS
330
BC9
102
}
330
1E
100
AcDbEntity
  8
STEMPEL
100
AcDbCircle
 10
379.0016200890113
 20
626.235694964692
 30
0.0
 40
3.0
100
AcDbArc
 50
203.4601274119014
 51
269.9999999999999
  0
LINE
  5
B9D
102
{ACAD_REACTORS
330
BC9
102
}
330
1E
100
AcDbEntity
  8
STEMPEL
100
AcDbLine
 10
360.5418053879242
 20
661.2356949646921
 30
0.0
 11
357.7897933530838
 21
660.0413626155976
 31
0.0
  0
LINE
  5
B9E
102
{ACAD_REACTORS
330
BC9
102
}
330
1E
100
AcDbEntity
  8
STEMPEL
100
AcDbLine
 10
360.5418053879242
 20
661.2356949646921
 30
0.0
 11
376.2496080541709
 21
625.0413626155973
 31
0.0
  0
LINE
  5
B9F
102
{ACAD_REACTORS
330
BC9
102
}
330
1E
100
AcDbEntity
  8
STEMPEL
100
AcDbLine
 10
357.7897933530838
 20
660.0413626155976
 30
0.0
 11
373.4975960193307
 21
623.8470302665025
 31
0.0
  0
LINE
  5
BA0
330
1E
100
AcDbEntity
  8
BEM
100
AcDbLine
 10
373.4975960193307
 20
623.8470302665025
 30
0.0
 11
375.0648619032645
 21
620.2356949646916
 31
0.0
  0
LINE
  5
BA1
330
1E
100
AcDbEntity
  8
BEM
100
AcDbLine
 10
115.1144437442416
 20
623.8470302665026
 30
0.0
 11
113.5471778603078
 21
620.2356949646916
 31
0.0
  0
HATCH
  5
BC9
330
1E
100
AcDbEntity
  8
SCHRAFF
100
AcDbHatch
 10
0.0
 20
0.0
 30
0.0
210
0.0
220
0.0
230
1.0
  2
_USER
 70
     0
 71
     1
 91
        2
 92
        7
 72
     1
 73
     1
 93
        9
 10
459.306019881786
 20
620.2356949646921
 42
0.0
 10
459.3060198817861
 20
622.2356949646917
 42
0.0
 10
458.306019881786
 20
623.2356949646919
 42
0.0
 10
379.0016200890113
 20
623.2356949646917
 42
-0.2987776168895837
 10
376.2496080541709
 20
625.0413626155973
 42
0.0
 10
360.5418053879242
 20
661.2356949646921
 42
0.0
 10
357.7897933530839
 20
660.0413626155976
 42
0.0
 10
373.4975960193307
 20
623.8470302665025
 42
0.298777616889559
 10
379.0016200890113
 20
620.235694964692
 42
0.0
 97
        9
330
A23
330
9F4
330
B9C
330
B9E
330
B9D
330
B9F
330
B9B
330
9EE
330
A5A
 92
        7
 72
     1
 73
     1
 93
        9
 10
109.610419674561
 20
620.2356949646915
 42
0.2987776168895771
 10
115.1144437442416
 20
623.8470302665026
 42
0.0
 10
130.8222464104884
 20
660.0413626155976
 42
0.0
 10
128.070234375648
 20
661.2356949646922
 42
0.0
 10
112.3624317094013
 20
625.0413626155973
 42
-0.298777616889565
 10
109.610419674561
 20
623.235694964692
 42
0.0
 10
30.30601988178614
 20
623.2356949646919
 42
0.0
 10
29.30601988178614
 20
622.2356949646918
 42
0.0
 10
29.30601988178614
 20
620.2356949646914
 42
0.0
 97
        9
330
9E8
330
B98
330
B96
330
B99
330
9F7
330
A24
330
A25
330
9EE
330
B9A
 75
     0
 76
     0
 52
45.0
 41
2.0
 77
     0
 78
     1
 53
45.0
 43
0.0
 44
0.0
 45
-1.414213562373094
 46
1.414213562373095
 79
     0
 47
0.4856022880140144
 98
        2
 10
398.0733589046972
 20
621.4948974843093
 10
84.76209774454629
 20
621.0092955557723
  0
CIRCLE
  5
BCB
330
1E
100
AcDbEntity
  8
STEMPEL
100
AcDbCircle
 10
244.3060198817861
 20
294.338375769949
 30
0.0
 40
116.2357855061381
  0
TEXT
  5
BF4
330
1E
100
AcDbEntity
  8
TEXT
 62
     1
100
AcDbText
 10
118.4584268783744
 20
767.0861343795341
 30
0.0
 40
7.0
  1
Werkstoff: 1.4301, Platine A%%C430 x I%%c177 x 3mm
 41
0.8
  7
GREEKS
100
AcDbText
  0
ENDSEC
  0
SECTION
  2
OBJECTS
  0
DICTIONARY
  5
C
330
0
100
AcDbDictionary
281
     1
  3
ACAD_COLOR
350
11A
  3
ACAD_GROUP
350
D
  3
ACAD_LAYOUT
350
19
  3
ACAD_MATERIAL
350
119
  3
ACAD_MLINESTYLE
350
16
  3
ACAD_PLOTSETTINGS
350
18
  3
ACAD_PLOTSTYLENAME
350
E
  3
AcDbVariableDictionary
350
125
  0
DICTIONARY
  5
DB
330
1E
100
AcDbDictionary
280
     1
281
     1
  3
ACAD_LAYOUTSELFREF
360
10F
  0
DICTIONARY
  5
DD
330
1A
100
AcDbDictionary
280
     1
281
     1
  3
ACAD_LAYOUTSELFREF
360
10E
  0
DICTIONARY
  5
11A
102
{ACAD_REACTORS
330
C
102
}
330
C
100
AcDbDictionary
281
     1
  0
DICTIONARY
  5
D
102
{ACAD_REACTORS
330
C
102
}
330
C
100
AcDbDictionary
281
     1
  0
DICTIONARY
  5
19
102
{ACAD_REACTORS
330
C
102
}
330
C
100
AcDbDictionary
281
     1
  3
Layout1
350
1D
  3
Model
350
21
  0
DICTIONARY
  5
119
102
{ACAD_REACTORS
330
C
102
}
330
C
100
AcDbDictionary
281
     1
  0
DICTIONARY
  5
16
102
{ACAD_REACTORS
330
C
102
}
330
C
100
AcDbDictionary
281
     1
  3
Standard
350
17
  0
DICTIONARY
  5
18
102
{ACAD_REACTORS
330
C
102
}
330
C
100
AcDbDictionary
281
     1
  0
ACDBDICTIONARYWDFLT
  5
E
102
{ACAD_REACTORS
330
C
102
}
330
C
100
AcDbDictionary
281
     1
  3
Normal
350
F
100
AcDbDictionaryWithDefault
340
F
  0
DICTIONARY
  5
125
102
{ACAD_REACTORS
330
C
102
}
330
C
100
AcDbDictionary
281
     1
  3
DIMASSOC
350
126
  3
PROJECTNAME
350
127
  0
XRECORD
  5
10F
102
{ACAD_REACTORS
330
DB
102
}
330
DB
100
AcDbXrecord
280
     1
340
1E
  0
XRECORD
  5
10E
102
{ACAD_REACTORS
330
DD
102
}
330
DD
100
AcDbXrecord
280
     1
340
1A
  0
LAYOUT
  5
1D
102
{ACAD_REACTORS
330
19
102
}
330
19
100
AcDbPlotSettings
  1

  2
\\NT_WORK01\HP LaserJet 5000 PCL 6
  4

  6

 40
0.0
 41
0.0
 42
0.0
 43
0.0
 44
0.0
 45
0.0
 46
0.0
 47
0.0
 48
0.0
 49
0.0
140
0.0
141
0.0
142
1.0
143
1.0
 70
   688
 72
     0
 73
     0
 74
     5
  7

 75
    16
147
1.0
 76
     0
 77
     2
 78
   300
148
0.0
149
0.0
100
AcDbLayout
  1
Layout1
 70
     0
 71
     1
 10
0.0
 20
0.0
 11
12.0
 21
9.0
 12
0.0
 22
0.0
 32
0.0
 14
1.000000000000000E+20
 24
1.000000000000000E+20
 34
1.000000000000000E+20
 15
-1.000000000000000E+20
 25
-1.000000000000000E+20
 35
-1.000000000000000E+20
146
0.0
 13
0.0
 23
0.0
 33
0.0
 16
1.0
 26
0.0
 36
0.0
 17
0.0
 27
1.0
 37
0.0
 76
     0
330
1A
  0
LAYOUT
  5
21
102
{ACAD_REACTORS
330
19
102
}
330
19
100
AcDbPlotSettings
  1

  2
none_device
  4
Letter_(8.50_x_11.00_Inches)
  6

 40
6.349999904632568
 41
6.349999904632568
 42
6.350006103515625
 43
6.350006103515625
 44
215.8999938964844
 45
279.3999938964844
 46
0.0
 47
0.0
 48
0.0
 49
0.0
140
0.0
141
0.0
142
1.0
143
1.0
 70
 11952
 72
     0
 73
     1
 74
     0
  7

 75
     0
147
1.0
 76
     0
 77
     2
 78
   300
148
3211.004394430903
149
86.80437988270425
100
AcDbLayout
  1
Model
 70
     1
 71
     0
 10
0.0
 20
0.0
 11
12.0
 21
9.0
 12
0.0
 22
0.0
 32
0.0
 14
0.0
 24
0.0
 34
0.0
 15
0.0
 25
0.0
 35
0.0
146
0.0
 13
0.0
 23
0.0
 33
0.0
 16
1.0
 26
0.0
 36
0.0
 17
0.0
 27
1.0
 37
0.0
 76
     0
330
1E
  0
MLINESTYLE
  5
17
102
{ACAD_REACTORS
330
16
102
}
330
16
100
AcDbMlineStyle
  2
STANDARD
 70
     0
  3

 62
   256
 51
90.0
 52
90.0
 71
     2
 49
0.5
 62
   256
  6
BYLAYER
 49
-0.5
 62
   256
  6
BYLAYER
  0
ACDBPLACEHOLDER
  5
F
102
{ACAD_REACTORS
330
E
102
}
330
E
  0
DICTIONARYVAR
  5
126
102
{ACAD_REACTORS
330
125
102
}
330
125
100
DictionaryVariables
280
     0
  1
1
  0
DICTIONARYVAR
  5
127
102
{ACAD_REACTORS
330
125
102
}
330
125
100
DictionaryVariables
280
     0
  1

  0
ENDSEC
  0
EOF
