  0
SECTION
  2
HEADER
  9
$ACADVER
  1
AC1018
  9
$ACADMAINTVER
 70
     2
  9
$DWGCODEPAGE
  3
ANSI_1252
  9
$INSBASE
 10
0.0
 20
0.0
 30
0.0
  9
$EXTMIN
 10
0.0
 20
-0.0000000000000568
 30
0.0
  9
$EXTMAX
 10
594.0
 20
840.0
 30
0.0
  9
$LIMMIN
 10
0.0
 20
0.0
  9
$LIMMAX
 10
594.0
 20
840.0
  9
$ORTHOMODE
 70
     1
  9
$REGENMODE
 70
     1
  9
$FILLMODE
 70
     1
  9
$QTEXTMODE
 70
     0
  9
$MIRRTEXT
 70
     1
  9
$LTSCALE
 40
20.0
  9
$ATTMODE
 70
     1
  9
$TEXTSIZE
 40
3.5
  9
$TRACEWID
 40
1.0
  9
$TEXTSTYLE
  7
STANDARD
  9
$CLAYER
  8
BEM
  9
$CELTYPE
  6
ByLayer
  9
$CECOLOR
 62
   256
  9
$CELTSCALE
 40
1.0
  9
$DISPSILH
 70
     0
  9
$DIMSCALE
 40
2.0
  9
$DIMASZ
 40
3.5
  9
$DIMEXO
 40
1.0
  9
$DIMDLI
 40
7.0
  9
$DIMRND
 40
0.0
  9
$DIMDLE
 40
0.0
  9
$DIMEXE
 40
1.0
  9
$DIMTP
 40
0.0
  9
$DIMTM
 40
0.0
  9
$DIMTXT
 40
3.5
  9
$DIMCEN
 40
1.5
  9
$DIMTSZ
 40
0.0
  9
$DIMTOL
 70
     0
  9
$DIMLIM
 70
     0
  9
$DIMTIH
 70
     0
  9
$DIMTOH
 70
     0
  9
$DIMSE1
 70
     0
  9
$DIMSE2
 70
     0
  9
$DIMTAD
 70
     1
  9
$DIMZIN
 70
     8
  9
$DIMBLK
  1

  9
$DIMASO
 70
     1
  9
$DIMSHO
 70
     0
  9
$DIMPOST
  1

  9
$DIMAPOST
  1

  9
$DIMALT
 70
     0
  9
$DIMALTD
 70
     2
  9
$DIMALTF
 40
25.4
  9
$DIMLFAC
 40
1.0
  9
$DIMTOFL
 70
     1
  9
$DIMTVP
 40
0.0
  9
$DIMTIX
 70
     0
  9
$DIMSOXD
 70
     0
  9
$DIMSAH
 70
     0
  9
$DIMBLK1
  1

  9
$DIMBLK2
  1

  9
$DIMSTYLE
  2
Standard
  9
$DIMCLRD
 70
     0
  9
$DIMCLRE
 70
     0
  9
$DIMCLRT
 70
     1
  9
$DIMTFAC
 40
0.5142857142857144
  9
$DIMGAP
 40
1.5
  9
$DIMJUST
 70
     0
  9
$DIMSD1
 70
     0
  9
$DIMSD2
 70
     0
  9
$DIMTOLJ
 70
     1
  9
$DIMTZIN
 70
     8
  9
$DIMALTZ
 70
     8
  9
$DIMALTTZ
 70
     8
  9
$DIMUPT
 70
     0
  9
$DIMDEC
 70
     2
  9
$DIMTDEC
 70
     2
  9
$DIMALTU
 70
     2
  9
$DIMALTTD
 70
     2
  9
$DIMTXSTY
  7
STANDARD
  9
$DIMAUNIT
 70
     0
  9
$DIMADEC
 70
     2
  9
$DIMALTRND
 40
0.0
  9
$DIMAZIN
 70
     2
  9
$DIMDSEP
 70
    46
  9
$DIMATFIT
 70
     3
  9
$DIMFRAC
 70
     0
  9
$DIMLDRBLK
  1

  9
$DIMLUNIT
 70
     2
  9
$DIMLWD
 70
    -2
  9
$DIMLWE
 70
    -2
  9
$DIMTMOVE
 70
     0
  9
$LUNITS
 70
     2
  9
$LUPREC
 70
     2
  9
$SKETCHINC
 40
1.0
  9
$FILLETRAD
 40
0.0
  9
$AUNITS
 70
     0
  9
$AUPREC
 70
     0
  9
$MENU
  1
ACAD
  9
$ELEVATION
 40
0.0
  9
$PELEVATION
 40
0.0
  9
$THICKNESS
 40
0.0
  9
$LIMCHECK
 70
     0
  9
$CHAMFERA
 40
0.0
  9
$CHAMFERB
 40
0.0
  9
$CHAMFERC
 40
0.0
  9
$CHAMFERD
 40
0.0
  9
$SKPOLY
 70
     0
  9
$TDCREATE
 40
2455397.825393172
  9
$TDUCREATE
 40
2455397.783726505
  9
$TDUPDATE
 40
2455531.528028715
  9
$TDUUPDATE
 40
2455531.486362048
  9
$TDINDWG
 40
0.1033173495
  9
$TDUSRTIMER
 40
0.1033173495
  9
$USRTIMER
 70
     1
  9
$ANGBASE
 50
0.0
  9
$ANGDIR
 70
     0
  9
$PDMODE
 70
     0
  9
$PDSIZE
 40
0.0
  9
$PLINEWID
 40
0.0
  9
$SPLFRAME
 70
     0
  9
$SPLINETYPE
 70
     6
  9
$SPLINESEGS
 70
     8
  9
$HANDSEED
  5
435
  9
$SURFTAB1
 70
     6
  9
$SURFTAB2
 70
     6
  9
$SURFTYPE
 70
     6
  9
$SURFU
 70
     6
  9
$SURFV
 70
     6
  9
$UCSBASE
  2

  9
$UCSNAME
  2

  9
$UCSORG
 10
0.0
 20
0.0
 30
0.0
  9
$UCSXDIR
 10
1.0
 20
0.0
 30
0.0
  9
$UCSYDIR
 10
0.0
 20
1.0
 30
0.0
  9
$UCSORTHOREF
  2

  9
$UCSORTHOVIEW
 70
     0
  9
$UCSORGTOP
 10
0.0
 20
0.0
 30
0.0
  9
$UCSORGBOTTOM
 10
0.0
 20
0.0
 30
0.0
  9
$UCSORGLEFT
 10
0.0
 20
0.0
 30
0.0
  9
$UCSORGRIGHT
 10
0.0
 20
0.0
 30
0.0
  9
$UCSORGFRONT
 10
0.0
 20
0.0
 30
0.0
  9
$UCSORGBACK
 10
0.0
 20
0.0
 30
0.0
  9
$PUCSBASE
  2

  9
$PUCSNAME
  2

  9
$PUCSORG
 10
0.0
 20
0.0
 30
0.0
  9
$PUCSXDIR
 10
1.0
 20
0.0
 30
0.0
  9
$PUCSYDIR
 10
0.0
 20
1.0
 30
0.0
  9
$PUCSORTHOREF
  2

  9
$PUCSORTHOVIEW
 70
     0
  9
$PUCSORGTOP
 10
0.0
 20
0.0
 30
0.0
  9
$PUCSORGBOTTOM
 10
0.0
 20
0.0
 30
0.0
  9
$PUCSORGLEFT
 10
0.0
 20
0.0
 30
0.0
  9
$PUCSORGRIGHT
 10
0.0
 20
0.0
 30
0.0
  9
$PUCSORGFRONT
 10
0.0
 20
0.0
 30
0.0
  9
$PUCSORGBACK
 10
0.0
 20
0.0
 30
0.0
  9
$USERI1
 70
     0
  9
$USERI2
 70
     0
  9
$USERI3
 70
     0
  9
$USERI4
 70
     0
  9
$USERI5
 70
     0
  9
$USERR1
 40
0.0
  9
$USERR2
 40
0.0
  9
$USERR3
 40
0.0
  9
$USERR4
 40
0.0
  9
$USERR5
 40
0.0
  9
$WORLDVIEW
 70
     1
  9
$SHADEDGE
 70
     3
  9
$SHADEDIF
 70
    70
  9
$TILEMODE
 70
     1
  9
$MAXACTVP
 70
    16
  9
$PINSBASE
 10
0.0
 20
0.0
 30
0.0
  9
$PLIMCHECK
 70
     0
  9
$PEXTMIN
 10
1.000000000000000E+20
 20
1.000000000000000E+20
 30
1.000000000000000E+20
  9
$PEXTMAX
 10
-1.000000000000000E+20
 20
-1.000000000000000E+20
 30
-1.000000000000000E+20
  9
$PLIMMIN
 10
0.0
 20
0.0
  9
$PLIMMAX
 10
12.0
 20
9.0
  9
$UNITMODE
 70
     0
  9
$VISRETAIN
 70
     0
  9
$PLINEGEN
 70
     0
  9
$PSLTSCALE
 70
     0
  9
$TREEDEPTH
 70
  3020
  9
$CMLSTYLE
  2
Standard
  9
$CMLJUST
 70
     0
  9
$CMLSCALE
 40
1.0
  9
$PROXYGRAPHICS
 70
     1
  9
$MEASUREMENT
 70
     0
  9
$CELWEIGHT
370
    -1
  9
$ENDCAPS
280
     0
  9
$JOINSTYLE
280
     0
  9
$LWDISPLAY
290
     0
  9
$INSUNITS
 70
     0
  9
$HYPERLINKBASE
  1

  9
$STYLESHEET
  1

  9
$XEDIT
290
     1
  9
$CEPSNTYPE
380
     0
  9
$PSTYLEMODE
290
     1
  9
$FINGERPRINTGUID
  2
{D68B0D0D-A558-11D7-B632-000102183313}
  9
$VERSIONGUID
  2
{E78F677E-2891-46A6-AFCE-EA33A1940226}
  9
$EXTNAMES
290
     1
  9
$PSVPSCALE
 40
0.0
  9
$OLESTARTUP
290
     0
  9
$SORTENTS
280
   127
  9
$INDEXCTL
280
     0
  9
$HIDETEXT
280
     0
  9
$XCLIPFRAME
290
     0
  9
$HALOGAP
280
     0
  9
$OBSCOLOR
 70
   257
  9
$OBSLTYPE
280
     0
  9
$INTERSECTIONDISPLAY
280
     0
  9
$INTERSECTIONCOLOR
 70
   257
  9
$DIMASSOC
280
     1
  9
$PROJECTNAME
  1

  0
ENDSEC
  0
SECTION
  2
CLASSES
  0
CLASS
  1
ACDBDICTIONARYWDFLT
  2
AcDbDictionaryWithDefault
  3
ObjectDBX Classes
 90
        0
 91
        1
280
     0
281
     0
  0
CLASS
  1
DICTIONARYVAR
  2
AcDbDictionaryVar
  3
ObjectDBX Classes
 90
        0
 91
        2
280
     0
281
     0
  0
ENDSEC
  0
SECTION
  2
TABLES
  0
TABLE
  2
VPORT
  5
8
330
0
100
AcDbSymbolTable
 70
     2
  0
VPORT
  5
434
330
8
100
AcDbSymbolTableRecord
100
AcDbViewportTableRecord
  2
*Active
 70
     0
 10
0.0
 20
0.0
 11
1.0
 21
1.0
 12
297.000001383014
 22
420.0000019557775
 13
0.0
 23
0.0
 14
1.0
 24
1.0
 15
10.0
 25
10.0
 16
0.0
 26
0.0
 36
1.0
 17
0.0
 27
0.0
 37
0.0
 40
846.8893982117474
 41
1.336927223719676
 42
50.0
 43
0.0
 44
0.0
 50
0.0
 51
0.0
 71
     0
 72
  1500
 73
     1
 74
     0
 75
     0
 76
     0
 77
     0
 78
     0
281
     0
 65
     1
110
0.0
120
0.0
130
0.0
111
1.0
121
0.0
131
0.0
112
0.0
122
1.0
132
0.0
 79
     0
146
0.0
  0
ENDTAB
  0
TABLE
  2
LTYPE
  5
5
330
0
100
AcDbSymbolTable
 70
     2
  0
LTYPE
  5
13
330
5
100
AcDbSymbolTableRecord
100
AcDbLinetypeTableRecord
  2
ByBlock
 70
     0
  3

 72
    65
 73
     0
 40
0.0
  0
LTYPE
  5
14
330
5
100
AcDbSymbolTableRecord
100
AcDbLinetypeTableRecord
  2
ByLayer
 70
     0
  3

 72
    65
 73
     0
 40
0.0
  0
LTYPE
  5
15
330
5
100
AcDbSymbolTableRecord
100
AcDbLinetypeTableRecord
  2
Continuous
 70
     0
  3
Solid line
 72
    65
 73
     0
 40
0.0
  0
LTYPE
  5
25
330
5
100
AcDbSymbolTableRecord
100
AcDbLinetypeTableRecord
  2
STRICHPUNKT
 70
     0
  3
__ . __ . __ . __ . __ . __ . __ . __ . __ . __
 72
    65
 73
     4
 40
1.0
 49
0.5
 74
     0
 49
-0.25
 74
     0
 49
0.0
 74
     0
 49
-0.25
 74
     0
  0
ENDTAB
  0
TABLE
  2
LAYER
  5
2
330
0
100
AcDbSymbolTable
 70
     9
  0
LAYER
  5
10
330
2
100
AcDbSymbolTableRecord
100
AcDbLayerTableRecord
  2
0
 70
     0
 62
     7
  6
Continuous
370
    -3
390
F
  0
LAYER
  5
2B
330
2
100
AcDbSymbolTableRecord
100
AcDbLayerTableRecord
  2
VOLL
 70
     0
 62
     1
  6
Continuous
370
    -3
390
F
  0
LAYER
  5
2C
330
2
100
AcDbSymbolTableRecord
100
AcDbLayerTableRecord
  2
HILF
 70
     0
 62
     2
  6
Continuous
370
    -3
390
F
  0
LAYER
  5
2D
330
2
100
AcDbSymbolTableRecord
100
AcDbLayerTableRecord
  2
MITTEL
 70
     0
 62
     2
  6
STRICHPUNKT
370
    -3
390
F
  0
LAYER
  5
2F
330
2
100
AcDbSymbolTableRecord
100
AcDbLayerTableRecord
  2
BEM
 70
     0
 62
     7
  6
Continuous
370
    -3
390
F
  0
LAYER
  5
30
330
2
100
AcDbSymbolTableRecord
100
AcDbLayerTableRecord
  2
STEMPEL
 70
     0
 62
     3
  6
Continuous
370
    -3
390
F
  0
LAYER
  5
33
330
2
100
AcDbSymbolTableRecord
100
AcDbLayerTableRecord
  2
TEXT
 70
     0
 62
     7
  6
Continuous
370
    -3
390
F
  0
LAYER
  5
1FE
330
2
100
AcDbSymbolTableRecord
100
AcDbLayerTableRecord
  2
Defpoints
 70
     0
 62
     7
  6
Continuous
290
     0
370
    -3
390
F
  0
LAYER
  5
1FF
330
2
100
AcDbSymbolTableRecord
100
AcDbLayerTableRecord
  2
SCHRAFF
 70
     0
 62
     7
  6
Continuous
370
    -3
390
F
  0
ENDTAB
  0
TABLE
  2
STYLE
  5
3
330
0
100
AcDbSymbolTable
 70
     2
  0
STYLE
  5
11
330
3
100
AcDbSymbolTableRecord
100
AcDbTextStyleTableRecord
  2
STANDARD
 70
     0
 40
0.0
 41
0.8
 50
0.0
 71
     0
 42
3.5
  3
simplex.shx
  4

  0
STYLE
  5
24
330
3
100
AcDbSymbolTableRecord
100
AcDbTextStyleTableRecord
  2
GREEKS
 70
     0
 40
0.0
 41
0.8
 50
0.0
 71
     0
 42
2.5
  3
SIMPLEX.shx
  4

  0
ENDTAB
  0
TABLE
  2
VIEW
  5
6
330
0
100
AcDbSymbolTable
 70
     0
  0
ENDTAB
  0
TABLE
  2
UCS
  5
7
330
0
100
AcDbSymbolTable
 70
     0
  0
ENDTAB
  0
TABLE
  2
APPID
  5
9
330
0
100
AcDbSymbolTable
 70
     1
  0
APPID
  5
12
330
9
100
AcDbSymbolTableRecord
100
AcDbRegAppTableRecord
  2
ACAD
 70
     0
  0
ENDTAB
  0
TABLE
  2
DIMSTYLE
  5
A
330
0
100
AcDbSymbolTable
 70
     1
100
AcDbDimStyleTable
 71
     1
340
A2
  0
DIMSTYLE
105
A2
102
{ACAD_REACTORS
330
3A1
330
298
330
27A
330
277
330
276
330
275
330
26C
102
}
330
A
100
AcDbSymbolTableRecord
100
AcDbDimStyleTableRecord
  2
Standard
 70
     0
340
11
  0
ENDTAB
  0
TABLE
  2
BLOCK_RECORD
  5
1
330
0
100
AcDbSymbolTable
 70
     9
  0
BLOCK_RECORD
  5
1E
102
{ACAD_XDICTIONARY
360
DB
102
}
330
1
100
AcDbSymbolTableRecord
100
AcDbBlockTableRecord
  2
*Model_Space
340
21
  0
BLOCK_RECORD
  5
1A
102
{ACAD_XDICTIONARY
360
DD
102
}
330
1
100
AcDbSymbolTableRecord
100
AcDbBlockTableRecord
  2
*Paper_Space
340
1D
  0
BLOCK_RECORD
  5
22
330
1
100
AcDbSymbolTableRecord
100
AcDbBlockTableRecord
  2
LOGO
340
0
102
{BLKREFS
331
56
102
}
  0
BLOCK_RECORD
  5
23
330
1
100
AcDbSymbolTableRecord
100
AcDbBlockTableRecord
  2
LORO
340
0
102
{BLKREFS
331
9B
102
}
  0
BLOCK_RECORD
  5
2D2
330
1
100
AcDbSymbolTableRecord
100
AcDbBlockTableRecord
  2
*D2
340
0
  0
BLOCK_RECORD
  5
2E0
330
1
100
AcDbSymbolTableRecord
100
AcDbBlockTableRecord
  2
*D3
340
0
  0
BLOCK_RECORD
  5
2EC
330
1
100
AcDbSymbolTableRecord
100
AcDbBlockTableRecord
  2
*D4
340
0
  0
BLOCK_RECORD
  5
2F8
330
1
100
AcDbSymbolTableRecord
100
AcDbBlockTableRecord
  2
*D5
340
0
  0
BLOCK_RECORD
  5
305
330
1
100
AcDbSymbolTableRecord
100
AcDbBlockTableRecord
  2
*D6
340
0
  0
BLOCK_RECORD
  5
311
330
1
100
AcDbSymbolTableRecord
100
AcDbBlockTableRecord
  2
*D7
340
0
  0
BLOCK_RECORD
  5
3A2
330
1
100
AcDbSymbolTableRecord
100
AcDbBlockTableRecord
  2
*D8
340
0
  0
ENDTAB
  0
ENDSEC
  0
SECTION
  2
BLOCKS
  0
BLOCK
  5
37
330
1E
100
AcDbEntity
  8
0
100
AcDbBlockBegin
  2
*Model_Space
 70
     0
 10
0.0
 20
0.0
 30
0.0
  3
*Model_Space
  1

  0
ENDBLK
  5
38
330
1E
100
AcDbEntity
  8
0
100
AcDbBlockEnd
  0
BLOCK
  5
35
330
1A
100
AcDbEntity
 67
     1
  8
0
100
AcDbBlockBegin
  2
*Paper_Space
 70
     0
 10
0.0
 20
0.0
 30
0.0
  3
*Paper_Space
  1

  0
ENDBLK
  5
36
330
1A
100
AcDbEntity
 67
     1
  8
0
100
AcDbBlockEnd
  0
BLOCK
  5
39
330
22
100
AcDbEntity
  8
0
100
AcDbBlockBegin
  2
LOGO
 70
     0
 10
0.0
 20
0.0
 30
0.0
  3
LOGO
  1

  0
ARC
  5
3A
330
22
100
AcDbEntity
  8
0
100
AcDbCircle
 10
11.59973089678112
 20
-9.271599258481501
 30
0.0
 40
4.5
100
AcDbArc
 50
270.0
 51
231.0575587310159
  0
LINE
  5
3B
330
22
100
AcDbEntity
  8
0
100
AcDbLine
 10
3.599730896781125
 20
-4.771599258481529
 30
0.0
 11
3.599730896781153
 21
-11.77159925848133
 31
0.0
  0
LINE
  5
3C
330
22
100
AcDbEntity
  8
0
100
AcDbLine
 10
2.599730896781125
 20
-4.771599258481529
 30
0.0
 11
2.599730896781153
 21
-11.77159925848133
 31
0.0
  0
CIRCLE
  5
3D
330
22
100
AcDbEntity
  8
0
100
AcDbCircle
 10
11.59973089678112
 20
-9.271599258481501
 30
0.0
 40
3.5
  0
ARC
  5
3E
330
22
100
AcDbEntity
  8
0
100
AcDbCircle
 10
31.59973089678115
 20
-9.271599258481472
 30
0.0
 40
4.5
100
AcDbArc
 50
270.0
 51
231.0575587310182
  0
LINE
  5
3F
330
22
100
AcDbEntity
  8
0
100
AcDbLine
 10
17.59973089678112
 20
-4.771599258481472
 30
0.0
 11
17.59973089678115
 21
-13.77159925848147
 31
0.0
  0
ARC
  5
40
330
22
100
AcDbEntity
  8
0
100
AcDbCircle
 10
22.59973089678116
 20
-7.271599258481472
 30
0.0
 40
2.5
100
AcDbArc
 50
293.1161887722295
 51
90.0
  0
CIRCLE
  5
41
330
22
100
AcDbEntity
  8
0
100
AcDbCircle
 10
31.59973089678115
 20
-9.271599258481472
 30
0.0
 40
3.5
  0
ARC
  5
42
330
22
100
AcDbEntity
  8
0
100
AcDbCircle
 10
4.599730896781153
 20
-11.77159925848133
 30
0.0
 40
1.0
100
AcDbArc
 50
180.0
 51
270.0
  0
ARC
  5
43
330
22
100
AcDbEntity
  8
0
100
AcDbCircle
 10
4.599730896781153
 20
-11.77159925848133
 30
0.0
 40
2.0
100
AcDbArc
 50
179.9999999999992
 51
270.0
  0
LINE
  5
44
330
22
100
AcDbEntity
  8
0
100
AcDbLine
 10
11.59973089678115
 20
-13.77159925848144
 30
0.0
 11
4.599730896781153
 21
-13.77159925848147
 31
0.0
  0
LINE
  5
45
330
22
100
AcDbEntity
  8
0
100
AcDbLine
 10
8.771303772034769
 20
-12.77159925848136
 30
0.0
 11
4.599730896781153
 21
-12.77159925848133
 31
0.0
  0
LINE
  5
46
330
22
100
AcDbEntity
  8
0
100
AcDbLine
 10
31.59973089678115
 20
-13.77159925848147
 30
0.0
 11
23.6715276665056
 21
-13.77159925848144
 31
0.0
  0
LINE
  5
47
330
22
100
AcDbEntity
  8
0
100
AcDbLine
 10
23.56565672307022
 20
-9.51278021337896
 30
0.0
 11
24.4388546544846
 21
-12.77159925848144
 31
0.0
  0
LINE
  5
48
330
22
100
AcDbEntity
  8
0
100
AcDbLine
 10
22.59973089678116
 20
-9.771599258481472
 30
0.0
 11
18.59973089678112
 21
-9.771599258481472
 31
0.0
  0
LINE
  5
49
330
22
100
AcDbEntity
  8
0
100
AcDbLine
 10
18.59973089678115
 20
-13.77159925848144
 30
0.0
 11
17.59973089678115
 21
-13.77159925848144
 31
0.0
  0
LINE
  5
4A
330
22
100
AcDbEntity
  8
0
100
AcDbLine
 10
18.59973089678115
 20
-9.771599258481472
 30
0.0
 11
18.59973089678115
 21
-13.77159925848144
 31
0.0
  0
LINE
  5
4B
330
22
100
AcDbEntity
  8
0
100
AcDbLine
 10
22.59973089678116
 20
-9.771599258481472
 30
0.0
 11
23.67152766650562
 21
-13.77159925848147
 31
0.0
  0
ARC
  5
4C
330
22
100
AcDbEntity
  8
0
100
AcDbCircle
 10
22.59973089678116
 20
-7.271599258481472
 30
0.0
 40
2.5
100
AcDbArc
 50
270.0
 51
270.0000000000007
  0
LINE
  5
4D
330
22
100
AcDbEntity
  8
0
100
AcDbLine
 10
28.77130377203494
 20
-12.77159925848147
 30
0.0
 11
24.43885465448463
 21
-12.77159925848144
 31
0.0
  0
LINE
  5
4E
330
22
100
AcDbEntity
  8
0
100
AcDbLine
 10
3.599730896781125
 20
-4.771599258481472
 30
0.0
 11
2.599730896781125
 21
-4.771599258481472
 31
0.0
  0
LINE
  5
4F
330
22
100
AcDbEntity
  8
0
100
AcDbLine
 10
22.59973089678116
 20
-8.771599258481472
 30
0.0
 11
18.59973089678115
 21
-8.771599258481472
 31
0.0
  0
LINE
  5
50
330
22
100
AcDbEntity
  8
0
100
AcDbLine
 10
22.59973089678116
 20
-5.771599258481472
 30
0.0
 11
18.59973089678115
 21
-5.771599258481472
 31
0.0
  0
LINE
  5
51
330
22
100
AcDbEntity
  8
0
100
AcDbLine
 10
22.59973089678116
 20
-4.771599258481472
 30
0.0
 11
17.59973089678115
 21
-4.771599258481472
 31
0.0
  0
LINE
  5
52
330
22
100
AcDbEntity
  8
0
100
AcDbLine
 10
18.59973089678115
 20
-5.771599258481472
 30
0.0
 11
18.59973089678115
 21
-8.771599258481472
 31
0.0
  0
ARC
  5
53
330
22
100
AcDbEntity
  8
0
100
AcDbCircle
 10
22.59973089678116
 20
-7.271599258481472
 30
0.0
 40
1.5
100
AcDbArc
 50
270.0
 51
90.0
  0
ENDBLK
  5
54
330
22
100
AcDbEntity
  8
0
100
AcDbBlockEnd
  0
BLOCK
  5
55
330
23
100
AcDbEntity
  8
0
100
AcDbBlockBegin
  2
LORO
 70
     0
 10
0.0
 20
0.0
 30
0.0
  3
LORO
  1

  0
INSERT
  5
56
330
23
100
AcDbEntity
  8
STEMPEL
100
AcDbBlockReference
  2
LOGO
 10
-1.748032802467321
 20
3.771489518552062
 30
0.0
  0
ENDBLK
  5
57
330
23
100
AcDbEntity
  8
0
100
AcDbBlockEnd
  0
BLOCK
  5
2DE
330
2D2
100
AcDbEntity
  8
0
100
AcDbBlockBegin
  2
*D2
 70
     1
 10
0.0
 20
0.0
 30
0.0
  3
*D2
  1

  0
LINE
  5
400
330
2D2
100
AcDbEntity
  8
BEM
 62
     0
370
    -2
100
AcDbLine
 10
416.8441658501995
 20
575.1418851211417
 30
0.0
 11
433.8078027298238
 21
575.1418851211417
 31
0.0
  0
LINE
  5
401
330
2D2
100
AcDbEntity
  8
BEM
 62
     0
370
    -2
100
AcDbLine
 10
415.8441658502007
 20
578.1418851211417
 30
0.0
 11
433.8078027298238
 21
578.1418851211417
 31
0.0
  0
LINE
  5
402
330
2D2
100
AcDbEntity
  8
BEM
 62
     0
370
    -2
100
AcDbLine
 10
431.8078027298238
 20
568.1418851211417
 30
0.0
 11
431.8078027298238
 21
561.1418851211417
 31
0.0
  0
LINE
  5
403
330
2D2
100
AcDbEntity
  8
BEM
 62
     0
370
    -2
100
AcDbLine
 10
431.8078027298238
 20
585.1418851211417
 30
0.0
 11
431.8078027298238
 21
601.8752184544751
 31
0.0
  0
LINE
  5
404
330
2D2
100
AcDbEntity
  8
BEM
 62
     0
370
    -2
100
AcDbLine
 10
431.8078027298238
 20
575.1418851211417
 30
0.0
 11
431.8078027298238
 21
578.1418851211417
 31
0.0
  0
SOLID
  5
405
330
2D2
100
AcDbEntity
  8
BEM
 62
     0
100
AcDbTrace
 10
430.6411360631571
 20
568.1418851211417
 30
0.0
 11
432.9744693964904
 21
568.1418851211417
 31
0.0
 12
431.8078027298238
 22
575.1418851211417
 32
0.0
 13
431.8078027298238
 23
575.1418851211417
 33
0.0
  0
SOLID
  5
406
330
2D2
100
AcDbEntity
  8
BEM
 62
     0
100
AcDbTrace
 10
430.6411360631571
 20
585.1418851211417
 30
0.0
 11
432.9744693964904
 21
585.1418851211417
 31
0.0
 12
431.8078027298238
 22
578.1418851211417
 32
0.0
 13
431.8078027298238
 23
578.1418851211417
 33
0.0
  0
MTEXT
  5
407
330
2D2
100
AcDbEntity
  8
BEM
 62
     1
100
AcDbMText
 10
425.3078027298237
 20
597.0085517878085
 30
0.0
 40
7.0
 41
0.0
 71
     5
 72
     1
  1
\A1;3
 11
0.0000000000000001
 21
1.0
 31
0.0
 73
     1
 44
1.0
  0
POINT
  5
408
330
2D2
100
AcDbEntity
  8
Defpoints
 62
     0
100
AcDbPoint
 10
414.8441658501996
 20
575.1418851211417
 30
0.0
  0
POINT
  5
409
330
2D2
100
AcDbEntity
  8
Defpoints
 62
     0
100
AcDbPoint
 10
413.8441658502007
 20
578.1418851211417
 30
0.0
  0
POINT
  5
40A
330
2D2
100
AcDbEntity
  8
Defpoints
 62
     0
100
AcDbPoint
 10
431.8078027298238
 20
578.1418851211417
 30
0.0
  0
ENDBLK
  5
2DF
330
2D2
100
AcDbEntity
  8
0
100
AcDbBlockEnd
  0
BLOCK
  5
2EA
330
2E0
100
AcDbEntity
  8
0
100
AcDbBlockBegin
  2
*D3
 70
     1
 10
0.0
 20
0.0
 30
0.0
  3
*D3
  1

  0
LINE
  5
427
330
2E0
100
AcDbEntity
  8
BEM
 62
     0
370
    -2
100
AcDbLine
 10
124.8441658501997
 20
573.1418851211426
 30
0.0
 11
124.8441658501997
 21
513.8690374244521
 31
0.0
  0
LINE
  5
428
330
2E0
100
AcDbEntity
  8
BEM
 62
     0
370
    -2
100
AcDbLine
 10
414.8441658501996
 20
573.1418851211417
 30
0.0
 11
414.8441658501996
 21
513.8690374244521
 31
0.0
  0
LINE
  5
429
330
2E0
100
AcDbEntity
  8
BEM
 62
     0
370
    -2
100
AcDbLine
 10
131.8441658501997
 20
515.8690374244521
 30
0.0
 11
407.8441658501995
 21
515.8690374244521
 31
0.0
  0
SOLID
  5
42A
330
2E0
100
AcDbEntity
  8
BEM
 62
     0
100
AcDbTrace
 10
131.8441658501997
 20
517.0357040911187
 30
0.0
 11
131.8441658501997
 21
514.7023707577854
 31
0.0
 12
124.8441658501997
 22
515.8690374244521
 32
0.0
 13
124.8441658501997
 23
515.8690374244521
 33
0.0
  0
SOLID
  5
42B
330
2E0
100
AcDbEntity
  8
BEM
 62
     0
100
AcDbTrace
 10
407.8441658501995
 20
517.0357040911187
 30
0.0
 11
407.8441658501995
 21
514.7023707577854
 31
0.0
 12
414.8441658501996
 22
515.8690374244521
 32
0.0
 13
414.8441658501996
 23
515.8690374244521
 33
0.0
  0
MTEXT
  5
42C
330
2E0
100
AcDbEntity
  8
BEM
 62
     1
100
AcDbMText
 10
269.8441658501997
 20
522.3690374244521
 30
0.0
 40
7.0
 41
0.0
 71
     5
 72
     1
  1
\A1;%%c290
 73
     1
 44
1.0
  0
POINT
  5
42D
330
2E0
100
AcDbEntity
  8
Defpoints
 62
     0
100
AcDbPoint
 10
124.8441658501997
 20
575.1418851211426
 30
0.0
  0
POINT
  5
42E
330
2E0
100
AcDbEntity
  8
Defpoints
 62
     0
100
AcDbPoint
 10
414.8441658501996
 20
575.1418851211417
 30
0.0
  0
POINT
  5
42F
330
2E0
100
AcDbEntity
  8
Defpoints
 62
     0
100
AcDbPoint
 10
414.8441658501996
 20
515.8690374244521
 30
0.0
  0
ENDBLK
  5
2EB
330
2E0
100
AcDbEntity
  8
0
100
AcDbBlockEnd
  0
BLOCK
  5
2F6
330
2EC
100
AcDbEntity
  8
0
100
AcDbBlockBegin
  2
*D4
 70
     1
 10
0.0
 20
0.0
 30
0.0
  3
*D4
  1

  0
LINE
  5
415
330
2EC
100
AcDbEntity
  8
BEM
 62
     0
370
    -2
100
AcDbLine
 10
197.3441658501996
 20
573.141885121143
 30
0.0
 11
197.3441658501996
 21
545.8690374244521
 31
0.0
  0
LINE
  5
416
330
2EC
100
AcDbEntity
  8
BEM
 62
     0
370
    -2
100
AcDbLine
 10
342.3441658501997
 20
573.1418851211421
 30
0.0
 11
342.3441658501997
 21
545.8690374244521
 31
0.0
  0
LINE
  5
417
330
2EC
100
AcDbEntity
  8
BEM
 62
     0
370
    -2
100
AcDbLine
 10
204.3441658501996
 20
547.869037424452
 30
0.0
 11
335.3441658501997
 21
547.869037424452
 31
0.0
  0
SOLID
  5
418
330
2EC
100
AcDbEntity
  8
BEM
 62
     0
100
AcDbTrace
 10
204.3441658501996
 20
549.0357040911187
 30
0.0
 11
204.3441658501996
 21
546.7023707577855
 31
0.0
 12
197.3441658501996
 22
547.869037424452
 32
0.0
 13
197.3441658501996
 23
547.869037424452
 33
0.0
  0
SOLID
  5
419
330
2EC
100
AcDbEntity
  8
BEM
 62
     0
100
AcDbTrace
 10
335.3441658501997
 20
549.0357040911187
 30
0.0
 11
335.3441658501997
 21
546.7023707577855
 31
0.0
 12
342.3441658501997
 22
547.869037424452
 32
0.0
 13
342.3441658501997
 23
547.869037424452
 33
0.0
  0
MTEXT
  5
41A
330
2EC
100
AcDbEntity
  8
BEM
 62
     1
100
AcDbMText
 10
269.8441658501997
 20
554.3690374244521
 30
0.0
 40
7.0
 41
0.0
 71
     5
 72
     1
  1
\A1;%%c145
 73
     1
 44
1.0
  0
POINT
  5
41B
330
2EC
100
AcDbEntity
  8
Defpoints
 62
     0
100
AcDbPoint
 10
197.3441658501996
 20
575.1418851211431
 30
0.0
  0
POINT
  5
41C
330
2EC
100
AcDbEntity
  8
Defpoints
 62
     0
100
AcDbPoint
 10
342.3441658501997
 20
575.1418851211422
 30
0.0
  0
POINT
  5
41D
330
2EC
100
AcDbEntity
  8
Defpoints
 62
     0
100
AcDbPoint
 10
342.3441658501997
 20
547.869037424452
 30
0.0
  0
ENDBLK
  5
2F7
330
2EC
100
AcDbEntity
  8
0
100
AcDbBlockEnd
  0
BLOCK
  5
303
330
2F8
100
AcDbEntity
  8
0
100
AcDbBlockBegin
  2
*D5
 70
     1
 10
0.0
 20
0.0
 30
0.0
  3
*D5
  1

  0
LINE
  5
40B
330
2F8
100
AcDbEntity
  8
BEM
 62
     0
370
    -2
100
AcDbLine
 10
212.7228455066391
 20
596.7632054647006
 30
0.0
 11
89.51981262906699
 21
596.7632054647006
 31
0.0
  0
LINE
  5
40C
330
2F8
100
AcDbEntity
  8
BEM
 62
     0
370
    -2
100
AcDbLine
 10
122.8441658501997
 20
575.1418851211426
 30
0.0
 11
89.51981262906699
 21
575.1418851211426
 31
0.0
  0
LINE
  5
40D
330
2F8
100
AcDbEntity
  8
BEM
 62
     0
370
    -2
100
AcDbLine
 10
91.519812629067
 20
589.7632054647005
 30
0.0
 11
91.519812629067
 21
582.1418851211426
 31
0.0
  0
LINE
  5
40E
330
2F8
100
AcDbEntity
  8
BEM
 62
     0
370
    -2
100
AcDbLine
 10
91.519812629067
 20
575.1418851211426
 30
0.0
 11
91.519812629067
 21
546.1418851211426
 31
0.0
  0
SOLID
  5
40F
330
2F8
100
AcDbEntity
  8
BEM
 62
     0
100
AcDbTrace
 10
90.35314596240032
 20
589.7632054647005
 30
0.0
 11
92.68647929573367
 21
589.7632054647005
 31
0.0
 12
91.519812629067
 22
596.7632054647006
 32
0.0
 13
91.519812629067
 23
596.7632054647006
 33
0.0
  0
SOLID
  5
410
330
2F8
100
AcDbEntity
  8
BEM
 62
     0
100
AcDbTrace
 10
90.35314596240032
 20
582.1418851211426
 30
0.0
 11
92.68647929573367
 21
582.1418851211426
 31
0.0
 12
91.519812629067
 22
575.1418851211426
 32
0.0
 13
91.519812629067
 23
575.1418851211426
 33
0.0
  0
MTEXT
  5
411
330
2F8
100
AcDbEntity
  8
BEM
 62
     1
100
AcDbMText
 10
85.01981262906689
 20
557.1418851211426
 30
0.0
 40
7.0
 41
0.0
 71
     5
 72
     1
  1
\A1;21.5
 11
0.0000000000000001
 21
1.0
 31
0.0
 73
     1
 44
1.0
  0
POINT
  5
412
330
2F8
100
AcDbEntity
  8
Defpoints
 62
     0
100
AcDbPoint
 10
214.7228455066391
 20
596.7632054647006
 30
0.0
  0
POINT
  5
413
330
2F8
100
AcDbEntity
  8
Defpoints
 62
     0
100
AcDbPoint
 10
124.8441658501997
 20
575.1418851211426
 30
0.0
  0
POINT
  5
414
330
2F8
100
AcDbEntity
  8
Defpoints
 62
     0
100
AcDbPoint
 10
91.519812629067
 20
575.1418851211426
 30
0.0
  0
ENDBLK
  5
304
330
2F8
100
AcDbEntity
  8
0
100
AcDbBlockEnd
  0
BLOCK
  5
30F
330
305
100
AcDbEntity
  8
0
100
AcDbBlockBegin
  2
*D6
 70
     1
 10
0.0
 20
0.0
 30
0.0
  3
*D6
  1

  0
LINE
  5
3DB
330
305
100
AcDbEntity
  8
SCHRAFF
 62
     0
370
    -2
100
AcDbLine
 10
322.8441658501997
 20
596.6418851211408
 30
0.0
 11
322.8441658501997
 21
619.8707092595655
 31
0.0
  0
LINE
  5
3DC
330
305
100
AcDbEntity
  8
SCHRAFF
 62
     0
370
    -2
100
AcDbLine
 10
216.8441658501997
 20
596.6418851211408
 30
0.0
 11
216.8441658501997
 21
619.8707092595655
 31
0.0
  0
LINE
  5
3DD
330
305
100
AcDbEntity
  8
SCHRAFF
 62
     0
370
    -2
100
AcDbLine
 10
315.8441658501997
 20
617.8707092595654
 30
0.0
 11
223.8441658501997
 21
617.8707092595654
 31
0.0
  0
SOLID
  5
3DE
330
305
100
AcDbEntity
  8
SCHRAFF
 62
     0
100
AcDbTrace
 10
315.8441658501997
 20
619.0373759262321
 30
0.0
 11
315.8441658501997
 21
616.7040425928989
 31
0.0
 12
322.8441658501997
 22
617.8707092595654
 32
0.0
 13
322.8441658501997
 23
617.8707092595654
 33
0.0
  0
SOLID
  5
3DF
330
305
100
AcDbEntity
  8
SCHRAFF
 62
     0
100
AcDbTrace
 10
223.8441658501997
 20
619.0373759262321
 30
0.0
 11
223.8441658501997
 21
616.7040425928989
 31
0.0
 12
216.8441658501997
 22
617.8707092595654
 32
0.0
 13
216.8441658501997
 23
617.8707092595654
 33
0.0
  0
MTEXT
  5
3E0
330
305
100
AcDbEntity
  8
SCHRAFF
 62
     1
100
AcDbMText
 10
269.8441658501997
 20
624.3707092595655
 30
0.0
 40
7.0
 41
0.0
 71
     5
 72
     1
  1
\A1;%%c106
 73
     1
 44
1.0
  0
POINT
  5
3E1
330
305
100
AcDbEntity
  8
Defpoints
 62
     0
100
AcDbPoint
 10
322.8441658501997
 20
594.6418851211408
 30
0.0
  0
POINT
  5
3E2
330
305
100
AcDbEntity
  8
Defpoints
 62
     0
100
AcDbPoint
 10
216.8441658501997
 20
594.6418851211408
 30
0.0
  0
POINT
  5
3E3
330
305
100
AcDbEntity
  8
Defpoints
 62
     0
100
AcDbPoint
 10
216.8441658501997
 20
617.8707092595654
 30
0.0
  0
ENDBLK
  5
310
330
305
100
AcDbEntity
  8
0
100
AcDbBlockEnd
  0
BLOCK
  5
31B
330
311
100
AcDbEntity
  8
0
100
AcDbBlockBegin
  2
*D7
 70
     1
 10
0.0
 20
0.0
 30
0.0
  3
*D7
  1

  0
LINE
  5
41E
330
311
100
AcDbEntity
  8
BEM
 62
     0
370
    -2
100
AcDbLine
 10
157.8441658501997
 20
576.1418851211419
 30
0.0
 11
157.8441658501997
 21
529.8690374244521
 31
0.0
  0
LINE
  5
41F
330
311
100
AcDbEntity
  8
BEM
 62
     0
370
    -2
100
AcDbLine
 10
381.8441658501997
 20
576.1418851211419
 30
0.0
 11
381.8441658501997
 21
529.8690374244521
 31
0.0
  0
LINE
  5
420
330
311
100
AcDbEntity
  8
BEM
 62
     0
370
    -2
100
AcDbLine
 10
164.8441658501997
 20
531.8690374244521
 30
0.0
 11
374.8441658501997
 21
531.8690374244521
 31
0.0
  0
SOLID
  5
421
330
311
100
AcDbEntity
  8
BEM
 62
     0
100
AcDbTrace
 10
164.8441658501997
 20
533.0357040911187
 30
0.0
 11
164.8441658501997
 21
530.7023707577855
 31
0.0
 12
157.8441658501997
 22
531.8690374244521
 32
0.0
 13
157.8441658501997
 23
531.8690374244521
 33
0.0
  0
SOLID
  5
422
330
311
100
AcDbEntity
  8
BEM
 62
     0
100
AcDbTrace
 10
374.8441658501997
 20
533.0357040911187
 30
0.0
 11
374.8441658501997
 21
530.7023707577855
 31
0.0
 12
381.8441658501997
 22
531.8690374244521
 32
0.0
 13
381.8441658501997
 23
531.8690374244521
 33
0.0
  0
MTEXT
  5
423
330
311
100
AcDbEntity
  8
BEM
 62
     1
100
AcDbMText
 10
269.8441658501997
 20
538.3690374244521
 30
0.0
 40
7.0
 41
0.0
 71
     5
 72
     1
  1
\A1;%%c224
 73
     1
 44
1.0
  0
POINT
  5
424
330
311
100
AcDbEntity
  8
Defpoints
 62
     0
100
AcDbPoint
 10
157.8441658501997
 20
578.1418851211419
 30
0.0
  0
POINT
  5
425
330
311
100
AcDbEntity
  8
Defpoints
 62
     0
100
AcDbPoint
 10
381.8441658501997
 20
578.1418851211419
 30
0.0
  0
POINT
  5
426
330
311
100
AcDbEntity
  8
Defpoints
 62
     0
100
AcDbPoint
 10
381.8441658501997
 20
531.8690374244521
 30
0.0
  0
ENDBLK
  5
31C
330
311
100
AcDbEntity
  8
0
100
AcDbBlockEnd
  0
BLOCK
  5
3AE
330
3A2
100
AcDbEntity
  8
0
100
AcDbBlockBegin
  2
*D8
 70
     1
 10
0.0
 20
0.0
 30
0.0
  3
*D8
  1

  0
LINE
  5
3A3
330
3A2
100
AcDbEntity
  8
BEM
 62
     0
370
    -2
100
AcDbLine
 10
182.1629249830678
 20
395.5385117189015
 30
0.0
 11
152.6902570281119
 21
425.0111796738575
 31
0.0
  0
LINE
  5
3A4
330
3A2
100
AcDbEntity
  8
BEM
 62
     0
370
    -2
100
AcDbLine
 10
117.8441658501997
 20
307.8572708517697
 30
0.0
 11
104.1635191089818
 21
307.8572708517695
 31
0.0
  0
ARC
  5
3A5
330
3A2
100
AcDbEntity
  8
BEM
 62
     0
370
    -2
100
AcDbCircle
 10
269.8441658501991
 20
307.8572708517696
 30
0.0
 40
163.6806467412173
100
AcDbArc
 50
137.4505097878936
 51
177.5494902121062
  0
SOLID
  5
3A6
330
3A2
100
AcDbEntity
  8
BEM
 62
     0
100
AcDbTrace
 10
148.419286363111
 20
419.3496385503079
 30
0.0
 11
150.1041052601074
 21
417.7353802906827
 31
0.0
 12
154.1044705904849
 22
423.5969661114845
 32
0.0
 13
154.1044705904849
 23
423.5969661114845
 33
0.0
  0
SOLID
  5
3A7
330
3A2
100
AcDbEntity
  8
BEM
 62
     0
100
AcDbTrace
 10
107.4796007390441
 20
314.830723386499
 30
0.0
 11
105.1468009099393
 21
314.8806172916689
 31
0.0
 12
106.1635191089818
 22
307.8572708517696
 32
0.0
 13
106.1635191089818
 23
307.8572708517696
 33
0.0
  0
MTEXT
  5
3A8
330
3A2
100
AcDbEntity
  8
BEM
 62
     1
100
AcDbMText
 10
112.6177494964549
 20
372.9825848688098
 30
0.0
 40
7.0
 41
0.0
 71
     5
 72
     1
  1
\A1;45°
 11
0.3826834323650898
 21
0.9238795325112867
 31
0.0
 73
     1
 44
1.0
  0
POINT
  5
3A9
330
3A2
100
AcDbEntity
  8
Defpoints
 62
     0
100
AcDbPoint
 10
128.0925676644385
 20
389.6975942223786
 30
0.0
  0
POINT
  5
3AA
330
3A2
100
AcDbEntity
  8
Defpoints
 62
     0
100
AcDbPoint
 10
197.7192741691718
 20
379.9821625327975
 30
0.0
  0
POINT
  5
3AB
330
3A2
100
AcDbEntity
  8
Defpoints
 62
     0
100
AcDbPoint
 10
419.8441658501995
 20
307.8572708517697
 30
0.0
  0
POINT
  5
3AC
330
3A2
100
AcDbEntity
  8
Defpoints
 62
     0
100
AcDbPoint
 10
119.8441658501997
 20
307.8572708517697
 30
0.0
  0
POINT
  5
3AD
330
3A2
100
AcDbEntity
  8
Defpoints
 62
     0
100
AcDbPoint
 10
183.5771385454409
 20
394.1242981565285
 30
0.0
  0
ENDBLK
  5
3AF
330
3A2
100
AcDbEntity
  8
0
100
AcDbBlockEnd
  0
ENDSEC
  0
SECTION
  2
ENTITIES
  0
LINE
  5
58
330
1E
100
AcDbEntity
  8
STEMPEL
100
AcDbLine
 10
484.0
 20
830.0000000000002
 30
0.0
 11
484.0
 21
470.0000000000001
 31
0.0
  0
LINE
  5
59
330
1E
100
AcDbEntity
  8
STEMPEL
100
AcDbLine
 10
484.0
 20
470.0000000000001
 30
0.0
 11
584.0
 21
470.0000000000001
 31
0.0
  0
LINE
  5
5A
330
1E
100
AcDbEntity
  8
STEMPEL
100
AcDbLine
 10
484.0000000000001
 20
566.0000000000002
 30
0.0
 11
584.0000000000001
 21
566.0
 31
0.0
  0
LINE
  5
5B
330
1E
100
AcDbEntity
  8
STEMPEL
100
AcDbLine
 10
484.0
 20
650.0
 30
0.0
 11
584.0
 21
650.0
 31
0.0
  0
LINE
  5
5C
330
1E
100
AcDbEntity
  8
STEMPEL
100
AcDbLine
 10
484.0000000000003
 20
752.0000000000002
 30
0.0
 11
554.0
 21
752.0000000000002
 31
0.0
  0
LINE
  5
5D
330
1E
100
AcDbEntity
  8
STEMPEL
100
AcDbLine
 10
564.0
 20
566.0
 30
0.0
 11
564.0
 21
470.0000000000001
 31
0.0
  0
LINE
  5
5E
330
1E
100
AcDbEntity
  8
STEMPEL
100
AcDbLine
 10
554.0
 20
830.0000000000002
 30
0.0
 11
554.0
 21
566.0
 31
0.0
  0
LINE
  5
5F
330
1E
100
AcDbEntity
  8
STEMPEL
100
AcDbLine
 10
514.0
 20
830.0000000000002
 30
0.0
 11
514.0
 21
566.0000000000002
 31
0.0
  0
LINE
  5
60
330
1E
100
AcDbEntity
  8
VOLL
100
AcDbLine
 10
484.0
 20
484.0000000000001
 30
0.0
 11
584.0
 21
484.0
 31
0.0
  0
LINE
  5
61
330
1E
100
AcDbEntity
  8
VOLL
100
AcDbLine
 10
484.0000000000001
 20
524.0000000000001
 30
0.0
 11
584.0000000000001
 21
524.0
 31
0.0
  0
LINE
  5
62
330
1E
100
AcDbEntity
  8
VOLL
100
AcDbLine
 10
484.0000000000001
 20
544.0000000000002
 30
0.0
 11
584.0000000000001
 21
544.0
 31
0.0
  0
LINE
  5
63
330
1E
100
AcDbEntity
  8
VOLL
100
AcDbLine
 10
514.0
 20
584.0000000000002
 30
0.0
 11
554.0
 21
584.0000000000002
 31
0.0
  0
LINE
  5
64
330
1E
100
AcDbEntity
  8
VOLL
100
AcDbLine
 10
484.0000000000002
 20
610.0000000000002
 30
0.0
 11
554.0
 21
610.0
 31
0.0
  0
LINE
  5
65
330
1E
100
AcDbEntity
  8
HILF
100
AcDbLine
 10
494.0
 20
470.0000000000001
 30
0.0
 11
494.0
 21
566.0000000000002
 31
0.0
  0
LINE
  5
66
330
1E
100
AcDbEntity
  8
HILF
100
AcDbLine
 10
504.0
 20
470.0000000000001
 30
0.0
 11
504.0
 21
566.0000000000002
 31
0.0
  0
LINE
  5
67
330
1E
100
AcDbEntity
  8
HILF
100
AcDbLine
 10
514.0
 20
470.0000000000001
 30
0.0
 11
514.0
 21
566.0000000000002
 31
0.0
  0
LINE
  5
68
330
1E
100
AcDbEntity
  8
HILF
100
AcDbLine
 10
524.0
 20
470.0000000000001
 30
0.0
 11
524.0
 21
566.0000000000002
 31
0.0
  0
LINE
  5
69
330
1E
100
AcDbEntity
  8
HILF
100
AcDbLine
 10
534.0
 20
470.0000000000001
 30
0.0
 11
534.0
 21
566.0000000000002
 31
0.0
  0
LINE
  5
6A
330
1E
100
AcDbEntity
  8
HILF
100
AcDbLine
 10
544.0
 20
470.0000000000001
 30
0.0
 11
544.0
 21
566.0000000000002
 31
0.0
  0
LINE
  5
6B
330
1E
100
AcDbEntity
  8
HILF
100
AcDbLine
 10
554.0
 20
470.0000000000001
 30
0.0
 11
554.0
 21
566.0000000000002
 31
0.0
  0
LINE
  5
6C
330
1E
100
AcDbEntity
  8
HILF
100
AcDbLine
 10
524.0
 20
566.0000000000002
 30
0.0
 11
524.0
 21
650.0
 31
0.0
  0
LINE
  5
6D
330
1E
100
AcDbEntity
  8
HILF
100
AcDbLine
 10
534.0
 20
566.0000000000002
 30
0.0
 11
534.0
 21
650.0
 31
0.0
  0
LINE
  5
6E
330
1E
100
AcDbEntity
  8
HILF
100
AcDbLine
 10
544.0
 20
566.0000000000002
 30
0.0
 11
544.0
 21
650.0
 31
0.0
  0
LINE
  5
6F
330
1E
100
AcDbEntity
  8
HILF
100
AcDbLine
 10
509.9624175243587
 20
654.7736801096948
 30
0.0
 11
509.9624175243587
 21
746.6297842514811
 31
0.0
  0
LINE
  5
70
330
1E
100
AcDbEntity
  8
HILF
100
AcDbLine
 10
524.0
 20
654.7736801096948
 30
0.0
 11
524.0
 21
746.6297842514811
 31
0.0
  0
LINE
  5
71
330
1E
100
AcDbEntity
  8
HILF
100
AcDbLine
 10
534.0
 20
654.7736801096948
 30
0.0
 11
534.0
 21
746.6297842514811
 31
0.0
  0
LINE
  5
72
330
1E
100
AcDbEntity
  8
HILF
100
AcDbLine
 10
544.0
 20
654.7736801096948
 30
0.0
 11
544.0
 21
746.6297842514811
 31
0.0
  0
LINE
  5
73
330
1E
100
AcDbEntity
  8
VOLL
100
AcDbLine
 10
534.0
 20
752.0000000000002
 30
0.0
 11
534.0
 21
830.0000000000002
 31
0.0
  0
LINE
  5
74
330
1E
100
AcDbEntity
  8
HILF
100
AcDbLine
 10
510.2201636304418
 20
756.7238616296995
 30
0.0
 11
510.2201636304418
 21
824.858883932673
 31
0.0
  0
LINE
  5
75
330
1E
100
AcDbEntity
  8
HILF
100
AcDbLine
 10
579.1060174197169
 20
654.7736801096948
 30
0.0
 11
579.1060174197169
 21
824.858883932673
 31
0.0
  0
TEXT
  5
76
330
1E
100
AcDbEntity
  8
TEXT
100
AcDbText
 10
575.3261810501587
 20
492.3998239263297
 30
0.0
 40
4.0
  1
Änderung
 50
90.0
 41
0.8
  7
GREEKS
 72
     1
 11
575.3261810501587
 21
503.1426810691868
 31
0.0
100
AcDbText
  0
TEXT
  5
78
330
1E
100
AcDbEntity
  8
TEXT
100
AcDbText
 10
491.5379104912911
 20
573.5163572150376
 30
0.0
 40
5.0
  1
Maßstab
 50
90.0
 41
0.8
  7
GREEKS
100
AcDbText
  0
TEXT
  5
79
330
1E
100
AcDbEntity
  8
TEXT
100
AcDbText
 10
491.4510671988221
 20
654.8779403809009
 30
0.0
 40
5.0
  1
Benennung
 50
90.0
 41
0.8
  7
GREEKS
100
AcDbText
  0
TEXT
  5
7A
330
1E
100
AcDbEntity
  8
TEXT
100
AcDbText
 10
491.6867965462863
 20
756.1787549576343
 30
0.0
 40
5.0
  1
Zeichnungs Nr.
 50
90.0
 41
0.8
  7
GREEKS
100
AcDbText
  0
TEXT
  5
7B
330
1E
100
AcDbEntity
  8
TEXT
100
AcDbText
 10
563.1543942980694
 20
654.7422383911359
 30
0.0
 40
5.0
  1
Bauvorhaben
 50
90.0
 41
0.8
  7
GREEKS
100
AcDbText
  0
TEXT
  5
7C
330
1E
100
AcDbEntity
  8
TEXT
100
AcDbText
 10
520.8188176290003
 20
756.7238616296995
 30
0.0
 40
5.0
  1
Ersatz für:
 50
90.0
 41
0.8
  7
GREEKS
100
AcDbText
  0
TEXT
  5
7D
330
1E
100
AcDbEntity
  8
TEXT
100
AcDbText
 10
580.3453415397281
 20
478.2664110704577
 30
0.0
 40
4.0
  1
Index
 50
180.0
 41
0.8
  7
GREEKS
100
AcDbText
  0
TEXT
  5
7E
330
1E
100
AcDbEntity
  8
TEXT
100
AcDbText
 10
575.3284373066019
 20
529.8990113186978
 30
0.0
 40
4.0
  1
Tag
 50
90.0
 41
0.8
  7
GREEKS
 72
     1
 11
575.3284373066019
 21
533.6323446520311
 31
0.0
100
AcDbText
  0
TEXT
  5
7F
330
1E
100
AcDbEntity
  8
TEXT
100
AcDbText
 10
575.4067578303359
 20
548.9795678138292
 30
0.0
 40
4.0
  1
Name
 50
90.0
 41
0.8
  7
GREEKS
 72
     1
 11
575.4067578303359
 21
555.3033773376387
 31
0.0
100
AcDbText
  0
TEXT
  5
80
330
1E
100
AcDbEntity
  8
TEXT
100
AcDbText
 10
520.6811949877008
 20
592.3311673153651
 30
0.0
 40
4.0
  1
Tag
 50
90.0
 41
0.8
  7
GREEKS
100
AcDbText
  0
TEXT
  5
81
330
1E
100
AcDbEntity
  8
TEXT
100
AcDbText
 10
520.6903890808478
 20
622.4626584226296
 30
0.0
 40
4.0
  1
Name
 50
90.0
 41
0.8
  7
GREEKS
100
AcDbText
  0
TEXT
  5
82
330
1E
100
AcDbEntity
  8
TEXT
100
AcDbText
 10
530.3700963038204
 20
567.5836127167615
 30
0.0
 40
4.0
  1
Gez.
 50
90.0
 41
0.8
  7
GREEKS
100
AcDbText
  0
TEXT
  5
83
330
1E
100
AcDbEntity
  8
TEXT
100
AcDbText
 10
540.3107370857163
 20
567.5515086571672
 30
0.0
 40
4.0
  1
Gepr.
 50
90.0
 41
0.8
  7
GREEKS
100
AcDbText
  0
TEXT
  5
84
330
1E
100
AcDbEntity
  8
TEXT
100
AcDbText
 10
550.470536103502
 20
567.6006777387303
 30
0.0
 40
4.0
  1
Norm.
 50
90.0
 41
0.8
  7
GREEKS
100
AcDbText
  0
TEXT
  5
85
330
1E
100
AcDbEntity
  8
TEXT
100
AcDbText
 10
541.925838221214
 20
757.2400861497007
 30
0.0
 40
5.0
  1
ersetzt durch:
 50
90.0
 41
0.8
  7
GREEKS
100
AcDbText
  0
TEXT
  5
86
330
1E
100
AcDbEntity
  8
TEXT
100
AcDbText
 10
521.0331740347627
 20
568.8693027807324
 30
0.0
 40
4.0
  1
2010
 50
90.0
 41
0.8
  7
GREEKS
100
AcDbText
  0
LINE
  5
87
330
1E
100
AcDbEntity
  8
HILF
100
AcDbLine
 10
594.0
 20
-0.0000000000000568
 30
0.0
 11
594.0
 21
840.0
 31
0.0
  0
LINE
  5
88
330
1E
100
AcDbEntity
  8
HILF
100
AcDbLine
 10
594.0
 20
840.0
 30
0.0
 11
0.0
 21
840.0
 31
0.0
  0
LINE
  5
89
330
1E
100
AcDbEntity
  8
HILF
100
AcDbLine
 10
0.0
 20
840.0
 30
0.0
 11
0.0
 21
0.0
 31
0.0
  0
LINE
  5
8B
330
1E
100
AcDbEntity
  8
STEMPEL
100
AcDbLine
 10
10.0
 20
830.0
 30
0.0
 11
10.0
 21
39.99999999999995
 31
0.0
  0
LINE
  5
8D
330
1E
100
AcDbEntity
  8
STEMPEL
100
AcDbLine
 10
584.0
 20
39.99999999999995
 30
0.0
 11
584.0
 21
830.0
 31
0.0
  0
LINE
  5
8E
330
1E
100
AcDbEntity
  8
STEMPEL
100
AcDbLine
 10
584.0
 20
830.0
 30
0.0
 11
10.0
 21
830.0
 31
0.0
  0
TEXT
  5
8F
330
1E
100
AcDbEntity
  8
TEXT
 62
     1
100
AcDbText
 10
506.6265692434746
 20
655.0390572473189
 30
0.0
 40
7.0
  1
Festflansch
 50
90.0
 41
0.8
  7
GREEKS
100
AcDbText
  0
TEXT
  5
90
330
1E
100
AcDbEntity
  8
TEXT
 62
     1
100
AcDbText
 10
506.6265692434746
 20
767.1961422184136
 30
0.0
 40
7.0
  1
21806100W
 50
90.0
 41
0.8
  7
GREEKS
 72
     1
 11
506.6265692434746
 21
790.1294755517469
 31
0.0
100
AcDbText
  0
TEXT
  5
91
330
1E
100
AcDbEntity
  8
TEXT
100
AcDbText
 10
491.16010388621
 20
618.5090226415829
 30
0.0
 40
5.0
  1
Zul.Abw.
 50
90.0
 41
0.8
  7
GREEKS
100
AcDbText
  0
TEXT
  5
93
330
1E
100
AcDbEntity
  8
TEXT
100
AcDbText
 10
530.8491412387978
 20
590.7660475607107
 30
0.0
 40
4.0
  1
30.11.
 50
90.0
 41
0.8
  7
GREEKS
 72
     1
 11
530.8491412387978
 21
597.1660475607107
 31
0.0
100
AcDbText
  0
TEXT
  5
94
330
1E
100
AcDbEntity
  8
TEXT
100
AcDbText
 10
531.0570234483452
 20
624.0231753226609
 30
0.0
 40
4.0
  1
Koeh
 50
90.0
 41
0.8
  7
GREEKS
 72
     1
 11
531.0570234483452
 21
629.2803181798038
 31
0.0
100
AcDbText
  0
TEXT
  5
95
330
1E
100
AcDbEntity
  8
TEXT
100
AcDbText
 10
521.8997861689246
 20
654.3410940884991
 30
0.0
 40
5.0
  1
DN100 mit Bolzen für
 50
90.0
 41
0.8
  7
GREEKS
100
AcDbText
  0
TEXT
  5
96
330
1E
100
AcDbEntity
  8
TEXT
100
AcDbText
 10
531.6544091479096
 20
654.3410940884991
 30
0.0
 40
5.0
  1
LORO-FLEX Rohrdurchführung DN70
 50
90.0
 41
0.65
  7
GREEKS
100
AcDbText
  0
TEXT
  5
97
330
1E
100
AcDbEntity
  8
TEXT
100
AcDbText
 10
541.4090266215394
 20
654.3410940884991
 30
0.0
 40
5.0
  1
EDV-Art.Nr. 21806.100X
 50
90.0
 41
0.8
  7
GREEKS
100
AcDbText
  0
TEXT
  5
98
330
1E
100
AcDbEntity
  8
TEXT
100
AcDbText
 10
550.6887237520849
 20
654.1676050109347
 30
0.0
 40
4.0
  1
21806100W.DWG
 50
90.0
 41
0.8
  7
GREEKS
100
AcDbText
  0
TEXT
  5
99
330
1E
100
AcDbEntity
  8
TEXT
 62
     1
100
AcDbText
 10
506.5292291158502
 20
582.703491203422
 30
0.0
 40
7.0
  1
1:2
 50
90.0
 41
0.8
  7
GREEKS
100
AcDbText
  0
TEXT
  5
9A
330
1E
100
AcDbEntity
  8
TEXT
100
AcDbText
 10
479.8856414948956
 20
470.0441139350127
 30
0.0
 40
5.0
  1
Erstellt mit AUTOCAD 2004
 50
90.0
 41
0.8
  7
GREEKS
100
AcDbText
  0
INSERT
  5
9B
330
1E
100
AcDbEntity
  8
HILF
100
AcDbBlockReference
  2
LORO
 10
557.0194069970104
 20
573.0624985962354
 30
0.0
 41
2.0
 42
2.0
 43
2.0
 50
90.0
  0
LINE
  5
9C
330
1E
100
AcDbEntity
  8
BEM
100
AcDbLine
 10
594.0
 20
455.9999999999999
 30
0.0
 11
584.0
 21
455.9999999999999
 31
0.0
  0
LINE
  5
13E
330
1E
100
AcDbEntity
  8
HILF
100
AcDbLine
 10
594.0
 20
-0.0000000000000568
 30
0.0
 11
0.0
 21
0.0
 31
0.0
  0
LINE
  5
13F
330
1E
100
AcDbEntity
  8
STEMPEL
100
AcDbLine
 10
584.0
 20
39.99999999999995
 30
0.0
 11
10.0
 21
39.99999999999995
 31
0.0
  0
LINE
  5
14A
330
1E
100
AcDbEntity
  8
HILF
100
AcDbLine
 10
297.0
 20
-0.0000000000000568
 30
0.0
 11
297.0
 21
39.99999999999995
 31
0.0
  0
TEXT
  5
15B
330
1E
100
AcDbEntity
  8
BEM
100
AcDbText
 10
583.8320989200114
 20
837.3022923857165
 30
0.0
 40
4.0
  1
Diese Zeichnung ist urheberrechtlich geschützt und bleibt unser Eigentum. Sie darf weder ganz noch teilweise verfielfältigt und nicht an Dritte weitergegeben werden.
 50
180.0
 41
0.8
  7
GREEKS
100
AcDbText
  0
LINE
  5
19C
330
1E
100
AcDbEntity
  8
BEM
100
AcDbLine
 10
0.0
 20
455.9999999999999
 30
0.0
 11
10.0
 21
455.9999999999999
 31
0.0
  0
DIMENSION
  5
26C
330
1E
100
AcDbEntity
  8
BEM
100
AcDbDimension
  2
*D2
 10
431.8078027298238
 20
578.1418851211417
 30
0.0
 11
425.3078027298237
 21
597.0085517878085
 31
0.0
 70
    32
 71
     5
 42
3.0
  3
Standard
100
AcDbAlignedDimension
 13
414.8441658501996
 23
575.1418851211417
 33
0.0
 14
413.8441658502007
 24
578.1418851211417
 34
0.0
 50
90.0
100
AcDbRotatedDimension
1001
ACAD
1000
DSTYLE
1002
{
1070
    40
1040
2.0
1070
    41
1040
3.5
1070
    42
1040
1.0
1070
    43
1040
7.0
1070
    44
1040
1.0
1070
    73
1070
     0
1070
    74
1070
     0
1070
    77
1070
     1
1070
    78
1070
     8
1070
    79
1070
     2
1070
   140
1040
3.5
1070
   141
1040
1.5
1070
   146
1040
0.5142857142857144
1070
   147
1040
1.5
1070
   172
1070
     1
1070
   178
1070
     1
1070
   179
1070
     2
1070
   271
1070
     2
1070
   272
1070
     2
1070
   284
1070
     8
1070
   285
1070
     8
1070
   286
1070
     8
1002
}
  0
LINE
  5
26D
330
1E
100
AcDbEntity
  8
STEMPEL
100
AcDbLine
 10
340.8796997561328
 20
576.6063512152091
 30
0.0
 11
322.8441658501997
 21
594.6418851211408
 31
0.0
  0
LINE
  5
26E
330
1E
100
AcDbEntity
  8
STEMPEL
100
AcDbLine
 10
198.8086319442658
 20
576.6063512152092
 30
0.0
 11
216.8441658501989
 21
594.6418851211405
 31
0.0
  0
LINE
  5
274
330
1E
100
AcDbEntity
  8
STEMPEL
100
AcDbLine
 10
125.8441658501997
 20
578.1418851211426
 30
0.0
 11
195.2730980383332
 21
578.1418851211424
 31
0.0
  0
DIMENSION
  5
275
330
1E
100
AcDbEntity
  8
BEM
100
AcDbDimension
  2
*D3
 10
414.8441658501996
 20
515.8690374244521
 30
0.0
 11
269.8441658501997
 21
522.3690374244521
 31
0.0
 70
    32
  1
%%c<>
 71
     5
 42
289.9999999999999
  3
Standard
100
AcDbAlignedDimension
 13
124.8441658501997
 23
575.1418851211426
 33
0.0
 14
414.8441658501996
 24
575.1418851211417
 34
0.0
100
AcDbRotatedDimension
1001
ACAD
1000
DSTYLE
1002
{
1070
    40
1040
2.0
1070
    41
1040
3.5
1070
    42
1040
1.0
1070
    43
1040
7.0
1070
    44
1040
1.0
1070
    73
1070
     0
1070
    74
1070
     0
1070
    77
1070
     1
1070
    78
1070
     8
1070
    79
1070
     2
1070
   140
1040
3.5
1070
   141
1040
1.5
1070
   146
1040
0.5142857142857144
1070
   147
1040
1.5
1070
   172
1070
     1
1070
   178
1070
     1
1070
   179
1070
     2
1070
   271
1070
     2
1070
   272
1070
     2
1070
   284
1070
     8
1070
   285
1070
     8
1070
   286
1070
     8
1002
}
  0
DIMENSION
  5
276
330
1E
100
AcDbEntity
  8
BEM
100
AcDbDimension
  2
*D4
 10
342.3441658501997
 20
547.869037424452
 30
0.0
 11
269.8441658501997
 21
554.3690374244521
 31
0.0
 70
    32
  1
%%c<>
 71
     5
 42
145.0
  3
Standard
100
AcDbAlignedDimension
 13
197.3441658501996
 23
575.1418851211431
 33
0.0
 14
342.3441658501997
 24
575.1418851211422
 34
0.0
100
AcDbRotatedDimension
1001
ACAD
1000
DSTYLE
1002
{
1070
    40
1040
2.0
1070
    41
1040
3.5
1070
    42
1040
1.0
1070
    43
1040
7.0
1070
    44
1040
1.0
1070
    73
1070
     0
1070
    74
1070
     0
1070
    77
1070
     1
1070
    78
1070
     8
1070
    79
1070
     2
1070
   140
1040
3.5
1070
   141
1040
1.5
1070
   146
1040
0.5142857142857144
1070
   147
1040
1.5
1070
   172
1070
     1
1070
   178
1070
     1
1070
   179
1070
     2
1070
   271
1070
     2
1070
   272
1070
     2
1070
   284
1070
     8
1070
   285
1070
     8
1070
   286
1070
     8
1002
}
  0
DIMENSION
  5
277
330
1E
100
AcDbEntity
  8
BEM
100
AcDbDimension
  2
*D5
 10
91.519812629067
 20
575.1418851211426
 30
0.0
 11
85.01981262906689
 21
557.1418851211426
 31
0.0
 70
    32
  1
21.5
 71
     5
 42
21.62132034355796
  3
Standard
100
AcDbAlignedDimension
 13
214.7228455066391
 23
596.7632054647006
 33
0.0
 14
124.8441658501997
 24
575.1418851211426
 34
0.0
 50
90.0
100
AcDbRotatedDimension
1001
ACAD
1000
DSTYLE
1002
{
1070
    40
1040
2.0
1070
    41
1040
3.5
1070
    42
1040
1.0
1070
    43
1040
7.0
1070
    44
1040
1.0
1070
    73
1070
     0
1070
    74
1070
     0
1070
    77
1070
     1
1070
    78
1070
     8
1070
    79
1070
     2
1070
   140
1040
3.5
1070
   141
1040
1.5
1070
   146
1040
0.5142857142857144
1070
   147
1040
1.5
1070
   172
1070
     1
1070
   178
1070
     1
1070
   179
1070
     2
1070
   271
1070
     2
1070
   272
1070
     2
1070
   284
1070
     8
1070
   285
1070
     8
1070
   286
1070
     8
1002
}
  0
LINE
  5
278
330
1E
100
AcDbEntity
  8
MITTEL
100
AcDbLine
 10
269.8441658501997
 20
608.1418851211418
 30
0.0
 11
269.8441658501997
 21
570.1418851211426
 31
0.0
  0
LINE
  5
279
330
1E
100
AcDbEntity
  8
STEMPEL
100
AcDbLine
 10
124.8441658501997
 20
575.1418851211435
 30
0.0
 11
414.8441658501996
 21
575.1418851211417
 31
0.0
  0
DIMENSION
  5
27A
330
1E
100
AcDbEntity
  8
SCHRAFF
100
AcDbDimension
  2
*D6
 10
216.8441658501997
 20
617.8707092595654
 30
0.0
 11
269.8441658501997
 21
624.3707092595655
 31
0.0
 70
    32
  1
%%c<>
 71
     5
 42
106.0
  3
Standard
100
AcDbAlignedDimension
 13
322.8441658501997
 23
594.6418851211408
 33
0.0
 14
216.8441658501997
 24
594.6418851211408
 34
0.0
100
AcDbRotatedDimension
1001
ACAD
1000
DSTYLE
1002
{
1070
    40
1040
2.0
1070
    41
1040
3.5
1070
    42
1040
1.0
1070
    43
1040
7.0
1070
    44
1040
1.0
1070
    73
1070
     0
1070
    74
1070
     0
1070
    77
1070
     1
1070
    78
1070
     8
1070
    79
1070
     2
1070
   140
1040
3.5
1070
   141
1040
1.5
1070
   146
1040
0.5142857142857144
1070
   147
1040
1.5
1070
   172
1070
     1
1070
   178
1070
     1
1070
   179
1070
     2
1070
   271
1070
     2
1070
   272
1070
     2
1070
   284
1070
     8
1070
   285
1070
     8
1070
   286
1070
     8
1002
}
  0
LINE
  5
27D
330
1E
100
AcDbEntity
  8
STEMPEL
100
AcDbLine
 10
161.8441658501997
 20
603.1418851211419
 30
0.0
 11
153.8441658501997
 21
603.1418851211419
 31
0.0
  0
LINE
  5
27E
330
1E
100
AcDbEntity
  8
STEMPEL
100
AcDbLine
 10
152.8441658501997
 20
602.1418851211421
 30
0.0
 11
162.8441658501997
 21
602.1418851211421
 31
0.0
  0
LINE
  5
27F
330
1E
100
AcDbEntity
  8
HILF
100
AcDbLine
 10
153.8441658501997
 20
603.1418851211419
 30
0.0
 11
153.8441658501997
 21
578.1418851211419
 31
0.0
  0
LINE
  5
280
330
1E
100
AcDbEntity
  8
STEMPEL
100
AcDbLine
 10
152.8441658501997
 20
602.141885121142
 30
0.0
 11
152.8441658501997
 21
578.1418851211419
 31
0.0
  0
LINE
  5
281
330
1E
100
AcDbEntity
  8
STEMPEL
100
AcDbLine
 10
153.8441658501997
 20
603.1418851211419
 30
0.0
 11
152.8441658501997
 21
602.141885121142
 31
0.0
  0
LINE
  5
282
330
1E
100
AcDbEntity
  8
HILF
100
AcDbLine
 10
161.8441658501997
 20
603.1418851211419
 30
0.0
 11
161.8441658501997
 21
578.1418851211419
 31
0.0
  0
LINE
  5
283
330
1E
100
AcDbEntity
  8
STEMPEL
100
AcDbLine
 10
162.8441658501997
 20
602.141885121142
 30
0.0
 11
162.8441658501997
 21
578.1418851211419
 31
0.0
  0
LINE
  5
284
330
1E
100
AcDbEntity
  8
MITTEL
100
AcDbLine
 10
157.8441658501997
 20
608.1418851211433
 30
0.0
 11
157.8441658501997
 21
578.1418851211419
 31
0.0
  0
LINE
  5
285
330
1E
100
AcDbEntity
  8
STEMPEL
100
AcDbLine
 10
162.8441658501997
 20
602.141885121142
 30
0.0
 11
161.8441658501997
 21
603.1418851211419
 31
0.0
  0
LINE
  5
286
330
1E
100
AcDbEntity
  8
STEMPEL
100
AcDbLine
 10
344.0401253430931
 20
602.1418851211417
 30
0.0
 11
344.0401253430931
 21
578.251588468006
 31
0.0
  0
LINE
  5
287
330
1E
100
AcDbEntity
  8
STEMPEL
100
AcDbLine
 10
354.0401253430931
 20
602.141885121142
 30
0.0
 11
354.0401253430931
 21
578.1418851211419
 31
0.0
  0
LINE
  5
288
330
1E
100
AcDbEntity
  8
HILF
100
AcDbLine
 10
353.0401253430931
 20
603.1418851211419
 30
0.0
 11
353.0401253430932
 21
578.1418851211419
 31
0.0
  0
LINE
  5
289
330
1E
100
AcDbEntity
  8
HILF
100
AcDbLine
 10
345.0401253430931
 20
603.1418851211417
 30
0.0
 11
345.0401253430932
 21
578.1418851211419
 31
0.0
  0
LINE
  5
28A
330
1E
100
AcDbEntity
  8
MITTEL
100
AcDbLine
 10
349.3182999361457
 20
608.1418851211419
 30
0.0
 11
349.3182999361457
 21
578.1418851211419
 31
0.0
  0
LINE
  5
28B
330
1E
100
AcDbEntity
  8
STEMPEL
100
AcDbLine
 10
345.0401253430931
 20
603.1418851211417
 30
0.0
 11
353.0401253430931
 21
603.1418851211419
 31
0.0
  0
LINE
  5
28C
330
1E
100
AcDbEntity
  8
STEMPEL
100
AcDbLine
 10
354.0401253430931
 20
602.141885121142
 30
0.0
 11
344.0401253430934
 21
602.141885121142
 31
0.0
  0
LINE
  5
28D
330
1E
100
AcDbEntity
  8
STEMPEL
100
AcDbLine
 10
344.0401253430931
 20
602.1418851211417
 30
0.0
 11
345.0401253430931
 21
603.1418851211417
 31
0.0
  0
LINE
  5
28E
330
1E
100
AcDbEntity
  8
STEMPEL
100
AcDbLine
 10
353.0401253430931
 20
603.1418851211419
 30
0.0
 11
354.0401253430931
 21
602.141885121142
 31
0.0
  0
LINE
  5
28F
330
1E
100
AcDbEntity
  8
STEMPEL
100
AcDbLine
 10
386.8441658501997
 20
602.141885121142
 30
0.0
 11
386.8441658501997
 21
578.1418851211419
 31
0.0
  0
LINE
  5
290
330
1E
100
AcDbEntity
  8
STEMPEL
100
AcDbLine
 10
376.8441658501997
 20
602.141885121142
 30
0.0
 11
376.8441658501997
 21
578.1418851211419
 31
0.0
  0
LINE
  5
291
330
1E
100
AcDbEntity
  8
MITTEL
100
AcDbLine
 10
381.8441658501997
 20
608.1418851211418
 30
0.0
 11
381.8441658501997
 21
578.1418851211419
 31
0.0
  0
LINE
  5
292
330
1E
100
AcDbEntity
  8
HILF
100
AcDbLine
 10
377.8441658501997
 20
603.1418851211419
 30
0.0
 11
377.8441658501997
 21
578.1418851211419
 31
0.0
  0
LINE
  5
293
330
1E
100
AcDbEntity
  8
HILF
100
AcDbLine
 10
385.8441658501997
 20
603.1418851211419
 30
0.0
 11
385.8441658501997
 21
578.1418851211419
 31
0.0
  0
LINE
  5
294
330
1E
100
AcDbEntity
  8
STEMPEL
100
AcDbLine
 10
377.8441658501997
 20
603.1418851211419
 30
0.0
 11
385.8441658501997
 21
603.1418851211419
 31
0.0
  0
LINE
  5
295
330
1E
100
AcDbEntity
  8
STEMPEL
100
AcDbLine
 10
386.8441658501997
 20
602.1418851211421
 30
0.0
 11
376.8441658501997
 21
602.1418851211421
 31
0.0
  0
LINE
  5
296
330
1E
100
AcDbEntity
  8
STEMPEL
100
AcDbLine
 10
385.8441658501997
 20
603.1418851211419
 30
0.0
 11
386.8441658501997
 21
602.141885121142
 31
0.0
  0
LINE
  5
297
330
1E
100
AcDbEntity
  8
STEMPEL
100
AcDbLine
 10
376.8441658501997
 20
602.141885121142
 30
0.0
 11
377.8441658501997
 21
603.1418851211419
 31
0.0
  0
DIMENSION
  5
298
330
1E
100
AcDbEntity
  8
BEM
100
AcDbDimension
  2
*D7
 10
381.8441658501997
 20
531.8690374244521
 30
0.0
 11
269.8441658501997
 21
538.3690374244521
 31
0.0
 70
    32
  1
%%c<>
 71
     5
 42
224.0
  3
Standard
100
AcDbAlignedDimension
 13
157.8441658501997
 23
578.1418851211419
 33
0.0
 14
381.8441658501997
 24
578.1418851211419
 34
0.0
100
AcDbRotatedDimension
1001
ACAD
1000
DSTYLE
1002
{
1070
    40
1040
2.0
1070
    41
1040
3.5
1070
    42
1040
1.0
1070
    43
1040
7.0
1070
    44
1040
1.0
1070
    73
1070
     0
1070
    74
1070
     0
1070
    77
1070
     1
1070
    78
1070
     8
1070
    79
1070
     2
1070
   140
1040
3.5
1070
   141
1040
1.5
1070
   146
1040
0.5142857142857144
1070
   147
1040
1.5
1070
   172
1070
     1
1070
   178
1070
     1
1070
   179
1070
     2
1070
   271
1070
     2
1070
   272
1070
     2
1070
   284
1070
     8
1070
   285
1070
     8
1070
   286
1070
     8
1002
}
  0
LINE
  5
29A
330
1E
100
AcDbEntity
  8
STEMPEL
100
AcDbLine
 10
124.8441658501997
 20
577.1418851211426
 30
0.0
 11
124.8441658501997
 21
575.1418851211426
 31
0.0
  0
LINE
  5
29B
330
1E
100
AcDbEntity
  8
STEMPEL
100
AcDbLine
 10
125.8441658501997
 20
578.1418851211426
 30
0.0
 11
124.8441658501997
 21
577.1418851211426
 31
0.0
  0
LINE
  5
29C
330
1E
100
AcDbEntity
  8
STEMPEL
100
AcDbLine
 10
413.8441658502007
 20
578.1418851211417
 30
0.0
 11
414.8441658501996
 21
577.1418851211426
 31
0.0
  0
LINE
  5
29D
330
1E
100
AcDbEntity
  8
STEMPEL
100
AcDbLine
 10
414.8441658501996
 20
577.1418851211426
 30
0.0
 11
414.8441658501996
 21
575.1418851211417
 31
0.0
  0
LINE
  5
29E
330
1E
100
AcDbEntity
  8
STEMPEL
  6
STRICHPUNKT
100
AcDbLine
 10
322.8441658501997
 20
594.6418851211408
 30
0.0
 11
324.9654861937593
 21
596.7632054647006
 31
0.0
  0
ARC
  5
29F
330
1E
100
AcDbEntity
  8
STEMPEL
100
AcDbCircle
 10
344.4152336620654
 20
580.1418851211419
 30
0.0
 40
5.0
100
AcDbArc
 50
225.0000000000006
 51
270.0
  0
ARC
  5
2A0
330
1E
100
AcDbEntity
  8
STEMPEL
100
AcDbCircle
 10
344.4152336620654
 20
580.1418851211419
 30
0.0
 40
2.0
100
AcDbArc
 50
225.0000000000006
 51
270.0
  0
LINE
  5
2A1
330
1E
100
AcDbEntity
  8
STEMPEL
100
AcDbLine
 10
343.0010200996924
 20
578.7276715587688
 30
0.0
 11
324.9654861937593
 21
596.7632054647004
 31
0.0
  0
LINE
  5
2A2
330
1E
100
AcDbEntity
  8
BEM
100
AcDbLine
 10
342.3441658501997
 20
575.1418851211422
 30
0.0
 11
340.8796997561328
 21
576.6063512152091
 31
0.0
  0
LINE
  5
2A3
330
1E
100
AcDbEntity
  8
STEMPEL
100
AcDbLine
 10
214.7228455066391
 20
596.7632054647006
 30
0.0
 11
324.9654861937594
 21
596.7632054647004
 31
0.0
  0
LINE
  5
2A4
330
1E
100
AcDbEntity
  8
STEMPEL
100
AcDbLine
 10
322.8441658501997
 20
594.6418851211408
 30
0.0
 11
216.844165850199
 21
594.6418851211408
 31
0.0
  0
ARC
  5
2A5
330
1E
100
AcDbEntity
  8
STEMPEL
100
AcDbCircle
 10
195.2730980383332
 20
580.1418851211419
 30
0.0
 40
2.0
100
AcDbArc
 50
270.0
 51
314.9999999999995
  0
ARC
  5
2A6
330
1E
100
AcDbEntity
  8
STEMPEL
100
AcDbCircle
 10
195.2730980383332
 20
580.1418851211419
 30
0.0
 40
5.0
100
AcDbArc
 50
270.0
 51
314.9999999999995
  0
LINE
  5
2A7
330
1E
100
AcDbEntity
  8
BEM
100
AcDbLine
 10
197.3441658501997
 20
575.1418851211431
 30
0.0
 11
198.8086319442658
 21
576.6063512152092
 31
0.0
  0
LINE
  5
2A8
330
1E
100
AcDbEntity
  8
STEMPEL
  6
STRICHPUNKT
100
AcDbLine
 10
216.8441658501988
 20
594.6418851211408
 30
0.0
 11
214.7228455066392
 21
596.7632054647006
 31
0.0
  0
LINE
  5
2A9
330
1E
100
AcDbEntity
  8
STEMPEL
100
AcDbLine
 10
196.6873116007062
 20
578.7276715587688
 30
0.0
 11
214.7228455066392
 21
596.7632054647006
 31
0.0
  0
LINE
  5
2AA
330
1E
100
AcDbEntity
  8
STEMPEL
100
AcDbLine
 10
344.4152336620654
 20
578.1418851211419
 30
0.0
 11
413.8441658502007
 21
578.1418851211417
 31
0.0
  0
HATCH
  5
2AB
330
1E
100
AcDbEntity
  8
SCHRAFF
100
AcDbHatch
 10
0.0
 20
0.0
 30
0.0
210
0.0
220
0.0
230
1.0
  2
_USER
 70
     0
 71
     0
 91
        2
 92
        7
 72
     1
 73
     1
 93
        9
 10
216.8441658501989
 20
594.6418851211407
 42
0.0
 10
214.7228455066392
 20
596.7632054647004
 42
0.0
 10
196.6873116007062
 20
578.7276715587688
 42
-0.1989123673796237
 10
195.2730980383331
 20
578.1418851211424
 42
0.0
 10
125.8441658501996
 20
578.1418851211426
 42
0.0
 10
124.8441658501997
 20
577.1418851211426
 42
0.0
 10
124.8441658501997
 20
575.1418851211435
 42
0.0
 10
195.2730980383332
 20
575.1418851211431
 42
0.1989123673797055
 10
198.8086319442669
 20
576.6063512152101
 42
0.0
 97
        0
 92
        7
 72
     1
 73
     1
 93
        9
 10
413.8441658502006
 20
578.1418851211415
 42
0.0
 10
344.4152336620654
 20
578.1418851211419
 42
-0.1989123673796506
 10
343.0010200996923
 20
578.7276715587688
 42
0.0
 10
324.9654861937593
 20
596.7632054647006
 42
0.0
 10
322.8441658501997
 20
594.6418851211408
 42
0.0
 10
340.8796997561327
 20
576.6063512152091
 42
0.1989123673796418
 10
344.4152336620653
 20
575.1418851211422
 42
0.0
 10
414.8441658501996
 20
575.1418851211417
 42
0.0
 10
414.8441658501996
 20
577.1418851211428
 42
0.0
 97
        0
 75
     0
 76
     0
 52
45.0
 41
2.0
 77
     0
 78
     1
 53
45.0
 43
30.69155513509077
 44
116.5786299057597
 45
-1.414213562373094
 46
1.414213562373095
 79
     0
 47
0.4066471926477464
 98
        2
 10
177.1712826868101
 20
576.7417119678878
 10
363.9638684421893
 20
577.5550062433092
  0
LINE
  5
2B8
330
1E
100
AcDbEntity
  8
MITTEL
100
AcDbLine
 10
419.8441658501996
 20
307.8572708517697
 30
0.0
 11
119.8441658501997
 21
307.8572708517697
 31
0.0
  0
LINE
  5
2B9
330
1E
100
AcDbEntity
  8
MITTEL
100
AcDbLine
 10
269.8441658501997
 20
457.8572708517697
 30
0.0
 11
269.8441658501997
 21
157.8572708517697
 31
0.0
  0
LINE
  5
2BA
330
1E
100
AcDbEntity
  8
MITTEL
100
AcDbLine
 10
341.9690575312277
 20
235.732379170742
 30
0.0
 11
356.1111931549585
 21
221.5902435470109
 31
0.0
  0
LINE
  5
2BB
330
1E
100
AcDbEntity
  8
MITTEL
100
AcDbLine
 10
197.7192741691718
 20
235.7323791707419
 30
0.0
 11
183.5771385454409
 21
221.590243547011
 31
0.0
  0
LINE
  5
2C1
330
1E
100
AcDbEntity
  8
STEMPEL
100
AcDbLine
 10
273.8441658501997
 20
603.1418851211419
 30
0.0
 11
274.8441658501997
 21
602.141885121142
 31
0.0
  0
LINE
  5
2C2
330
1E
100
AcDbEntity
  8
STEMPEL
100
AcDbLine
 10
274.8441658501997
 20
602.141885121142
 30
0.0
 11
264.8441658502
 21
602.141885121142
 31
0.0
  0
LINE
  5
2C3
330
1E
100
AcDbEntity
  8
STEMPEL
100
AcDbLine
 10
265.8441658501997
 20
603.1418851211417
 30
0.0
 11
273.8441658501997
 21
603.1418851211419
 31
0.0
  0
LINE
  5
2C4
330
1E
100
AcDbEntity
  8
HILF
100
AcDbLine
 10
273.8441658501997
 20
603.1418851211419
 30
0.0
 11
273.8441658501997
 21
596.7632054647006
 31
0.0
  0
LINE
  5
2C5
330
1E
100
AcDbEntity
  8
STEMPEL
100
AcDbLine
 10
274.8441658501997
 20
602.141885121142
 30
0.0
 11
274.8441658501997
 21
596.7632054647005
 31
0.0
  0
LINE
  5
2C6
330
1E
100
AcDbEntity
  8
STEMPEL
100
AcDbLine
 10
264.8441658501997
 20
602.1418851211417
 30
0.0
 11
265.8441658501997
 21
603.1418851211417
 31
0.0
  0
LINE
  5
2C7
330
1E
100
AcDbEntity
  8
HILF
100
AcDbLine
 10
265.8441658501997
 20
603.1418851211417
 30
0.0
 11
265.8441658501997
 21
596.7632054647006
 31
0.0
  0
LINE
  5
2C8
330
1E
100
AcDbEntity
  8
STEMPEL
100
AcDbLine
 10
264.8441658501997
 20
602.1418851211417
 30
0.0
 11
264.8441658501997
 21
596.7632054647005
 31
0.0
  0
LINE
  5
2C9
330
1E
100
AcDbEntity
  8
STEMPEL
100
AcDbLine
 10
186.6482063573062
 20
603.1418851211419
 30
0.0
 11
185.6482063573063
 21
602.141885121142
 31
0.0
  0
LINE
  5
2CA
330
1E
100
AcDbEntity
  8
STEMPEL
100
AcDbLine
 10
195.6482063573062
 20
602.1418851211417
 30
0.0
 11
194.6482063573062
 21
603.1418851211417
 31
0.0
  0
LINE
  5
2CB
330
1E
100
AcDbEntity
  8
STEMPEL
100
AcDbLine
 10
185.6482063573063
 20
602.141885121142
 30
0.0
 11
195.648206357306
 21
602.141885121142
 31
0.0
  0
LINE
  5
2CC
330
1E
100
AcDbEntity
  8
STEMPEL
100
AcDbLine
 10
194.6482063573062
 20
603.1418851211417
 30
0.0
 11
186.6482063573062
 21
603.1418851211419
 31
0.0
  0
LINE
  5
2CD
330
1E
100
AcDbEntity
  8
MITTEL
100
AcDbLine
 10
190.3700317642537
 20
608.1418851211431
 30
0.0
 11
190.3700317642536
 21
578.1418851211419
 31
0.0
  0
LINE
  5
2CE
330
1E
100
AcDbEntity
  8
HILF
100
AcDbLine
 10
194.6482063573062
 20
603.1418851211417
 30
0.0
 11
194.6482063573062
 21
578.1418851211419
 31
0.0
  0
LINE
  5
2CF
330
1E
100
AcDbEntity
  8
HILF
100
AcDbLine
 10
186.6482063573062
 20
603.1418851211419
 30
0.0
 11
186.6482063573062
 21
578.1418851211419
 31
0.0
  0
LINE
  5
2D0
330
1E
100
AcDbEntity
  8
STEMPEL
100
AcDbLine
 10
185.6482063573063
 20
602.141885121142
 30
0.0
 11
185.6482063573063
 21
578.1418851211419
 31
0.0
  0
LINE
  5
2D1
330
1E
100
AcDbEntity
  8
STEMPEL
100
AcDbLine
 10
195.6482063573062
 20
602.1418851211417
 30
0.0
 11
195.6482063573062
 21
578.251588468006
 31
0.0
  0
CIRCLE
  5
37B
330
1E
100
AcDbEntity
  8
STEMPEL
100
AcDbCircle
 10
269.8441658501997
 20
307.8572708517697
 30
0.0
 40
145.0
  0
CIRCLE
  5
37C
330
1E
100
AcDbEntity
  8
STEMPEL
100
AcDbCircle
 10
269.8441658501997
 20
307.8572708517697
 30
0.0
 40
55.12132034355966
  0
CIRCLE
  5
37D
330
1E
100
AcDbEntity
  8
STEMPEL
100
AcDbCircle
 10
269.8441658501997
 20
307.8572708517697
 30
0.0
 40
53.0
  0
CIRCLE
  5
37E
330
1E
100
AcDbEntity
  8
HILF
100
AcDbCircle
 10
269.8441658501997
 20
307.8572708517697
 30
0.0
 40
73.7426406871196
  0
CIRCLE
  5
37F
330
1E
100
AcDbEntity
  8
MITTEL
100
AcDbCircle
 10
269.8441658501997
 20
307.8572708517697
 30
0.0
 40
112.0
  0
ARC
  5
380
330
1E
100
AcDbEntity
  8
HILF
100
AcDbCircle
 10
269.8441658501997
 20
419.8572708517697
 30
0.0
 40
4.0
100
AcDbArc
 50
284.0976669605086
 51
195.0000000000011
  0
CIRCLE
  5
381
330
1E
100
AcDbEntity
  8
STEMPEL
100
AcDbCircle
 10
269.8441658501997
 20
419.8572708517697
 30
0.0
 40
5.0
  0
LINE
  5
384
330
1E
100
AcDbEntity
  8
MITTEL
100
AcDbLine
 10
197.7192741691718
 20
379.9821625327975
 30
0.0
 11
183.5771385454409
 21
394.1242981565285
 31
0.0
  0
LINE
  5
385
330
1E
100
AcDbEntity
  8
MITTEL
100
AcDbLine
 10
341.9690575312277
 20
379.9821625327975
 30
0.0
 11
356.1111931549585
 21
394.1242981565285
 31
0.0
  0
CIRCLE
  5
392
330
1E
100
AcDbEntity
  8
STEMPEL
100
AcDbCircle
 10
190.6482063573063
 20
387.0532303446631
 30
0.0
 40
5.0
  0
ARC
  5
393
330
1E
100
AcDbEntity
  8
HILF
100
AcDbCircle
 10
190.6482063573063
 20
387.0532303446631
 30
0.0
 40
4.0
100
AcDbArc
 50
329.0976669605086
 51
240.0000000000012
  0
CIRCLE
  5
394
330
1E
100
AcDbEntity
  8
STEMPEL
100
AcDbCircle
 10
157.8441658501997
 20
307.8572708517698
 30
0.0
 40
5.0
  0
ARC
  5
395
330
1E
100
AcDbEntity
  8
HILF
100
AcDbCircle
 10
157.8441658501997
 20
307.8572708517698
 30
0.0
 40
4.0
100
AcDbArc
 50
14.0976669605086
 51
285.0000000000012
  0
CIRCLE
  5
396
330
1E
100
AcDbEntity
  8
STEMPEL
100
AcDbCircle
 10
190.6482063573061
 20
228.6613113588764
 30
0.0
 40
5.0
  0
ARC
  5
397
330
1E
100
AcDbEntity
  8
HILF
100
AcDbCircle
 10
190.6482063573061
 20
228.6613113588764
 30
0.0
 40
4.0
100
AcDbArc
 50
59.09766696050852
 51
330.0000000000011
  0
CIRCLE
  5
398
330
1E
100
AcDbEntity
  8
STEMPEL
100
AcDbCircle
 10
269.8441658501995
 20
195.8572708517697
 30
0.0
 40
5.0
  0
ARC
  5
399
330
1E
100
AcDbEntity
  8
HILF
100
AcDbCircle
 10
269.8441658501995
 20
195.8572708517697
 30
0.0
 40
4.0
100
AcDbArc
 50
104.0976669605086
 51
15.00000000000106
  0
CIRCLE
  5
39A
330
1E
100
AcDbEntity
  8
STEMPEL
100
AcDbCircle
 10
349.0401253430929
 20
228.6613113588763
 30
0.0
 40
5.0
  0
ARC
  5
39B
330
1E
100
AcDbEntity
  8
HILF
100
AcDbCircle
 10
349.0401253430929
 20
228.6613113588763
 30
0.0
 40
4.0
100
AcDbArc
 50
149.0976669605085
 51
60.00000000000113
  0
CIRCLE
  5
39C
330
1E
100
AcDbEntity
  8
STEMPEL
100
AcDbCircle
 10
381.8441658501996
 20
307.8572708517695
 30
0.0
 40
5.0
  0
ARC
  5
39D
330
1E
100
AcDbEntity
  8
HILF
100
AcDbCircle
 10
381.8441658501996
 20
307.8572708517695
 30
0.0
 40
4.0
100
AcDbArc
 50
194.0976669605086
 51
105.0000000000011
  0
CIRCLE
  5
39E
330
1E
100
AcDbEntity
  8
STEMPEL
100
AcDbCircle
 10
349.0401253430932
 20
387.0532303446629
 30
0.0
 40
5.0
  0
ARC
  5
39F
330
1E
100
AcDbEntity
  8
HILF
100
AcDbCircle
 10
349.0401253430932
 20
387.0532303446629
 30
0.0
 40
4.0
100
AcDbArc
 50
239.0976669605085
 51
150.0000000000011
  0
DIMENSION
  5
3A1
330
1E
100
AcDbEntity
  8
BEM
100
AcDbDimension
  2
*D8
 10
183.5771385454409
 20
394.1242981565285
 30
0.0
 11
112.6177494964549
 21
372.9825848688098
 31
0.0
 70
    34
 71
     5
 42
0.7853981633974517
  3
Standard
100
AcDb2LineAngularDimension
 13
419.8441658501996
 23
307.8572708517697
 33
0.0
 14
119.8441658501997
 24
307.8572708517697
 34
0.0
 15
197.7192741691718
 25
379.9821625327975
 35
0.0
 16
128.0925676644385
 26
389.6975942223786
 36
0.0
1001
ACAD
1000
DSTYLE
1002
{
1070
    40
1040
2.0
1070
    41
1040
3.5
1070
    42
1040
1.0
1070
    43
1040
7.0
1070
    44
1040
1.0
1070
    73
1070
     0
1070
    74
1070
     0
1070
    77
1070
     1
1070
    78
1070
     8
1070
    79
1070
     2
1070
   140
1040
3.5
1070
   141
1040
1.5
1070
   146
1040
0.5142857142857144
1070
   147
1040
1.5
1070
   172
1070
     1
1070
   178
1070
     1
1070
   179
1070
     2
1070
   271
1070
     2
1070
   272
1070
     2
1070
   284
1070
     8
1070
   285
1070
     8
1070
   286
1070
     8
1002
}
  0
TEXT
  5
3B1
330
1E
100
AcDbEntity
  8
TEXT
100
AcDbText
 10
505.0406270075145
 20
613.4136515131371
 30
0.0
 40
4.0
  1
DIN ISO2768-c
 50
90.0
 41
0.7
  7
GREEKS
 72
     1
 11
505.0406270075145
 21
629.2803181798038
 31
0.0
100
AcDbText
  0
ENDSEC
  0
SECTION
  2
OBJECTS
  0
DICTIONARY
  5
C
330
0
100
AcDbDictionary
281
     1
  3
ACAD_COLOR
350
11A
  3
ACAD_GROUP
350
D
  3
ACAD_LAYOUT
350
19
  3
ACAD_MATERIAL
350
119
  3
ACAD_MLINESTYLE
350
16
  3
ACAD_PLOTSETTINGS
350
18
  3
ACAD_PLOTSTYLENAME
350
E
  3
AcDbVariableDictionary
350
125
  0
DICTIONARY
  5
DB
330
1E
100
AcDbDictionary
280
     1
281
     1
  3
ACAD_LAYOUTSELFREF
360
10F
  0
DICTIONARY
  5
DD
330
1A
100
AcDbDictionary
280
     1
281
     1
  3
ACAD_LAYOUTSELFREF
360
10E
  0
DICTIONARY
  5
11A
102
{ACAD_REACTORS
330
C
102
}
330
C
100
AcDbDictionary
281
     1
  0
DICTIONARY
  5
D
102
{ACAD_REACTORS
330
C
102
}
330
C
100
AcDbDictionary
281
     1
  0
DICTIONARY
  5
19
102
{ACAD_REACTORS
330
C
102
}
330
C
100
AcDbDictionary
281
     1
  3
Layout1
350
1D
  3
Model
350
21
  0
DICTIONARY
  5
119
102
{ACAD_REACTORS
330
C
102
}
330
C
100
AcDbDictionary
281
     1
  0
DICTIONARY
  5
16
102
{ACAD_REACTORS
330
C
102
}
330
C
100
AcDbDictionary
281
     1
  3
Standard
350
17
  0
DICTIONARY
  5
18
102
{ACAD_REACTORS
330
C
102
}
330
C
100
AcDbDictionary
281
     1
  0
ACDBDICTIONARYWDFLT
  5
E
102
{ACAD_REACTORS
330
C
102
}
330
C
100
AcDbDictionary
281
     1
  3
Normal
350
F
100
AcDbDictionaryWithDefault
340
F
  0
DICTIONARY
  5
125
102
{ACAD_REACTORS
330
C
102
}
330
C
100
AcDbDictionary
281
     1
  3
DIMASSOC
350
126
  3
PROJECTNAME
350
127
  0
XRECORD
  5
10F
102
{ACAD_REACTORS
330
DB
102
}
330
DB
100
AcDbXrecord
280
     1
340
1E
  0
XRECORD
  5
10E
102
{ACAD_REACTORS
330
DD
102
}
330
DD
100
AcDbXrecord
280
     1
340
1A
  0
LAYOUT
  5
1D
102
{ACAD_REACTORS
330
19
102
}
330
19
100
AcDbPlotSettings
  1

  2
\\NT_WORK01\HP LaserJet 5000 PCL 6
  4

  6

 40
0.0
 41
0.0
 42
0.0
 43
0.0
 44
0.0
 45
0.0
 46
0.0
 47
0.0
 48
0.0
 49
0.0
140
0.0
141
0.0
142
1.0
143
1.0
 70
   688
 72
     0
 73
     0
 74
     5
  7

 75
    16
147
1.0
 76
     0
 77
     2
 78
   300
148
0.0
149
0.0
100
AcDbLayout
  1
Layout1
 70
     0
 71
     1
 10
0.0
 20
0.0
 11
12.0
 21
9.0
 12
0.0
 22
0.0
 32
0.0
 14
1.000000000000000E+20
 24
1.000000000000000E+20
 34
1.000000000000000E+20
 15
-1.000000000000000E+20
 25
-1.000000000000000E+20
 35
-1.000000000000000E+20
146
0.0
 13
0.0
 23
0.0
 33
0.0
 16
1.0
 26
0.0
 36
0.0
 17
0.0
 27
1.0
 37
0.0
 76
     0
330
1A
  0
LAYOUT
  5
21
102
{ACAD_REACTORS
330
19
102
}
330
19
100
AcDbPlotSettings
  1

  2
\\NT_WORK01\HP LaserJet 5000 PCL 6
  4

  6

 40
0.0
 41
0.0
 42
0.0
 43
0.0
 44
0.0
 45
0.0
 46
0.0
 47
0.0
 48
0.0
 49
0.0
140
0.0
141
0.0
142
1.0
143
1.0
 70
  1712
 72
     0
 73
     0
 74
     0
  7

 75
     0
147
1.0
 76
     0
 77
     2
 78
   300
148
0.0
149
0.0
100
AcDbLayout
  1
Model
 70
     1
 71
     0
 10
0.0
 20
0.0
 11
12.0
 21
9.0
 12
0.0
 22
0.0
 32
0.0
 14
0.0
 24
0.0
 34
0.0
 15
0.0
 25
0.0
 35
0.0
146
0.0
 13
0.0
 23
0.0
 33
0.0
 16
1.0
 26
0.0
 36
0.0
 17
0.0
 27
1.0
 37
0.0
 76
     0
330
1E
  0
MLINESTYLE
  5
17
102
{ACAD_REACTORS
330
16
102
}
330
16
100
AcDbMlineStyle
  2
STANDARD
 70
     0
  3

 62
   256
 51
90.0
 52
90.0
 71
     2
 49
0.5
 62
   256
  6
BYLAYER
 49
-0.5
 62
   256
  6
BYLAYER
  0
ACDBPLACEHOLDER
  5
F
102
{ACAD_REACTORS
330
E
102
}
330
E
  0
DICTIONARYVAR
  5
126
102
{ACAD_REACTORS
330
125
102
}
330
125
100
DictionaryVariables
280
     0
  1
1
  0
DICTIONARYVAR
  5
127
102
{ACAD_REACTORS
330
125
102
}
330
125
100
DictionaryVariables
280
     0
  1

  0
ENDSEC
  0
EOF
