  0
SECTION
  2
HEADER
  9
$ACADVER
  1
AC1018
  9
$ACADMAINTVER
 70
     2
  9
$DWGCODEPAGE
  3
ANSI_1252
  9
$INSBASE
 10
0.0
 20
0.0
 30
0.0
  9
$EXTMIN
 10
-0.0159628069263818
 20
-0.0225759697923422
 30
-0.0000000000000053
  9
$EXTMAX
 10
1050.016047155978
 20
1485.022695263458
 30
0.0000000000000099
  9
$LIMMIN
 10
0.0
 20
0.0
  9
$LIMMAX
 10
1050.0
 20
1485.0
  9
$ORTHOMODE
 70
     1
  9
$REGENMODE
 70
     1
  9
$FILLMODE
 70
     1
  9
$QTEXTMODE
 70
     0
  9
$MIRRTEXT
 70
     0
  9
$LTSCALE
 40
50.0
  9
$ATTMODE
 70
     1
  9
$TEXTSIZE
 40
3.5
  9
$TRACEWID
 40
0.5
  9
$TEXTSTYLE
  7
STANDARD
  9
$CLAYER
  8
BEM
  9
$CELTYPE
  6
ByLayer
  9
$CECOLOR
 62
   256
  9
$CELTSCALE
 40
1.0
  9
$DISPSILH
 70
     0
  9
$DIMSCALE
 40
5.0
  9
$DIMASZ
 40
3.5
  9
$DIMEXO
 40
1.0
  9
$DIMDLI
 40
8.0
  9
$DIMRND
 40
0.0
  9
$DIMDLE
 40
0.0
  9
$DIMEXE
 40
1.0
  9
$DIMTP
 40
1.199999999999999
  9
$DIMTM
 40
1.199999999999999
  9
$DIMTXT
 40
3.5
  9
$DIMCEN
 40
1.5
  9
$DIMTSZ
 40
0.0
  9
$DIMTOL
 70
     0
  9
$DIMLIM
 70
     0
  9
$DIMTIH
 70
     0
  9
$DIMTOH
 70
     0
  9
$DIMSE1
 70
     0
  9
$DIMSE2
 70
     0
  9
$DIMTAD
 70
     1
  9
$DIMZIN
 70
     8
  9
$DIMBLK
  1

  9
$DIMASO
 70
     1
  9
$DIMSHO
 70
     0
  9
$DIMPOST
  1

  9
$DIMAPOST
  1

  9
$DIMALT
 70
     0
  9
$DIMALTD
 70
     2
  9
$DIMALTF
 40
25.4
  9
$DIMLFAC
 40
1.0
  9
$DIMTOFL
 70
     1
  9
$DIMTVP
 40
0.0
  9
$DIMTIX
 70
     0
  9
$DIMSOXD
 70
     0
  9
$DIMSAH
 70
     0
  9
$DIMBLK1
  1

  9
$DIMBLK2
  1

  9
$DIMSTYLE
  2
STANDARD
  9
$DIMCLRD
 70
     0
  9
$DIMCLRE
 70
     0
  9
$DIMCLRT
 70
     1
  9
$DIMTFAC
 40
0.5
  9
$DIMGAP
 40
1.5
  9
$DIMJUST
 70
     0
  9
$DIMSD1
 70
     0
  9
$DIMSD2
 70
     0
  9
$DIMTOLJ
 70
     1
  9
$DIMTZIN
 70
     8
  9
$DIMALTZ
 70
     8
  9
$DIMALTTZ
 70
     8
  9
$DIMUPT
 70
     0
  9
$DIMDEC
 70
     2
  9
$DIMTDEC
 70
     2
  9
$DIMALTU
 70
     2
  9
$DIMALTTD
 70
     2
  9
$DIMTXSTY
  7
STANDARD
  9
$DIMAUNIT
 70
     0
  9
$DIMADEC
 70
     2
  9
$DIMALTRND
 40
0.0
  9
$DIMAZIN
 70
     2
  9
$DIMDSEP
 70
    46
  9
$DIMATFIT
 70
     3
  9
$DIMFRAC
 70
     0
  9
$DIMLDRBLK
  1

  9
$DIMLUNIT
 70
     2
  9
$DIMLWD
 70
    -2
  9
$DIMLWE
 70
    -2
  9
$DIMTMOVE
 70
     0
  9
$LUNITS
 70
     2
  9
$LUPREC
 70
     2
  9
$SKETCHINC
 40
1.0
  9
$FILLETRAD
 40
0.0
  9
$AUNITS
 70
     0
  9
$AUPREC
 70
     0
  9
$MENU
  1
ACAD
  9
$ELEVATION
 40
0.0
  9
$PELEVATION
 40
0.0
  9
$THICKNESS
 40
0.0
  9
$LIMCHECK
 70
     0
  9
$CHAMFERA
 40
1.0
  9
$CHAMFERB
 40
1.0
  9
$CHAMFERC
 40
0.0
  9
$CHAMFERD
 40
0.0
  9
$SKPOLY
 70
     0
  9
$TDCREATE
 40
2451969.548760475
  9
$TDUCREATE
 40
2451969.507093808
  9
$TDUPDATE
 40
2455531.363713901
  9
$TDUUPDATE
 40
2455531.322047234
  9
$TDINDWG
 40
0.1509352315
  9
$TDUSRTIMER
 40
0.1509352315
  9
$USRTIMER
 70
     1
  9
$ANGBASE
 50
0.0
  9
$ANGDIR
 70
     0
  9
$PDMODE
 70
     0
  9
$PDSIZE
 40
0.0
  9
$PLINEWID
 40
0.0
  9
$SPLFRAME
 70
     0
  9
$SPLINETYPE
 70
     6
  9
$SPLINESEGS
 70
     8
  9
$HANDSEED
  5
BE1
  9
$SURFTAB1
 70
     6
  9
$SURFTAB2
 70
     6
  9
$SURFTYPE
 70
     6
  9
$SURFU
 70
     6
  9
$SURFV
 70
     6
  9
$UCSBASE
  2

  9
$UCSNAME
  2

  9
$UCSORG
 10
0.0
 20
0.0
 30
0.0
  9
$UCSXDIR
 10
1.0
 20
0.0
 30
0.0
  9
$UCSYDIR
 10
0.0
 20
1.0
 30
0.0
  9
$UCSORTHOREF
  2

  9
$UCSORTHOVIEW
 70
     0
  9
$UCSORGTOP
 10
0.0
 20
0.0
 30
0.0
  9
$UCSORGBOTTOM
 10
0.0
 20
0.0
 30
0.0
  9
$UCSORGLEFT
 10
0.0
 20
0.0
 30
0.0
  9
$UCSORGRIGHT
 10
0.0
 20
0.0
 30
0.0
  9
$UCSORGFRONT
 10
0.0
 20
0.0
 30
0.0
  9
$UCSORGBACK
 10
0.0
 20
0.0
 30
0.0
  9
$PUCSBASE
  2

  9
$PUCSNAME
  2

  9
$PUCSORG
 10
0.0
 20
0.0
 30
0.0
  9
$PUCSXDIR
 10
1.0
 20
0.0
 30
0.0
  9
$PUCSYDIR
 10
0.0
 20
1.0
 30
0.0
  9
$PUCSORTHOREF
  2

  9
$PUCSORTHOVIEW
 70
     0
  9
$PUCSORGTOP
 10
0.0
 20
0.0
 30
0.0
  9
$PUCSORGBOTTOM
 10
0.0
 20
0.0
 30
0.0
  9
$PUCSORGLEFT
 10
0.0
 20
0.0
 30
0.0
  9
$PUCSORGRIGHT
 10
0.0
 20
0.0
 30
0.0
  9
$PUCSORGFRONT
 10
0.0
 20
0.0
 30
0.0
  9
$PUCSORGBACK
 10
0.0
 20
0.0
 30
0.0
  9
$USERI1
 70
     0
  9
$USERI2
 70
     0
  9
$USERI3
 70
     0
  9
$USERI4
 70
     0
  9
$USERI5
 70
     0
  9
$USERR1
 40
0.0
  9
$USERR2
 40
0.0
  9
$USERR3
 40
0.0
  9
$USERR4
 40
0.0
  9
$USERR5
 40
0.0
  9
$WORLDVIEW
 70
     1
  9
$SHADEDGE
 70
     3
  9
$SHADEDIF
 70
    70
  9
$TILEMODE
 70
     1
  9
$MAXACTVP
 70
    16
  9
$PINSBASE
 10
0.0
 20
0.0
 30
0.0
  9
$PLIMCHECK
 70
     0
  9
$PEXTMIN
 10
1.000000000000000E+20
 20
1.000000000000000E+20
 30
1.000000000000000E+20
  9
$PEXTMAX
 10
-1.000000000000000E+20
 20
-1.000000000000000E+20
 30
-1.000000000000000E+20
  9
$PLIMMIN
 10
0.0
 20
0.0
  9
$PLIMMAX
 10
12.0
 20
9.0
  9
$UNITMODE
 70
     0
  9
$VISRETAIN
 70
     0
  9
$PLINEGEN
 70
     0
  9
$PSLTSCALE
 70
     0
  9
$TREEDEPTH
 70
  3020
  9
$CMLSTYLE
  2
Standard
  9
$CMLJUST
 70
     0
  9
$CMLSCALE
 40
1.0
  9
$PROXYGRAPHICS
 70
     1
  9
$MEASUREMENT
 70
     0
  9
$CELWEIGHT
370
    -1
  9
$ENDCAPS
280
     0
  9
$JOINSTYLE
280
     0
  9
$LWDISPLAY
290
     0
  9
$INSUNITS
 70
     0
  9
$HYPERLINKBASE
  1

  9
$STYLESHEET
  1
monochrome1.ctb
  9
$XEDIT
290
     1
  9
$CEPSNTYPE
380
     0
  9
$PSTYLEMODE
290
     1
  9
$FINGERPRINTGUID
  2
{C1B20949-FFA6-4383-A050-3011D89D7A75}
  9
$VERSIONGUID
  2
{765C4F64-ABDB-4E47-9B6A-E08F8370D100}
  9
$EXTNAMES
290
     1
  9
$PSVPSCALE
 40
0.0
  9
$OLESTARTUP
290
     0
  9
$SORTENTS
280
   127
  9
$INDEXCTL
280
     0
  9
$HIDETEXT
280
     1
  9
$XCLIPFRAME
290
     0
  9
$HALOGAP
280
     0
  9
$OBSCOLOR
 70
   257
  9
$OBSLTYPE
280
     0
  9
$INTERSECTIONDISPLAY
280
     0
  9
$INTERSECTIONCOLOR
 70
   257
  9
$DIMASSOC
280
     2
  9
$PROJECTNAME
  1

  0
ENDSEC
  0
SECTION
  2
CLASSES
  0
CLASS
  1
ACDBDICTIONARYWDFLT
  2
AcDbDictionaryWithDefault
  3
ObjectDBX Classes
 90
        0
 91
        1
280
     0
281
     0
  0
CLASS
  1
DIMASSOC
  2
AcDbDimAssoc
  3
"AcDbDimAssoc|Product Desc:     AcDim ARX App For Dimension|Company:          Autodesk, Inc.|WEB Address:      www.autodesk.com"
 90
        0
 91
        1
280
     0
281
     0
  0
CLASS
  1
DICTIONARYVAR
  2
AcDbDictionaryVar
  3
ObjectDBX Classes
 90
        0
 91
        3
280
     0
281
     0
  0
ENDSEC
  0
SECTION
  2
TABLES
  0
TABLE
  2
VPORT
  5
5FB
330
0
100
AcDbSymbolTable
 70
     2
  0
VPORT
  5
BE0
330
5FB
100
AcDbSymbolTableRecord
100
AcDbViewportTableRecord
  2
*Active
 70
     0
 10
0.0
 20
0.0
 11
1.0
 21
1.0
 12
525.0000421745258
 22
742.500059646833
 13
0.0
 23
0.0
 14
1.0
 24
1.0
 15
50.0
 25
50.0
 16
0.0
 26
0.0
 36
1.0
 17
0.0
 27
0.0
 37
0.0
 40
1497.037561445094
 41
1.336927223719676
 42
50.0
 43
0.0
 44
0.0
 50
0.0
 51
0.0
 71
     0
 72
  1500
 73
     1
 74
     0
 75
     0
 76
     0
 77
     0
 78
     0
281
     0
 65
     1
110
0.0
120
0.0
130
0.0
111
1.0
121
0.0
131
0.0
112
0.0
122
1.0
132
0.0
 79
     0
146
0.0
  0
ENDTAB
  0
TABLE
  2
LTYPE
  5
5F8
330
0
100
AcDbSymbolTable
 70
     2
  0
LTYPE
  5
606
330
5F8
100
AcDbSymbolTableRecord
100
AcDbLinetypeTableRecord
  2
ByBlock
 70
     0
  3

 72
    65
 73
     0
 40
0.0
  0
LTYPE
  5
607
330
5F8
100
AcDbSymbolTableRecord
100
AcDbLinetypeTableRecord
  2
ByLayer
 70
     0
  3

 72
    65
 73
     0
 40
0.0
  0
LTYPE
  5
608
330
5F8
100
AcDbSymbolTableRecord
100
AcDbLinetypeTableRecord
  2
Continuous
 70
     0
  3
Solid line
 72
    65
 73
     0
 40
0.0
  0
LTYPE
  5
622
330
5F8
100
AcDbSymbolTableRecord
100
AcDbLinetypeTableRecord
  2
STRICHPUNKT
 70
     0
  3
__ . __ . __ . __ . __ . __ . __ . __ . __ . __
 72
    65
 73
     4
 40
1.0
 49
0.5
 74
     0
 49
-0.25
 74
     0
 49
0.0
 74
     0
 49
-0.25
 74
     0
  0
ENDTAB
  0
TABLE
  2
LAYER
  5
5F5
330
0
100
AcDbSymbolTable
 70
     9
  0
LAYER
  5
603
330
5F5
100
AcDbSymbolTableRecord
100
AcDbLayerTableRecord
  2
0
 70
     0
 62
     7
  6
Continuous
370
    -3
390
602
  0
LAYER
  5
626
330
5F5
100
AcDbSymbolTableRecord
100
AcDbLayerTableRecord
  2
VOLL
 70
     0
 62
     1
  6
Continuous
370
    -3
390
602
  0
LAYER
  5
627
330
5F5
100
AcDbSymbolTableRecord
100
AcDbLayerTableRecord
  2
MITTEL
 70
     0
 62
     2
  6
STRICHPUNKT
370
    -3
390
602
  0
LAYER
  5
628
330
5F5
100
AcDbSymbolTableRecord
100
AcDbLayerTableRecord
  2
BEM
 70
     0
 62
     7
  6
Continuous
370
    -3
390
602
  0
LAYER
  5
629
330
5F5
100
AcDbSymbolTableRecord
100
AcDbLayerTableRecord
  2
STEMPEL
 70
     0
 62
     3
  6
Continuous
370
    -3
390
602
  0
LAYER
  5
62B
330
5F5
100
AcDbSymbolTableRecord
100
AcDbLayerTableRecord
  2
SCHRAFF
 70
     0
 62
     7
  6
Continuous
370
    -3
390
602
  0
LAYER
  5
62C
330
5F5
100
AcDbSymbolTableRecord
100
AcDbLayerTableRecord
  2
DEFPOINTS
 70
     0
 62
     7
  6
Continuous
290
     0
370
    -3
390
602
  0
LAYER
  5
62D
330
5F5
100
AcDbSymbolTableRecord
100
AcDbLayerTableRecord
  2
HILF
 70
     0
 62
     2
  6
Continuous
370
    -3
390
602
  0
LAYER
  5
62E
330
5F5
100
AcDbSymbolTableRecord
100
AcDbLayerTableRecord
  2
TEXT
 70
     0
 62
     7
  6
Continuous
370
    -3
390
602
  0
ENDTAB
  0
TABLE
  2
STYLE
  5
5F6
330
0
100
AcDbSymbolTable
 70
     1
  0
STYLE
  5
604
330
5F6
100
AcDbSymbolTableRecord
100
AcDbTextStyleTableRecord
  2
STANDARD
 70
     0
 40
0.0
 41
0.8
 50
0.0
 71
     0
 42
3.5
  3
simplex.shx
  4

  0
ENDTAB
  0
TABLE
  2
VIEW
  5
5F9
330
0
100
AcDbSymbolTable
 70
     0
  0
ENDTAB
  0
TABLE
  2
UCS
  5
5FA
330
0
100
AcDbSymbolTable
 70
     0
  0
ENDTAB
  0
TABLE
  2
APPID
  5
5FC
330
0
100
AcDbSymbolTable
 70
     2
  0
APPID
  5
605
330
5FC
100
AcDbSymbolTableRecord
100
AcDbRegAppTableRecord
  2
ACAD
 70
     0
  0
APPID
  5
624
330
5FC
100
AcDbSymbolTableRecord
100
AcDbRegAppTableRecord
  2
RAK
 70
     0
  0
ENDTAB
  0
TABLE
  2
DIMSTYLE
  5
5FD
330
0
100
AcDbSymbolTable
 70
     1
100
AcDbDimStyleTable
 71
     1
340
625
  0
DIMSTYLE
105
625
102
{ACAD_REACTORS
330
7B
330
6E
330
61
330
CA
330
BA
330
B71
102
}
330
5FD
100
AcDbSymbolTableRecord
100
AcDbDimStyleTableRecord
  2
STANDARD
 70
     0
271
     2
272
     2
279
     2
284
     8
285
     8
286
     8
340
604
  0
ENDTAB
  0
TABLE
  2
BLOCK_RECORD
  5
5F4
330
0
100
AcDbSymbolTable
 70
     7
  0
BLOCK_RECORD
  5
613
330
5F4
100
AcDbSymbolTableRecord
100
AcDbBlockTableRecord
  2
*Model_Space
340
616
  0
BLOCK_RECORD
  5
60F
330
5F4
100
AcDbSymbolTableRecord
100
AcDbBlockTableRecord
  2
*Paper_Space
340
612
  0
BLOCK_RECORD
  5
617
330
5F4
100
AcDbSymbolTableRecord
100
AcDbBlockTableRecord
  2
LOGO
340
0
102
{BLKREFS
331
37
102
}
  0
BLOCK_RECORD
  5
635
330
5F4
100
AcDbSymbolTableRecord
100
AcDbBlockTableRecord
  2
*D1
340
0
  0
BLOCK_RECORD
  5
641
330
5F4
100
AcDbSymbolTableRecord
100
AcDbBlockTableRecord
  2
*D2
340
0
  0
BLOCK_RECORD
  5
64D
330
5F4
100
AcDbSymbolTableRecord
100
AcDbBlockTableRecord
  2
*D3
340
0
  0
BLOCK_RECORD
  5
670
330
5F4
100
AcDbSymbolTableRecord
100
AcDbBlockTableRecord
  2
*D4
340
0
  0
BLOCK_RECORD
  5
6A2
330
5F4
100
AcDbSymbolTableRecord
100
AcDbBlockTableRecord
  2
*D5
340
0
  0
BLOCK_RECORD
  5
B72
330
5F4
100
AcDbSymbolTableRecord
100
AcDbBlockTableRecord
  2
*D6
340
0
  0
ENDTAB
  0
ENDSEC
  0
SECTION
  2
BLOCKS
  0
BLOCK
  5
632
330
613
100
AcDbEntity
  8
0
100
AcDbBlockBegin
  2
*Model_Space
 70
     0
 10
0.0
 20
0.0
 30
0.0
  3
*Model_Space
  1

  0
ENDBLK
  5
633
330
613
100
AcDbEntity
  8
0
100
AcDbBlockEnd
  0
BLOCK
  5
630
330
60F
100
AcDbEntity
 67
     1
  8
0
100
AcDbBlockBegin
  2
*Paper_Space
 70
     0
 10
0.0
 20
0.0
 30
0.0
  3
*Paper_Space
  1

  0
ENDBLK
  5
631
330
60F
100
AcDbEntity
 67
     1
  8
0
100
AcDbBlockEnd
  0
BLOCK
  5
53
330
617
100
AcDbEntity
  8
0
100
AcDbBlockBegin
  2
LOGO
 70
     0
 10
0.0
 20
0.0
 30
0.0
  3
LOGO
  1

  0
ARC
  5
39
330
617
100
AcDbEntity
  8
0
100
AcDbCircle
 10
11.59973089678112
 20
-9.271599258481501
 30
0.0
 40
4.5
100
AcDbArc
 50
270.0
 51
231.0575587310159
  0
LINE
  5
3A
330
617
100
AcDbEntity
  8
0
100
AcDbLine
 10
3.599730896781125
 20
-4.771599258481529
 30
0.0
 11
3.599730896781153
 21
-11.77159925848133
 31
0.0
  0
LINE
  5
3B
330
617
100
AcDbEntity
  8
0
100
AcDbLine
 10
2.599730896781125
 20
-4.771599258481529
 30
0.0
 11
2.599730896781153
 21
-11.77159925848133
 31
0.0
  0
CIRCLE
  5
3C
330
617
100
AcDbEntity
  8
0
100
AcDbCircle
 10
11.59973089678112
 20
-9.271599258481501
 30
0.0
 40
3.5
  0
ARC
  5
3D
330
617
100
AcDbEntity
  8
0
100
AcDbCircle
 10
31.59973089678115
 20
-9.271599258481472
 30
0.0
 40
4.5
100
AcDbArc
 50
270.0
 51
231.0575587310182
  0
LINE
  5
3E
330
617
100
AcDbEntity
  8
0
100
AcDbLine
 10
17.59973089678112
 20
-4.771599258481472
 30
0.0
 11
17.59973089678115
 21
-13.77159925848147
 31
0.0
  0
ARC
  5
3F
330
617
100
AcDbEntity
  8
0
100
AcDbCircle
 10
22.59973089678116
 20
-7.271599258481472
 30
0.0
 40
2.5
100
AcDbArc
 50
293.1161887722295
 51
90.0
  0
CIRCLE
  5
40
330
617
100
AcDbEntity
  8
0
100
AcDbCircle
 10
31.59973089678115
 20
-9.271599258481472
 30
0.0
 40
3.5
  0
ARC
  5
41
330
617
100
AcDbEntity
  8
0
100
AcDbCircle
 10
4.599730896781153
 20
-11.77159925848133
 30
0.0
 40
1.0
100
AcDbArc
 50
180.0
 51
270.0
  0
ARC
  5
42
330
617
100
AcDbEntity
  8
0
100
AcDbCircle
 10
4.599730896781153
 20
-11.77159925848133
 30
0.0
 40
2.0
100
AcDbArc
 50
179.9999999999992
 51
270.0
  0
LINE
  5
43
330
617
100
AcDbEntity
  8
0
100
AcDbLine
 10
11.59973089678115
 20
-13.77159925848144
 30
0.0
 11
4.599730896781153
 21
-13.77159925848147
 31
0.0
  0
LINE
  5
44
330
617
100
AcDbEntity
  8
0
100
AcDbLine
 10
8.771303772034769
 20
-12.77159925848136
 30
0.0
 11
4.599730896781153
 21
-12.77159925848133
 31
0.0
  0
LINE
  5
45
330
617
100
AcDbEntity
  8
0
100
AcDbLine
 10
31.59973089678115
 20
-13.77159925848147
 30
0.0
 11
23.6715276665056
 21
-13.77159925848144
 31
0.0
  0
LINE
  5
46
330
617
100
AcDbEntity
  8
0
100
AcDbLine
 10
23.56565672307022
 20
-9.51278021337896
 30
0.0
 11
24.4388546544846
 21
-12.77159925848144
 31
0.0
  0
LINE
  5
47
330
617
100
AcDbEntity
  8
0
100
AcDbLine
 10
22.59973089678116
 20
-9.771599258481472
 30
0.0
 11
18.59973089678112
 21
-9.771599258481472
 31
0.0
  0
LINE
  5
48
330
617
100
AcDbEntity
  8
0
100
AcDbLine
 10
18.59973089678115
 20
-13.77159925848144
 30
0.0
 11
17.59973089678115
 21
-13.77159925848144
 31
0.0
  0
LINE
  5
49
330
617
100
AcDbEntity
  8
0
100
AcDbLine
 10
18.59973089678115
 20
-9.771599258481472
 30
0.0
 11
18.59973089678115
 21
-13.77159925848144
 31
0.0
  0
LINE
  5
4A
330
617
100
AcDbEntity
  8
0
100
AcDbLine
 10
22.59973089678116
 20
-9.771599258481472
 30
0.0
 11
23.67152766650562
 21
-13.77159925848147
 31
0.0
  0
ARC
  5
4B
330
617
100
AcDbEntity
  8
0
100
AcDbCircle
 10
22.59973089678116
 20
-7.271599258481472
 30
0.0
 40
2.5
100
AcDbArc
 50
270.0
 51
270.0000000000007
  0
LINE
  5
4C
330
617
100
AcDbEntity
  8
0
100
AcDbLine
 10
28.77130377203494
 20
-12.77159925848147
 30
0.0
 11
24.43885465448463
 21
-12.77159925848144
 31
0.0
  0
LINE
  5
4D
330
617
100
AcDbEntity
  8
0
100
AcDbLine
 10
3.599730896781125
 20
-4.771599258481472
 30
0.0
 11
2.599730896781125
 21
-4.771599258481472
 31
0.0
  0
LINE
  5
4E
330
617
100
AcDbEntity
  8
0
100
AcDbLine
 10
22.59973089678116
 20
-8.771599258481472
 30
0.0
 11
18.59973089678115
 21
-8.771599258481472
 31
0.0
  0
LINE
  5
4F
330
617
100
AcDbEntity
  8
0
100
AcDbLine
 10
22.59973089678116
 20
-5.771599258481472
 30
0.0
 11
18.59973089678115
 21
-5.771599258481472
 31
0.0
  0
LINE
  5
50
330
617
100
AcDbEntity
  8
0
100
AcDbLine
 10
22.59973089678116
 20
-4.771599258481472
 30
0.0
 11
17.59973089678115
 21
-4.771599258481472
 31
0.0
  0
LINE
  5
51
330
617
100
AcDbEntity
  8
0
100
AcDbLine
 10
18.59973089678115
 20
-5.771599258481472
 30
0.0
 11
18.59973089678115
 21
-8.771599258481472
 31
0.0
  0
ARC
  5
52
330
617
100
AcDbEntity
  8
0
100
AcDbCircle
 10
22.59973089678116
 20
-7.271599258481472
 30
0.0
 40
1.5
100
AcDbArc
 50
270.0
 51
90.0
  0
ENDBLK
  5
54
330
617
100
AcDbEntity
  8
0
100
AcDbBlockEnd
  0
BLOCK
  5
63F
330
635
100
AcDbEntity
  8
0
100
AcDbBlockBegin
  2
*D1
 70
     1
 10
0.0
 20
0.0
 30
0.0
  3
*D1
  1

  0
LINE
  5
BC0
330
635
100
AcDbEntity
  8
BEM
 62
     0
370
    -2
100
AcDbLine
 10
410.1065736534596
 20
1233.197102058192
 30
0.0
 11
410.1065736534596
 21
1182.197102058193
 31
0.0
  0
LINE
  5
BC1
330
635
100
AcDbEntity
  8
BEM
 62
     0
370
    -2
100
AcDbLine
 10
710.1065736534601
 20
1233.197102058193
 30
0.0
 11
710.1065736534601
 21
1182.197102058193
 31
0.0
  0
LINE
  5
BC2
330
635
100
AcDbEntity
  8
BEM
 62
     0
370
    -2
100
AcDbLine
 10
427.6065736534596
 20
1187.197102058193
 30
0.0
 11
692.6065736534601
 21
1187.197102058193
 31
0.0
  0
SOLID
  5
BC3
330
635
100
AcDbEntity
  8
BEM
 62
     0
100
AcDbTrace
 10
427.6065736534596
 20
1190.11376872486
 30
0.0
 11
427.6065736534596
 21
1184.280435391526
 31
0.0
 12
410.1065736534596
 22
1187.197102058193
 32
0.0
 13
410.1065736534596
 23
1187.197102058193
 33
0.0
  0
SOLID
  5
BC4
330
635
100
AcDbEntity
  8
BEM
 62
     0
100
AcDbTrace
 10
692.6065736534601
 20
1190.11376872486
 30
0.0
 11
692.6065736534601
 21
1184.280435391526
 31
0.0
 12
710.1065736534601
 22
1187.197102058193
 32
0.0
 13
710.1065736534601
 23
1187.197102058193
 33
0.0
  0
MTEXT
  5
BC5
330
635
100
AcDbEntity
  8
BEM
 62
     1
100
AcDbMText
 10
560.1065736534599
 20
1203.447102058193
 30
0.0
 40
17.5
 41
0.0
 71
     5
 72
     1
  1
\A1;%%c300
 73
     1
 44
1.0
  0
POINT
  5
BC6
330
635
100
AcDbEntity
  8
DEFPOINTS
 62
     0
100
AcDbPoint
 10
410.1065736534596
 20
1238.197102058192
 30
0.0
  0
POINT
  5
BC7
330
635
100
AcDbEntity
  8
DEFPOINTS
 62
     0
100
AcDbPoint
 10
710.1065736534601
 20
1238.197102058193
 30
0.0
  0
POINT
  5
BC8
330
635
100
AcDbEntity
  8
DEFPOINTS
 62
     0
100
AcDbPoint
 10
710.1065736534601
 20
1187.197102058193
 30
0.0
  0
ENDBLK
  5
640
330
635
100
AcDbEntity
  8
0
100
AcDbBlockEnd
  0
BLOCK
  5
64B
330
641
100
AcDbEntity
  8
0
100
AcDbBlockBegin
  2
*D2
 70
     1
 10
0.0
 20
0.0
 30
0.0
  3
*D2
  1

  0
LINE
  5
BC9
330
641
100
AcDbEntity
  8
BEM
 62
     0
370
    -2
100
AcDbLine
 10
350.1065736534596
 20
1233.197102058191
 30
0.0
 11
350.1065736534596
 21
1102.197102058193
 31
0.0
  0
LINE
  5
BCA
330
641
100
AcDbEntity
  8
BEM
 62
     0
370
    -2
100
AcDbLine
 10
770.1065736534602
 20
1233.197102058193
 30
0.0
 11
770.1065736534602
 21
1102.197102058193
 31
0.0
  0
LINE
  5
BCB
330
641
100
AcDbEntity
  8
BEM
 62
     0
370
    -2
100
AcDbLine
 10
367.6065736534596
 20
1107.197102058193
 30
0.0
 11
752.6065736534603
 21
1107.197102058193
 31
0.0
  0
SOLID
  5
BCC
330
641
100
AcDbEntity
  8
BEM
 62
     0
100
AcDbTrace
 10
367.6065736534596
 20
1110.11376872486
 30
0.0
 11
367.6065736534596
 21
1104.280435391526
 31
0.0
 12
350.1065736534596
 22
1107.197102058193
 32
0.0
 13
350.1065736534596
 23
1107.197102058193
 33
0.0
  0
SOLID
  5
BCD
330
641
100
AcDbEntity
  8
BEM
 62
     0
100
AcDbTrace
 10
752.6065736534603
 20
1110.11376872486
 30
0.0
 11
752.6065736534603
 21
1104.280435391526
 31
0.0
 12
770.1065736534602
 22
1107.197102058193
 32
0.0
 13
770.1065736534602
 23
1107.197102058193
 33
0.0
  0
MTEXT
  5
BCE
330
641
100
AcDbEntity
  8
BEM
 62
     1
100
AcDbMText
 10
560.1065736534599
 20
1123.447102058193
 30
0.0
 40
17.5
 41
0.0
 71
     5
 72
     1
  1
\A1;%%c420
 73
     1
 44
1.0
  0
POINT
  5
BCF
330
641
100
AcDbEntity
  8
DEFPOINTS
 62
     0
100
AcDbPoint
 10
350.1065736534596
 20
1238.197102058192
 30
0.0
  0
POINT
  5
BD0
330
641
100
AcDbEntity
  8
DEFPOINTS
 62
     0
100
AcDbPoint
 10
770.1065736534602
 20
1238.197102058193
 30
0.0
  0
POINT
  5
BD1
330
641
100
AcDbEntity
  8
DEFPOINTS
 62
     0
100
AcDbPoint
 10
770.1065736534602
 20
1107.197102058193
 30
0.0
  0
ENDBLK
  5
64C
330
641
100
AcDbEntity
  8
0
100
AcDbBlockEnd
  0
BLOCK
  5
657
330
64D
100
AcDbEntity
  8
0
100
AcDbBlockBegin
  2
*D3
 70
     1
 10
0.0
 20
0.0
 30
0.0
  3
*D3
  1

  0
LINE
  5
BD2
330
64D
100
AcDbEntity
  8
BEM
 62
     0
370
    -2
100
AcDbLine
 10
380.1065736534597
 20
1227.197102058192
 30
0.0
 11
380.1065736534597
 21
1142.197102058193
 31
0.0
  0
LINE
  5
BD3
330
64D
100
AcDbEntity
  8
BEM
 62
     0
370
    -2
100
AcDbLine
 10
740.1065736534596
 20
1227.197102058192
 30
0.0
 11
740.1065736534596
 21
1142.197102058193
 31
0.0
  0
LINE
  5
BD4
330
64D
100
AcDbEntity
  8
BEM
 62
     0
370
    -2
100
AcDbLine
 10
397.6065736534597
 20
1147.197102058193
 30
0.0
 11
722.6065736534597
 21
1147.197102058193
 31
0.0
  0
SOLID
  5
BD5
330
64D
100
AcDbEntity
  8
BEM
 62
     0
100
AcDbTrace
 10
397.6065736534597
 20
1150.11376872486
 30
0.0
 11
397.6065736534597
 21
1144.280435391526
 31
0.0
 12
380.1065736534597
 22
1147.197102058193
 32
0.0
 13
380.1065736534597
 23
1147.197102058193
 33
0.0
  0
SOLID
  5
BD6
330
64D
100
AcDbEntity
  8
BEM
 62
     0
100
AcDbTrace
 10
722.6065736534597
 20
1150.11376872486
 30
0.0
 11
722.6065736534597
 21
1144.280435391526
 31
0.0
 12
740.1065736534596
 22
1147.197102058193
 32
0.0
 13
740.1065736534596
 23
1147.197102058193
 33
0.0
  0
MTEXT
  5
BD7
330
64D
100
AcDbEntity
  8
BEM
 62
     1
100
AcDbMText
 10
560.1065736534597
 20
1163.447102058193
 30
0.0
 40
17.5
 41
0.0
 71
     5
 72
     1
  1
\A1;%%c360±1.2
 73
     1
 44
1.0
  0
POINT
  5
BD8
330
64D
100
AcDbEntity
  8
DEFPOINTS
 62
     0
100
AcDbPoint
 10
380.1065736534597
 20
1232.197102058192
 30
0.0
  0
POINT
  5
BD9
330
64D
100
AcDbEntity
  8
DEFPOINTS
 62
     0
100
AcDbPoint
 10
740.1065736534596
 20
1232.197102058192
 30
0.0
  0
POINT
  5
BDA
330
64D
100
AcDbEntity
  8
DEFPOINTS
 62
     0
100
AcDbPoint
 10
740.1065736534596
 20
1147.197102058193
 30
0.0
  0
ENDBLK
  5
658
330
64D
100
AcDbEntity
  8
0
100
AcDbBlockEnd
  0
BLOCK
  5
67C
330
670
100
AcDbEntity
  8
0
100
AcDbBlockBegin
  2
*D4
 70
     1
 10
0.0
 20
0.0
 30
0.0
  3
*D4
  1

  0
LINE
  5
BAA
330
670
100
AcDbEntity
  8
BEM
 62
     0
370
    -2
100
AcDbLine
 10
373.1065736534596
 20
1248.197102058194
 30
0.0
 11
373.1065736534596
 21
1311.324832182129
 31
0.0
  0
LINE
  5
BAB
330
670
100
AcDbEntity
  8
BEM
 62
     0
370
    -2
100
AcDbLine
 10
387.1065736534596
 20
1248.197102058194
 30
0.0
 11
387.1065736534596
 21
1311.324832182129
 31
0.0
  0
LINE
  5
BAC
330
670
100
AcDbEntity
  8
BEM
 62
     0
370
    -2
100
AcDbLine
 10
355.6065736534596
 20
1306.324832182129
 30
0.0
 11
338.1065736534596
 21
1306.324832182129
 31
0.0
  0
LINE
  5
BAD
330
670
100
AcDbEntity
  8
BEM
 62
     0
370
    -2
100
AcDbLine
 10
404.6065736534596
 20
1306.324832182129
 30
0.0
 11
470.7732403201262
 21
1306.324832182129
 31
0.0
  0
LINE
  5
BAE
330
670
100
AcDbEntity
  8
BEM
 62
     0
370
    -2
100
AcDbLine
 10
373.1065736534596
 20
1306.324832182129
 30
0.0
 11
387.1065736534596
 21
1306.324832182129
 31
0.0
  0
SOLID
  5
BAF
330
670
100
AcDbEntity
  8
BEM
 62
     0
100
AcDbTrace
 10
355.6065736534596
 20
1309.241498848795
 30
0.0
 11
355.6065736534596
 21
1303.408165515462
 31
0.0
 12
373.1065736534596
 22
1306.324832182129
 32
0.0
 13
373.1065736534596
 23
1306.324832182129
 33
0.0
  0
SOLID
  5
BB0
330
670
100
AcDbEntity
  8
BEM
 62
     0
100
AcDbTrace
 10
404.6065736534596
 20
1309.241498848795
 30
0.0
 11
404.6065736534596
 21
1303.408165515462
 31
0.0
 12
387.1065736534596
 22
1306.324832182129
 32
0.0
 13
387.1065736534596
 23
1306.324832182129
 33
0.0
  0
MTEXT
  5
BB1
330
670
100
AcDbEntity
  8
BEM
 62
     1
100
AcDbMText
 10
446.6065736534596
 20
1322.574832182129
 30
0.0
 40
17.5
 41
0.0
 71
     5
 72
     1
  1
\A1;%%c14
 73
     1
 44
1.0
  0
POINT
  5
BB2
330
670
100
AcDbEntity
  8
DEFPOINTS
 62
     0
100
AcDbPoint
 10
373.1065736534596
 20
1243.197102058194
 30
0.0
  0
POINT
  5
BB3
330
670
100
AcDbEntity
  8
DEFPOINTS
 62
     0
100
AcDbPoint
 10
387.1065736534596
 20
1243.197102058194
 30
0.0
  0
POINT
  5
BB4
330
670
100
AcDbEntity
  8
DEFPOINTS
 62
     0
100
AcDbPoint
 10
387.1065736534596
 20
1306.324832182129
 30
0.0
  0
ENDBLK
  5
67D
330
670
100
AcDbEntity
  8
0
100
AcDbBlockEnd
  0
BLOCK
  5
6AE
330
6A2
100
AcDbEntity
  8
0
100
AcDbBlockBegin
  2
*D5
 70
     1
 10
0.0
 20
0.0
 30
0.0
  3
*D5
  1

  0
LINE
  5
BB5
330
6A2
100
AcDbEntity
  8
BEM
 62
     0
370
    -2
100
AcDbLine
 10
346.1065736534597
 20
1237.197102058197
 30
0.0
 11
278.0939933844046
 21
1237.197102058197
 31
0.0
  0
LINE
  5
BB6
330
6A2
100
AcDbEntity
  8
BEM
 62
     0
370
    -2
100
AcDbLine
 10
346.1065736534596
 20
1243.197102058197
 30
0.0
 11
278.0939933844046
 21
1243.197102058197
 31
0.0
  0
LINE
  5
BB7
330
6A2
100
AcDbEntity
  8
BEM
 62
     0
370
    -2
100
AcDbLine
 10
283.0939933844046
 20
1219.697102058197
 30
0.0
 11
283.0939933844046
 21
1202.197102058197
 31
0.0
  0
LINE
  5
BB8
330
6A2
100
AcDbEntity
  8
BEM
 62
     0
370
    -2
100
AcDbLine
 10
283.0939933844046
 20
1260.697102058197
 30
0.0
 11
283.0939933844046
 21
1301.863768724863
 31
0.0
  0
LINE
  5
BB9
330
6A2
100
AcDbEntity
  8
BEM
 62
     0
370
    -2
100
AcDbLine
 10
283.0939933844046
 20
1237.197102058197
 30
0.0
 11
283.0939933844046
 21
1243.197102058197
 31
0.0
  0
SOLID
  5
BBA
330
6A2
100
AcDbEntity
  8
BEM
 62
     0
100
AcDbTrace
 10
280.1773267177379
 20
1219.697102058197
 30
0.0
 11
286.0106600510713
 21
1219.697102058197
 31
0.0
 12
283.0939933844046
 22
1237.197102058197
 32
0.0
 13
283.0939933844046
 23
1237.197102058197
 33
0.0
  0
SOLID
  5
BBB
330
6A2
100
AcDbEntity
  8
BEM
 62
     0
100
AcDbTrace
 10
280.1773267177379
 20
1260.697102058197
 30
0.0
 11
286.0106600510713
 21
1260.697102058197
 31
0.0
 12
283.0939933844046
 22
1243.197102058197
 32
0.0
 13
283.0939933844046
 23
1243.197102058197
 33
0.0
  0
MTEXT
  5
BBC
330
6A2
100
AcDbEntity
  8
BEM
 62
     1
100
AcDbMText
 10
266.8439933844044
 20
1290.03043539153
 30
0.0
 40
17.5
 41
0.0
 71
     5
 72
     1
  1
\A1;6
 11
0.0000000000000001
 21
1.0
 31
0.0
 73
     1
 44
1.0
  0
POINT
  5
BBD
330
6A2
100
AcDbEntity
  8
DEFPOINTS
 62
     0
100
AcDbPoint
 10
351.1065736534598
 20
1237.197102058197
 30
0.0
  0
POINT
  5
BBE
330
6A2
100
AcDbEntity
  8
DEFPOINTS
 62
     0
100
AcDbPoint
 10
351.1065736534596
 20
1243.197102058197
 30
0.0
  0
POINT
  5
BBF
330
6A2
100
AcDbEntity
  8
DEFPOINTS
 62
     0
100
AcDbPoint
 10
283.0939933844046
 20
1243.197102058197
 30
0.0
  0
ENDBLK
  5
6AF
330
6A2
100
AcDbEntity
  8
0
100
AcDbBlockEnd
  0
BLOCK
  5
B7E
330
B72
100
AcDbEntity
  8
0
100
AcDbBlockBegin
  2
*D6
 70
     1
 10
0.0
 20
0.0
 30
0.0
  3
*D6
  1

  0
LINE
  5
B9F
330
B72
100
AcDbEntity
  8
BEM
 62
     0
370
    -2
100
AcDbLine
 10
388.633543704141
 20
833.9398334277268
 30
0.0
 11
341.6792169432788
 21
861.0489266227281
 31
0.0
  0
LINE
  5
BA0
330
B72
100
AcDbEntity
  8
BEM
 62
     0
370
    -2
100
AcDbLine
 10
340.1065736534598
 20
734.9398334277269
 30
0.0
 11
307.8883872634573
 21
734.9398334277272
 31
0.0
  0
ARC
  5
BA1
330
B72
100
AcDbEntity
  8
BEM
 62
     0
370
    -2
100
AcDbCircle
 10
560.1065736534606
 20
734.939833427727
 30
0.0
 40
247.2181863900034
100
AcDbArc
 50
154.0566821569376
 51
175.9433178430626
  0
SOLID
  5
BA2
330
B72
100
AcDbEntity
  8
BEM
 62
     0
100
AcDbTrace
 10
335.2252948574101
 20
844.4612998052011
 30
0.0
 11
340.3771764795696
 21
841.7252637072975
 31
0.0
 12
346.009343962201
 22
858.5489266227281
 32
0.0
 13
346.009343962201
 23
858.5489266227281
 33
0.0
  0
SOLID
  5
BA3
330
B72
100
AcDbEntity
  8
BEM
 62
     0
100
AcDbTrace
 10
316.4226186028451
 20
752.3256366385118
 30
0.0
 11
310.5929401918129
 21
752.5321006831358
 31
0.0
 12
312.8883872634573
 22
734.9398334277272
 32
0.0
 13
312.8883872634573
 23
734.9398334277272
 33
0.0
  0
MTEXT
  5
BA4
330
B72
100
AcDbEntity
  8
BEM
 62
     1
100
AcDbMText
 10
305.6158480138142
 20
803.1304178440805
 30
0.0
 40
17.5
 41
0.0
 71
     5
 72
     1
  1
\A1;30°
 11
0.2588190451025199
 21
0.9659258262890684
 31
0.0
 73
     1
 44
1.0
  0
POINT
  5
BA5
330
B72
100
AcDbEntity
  8
DEFPOINTS
 62
     0
100
AcDbPoint
 10
327.797468178699
 20
819.4934329695474
 30
0.0
  0
POINT
  5
BA6
330
B72
100
AcDbEntity
  8
DEFPOINTS
 62
     0
100
AcDbPoint
 10
345.1065736534598
 20
734.9398334277269
 30
0.0
  0
POINT
  5
BA7
330
B72
100
AcDbEntity
  8
DEFPOINTS
 62
     0
100
AcDbPoint
 10
392.9636707230632
 20
831.4398334277267
 30
0.0
  0
POINT
  5
BA8
330
B72
100
AcDbEntity
  8
DEFPOINTS
 62
     0
100
AcDbPoint
 10
415.4803312214586
 20
818.4398334277268
 30
0.0
  0
POINT
  5
BA9
330
B72
100
AcDbEntity
  8
DEFPOINTS
 62
     0
100
AcDbPoint
 10
775.1065736534598
 20
734.9398334277269
 30
0.0
  0
ENDBLK
  5
B7F
330
B72
100
AcDbEntity
  8
0
100
AcDbBlockEnd
  0
ENDSEC
  0
SECTION
  2
ENTITIES
  0
TEXT
  5
33
330
613
100
AcDbEntity
  8
TEXT
100
AcDbText
 10
457.1666666666671
 20
219.93629647055
 30
0.0
 40
10.0
  1
DIN ISO 2768-c
 41
0.7
 72
     1
 11
500.0000000000006
 21
219.93629647055
 31
0.0
100
AcDbText
  0
TEXT
  5
36
330
613
100
AcDbEntity
  8
TEXT
100
AcDbText
 10
466.4285714285719
 20
256.3723320029448
 30
0.0
 40
12.5
  1
Zul. Abw.
 41
0.8
 72
     1
 11
500.0000000000006
 21
256.3723320029448
 31
0.0
100
AcDbText
  0
INSERT
  5
37
330
613
100
AcDbEntity
  8
STEMPEL
100
AcDbBlockReference
  2
LOGO
 10
352.4888713644485
 20
112.552631911208
 30
0.0
 41
5.0
 42
5.0
 43
5.0
  0
LINE
  5
55
330
613
100
AcDbEntity
  8
HILF
100
AcDbLine
 10
1050.0
 20
0.0
 30
0.0
 11
0.0
 21
0.0
 31
0.0
  0
LINE
  5
57
330
613
100
AcDbEntity
  8
HILF
100
AcDbLine
 10
1050.0
 20
1485.0
 30
0.0
 11
0.0
 21
1485.0
 31
0.0
  0
LINE
  5
58
330
613
100
AcDbEntity
  8
STEMPEL
100
AcDbLine
 10
1025.0
 20
1460.0
 30
0.0
 11
99.99999999999971
 21
1460.0
 31
0.0
  0
LINE
  5
59
330
613
100
AcDbEntity
  8
STEMPEL
100
AcDbLine
 10
1025.0
 20
25.0
 30
0.0
 11
99.99999999999971
 21
25.0
 31
0.0
  0
LINE
  5
5A
330
613
100
AcDbEntity
  8
STEMPEL
100
AcDbLine
 10
124.9999999999997
 20
25.0
 30
0.0
 11
1025.0
 21
25.0
 31
0.0
  0
LINE
  5
5B
330
613
100
AcDbEntity
  8
HILF
100
AcDbLine
 10
340.0000000000003
 20
124.9999999999999
 30
0.0
 11
550.0
 21
124.9999999999999
 31
0.0
  0
LINE
  5
5C
330
613
100
AcDbEntity
  8
HILF
100
AcDbLine
 10
340.0000000000003
 20
149.9999999999999
 30
0.0
 11
550.0
 21
149.9999999999999
 31
0.0
  0
LINE
  5
5D
330
613
100
AcDbEntity
  8
HILF
100
AcDbLine
 10
340.0000000000003
 20
174.9999999999998
 30
0.0
 11
550.0
 21
174.9999999999998
 31
0.0
  0
LINE
  5
5E
330
613
100
AcDbEntity
  8
STEMPEL
100
AcDbLine
 10
1025.0
 20
200.0
 30
0.0
 11
340.0000000000003
 21
199.9999999999998
 31
0.0
  0
LINE
  5
5F
330
613
100
AcDbEntity
  8
STEMPEL
100
AcDbLine
 10
1025.0
 20
100.0
 30
0.0
 11
340.0000000000003
 21
99.99999999999992
 31
0.0
  0
LINE
  5
60
330
613
100
AcDbEntity
  8
STEMPEL
100
AcDbLine
 10
1025.0
 20
275.0000000000001
 30
0.0
 11
99.99999999999992
 21
275.0
 31
0.0
  0
DIMENSION
  5
61
330
613
100
AcDbEntity
  8
BEM
100
AcDbDimension
  2
*D3
 10
740.1065736534596
 20
1147.197102058193
 30
0.0
 11
560.1065736534597
 21
1163.447102058193
 31
0.0
 70
    32
  1
%%c<>±1.2
 71
     5
 42
360.0
  3
STANDARD
100
AcDbAlignedDimension
 13
380.1065736534597
 23
1232.197102058192
 33
0.0
 14
740.1065736534596
 24
1232.197102058192
 34
0.0
100
AcDbRotatedDimension
1001
ACAD
1000
DSTYLE
1002
{
1070
    40
1040
5.0
1070
    41
1040
3.5
1070
    42
1040
1.0
1070
    43
1040
8.0
1070
    44
1040
1.0
1070
    47
1040
1.199999999999999
1070
    48
1040
1.199999999999999
1070
    73
1070
     0
1070
    74
1070
     0
1070
    77
1070
     1
1070
    78
1070
     8
1070
    79
1070
     2
1070
   140
1040
3.5
1070
   141
1040
1.5
1070
   146
1040
0.5
1070
   147
1040
1.5
1070
   172
1070
     1
1070
   178
1070
     1
1070
   179
1070
     2
1070
   279
1070
     0
1002
}
  0
DIMENSION
  5
6E
330
613
100
AcDbEntity
  8
BEM
100
AcDbDimension
  2
*D2
 10
770.1065736534602
 20
1107.197102058193
 30
0.0
 11
560.1065736534599
 21
1123.447102058193
 31
0.0
 70
    32
  1
%%c<>
 71
     5
 42
420.0000000000007
  3
STANDARD
100
AcDbAlignedDimension
 13
350.1065736534596
 23
1238.197102058192
 33
0.0
 14
770.1065736534602
 24
1238.197102058193
 34
0.0
100
AcDbRotatedDimension
1001
ACAD
1000
DSTYLE
1002
{
1070
    40
1040
5.0
1070
    41
1040
3.5
1070
    42
1040
1.0
1070
    43
1040
8.0
1070
    44
1040
1.0
1070
    47
1040
1.199999999999999
1070
    48
1040
1.199999999999999
1070
    73
1070
     0
1070
    74
1070
     0
1070
    77
1070
     1
1070
    78
1070
     8
1070
    79
1070
     2
1070
   140
1040
3.5
1070
   141
1040
1.5
1070
   146
1040
0.5
1070
   147
1040
1.5
1070
   172
1070
     1
1070
   178
1070
     1
1070
   179
1070
     2
1070
   279
1070
     0
1002
}
  0
DIMENSION
  5
7B
330
613
100
AcDbEntity
  8
BEM
100
AcDbDimension
  2
*D1
 10
710.1065736534601
 20
1187.197102058193
 30
0.0
 11
560.1065736534599
 21
1203.447102058193
 31
0.0
 70
    32
  1
%%c<>
 71
     5
 42
300.0000000000005
  3
STANDARD
100
AcDbAlignedDimension
 13
410.1065736534596
 23
1238.197102058192
 33
0.0
 14
710.1065736534601
 24
1238.197102058193
 34
0.0
100
AcDbRotatedDimension
1001
ACAD
1000
DSTYLE
1002
{
1070
    40
1040
5.0
1070
    41
1040
3.5
1070
    42
1040
1.0
1070
    43
1040
8.0
1070
    44
1040
1.0
1070
    47
1040
1.199999999999999
1070
    48
1040
1.199999999999999
1070
    73
1070
     0
1070
    74
1070
     0
1070
    77
1070
     1
1070
    78
1070
     8
1070
    79
1070
     2
1070
   140
1040
3.5
1070
   141
1040
1.5
1070
   146
1040
0.5
1070
   147
1040
1.5
1070
   172
1070
     1
1070
   178
1070
     1
1070
   179
1070
     2
1070
   279
1070
     0
1002
}
  0
LINE
  5
8D
102
{ACAD_REACTORS
330
B8C
102
}
330
613
100
AcDbEntity
  8
MITTEL
100
AcDbLine
 10
345.1065736534599
 20
734.9398334277272
 30
0.0
 11
775.1065736534599
 21
734.9398334277272
 31
0.0
  0
TEXT
  5
8E
330
613
100
AcDbEntity
  8
TEXT
 62
     1
100
AcDbText
 10
719.8255044736745
 20
334.6075429552075
 30
0.0
 40
17.5
  1
Werkstoff: 1.4301
 41
0.8
100
AcDbText
  0
LINE
  5
92
330
613
100
AcDbEntity
  8
HILF
100
AcDbLine
 10
0.0
 20
0.0
 30
0.0
 11
-0.0000000000002842
 21
1485.0
 31
0.0
  0
LINE
  5
93
330
613
100
AcDbEntity
  8
STEMPEL
100
AcDbLine
 10
100.0
 20
25.0
 30
0.0
 11
99.99999999999971
 21
1460.0
 31
0.0
  0
CIRCLE
  5
94
330
613
100
AcDbEntity
  8
STEMPEL
100
AcDbCircle
 10
380.10657365346
 20
734.9398334277272
 30
0.0
 40
7.0
  0
TEXT
  5
96
330
613
100
AcDbEntity
  8
TEXT
100
AcDbText
 10
104.6377487744418
 20
279.1799999999999
 30
0.0
 40
12.5
  1
Erstellt mit AUTOCAD 2004
 41
0.8
100
AcDbText
  0
TEXT
  5
97
330
613
100
AcDbEntity
  8
TEXT
100
AcDbText
 10
158.1428571428571
 20
45.71428571428568
 30
0.0
 40
10.0
  1
Änderung
 41
0.8
 72
     4
 11
185.0
 21
49.99999999999996
 31
0.0
100
AcDbText
  0
LINE
  5
98
330
613
100
AcDbEntity
  8
HILF
100
AcDbLine
 10
100.0000000000002
 20
99.99999999999992
 30
0.0
 11
340.0000000000003
 21
99.99999999999992
 31
0.0
  0
LINE
  5
99
330
613
100
AcDbEntity
  8
HILF
100
AcDbLine
 10
100.0000000000002
 20
124.9999999999999
 30
0.0
 11
340.0000000000003
 21
124.9999999999999
 31
0.0
  0
LINE
  5
9A
330
613
100
AcDbEntity
  8
HILF
100
AcDbLine
 10
100.0000000000002
 20
149.9999999999999
 30
0.0
 11
340.0000000000003
 21
149.9999999999999
 31
0.0
  0
LINE
  5
9B
330
613
100
AcDbEntity
  8
HILF
100
AcDbLine
 10
100.0000000000002
 20
174.9999999999998
 30
0.0
 11
340.0000000000003
 21
174.9999999999998
 31
0.0
  0
LINE
  5
9C
330
613
100
AcDbEntity
  8
HILF
100
AcDbLine
 10
100.0000000000002
 20
199.9999999999998
 30
0.0
 11
340.0000000000003
 21
199.9999999999998
 31
0.0
  0
LINE
  5
9D
330
613
100
AcDbEntity
  8
HILF
100
AcDbLine
 10
100.0000000000002
 20
225.0000000000001
 30
0.0
 11
340.0000000000003
 21
225.0000000000001
 31
0.0
  0
LINE
  5
9E
330
613
100
AcDbEntity
  8
HILF
100
AcDbLine
 10
100.0000000000002
 20
250.0000000000001
 30
0.0
 11
340.0000000000003
 21
250.0000000000001
 31
0.0
  0
LINE
  5
9F
330
613
100
AcDbEntity
  8
STEMPEL
100
AcDbLine
 10
339.9999999999997
 20
74.99999999999992
 30
0.0
 11
99.99999999999992
 21
74.99999999999992
 31
0.0
  0
TEXT
  5
A0
330
613
100
AcDbEntity
  8
TEXT
100
AcDbText
 10
120.6660276761439
 20
34.13664615067979
 30
0.0
 40
10.0
  1
Index
 50
90.0
 41
0.8
100
AcDbText
  0
LINE
  5
A1
330
613
100
AcDbEntity
  8
VOLL
100
AcDbLine
 10
135.0000000000002
 20
275.0000000000001
 30
0.0
 11
134.9999999999999
 21
24.99999999999993
 31
0.0
  0
LINE
  5
A4
330
613
100
AcDbEntity
  8
HILF
100
AcDbLine
 10
77.7191783928464
 20
742.5000000000001
 30
0.0
 11
0.0000000000002842
 21
742.5000000000001
 31
0.0
  0
TEXT
  5
A5
330
613
100
AcDbEntity
  8
TEXT
100
AcDbText
 10
349.1666666666672
 20
182.5
 30
0.0
 40
10.0
  1
2010
 41
0.8
 72
     4
 11
362.5000000000006
 21
187.5
 31
0.0
100
AcDbText
  0
TEXT
  5
A6
330
613
100
AcDbEntity
  8
TEXT
100
AcDbText
 10
344.0016943468259
 20
108.8236597412452
 30
0.0
 40
10.0
  1
Norm.
 41
0.8
100
AcDbText
  0
TEXT
  5
A7
330
613
100
AcDbEntity
  8
TEXT
100
AcDbText
 10
343.8787716429181
 20
134.2231572857094
 30
0.0
 40
10.0
  1
Gepr.
 41
0.8
100
AcDbText
  0
TEXT
  5
A8
330
613
100
AcDbEntity
  8
TEXT
100
AcDbText
 10
343.9590317919039
 20
159.0747592404491
 30
0.0
 40
10.0
  1
Gez.
 41
0.8
100
AcDbText
  0
TEXT
  5
A9
330
613
100
AcDbEntity
  8
TEXT
100
AcDbText
 10
296.6904761904763
 20
44.99999999999996
 30
0.0
 40
10.0
  1
Name
 41
0.8
 72
     4
 11
312.5
 21
49.99999999999996
 31
0.0
100
AcDbText
  0
TEXT
  5
AA
330
613
100
AcDbEntity
  8
TEXT
100
AcDbText
 10
250.6666666666667
 20
46.66666666666663
 30
0.0
 40
10.0
  1
Tag
 41
0.8
 72
     4
 11
260.0
 21
49.99999999999996
 31
0.0
100
AcDbText
  0
LINE
  5
AB
330
613
100
AcDbEntity
  8
VOLL
100
AcDbLine
 10
285.0000000000003
 20
274.9999999999999
 30
0.0
 11
285.0
 21
24.99999999999993
 31
0.0
  0
LINE
  5
AC
330
613
100
AcDbEntity
  8
VOLL
100
AcDbLine
 10
235.0000000000003
 20
274.9999999999999
 30
0.0
 11
235.0
 21
24.99999999999993
 31
0.0
  0
LINE
  5
AD
330
613
100
AcDbEntity
  8
STEMPEL
100
AcDbLine
 10
340.0000000000003
 20
274.9999999999999
 30
0.0
 11
340.0
 21
24.99999999999993
 31
0.0
  0
TEXT
  5
B0
330
613
100
AcDbEntity
  8
TEXT
100
AcDbText
 10
401.5000000000005
 20
157.5
 30
0.0
 40
10.0
  1
30.11.
 41
0.8
 72
     4
 11
417.5000000000006
 21
162.5
 31
0.0
100
AcDbText
  0
LINE
  5
B1
330
613
100
AcDbEntity
  8
VOLL
100
AcDbLine
 10
385.0000000000003
 20
199.9999999999998
 30
0.0
 11
385.0000000000003
 21
99.99999999999992
 31
0.0
  0
TEXT
  5
B2
330
613
100
AcDbEntity
  8
TEXT
 62
     1
100
AcDbText
 10
380.0000000000011
 20
216.9199358188163
 30
0.0
 40
17.5
  1
1:5
 41
0.8
 72
     1
 11
395.0000000000011
 21
216.9199358188163
 31
0.0
100
AcDbText
  0
TEXT
  5
B3
330
613
100
AcDbEntity
  8
TEXT
100
AcDbText
 10
365.4761904761916
 20
256.372332002945
 30
0.0
 40
12.5
  1
Maßstab
 41
0.8
 72
     1
 11
395.0000000000011
 21
256.372332002945
 31
0.0
100
AcDbText
  0
TEXT
  5
B4
330
613
100
AcDbEntity
  8
TEXT
100
AcDbText
 10
408.1666666666672
 20
184.1666666666667
 30
0.0
 40
10.0
  1
Tag
 41
0.8
 72
     4
 11
417.5000000000006
 21
187.5
 31
0.0
100
AcDbText
  0
TEXT
  5
B5
330
613
100
AcDbEntity
  8
TEXT
100
AcDbText
 10
486.8571428571434
 20
157.5
 30
0.0
 40
10.0
  1
Koeh
 41
0.8
 72
     4
 11
500.0000000000006
 21
162.5
 31
0.0
100
AcDbText
  0
LINE
  5
B6
330
613
100
AcDbEntity
  8
VOLL
100
AcDbLine
 10
450.0000000000002
 20
274.9999999999996
 30
0.0
 11
450.0
 21
99.99999999999992
 31
0.0
  0
TEXT
  5
B7
330
613
100
AcDbEntity
  8
TEXT
100
AcDbText
 10
484.1904761904768
 20
182.5
 30
0.0
 40
10.0
  1
Name
 41
0.8
 72
     4
 11
500.0000000000006
 21
187.5
 31
0.0
100
AcDbText
  0
DIMENSION
  5
BA
330
613
100
AcDbEntity
  8
BEM
100
AcDbDimension
  2
*D5
 10
283.0939933844046
 20
1243.197102058197
 30
0.0
 11
283.0939933844044
 21
1290.03043539153
 31
0.0
 70
   160
 71
     5
 42
6.0
  3
STANDARD
100
AcDbAlignedDimension
 13
351.1065736534598
 23
1237.197102058197
 33
0.0
 14
351.1065736534596
 24
1243.197102058197
 34
0.0
 50
90.0
100
AcDbRotatedDimension
1001
ACAD
1000
DSTYLE
1002
{
1070
    40
1040
5.0
1070
    41
1040
3.5
1070
    42
1040
1.0
1070
    43
1040
8.0
1070
    44
1040
1.0
1070
    47
1040
1.199999999999999
1070
    48
1040
1.199999999999999
1070
    73
1070
     0
1070
    74
1070
     0
1070
    77
1070
     1
1070
    78
1070
     8
1070
    79
1070
     2
1070
   140
1040
3.5
1070
   141
1040
1.5
1070
   146
1040
0.5
1070
   147
1040
1.5
1070
   172
1070
     1
1070
   178
1070
     1
1070
   179
1070
     2
1070
   279
1070
     0
1002
}
  0
DIMENSION
  5
CA
330
613
100
AcDbEntity
  8
BEM
100
AcDbDimension
  2
*D4
 10
387.1065736534596
 20
1306.324832182129
 30
0.0
 11
446.6065736534596
 21
1306.324832182129
 31
0.0
 70
   160
  1
%%c<>
 71
     5
 42
14.0
  3
STANDARD
100
AcDbAlignedDimension
 13
373.1065736534596
 23
1243.197102058194
 33
0.0
 14
387.1065736534596
 24
1243.197102058194
 34
0.0
100
AcDbRotatedDimension
1001
ACAD
1000
DSTYLE
1002
{
1070
    40
1040
5.0
1070
    41
1040
3.5
1070
    42
1040
1.0
1070
    43
1040
8.0
1070
    44
1040
1.0
1070
    47
1040
1.199999999999999
1070
    48
1040
1.199999999999999
1070
    73
1070
     0
1070
    74
1070
     0
1070
    77
1070
     1
1070
    78
1070
     8
1070
    79
1070
     2
1070
   140
1040
3.5
1070
   141
1040
1.5
1070
   146
1040
0.5
1070
   147
1040
1.5
1070
   172
1070
     1
1070
   178
1070
     1
1070
   179
1070
     2
1070
   279
1070
     0
1002
}
  0
LINE
  5
DD
102
{ACAD_REACTORS
330
A11
102
}
330
613
100
AcDbEntity
  8
STEMPEL
100
AcDbLine
 10
373.1065736534597
 20
1243.197102058197
 30
0.0
 11
373.1065736534597
 21
1237.197102058197
 31
0.0
  0
LINE
  5
DE
330
613
100
AcDbEntity
  8
MITTEL
100
AcDbLine
 10
380.1065736534597
 20
1248.197102058197
 30
0.0
 11
380.1065736534597
 21
1232.197102058197
 31
0.0
  0
POINT
  5
DF
330
613
100
AcDbEntity
  8
DEFPOINTS
  6
ByBlock
 62
     0
100
AcDbPoint
 10
380.1065736534597
 20
1232.197102058197
 30
0.0
  0
LINE
  5
E0
102
{ACAD_REACTORS
330
A11
102
}
330
613
100
AcDbEntity
  8
STEMPEL
100
AcDbLine
 10
387.1065736534597
 20
1243.197102058197
 30
0.0
 11
387.1065736534597
 21
1237.197102058197
 31
0.0
  0
TEXT
  5
E3
330
613
100
AcDbEntity
  8
TEXT
100
AcDbText
 10
1041.452885359359
 20
30.37012038345757
 30
0.0
 40
10.0
  1
Diese Zeichnung ist urheberrechtlich geschützt und bleibt unser Eigentum. Sie darf weder ganz noch teilweise vervielfältigt und nicht an Dritte weitergegeben werden.
 50
90.0
 41
0.8
100
AcDbText
  0
LINE
  5
E4
330
613
100
AcDbEntity
  8
HILF
100
AcDbLine
 10
1050.0
 20
-0.0000000000002842
 30
0.0
 11
1050.0
 21
1485.0
 31
0.0
  0
LINE
  5
E5
330
613
100
AcDbEntity
  8
STEMPEL
100
AcDbLine
 10
1025.0
 20
275.0000000000001
 30
0.0
 11
1025.0
 21
1460.0
 31
0.0
  0
LINE
  5
E7
330
613
100
AcDbEntity
  8
MITTEL
100
AcDbLine
 10
560.1065736534597
 20
949.9398334277271
 30
0.0
 11
560.1065736534597
 21
519.9398334277272
 31
0.0
  0
TEXT
  5
E8
330
613
100
AcDbEntity
  8
TEXT
100
AcDbText
 10
843.1002153742515
 20
130.185404446965
 30
0.0
 40
12.5
  1
ersetzt durch:
 41
0.8
100
AcDbText
  0
TEXT
  5
E9
330
613
100
AcDbEntity
  8
TEXT
100
AcDbText
 10
841.8096540742482
 20
182.9529559274992
 30
0.0
 40
12.5
  1
Ersatz für:
 41
0.8
100
AcDbText
  0
TEXT
  5
EA
330
613
100
AcDbEntity
  8
TEXT
100
AcDbText
 10
840.4468873940851
 20
255.7830086342841
 30
0.0
 40
12.5
  1
Zeichnungs Nr.
 41
0.8
100
AcDbText
  0
LINE
  5
EB
330
613
100
AcDbEntity
  8
HILF
100
AcDbLine
 10
558.7274248224712
 20
37.23495645070784
 30
0.0
 11
1012.147209831682
 21
37.23495645070784
 31
0.0
  0
LINE
  5
EC
330
613
100
AcDbEntity
  8
HILF
100
AcDbLine
 10
841.8096540742482
 20
209.4495909238957
 30
0.0
 11
1012.147209831682
 21
209.4495909238957
 31
0.0
  0
LINE
  5
ED
330
613
100
AcDbEntity
  8
VOLL
100
AcDbLine
 10
830.0
 20
150.0
 30
0.0
 11
1025.0
 21
150.0
 31
0.0
  0
TEXT
  5
EE
330
613
100
AcDbEntity
  8
TEXT
100
AcDbText
 10
562.8240977813288
 20
129.100298576054
 30
0.0
 40
12.5
  1
EDV-Art.Nr. 21805.200X
 41
0.8
100
AcDbText
  0
TEXT
  5
F0
330
613
100
AcDbEntity
  8
TEXT
 62
     1
100
AcDbText
 10
561.9342002742369
 20
218.8017093706178
 30
0.0
 40
17.5
  1
Losflansch DN200
 41
0.8
100
AcDbText
  0
LINE
  5
F1
330
613
100
AcDbEntity
  8
HILF
100
AcDbLine
 10
561.9342002742369
 20
124.9999999999999
 30
0.0
 11
812.0884791390775
 21
124.9999999999999
 31
0.0
  0
LINE
  5
F2
330
613
100
AcDbEntity
  8
HILF
100
AcDbLine
 10
561.9342002742369
 20
149.9999999999999
 30
0.0
 11
812.0884791390775
 21
149.9999999999999
 31
0.0
  0
LINE
  5
F3
330
613
100
AcDbEntity
  8
HILF
100
AcDbLine
 10
561.9342002742369
 20
174.9999999999998
 30
0.0
 11
812.0884791390775
 21
174.9999999999998
 31
0.0
  0
LINE
  5
F4
330
613
100
AcDbEntity
  8
HILF
100
AcDbLine
 10
561.9342002742369
 20
210.0939561891034
 30
0.0
 11
812.0884791390777
 21
210.0939561891034
 31
0.0
  0
LINE
  5
F5
330
613
100
AcDbEntity
  8
STEMPEL
100
AcDbLine
 10
550.0
 20
275.0000000000001
 30
0.0
 11
550.0
 21
24.99999999999993
 31
0.0
  0
TEXT
  5
F6
330
613
100
AcDbEntity
  8
TEXT
100
AcDbText
 10
562.4593753944567
 20
106.5743538255658
 30
0.0
 40
10.0
  1
21805200W.DWG
 41
0.8
100
AcDbText
  0
TEXT
  5
F8
330
613
100
AcDbEntity
  8
TEXT
100
AcDbText
 10
561.8555959778399
 20
77.11401425482641
 30
0.0
 40
12.5
  1
Bauvorhaben
 41
0.8
100
AcDbText
  0
TEXT
  5
F9
330
613
100
AcDbEntity
  8
TEXT
100
AcDbText
 10
562.1948509522525
 20
256.3723320029449
 30
0.0
 40
12.5
  1
Benennung
 41
0.8
100
AcDbText
  0
LINE
  5
FA
330
613
100
AcDbEntity
  8
STEMPEL
100
AcDbLine
 10
830.0
 20
274.9999999999994
 30
0.0
 11
830.0
 21
100.0
 31
0.0
  0
LINE
  5
FF
330
613
100
AcDbEntity
  8
STEMPEL
100
AcDbLine
 10
1025.0
 20
275.0000000000001
 30
0.0
 11
1025.0
 21
25.0
 31
0.0
  0
LINE
  5
102
330
613
100
AcDbEntity
  8
MITTEL
100
AcDbLine
 10
560.1065736534599
 20
1248.197102058197
 30
0.0
 11
560.1065736534599
 21
1232.197102058197
 31
0.0
  0
LINE
  5
1F5
102
{ACAD_REACTORS
330
A11
102
}
330
613
100
AcDbEntity
  8
STEMPEL
100
AcDbLine
 10
747.1065736534598
 20
1243.197102058197
 30
0.0
 11
747.1065736534598
 21
1237.197102058197
 31
0.0
  0
LINE
  5
1F6
330
613
100
AcDbEntity
  8
MITTEL
100
AcDbLine
 10
740.1065736534597
 20
1248.197102058197
 30
0.0
 11
740.1065736534597
 21
1232.197102058197
 31
0.0
  0
POINT
  5
1F7
330
613
100
AcDbEntity
  8
DEFPOINTS
  6
ByBlock
 62
     0
100
AcDbPoint
 10
740.1065736534597
 20
1232.197102058197
 30
0.0
  0
LINE
  5
1F8
102
{ACAD_REACTORS
330
A11
102
}
330
613
100
AcDbEntity
  8
STEMPEL
100
AcDbLine
 10
733.1065736534598
 20
1243.197102058197
 30
0.0
 11
733.1065736534598
 21
1237.197102058197
 31
0.0
  0
LINE
  5
26C
102
{ACAD_REACTORS
330
A11
102
}
330
613
100
AcDbEntity
  8
STEMPEL
100
AcDbLine
 10
351.1065736534597
 20
1243.197102058197
 30
0.0
 11
769.1065736534604
 21
1243.197102058195
 31
0.0
  0
LINE
  5
26D
102
{ACAD_REACTORS
330
A11
102
}
330
613
100
AcDbEntity
  8
STEMPEL
100
AcDbLine
 10
351.1065736534597
 20
1237.197102058197
 30
0.0
 11
769.1065736534599
 21
1237.197102058193
 31
0.0
  0
CIRCLE
  5
3E3
330
613
100
AcDbEntity
  8
STEMPEL
100
AcDbCircle
 10
560.1065736534599
 20
734.9398334277272
 30
0.0
 40
210.0
  0
CIRCLE
  5
3E8
330
613
100
AcDbEntity
  8
STEMPEL
100
AcDbCircle
 10
560.1065736534599
 20
734.9398334277272
 30
0.0
 40
150.0
  0
CIRCLE
  5
470
330
613
100
AcDbEntity
  8
STEMPEL
100
AcDbCircle
 10
560.1065736534597
 20
554.9398334277275
 30
0.0
 40
7.0
  0
CIRCLE
  5
474
330
613
100
AcDbEntity
  8
STEMPEL
100
AcDbCircle
 10
740.1065736534596
 20
734.939833427727
 30
0.0
 40
7.0
  0
CIRCLE
  5
478
330
613
100
AcDbEntity
  8
STEMPEL
100
AcDbCircle
 10
560.1065736534597
 20
914.939833427727
 30
0.0
 40
7.0
  0
LINE
  5
479
102
{ACAD_REACTORS
330
B8C
102
}
330
613
100
AcDbEntity
  8
MITTEL
100
AcDbLine
 10
392.9636707230633
 20
831.4398334277269
 30
0.0
 11
415.4803312214587
 21
818.439833427727
 31
0.0
  0
CIRCLE
  5
47A
330
613
100
AcDbEntity
  8
STEMPEL
100
AcDbCircle
 10
404.2220009722609
 20
824.939833427727
 30
0.0
 40
7.0
  0
LINE
  5
4C3
102
{ACAD_REACTORS
330
A11
102
}
330
613
100
AcDbEntity
  8
STEMPEL
100
AcDbLine
 10
410.1065736534597
 20
1242.197102058196
 30
0.0
 11
410.1065736534597
 21
1238.197102058196
 31
0.0
  0
LINE
  5
4C9
102
{ACAD_REACTORS
330
A11
102
}
330
613
100
AcDbEntity
  8
STEMPEL
100
AcDbLine
 10
350.1065736534597
 20
1242.197102058197
 30
0.0
 11
350.1065736534597
 21
1238.197102058197
 31
0.0
  0
LINE
  5
4FE
102
{ACAD_REACTORS
330
A11
102
}
330
613
100
AcDbEntity
  8
STEMPEL
100
AcDbLine
 10
770.1065736534602
 20
1242.197102058195
 30
0.0
 11
770.10657365346
 21
1238.197102058193
 31
0.0
  0
LINE
  5
500
102
{ACAD_REACTORS
330
A11
102
}
330
613
100
AcDbEntity
  8
STEMPEL
100
AcDbLine
 10
710.1065736534601
 20
1242.197102058195
 30
0.0
 11
710.1065736534601
 21
1238.197102058193
 31
0.0
  0
CIRCLE
  5
77D
330
613
100
AcDbEntity
  8
STEMPEL
100
AcDbCircle
 10
470.1065736534599
 20
890.8244061089259
 30
0.0
 40
7.0
  0
LINE
  5
77E
330
613
100
AcDbEntity
  8
MITTEL
100
AcDbLine
 10
463.6065736534597
 20
902.0827363581236
 30
0.0
 11
476.6065736534597
 21
879.5660758597282
 31
0.0
  0
CIRCLE
  5
783
330
613
100
AcDbEntity
  8
MITTEL
100
AcDbCircle
 10
560.1065736534599
 20
734.9398334277272
 30
0.0
 40
179.9999999999999
  0
LINE
  5
786
330
613
100
AcDbEntity
  8
MITTEL
100
AcDbLine
 10
656.6065736534599
 20
902.0827363581236
 30
0.0
 11
643.6065736534597
 21
879.5660758597282
 31
0.0
  0
CIRCLE
  5
787
330
613
100
AcDbEntity
  8
STEMPEL
100
AcDbCircle
 10
650.1065736534597
 20
890.8244061089259
 30
0.0
 40
7.0
  0
CIRCLE
  5
788
330
613
100
AcDbEntity
  8
STEMPEL
100
AcDbCircle
 10
715.9911463346587
 20
824.939833427727
 30
0.0
 40
7.0
  0
LINE
  5
789
330
613
100
AcDbEntity
  8
MITTEL
100
AcDbLine
 10
727.2494765838563
 20
831.4398334277269
 30
0.0
 11
704.7328160854609
 21
818.439833427727
 31
0.0
  0
LINE
  5
78B
330
613
100
AcDbEntity
  8
MITTEL
100
AcDbLine
 10
463.6065736534597
 20
567.7969304973307
 30
0.0
 11
476.6065736534597
 21
590.3135909957261
 31
0.0
  0
CIRCLE
  5
78C
330
613
100
AcDbEntity
  8
STEMPEL
100
AcDbCircle
 10
470.1065736534599
 20
579.0552607465285
 30
0.0
 40
7.0
  0
CIRCLE
  5
78D
330
613
100
AcDbEntity
  8
STEMPEL
100
AcDbCircle
 10
404.2220009722609
 20
644.9398334277272
 30
0.0
 40
7.0
  0
LINE
  5
78E
330
613
100
AcDbEntity
  8
MITTEL
100
AcDbLine
 10
392.9636707230633
 20
638.4398334277273
 30
0.0
 11
415.4803312214587
 21
651.4398334277273
 31
0.0
  0
LINE
  5
78F
330
613
100
AcDbEntity
  8
MITTEL
100
AcDbLine
 10
727.2494765838563
 20
638.4398334277273
 30
0.0
 11
704.7328160854609
 21
651.4398334277273
 31
0.0
  0
CIRCLE
  5
790
330
613
100
AcDbEntity
  8
STEMPEL
100
AcDbCircle
 10
715.9911463346587
 20
644.9398334277272
 30
0.0
 40
7.0
  0
CIRCLE
  5
791
330
613
100
AcDbEntity
  8
STEMPEL
100
AcDbCircle
 10
650.1065736534597
 20
579.0552607465285
 30
0.0
 40
7.0
  0
LINE
  5
792
330
613
100
AcDbEntity
  8
MITTEL
100
AcDbLine
 10
656.6065736534599
 20
567.7969304973307
 30
0.0
 11
643.6065736534597
 21
590.3135909957261
 31
0.0
  0
TEXT
  5
8B3
330
613
100
AcDbEntity
  8
TEXT
100
AcDbText
 10
562.8240977813288
 20
179.1002985760539
 30
0.0
 40
12.5
  1
für LORO-FLEX Rohrdurchführung DN150
 41
0.63
100
AcDbText
  0
LINE
  5
908
102
{ACAD_REACTORS
330
A11
102
}
330
613
100
AcDbEntity
  8
STEMPEL
100
AcDbLine
 10
351.1065736534597
 20
1243.197102058197
 30
0.0
 11
350.1065736534597
 21
1242.197102058197
 31
0.0
  0
LINE
  5
909
102
{ACAD_REACTORS
330
A11
102
}
330
613
100
AcDbEntity
  8
STEMPEL
100
AcDbLine
 10
350.1065736534597
 20
1238.197102058197
 30
0.0
 11
351.1065736534597
 21
1237.197102058197
 31
0.0
  0
LINE
  5
90A
102
{ACAD_REACTORS
330
A11
102
}
330
613
100
AcDbEntity
  8
STEMPEL
100
AcDbLine
 10
409.1065736534597
 20
1243.197102058197
 30
0.0
 11
410.1065736534597
 21
1242.197102058196
 31
0.0
  0
LINE
  5
90B
102
{ACAD_REACTORS
330
A11
102
}
330
613
100
AcDbEntity
  8
STEMPEL
100
AcDbLine
 10
410.1065736534597
 20
1238.197102058196
 30
0.0
 11
409.1065736534597
 21
1237.197102058196
 31
0.0
  0
LINE
  5
934
102
{ACAD_REACTORS
330
A11
102
}
330
613
100
AcDbEntity
  8
STEMPEL
100
AcDbLine
 10
769.1065736534603
 20
1243.197102058195
 30
0.0
 11
770.1065736534602
 21
1242.197102058195
 31
0.0
  0
LINE
  5
935
102
{ACAD_REACTORS
330
A11
102
}
330
613
100
AcDbEntity
  8
STEMPEL
100
AcDbLine
 10
769.10657365346
 20
1237.197102058193
 30
0.0
 11
770.10657365346
 21
1238.197102058193
 31
0.0
  0
LINE
  5
941
102
{ACAD_REACTORS
330
A11
102
}
330
613
100
AcDbEntity
  8
STEMPEL
100
AcDbLine
 10
711.1065736534601
 20
1243.197102058195
 30
0.0
 11
710.1065736534601
 21
1242.197102058195
 31
0.0
  0
LINE
  5
942
102
{ACAD_REACTORS
330
A11
102
}
330
613
100
AcDbEntity
  8
STEMPEL
100
AcDbLine
 10
710.1065736534601
 20
1238.197102058193
 30
0.0
 11
711.1065736534601
 21
1237.197102058193
 31
0.0
  0
HATCH
  5
A11
330
613
100
AcDbEntity
  8
SCHRAFF
100
AcDbHatch
 10
0.0
 20
0.0
 30
0.0
210
0.0
220
0.0
230
1.0
  2
_USER
 70
     0
 71
     1
 91
        4
 92
        7
 72
     0
 73
     1
 93
        6
 10
351.1065736534598
 20
1243.197102058197
 10
350.1065736534597
 20
1242.197102058197
 10
350.1065736534597
 20
1238.197102058197
 10
351.1065736534597
 20
1237.197102058197
 10
373.1065736534597
 20
1237.197102058197
 10
373.1065736534597
 20
1243.197102058197
 97
        6
330
26C
330
908
330
4C9
330
909
330
26D
330
DD
 92
        7
 72
     0
 73
     1
 93
        6
 10
409.1065736534591
 20
1237.197102058196
 10
410.1065736534597
 20
1238.197102058196
 10
410.1065736534597
 20
1242.197102058196
 10
409.1065736534596
 20
1243.197102058197
 10
387.1065736534598
 20
1243.197102058197
 10
387.1065736534598
 20
1237.197102058196
 97
        6
330
90A
330
26C
330
E0
330
26D
330
90B
330
4C3
 92
        7
 72
     0
 73
     1
 93
        6
 10
711.1065736534601
 20
1243.197102058195
 10
710.1065736534601
 20
1242.197102058195
 10
710.1065736534601
 20
1238.197102058194
 10
711.10657365346
 20
1237.197102058193
 10
733.1065736534598
 20
1237.197102058193
 10
733.1065736534598
 20
1243.197102058195
 97
        6
330
26C
330
941
330
500
330
942
330
26D
330
1F8
 92
        7
 72
     0
 73
     1
 93
        6
 10
747.1065736534598
 20
1243.197102058195
 10
747.1065736534598
 20
1237.197102058193
 10
769.1065736534599
 20
1237.197102058193
 10
770.10657365346
 20
1238.197102058193
 10
770.1065736534602
 20
1242.197102058195
 10
769.10657365346
 20
1243.197102058195
 97
        6
330
934
330
26C
330
1F5
330
26D
330
935
330
4FE
 75
     0
 76
     0
 52
45.0
 41
5.0
 77
     0
 78
     1
 53
45.0
 43
44.34591994049333
 44
0.0
 45
-3.535533905932737
 46
3.535533905932737
 79
     0
 47
0.5329179406300574
 98
        4
 10
362.2164163505131
 20
1240.464447188523
 10
398.4784836011986
 20
1238.332775351959
 10
718.4378783161455
 20
1240.997365147663
 10
762.6989282144177
 20
1240.997365147663
  0
DIMENSION
  5
B71
102
{ACAD_XDICTIONARY
360
B80
102
}
102
{ACAD_REACTORS
330
B8C
102
}
330
613
100
AcDbEntity
  8
BEM
100
AcDbDimension
  2
*D6
 10
775.1065736534599
 20
734.9398334277272
 30
0.0
 11
305.6158480138143
 21
803.1304178440805
 31
0.0
 70
    34
 71
     5
 42
0.5235987755982956
  3
STANDARD
100
AcDb2LineAngularDimension
 13
392.9636707230633
 23
831.4398334277269
 33
0.0
 14
415.4803312214587
 24
818.439833427727
 34
0.0
 15
345.1065736534599
 25
734.9398334277272
 35
0.0
 16
327.797468178699
 26
819.4934329695474
 36
0.0
1001
ACAD
1000
DSTYLE
1002
{
1070
    40
1040
5.0
1070
    41
1040
3.5
1070
    42
1040
1.0
1070
    43
1040
8.0
1070
    44
1040
1.0
1070
    47
1040
1.199999999999999
1070
    48
1040
1.199999999999999
1070
    73
1070
     0
1070
    74
1070
     0
1070
    77
1070
     1
1070
    78
1070
     8
1070
    79
1070
     2
1070
   140
1040
3.5
1070
   141
1040
1.5
1070
   146
1040
0.5
1070
   147
1040
1.5
1070
   172
1070
     1
1070
   178
1070
     1
1070
   179
1070
     2
1070
   279
1070
     0
1002
}
  0
TEXT
  5
B8D
330
613
100
AcDbEntity
  8
TEXT
 62
     1
100
AcDbText
 10
868.1101486321026
 20
218.1573441054101
 30
0.0
 40
17.5
  1
21805200W
 41
0.8
 72
     1
 11
926.7768152987692
 21
218.1573441054101
 31
0.0
100
AcDbText
  0
ENDSEC
  0
SECTION
  2
OBJECTS
  0
DICTIONARY
  5
5FF
330
0
100
AcDbDictionary
281
     1
  3
ACAD_COLOR
350
60E
  3
ACAD_GROUP
350
600
  3
ACAD_LAYOUT
350
60C
  3
ACAD_MATERIAL
350
60D
  3
ACAD_MLINESTYLE
350
609
  3
ACAD_PLOTSETTINGS
350
60B
  3
ACAD_PLOTSTYLENAME
350
601
  3
AcDbVariableDictionary
350
767
  0
DICTIONARY
  5
B80
330
B71
100
AcDbDictionary
280
     1
281
     1
  3
ACAD_DIMASSOC
360
B8C
  0
DICTIONARY
  5
60E
102
{ACAD_REACTORS
330
5FF
102
}
330
5FF
100
AcDbDictionary
281
     1
  0
DICTIONARY
  5
600
102
{ACAD_REACTORS
330
5FF
102
}
330
5FF
100
AcDbDictionary
281
     1
  0
DICTIONARY
  5
60C
102
{ACAD_REACTORS
330
5FF
102
}
330
5FF
100
AcDbDictionary
281
     1
  3
Layout1
350
612
  3
Model
350
616
  0
DICTIONARY
  5
60D
102
{ACAD_REACTORS
330
5FF
102
}
330
5FF
100
AcDbDictionary
281
     1
  0
DICTIONARY
  5
609
102
{ACAD_REACTORS
330
5FF
102
}
330
5FF
100
AcDbDictionary
281
     1
  3
Standard
350
60A
  0
DICTIONARY
  5
60B
102
{ACAD_REACTORS
330
5FF
102
}
330
5FF
100
AcDbDictionary
281
     1
  0
ACDBDICTIONARYWDFLT
  5
601
102
{ACAD_REACTORS
330
5FF
102
}
330
5FF
100
AcDbDictionary
281
     1
  3
Normal
350
602
100
AcDbDictionaryWithDefault
340
602
  0
DICTIONARY
  5
767
102
{ACAD_REACTORS
330
5FF
102
}
330
5FF
100
AcDbDictionary
281
     1
  3
DIMASSOC
350
769
  3
HIDETEXT
350
768
  3
PROJECTNAME
350
76A
  0
DIMASSOC
  5
B8C
102
{ACAD_REACTORS
330
B80
102
}
330
B80
100
AcDbDimAssoc
330
B71
 90
       15
 70
     0
 71
     0
  1
AcDbOsnapPointRef
 72
    13
331
479
 73
     2
 91
        0
 40
0.0
 10
0.0
 20
0.0
 30
2.000000000000000E+50
 75
     0
  1
AcDbOsnapPointRef
 72
     1
331
479
 73
     2
 91
        0
 40
1.0
 10
0.0
 20
0.0
 30
2.000000000000000E+50
 75
     0
  1
AcDbOsnapPointRef
 72
    13
331
8D
 73
     2
 91
        0
 40
0.0
 10
0.0
 20
0.0
 30
2.000000000000000E+50
 75
     0
  1
AcDbOsnapPointRef
 72
     1
331
8D
 73
     2
 91
        0
 40
1.0
 10
0.0
 20
0.0
 30
2.000000000000000E+50
 75
     0
  0
LAYOUT
  5
612
102
{ACAD_REACTORS
330
60C
102
}
330
60C
100
AcDbPlotSettings
  1

  2
RICOH Aficio 2027 PCL 6
  4

  6

 40
0.0
 41
0.0
 42
0.0
 43
0.0
 44
0.0
 45
0.0
 46
0.0
 47
0.0
 48
0.0
 49
0.0
140
0.0
141
0.0
142
1.0
143
1.0
 70
   688
 72
     0
 73
     0
 74
     5
  7
monochrome1.ctb
 75
    16
147
1.0
 76
     0
 77
     2
 78
   300
148
0.0
149
0.0
100
AcDbLayout
  1
Layout1
 70
     0
 71
     1
 10
0.0
 20
0.0
 11
12.0
 21
9.0
 12
0.0
 22
0.0
 32
0.0
 14
1.000000000000000E+20
 24
1.000000000000000E+20
 34
1.000000000000000E+20
 15
-1.000000000000000E+20
 25
-1.000000000000000E+20
 35
-1.000000000000000E+20
146
0.0
 13
0.0
 23
0.0
 33
0.0
 16
1.0
 26
0.0
 36
0.0
 17
0.0
 27
1.0
 37
0.0
 76
     0
330
60F
  0
LAYOUT
  5
616
102
{ACAD_REACTORS
330
60C
102
}
330
60C
100
AcDbPlotSettings
  1

  2
RICOH Aficio 2027 PCL 6
  4
A4
  6

 40
5.027083
 41
5.027084999999999
 42
5.027084
 43
5.027069
 44
209.973328
 45
296.925995
 46
0.0
 47
2.06
 48
0.0
 49
0.0
140
0.0
141
0.0
142
1.0
143
5.252122881808211
 70
 11956
 72
     1
 73
     0
 74
     2
  7
monochrome1.ctb
 75
     0
147
0.190399200952381
 76
     1
 77
     2
 78
   300
148
0.0
149
0.0
100
AcDbLayout
  1
Model
 70
     1
 71
     0
 10
0.0
 20
0.0
 11
12.0
 21
9.0
 12
0.0
 22
0.0
 32
0.0
 14
0.0
 24
0.0
 34
0.0
 15
0.0
 25
0.0
 35
0.0
146
0.0
 13
0.0
 23
0.0
 33
0.0
 16
1.0
 26
0.0
 36
0.0
 17
0.0
 27
1.0
 37
0.0
 76
     0
330
613
  0
MLINESTYLE
  5
60A
102
{ACAD_REACTORS
330
609
102
}
330
609
100
AcDbMlineStyle
  2
STANDARD
 70
     0
  3

 62
   256
 51
90.0
 52
90.0
 71
     2
 49
0.5
 62
   256
  6
BYLAYER
 49
-0.5
 62
   256
  6
BYLAYER
  0
ACDBPLACEHOLDER
  5
602
102
{ACAD_REACTORS
330
601
102
}
330
601
  0
DICTIONARYVAR
  5
769
102
{ACAD_REACTORS
330
767
102
}
330
767
100
DictionaryVariables
280
     0
  1
2
  0
DICTIONARYVAR
  5
768
102
{ACAD_REACTORS
330
767
102
}
330
767
100
DictionaryVariables
280
     0
  1
1
  0
DICTIONARYVAR
  5
76A
102
{ACAD_REACTORS
330
767
102
}
330
767
100
DictionaryVariables
280
     0
  1

  0
ENDSEC
  0
EOF
