  0
SECTION
  2
HEADER
  9
$ACADVER
  1
AC1018
  9
$ACADMAINTVER
 70
     2
  9
$DWGCODEPAGE
  3
ANSI_1252
  9
$INSBASE
 10
0.0
 20
0.0
 30
0.0
  9
$EXTMIN
 10
-0.0064041928749248
 20
-0.0090573584946014
 30
-0.0000000000112498
  9
$EXTMAX
 10
420.0064100605654
 20
594.0090656570857
 30
0.0000000000002956
  9
$LIMMIN
 10
0.0
 20
0.0
  9
$LIMMAX
 10
419.9999999999999
 20
594.0
  9
$ORTHOMODE
 70
     1
  9
$REGENMODE
 70
     1
  9
$FILLMODE
 70
     1
  9
$QTEXTMODE
 70
     0
  9
$MIRRTEXT
 70
     1
  9
$LTSCALE
 40
20.0
  9
$ATTMODE
 70
     1
  9
$TEXTSIZE
 40
3.5
  9
$TRACEWID
 40
0.5
  9
$TEXTSTYLE
  7
STANDARD
  9
$CLAYER
  8
SCHRAFF
  9
$CELTYPE
  6
ByLayer
  9
$CECOLOR
 62
   256
  9
$CELTSCALE
 40
1.0
  9
$DISPSILH
 70
     0
  9
$DIMSCALE
 40
2.0
  9
$DIMASZ
 40
3.5
  9
$DIMEXO
 40
1.0
  9
$DIMDLI
 40
7.0
  9
$DIMRND
 40
0.0
  9
$DIMDLE
 40
0.0
  9
$DIMEXE
 40
1.0
  9
$DIMTP
 40
0.0
  9
$DIMTM
 40
0.0
  9
$DIMTXT
 40
3.5
  9
$DIMCEN
 40
1.5
  9
$DIMTSZ
 40
0.0
  9
$DIMTOL
 70
     0
  9
$DIMLIM
 70
     0
  9
$DIMTIH
 70
     0
  9
$DIMTOH
 70
     0
  9
$DIMSE1
 70
     0
  9
$DIMSE2
 70
     0
  9
$DIMTAD
 70
     1
  9
$DIMZIN
 70
     8
  9
$DIMBLK
  1

  9
$DIMASO
 70
     1
  9
$DIMSHO
 70
     0
  9
$DIMPOST
  1

  9
$DIMAPOST
  1

  9
$DIMALT
 70
     0
  9
$DIMALTD
 70
     2
  9
$DIMALTF
 40
25.4
  9
$DIMLFAC
 40
1.0
  9
$DIMTOFL
 70
     1
  9
$DIMTVP
 40
0.0
  9
$DIMTIX
 70
     0
  9
$DIMSOXD
 70
     0
  9
$DIMSAH
 70
     0
  9
$DIMBLK1
  1

  9
$DIMBLK2
  1

  9
$DIMSTYLE
  2
Standard
  9
$DIMCLRD
 70
     0
  9
$DIMCLRE
 70
     0
  9
$DIMCLRT
 70
     1
  9
$DIMTFAC
 40
0.5
  9
$DIMGAP
 40
1.5
  9
$DIMJUST
 70
     0
  9
$DIMSD1
 70
     0
  9
$DIMSD2
 70
     0
  9
$DIMTOLJ
 70
     1
  9
$DIMTZIN
 70
     8
  9
$DIMALTZ
 70
     8
  9
$DIMALTTZ
 70
     8
  9
$DIMUPT
 70
     0
  9
$DIMDEC
 70
     2
  9
$DIMTDEC
 70
     2
  9
$DIMALTU
 70
     2
  9
$DIMALTTD
 70
     2
  9
$DIMTXSTY
  7
GREEKS
  9
$DIMAUNIT
 70
     0
  9
$DIMADEC
 70
     2
  9
$DIMALTRND
 40
0.0
  9
$DIMAZIN
 70
     2
  9
$DIMDSEP
 70
    46
  9
$DIMATFIT
 70
     3
  9
$DIMFRAC
 70
     0
  9
$DIMLDRBLK
  1

  9
$DIMLUNIT
 70
     2
  9
$DIMLWD
 70
    -2
  9
$DIMLWE
 70
    -2
  9
$DIMTMOVE
 70
     0
  9
$LUNITS
 70
     2
  9
$LUPREC
 70
     2
  9
$SKETCHINC
 40
1.0
  9
$FILLETRAD
 40
5.0
  9
$AUNITS
 70
     0
  9
$AUPREC
 70
     0
  9
$MENU
  1
ACAD
  9
$ELEVATION
 40
0.0
  9
$PELEVATION
 40
0.0
  9
$THICKNESS
 40
0.0
  9
$LIMCHECK
 70
     0
  9
$CHAMFERA
 40
1.0
  9
$CHAMFERB
 40
1.0
  9
$CHAMFERC
 40
0.0
  9
$CHAMFERD
 40
0.0
  9
$SKPOLY
 70
     0
  9
$TDCREATE
 40
2455397.823042361
  9
$TDUCREATE
 40
2455397.781375695
  9
$TDUPDATE
 40
2455531.363531250
  9
$TDUUPDATE
 40
2455531.321864584
  9
$TDINDWG
 40
0.2492008102
  9
$TDUSRTIMER
 40
0.2492008102
  9
$USRTIMER
 70
     1
  9
$ANGBASE
 50
0.0
  9
$ANGDIR
 70
     0
  9
$PDMODE
 70
     0
  9
$PDSIZE
 40
0.0
  9
$PLINEWID
 40
0.0
  9
$SPLFRAME
 70
     0
  9
$SPLINETYPE
 70
     6
  9
$SPLINESEGS
 70
     8
  9
$HANDSEED
  5
A9E
  9
$SURFTAB1
 70
     6
  9
$SURFTAB2
 70
     6
  9
$SURFTYPE
 70
     6
  9
$SURFU
 70
     6
  9
$SURFV
 70
     6
  9
$UCSBASE
  2

  9
$UCSNAME
  2

  9
$UCSORG
 10
0.0
 20
0.0
 30
0.0
  9
$UCSXDIR
 10
1.0
 20
0.0
 30
0.0
  9
$UCSYDIR
 10
0.0
 20
1.0
 30
0.0
  9
$UCSORTHOREF
  2

  9
$UCSORTHOVIEW
 70
     0
  9
$UCSORGTOP
 10
0.0
 20
0.0
 30
0.0
  9
$UCSORGBOTTOM
 10
0.0
 20
0.0
 30
0.0
  9
$UCSORGLEFT
 10
0.0
 20
0.0
 30
0.0
  9
$UCSORGRIGHT
 10
0.0
 20
0.0
 30
0.0
  9
$UCSORGFRONT
 10
0.0
 20
0.0
 30
0.0
  9
$UCSORGBACK
 10
0.0
 20
0.0
 30
0.0
  9
$PUCSBASE
  2

  9
$PUCSNAME
  2

  9
$PUCSORG
 10
0.0
 20
0.0
 30
0.0
  9
$PUCSXDIR
 10
1.0
 20
0.0
 30
0.0
  9
$PUCSYDIR
 10
0.0
 20
1.0
 30
0.0
  9
$PUCSORTHOREF
  2

  9
$PUCSORTHOVIEW
 70
     0
  9
$PUCSORGTOP
 10
0.0
 20
0.0
 30
0.0
  9
$PUCSORGBOTTOM
 10
0.0
 20
0.0
 30
0.0
  9
$PUCSORGLEFT
 10
0.0
 20
0.0
 30
0.0
  9
$PUCSORGRIGHT
 10
0.0
 20
0.0
 30
0.0
  9
$PUCSORGFRONT
 10
0.0
 20
0.0
 30
0.0
  9
$PUCSORGBACK
 10
0.0
 20
0.0
 30
0.0
  9
$USERI1
 70
     0
  9
$USERI2
 70
     0
  9
$USERI3
 70
     0
  9
$USERI4
 70
     0
  9
$USERI5
 70
     0
  9
$USERR1
 40
0.0
  9
$USERR2
 40
0.0
  9
$USERR3
 40
0.0
  9
$USERR4
 40
0.0
  9
$USERR5
 40
0.0
  9
$WORLDVIEW
 70
     1
  9
$SHADEDGE
 70
     3
  9
$SHADEDIF
 70
    70
  9
$TILEMODE
 70
     1
  9
$MAXACTVP
 70
    16
  9
$PINSBASE
 10
0.0
 20
0.0
 30
0.0
  9
$PLIMCHECK
 70
     0
  9
$PEXTMIN
 10
1.000000000000000E+20
 20
1.000000000000000E+20
 30
1.000000000000000E+20
  9
$PEXTMAX
 10
-1.000000000000000E+20
 20
-1.000000000000000E+20
 30
-1.000000000000000E+20
  9
$PLIMMIN
 10
0.0
 20
0.0
  9
$PLIMMAX
 10
12.0
 20
9.0
  9
$UNITMODE
 70
     0
  9
$VISRETAIN
 70
     0
  9
$PLINEGEN
 70
     0
  9
$PSLTSCALE
 70
     0
  9
$TREEDEPTH
 70
  3020
  9
$CMLSTYLE
  2
Standard
  9
$CMLJUST
 70
     0
  9
$CMLSCALE
 40
1.0
  9
$PROXYGRAPHICS
 70
     1
  9
$MEASUREMENT
 70
     0
  9
$CELWEIGHT
370
    -1
  9
$ENDCAPS
280
     0
  9
$JOINSTYLE
280
     0
  9
$LWDISPLAY
290
     0
  9
$INSUNITS
 70
     0
  9
$HYPERLINKBASE
  1

  9
$STYLESHEET
  1
monochrome1.ctb
  9
$XEDIT
290
     1
  9
$CEPSNTYPE
380
     0
  9
$PSTYLEMODE
290
     1
  9
$FINGERPRINTGUID
  2
{E2548019-DD7F-4AF6-AABB-7A804909CCDC}
  9
$VERSIONGUID
  2
{E7C63EE7-8807-460C-BF5A-AC10AEAE7FFF}
  9
$EXTNAMES
290
     1
  9
$PSVPSCALE
 40
0.0
  9
$OLESTARTUP
290
     0
  9
$SORTENTS
280
   127
  9
$INDEXCTL
280
     0
  9
$HIDETEXT
280
     0
  9
$XCLIPFRAME
290
     0
  9
$HALOGAP
280
     0
  9
$OBSCOLOR
 70
   257
  9
$OBSLTYPE
280
     0
  9
$INTERSECTIONDISPLAY
280
     0
  9
$INTERSECTIONCOLOR
 70
   257
  9
$DIMASSOC
280
     1
  9
$PROJECTNAME
  1

  0
ENDSEC
  0
SECTION
  2
CLASSES
  0
CLASS
  1
ACDBDICTIONARYWDFLT
  2
AcDbDictionaryWithDefault
  3
ObjectDBX Classes
 90
        0
 91
        1
280
     1
281
     0
  0
CLASS
  1
DICTIONARYVAR
  2
AcDbDictionaryVar
  3
ObjectDBX Classes
 90
        0
 91
        2
280
     0
281
     0
  0
CLASS
  1
DIMASSOC
  2
AcDbDimAssoc
  3
"AcDbDimAssoc|Product Desc:     AcDim ARX App For Dimension|Company:          Autodesk, Inc.|WEB Address:      www.autodesk.com"
 90
        0
 91
        0
280
     0
281
     0
  0
ENDSEC
  0
SECTION
  2
TABLES
  0
TABLE
  2
VPORT
  5
1E
330
0
100
AcDbSymbolTable
 70
     2
  0
VPORT
  5
A9D
330
1E
100
AcDbSymbolTableRecord
100
AcDbViewportTableRecord
  2
*Active
 70
     0
 10
0.0
 20
0.0
 11
1.0
 21
1.0
 12
210.0000029338453
 22
297.0000041492956
 13
0.0
 23
0.0
 14
1.0
 24
1.0
 15
20.0
 25
20.0
 16
0.0
 26
0.0
 36
1.0
 17
0.0
 27
0.0
 37
0.0
 40
598.8150392175905
 41
1.336927223719676
 42
50.0
 43
0.0
 44
0.0
 50
0.0
 51
0.0
 71
     0
 72
  1500
 73
     1
 74
     0
 75
     0
 76
     0
 77
     0
 78
     0
281
     0
 65
     1
110
0.0
120
0.0
130
0.0
111
1.0
121
0.0
131
0.0
112
0.0
122
1.0
132
0.0
 79
     0
146
0.0
  0
ENDTAB
  0
TABLE
  2
LTYPE
  5
15
330
0
100
AcDbSymbolTable
 70
     2
  0
LTYPE
  5
16
330
15
100
AcDbSymbolTableRecord
100
AcDbLinetypeTableRecord
  2
ByBlock
 70
     0
  3

 72
    65
 73
     0
 40
0.0
  0
LTYPE
  5
19
330
15
100
AcDbSymbolTableRecord
100
AcDbLinetypeTableRecord
  2
ByLayer
 70
     0
  3

 72
    65
 73
     0
 40
0.0
  0
LTYPE
  5
8
330
15
100
AcDbSymbolTableRecord
100
AcDbLinetypeTableRecord
  2
Continuous
 70
     0
  3
Solid line
 72
    65
 73
     0
 40
0.0
  0
LTYPE
  5
3B
330
15
100
AcDbSymbolTableRecord
100
AcDbLinetypeTableRecord
  2
STRICHPUNKT
 70
     0
  3
__ . __ . __ . __ . __ . __ . __ . __ . __ . __
 72
    65
 73
     4
 40
1.0
 49
0.5
 74
     0
 49
-0.25
 74
     0
 49
0.0
 74
     0
 49
-0.25
 74
     0
  0
ENDTAB
  0
TABLE
  2
LAYER
  5
12
330
0
100
AcDbSymbolTable
 70
     9
  0
LAYER
  5
7
330
12
100
AcDbSymbolTableRecord
100
AcDbLayerTableRecord
  2
0
 70
     0
 62
     7
  6
Continuous
370
    -3
390
3A5
  0
LAYER
  5
DD
330
12
100
AcDbSymbolTableRecord
100
AcDbLayerTableRecord
  2
VOLL
 70
     0
 62
     1
  6
Continuous
370
    -3
390
3A5
  0
LAYER
  5
36
330
12
100
AcDbSymbolTableRecord
100
AcDbLayerTableRecord
  2
HILF
 70
     0
 62
     2
  6
Continuous
370
    -3
390
3A5
  0
LAYER
  5
97
330
12
100
AcDbSymbolTableRecord
100
AcDbLayerTableRecord
  2
MITTEL
 70
     0
 62
     2
  6
STRICHPUNKT
370
    -3
390
3A5
  0
LAYER
  5
2B
330
12
100
AcDbSymbolTableRecord
100
AcDbLayerTableRecord
  2
BEM
 70
     0
 62
     7
  6
Continuous
370
    -3
390
3A5
  0
LAYER
  5
34
330
12
100
AcDbSymbolTableRecord
100
AcDbLayerTableRecord
  2
STEMPEL
 70
     0
 62
     3
  6
Continuous
370
    -3
390
3A5
  0
LAYER
  5
38
330
12
100
AcDbSymbolTableRecord
100
AcDbLayerTableRecord
  2
TEXT
 70
     0
 62
     7
  6
Continuous
370
    -3
390
3A5
  0
LAYER
  5
45
330
12
100
AcDbSymbolTableRecord
100
AcDbLayerTableRecord
  2
Defpoints
 70
     0
 62
     7
  6
Continuous
290
     0
370
    -3
390
3A5
  0
LAYER
  5
32
330
12
100
AcDbSymbolTableRecord
100
AcDbLayerTableRecord
  2
SCHRAFF
 70
     0
 62
     7
  6
Continuous
370
    -3
390
3A5
  0
ENDTAB
  0
TABLE
  2
STYLE
  5
13
330
0
100
AcDbSymbolTable
 70
     2
  0
STYLE
  5
14
330
13
100
AcDbSymbolTableRecord
100
AcDbTextStyleTableRecord
  2
STANDARD
 70
     0
 40
0.0
 41
0.8
 50
0.0
 71
     0
 42
3.5
  3
simplex.shx
  4

  0
STYLE
  5
2C
330
13
100
AcDbSymbolTableRecord
100
AcDbTextStyleTableRecord
  2
GREEKS
 70
     0
 40
0.0
 41
0.8
 50
0.0
 71
     0
 42
2.5
  3
SIMPLEX.shx
  4

  0
ENDTAB
  0
TABLE
  2
VIEW
  5
1C
330
0
100
AcDbSymbolTable
 70
     0
  0
ENDTAB
  0
TABLE
  2
UCS
  5
1D
330
0
100
AcDbSymbolTable
 70
     0
  0
ENDTAB
  0
TABLE
  2
APPID
  5
20
330
0
100
AcDbSymbolTable
 70
     4
  0
APPID
  5
21
330
20
100
AcDbSymbolTableRecord
100
AcDbRegAppTableRecord
  2
ACAD
 70
     0
  0
APPID
  5
75D
330
20
100
AcDbSymbolTableRecord
100
AcDbRegAppTableRecord
  2
RAK
 70
     0
  0
APPID
  5
75E
330
20
100
AcDbSymbolTableRecord
100
AcDbRegAppTableRecord
  2
AVE_RENDER
 70
     0
  0
APPID
  5
75F
330
20
100
AcDbSymbolTableRecord
100
AcDbRegAppTableRecord
  2
DCO15
 70
     0
  0
ENDTAB
  0
TABLE
  2
DIMSTYLE
  5
22
330
0
100
AcDbSymbolTable
 70
     1
100
AcDbDimStyleTable
 71
     1
340
2E
  0
DIMSTYLE
105
2E
102
{ACAD_REACTORS
330
59
330
673
330
699
330
6A8
330
6B5
102
}
330
22
100
AcDbSymbolTableRecord
100
AcDbDimStyleTableRecord
  2
Standard
 70
     0
340
14
  0
ENDTAB
  0
TABLE
  2
BLOCK_RECORD
  5
1
330
0
100
AcDbSymbolTable
 70
     6
  0
BLOCK_RECORD
  5
2
102
{ACAD_XDICTIONARY
360
3
102
}
330
1
100
AcDbSymbolTableRecord
100
AcDbBlockTableRecord
  2
*Model_Space
340
3AA
  0
BLOCK_RECORD
  5
C
102
{ACAD_XDICTIONARY
360
D
102
}
330
1
100
AcDbSymbolTableRecord
100
AcDbBlockTableRecord
  2
*Paper_Space
340
3AB
  0
BLOCK_RECORD
  5
A2
330
1
100
AcDbSymbolTableRecord
100
AcDbBlockTableRecord
  2
LOGO
340
0
102
{BLKREFS
331
A1
102
}
  0
BLOCK_RECORD
  5
292
330
1
100
AcDbSymbolTableRecord
100
AcDbBlockTableRecord
  2
*D1
340
0
  0
BLOCK_RECORD
  5
674
330
1
100
AcDbSymbolTableRecord
100
AcDbBlockTableRecord
  2
*D2
340
0
  0
BLOCK_RECORD
  5
69A
330
1
100
AcDbSymbolTableRecord
100
AcDbBlockTableRecord
  2
*D3
340
0
  0
BLOCK_RECORD
  5
6A9
330
1
100
AcDbSymbolTableRecord
100
AcDbBlockTableRecord
  2
*D4
340
0
  0
BLOCK_RECORD
  5
6B6
330
1
100
AcDbSymbolTableRecord
100
AcDbBlockTableRecord
  2
*D5
340
0
  0
ENDTAB
  0
ENDSEC
  0
SECTION
  2
BLOCKS
  0
BLOCK
  5
6
330
2
100
AcDbEntity
  8
0
100
AcDbBlockBegin
  2
*Model_Space
 70
     0
 10
0.0
 20
0.0
 30
0.0
  3
*Model_Space
  1

  0
ENDBLK
  5
B
330
2
100
AcDbEntity
  8
0
100
AcDbBlockEnd
  0
BLOCK
  5
10
330
C
100
AcDbEntity
 67
     1
  8
0
100
AcDbBlockBegin
  2
*Paper_Space
 70
     0
 10
0.0
 20
0.0
 30
0.0
  3
*Paper_Space
  1

  0
ENDBLK
  5
11
330
C
100
AcDbEntity
 67
     1
  8
0
100
AcDbBlockEnd
  0
BLOCK
  5
BD
330
A2
100
AcDbEntity
  8
0
100
AcDbBlockBegin
  2
LOGO
 70
     0
 10
0.0
 20
0.0
 30
0.0
  3
LOGO
  1

  0
ARC
  5
A3
330
A2
100
AcDbEntity
  8
0
100
AcDbCircle
 10
11.59973089678112
 20
-9.271599258481501
 30
0.0
 40
4.5
100
AcDbArc
 50
270.0
 51
231.0575587310159
  0
LINE
  5
A4
330
A2
100
AcDbEntity
  8
0
100
AcDbLine
 10
3.599730896781125
 20
-4.771599258481529
 30
0.0
 11
3.599730896781153
 21
-11.77159925848133
 31
0.0
  0
LINE
  5
A5
330
A2
100
AcDbEntity
  8
0
100
AcDbLine
 10
2.599730896781125
 20
-4.771599258481529
 30
0.0
 11
2.599730896781153
 21
-11.77159925848133
 31
0.0
  0
CIRCLE
  5
A6
330
A2
100
AcDbEntity
  8
0
100
AcDbCircle
 10
11.59973089678112
 20
-9.271599258481501
 30
0.0
 40
3.5
  0
ARC
  5
A7
330
A2
100
AcDbEntity
  8
0
100
AcDbCircle
 10
31.59973089678115
 20
-9.271599258481472
 30
0.0
 40
4.5
100
AcDbArc
 50
270.0
 51
231.0575587310182
  0
LINE
  5
A8
330
A2
100
AcDbEntity
  8
0
100
AcDbLine
 10
17.59973089678112
 20
-4.771599258481472
 30
0.0
 11
17.59973089678115
 21
-13.77159925848147
 31
0.0
  0
ARC
  5
A9
330
A2
100
AcDbEntity
  8
0
100
AcDbCircle
 10
22.59973089678116
 20
-7.271599258481472
 30
0.0
 40
2.5
100
AcDbArc
 50
293.1161887722295
 51
90.0
  0
CIRCLE
  5
AA
330
A2
100
AcDbEntity
  8
0
100
AcDbCircle
 10
31.59973089678115
 20
-9.271599258481472
 30
0.0
 40
3.5
  0
ARC
  5
AB
330
A2
100
AcDbEntity
  8
0
100
AcDbCircle
 10
4.599730896781153
 20
-11.77159925848133
 30
0.0
 40
1.0
100
AcDbArc
 50
180.0
 51
270.0
  0
ARC
  5
AC
330
A2
100
AcDbEntity
  8
0
100
AcDbCircle
 10
4.599730896781153
 20
-11.77159925848133
 30
0.0
 40
2.0
100
AcDbArc
 50
179.9999999999992
 51
270.0
  0
LINE
  5
AD
330
A2
100
AcDbEntity
  8
0
100
AcDbLine
 10
11.59973089678115
 20
-13.77159925848144
 30
0.0
 11
4.599730896781153
 21
-13.77159925848147
 31
0.0
  0
LINE
  5
AE
330
A2
100
AcDbEntity
  8
0
100
AcDbLine
 10
8.771303772034769
 20
-12.77159925848136
 30
0.0
 11
4.599730896781153
 21
-12.77159925848133
 31
0.0
  0
LINE
  5
AF
330
A2
100
AcDbEntity
  8
0
100
AcDbLine
 10
31.59973089678115
 20
-13.77159925848147
 30
0.0
 11
23.6715276665056
 21
-13.77159925848144
 31
0.0
  0
LINE
  5
B0
330
A2
100
AcDbEntity
  8
0
100
AcDbLine
 10
23.56565672307022
 20
-9.51278021337896
 30
0.0
 11
24.4388546544846
 21
-12.77159925848144
 31
0.0
  0
LINE
  5
B1
330
A2
100
AcDbEntity
  8
0
100
AcDbLine
 10
22.59973089678116
 20
-9.771599258481472
 30
0.0
 11
18.59973089678112
 21
-9.771599258481472
 31
0.0
  0
LINE
  5
B2
330
A2
100
AcDbEntity
  8
0
100
AcDbLine
 10
18.59973089678115
 20
-13.77159925848144
 30
0.0
 11
17.59973089678115
 21
-13.77159925848144
 31
0.0
  0
LINE
  5
B3
330
A2
100
AcDbEntity
  8
0
100
AcDbLine
 10
18.59973089678115
 20
-9.771599258481472
 30
0.0
 11
18.59973089678115
 21
-13.77159925848144
 31
0.0
  0
LINE
  5
B4
330
A2
100
AcDbEntity
  8
0
100
AcDbLine
 10
22.59973089678116
 20
-9.771599258481472
 30
0.0
 11
23.67152766650562
 21
-13.77159925848147
 31
0.0
  0
ARC
  5
B5
330
A2
100
AcDbEntity
  8
0
100
AcDbCircle
 10
22.59973089678116
 20
-7.271599258481472
 30
0.0
 40
2.5
100
AcDbArc
 50
270.0
 51
270.0000000000007
  0
LINE
  5
B6
330
A2
100
AcDbEntity
  8
0
100
AcDbLine
 10
28.77130377203494
 20
-12.77159925848147
 30
0.0
 11
24.43885465448463
 21
-12.77159925848144
 31
0.0
  0
LINE
  5
B7
330
A2
100
AcDbEntity
  8
0
100
AcDbLine
 10
3.599730896781125
 20
-4.771599258481472
 30
0.0
 11
2.599730896781125
 21
-4.771599258481472
 31
0.0
  0
LINE
  5
B8
330
A2
100
AcDbEntity
  8
0
100
AcDbLine
 10
22.59973089678116
 20
-8.771599258481472
 30
0.0
 11
18.59973089678115
 21
-8.771599258481472
 31
0.0
  0
LINE
  5
B9
330
A2
100
AcDbEntity
  8
0
100
AcDbLine
 10
22.59973089678116
 20
-5.771599258481472
 30
0.0
 11
18.59973089678115
 21
-5.771599258481472
 31
0.0
  0
LINE
  5
BA
330
A2
100
AcDbEntity
  8
0
100
AcDbLine
 10
22.59973089678116
 20
-4.771599258481472
 30
0.0
 11
17.59973089678115
 21
-4.771599258481472
 31
0.0
  0
LINE
  5
BB
330
A2
100
AcDbEntity
  8
0
100
AcDbLine
 10
18.59973089678115
 20
-5.771599258481472
 30
0.0
 11
18.59973089678115
 21
-8.771599258481472
 31
0.0
  0
ARC
  5
BC
330
A2
100
AcDbEntity
  8
0
100
AcDbCircle
 10
22.59973089678116
 20
-7.271599258481472
 30
0.0
 40
1.5
100
AcDbArc
 50
270.0
 51
90.0
  0
ENDBLK
  5
BE
330
A2
100
AcDbEntity
  8
0
100
AcDbBlockEnd
  0
BLOCK
  5
293
330
292
100
AcDbEntity
  8
0
100
AcDbBlockBegin
  2
*D1
 70
     1
 10
0.0
 20
0.0
 30
0.0
  3
*D1
  1

  0
LINE
  5
A33
330
292
100
AcDbEntity
  8
BEM
 62
     0
370
    -2
100
AcDbLine
 10
130.6215132905281
 20
519.7099228349904
 30
0.0
 11
130.6215132905281
 21
500.4282806549372
 31
0.0
  0
LINE
  5
A34
330
292
100
AcDbEntity
  8
BEM
 62
     0
370
    -2
100
AcDbLine
 10
288.6215132905282
 20
519.7099228349904
 30
0.0
 11
288.6215132905282
 21
500.4282806549372
 31
0.0
  0
LINE
  5
A35
330
292
100
AcDbEntity
  8
BEM
 62
     0
370
    -2
100
AcDbLine
 10
137.6215132905281
 20
502.4282806549372
 30
0.0
 11
281.6215132905282
 21
502.4282806549372
 31
0.0
  0
SOLID
  5
A36
330
292
100
AcDbEntity
  8
BEM
 62
     0
100
AcDbTrace
 10
137.6215132905281
 20
503.5949473216039
 30
0.0
 11
137.6215132905281
 21
501.2616139882705
 31
0.0
 12
130.6215132905281
 22
502.4282806549372
 32
0.0
 13
130.6215132905281
 23
502.4282806549372
 33
0.0
  0
SOLID
  5
A37
330
292
100
AcDbEntity
  8
BEM
 62
     0
100
AcDbTrace
 10
281.6215132905282
 20
503.5949473216039
 30
0.0
 11
281.6215132905282
 21
501.2616139882705
 31
0.0
 12
288.6215132905282
 22
502.4282806549372
 32
0.0
 13
288.6215132905282
 23
502.4282806549372
 33
0.0
  0
MTEXT
  5
A38
330
292
100
AcDbEntity
  8
BEM
 62
     1
100
AcDbMText
 10
209.6215132905281
 20
508.9282806549372
 30
0.0
 40
7.0
 41
0.0
 71
     5
 72
     1
  1
\A1;%%c158
  7
GREEKS
 73
     1
 44
1.0
  0
POINT
  5
A39
330
292
100
AcDbEntity
  8
Defpoints
 62
     0
100
AcDbPoint
 10
130.6215132905281
 20
521.7099228349905
 30
0.0
  0
POINT
  5
A3A
330
292
100
AcDbEntity
  8
Defpoints
 62
     0
100
AcDbPoint
 10
288.6215132905282
 20
521.7099228349905
 30
0.0
  0
POINT
  5
A3B
330
292
100
AcDbEntity
  8
Defpoints
 62
     0
100
AcDbPoint
 10
288.6215132905282
 20
502.4282806549372
 30
0.0
  0
ENDBLK
  5
29D
330
292
100
AcDbEntity
  8
0
100
AcDbBlockEnd
  0
BLOCK
  5
680
330
674
100
AcDbEntity
  8
0
100
AcDbBlockBegin
  2
*D2
 70
     1
 10
0.0
 20
0.0
 30
0.0
  3
*D2
  1

  0
LINE
  5
A81
330
674
100
AcDbEntity
  8
BEM
 62
     0
370
    -2
100
AcDbLine
 10
90.62151329052808
 20
529.7099228349906
 30
0.0
 11
90.62151329052808
 21
551.6041487964776
 31
0.0
  0
LINE
  5
A82
330
674
100
AcDbEntity
  8
BEM
 62
     0
370
    -2
100
AcDbLine
 10
104.621513290528
 20
529.7099228349906
 30
0.0
 11
104.621513290528
 21
551.6041487964776
 31
0.0
  0
LINE
  5
A83
330
674
100
AcDbEntity
  8
BEM
 62
     0
370
    -2
100
AcDbLine
 10
83.62151329052807
 20
549.6041487964776
 30
0.0
 11
76.62151329052807
 21
549.6041487964776
 31
0.0
  0
LINE
  5
A84
330
674
100
AcDbEntity
  8
BEM
 62
     0
370
    -2
100
AcDbLine
 10
111.621513290528
 20
549.6041487964776
 30
0.0
 11
137.9548466238614
 21
549.6041487964776
 31
0.0
  0
LINE
  5
A85
330
674
100
AcDbEntity
  8
BEM
 62
     0
370
    -2
100
AcDbLine
 10
90.62151329052808
 20
549.6041487964776
 30
0.0
 11
104.621513290528
 21
549.6041487964776
 31
0.0
  0
SOLID
  5
A86
330
674
100
AcDbEntity
  8
BEM
 62
     0
100
AcDbTrace
 10
83.62151329052807
 20
550.7708154631442
 30
0.0
 11
83.62151329052807
 21
548.437482129811
 31
0.0
 12
90.62151329052808
 22
549.6041487964776
 32
0.0
 13
90.62151329052808
 23
549.6041487964776
 33
0.0
  0
SOLID
  5
A87
330
674
100
AcDbEntity
  8
BEM
 62
     0
100
AcDbTrace
 10
111.621513290528
 20
550.7708154631442
 30
0.0
 11
111.621513290528
 21
548.437482129811
 31
0.0
 12
104.621513290528
 22
549.6041487964776
 32
0.0
 13
104.621513290528
 23
549.6041487964776
 33
0.0
  0
MTEXT
  5
A88
330
674
100
AcDbEntity
  8
BEM
 62
     1
100
AcDbMText
 10
128.2881799571947
 20
556.1041487964776
 30
0.0
 40
7.0
 41
0.0
 71
     5
 72
     1
  1
\A1;%%c14
  7
GREEKS
 73
     1
 44
1.0
  0
POINT
  5
A89
330
674
100
AcDbEntity
  8
Defpoints
 62
     0
100
AcDbPoint
 10
90.62151329052808
 20
527.7099228349905
 30
0.0
  0
POINT
  5
A8A
330
674
100
AcDbEntity
  8
Defpoints
 62
     0
100
AcDbPoint
 10
104.621513290528
 20
527.7099228349905
 30
0.0
  0
POINT
  5
A8B
330
674
100
AcDbEntity
  8
Defpoints
 62
     0
100
AcDbPoint
 10
104.621513290528
 20
549.6041487964776
 30
0.0
  0
ENDBLK
  5
681
330
674
100
AcDbEntity
  8
0
100
AcDbBlockEnd
  0
BLOCK
  5
6A6
330
69A
100
AcDbEntity
  8
0
100
AcDbBlockBegin
  2
*D3
 70
     1
 10
0.0
 20
0.0
 30
0.0
  3
*D3
  1

  0
LINE
  5
A1D
330
69A
100
AcDbEntity
  8
BEM
 62
     0
370
    -2
100
AcDbLine
 10
355.621513290528
 20
521.7099228349905
 30
0.0
 11
379.2176321437864
 21
521.7099228349905
 31
0.0
  0
LINE
  5
A1E
330
69A
100
AcDbEntity
  8
BEM
 62
     0
370
    -2
100
AcDbLine
 10
355.6215132905279
 20
527.7099228349909
 30
0.0
 11
379.2176321437864
 21
527.7099228349909
 31
0.0
  0
LINE
  5
A1F
330
69A
100
AcDbEntity
  8
BEM
 62
     0
370
    -2
100
AcDbLine
 10
377.2176321437864
 20
514.7099228349905
 30
0.0
 11
377.2176321437864
 21
507.7099228349905
 31
0.0
  0
LINE
  5
A20
330
69A
100
AcDbEntity
  8
BEM
 62
     0
370
    -2
100
AcDbLine
 10
377.2176321437864
 20
534.7099228349909
 30
0.0
 11
377.2176321437864
 21
551.1765895016576
 31
0.0
  0
LINE
  5
A21
330
69A
100
AcDbEntity
  8
BEM
 62
     0
370
    -2
100
AcDbLine
 10
377.2176321437864
 20
521.7099228349905
 30
0.0
 11
377.2176321437864
 21
527.7099228349909
 31
0.0
  0
SOLID
  5
A22
330
69A
100
AcDbEntity
  8
BEM
 62
     0
100
AcDbTrace
 10
376.0509654771198
 20
514.7099228349905
 30
0.0
 11
378.3842988104531
 21
514.7099228349905
 31
0.0
 12
377.2176321437864
 22
521.7099228349905
 32
0.0
 13
377.2176321437864
 23
521.7099228349905
 33
0.0
  0
SOLID
  5
A23
330
69A
100
AcDbEntity
  8
BEM
 62
     0
100
AcDbTrace
 10
376.0509654771198
 20
534.7099228349909
 30
0.0
 11
378.3842988104531
 21
534.7099228349909
 31
0.0
 12
377.2176321437864
 22
527.7099228349909
 32
0.0
 13
377.2176321437864
 23
527.7099228349909
 33
0.0
  0
MTEXT
  5
A24
330
69A
100
AcDbEntity
  8
BEM
 62
     1
100
AcDbMText
 10
370.7176321437864
 20
546.4432561683244
 30
0.0
 40
7.0
 41
0.0
 71
     5
 72
     1
  1
\A1;6
  7
GREEKS
 11
0.0000000000000001
 21
1.0
 31
0.0
 73
     1
 44
1.0
  0
POINT
  5
A25
330
69A
100
AcDbEntity
  8
Defpoints
 62
     0
100
AcDbPoint
 10
353.621513290528
 20
521.7099228349905
 30
0.0
  0
POINT
  5
A26
330
69A
100
AcDbEntity
  8
Defpoints
 62
     0
100
AcDbPoint
 10
353.6215132905279
 20
527.7099228349909
 30
0.0
  0
POINT
  5
A27
330
69A
100
AcDbEntity
  8
Defpoints
 62
     0
100
AcDbPoint
 10
377.2176321437864
 20
527.7099228349909
 30
0.0
  0
ENDBLK
  5
6A7
330
69A
100
AcDbEntity
  8
0
100
AcDbBlockEnd
  0
BLOCK
  5
6B3
330
6A9
100
AcDbEntity
  8
0
100
AcDbBlockBegin
  2
*D4
 70
     1
 10
0.0
 20
0.0
 30
0.0
  3
*D4
  1

  0
LINE
  5
A14
330
6A9
100
AcDbEntity
  8
BEM
 62
     0
370
    -2
100
AcDbLine
 10
97.62151329052807
 20
514.7099228349905
 30
0.0
 11
97.62151329052807
 21
484.4282806549371
 31
0.0
  0
LINE
  5
A15
330
6A9
100
AcDbEntity
  8
BEM
 62
     0
370
    -2
100
AcDbLine
 10
321.6215132905281
 20
514.7099228349905
 30
0.0
 11
321.6215132905281
 21
484.4282806549371
 31
0.0
  0
LINE
  5
A16
330
6A9
100
AcDbEntity
  8
BEM
 62
     0
370
    -2
100
AcDbLine
 10
104.621513290528
 20
486.4282806549372
 30
0.0
 11
314.6215132905281
 21
486.4282806549372
 31
0.0
  0
SOLID
  5
A17
330
6A9
100
AcDbEntity
  8
BEM
 62
     0
100
AcDbTrace
 10
104.621513290528
 20
487.5949473216039
 30
0.0
 11
104.621513290528
 21
485.2616139882705
 31
0.0
 12
97.62151329052807
 22
486.4282806549372
 32
0.0
 13
97.62151329052807
 23
486.4282806549372
 33
0.0
  0
SOLID
  5
A18
330
6A9
100
AcDbEntity
  8
BEM
 62
     0
100
AcDbTrace
 10
314.6215132905281
 20
487.5949473216039
 30
0.0
 11
314.6215132905281
 21
485.2616139882705
 31
0.0
 12
321.6215132905281
 22
486.4282806549372
 32
0.0
 13
321.6215132905281
 23
486.4282806549372
 33
0.0
  0
MTEXT
  5
A19
330
6A9
100
AcDbEntity
  8
BEM
 62
     1
100
AcDbMText
 10
209.6215132905281
 20
492.9282806549372
 30
0.0
 40
7.0
 41
0.0
 71
     5
 72
     1
  1
\A1;%%c224±1.2
  7
GREEKS
 73
     1
 44
1.0
  0
POINT
  5
A1A
330
6A9
100
AcDbEntity
  8
Defpoints
 62
     0
100
AcDbPoint
 10
97.62151329052807
 20
516.7099228349904
 30
0.0
  0
POINT
  5
A1B
330
6A9
100
AcDbEntity
  8
Defpoints
 62
     0
100
AcDbPoint
 10
321.6215132905281
 20
516.7099228349904
 30
0.0
  0
POINT
  5
A1C
330
6A9
100
AcDbEntity
  8
Defpoints
 62
     0
100
AcDbPoint
 10
321.6215132905281
 20
486.4282806549372
 30
0.0
  0
ENDBLK
  5
6B4
330
6A9
100
AcDbEntity
  8
0
100
AcDbBlockEnd
  0
BLOCK
  5
6C0
330
6B6
100
AcDbEntity
  8
0
100
AcDbBlockBegin
  2
*D5
 70
     1
 10
0.0
 20
0.0
 30
0.0
  3
*D5
  1

  0
LINE
  5
A0B
330
6B6
100
AcDbEntity
  8
BEM
 62
     0
370
    -2
100
AcDbLine
 10
64.62151329052807
 20
520.7099228349904
 30
0.0
 11
64.62151329052807
 21
468.4282806549371
 31
0.0
  0
LINE
  5
A0C
330
6B6
100
AcDbEntity
  8
BEM
 62
     0
370
    -2
100
AcDbLine
 10
354.621513290528
 20
520.7099228349904
 30
0.0
 11
354.621513290528
 21
468.4282806549371
 31
0.0
  0
LINE
  5
A0D
330
6B6
100
AcDbEntity
  8
BEM
 62
     0
370
    -2
100
AcDbLine
 10
71.62151329052807
 20
470.4282806549371
 30
0.0
 11
347.621513290528
 21
470.4282806549371
 31
0.0
  0
SOLID
  5
A0E
330
6B6
100
AcDbEntity
  8
BEM
 62
     0
100
AcDbTrace
 10
71.62151329052807
 20
471.5949473216038
 30
0.0
 11
71.62151329052807
 21
469.2616139882704
 31
0.0
 12
64.62151329052807
 22
470.4282806549371
 32
0.0
 13
64.62151329052807
 23
470.4282806549371
 33
0.0
  0
SOLID
  5
A0F
330
6B6
100
AcDbEntity
  8
BEM
 62
     0
100
AcDbTrace
 10
347.621513290528
 20
471.5949473216038
 30
0.0
 11
347.621513290528
 21
469.2616139882704
 31
0.0
 12
354.621513290528
 22
470.4282806549371
 32
0.0
 13
354.621513290528
 23
470.4282806549371
 33
0.0
  0
MTEXT
  5
A10
330
6B6
100
AcDbEntity
  8
BEM
 62
     1
100
AcDbMText
 10
209.621513290528
 20
476.9282806549371
 30
0.0
 40
7.0
 41
0.0
 71
     5
 72
     1
  1
\A1;%%c290
  7
GREEKS
 73
     1
 44
1.0
  0
POINT
  5
A11
330
6B6
100
AcDbEntity
  8
Defpoints
 62
     0
100
AcDbPoint
 10
64.62151329052807
 20
522.7099228349905
 30
0.0
  0
POINT
  5
A12
330
6B6
100
AcDbEntity
  8
Defpoints
 62
     0
100
AcDbPoint
 10
354.621513290528
 20
522.7099228349905
 30
0.0
  0
POINT
  5
A13
330
6B6
100
AcDbEntity
  8
Defpoints
 62
     0
100
AcDbPoint
 10
354.621513290528
 20
470.4282806549371
 30
0.0
  0
ENDBLK
  5
6C1
330
6B6
100
AcDbEntity
  8
0
100
AcDbBlockEnd
  0
ENDSEC
  0
SECTION
  2
ENTITIES
  0
CIRCLE
  5
33
330
2
100
AcDbEntity
  8
STEMPEL
100
AcDbCircle
 10
209.6215132905281
 20
309.6215428889207
 30
0.0
 40
145.0
  0
DIMENSION
  5
59
330
2
100
AcDbEntity
  8
BEM
100
AcDbDimension
  2
*D1
 10
288.6215132905282
 20
502.4282806549372
 30
0.0
 11
209.6215132905281
 21
508.9282806549372
 31
0.0
 70
    32
  1
%%c<>
 71
     5
 42
158.0
  3
Standard
100
AcDbAlignedDimension
 13
130.6215132905281
 23
521.7099228349905
 33
0.0
 14
288.6215132905282
 24
521.7099228349905
 34
0.0
100
AcDbRotatedDimension
1001
ACAD
1000
DSTYLE
1002
{
1070
    40
1040
2.0
1070
    41
1040
3.5
1070
    42
1040
1.0
1070
    43
1040
7.0
1070
    44
1040
1.0
1070
    73
1070
     0
1070
    74
1070
     0
1070
    77
1070
     1
1070
    78
1070
     8
1070
    79
1070
     2
1070
   140
1040
3.5
1070
   141
1040
1.5
1070
   146
1040
0.5
1070
   147
1040
1.5
1070
   172
1070
     1
1070
   178
1070
     1
1070
   179
1070
     2
1070
   271
1070
     2
1070
   272
1070
     2
1070
   284
1070
     8
1070
   285
1070
     8
1070
   286
1070
     8
1070
   340
1005
2C
1002
}
  0
CIRCLE
  5
94
330
2
100
AcDbEntity
  8
STEMPEL
100
AcDbCircle
 10
209.6215132905281
 20
309.6215428889207
 30
0.0
 40
79.0
  0
LINE
  5
9C
102
{ACAD_REACTORS
330
98E
102
}
330
2
100
AcDbEntity
  8
STEMPEL
100
AcDbLine
 10
65.62151329052807
 20
527.7099228349904
 30
0.0
 11
353.6215132905279
 21
527.7099228349909
 31
0.0
  0
LINE
  5
9D
102
{ACAD_REACTORS
330
98E
102
}
330
2
100
AcDbEntity
  8
STEMPEL
100
AcDbLine
 10
65.62151329052807
 20
521.7099228349905
 30
0.0
 11
353.621513290528
 21
521.7099228349905
 31
0.0
  0
CIRCLE
  5
9E
330
2
100
AcDbEntity
  8
MITTEL
100
AcDbCircle
 10
209.6215132905281
 20
309.6215428889207
 30
0.0
 40
112.0
  0
CIRCLE
  5
9F
330
2
100
AcDbEntity
  8
STEMPEL
100
AcDbCircle
 10
209.6215132905281
 20
309.6215428889207
 30
0.0
 40
145.0
  0
LINE
  5
A0
330
2
100
AcDbEntity
  8
MITTEL
100
AcDbLine
 10
359.6215132905281
 20
309.6215428889207
 30
0.0
 11
59.62151329052807
 21
309.6215428889207
 31
0.0
  0
INSERT
  5
A1
330
2
100
AcDbEntity
  8
STEMPEL
100
AcDbBlockReference
  2
LOGO
 10
150.9955485457794
 20
45.02105276448322
 30
0.0
 41
2.0
 42
2.0
 43
2.0
  0
TEXT
  5
BF
330
2
100
AcDbEntity
  8
TEXT
100
AcDbText
 10
192.4832750652269
 20
90.76363841023022
 30
0.0
 40
4.0
  1
DIN ISO 2768-c
 41
0.7
  7
GREEKS
 72
     1
 11
209.6166083985602
 21
90.76363841023022
 31
0.0
100
AcDbText
  0
TEXT
  5
C0
330
2
100
AcDbEntity
  8
TEXT
100
AcDbText
 10
204.4216048581257
 20
63.0896391972351
 30
0.0
 40
4.0
  1
Koeh
 41
0.8
  7
GREEKS
 72
     1
 11
209.6787477152686
 21
63.0896391972351
 31
0.0
100
AcDbText
  0
LINE
  5
C1
330
2
100
AcDbEntity
  8
HILF
100
AcDbLine
 10
420.0
 20
0.0
 30
0.0
 11
0.0
 21
0.0
 31
0.0
  0
LINE
  5
C2
330
2
100
AcDbEntity
  8
HILF
100
AcDbLine
 10
419.9999999999999
 20
594.0000000000002
 30
0.0
 11
0.0
 21
594.0
 31
0.0
  0
LINE
  5
C3
330
2
100
AcDbEntity
  8
STEMPEL
100
AcDbLine
 10
410.0
 20
584.0
 30
0.0
 11
39.99999999999989
 21
584.0
 31
0.0
  0
LINE
  5
C4
330
2
100
AcDbEntity
  8
STEMPEL
100
AcDbLine
 10
410.0
 20
10.0
 30
0.0
 11
39.99999999999989
 21
10.0
 31
0.0
  0
LINE
  5
C5
330
2
100
AcDbEntity
  8
STEMPEL
100
AcDbLine
 10
49.99999999999989
 20
10.0
 30
0.0
 11
410.0
 21
10.0
 31
0.0
  0
TEXT
  5
C6
330
2
100
AcDbEntity
  8
TEXT
100
AcDbText
 10
202.4626584226295
 20
73.30961091915225
 30
0.0
 40
4.0
  1
Name
 41
0.8
  7
GREEKS
100
AcDbText
  0
TEXT
  5
C7
330
2
100
AcDbEntity
  8
TEXT
100
AcDbText
 10
194.2858954734051
 20
102.4184168434819
 30
0.0
 40
5.0
  1
Zul. Abw.
 41
0.8
  7
GREEKS
100
AcDbText
  0
LINE
  5
C8
330
2
100
AcDbEntity
  8
HILF
100
AcDbLine
 10
146.0000000000001
 20
49.99999999999997
 30
0.0
 11
230.0
 21
49.99999999999997
 31
0.0
  0
LINE
  5
C9
330
2
100
AcDbEntity
  8
HILF
100
AcDbLine
 10
146.0000000000001
 20
59.99999999999997
 30
0.0
 11
230.0
 21
59.99999999999997
 31
0.0
  0
LINE
  5
CA
330
2
100
AcDbEntity
  8
HILF
100
AcDbLine
 10
146.0000000000001
 20
69.99999999999994
 30
0.0
 11
230.0
 21
69.99999999999994
 31
0.0
  0
LINE
  5
CB
330
2
100
AcDbEntity
  8
STEMPEL
100
AcDbLine
 10
410.0
 20
80.0
 30
0.0
 11
146.0000000000001
 21
79.99999999999994
 31
0.0
  0
LINE
  5
CC
330
2
100
AcDbEntity
  8
STEMPEL
100
AcDbLine
 10
410.0
 20
40.0
 30
0.0
 11
146.0000000000001
 21
39.99999999999997
 31
0.0
  0
LINE
  5
CD
330
2
100
AcDbEntity
  8
STEMPEL
100
AcDbLine
 10
410.0
 20
110.0
 30
0.0
 11
39.99999999999997
 21
110.0
 31
0.0
  0
LINE
  5
CF
330
2
100
AcDbEntity
  8
HILF
100
AcDbLine
 10
0.0
 20
0.0
 30
0.0
 11
-0.0000000000001137
 21
594.0
 31
0.0
  0
LINE
  5
D0
330
2
100
AcDbEntity
  8
STEMPEL
100
AcDbLine
 10
40.0
 20
10.0
 30
0.0
 11
39.99999999999989
 21
584.0
 31
0.0
  0
TEXT
  5
D1
330
2
100
AcDbEntity
  8
TEXT
100
AcDbText
 10
41.85509950977674
 20
111.6719999999999
 30
0.0
 40
5.0
  1
Erstellt mit AUTOCAD 2004
 41
0.8
  7
GREEKS
100
AcDbText
  0
TEXT
  5
D2
330
2
100
AcDbEntity
  8
TEXT
100
AcDbText
 10
67.79509897490102
 20
18.67381894984132
 30
0.0
 40
4.0
  1
Änderung
 41
0.8
  7
GREEKS
 72
     1
 11
78.53795611775817
 21
18.67381894984132
 31
0.0
100
AcDbText
  0
LINE
  5
D3
330
2
100
AcDbEntity
  8
HILF
100
AcDbLine
 10
40.00000000000008
 20
39.99999999999997
 30
0.0
 11
146.0000000000001
 21
39.99999999999997
 31
0.0
  0
LINE
  5
D4
330
2
100
AcDbEntity
  8
HILF
100
AcDbLine
 10
40.00000000000008
 20
49.99999999999997
 30
0.0
 11
146.0000000000001
 21
49.99999999999997
 31
0.0
  0
LINE
  5
D5
330
2
100
AcDbEntity
  8
HILF
100
AcDbLine
 10
40.00000000000008
 20
59.99999999999997
 30
0.0
 11
146.0000000000001
 21
59.99999999999997
 31
0.0
  0
LINE
  5
D6
330
2
100
AcDbEntity
  8
HILF
100
AcDbLine
 10
40.00000000000008
 20
69.99999999999994
 30
0.0
 11
146.0000000000001
 21
69.99999999999994
 31
0.0
  0
LINE
  5
D7
330
2
100
AcDbEntity
  8
HILF
100
AcDbLine
 10
40.00000000000008
 20
79.99999999999994
 30
0.0
 11
146.0000000000001
 21
79.99999999999994
 31
0.0
  0
LINE
  5
D8
330
2
100
AcDbEntity
  8
HILF
100
AcDbLine
 10
40.00000000000008
 20
90.00000000000005
 30
0.0
 11
146.0000000000001
 21
90.00000000000005
 31
0.0
  0
LINE
  5
D9
330
2
100
AcDbEntity
  8
HILF
100
AcDbLine
 10
40.00000000000008
 20
100.0
 30
0.0
 11
146.0000000000001
 21
100.0
 31
0.0
  0
LINE
  5
DA
330
2
100
AcDbEntity
  8
STEMPEL
100
AcDbLine
 10
145.9999999999999
 20
29.99999999999997
 30
0.0
 11
39.99999999999997
 21
29.99999999999997
 31
0.0
  0
TEXT
  5
DB
330
2
100
AcDbEntity
  8
TEXT
100
AcDbText
 10
48.26641107045756
 20
13.65465846027192
 30
0.0
 40
4.0
  1
Index
 50
90.0
 41
0.8
  7
GREEKS
100
AcDbText
  0
LINE
  5
DC
330
2
100
AcDbEntity
  8
VOLL
100
AcDbLine
 10
54.00000000000009
 20
110.0
 30
0.0
 11
53.99999999999997
 21
9.999999999999971
 31
0.0
  0
LINE
  5
DE
330
2
100
AcDbEntity
  8
HILF
100
AcDbLine
 10
31.08767135713856
 20
297.0
 30
0.0
 11
0.0000000000001137
 21
297.0
 31
0.0
  0
TEXT
  5
DF
330
2
100
AcDbEntity
  8
TEXT
100
AcDbText
 10
110.6986119235389
 20
18.6715626933981
 30
0.0
 40
4.0
  1
Tag
 41
0.8
  7
GREEKS
 72
     1
 11
114.4319452568723
 21
18.6715626933981
 31
0.0
100
AcDbText
  0
LINE
  5
E0
330
2
100
AcDbEntity
  8
VOLL
100
AcDbLine
 10
124.0000000000001
 20
109.9999999999999
 30
0.0
 11
124.0
 21
9.999999999999971
 31
0.0
  0
LINE
  5
E1
330
2
100
AcDbEntity
  8
VOLL
100
AcDbLine
 10
104.0000000000001
 20
109.9999999999999
 30
0.0
 11
104.0
 21
9.999999999999971
 31
0.0
  0
TEXT
  5
E2
330
2
100
AcDbEntity
  8
TEXT
100
AcDbText
 10
129.0122744386592
 20
18.59324216966408
 30
0.0
 40
4.0
  1
Name
 41
0.8
  7
GREEKS
 72
     1
 11
135.3360839624688
 21
18.59324216966408
 31
0.0
100
AcDbText
  0
LINE
  5
E3
330
2
100
AcDbEntity
  8
STEMPEL
100
AcDbLine
 10
146.0000000000001
 20
109.9999999999999
 30
0.0
 11
146.0
 21
9.999999999999971
 31
0.0
  0
TEXT
  5
E4
330
2
100
AcDbEntity
  8
TEXT
100
AcDbText
 10
171.0085209177598
 20
63.10765040825732
 30
0.0
 40
4.0
  1
30.11.
 41
0.8
  7
GREEKS
 72
     1
 11
177.4085209177598
 21
63.10765040825732
 31
0.0
100
AcDbText
  0
TEXT
  5
E5
330
2
100
AcDbEntity
  8
TEXT
100
AcDbText
 10
172.331167315365
 20
73.31880501229926
 30
0.0
 40
4.0
  1
Tag
 41
0.8
  7
GREEKS
100
AcDbText
  0
TEXT
  5
E6
330
2
100
AcDbEntity
  8
TEXT
100
AcDbText
 10
153.5163572150377
 20
102.4620895087088
 30
0.0
 40
5.0
  1
Maßstab
 41
0.8
  7
GREEKS
100
AcDbText
  0
TEXT
  5
E7
330
2
100
AcDbEntity
  8
TEXT
100
AcDbText
 10
147.5836127167615
 20
63.62990369617964
 30
0.0
 40
4.0
  1
Gez.
 41
0.8
  7
GREEKS
100
AcDbText
  0
LINE
  5
E8
330
2
100
AcDbEntity
  8
VOLL
100
AcDbLine
 10
164.0000000000001
 20
79.99999999999994
 30
0.0
 11
164.0000000000001
 21
39.99999999999997
 31
0.0
  0
TEXT
  5
E9
330
2
100
AcDbEntity
  8
TEXT
100
AcDbText
 10
147.6006777387303
 20
43.52946389649807
 30
0.0
 40
4.0
  1
Norm.
 41
0.8
  7
GREEKS
100
AcDbText
  0
TEXT
  5
EA
330
2
100
AcDbEntity
  8
TEXT
100
AcDbText
 10
147.5515086571672
 20
53.68926291428377
 30
0.0
 40
4.0
  1
Gepr.
 41
0.8
  7
GREEKS
100
AcDbText
  0
TEXT
  5
EB
330
2
100
AcDbEntity
  8
TEXT
 62
     1
100
AcDbText
 10
160.5006306481887
 20
88.14901428913959
 30
0.0
 40
7.0
  1
1:2
 41
0.8
  7
GREEKS
100
AcDbText
  0
TEXT
  5
EC
330
2
100
AcDbEntity
  8
TEXT
100
AcDbText
 10
148.622109822104
 20
73.14025471151666
 30
0.0
 40
4.0
  1
2010
 41
0.8
  7
GREEKS
100
AcDbText
  0
LINE
  5
ED
330
2
100
AcDbEntity
  8
VOLL
100
AcDbLine
 10
190.0000000000001
 20
109.9999999999998
 30
0.0
 11
190.0
 21
39.99999999999997
 31
0.0
  0
LINE
  5
11C
102
{ACAD_REACTORS
330
98E
102
}
330
2
100
AcDbEntity
  8
STEMPEL
100
AcDbLine
 10
90.62151329052808
 20
521.7099228349905
 30
0.0
 11
90.62151329052808
 21
527.7099228349905
 31
0.0
  0
LINE
  5
11D
330
2
100
AcDbEntity
  8
MITTEL
100
AcDbLine
 10
97.62151329052807
 20
516.7099228349904
 30
0.0
 11
97.62151329052807
 21
532.7099228349906
 31
0.0
  0
LINE
  5
11E
330
2
100
AcDbEntity
  8
MITTEL
100
AcDbLine
 10
97.62151329052807
 20
516.7099228349904
 30
0.0
 11
97.62151329052807
 21
532.7099228349906
 31
0.0
  0
LINE
  5
11F
102
{ACAD_REACTORS
330
98E
102
}
330
2
100
AcDbEntity
  8
STEMPEL
100
AcDbLine
 10
104.621513290528
 20
521.7099228349905
 30
0.0
 11
104.621513290528
 21
527.7099228349905
 31
0.0
  0
LINE
  5
130
330
2
100
AcDbEntity
  8
MITTEL
100
AcDbLine
 10
209.6215132905281
 20
459.6215428889206
 30
0.0
 11
209.6215132905281
 21
159.6215428889206
 31
0.0
  0
LINE
  5
136
330
2
100
AcDbEntity
  8
HILF
100
AcDbLine
 10
420.0
 20
-0.0000000000001137
 30
0.0
 11
419.9999999999999
 21
594.0
 31
0.0
  0
LINE
  5
137
330
2
100
AcDbEntity
  8
STEMPEL
100
AcDbLine
 10
410.0
 20
10.0
 30
0.0
 11
410.0
 21
584.0
 31
0.0
  0
TEXT
  5
13B
330
2
100
AcDbEntity
  8
TEXT
100
AcDbText
 10
337.2400861497006
 20
52.07416177878602
 30
0.0
 40
5.0
  1
ersetzt durch:
 41
0.8
  7
GREEKS
100
AcDbText
  0
TEXT
  5
13C
330
2
100
AcDbEntity
  8
TEXT
100
AcDbText
 10
336.7238616296993
 20
73.1811823709997
 30
0.0
 40
5.0
  1
Ersatz für:
 41
0.8
  7
GREEKS
100
AcDbText
  0
TEXT
  5
13D
330
2
100
AcDbEntity
  8
TEXT
100
AcDbText
 10
336.178754957634
 20
102.3132034537136
 30
0.0
 40
5.0
  1
Zeichnungs Nr.
 41
0.8
  7
GREEKS
100
AcDbText
  0
LINE
  5
13E
330
2
100
AcDbEntity
  8
HILF
100
AcDbLine
 10
233.4909699289885
 20
14.89398258028314
 30
0.0
 11
404.8588839326728
 21
14.89398258028314
 31
0.0
  0
LINE
  5
13F
330
2
100
AcDbEntity
  8
HILF
100
AcDbLine
 10
336.7238616296993
 20
83.77983636955827
 30
0.0
 11
404.8588839326728
 21
83.77983636955827
 31
0.0
  0
LINE
  5
140
330
2
100
AcDbEntity
  8
VOLL
100
AcDbLine
 10
332.0
 20
60.0
 30
0.0
 11
410.0
 21
60.0
 31
0.0
  0
TEXT
  5
141
330
2
100
AcDbEntity
  8
TEXT
100
AcDbText
 10
235.1296391125315
 20
51.64011943042158
 30
0.0
 40
5.0
  1
EDV-Art.Nr. 21805.100X
 41
0.8
  7
GREEKS
100
AcDbText
  0
TEXT
  5
142
330
2
100
AcDbEntity
  8
TEXT
 62
     1
100
AcDbText
 10
235.1296391125315
 20
87.41748789253779
 30
0.0
 40
7.0
  1
Losflansch DN100
 41
0.8
  7
GREEKS
100
AcDbText
  0
LINE
  5
143
330
2
100
AcDbEntity
  8
HILF
100
AcDbLine
 10
234.7736801096947
 20
49.99999999999997
 30
0.0
 11
324.835391655631
 21
49.99999999999997
 31
0.0
  0
LINE
  5
144
330
2
100
AcDbEntity
  8
HILF
100
AcDbLine
 10
234.7736801096947
 20
59.99999999999997
 30
0.0
 11
324.835391655631
 21
59.99999999999997
 31
0.0
  0
LINE
  5
145
330
2
100
AcDbEntity
  8
HILF
100
AcDbLine
 10
234.7736801096947
 20
69.99999999999994
 30
0.0
 11
324.835391655631
 21
69.99999999999994
 31
0.0
  0
LINE
  5
146
330
2
100
AcDbEntity
  8
HILF
100
AcDbLine
 10
234.7736801096947
 20
84.03758247564139
 30
0.0
 11
324.8353916556311
 21
84.03758247564139
 31
0.0
  0
LINE
  5
147
330
2
100
AcDbEntity
  8
STEMPEL
100
AcDbLine
 10
230.0
 20
110.0
 30
0.0
 11
230.0
 21
9.999999999999971
 31
0.0
  0
TEXT
  5
148
330
2
100
AcDbEntity
  8
TEXT
100
AcDbText
 10
234.9837501577827
 20
42.62974153022632
 30
0.0
 40
4.0
  1
21805100W.DWG
 41
0.8
  7
GREEKS
100
AcDbText
  0
TEXT
  5
149
330
2
100
AcDbEntity
  8
TEXT
100
AcDbText
 10
234.742238391136
 20
30.84560570193057
 30
0.0
 40
5.0
  1
Bauvorhaben
 41
0.8
  7
GREEKS
100
AcDbText
  0
TEXT
  5
14A
330
2
100
AcDbEntity
  8
TEXT
100
AcDbText
 10
234.877940380901
 20
102.5489328011779
 30
0.0
 40
5.0
  1
Benennung
 41
0.8
  7
GREEKS
100
AcDbText
  0
LINE
  5
14B
330
2
100
AcDbEntity
  8
STEMPEL
100
AcDbLine
 10
332.0
 20
109.9999999999997
 30
0.0
 11
332.0
 21
40.0
 31
0.0
  0
TEXT
  5
151
330
2
100
AcDbEntity
  8
TEXT
 62
     1
100
AcDbText
 10
347.2740659952385
 20
88.14901428913959
 30
0.0
 40
7.0
  1
21805100W
 41
0.8
  7
GREEKS
 72
     1
 11
370.2073993285718
 21
88.14901428913959
 31
0.0
100
AcDbText
  0
CIRCLE
  5
175
330
2
100
AcDbEntity
  8
STEMPEL
100
AcDbCircle
 10
321.6215132905281
 20
309.6215428889207
 30
0.0
 40
7.0
  0
LINE
  5
179
330
2
100
AcDbEntity
  8
MITTEL
100
AcDbLine
 10
209.6215132905281
 20
516.7099228349904
 30
0.0
 11
209.6215132905281
 21
532.7099228349904
 31
0.0
  0
TEXT
  5
1F2
330
2
100
AcDbEntity
  8
TEXT
100
AcDbText
 10
416.5811541437437
 20
12.14804815338303
 30
0.0
 40
4.0
  1
Diese Zeichnung ist urheberrechtlich geschützt und bleibt unser Eigentum. Sie darf weder ganz noch teilweise vervielfältigt und nicht an Dritte weitergegeben werden.
 50
90.0
 41
0.8
  7
GREEKS
100
AcDbText
  0
TEXT
  5
5D9
330
2
100
AcDbEntity
  8
TEXT
 62
     1
100
AcDbText
 10
317.7105654240029
 20
122.4280713150313
 30
0.0
 40
7.0
  1
Werkstoff: 1.4301
 41
0.8
  7
GREEKS
100
AcDbText
  0
LINE
  5
627
102
{ACAD_REACTORS
330
98E
102
}
330
2
100
AcDbEntity
  8
STEMPEL
100
AcDbLine
 10
130.6215132905281
 20
522.7099228349905
 30
0.0
 11
130.6215132905281
 21
526.7099228349906
 31
0.0
  0
LINE
  5
628
102
{ACAD_REACTORS
330
98E
102
}
330
2
100
AcDbEntity
  8
STEMPEL
100
AcDbLine
 10
288.6215132905282
 20
522.7099228349905
 30
0.0
 11
288.6215132905282
 21
526.7099228349906
 31
0.0
  0
LINE
  5
629
102
{ACAD_REACTORS
330
98E
102
}
330
2
100
AcDbEntity
  8
STEMPEL
100
AcDbLine
 10
64.62151329052807
 20
526.7099228349905
 30
0.0
 11
64.62151329052807
 21
522.7099228349905
 31
0.0
  0
LINE
  5
642
102
{ACAD_REACTORS
330
98E
102
}
330
2
100
AcDbEntity
  8
STEMPEL
100
AcDbLine
 10
65.62151329052807
 20
527.7099228349904
 30
0.0
 11
64.62151329052807
 21
526.7099228349905
 31
0.0
  0
LINE
  5
643
102
{ACAD_REACTORS
330
98E
102
}
330
2
100
AcDbEntity
  8
STEMPEL
100
AcDbLine
 10
64.62151329052807
 20
522.7099228349905
 30
0.0
 11
65.62151329052807
 21
521.7099228349905
 31
0.0
  0
LINE
  5
65C
102
{ACAD_REACTORS
330
98E
102
}
330
2
100
AcDbEntity
  8
STEMPEL
100
AcDbLine
 10
289.6215132905282
 20
527.7099228349907
 30
0.0
 11
288.6215132905282
 21
526.7099228349906
 31
0.0
  0
LINE
  5
65D
102
{ACAD_REACTORS
330
98E
102
}
330
2
100
AcDbEntity
  8
STEMPEL
100
AcDbLine
 10
288.6215132905282
 20
522.7099228349905
 30
0.0
 11
289.6215132905282
 21
521.7099228349905
 31
0.0
  0
LINE
  5
65E
102
{ACAD_REACTORS
330
98E
102
}
330
2
100
AcDbEntity
  8
STEMPEL
100
AcDbLine
 10
129.6215132905281
 20
527.7099228349905
 30
0.0
 11
130.6215132905281
 21
526.7099228349906
 31
0.0
  0
LINE
  5
65F
102
{ACAD_REACTORS
330
98E
102
}
330
2
100
AcDbEntity
  8
STEMPEL
100
AcDbLine
 10
130.6215132905281
 20
522.7099228349905
 30
0.0
 11
129.6215132905281
 21
521.7099228349905
 31
0.0
  0
LINE
  5
660
102
{ACAD_REACTORS
330
98E
102
}
330
2
100
AcDbEntity
  8
STEMPEL
100
AcDbLine
 10
354.621513290528
 20
522.7099228349905
 30
0.0
 11
354.6215132905281
 21
526.7099228349906
 31
0.0
  0
LINE
  5
662
102
{ACAD_REACTORS
330
98E
102
}
330
2
100
AcDbEntity
  8
STEMPEL
100
AcDbLine
 10
354.6215132905281
 20
526.7099228349906
 30
0.0
 11
353.6215132905281
 21
527.7099228349907
 31
0.0
  0
LINE
  5
663
102
{ACAD_REACTORS
330
98E
102
}
330
2
100
AcDbEntity
  8
STEMPEL
100
AcDbLine
 10
354.621513290528
 20
522.7099228349905
 30
0.0
 11
353.621513290528
 21
521.7099228349905
 31
0.0
  0
LINE
  5
664
102
{ACAD_REACTORS
330
98E
102
}
330
2
100
AcDbEntity
  8
STEMPEL
100
AcDbLine
 10
314.6215132905281
 20
521.7099228349905
 30
0.0
 11
314.6215132905281
 21
527.7099228349905
 31
0.0
  0
LINE
  5
665
330
2
100
AcDbEntity
  8
MITTEL
100
AcDbLine
 10
321.6215132905281
 20
516.7099228349904
 30
0.0
 11
321.6215132905281
 21
532.7099228349906
 31
0.0
  0
LINE
  5
666
330
2
100
AcDbEntity
  8
MITTEL
100
AcDbLine
 10
321.6215132905281
 20
516.7099228349904
 30
0.0
 11
321.6215132905281
 21
532.7099228349906
 31
0.0
  0
LINE
  5
667
102
{ACAD_REACTORS
330
98E
102
}
330
2
100
AcDbEntity
  8
STEMPEL
100
AcDbLine
 10
328.6215132905281
 20
521.7099228349905
 30
0.0
 11
328.6215132905281
 21
527.7099228349905
 31
0.0
  0
DIMENSION
  5
673
330
2
100
AcDbEntity
  8
BEM
100
AcDbDimension
  2
*D2
 10
104.621513290528
 20
549.6041487964776
 30
0.0
 11
128.2881799571947
 21
556.1041487964776
 31
0.0
 70
    32
  1
%%c<>
 71
     5
 42
14.0
  3
Standard
100
AcDbAlignedDimension
 13
90.62151329052808
 23
527.7099228349905
 33
0.0
 14
104.621513290528
 24
527.7099228349905
 34
0.0
100
AcDbRotatedDimension
1001
ACAD
1000
DSTYLE
1002
{
1070
    40
1040
2.0
1070
    41
1040
3.5
1070
    42
1040
1.0
1070
    43
1040
7.0
1070
    44
1040
1.0
1070
    73
1070
     0
1070
    74
1070
     0
1070
    77
1070
     1
1070
    78
1070
     8
1070
    79
1070
     2
1070
   140
1040
3.5
1070
   141
1040
1.5
1070
   146
1040
0.5
1070
   147
1040
1.5
1070
   172
1070
     1
1070
   178
1070
     1
1070
   179
1070
     2
1070
   271
1070
     2
1070
   272
1070
     2
1070
   284
1070
     8
1070
   285
1070
     8
1070
   286
1070
     8
1070
   340
1005
2C
1002
}
  0
DIMENSION
  5
699
330
2
100
AcDbEntity
  8
BEM
100
AcDbDimension
  2
*D3
 10
377.2176321437864
 20
527.7099228349909
 30
0.0
 11
370.7176321437864
 21
546.4432561683244
 31
0.0
 70
    32
 71
     5
 42
6.000000000000454
  3
Standard
100
AcDbAlignedDimension
 13
353.621513290528
 23
521.7099228349905
 33
0.0
 14
353.6215132905279
 24
527.7099228349909
 34
0.0
 50
90.0
100
AcDbRotatedDimension
1001
ACAD
1000
DSTYLE
1002
{
1070
    40
1040
2.0
1070
    41
1040
3.5
1070
    42
1040
1.0
1070
    43
1040
7.0
1070
    44
1040
1.0
1070
    73
1070
     0
1070
    74
1070
     0
1070
    77
1070
     1
1070
    78
1070
     8
1070
    79
1070
     2
1070
   140
1040
3.5
1070
   141
1040
1.5
1070
   146
1040
0.5
1070
   147
1040
1.5
1070
   172
1070
     1
1070
   178
1070
     1
1070
   179
1070
     2
1070
   271
1070
     2
1070
   272
1070
     2
1070
   284
1070
     8
1070
   285
1070
     8
1070
   286
1070
     8
1070
   340
1005
2C
1002
}
  0
DIMENSION
  5
6A8
330
2
100
AcDbEntity
  8
BEM
100
AcDbDimension
  2
*D4
 10
321.6215132905281
 20
486.4282806549372
 30
0.0
 11
209.6215132905281
 21
492.9282806549372
 31
0.0
 70
    32
  1
%%c<>±1.2
 71
     5
 42
224.0
  3
Standard
100
AcDbAlignedDimension
 13
97.62151329052807
 23
516.7099228349904
 33
0.0
 14
321.6215132905281
 24
516.7099228349904
 34
0.0
100
AcDbRotatedDimension
1001
ACAD
1000
DSTYLE
1002
{
1070
    40
1040
2.0
1070
    41
1040
3.5
1070
    42
1040
1.0
1070
    43
1040
7.0
1070
    44
1040
1.0
1070
    73
1070
     0
1070
    74
1070
     0
1070
    77
1070
     1
1070
    78
1070
     8
1070
    79
1070
     2
1070
   140
1040
3.5
1070
   141
1040
1.5
1070
   146
1040
0.5
1070
   147
1040
1.5
1070
   172
1070
     1
1070
   178
1070
     1
1070
   179
1070
     2
1070
   271
1070
     2
1070
   272
1070
     2
1070
   284
1070
     8
1070
   285
1070
     8
1070
   286
1070
     8
1070
   340
1005
2C
1002
}
  0
DIMENSION
  5
6B5
330
2
100
AcDbEntity
  8
BEM
100
AcDbDimension
  2
*D5
 10
354.621513290528
 20
470.4282806549371
 30
0.0
 11
209.621513290528
 21
476.9282806549371
 31
0.0
 70
    32
  1
%%c<>
 71
     5
 42
290.0
  3
Standard
100
AcDbAlignedDimension
 13
64.62151329052807
 23
522.7099228349905
 33
0.0
 14
354.621513290528
 24
522.7099228349905
 34
0.0
100
AcDbRotatedDimension
1001
ACAD
1000
DSTYLE
1002
{
1070
    40
1040
2.0
1070
    41
1040
3.5
1070
    42
1040
1.0
1070
    43
1040
7.0
1070
    44
1040
1.0
1070
    73
1070
     0
1070
    74
1070
     0
1070
    77
1070
     1
1070
    78
1070
     8
1070
    79
1070
     2
1070
   140
1040
3.5
1070
   141
1040
1.5
1070
   146
1040
0.5
1070
   147
1040
1.5
1070
   172
1070
     1
1070
   178
1070
     1
1070
   179
1070
     2
1070
   271
1070
     2
1070
   272
1070
     2
1070
   284
1070
     8
1070
   285
1070
     8
1070
   286
1070
     8
1070
   340
1005
2C
1002
}
  0
TEXT
  5
70E
330
2
100
AcDbEntity
  8
TEXT
100
AcDbText
 10
235.1296391125315
 20
71.64011943042154
 30
0.0
 40
5.0
  1
für LORO-FLEX Rohrdurchführung DN70
 41
0.58
  7
GREEKS
100
AcDbText
  0
HATCH
  5
98E
330
2
100
AcDbEntity
  8
SCHRAFF
100
AcDbHatch
 10
0.0
 20
0.0
 30
0.0
210
0.0
220
0.0
230
1.0
  2
_USER
 70
     0
 71
     1
 91
        4
 92
        7
 72
     0
 73
     1
 93
        6
 10
65.62151329052809
 20
527.7099228349905
 10
64.62151329052807
 20
526.7099228349905
 10
64.62151329052807
 20
522.7099228349905
 10
65.62151329052814
 20
521.7099228349905
 10
90.62151329052808
 20
521.7099228349905
 10
90.62151329052808
 20
527.7099228349904
 97
        6
330
9C
330
642
330
629
330
643
330
9D
330
11C
 92
        7
 72
     0
 73
     1
 93
        6
 10
129.6215132905281
 20
521.7099228349905
 10
130.6215132905281
 20
522.7099228349905
 10
130.6215132905281
 20
526.7099228349905
 10
129.621513290528
 20
527.7099228349905
 10
104.6215132905281
 20
527.7099228349904
 10
104.621513290528
 20
521.7099228349906
 97
        6
330
65E
330
9C
330
11F
330
9D
330
65F
330
627
 92
        7
 72
     0
 73
     1
 93
        6
 10
289.6215132905283
 20
527.7099228349908
 10
288.6215132905282
 20
526.7099228349908
 10
288.6215132905282
 20
522.7099228349904
 10
289.6215132905282
 20
521.7099228349905
 10
314.6215132905281
 20
521.7099228349905
 10
314.621513290528
 20
527.7099228349908
 97
        6
330
9C
330
65C
330
628
330
65D
330
9D
330
664
 92
        7
 72
     0
 73
     1
 93
        6
 10
353.6215132905281
 20
521.7099228349905
 10
354.621513290528
 20
522.7099228349904
 10
354.621513290528
 20
526.7099228349908
 10
353.6215132905279
 20
527.7099228349909
 10
328.621513290528
 20
527.7099228349908
 10
328.6215132905281
 20
521.7099228349905
 97
        6
330
662
330
9C
330
667
330
9D
330
663
330
660
 75
     0
 76
     0
 52
45.0
 41
5.0
 77
     0
 78
     1
 53
45.0
 43
0.0
 44
0.0
 45
-3.535533905932737
 46
3.535533905932737
 79
     0
 47
0.4452947143704127
 98
        4
 10
74.12506384057542
 20
525.4948519482293
 10
115.5688722073
 20
523.7136756015527
 10
301.8432004502747
 20
525.0495585597311
 10
340.1675831887624
 20
524.604265171233
  0
CIRCLE
  5
9EA
330
2
100
AcDbEntity
  8
STEMPEL
100
AcDbCircle
 10
288.8174727834214
 20
388.8175023818139
 30
0.0
 40
7.0
  0
CIRCLE
  5
9EB
330
2
100
AcDbEntity
  8
STEMPEL
100
AcDbCircle
 10
209.6215132905281
 20
421.6215428889205
 30
0.0
 40
7.0
  0
CIRCLE
  5
9EC
330
2
100
AcDbEntity
  8
STEMPEL
100
AcDbCircle
 10
130.4255537976348
 20
388.8175023818139
 30
0.0
 40
7.0
  0
CIRCLE
  5
9ED
330
2
100
AcDbEntity
  8
STEMPEL
100
AcDbCircle
 10
97.62151329052819
 20
309.6215428889206
 30
0.0
 40
7.0
  0
CIRCLE
  5
9EE
330
2
100
AcDbEntity
  8
STEMPEL
100
AcDbCircle
 10
130.4255537976348
 20
230.4255833960273
 30
0.0
 40
7.0
  0
CIRCLE
  5
9EF
330
2
100
AcDbEntity
  8
STEMPEL
100
AcDbCircle
 10
209.6215132905281
 20
197.6215428889206
 30
0.0
 40
7.0
  0
CIRCLE
  5
9F0
330
2
100
AcDbEntity
  8
STEMPEL
100
AcDbCircle
 10
288.8174727834213
 20
230.4255833960273
 30
0.0
 40
7.0
  0
LINE
  5
9F1
330
2
100
AcDbEntity
  8
MITTEL
100
AcDbLine
 10
279.6250846279964
 20
379.6251142263888
 30
0.0
 11
298.0098609388465
 21
398.009890537239
 31
0.0
  0
LINE
  5
9F3
330
2
100
AcDbEntity
  8
MITTEL
100
AcDbLine
 10
139.6179419530599
 20
379.6251142263888
 30
0.0
 11
121.2331656422097
 21
398.009890537239
 31
0.0
  0
LINE
  5
9F4
330
2
100
AcDbEntity
  8
MITTEL
100
AcDbLine
 10
279.6250846279964
 20
239.6179715514526
 30
0.0
 11
298.0098609388465
 21
221.2331952406024
 31
0.0
  0
LINE
  5
9F5
330
2
100
AcDbEntity
  8
MITTEL
100
AcDbLine
 10
139.6179419530599
 20
239.6179715514526
 30
0.0
 11
121.2331656422097
 21
221.2331952406024
 31
0.0
  0
ENDSEC
  0
SECTION
  2
OBJECTS
  0
DICTIONARY
  5
28
330
0
100
AcDbDictionary
281
     1
  3
ACAD_COLOR
350
3A7
  3
ACAD_GROUP
350
24
  3
ACAD_LAYOUT
350
3A8
  3
ACAD_MATERIAL
350
3A6
  3
ACAD_MLINESTYLE
350
25
  3
ACAD_PLOTSETTINGS
350
3A9
  3
ACAD_PLOTSTYLENAME
350
3A4
  3
AcDbVariableDictionary
350
550
  0
DICTIONARY
  5
3
330
2
100
AcDbDictionary
280
     1
281
     1
  3
ACAD_LAYOUTSELFREF
360
4
  0
DICTIONARY
  5
D
330
C
100
AcDbDictionary
280
     1
281
     1
  3
ACAD_LAYOUTSELFREF
360
E
  0
DICTIONARY
  5
3A7
102
{ACAD_REACTORS
330
28
102
}
330
28
100
AcDbDictionary
281
     1
  0
DICTIONARY
  5
24
102
{ACAD_REACTORS
330
28
102
}
330
28
100
AcDbDictionary
281
     1
  0
DICTIONARY
  5
3A8
102
{ACAD_REACTORS
330
28
102
}
330
28
100
AcDbDictionary
281
     1
  3
Layout1
350
3AB
  3
Model
350
3AA
  0
DICTIONARY
  5
3A6
102
{ACAD_REACTORS
330
28
102
}
330
28
100
AcDbDictionary
281
     1
  0
DICTIONARY
  5
25
102
{ACAD_REACTORS
330
28
102
}
330
28
100
AcDbDictionary
281
     1
  3
Standard
350
2D
  0
DICTIONARY
  5
3A9
102
{ACAD_REACTORS
330
28
102
}
330
28
100
AcDbDictionary
281
     1
  0
ACDBDICTIONARYWDFLT
  5
3A4
102
{ACAD_REACTORS
330
28
102
}
330
28
100
AcDbDictionary
281
     1
  3
Normal
350
3A5
100
AcDbDictionaryWithDefault
340
3A5
  0
DICTIONARY
  5
550
102
{ACAD_REACTORS
330
28
102
}
330
28
100
AcDbDictionary
281
     1
  3
DIMASSOC
350
551
  3
PROJECTNAME
350
552
  0
XRECORD
  5
4
102
{ACAD_REACTORS
330
3
102
}
330
3
100
AcDbXrecord
280
     1
340
2
  0
XRECORD
  5
E
102
{ACAD_REACTORS
330
D
102
}
330
D
100
AcDbXrecord
280
     1
340
C
  0
LAYOUT
  5
3AB
102
{ACAD_REACTORS
330
3A8
102
}
330
3A8
100
AcDbPlotSettings
  1

  2
RICOH Aficio 2027 PCL 6
  4

  6

 40
0.0
 41
0.0
 42
0.0
 43
0.0
 44
0.0
 45
0.0
 46
0.0
 47
0.0
 48
0.0
 49
0.0
140
0.0
141
0.0
142
1.0
143
1.0
 70
   688
 72
     0
 73
     0
 74
     5
  7
monochrome1.ctb
 75
    16
147
1.0
 76
     0
 77
     2
 78
   300
148
0.0
149
0.0
100
AcDbLayout
  1
Layout1
 70
     0
 71
     1
 10
0.0
 20
0.0
 11
12.0
 21
9.0
 12
0.0
 22
0.0
 32
0.0
 14
1.000000000000000E+20
 24
1.000000000000000E+20
 34
1.000000000000000E+20
 15
-1.000000000000000E+20
 25
-1.000000000000000E+20
 35
-1.000000000000000E+20
146
0.0
 13
0.0
 23
0.0
 33
0.0
 16
1.0
 26
0.0
 36
0.0
 17
0.0
 27
1.0
 37
0.0
 76
     0
330
C
  0
LAYOUT
  5
3AA
102
{ACAD_REACTORS
330
3A8
102
}
330
3A8
100
AcDbPlotSettings
  1

  2
RICOH Aficio 2027 PCL 6
  4
A4
  6

 40
5.027083
 41
5.027084999999999
 42
5.027084
 43
5.027069
 44
209.973328
 45
296.925995
 46
0.0
 47
2.06
 48
0.0
 49
0.0
140
0.0
141
0.0
142
1.0
143
2.100849152723284
 70
 11956
 72
     1
 73
     0
 74
     2
  7
monochrome1.ctb
 75
     0
147
0.4759980023809526
 76
     1
 77
     2
 78
   300
148
0.0
149
0.0
100
AcDbLayout
  1
Model
 70
     1
 71
     0
 10
0.0
 20
0.0
 11
12.0
 21
9.0
 12
0.0
 22
0.0
 32
0.0
 14
0.0
 24
0.0
 34
0.0
 15
0.0
 25
0.0
 35
0.0
146
0.0
 13
0.0
 23
0.0
 33
0.0
 16
1.0
 26
0.0
 36
0.0
 17
0.0
 27
1.0
 37
0.0
 76
     0
330
2
  0
MLINESTYLE
  5
2D
102
{ACAD_REACTORS
330
25
102
}
330
25
100
AcDbMlineStyle
  2
STANDARD
 70
     0
  3

 62
   256
 51
90.0
 52
90.0
 71
     2
 49
0.5
 62
   256
  6
BYLAYER
 49
-0.5
 62
   256
  6
BYLAYER
  0
ACDBPLACEHOLDER
  5
3A5
102
{ACAD_REACTORS
330
3A4
102
}
330
3A4
  0
DICTIONARYVAR
  5
551
102
{ACAD_REACTORS
330
550
102
}
330
550
100
DictionaryVariables
280
     0
  1
1
  0
DICTIONARYVAR
  5
552
102
{ACAD_REACTORS
330
550
102
}
330
550
100
DictionaryVariables
280
     0
  1

  0
ENDSEC
  0
EOF
