  0
SECTION
  2
HEADER
  9
$ACADVER
  1
AC1018
  9
$ACADMAINTVER
 70
     2
  9
$DWGCODEPAGE
  3
ANSI_1252
  9
$INSBASE
 10
0.0
 20
0.0
 30
0.0
  9
$EXTMIN
 10
-0.0159945904347296
 20
-0.0226209207553438
 30
-0.0000000000000053
  9
$EXTMAX
 10
1050.016032486267
 20
1485.022674516296
 30
0.0000000000000099
  9
$LIMMIN
 10
0.0
 20
0.0
  9
$LIMMAX
 10
1050.0
 20
1485.0
  9
$ORTHOMODE
 70
     1
  9
$REGENMODE
 70
     1
  9
$FILLMODE
 70
     1
  9
$QTEXTMODE
 70
     0
  9
$MIRRTEXT
 70
     1
  9
$LTSCALE
 40
50.0
  9
$ATTMODE
 70
     1
  9
$TEXTSIZE
 40
3.5
  9
$TRACEWID
 40
0.5
  9
$TEXTSTYLE
  7
STANDARD
  9
$CLAYER
  8
BEM
  9
$CELTYPE
  6
ByLayer
  9
$CECOLOR
 62
   256
  9
$CELTSCALE
 40
1.0
  9
$DISPSILH
 70
     0
  9
$DIMSCALE
 40
5.0
  9
$DIMASZ
 40
3.5
  9
$DIMEXO
 40
1.0
  9
$DIMDLI
 40
8.0
  9
$DIMRND
 40
0.0
  9
$DIMDLE
 40
0.0
  9
$DIMEXE
 40
1.0
  9
$DIMTP
 40
0.0
  9
$DIMTM
 40
0.0
  9
$DIMTXT
 40
3.5
  9
$DIMCEN
 40
1.5
  9
$DIMTSZ
 40
0.0
  9
$DIMTOL
 70
     0
  9
$DIMLIM
 70
     0
  9
$DIMTIH
 70
     0
  9
$DIMTOH
 70
     0
  9
$DIMSE1
 70
     0
  9
$DIMSE2
 70
     0
  9
$DIMTAD
 70
     1
  9
$DIMZIN
 70
     8
  9
$DIMBLK
  1

  9
$DIMASO
 70
     1
  9
$DIMSHO
 70
     0
  9
$DIMPOST
  1

  9
$DIMAPOST
  1

  9
$DIMALT
 70
     0
  9
$DIMALTD
 70
     2
  9
$DIMALTF
 40
25.4
  9
$DIMLFAC
 40
1.0
  9
$DIMTOFL
 70
     1
  9
$DIMTVP
 40
0.0
  9
$DIMTIX
 70
     0
  9
$DIMSOXD
 70
     0
  9
$DIMSAH
 70
     0
  9
$DIMBLK1
  1

  9
$DIMBLK2
  1

  9
$DIMSTYLE
  2
STANDARD
  9
$DIMCLRD
 70
     0
  9
$DIMCLRE
 70
     0
  9
$DIMCLRT
 70
     1
  9
$DIMTFAC
 40
0.5
  9
$DIMGAP
 40
1.5
  9
$DIMJUST
 70
     0
  9
$DIMSD1
 70
     0
  9
$DIMSD2
 70
     0
  9
$DIMTOLJ
 70
     1
  9
$DIMTZIN
 70
     8
  9
$DIMALTZ
 70
     8
  9
$DIMALTTZ
 70
     8
  9
$DIMUPT
 70
     0
  9
$DIMDEC
 70
     2
  9
$DIMTDEC
 70
     2
  9
$DIMALTU
 70
     2
  9
$DIMALTTD
 70
     2
  9
$DIMTXSTY
  7
STANDARD
  9
$DIMAUNIT
 70
     0
  9
$DIMADEC
 70
     2
  9
$DIMALTRND
 40
0.0
  9
$DIMAZIN
 70
     2
  9
$DIMDSEP
 70
    46
  9
$DIMATFIT
 70
     3
  9
$DIMFRAC
 70
     0
  9
$DIMLDRBLK
  1

  9
$DIMLUNIT
 70
     2
  9
$DIMLWD
 70
    -2
  9
$DIMLWE
 70
    -2
  9
$DIMTMOVE
 70
     0
  9
$LUNITS
 70
     2
  9
$LUPREC
 70
     2
  9
$SKETCHINC
 40
1.0
  9
$FILLETRAD
 40
3.0
  9
$AUNITS
 70
     0
  9
$AUPREC
 70
     0
  9
$MENU
  1
ACAD
  9
$ELEVATION
 40
0.0
  9
$PELEVATION
 40
0.0
  9
$THICKNESS
 40
0.0
  9
$LIMCHECK
 70
     0
  9
$CHAMFERA
 40
0.0
  9
$CHAMFERB
 40
0.0
  9
$CHAMFERC
 40
0.0
  9
$CHAMFERD
 40
0.0
  9
$SKPOLY
 70
     0
  9
$TDCREATE
 40
2451890.577375810
  9
$TDUCREATE
 40
2451890.535709144
  9
$TDUPDATE
 40
2455531.345814699
  9
$TDUUPDATE
 40
2455531.304148032
  9
$TDINDWG
 40
0.1539531366
  9
$TDUSRTIMER
 40
0.1539531366
  9
$USRTIMER
 70
     1
  9
$ANGBASE
 50
0.0
  9
$ANGDIR
 70
     0
  9
$PDMODE
 70
     0
  9
$PDSIZE
 40
0.0
  9
$PLINEWID
 40
0.0
  9
$SPLFRAME
 70
     0
  9
$SPLINETYPE
 70
     6
  9
$SPLINESEGS
 70
     8
  9
$HANDSEED
  5
AFD
  9
$SURFTAB1
 70
     6
  9
$SURFTAB2
 70
     6
  9
$SURFTYPE
 70
     6
  9
$SURFU
 70
     6
  9
$SURFV
 70
     6
  9
$UCSBASE
  2

  9
$UCSNAME
  2

  9
$UCSORG
 10
0.0
 20
0.0
 30
0.0
  9
$UCSXDIR
 10
1.0
 20
0.0
 30
0.0
  9
$UCSYDIR
 10
0.0
 20
1.0
 30
0.0
  9
$UCSORTHOREF
  2

  9
$UCSORTHOVIEW
 70
     0
  9
$UCSORGTOP
 10
0.0
 20
0.0
 30
0.0
  9
$UCSORGBOTTOM
 10
0.0
 20
0.0
 30
0.0
  9
$UCSORGLEFT
 10
0.0
 20
0.0
 30
0.0
  9
$UCSORGRIGHT
 10
0.0
 20
0.0
 30
0.0
  9
$UCSORGFRONT
 10
0.0
 20
0.0
 30
0.0
  9
$UCSORGBACK
 10
0.0
 20
0.0
 30
0.0
  9
$PUCSBASE
  2

  9
$PUCSNAME
  2

  9
$PUCSORG
 10
0.0
 20
0.0
 30
0.0
  9
$PUCSXDIR
 10
1.0
 20
0.0
 30
0.0
  9
$PUCSYDIR
 10
0.0
 20
1.0
 30
0.0
  9
$PUCSORTHOREF
  2

  9
$PUCSORTHOVIEW
 70
     0
  9
$PUCSORGTOP
 10
0.0
 20
0.0
 30
0.0
  9
$PUCSORGBOTTOM
 10
0.0
 20
0.0
 30
0.0
  9
$PUCSORGLEFT
 10
0.0
 20
0.0
 30
0.0
  9
$PUCSORGRIGHT
 10
0.0
 20
0.0
 30
0.0
  9
$PUCSORGFRONT
 10
0.0
 20
0.0
 30
0.0
  9
$PUCSORGBACK
 10
0.0
 20
0.0
 30
0.0
  9
$USERI1
 70
     0
  9
$USERI2
 70
     0
  9
$USERI3
 70
     0
  9
$USERI4
 70
     0
  9
$USERI5
 70
     0
  9
$USERR1
 40
0.0
  9
$USERR2
 40
0.0
  9
$USERR3
 40
0.0
  9
$USERR4
 40
0.0
  9
$USERR5
 40
0.0
  9
$WORLDVIEW
 70
     1
  9
$SHADEDGE
 70
     3
  9
$SHADEDIF
 70
    70
  9
$TILEMODE
 70
     1
  9
$MAXACTVP
 70
    16
  9
$PINSBASE
 10
0.0
 20
0.0
 30
0.0
  9
$PLIMCHECK
 70
     0
  9
$PEXTMIN
 10
1.000000000000000E+20
 20
1.000000000000000E+20
 30
1.000000000000000E+20
  9
$PEXTMAX
 10
-1.000000000000000E+20
 20
-1.000000000000000E+20
 30
-1.000000000000000E+20
  9
$PLIMMIN
 10
0.0
 20
0.0
  9
$PLIMMAX
 10
12.0
 20
9.0
  9
$UNITMODE
 70
     0
  9
$VISRETAIN
 70
     0
  9
$PLINEGEN
 70
     0
  9
$PSLTSCALE
 70
     0
  9
$TREEDEPTH
 70
  3020
  9
$CMLSTYLE
  2
Standard
  9
$CMLJUST
 70
     0
  9
$CMLSCALE
 40
1.0
  9
$PROXYGRAPHICS
 70
     1
  9
$MEASUREMENT
 70
     0
  9
$CELWEIGHT
370
    -1
  9
$ENDCAPS
280
     0
  9
$JOINSTYLE
280
     0
  9
$LWDISPLAY
290
     0
  9
$INSUNITS
 70
     0
  9
$HYPERLINKBASE
  1

  9
$STYLESHEET
  1
monochrome1.ctb
  9
$XEDIT
290
     1
  9
$CEPSNTYPE
380
     0
  9
$PSTYLEMODE
290
     1
  9
$FINGERPRINTGUID
  2
{B446F952-7203-4F14-BF85-42C9C96D7061}
  9
$VERSIONGUID
  2
{BA11DE1E-3076-46FA-B97A-B11D873C0EAB}
  9
$EXTNAMES
290
     1
  9
$PSVPSCALE
 40
0.0
  9
$OLESTARTUP
290
     0
  9
$SORTENTS
280
   127
  9
$INDEXCTL
280
     0
  9
$HIDETEXT
280
     1
  9
$XCLIPFRAME
290
     0
  9
$HALOGAP
280
     0
  9
$OBSCOLOR
 70
   257
  9
$OBSLTYPE
280
     0
  9
$INTERSECTIONDISPLAY
280
     0
  9
$INTERSECTIONCOLOR
 70
   257
  9
$DIMASSOC
280
     2
  9
$PROJECTNAME
  1

  0
ENDSEC
  0
SECTION
  2
CLASSES
  0
CLASS
  1
ACDBDICTIONARYWDFLT
  2
AcDbDictionaryWithDefault
  3
ObjectDBX Classes
 90
        0
 91
        1
280
     0
281
     0
  0
CLASS
  1
DIMASSOC
  2
AcDbDimAssoc
  3
"AcDbDimAssoc|Product Desc:     AcDim ARX App For Dimension|Company:          Autodesk, Inc.|WEB Address:      www.autodesk.com"
 90
        0
 91
        2
280
     0
281
     0
  0
CLASS
  1
DICTIONARYVAR
  2
AcDbDictionaryVar
  3
ObjectDBX Classes
 90
        0
 91
        3
280
     0
281
     0
  0
ENDSEC
  0
SECTION
  2
TABLES
  0
TABLE
  2
VPORT
  5
804
330
0
100
AcDbSymbolTable
 70
     2
  0
VPORT
  5
AFC
330
804
100
AcDbSymbolTableRecord
100
AcDbViewportTableRecord
  2
*Active
 70
     0
 10
0.0
 20
0.0
 11
1.0
 21
1.0
 12
525.0000189479163
 22
742.5000267977702
 13
0.0
 23
0.0
 14
1.0
 24
1.0
 15
50.0
 25
50.0
 16
0.0
 26
0.0
 36
1.0
 17
0.0
 27
0.0
 37
0.0
 40
1497.037585844349
 41
1.336927223719676
 42
50.0
 43
0.0
 44
0.0
 50
0.0
 51
0.0
 71
     0
 72
  1500
 73
     1
 74
     0
 75
     0
 76
     0
 77
     0
 78
     0
281
     0
 65
     1
110
0.0
120
0.0
130
0.0
111
1.0
121
0.0
131
0.0
112
0.0
122
1.0
132
0.0
 79
     0
146
0.0
  0
ENDTAB
  0
TABLE
  2
LTYPE
  5
801
330
0
100
AcDbSymbolTable
 70
     3
  0
LTYPE
  5
80F
330
801
100
AcDbSymbolTableRecord
100
AcDbLinetypeTableRecord
  2
ByBlock
 70
     0
  3

 72
    65
 73
     0
 40
0.0
  0
LTYPE
  5
810
330
801
100
AcDbSymbolTableRecord
100
AcDbLinetypeTableRecord
  2
ByLayer
 70
     0
  3

 72
    65
 73
     0
 40
0.0
  0
LTYPE
  5
811
330
801
100
AcDbSymbolTableRecord
100
AcDbLinetypeTableRecord
  2
AUSGEZOGEN
 70
     0
  3
Ausgezogene Linie
 72
    65
 73
     0
 40
0.0
  0
LTYPE
  5
829
330
801
100
AcDbSymbolTableRecord
100
AcDbLinetypeTableRecord
  2
STRICHPUNKT
 70
     0
  3
__ . __ . __ . __ . __ . __ . __ . __ . __ . __
 72
    65
 73
     4
 40
1.0
 49
0.5
 74
     0
 49
-0.25
 74
     0
 49
0.0
 74
     0
 49
-0.25
 74
     0
  0
LTYPE
  5
82A
330
801
100
AcDbSymbolTableRecord
100
AcDbLinetypeTableRecord
  2
CONTINUOUS
 70
     0
  3
Solid line
 72
    65
 73
     0
 40
0.0
  0
ENDTAB
  0
TABLE
  2
LAYER
  5
7FE
330
0
100
AcDbSymbolTable
 70
    10
  0
LAYER
  5
80C
330
7FE
100
AcDbSymbolTableRecord
100
AcDbLayerTableRecord
  2
0
 70
     0
 62
     7
  6
AUSGEZOGEN
370
    -3
390
80B
  0
LAYER
  5
82E
330
7FE
100
AcDbSymbolTableRecord
100
AcDbLayerTableRecord
  2
VOLL
 70
     0
 62
     1
  6
AUSGEZOGEN
370
    -3
390
80B
  0
LAYER
  5
82F
330
7FE
100
AcDbSymbolTableRecord
100
AcDbLayerTableRecord
  2
MITTEL
 70
     0
 62
     2
  6
STRICHPUNKT
370
    -3
390
80B
  0
LAYER
  5
830
330
7FE
100
AcDbSymbolTableRecord
100
AcDbLayerTableRecord
  2
BEM
 70
     0
 62
     7
  6
AUSGEZOGEN
370
    -3
390
80B
  0
LAYER
  5
831
330
7FE
100
AcDbSymbolTableRecord
100
AcDbLayerTableRecord
  2
STEMPEL
 70
     0
 62
     3
  6
AUSGEZOGEN
370
    -3
390
80B
  0
LAYER
  5
832
330
7FE
100
AcDbSymbolTableRecord
100
AcDbLayerTableRecord
  2
DEFPOINTS
 70
     0
 62
     7
  6
AUSGEZOGEN
290
     0
370
    -3
390
80B
  0
LAYER
  5
833
330
7FE
100
AcDbSymbolTableRecord
100
AcDbLayerTableRecord
  2
SCHRAFF
 70
     0
 62
     7
  6
AUSGEZOGEN
370
    -3
390
80B
  0
LAYER
  5
834
330
7FE
100
AcDbSymbolTableRecord
100
AcDbLayerTableRecord
  2
HILF
 70
     0
 62
     2
  6
AUSGEZOGEN
370
    -3
390
80B
  0
LAYER
  5
835
330
7FE
100
AcDbSymbolTableRecord
100
AcDbLayerTableRecord
  2
TEXT25
 70
     0
 62
     7
  6
AUSGEZOGEN
370
    -3
390
80B
  0
LAYER
  5
836
330
7FE
100
AcDbSymbolTableRecord
100
AcDbLayerTableRecord
  2
TEXT35
 70
     0
 62
     1
  6
AUSGEZOGEN
370
    -3
390
80B
  0
ENDTAB
  0
TABLE
  2
STYLE
  5
7FF
330
0
100
AcDbSymbolTable
 70
     2
  0
STYLE
  5
80D
330
7FF
100
AcDbSymbolTableRecord
100
AcDbTextStyleTableRecord
  2
STANDARD
 70
     0
 40
0.0
 41
0.8
 50
0.0
 71
     0
 42
3.5
  3
simplex.shx
  4

  0
STYLE
  5
828
330
7FF
100
AcDbSymbolTableRecord
100
AcDbTextStyleTableRecord
  2
GREEKS
 70
     0
 40
0.0
 41
0.8
 50
0.0
 71
     0
 42
2.5
  3
SIMPLEX.shx
  4

  0
ENDTAB
  0
TABLE
  2
VIEW
  5
802
330
0
100
AcDbSymbolTable
 70
     0
  0
ENDTAB
  0
TABLE
  2
UCS
  5
803
330
0
100
AcDbSymbolTable
 70
     0
  0
ENDTAB
  0
TABLE
  2
APPID
  5
805
330
0
100
AcDbSymbolTable
 70
     2
  0
APPID
  5
80E
330
805
100
AcDbSymbolTableRecord
100
AcDbRegAppTableRecord
  2
ACAD
 70
     0
  0
APPID
  5
82C
330
805
100
AcDbSymbolTableRecord
100
AcDbRegAppTableRecord
  2
RAK
 70
     0
  0
ENDTAB
  0
TABLE
  2
DIMSTYLE
  5
806
330
0
100
AcDbSymbolTable
 70
     1
100
AcDbDimStyleTable
 71
     1
340
82D
  0
DIMSTYLE
105
82D
102
{ACAD_REACTORS
330
193
330
192
330
191
330
194
330
18C
330
9B2
330
9CE
102
}
330
806
100
AcDbSymbolTableRecord
100
AcDbDimStyleTableRecord
  2
STANDARD
 70
     0
271
     2
272
     2
279
     2
284
     8
285
     8
286
     8
340
80D
  0
ENDTAB
  0
TABLE
  2
BLOCK_RECORD
  5
7FD
330
0
100
AcDbSymbolTable
 70
     8
  0
BLOCK_RECORD
  5
81C
330
7FD
100
AcDbSymbolTableRecord
100
AcDbBlockTableRecord
  2
*Model_Space
340
81F
  0
BLOCK_RECORD
  5
818
330
7FD
100
AcDbSymbolTableRecord
100
AcDbBlockTableRecord
  2
*Paper_Space
340
81B
  0
BLOCK_RECORD
  5
825
330
7FD
100
AcDbSymbolTableRecord
100
AcDbBlockTableRecord
  2
LOGO
340
0
102
{BLKREFS
331
3A0
102
}
  0
BLOCK_RECORD
  5
83C
330
7FD
100
AcDbSymbolTableRecord
100
AcDbBlockTableRecord
  2
*D1
340
0
  0
BLOCK_RECORD
  5
848
330
7FD
100
AcDbSymbolTableRecord
100
AcDbBlockTableRecord
  2
*D2
340
0
  0
BLOCK_RECORD
  5
854
330
7FD
100
AcDbSymbolTableRecord
100
AcDbBlockTableRecord
  2
*D3
340
0
  0
BLOCK_RECORD
  5
860
330
7FD
100
AcDbSymbolTableRecord
100
AcDbBlockTableRecord
  2
*D4
340
0
  0
BLOCK_RECORD
  5
86E
330
7FD
100
AcDbSymbolTableRecord
100
AcDbBlockTableRecord
  2
*D5
340
0
  0
BLOCK_RECORD
  5
9B3
330
7FD
100
AcDbSymbolTableRecord
100
AcDbBlockTableRecord
  2
*D6
340
0
  0
BLOCK_RECORD
  5
9CF
330
7FD
100
AcDbSymbolTableRecord
100
AcDbBlockTableRecord
  2
*D7
340
0
  0
ENDTAB
  0
ENDSEC
  0
SECTION
  2
BLOCKS
  0
BLOCK
  5
839
330
81C
100
AcDbEntity
  8
0
100
AcDbBlockBegin
  2
*Model_Space
 70
     0
 10
0.0
 20
0.0
 30
0.0
  3
*Model_Space
  1

  0
ENDBLK
  5
83A
330
81C
100
AcDbEntity
  8
0
100
AcDbBlockEnd
  0
BLOCK
  5
837
330
818
100
AcDbEntity
 67
     1
  8
0
100
AcDbBlockBegin
  2
*Paper_Space
 70
     0
 10
0.0
 20
0.0
 30
0.0
  3
*Paper_Space
  1

  0
ENDBLK
  5
838
330
818
100
AcDbEntity
 67
     1
  8
0
100
AcDbBlockEnd
  0
BLOCK
  5
30E
330
825
100
AcDbEntity
  8
0
100
AcDbBlockBegin
  2
LOGO
 70
     0
 10
0.0
 20
0.0
 30
0.0
  3
LOGO
  1

  0
ARC
  5
2F4
330
825
100
AcDbEntity
  8
0
100
AcDbCircle
 10
11.59973089678112
 20
-9.271599258481501
 30
0.0
 40
4.5
100
AcDbArc
 50
270.0
 51
231.0575587310159
  0
LINE
  5
2F5
330
825
100
AcDbEntity
  8
0
100
AcDbLine
 10
3.599730896781125
 20
-4.771599258481529
 30
0.0
 11
3.599730896781153
 21
-11.77159925848133
 31
0.0
  0
LINE
  5
2F6
330
825
100
AcDbEntity
  8
0
100
AcDbLine
 10
2.599730896781125
 20
-4.771599258481529
 30
0.0
 11
2.599730896781153
 21
-11.77159925848133
 31
0.0
  0
CIRCLE
  5
2F7
330
825
100
AcDbEntity
  8
0
100
AcDbCircle
 10
11.59973089678112
 20
-9.271599258481501
 30
0.0
 40
3.5
  0
ARC
  5
2F8
330
825
100
AcDbEntity
  8
0
100
AcDbCircle
 10
31.59973089678115
 20
-9.271599258481472
 30
0.0
 40
4.5
100
AcDbArc
 50
270.0
 51
231.0575587310182
  0
LINE
  5
2F9
330
825
100
AcDbEntity
  8
0
100
AcDbLine
 10
17.59973089678112
 20
-4.771599258481472
 30
0.0
 11
17.59973089678115
 21
-13.77159925848147
 31
0.0
  0
ARC
  5
2FA
330
825
100
AcDbEntity
  8
0
100
AcDbCircle
 10
22.59973089678116
 20
-7.271599258481472
 30
0.0
 40
2.5
100
AcDbArc
 50
293.1161887722295
 51
90.0
  0
CIRCLE
  5
2FB
330
825
100
AcDbEntity
  8
0
100
AcDbCircle
 10
31.59973089678115
 20
-9.271599258481472
 30
0.0
 40
3.5
  0
ARC
  5
2FC
330
825
100
AcDbEntity
  8
0
100
AcDbCircle
 10
4.599730896781153
 20
-11.77159925848133
 30
0.0
 40
1.0
100
AcDbArc
 50
180.0
 51
270.0
  0
ARC
  5
2FD
330
825
100
AcDbEntity
  8
0
100
AcDbCircle
 10
4.599730896781153
 20
-11.77159925848133
 30
0.0
 40
2.0
100
AcDbArc
 50
179.9999999999992
 51
270.0
  0
LINE
  5
2FE
330
825
100
AcDbEntity
  8
0
100
AcDbLine
 10
11.59973089678115
 20
-13.77159925848144
 30
0.0
 11
4.599730896781153
 21
-13.77159925848147
 31
0.0
  0
LINE
  5
2FF
330
825
100
AcDbEntity
  8
0
100
AcDbLine
 10
8.771303772034769
 20
-12.77159925848136
 30
0.0
 11
4.599730896781153
 21
-12.77159925848133
 31
0.0
  0
LINE
  5
300
330
825
100
AcDbEntity
  8
0
100
AcDbLine
 10
31.59973089678115
 20
-13.77159925848147
 30
0.0
 11
23.6715276665056
 21
-13.77159925848144
 31
0.0
  0
LINE
  5
301
330
825
100
AcDbEntity
  8
0
100
AcDbLine
 10
23.56565672307022
 20
-9.51278021337896
 30
0.0
 11
24.4388546544846
 21
-12.77159925848144
 31
0.0
  0
LINE
  5
302
330
825
100
AcDbEntity
  8
0
100
AcDbLine
 10
22.59973089678116
 20
-9.771599258481472
 30
0.0
 11
18.59973089678112
 21
-9.771599258481472
 31
0.0
  0
LINE
  5
303
330
825
100
AcDbEntity
  8
0
100
AcDbLine
 10
18.59973089678115
 20
-13.77159925848144
 30
0.0
 11
17.59973089678115
 21
-13.77159925848144
 31
0.0
  0
LINE
  5
304
330
825
100
AcDbEntity
  8
0
100
AcDbLine
 10
18.59973089678115
 20
-9.771599258481472
 30
0.0
 11
18.59973089678115
 21
-13.77159925848144
 31
0.0
  0
LINE
  5
305
330
825
100
AcDbEntity
  8
0
100
AcDbLine
 10
22.59973089678116
 20
-9.771599258481472
 30
0.0
 11
23.67152766650562
 21
-13.77159925848147
 31
0.0
  0
ARC
  5
306
330
825
100
AcDbEntity
  8
0
100
AcDbCircle
 10
22.59973089678116
 20
-7.271599258481472
 30
0.0
 40
2.5
100
AcDbArc
 50
270.0
 51
270.0000000000007
  0
LINE
  5
307
330
825
100
AcDbEntity
  8
0
100
AcDbLine
 10
28.77130377203494
 20
-12.77159925848147
 30
0.0
 11
24.43885465448463
 21
-12.77159925848144
 31
0.0
  0
LINE
  5
308
330
825
100
AcDbEntity
  8
0
100
AcDbLine
 10
3.599730896781125
 20
-4.771599258481472
 30
0.0
 11
2.599730896781125
 21
-4.771599258481472
 31
0.0
  0
LINE
  5
309
330
825
100
AcDbEntity
  8
0
100
AcDbLine
 10
22.59973089678116
 20
-8.771599258481472
 30
0.0
 11
18.59973089678115
 21
-8.771599258481472
 31
0.0
  0
LINE
  5
30A
330
825
100
AcDbEntity
  8
0
100
AcDbLine
 10
22.59973089678116
 20
-5.771599258481472
 30
0.0
 11
18.59973089678115
 21
-5.771599258481472
 31
0.0
  0
LINE
  5
30B
330
825
100
AcDbEntity
  8
0
100
AcDbLine
 10
22.59973089678116
 20
-4.771599258481472
 30
0.0
 11
17.59973089678115
 21
-4.771599258481472
 31
0.0
  0
LINE
  5
30C
330
825
100
AcDbEntity
  8
0
100
AcDbLine
 10
18.59973089678115
 20
-5.771599258481472
 30
0.0
 11
18.59973089678115
 21
-8.771599258481472
 31
0.0
  0
ARC
  5
30D
330
825
100
AcDbEntity
  8
0
100
AcDbCircle
 10
22.59973089678116
 20
-7.271599258481472
 30
0.0
 40
1.5
100
AcDbArc
 50
270.0
 51
90.0
  0
ENDBLK
  5
30F
330
825
100
AcDbEntity
  8
0
100
AcDbBlockEnd
  0
BLOCK
  5
846
330
83C
100
AcDbEntity
  8
0
100
AcDbBlockBegin
  2
*D1
 70
     1
 10
0.0
 20
0.0
 30
0.0
  3
*D1
  1

  0
LINE
  5
9F5
330
83C
100
AcDbEntity
  8
BEM
 62
     0
370
    -2
100
AcDbLine
 10
362.1191930699477
 20
1186.212657822518
 30
0.0
 11
362.1191930699477
 21
1056.212657822518
 31
0.0
  0
LINE
  5
9F6
330
83C
100
AcDbEntity
  8
BEM
 62
     0
370
    -2
100
AcDbLine
 10
792.1191930699476
 20
1186.212657822518
 30
0.0
 11
792.1191930699476
 21
1056.212657822518
 31
0.0
  0
LINE
  5
9F7
330
83C
100
AcDbEntity
  8
BEM
 62
     0
370
    -2
100
AcDbLine
 10
379.6191930699476
 20
1061.212657822518
 30
0.0
 11
774.6191930699476
 21
1061.212657822518
 31
0.0
  0
SOLID
  5
9F8
330
83C
100
AcDbEntity
  8
BEM
 62
     0
100
AcDbTrace
 10
379.6191930699476
 20
1064.129324489184
 30
0.0
 11
379.6191930699476
 21
1058.295991155851
 31
0.0
 12
362.1191930699477
 22
1061.212657822518
 32
0.0
 13
362.1191930699477
 23
1061.212657822518
 33
0.0
  0
SOLID
  5
9F9
330
83C
100
AcDbEntity
  8
BEM
 62
     0
100
AcDbTrace
 10
774.6191930699476
 20
1064.129324489184
 30
0.0
 11
774.6191930699476
 21
1058.295991155851
 31
0.0
 12
792.1191930699476
 22
1061.212657822518
 32
0.0
 13
792.1191930699476
 23
1061.212657822518
 33
0.0
  0
MTEXT
  5
9FA
330
83C
100
AcDbEntity
  8
BEM
 62
     1
100
AcDbMText
 10
577.1191930699476
 20
1077.462657822518
 30
0.0
 40
17.5
 41
0.0
 71
     5
 72
     1
  1
\A1;%%c430
 73
     1
 44
1.0
  0
POINT
  5
9FB
330
83C
100
AcDbEntity
  8
DEFPOINTS
 62
     0
100
AcDbPoint
 10
362.1191930699477
 20
1191.212657822518
 30
0.0
  0
POINT
  5
9FC
330
83C
100
AcDbEntity
  8
DEFPOINTS
 62
     0
100
AcDbPoint
 10
792.1191930699476
 20
1191.212657822518
 30
0.0
  0
POINT
  5
9FD
330
83C
100
AcDbEntity
  8
DEFPOINTS
 62
     0
100
AcDbPoint
 10
792.1191930699476
 20
1061.212657822518
 30
0.0
  0
ENDBLK
  5
847
330
83C
100
AcDbEntity
  8
0
100
AcDbBlockEnd
  0
BLOCK
  5
852
330
848
100
AcDbEntity
  8
0
100
AcDbBlockBegin
  2
*D2
 70
     1
 10
0.0
 20
0.0
 30
0.0
  3
*D2
  1

  0
LINE
  5
A24
330
848
100
AcDbEntity
  8
BEM
 62
     0
370
    -2
100
AcDbLine
 10
397.1191930699476
 20
1181.212657822518
 30
0.0
 11
397.1191930699476
 21
1096.212657822518
 31
0.0
  0
LINE
  5
A25
330
848
100
AcDbEntity
  8
BEM
 62
     0
370
    -2
100
AcDbLine
 10
757.1191930699476
 20
1181.212657822518
 30
0.0
 11
757.1191930699476
 21
1096.212657822518
 31
0.0
  0
LINE
  5
A26
330
848
100
AcDbEntity
  8
BEM
 62
     0
370
    -2
100
AcDbLine
 10
414.6191930699476
 20
1101.212657822518
 30
0.0
 11
739.6191930699476
 21
1101.212657822518
 31
0.0
  0
SOLID
  5
A27
330
848
100
AcDbEntity
  8
BEM
 62
     0
100
AcDbTrace
 10
414.6191930699476
 20
1104.129324489184
 30
0.0
 11
414.6191930699476
 21
1098.295991155851
 31
0.0
 12
397.1191930699476
 22
1101.212657822518
 32
0.0
 13
397.1191930699476
 23
1101.212657822518
 33
0.0
  0
SOLID
  5
A28
330
848
100
AcDbEntity
  8
BEM
 62
     0
100
AcDbTrace
 10
739.6191930699476
 20
1104.129324489184
 30
0.0
 11
739.6191930699476
 21
1098.295991155851
 31
0.0
 12
757.1191930699476
 22
1101.212657822518
 32
0.0
 13
757.1191930699476
 23
1101.212657822518
 33
0.0
  0
MTEXT
  5
A29
330
848
100
AcDbEntity
  8
BEM
 62
     1
100
AcDbMText
 10
577.1191930699476
 20
1117.462657822518
 30
0.0
 40
17.5
 41
0.0
 71
     5
 72
     1
  1
\A1;%%c360
 73
     1
 44
1.0
  0
POINT
  5
A2A
330
848
100
AcDbEntity
  8
DEFPOINTS
 62
     0
100
AcDbPoint
 10
397.1191930699476
 20
1186.212657822518
 30
0.0
  0
POINT
  5
A2B
330
848
100
AcDbEntity
  8
DEFPOINTS
 62
     0
100
AcDbPoint
 10
757.1191930699476
 20
1186.212657822518
 30
0.0
  0
POINT
  5
A2C
330
848
100
AcDbEntity
  8
DEFPOINTS
 62
     0
100
AcDbPoint
 10
757.1191930699476
 20
1101.212657822518
 30
0.0
  0
ENDBLK
  5
853
330
848
100
AcDbEntity
  8
0
100
AcDbBlockEnd
  0
BLOCK
  5
85E
330
854
100
AcDbEntity
  8
0
100
AcDbBlockBegin
  2
*D3
 70
     1
 10
0.0
 20
0.0
 30
0.0
  3
*D3
  1

  0
LINE
  5
A07
330
854
100
AcDbEntity
  8
BEM
 62
     0
370
    -2
100
AcDbLine
 10
427.1191930699476
 20
1186.212657822518
 30
0.0
 11
427.1191930699476
 21
1136.212657822518
 31
0.0
  0
LINE
  5
A08
330
854
100
AcDbEntity
  8
BEM
 62
     0
370
    -2
100
AcDbLine
 10
727.1191930699476
 20
1186.212657822518
 30
0.0
 11
727.1191930699476
 21
1136.212657822518
 31
0.0
  0
LINE
  5
A09
330
854
100
AcDbEntity
  8
BEM
 62
     0
370
    -2
100
AcDbLine
 10
444.6191930699476
 20
1141.212657822518
 30
0.0
 11
709.6191930699476
 21
1141.212657822518
 31
0.0
  0
SOLID
  5
A0A
330
854
100
AcDbEntity
  8
BEM
 62
     0
100
AcDbTrace
 10
444.6191930699476
 20
1144.129324489185
 30
0.0
 11
444.6191930699476
 21
1138.295991155851
 31
0.0
 12
427.1191930699476
 22
1141.212657822518
 32
0.0
 13
427.1191930699476
 23
1141.212657822518
 33
0.0
  0
SOLID
  5
A0B
330
854
100
AcDbEntity
  8
BEM
 62
     0
100
AcDbTrace
 10
709.6191930699476
 20
1144.129324489185
 30
0.0
 11
709.6191930699476
 21
1138.295991155851
 31
0.0
 12
727.1191930699476
 22
1141.212657822518
 32
0.0
 13
727.1191930699476
 23
1141.212657822518
 33
0.0
  0
MTEXT
  5
A0C
330
854
100
AcDbEntity
  8
BEM
 62
     1
100
AcDbMText
 10
577.1191930699476
 20
1157.462657822518
 30
0.0
 40
17.5
 41
0.0
 71
     5
 72
     1
  1
\A1;%%c300
 73
     1
 44
1.0
  0
POINT
  5
A0D
330
854
100
AcDbEntity
  8
DEFPOINTS
 62
     0
100
AcDbPoint
 10
427.1191930699476
 20
1191.212657822518
 30
0.0
  0
POINT
  5
A0E
330
854
100
AcDbEntity
  8
DEFPOINTS
 62
     0
100
AcDbPoint
 10
727.1191930699476
 20
1191.212657822518
 30
0.0
  0
POINT
  5
A0F
330
854
100
AcDbEntity
  8
DEFPOINTS
 62
     0
100
AcDbPoint
 10
727.1191930699476
 20
1141.212657822518
 30
0.0
  0
ENDBLK
  5
85F
330
854
100
AcDbEntity
  8
0
100
AcDbBlockEnd
  0
BLOCK
  5
86C
330
860
100
AcDbEntity
  8
0
100
AcDbBlockBegin
  2
*D4
 70
     1
 10
0.0
 20
0.0
 30
0.0
  3
*D4
  1

  0
LINE
  5
9EA
330
860
100
AcDbEntity
  8
BEM
 62
     0
370
    -2
100
AcDbLine
 10
749.1191930699476
 20
1198.212657822518
 30
0.0
 11
749.1191930699476
 21
1227.24807368873
 31
0.0
  0
LINE
  5
9EB
330
860
100
AcDbEntity
  8
BEM
 62
     0
370
    -2
100
AcDbLine
 10
765.1191930699476
 20
1198.212657822518
 30
0.0
 11
765.1191930699476
 21
1227.24807368873
 31
0.0
  0
LINE
  5
9EC
330
860
100
AcDbEntity
  8
BEM
 62
     0
370
    -2
100
AcDbLine
 10
731.6191930699476
 20
1222.24807368873
 30
0.0
 11
714.1191930699476
 21
1222.24807368873
 31
0.0
  0
LINE
  5
9ED
330
860
100
AcDbEntity
  8
BEM
 62
     0
370
    -2
100
AcDbLine
 10
782.6191930699476
 20
1222.24807368873
 30
0.0
 11
851.1191930699476
 21
1222.24807368873
 31
0.0
  0
LINE
  5
9EE
330
860
100
AcDbEntity
  8
BEM
 62
     0
370
    -2
100
AcDbLine
 10
749.1191930699476
 20
1222.24807368873
 30
0.0
 11
765.1191930699476
 21
1222.24807368873
 31
0.0
  0
SOLID
  5
9EF
330
860
100
AcDbEntity
  8
BEM
 62
     0
100
AcDbTrace
 10
731.6191930699476
 20
1225.164740355397
 30
0.0
 11
731.6191930699476
 21
1219.331407022063
 31
0.0
 12
749.1191930699476
 22
1222.24807368873
 32
0.0
 13
749.1191930699476
 23
1222.24807368873
 33
0.0
  0
SOLID
  5
9F0
330
860
100
AcDbEntity
  8
BEM
 62
     0
100
AcDbTrace
 10
782.6191930699476
 20
1225.164740355397
 30
0.0
 11
782.6191930699476
 21
1219.331407022063
 31
0.0
 12
765.1191930699476
 22
1222.24807368873
 32
0.0
 13
765.1191930699476
 23
1222.24807368873
 33
0.0
  0
MTEXT
  5
9F1
330
860
100
AcDbEntity
  8
BEM
 62
     1
100
AcDbMText
 10
827.6191930699477
 20
1238.49807368873
 30
0.0
 40
17.5
 41
0.0
 71
     5
 72
     1
  1
\A1;%%c16
 73
     1
 44
1.0
  0
POINT
  5
9F2
330
860
100
AcDbEntity
  8
DEFPOINTS
 62
     0
100
AcDbPoint
 10
749.1191930699476
 20
1193.212657822518
 30
0.0
  0
POINT
  5
9F3
330
860
100
AcDbEntity
  8
DEFPOINTS
 62
     0
100
AcDbPoint
 10
765.1191930699476
 20
1193.212657822518
 30
0.0
  0
POINT
  5
9F4
330
860
100
AcDbEntity
  8
DEFPOINTS
 62
     0
100
AcDbPoint
 10
765.1191930699476
 20
1222.24807368873
 30
0.0
  0
ENDBLK
  5
86D
330
860
100
AcDbEntity
  8
0
100
AcDbBlockEnd
  0
BLOCK
  5
87A
330
86E
100
AcDbEntity
  8
0
100
AcDbBlockBegin
  2
*D5
 70
     1
 10
0.0
 20
0.0
 30
0.0
  3
*D5
  1

  0
LINE
  5
A10
330
86E
100
AcDbEntity
  8
BEM
 62
     0
370
    -2
100
AcDbLine
 10
357.1191930699476
 20
1191.212657822518
 30
0.0
 11
320.2108597877452
 21
1191.212657822518
 31
0.0
  0
LINE
  5
A11
330
86E
100
AcDbEntity
  8
BEM
 62
     0
370
    -2
100
AcDbLine
 10
357.1191930699476
 20
1193.212657822518
 30
0.0
 11
320.2108597877452
 21
1193.212657822518
 31
0.0
  0
LINE
  5
A12
330
86E
100
AcDbEntity
  8
BEM
 62
     0
370
    -2
100
AcDbLine
 10
325.2108597877452
 20
1173.712657822518
 30
0.0
 11
325.2108597877452
 21
1156.212657822518
 31
0.0
  0
LINE
  5
A13
330
86E
100
AcDbEntity
  8
BEM
 62
     0
370
    -2
100
AcDbLine
 10
325.2108597877452
 20
1210.712657822518
 30
0.0
 11
325.2108597877452
 21
1252.545991155851
 31
0.0
  0
LINE
  5
A14
330
86E
100
AcDbEntity
  8
BEM
 62
     0
370
    -2
100
AcDbLine
 10
325.2108597877452
 20
1191.212657822518
 30
0.0
 11
325.2108597877452
 21
1193.212657822518
 31
0.0
  0
SOLID
  5
A15
330
86E
100
AcDbEntity
  8
BEM
 62
     0
100
AcDbTrace
 10
322.2941931210785
 20
1173.712657822518
 30
0.0
 11
328.1275264544119
 21
1173.712657822518
 31
0.0
 12
325.2108597877452
 22
1191.212657822518
 32
0.0
 13
325.2108597877452
 23
1191.212657822518
 33
0.0
  0
SOLID
  5
A16
330
86E
100
AcDbEntity
  8
BEM
 62
     0
100
AcDbTrace
 10
322.2941931210785
 20
1210.712657822518
 30
0.0
 11
328.1275264544119
 21
1210.712657822518
 31
0.0
 12
325.2108597877452
 22
1193.212657822518
 32
0.0
 13
325.2108597877452
 23
1193.212657822518
 33
0.0
  0
MTEXT
  5
A17
330
86E
100
AcDbEntity
  8
BEM
 62
     1
100
AcDbMText
 10
308.960859787745
 20
1240.379324489184
 30
0.0
 40
17.5
 41
0.0
 71
     5
 72
     1
  1
\A1;2
 11
0.0000000000000001
 21
1.0
 31
0.0
 73
     1
 44
1.0
  0
POINT
  5
A18
330
86E
100
AcDbEntity
  8
DEFPOINTS
 62
     0
100
AcDbPoint
 10
362.1191930699477
 20
1191.212657822518
 30
0.0
  0
POINT
  5
A19
330
86E
100
AcDbEntity
  8
DEFPOINTS
 62
     0
100
AcDbPoint
 10
362.1191930699477
 20
1193.212657822518
 30
0.0
  0
POINT
  5
A1A
330
86E
100
AcDbEntity
  8
DEFPOINTS
 62
     0
100
AcDbPoint
 10
325.2108597877452
 20
1193.212657822518
 30
0.0
  0
ENDBLK
  5
87B
330
86E
100
AcDbEntity
  8
0
100
AcDbBlockEnd
  0
BLOCK
  5
9BF
330
9B3
100
AcDbEntity
  8
0
100
AcDbBlockBegin
  2
*D6
 70
     1
 10
0.0
 20
0.0
 30
0.0
  3
*D6
  1

  0
LINE
  5
9C2
330
9B3
100
AcDbEntity
  8
BEM
 62
     0
370
    -2
100
AcDbLine
 10
405.6461631206287
 20
803.5845877696022
 30
0.0
 11
328.2848725033763
 21
848.2491497323293
 31
0.0
  0
LINE
  5
9C3
330
9B3
100
AcDbEntity
  8
BEM
 62
     0
370
    -2
100
AcDbLine
 10
347.1191930699476
 20
704.5845877696024
 30
0.0
 11
289.7900691444929
 21
704.5845877696024
 31
0.0
  0
ARC
  5
9C4
330
9B3
100
AcDbEntity
  8
BEM
 62
     0
370
    -2
100
AcDbCircle
 10
577.1191930699483
 20
704.5845877696024
 30
0.0
 40
282.3291239254554
100
AcDbArc
 50
153.5520130244447
 51
176.4479869755555
  0
SOLID
  5
9C5
330
9B3
100
AcDbEntity
  8
BEM
 62
     0
100
AcDbTrace
 10
321.7690123201415
 20
831.709153077946
 30
0.0
 11
326.9087943270851
 21
828.950454345051
 31
0.0
 12
332.6149995222985
 22
845.7491497323292
 32
0.0
 13
332.6149995222985
 23
845.7491497323292
 33
0.0
  0
SOLID
  5
9C6
330
9B3
100
AcDbEntity
  8
BEM
 62
     0
100
AcDbTrace
 10
298.2476981798705
 20
721.9857873230286
 30
0.0
 11
292.4171670254956
 21
722.1665751424254
 31
0.0
 12
294.7900691444929
 22
704.5845877696024
 32
0.0
 13
294.7900691444929
 23
704.5845877696024
 33
0.0
  0
MTEXT
  5
9C7
330
9B3
100
AcDbEntity
  8
BEM
 62
     1
100
AcDbMText
 10
288.7139060795865
 20
781.8625515115355
 30
0.0
 40
17.5
 41
0.0
 71
     5
 72
     1
  1
\A1;30°
 11
0.2588190451025199
 21
0.9659258262890684
 31
0.0
 73
     1
 44
1.0
  0
POINT
  5
9C8
330
9B3
100
AcDbEntity
  8
DEFPOINTS
 62
     0
100
AcDbPoint
 10
311.8165986842474
 20
801.1468351995965
 30
0.0
  0
POINT
  5
9C9
330
9B3
100
AcDbEntity
  8
DEFPOINTS
 62
     0
100
AcDbPoint
 10
352.1191930699477
 20
704.5845877696024
 30
0.0
  0
POINT
  5
9CA
330
9B3
100
AcDbEntity
  8
DEFPOINTS
 62
     0
100
AcDbPoint
 10
409.9762901395509
 20
801.0845877696022
 30
0.0
  0
POINT
  5
9CB
330
9B3
100
AcDbEntity
  8
DEFPOINTS
 62
     0
100
AcDbPoint
 10
432.4929506379463
 20
788.0845877696023
 30
0.0
  0
POINT
  5
9CC
330
9B3
100
AcDbEntity
  8
DEFPOINTS
 62
     0
100
AcDbPoint
 10
802.1191930699474
 20
704.5845877696024
 30
0.0
  0
ENDBLK
  5
9C0
330
9B3
100
AcDbEntity
  8
0
100
AcDbBlockEnd
  0
BLOCK
  5
9DB
330
9CF
100
AcDbEntity
  8
0
100
AcDbBlockBegin
  2
*D7
 70
     1
 10
0.0
 20
0.0
 30
0.0
  3
*D7
  1

  0
LINE
  5
9DE
330
9CF
100
AcDbEntity
  8
BEM
 62
     0
370
    -2
100
AcDbLine
 10
478.1191930699476
 20
876.0576177189214
 30
0.0
 11
433.5046402331308
 21
953.3322899892532
 31
0.0
  0
LINE
  5
9DF
330
9CF
100
AcDbEntity
  8
BEM
 62
     0
370
    -2
100
AcDbLine
 10
405.6461631206288
 20
803.5845877696024
 30
0.0
 11
328.3714908502972
 21
848.1991406064194
 31
0.0
  0
ARC
  5
9E0
330
9CF
100
AcDbEntity
  8
BEM
 62
     0
370
    -2
100
AcDbCircle
 10
577.1191930699496
 20
704.584587769601
 30
0.0
 40
282.2291056736349
100
AcDbArc
 50
123.5532722142769
 51
146.4467277857231
  0
SOLID
  5
9E1
330
9CF
100
AcDbEntity
  8
BEM
 62
     0
100
AcDbTrace
 10
419.5918154793076
 20
942.265982446864
 30
0.0
 11
422.6637023925306
 21
937.3070220144599
 31
0.0
 12
436.0046402331307
 22
949.002162970331
 32
0.0
 13
436.0046402331307
 23
949.002162970331
 33
0.0
  0
SOLID
  5
9E2
330
9CF
100
AcDbEntity
  8
BEM
 62
     0
100
AcDbTrace
 10
344.3967588250903
 20
859.0400784470196
 30
0.0
 11
339.4377983926864
 21
862.1119653602425
 31
0.0
 12
332.7016178692194
 22
845.6991406064194
 32
0.0
 13
332.7016178692194
 23
845.6991406064194
 33
0.0
  0
MTEXT
  5
9E3
330
9CF
100
AcDbEntity
  8
BEM
 62
     1
100
AcDbMText
 10
366.062593405626
 20
915.6411874339241
 30
0.0
 40
17.5
 41
0.0
 71
     5
 72
     1
  1
\A1;30°
 11
0.7071067811865446
 21
0.7071067811865505
 31
0.0
 73
     1
 44
1.0
  0
POINT
  5
9E4
330
9CF
100
AcDbEntity
  8
DEFPOINTS
 62
     0
100
AcDbPoint
 10
395.7058208500236
 20
920.7846258573274
 30
0.0
  0
POINT
  5
9E5
330
9CF
100
AcDbEntity
  8
DEFPOINTS
 62
     0
100
AcDbPoint
 10
409.9762901395511
 20
801.0845877696025
 30
0.0
  0
POINT
  5
9E6
330
9CF
100
AcDbEntity
  8
DEFPOINTS
 62
     0
100
AcDbPoint
 10
480.6191930699476
 20
871.7274906999991
 30
0.0
  0
POINT
  5
9E7
330
9CF
100
AcDbEntity
  8
DEFPOINTS
 62
     0
100
AcDbPoint
 10
493.6191930699476
 20
849.210830201604
 30
0.0
  0
POINT
  5
9E8
330
9CF
100
AcDbEntity
  8
DEFPOINTS
 62
     0
100
AcDbPoint
 10
432.4929506379464
 20
788.0845877696025
 30
0.0
  0
ENDBLK
  5
9DC
330
9CF
100
AcDbEntity
  8
0
100
AcDbBlockEnd
  0
ENDSEC
  0
SECTION
  2
ENTITIES
  0
TEXT
  5
16A
330
81C
100
AcDbEntity
  8
VOLL
100
AcDbText
 10
78.07675471698113
 20
31.02594776470585
 30
0.0
 40
1.8
  1

  7
GREEKS
100
AcDbText
  0
LINE
  5
177
330
81C
100
AcDbEntity
  8
MITTEL
100
AcDbLine
 10
577.1191930699476
 20
1198.212657822518
 30
0.0
 11
577.1191930699476
 21
1186.212657822518
 31
0.0
  0
LINE
  5
178
330
81C
100
AcDbEntity
  8
STEMPEL
100
AcDbLine
 10
362.1191930699477
 20
1193.212657822518
 30
0.0
 11
792.1191930699476
 21
1193.212657822518
 31
0.0
  0
LINE
  5
17A
330
81C
100
AcDbEntity
  8
STEMPEL
100
AcDbLine
 10
362.1191930699477
 20
1191.212657822518
 30
0.0
 11
362.1191930699477
 21
1193.212657822518
 31
0.0
  0
LINE
  5
17B
330
81C
100
AcDbEntity
  8
MITTEL
100
AcDbLine
 10
397.1191930699476
 20
1186.212657822518
 30
0.0
 11
397.1191930699476
 21
1198.212657822518
 31
0.0
  0
LINE
  5
17C
330
81C
100
AcDbEntity
  8
STEMPEL
100
AcDbLine
 10
427.1191930699476
 20
1191.212657822518
 30
0.0
 11
427.1191930699476
 21
1193.212657822518
 31
0.0
  0
LINE
  5
17D
330
81C
100
AcDbEntity
  8
STEMPEL
100
AcDbLine
 10
727.1191930699476
 20
1191.212657822518
 30
0.0
 11
727.1191930699476
 21
1193.212657822518
 31
0.0
  0
LINE
  5
17E
330
81C
100
AcDbEntity
  8
MITTEL
100
AcDbLine
 10
757.1191930699476
 20
1186.212657822518
 30
0.0
 11
757.1191930699476
 21
1198.212657822518
 31
0.0
  0
LINE
  5
17F
330
81C
100
AcDbEntity
  8
STEMPEL
100
AcDbLine
 10
792.1191930699476
 20
1191.212657822518
 30
0.0
 11
792.1191930699476
 21
1193.212657822518
 31
0.0
  0
LINE
  5
180
330
81C
100
AcDbEntity
  8
STEMPEL
100
AcDbLine
 10
362.1191930699477
 20
1191.212657822518
 30
0.0
 11
792.1191930699476
 21
1191.212657822518
 31
0.0
  0
DIMENSION
  5
18C
330
81C
100
AcDbEntity
  8
BEM
100
AcDbDimension
  2
*D5
 10
325.2108597877452
 20
1193.212657822518
 30
0.0
 11
325.210859787745
 21
1240.379324489184
 31
0.0
 70
   160
 71
     5
 42
2.0
  3
STANDARD
100
AcDbAlignedDimension
 13
362.1191930699477
 23
1191.212657822518
 33
0.0
 14
362.1191930699477
 24
1193.212657822518
 34
0.0
 50
90.0
100
AcDbRotatedDimension
1001
ACAD
1000
DSTYLE
1002
{
1070
    40
1040
5.0
1070
    41
1040
3.5
1070
    42
1040
1.0
1070
    43
1040
8.0
1070
    44
1040
1.0
1070
    73
1070
     0
1070
    74
1070
     0
1070
    77
1070
     1
1070
    78
1070
     8
1070
    79
1070
     2
1070
   140
1040
3.5
1070
   141
1040
1.5
1070
   146
1040
0.5
1070
   147
1040
1.5
1070
   172
1070
     1
1070
   178
1070
     1
1070
   179
1070
     2
1070
   279
1070
     0
1002
}
  0
LINE
  5
18F
330
81C
100
AcDbEntity
  8
STEMPEL
100
AcDbLine
 10
765.1191930699476
 20
1191.212657822517
 30
0.0
 11
765.1191930699476
 21
1193.212657822518
 31
0.0
  0
LINE
  5
190
330
81C
100
AcDbEntity
  8
STEMPEL
100
AcDbLine
 10
749.1191930699476
 20
1191.212657822517
 30
0.0
 11
749.1191930699476
 21
1193.212657822518
 31
0.0
  0
DIMENSION
  5
191
330
81C
100
AcDbEntity
  8
BEM
100
AcDbDimension
  2
*D3
 10
727.1191930699476
 20
1141.212657822518
 30
0.0
 11
577.1191930699476
 21
1157.462657822518
 31
0.0
 70
    32
  1
%%c<>
 71
     5
 42
300.0
  3
STANDARD
100
AcDbAlignedDimension
 13
427.1191930699476
 23
1191.212657822518
 33
0.0
 14
727.1191930699476
 24
1191.212657822518
 34
0.0
100
AcDbRotatedDimension
1001
ACAD
1000
DSTYLE
1002
{
1070
    40
1040
5.0
1070
    41
1040
3.5
1070
    42
1040
1.0
1070
    43
1040
8.0
1070
    44
1040
1.0
1070
    73
1070
     0
1070
    74
1070
     0
1070
    77
1070
     1
1070
    78
1070
     8
1070
    79
1070
     2
1070
   140
1040
3.5
1070
   141
1040
1.5
1070
   146
1040
0.5
1070
   147
1040
1.5
1070
   172
1070
     1
1070
   178
1070
     1
1070
   179
1070
     2
1070
   279
1070
     0
1002
}
  0
DIMENSION
  5
192
330
81C
100
AcDbEntity
  8
BEM
100
AcDbDimension
  2
*D2
 10
757.1191930699476
 20
1101.212657822518
 30
0.0
 11
577.1191930699476
 21
1117.462657822518
 31
0.0
 70
    32
  1
%%c<>
 71
     5
 42
360.0
  3
STANDARD
100
AcDbAlignedDimension
 13
397.1191930699476
 23
1186.212657822518
 33
0.0
 14
757.1191930699476
 24
1186.212657822518
 34
0.0
100
AcDbRotatedDimension
1001
ACAD
1000
DSTYLE
1002
{
1070
    40
1040
5.0
1070
    41
1040
3.5
1070
    42
1040
1.0
1070
    43
1040
8.0
1070
    44
1040
1.0
1070
    73
1070
     0
1070
    74
1070
     0
1070
    77
1070
     1
1070
    78
1070
     8
1070
    79
1070
     2
1070
   140
1040
3.5
1070
   141
1040
1.5
1070
   146
1040
0.5
1070
   147
1040
1.5
1070
   172
1070
     1
1070
   178
1070
     1
1070
   179
1070
     2
1070
   279
1070
     0
1002
}
  0
DIMENSION
  5
193
330
81C
100
AcDbEntity
  8
BEM
100
AcDbDimension
  2
*D1
 10
792.1191930699476
 20
1061.212657822518
 30
0.0
 11
577.1191930699476
 21
1077.462657822518
 31
0.0
 70
    32
  1
%%c<>
 71
     5
 42
430.0
  3
STANDARD
100
AcDbAlignedDimension
 13
362.1191930699477
 23
1191.212657822518
 33
0.0
 14
792.1191930699476
 24
1191.212657822518
 34
0.0
100
AcDbRotatedDimension
1001
ACAD
1000
DSTYLE
1002
{
1070
    40
1040
5.0
1070
    41
1040
3.5
1070
    42
1040
1.0
1070
    43
1040
8.0
1070
    44
1040
1.0
1070
    73
1070
     0
1070
    74
1070
     0
1070
    77
1070
     1
1070
    78
1070
     8
1070
    79
1070
     2
1070
   140
1040
3.5
1070
   141
1040
1.5
1070
   146
1040
0.5
1070
   147
1040
1.5
1070
   172
1070
     1
1070
   178
1070
     1
1070
   179
1070
     2
1070
   279
1070
     0
1002
}
  0
DIMENSION
  5
194
330
81C
100
AcDbEntity
  8
BEM
100
AcDbDimension
  2
*D4
 10
765.1191930699476
 20
1222.24807368873
 30
0.0
 11
827.6191930699477
 21
1222.24807368873
 31
0.0
 70
   160
  1
%%c<>
 71
     5
 42
16.0
  3
STANDARD
100
AcDbAlignedDimension
 13
749.1191930699476
 23
1193.212657822518
 33
0.0
 14
765.1191930699476
 24
1193.212657822518
 34
0.0
100
AcDbRotatedDimension
1001
ACAD
1000
DSTYLE
1002
{
1070
    40
1040
5.0
1070
    41
1040
3.5
1070
    42
1040
1.0
1070
    43
1040
8.0
1070
    44
1040
1.0
1070
    73
1070
     0
1070
    74
1070
     0
1070
    77
1070
     1
1070
    78
1070
     8
1070
    79
1070
     2
1070
   140
1040
3.5
1070
   141
1040
1.5
1070
   146
1040
0.5
1070
   147
1040
1.5
1070
   172
1070
     1
1070
   178
1070
     1
1070
   179
1070
     2
1070
   279
1070
     0
1002
}
  0
TEXT
  5
196
330
81C
100
AcDbEntity
  8
TEXT35
100
AcDbText
 10
454.5090683797993
 20
298.7273049968992
 30
0.0
 40
17.5
  1
Werkstoff: Semperit P9540
 41
0.8
100
AcDbText
  0
LINE
  5
20D
330
81C
100
AcDbEntity
  8
STEMPEL
100
AcDbLine
 10
405.1191930699476
 20
1191.212657822517
 30
0.0
 11
405.1191930699476
 21
1193.212657822518
 31
0.0
  0
LINE
  5
20E
330
81C
100
AcDbEntity
  8
STEMPEL
100
AcDbLine
 10
389.1191930699477
 20
1191.212657822517
 30
0.0
 11
389.1191930699477
 21
1193.212657822518
 31
0.0
  0
LINE
  5
364
330
81C
100
AcDbEntity
  8
STEMPEL
100
AcDbLine
 10
1025.0
 20
275.0000000000001
 30
0.0
 11
99.99999999999992
 21
275.0
 31
0.0
  0
LINE
  5
365
330
81C
100
AcDbEntity
  8
STEMPEL
100
AcDbLine
 10
340.0000000000003
 20
274.9999999999999
 30
0.0
 11
340.0
 21
24.99999999999993
 31
0.0
  0
LINE
  5
366
330
81C
100
AcDbEntity
  8
STEMPEL
100
AcDbLine
 10
550.0
 20
275.0000000000001
 30
0.0
 11
550.0
 21
24.99999999999993
 31
0.0
  0
LINE
  5
367
330
81C
100
AcDbEntity
  8
STEMPEL
100
AcDbLine
 10
830.0
 20
274.9999999999994
 30
0.0
 11
830.0
 21
100.0
 31
0.0
  0
LINE
  5
368
330
81C
100
AcDbEntity
  8
STEMPEL
100
AcDbLine
 10
339.9999999999997
 20
74.99999999999992
 30
0.0
 11
99.99999999999992
 21
74.99999999999992
 31
0.0
  0
LINE
  5
369
330
81C
100
AcDbEntity
  8
STEMPEL
100
AcDbLine
 10
1025.0
 20
100.0
 30
0.0
 11
340.0000000000003
 21
99.99999999999992
 31
0.0
  0
LINE
  5
36A
330
81C
100
AcDbEntity
  8
STEMPEL
100
AcDbLine
 10
1025.0
 20
200.0
 30
0.0
 11
340.0000000000003
 21
199.9999999999998
 31
0.0
  0
LINE
  5
36B
330
81C
100
AcDbEntity
  8
VOLL
100
AcDbLine
 10
135.0000000000002
 20
275.0000000000001
 30
0.0
 11
134.9999999999999
 21
24.99999999999993
 31
0.0
  0
LINE
  5
36C
330
81C
100
AcDbEntity
  8
VOLL
100
AcDbLine
 10
235.0000000000003
 20
274.9999999999999
 30
0.0
 11
235.0
 21
24.99999999999993
 31
0.0
  0
LINE
  5
36D
330
81C
100
AcDbEntity
  8
VOLL
100
AcDbLine
 10
285.0000000000003
 20
274.9999999999999
 30
0.0
 11
285.0
 21
24.99999999999993
 31
0.0
  0
LINE
  5
36E
330
81C
100
AcDbEntity
  8
VOLL
100
AcDbLine
 10
385.0000000000003
 20
199.9999999999998
 30
0.0
 11
385.0000000000003
 21
99.99999999999992
 31
0.0
  0
LINE
  5
36F
330
81C
100
AcDbEntity
  8
VOLL
100
AcDbLine
 10
450.0000000000002
 20
274.9999999999996
 30
0.0
 11
450.0
 21
99.99999999999992
 31
0.0
  0
LINE
  5
370
330
81C
100
AcDbEntity
  8
HILF
100
AcDbLine
 10
100.0000000000002
 20
250.0000000000001
 30
0.0
 11
340.0000000000003
 21
250.0000000000001
 31
0.0
  0
LINE
  5
371
330
81C
100
AcDbEntity
  8
HILF
100
AcDbLine
 10
100.0000000000002
 20
225.0000000000001
 30
0.0
 11
340.0000000000003
 21
225.0000000000001
 31
0.0
  0
LINE
  5
372
330
81C
100
AcDbEntity
  8
HILF
100
AcDbLine
 10
100.0000000000002
 20
199.9999999999998
 30
0.0
 11
340.0000000000003
 21
199.9999999999998
 31
0.0
  0
LINE
  5
373
330
81C
100
AcDbEntity
  8
HILF
100
AcDbLine
 10
100.0000000000002
 20
174.9999999999998
 30
0.0
 11
340.0000000000003
 21
174.9999999999998
 31
0.0
  0
LINE
  5
374
330
81C
100
AcDbEntity
  8
HILF
100
AcDbLine
 10
100.0000000000002
 20
149.9999999999999
 30
0.0
 11
340.0000000000003
 21
149.9999999999999
 31
0.0
  0
LINE
  5
375
330
81C
100
AcDbEntity
  8
HILF
100
AcDbLine
 10
100.0000000000002
 20
124.9999999999999
 30
0.0
 11
340.0000000000003
 21
124.9999999999999
 31
0.0
  0
LINE
  5
376
330
81C
100
AcDbEntity
  8
HILF
100
AcDbLine
 10
100.0000000000002
 20
99.99999999999992
 30
0.0
 11
340.0000000000003
 21
99.99999999999992
 31
0.0
  0
LINE
  5
377
330
81C
100
AcDbEntity
  8
HILF
100
AcDbLine
 10
340.0000000000003
 20
174.9999999999998
 30
0.0
 11
550.0
 21
174.9999999999998
 31
0.0
  0
LINE
  5
378
330
81C
100
AcDbEntity
  8
HILF
100
AcDbLine
 10
340.0000000000003
 20
149.9999999999999
 30
0.0
 11
550.0
 21
149.9999999999999
 31
0.0
  0
LINE
  5
379
330
81C
100
AcDbEntity
  8
HILF
100
AcDbLine
 10
340.0000000000003
 20
124.9999999999999
 30
0.0
 11
550.0
 21
124.9999999999999
 31
0.0
  0
LINE
  5
37A
330
81C
100
AcDbEntity
  8
HILF
100
AcDbLine
 10
561.9342002742369
 20
210.0939561891034
 30
0.0
 11
812.0884791390777
 21
210.0939561891034
 31
0.0
  0
LINE
  5
37B
330
81C
100
AcDbEntity
  8
HILF
100
AcDbLine
 10
561.9342002742369
 20
174.9999999999998
 30
0.0
 11
812.0884791390775
 21
174.9999999999998
 31
0.0
  0
LINE
  5
37C
330
81C
100
AcDbEntity
  8
HILF
100
AcDbLine
 10
561.9342002742369
 20
149.9999999999999
 30
0.0
 11
812.0884791390775
 21
149.9999999999999
 31
0.0
  0
LINE
  5
37D
330
81C
100
AcDbEntity
  8
HILF
100
AcDbLine
 10
561.9342002742369
 20
124.9999999999999
 30
0.0
 11
812.0884791390775
 21
124.9999999999999
 31
0.0
  0
LINE
  5
37E
330
81C
100
AcDbEntity
  8
VOLL
100
AcDbLine
 10
830.0
 20
150.0
 30
0.0
 11
1025.0
 21
150.0
 31
0.0
  0
LINE
  5
37F
330
81C
100
AcDbEntity
  8
HILF
100
AcDbLine
 10
841.8096540742482
 20
209.4495909238957
 30
0.0
 11
1012.147209831682
 21
209.4495909238957
 31
0.0
  0
LINE
  5
380
330
81C
100
AcDbEntity
  8
HILF
100
AcDbLine
 10
558.7274248224712
 20
37.23495645070784
 30
0.0
 11
1012.147209831682
 21
37.23495645070784
 31
0.0
  0
TEXT
  5
381
330
81C
100
AcDbEntity
  8
TEXT25
100
AcDbText
 10
158.1428571428571
 20
49.99999999999996
 30
0.0
 40
10.0
  1
Änderung
 41
0.8
 72
     1
 11
185.0
 21
49.99999999999996
 31
0.0
100
AcDbText
  0
TEXT
  5
382
330
81C
100
AcDbEntity
  8
TEXT25
100
AcDbText
 10
562.1948509522525
 20
256.3723320029449
 30
0.0
 40
12.5
  1
Benennung
 41
0.8
100
AcDbText
  0
TEXT
  5
383
330
81C
100
AcDbEntity
  8
TEXT25
100
AcDbText
 10
840.4468873940851
 20
255.7830086342841
 30
0.0
 40
12.5
  1
Zeichnungs Nr.
 41
0.8
100
AcDbText
  0
TEXT
  5
384
330
81C
100
AcDbEntity
  8
TEXT25
100
AcDbText
 10
561.8555959778399
 20
77.11401425482641
 30
0.0
 40
12.5
  1
Bauvorhaben
 41
0.8
100
AcDbText
  0
TEXT
  5
385
330
81C
100
AcDbEntity
  8
TEXT25
100
AcDbText
 10
841.8096540742482
 20
182.9529559274992
 30
0.0
 40
12.5
  1
Ersatz für:
 41
0.8
100
AcDbText
  0
TEXT
  5
386
330
81C
100
AcDbEntity
  8
TEXT25
100
AcDbText
 10
120.6660276761439
 20
34.13664615067979
 30
0.0
 40
10.0
  1
Index
 50
90.0
 41
0.8
100
AcDbText
  0
TEXT
  5
387
330
81C
100
AcDbEntity
  8
TEXT25
100
AcDbText
 10
250.6666666666667
 20
49.99999999999996
 30
0.0
 40
10.0
  1
Tag
 41
0.8
 72
     1
 11
260.0
 21
49.99999999999996
 31
0.0
100
AcDbText
  0
TEXT
  5
388
330
81C
100
AcDbEntity
  8
TEXT25
100
AcDbText
 10
296.6904761904763
 20
49.99999999999996
 30
0.0
 40
10.0
  1
Name
 41
0.8
 72
     1
 11
312.5
 21
49.99999999999996
 31
0.0
100
AcDbText
  0
TEXT
  5
389
330
81C
100
AcDbEntity
  8
TEXT25
100
AcDbText
 10
343.9590317919039
 20
159.0747592404491
 30
0.0
 40
10.0
  1
Gez.
 41
0.8
100
AcDbText
  0
TEXT
  5
38A
330
81C
100
AcDbEntity
  8
TEXT25
100
AcDbText
 10
343.8787716429181
 20
134.2231572857094
 30
0.0
 40
10.0
  1
Gepr.
 41
0.8
100
AcDbText
  0
TEXT
  5
38B
330
81C
100
AcDbEntity
  8
TEXT25
100
AcDbText
 10
344.0016943468259
 20
108.8236597412452
 30
0.0
 40
10.0
  1
Norm.
 41
0.8
100
AcDbText
  0
LINE
  5
38C
330
81C
100
AcDbEntity
  8
STEMPEL
100
AcDbLine
 10
124.9999999999997
 20
25.0
 30
0.0
 11
1025.0
 21
25.0
 31
0.0
  0
LINE
  5
38D
330
81C
100
AcDbEntity
  8
STEMPEL
100
AcDbLine
 10
1025.0
 20
275.0000000000001
 30
0.0
 11
1025.0
 21
25.0
 31
0.0
  0
TEXT
  5
38E
330
81C
100
AcDbEntity
  8
TEXT25
100
AcDbText
 10
843.1002153742515
 20
130.185404446965
 30
0.0
 40
12.5
  1
ersetzt durch:
 41
0.8
100
AcDbText
  0
LINE
  5
38F
330
81C
100
AcDbEntity
  8
STEMPEL
100
AcDbLine
 10
1025.0
 20
25.0
 30
0.0
 11
99.99999999999971
 21
25.0
 31
0.0
  0
LINE
  5
390
330
81C
100
AcDbEntity
  8
STEMPEL
100
AcDbLine
 10
1025.0
 20
275.0000000000001
 30
0.0
 11
1025.0
 21
1460.0
 31
0.0
  0
LINE
  5
391
330
81C
100
AcDbEntity
  8
STEMPEL
100
AcDbLine
 10
100.0
 20
25.0
 30
0.0
 11
99.99999999999971
 21
1460.0
 31
0.0
  0
LINE
  5
392
330
81C
100
AcDbEntity
  8
STEMPEL
100
AcDbLine
 10
1025.0
 20
1460.0
 30
0.0
 11
99.99999999999971
 21
1460.0
 31
0.0
  0
LINE
  5
393
330
81C
100
AcDbEntity
  8
HILF
100
AcDbLine
 10
0.0
 20
0.0
 30
0.0
 11
-0.0000000000002842
 21
1485.0
 31
0.0
  0
LINE
  5
394
330
81C
100
AcDbEntity
  8
HILF
100
AcDbLine
 10
1050.0
 20
1485.0
 30
0.0
 11
0.0
 21
1485.0
 31
0.0
  0
LINE
  5
395
330
81C
100
AcDbEntity
  8
HILF
100
AcDbLine
 10
1050.0
 20
0.0
 30
0.0
 11
0.0
 21
0.0
 31
0.0
  0
LINE
  5
396
330
81C
100
AcDbEntity
  8
HILF
100
AcDbLine
 10
77.7191783928464
 20
742.5000000000001
 30
0.0
 11
0.0000000000002842
 21
742.5000000000001
 31
0.0
  0
LINE
  5
397
330
81C
100
AcDbEntity
  8
HILF
100
AcDbLine
 10
1050.0
 20
-0.0000000000002842
 30
0.0
 11
1050.0
 21
1485.0
 31
0.0
  0
TEXT
  5
398
330
81C
100
AcDbEntity
  8
VOLL
100
AcDbText
 10
156.1535094339622
 20
62.05189552941169
 30
0.0
 40
3.6
  1

  7
GREEKS
100
AcDbText
  0
TEXT
  5
399
330
81C
100
AcDbEntity
  8
TEXT25
100
AcDbText
 10
104.6377487744418
 20
279.1799999999999
 30
0.0
 40
12.5
  1
Erstellt mit AUTOCAD 2004
 41
0.8
100
AcDbText
  0
TEXT
  5
39A
330
81C
100
AcDbEntity
  8
TEXT35
100
AcDbText
 10
868.3383227820153
 20
222.060323862121
 30
0.0
 40
17.5
  1
21804200W
 41
0.8
 72
     1
 11
927.0049894486819
 21
222.060323862121
 31
0.0
100
AcDbText
  0
TEXT
  5
39B
330
81C
100
AcDbEntity
  8
TEXT35
100
AcDbText
 10
562.8240977813288
 20
218.1494603887197
 30
0.0
 40
17.5
  1
Kompressionsdichtung
 41
0.8
100
AcDbText
  0
TEXT
  5
39C
330
81C
100
AcDbEntity
  8
TEXT25
100
AcDbText
 10
562.8240977813288
 20
178.7583604396322
 30
0.0
 40
12.5
  1
für LORO-FLEX Rohrdurchführung DN150
 41
0.6
100
AcDbText
  0
TEXT
  5
39E
330
81C
100
AcDbEntity
  8
TEXT25
100
AcDbText
 10
562.8240977813288
 20
129.100298576054
 30
0.0
 40
12.5
  1
EDV-Art.Nr. 21804.200X
 41
0.8
100
AcDbText
  0
TEXT
  5
39F
330
81C
100
AcDbEntity
  8
TEXT25
100
AcDbText
 10
562.4593753944567
 20
106.5743538255658
 30
0.0
 40
10.0
  1
21804200W.DWG
 41
0.8
100
AcDbText
  0
INSERT
  5
3A0
330
81C
100
AcDbEntity
  8
STEMPEL
100
AcDbBlockReference
  2
LOGO
 10
352.4888713644485
 20
112.552631911208
 30
0.0
 41
5.0
 42
5.0
 43
5.0
  0
TEXT
  5
3A2
330
81C
100
AcDbEntity
  8
TEXT25
100
AcDbText
 10
466.4285714285719
 20
256.3723320029448
 30
0.0
 40
12.5
  1
Zul. Abw.
 41
0.8
 72
     1
 11
500.0000000000006
 21
256.3723320029448
 31
0.0
100
AcDbText
  0
TEXT
  5
3A3
330
81C
100
AcDbEntity
  8
TEXT25
100
AcDbText
 10
365.4761904761916
 20
256.372332002945
 30
0.0
 40
12.5
  1
Maßstab
 41
0.8
 72
     1
 11
395.0000000000011
 21
256.372332002945
 31
0.0
100
AcDbText
  0
TEXT
  5
3A4
330
81C
100
AcDbEntity
  8
TEXT35
100
AcDbText
 10
380.0000000000011
 20
216.9199358188163
 30
0.0
 40
17.5
  1
1:5
 41
0.8
 72
     1
 11
395.0000000000011
 21
216.9199358188163
 31
0.0
100
AcDbText
  0
TEXT
  5
3A5
330
81C
100
AcDbEntity
  8
TEXT25
100
AcDbText
 10
458.3333333333339
 20
219.93629647055
 30
0.0
 40
10.0
  1
DIN ISO 3302-1
 41
0.7
 72
     1
 11
500.0000000000006
 21
219.93629647055
 31
0.0
100
AcDbText
  0
TEXT
  5
3A6
330
81C
100
AcDbEntity
  8
TEXT25
100
AcDbText
 10
484.1904761904768
 20
182.5
 30
0.0
 40
10.0
  1
Name
 41
0.8
 72
     4
 11
500.0000000000006
 21
187.5
 31
0.0
100
AcDbText
  0
TEXT
  5
3A7
330
81C
100
AcDbEntity
  8
TEXT25
100
AcDbText
 10
486.8571428571434
 20
157.5
 30
0.0
 40
10.0
  1
Koeh
 41
0.8
 72
     4
 11
500.0000000000006
 21
162.5
 31
0.0
100
AcDbText
  0
TEXT
  5
3A8
330
81C
100
AcDbEntity
  8
TEXT25
100
AcDbText
 10
401.5000000000005
 20
157.5
 30
0.0
 40
10.0
  1
30.11.
 41
0.8
 72
     4
 11
417.5000000000006
 21
162.5
 31
0.0
100
AcDbText
  0
TEXT
  5
3A9
330
81C
100
AcDbEntity
  8
TEXT25
100
AcDbText
 10
408.1666666666672
 20
184.1666666666667
 30
0.0
 40
10.0
  1
Tag
 41
0.8
 72
     4
 11
417.5000000000006
 21
187.5
 31
0.0
100
AcDbText
  0
TEXT
  5
3AA
330
81C
100
AcDbEntity
  8
TEXT25
100
AcDbText
 10
349.1666666666672
 20
182.5
 30
0.0
 40
10.0
  1
2010
 41
0.8
 72
     4
 11
362.5000000000006
 21
187.5
 31
0.0
100
AcDbText
  0
LINE
  5
636
102
{ACAD_REACTORS
330
9CD
102
}
330
81C
100
AcDbEntity
  8
MITTEL
100
AcDbLine
 10
352.1191930699477
 20
704.5845877696024
 30
0.0
 11
802.1191930699476
 21
704.5845877696024
 31
0.0
  0
LINE
  5
637
330
81C
100
AcDbEntity
  8
MITTEL
100
AcDbLine
 10
577.1191930699476
 20
479.5845877696024
 30
0.0
 11
577.1191930699476
 21
929.5845877696024
 31
0.0
  0
CIRCLE
  5
6F0
330
81C
100
AcDbEntity
  8
STEMPEL
100
AcDbCircle
 10
577.1191930699476
 20
884.5845877696024
 30
0.0
 40
8.0
  0
TEXT
  5
8B4
330
81C
100
AcDbEntity
  8
BEM
100
AcDbText
 10
1043.255730964291
 20
25.41975269997152
 30
0.0
 40
10.0
  1
Diese Zeichnung ist urheberrechtlich geschützt und bleibt unser Eigentum. Sie darf weder ganz noch teilweise verfielfältigt und nicht an Dritte weitergegeben werden.
 50
90.0
 41
0.8
  7
GREEKS
100
AcDbText
  0
HATCH
  5
997
330
81C
100
AcDbEntity
  8
SCHRAFF
100
AcDbHatch
 10
0.0
 20
0.0
 30
0.0
210
0.0
220
0.0
230
1.0
  2
_USER
 70
     0
 71
     0
 91
        4
 92
        7
 72
     0
 73
     1
 93
        4
 10
389.1191930699477
 20
1193.212657822518
 10
362.1191930699477
 20
1193.212657822518
 10
362.1191930699477
 20
1191.212657822518
 10
389.1191930699477
 20
1191.212657822518
 97
        0
 92
        7
 72
     0
 73
     1
 93
        4
 10
427.1191930699477
 20
1193.212657822518
 10
405.1191930699476
 20
1193.212657822518
 10
405.1191930699476
 20
1191.212657822517
 10
427.1191930699476
 20
1191.212657822517
 97
        0
 92
        7
 72
     0
 73
     1
 93
        4
 10
749.1191930699475
 20
1193.212657822518
 10
727.1191930699475
 20
1193.212657822518
 10
727.1191930699476
 20
1191.212657822518
 10
749.1191930699478
 20
1191.212657822518
 97
        0
 92
        7
 72
     0
 73
     1
 93
        4
 10
792.1191930699476
 20
1193.212657822518
 10
765.1191930699476
 20
1193.212657822518
 10
765.1191930699476
 20
1191.212657822517
 10
792.1191930699476
 20
1191.212657822518
 97
        0
 75
     0
 76
     0
 52
45.0
 41
0.1
 77
     0
 78
     1
 53
45.0
 43
0.0
 44
39.70264777956345
 45
-0.0707106781186548
 46
0.0707106781186548
 79
     0
 47
0.6573822161976333
 98
        4
 10
376.8141680393956
 20
1192.128133606718
 10
418.2562668001764
 20
1192.128133606718
 10
736.6368616713407
 20
1192.128133606718
 10
779.3945877262513
 20
1192.128133606718
  0
CIRCLE
  5
998
330
81C
100
AcDbEntity
  8
STEMPEL
100
AcDbCircle
 10
577.1191930699476
 20
704.5845877696024
 30
0.0
 40
215.0
  0
CIRCLE
  5
999
330
81C
100
AcDbEntity
  8
STEMPEL
100
AcDbCircle
 10
577.1191930699476
 20
704.5845877696024
 30
0.0
 40
150.0
  0
CIRCLE
  5
99A
330
81C
100
AcDbEntity
  8
MITTEL
100
AcDbCircle
 10
577.1191930699476
 20
704.5845877696024
 30
0.0
 40
180.0
  0
CIRCLE
  5
99C
330
81C
100
AcDbEntity
  8
STEMPEL
100
AcDbCircle
 10
487.1191930699476
 20
860.4691604508014
 30
0.0
 40
8.0
  0
CIRCLE
  5
99D
330
81C
100
AcDbEntity
  8
STEMPEL
100
AcDbCircle
 10
421.2346203887486
 20
794.5845877696024
 30
0.0
 40
8.0
  0
CIRCLE
  5
99E
330
81C
100
AcDbEntity
  8
STEMPEL
100
AcDbCircle
 10
397.1191930699476
 20
704.5845877696023
 30
0.0
 40
8.0
  0
CIRCLE
  5
99F
330
81C
100
AcDbEntity
  8
STEMPEL
100
AcDbCircle
 10
421.2346203887489
 20
614.5845877696022
 30
0.0
 40
8.0
  0
CIRCLE
  5
9A0
330
81C
100
AcDbEntity
  8
STEMPEL
100
AcDbCircle
 10
487.119193069948
 20
548.7000150884033
 30
0.0
 40
8.0
  0
CIRCLE
  5
9A1
330
81C
100
AcDbEntity
  8
STEMPEL
100
AcDbCircle
 10
577.1191930699477
 20
524.5845877696023
 30
0.0
 40
8.0
  0
CIRCLE
  5
9A2
330
81C
100
AcDbEntity
  8
STEMPEL
100
AcDbCircle
 10
667.1191930699478
 20
548.7000150884033
 30
0.0
 40
8.0
  0
CIRCLE
  5
9A3
330
81C
100
AcDbEntity
  8
STEMPEL
100
AcDbCircle
 10
733.0037657511468
 20
614.5845877696022
 30
0.0
 40
8.0
  0
CIRCLE
  5
9A4
330
81C
100
AcDbEntity
  8
STEMPEL
100
AcDbCircle
 10
757.1191930699479
 20
704.5845877696025
 30
0.0
 40
8.0
  0
CIRCLE
  5
9A5
330
81C
100
AcDbEntity
  8
STEMPEL
100
AcDbCircle
 10
733.0037657511468
 20
794.5845877696026
 30
0.0
 40
8.0
  0
CIRCLE
  5
9A6
330
81C
100
AcDbEntity
  8
STEMPEL
100
AcDbCircle
 10
667.1191930699476
 20
860.4691604508014
 30
0.0
 40
8.0
  0
LINE
  5
9A7
102
{ACAD_REACTORS
330
9CD
330
9E9
102
}
330
81C
100
AcDbEntity
  8
MITTEL
100
AcDbLine
 10
409.976290139551
 20
801.0845877696024
 30
0.0
 11
432.4929506379464
 21
788.0845877696024
 31
0.0
  0
LINE
  5
9AA
330
81C
100
AcDbEntity
  8
MITTEL
100
AcDbLine
 10
409.976290139551
 20
608.0845877696024
 30
0.0
 11
432.4929506379464
 21
621.0845877696024
 31
0.0
  0
LINE
  5
9AB
330
81C
100
AcDbEntity
  8
MITTEL
100
AcDbLine
 10
744.2620960003442
 20
608.0845877696024
 30
0.0
 11
721.7454355019488
 21
621.0845877696024
 31
0.0
  0
LINE
  5
9AC
330
81C
100
AcDbEntity
  8
MITTEL
100
AcDbLine
 10
744.2620960003442
 20
801.0845877696024
 30
0.0
 11
721.7454355019488
 21
788.0845877696024
 31
0.0
  0
LINE
  5
9AD
102
{ACAD_REACTORS
330
9E9
102
}
330
81C
100
AcDbEntity
  8
MITTEL
100
AcDbLine
 10
480.6191930699476
 20
871.7274906999991
 30
0.0
 11
493.6191930699477
 21
849.2108302016038
 31
0.0
  0
LINE
  5
9AF
330
81C
100
AcDbEntity
  8
MITTEL
100
AcDbLine
 10
673.6191930699476
 20
871.7274906999991
 30
0.0
 11
660.6191930699475
 21
849.2108302016038
 31
0.0
  0
LINE
  5
9B0
330
81C
100
AcDbEntity
  8
MITTEL
100
AcDbLine
 10
673.6191930699476
 20
537.4416848392058
 30
0.0
 11
660.6191930699475
 21
559.958345337601
 31
0.0
  0
LINE
  5
9B1
330
81C
100
AcDbEntity
  8
MITTEL
100
AcDbLine
 10
480.6191930699476
 20
537.4416848392058
 30
0.0
 11
493.6191930699477
 21
559.958345337601
 31
0.0
  0
DIMENSION
  5
9B2
102
{ACAD_XDICTIONARY
360
9C1
102
}
102
{ACAD_REACTORS
330
9CD
102
}
330
81C
100
AcDbEntity
  8
BEM
100
AcDbDimension
  2
*D6
 10
802.1191930699476
 20
704.5845877696024
 30
0.0
 11
288.7139060795866
 21
781.8625515115354
 31
0.0
 70
    34
 71
     5
 42
0.5235987755982956
  3
STANDARD
100
AcDb2LineAngularDimension
 13
409.976290139551
 23
801.0845877696024
 33
0.0
 14
432.4929506379464
 24
788.0845877696024
 34
0.0
 15
352.1191930699477
 25
704.5845877696024
 35
0.0
 16
311.8165986842474
 26
801.1468351995965
 36
0.0
1001
ACAD
1000
DSTYLE
1002
{
1070
    40
1040
5.0
1070
    41
1040
3.5
1070
    42
1040
1.0
1070
    43
1040
8.0
1070
    44
1040
1.0
1070
    73
1070
     0
1070
    74
1070
     0
1070
    77
1070
     1
1070
    78
1070
     8
1070
    79
1070
     2
1070
   140
1040
3.5
1070
   141
1040
1.5
1070
   146
1040
0.5
1070
   147
1040
1.5
1070
   172
1070
     1
1070
   178
1070
     1
1070
   179
1070
     2
1070
   279
1070
     0
1002
}
  0
DIMENSION
  5
9CE
102
{ACAD_XDICTIONARY
360
9DD
102
}
102
{ACAD_REACTORS
330
9E9
102
}
330
81C
100
AcDbEntity
  8
BEM
100
AcDbDimension
  2
*D7
 10
432.4929506379464
 20
788.0845877696024
 30
0.0
 11
366.062593405626
 21
915.6411874339241
 31
0.0
 70
    34
 71
     5
 42
0.5235987755982901
  3
STANDARD
100
AcDb2LineAngularDimension
 13
480.6191930699476
 23
871.7274906999991
 33
0.0
 14
493.6191930699477
 24
849.2108302016038
 34
0.0
 15
409.976290139551
 25
801.0845877696024
 35
0.0
 16
395.7058208500236
 26
920.7846258573274
 36
0.0
1001
ACAD
1000
DSTYLE
1002
{
1070
    40
1040
5.0
1070
    41
1040
3.5
1070
    42
1040
1.0
1070
    43
1040
8.0
1070
    44
1040
1.0
1070
    73
1070
     0
1070
    74
1070
     0
1070
    77
1070
     1
1070
    78
1070
     8
1070
    79
1070
     2
1070
   140
1040
3.5
1070
   141
1040
1.5
1070
   146
1040
0.5
1070
   147
1040
1.5
1070
   172
1070
     1
1070
   178
1070
     1
1070
   179
1070
     2
1070
   279
1070
     0
1002
}
  0
ENDSEC
  0
SECTION
  2
OBJECTS
  0
DICTIONARY
  5
808
330
0
100
AcDbDictionary
281
     1
  3
ACAD_COLOR
350
817
  3
ACAD_GROUP
350
809
  3
ACAD_LAYOUT
350
815
  3
ACAD_MATERIAL
350
816
  3
ACAD_MLINESTYLE
350
812
  3
ACAD_PLOTSETTINGS
350
814
  3
ACAD_PLOTSTYLENAME
350
80A
  3
AcDbVariableDictionary
350
8D3
  0
DICTIONARY
  5
9C1
330
9B2
100
AcDbDictionary
280
     1
281
     1
  3
ACAD_DIMASSOC
360
9CD
  0
DICTIONARY
  5
9DD
330
9CE
100
AcDbDictionary
280
     1
281
     1
  3
ACAD_DIMASSOC
360
9E9
  0
DICTIONARY
  5
817
102
{ACAD_REACTORS
330
808
102
}
330
808
100
AcDbDictionary
281
     1
  0
DICTIONARY
  5
809
102
{ACAD_REACTORS
330
808
102
}
330
808
100
AcDbDictionary
281
     1
  0
DICTIONARY
  5
815
102
{ACAD_REACTORS
330
808
102
}
330
808
100
AcDbDictionary
281
     1
  3
Layout1
350
81B
  3
Model
350
81F
  0
DICTIONARY
  5
816
102
{ACAD_REACTORS
330
808
102
}
330
808
100
AcDbDictionary
281
     1
  0
DICTIONARY
  5
812
102
{ACAD_REACTORS
330
808
102
}
330
808
100
AcDbDictionary
281
     1
  3
Standard
350
813
  0
DICTIONARY
  5
814
102
{ACAD_REACTORS
330
808
102
}
330
808
100
AcDbDictionary
281
     1
  0
ACDBDICTIONARYWDFLT
  5
80A
102
{ACAD_REACTORS
330
808
102
}
330
808
100
AcDbDictionary
281
     1
  3
Normal
350
80B
100
AcDbDictionaryWithDefault
340
80B
  0
DICTIONARY
  5
8D3
102
{ACAD_REACTORS
330
808
102
}
330
808
100
AcDbDictionary
281
     1
  3
DIMASSOC
350
8D5
  3
HIDETEXT
350
8D4
  3
PROJECTNAME
350
8D6
  0
DIMASSOC
  5
9CD
102
{ACAD_REACTORS
330
9C1
102
}
330
9C1
100
AcDbDimAssoc
330
9B2
 90
       15
 70
     0
 71
     0
  1
AcDbOsnapPointRef
 72
    13
331
9A7
 73
     2
 91
        0
 40
0.0
 10
0.0
 20
0.0
 30
2.000000000000000E+50
 75
     0
  1
AcDbOsnapPointRef
 72
     1
331
9A7
 73
     2
 91
        0
 40
1.0
 10
0.0
 20
0.0
 30
2.000000000000000E+50
 75
     0
  1
AcDbOsnapPointRef
 72
    13
331
636
 73
     2
 91
        0
 40
0.0
 10
0.0
 20
0.0
 30
2.000000000000000E+50
 75
     0
  1
AcDbOsnapPointRef
 72
     1
331
636
 73
     2
 91
        0
 40
1.0
 10
0.0
 20
0.0
 30
2.000000000000000E+50
 75
     0
  0
DIMASSOC
  5
9E9
102
{ACAD_REACTORS
330
9DD
102
}
330
9DD
100
AcDbDimAssoc
330
9CE
 90
       15
 70
     0
 71
     0
  1
AcDbOsnapPointRef
 72
    13
331
9AD
 73
     2
 91
        0
 40
0.0
 10
0.0
 20
0.0
 30
2.000000000000000E+50
 75
     0
  1
AcDbOsnapPointRef
 72
     1
331
9AD
 73
     2
 91
        0
 40
1.0
 10
0.0
 20
0.0
 30
2.000000000000000E+50
 75
     0
  1
AcDbOsnapPointRef
 72
    13
331
9A7
 73
     2
 91
        0
 40
0.0
 10
0.0
 20
0.0
 30
2.000000000000000E+50
 75
     0
  1
AcDbOsnapPointRef
 72
     1
331
9A7
 73
     2
 91
        0
 40
1.0
 10
0.0
 20
0.0
 30
2.000000000000000E+50
 75
     0
  0
LAYOUT
  5
81B
102
{ACAD_REACTORS
330
815
102
}
330
815
100
AcDbPlotSettings
  1

  2
RICOH Aficio 2027 PCL 6
  4

  6

 40
0.0
 41
0.0
 42
0.0
 43
0.0
 44
0.0
 45
0.0
 46
0.0
 47
0.0
 48
0.0
 49
0.0
140
0.0
141
0.0
142
1.0
143
1.0
 70
   688
 72
     0
 73
     0
 74
     5
  7
monochrome1.ctb
 75
    16
147
1.0
 76
     0
 77
     2
 78
   300
148
0.0
149
0.0
100
AcDbLayout
  1
Layout1
 70
     0
 71
     1
 10
0.0
 20
0.0
 11
12.0
 21
9.0
 12
0.0
 22
0.0
 32
0.0
 14
1.000000000000000E+20
 24
1.000000000000000E+20
 34
1.000000000000000E+20
 15
-1.000000000000000E+20
 25
-1.000000000000000E+20
 35
-1.000000000000000E+20
146
0.0
 13
0.0
 23
0.0
 33
0.0
 16
1.0
 26
0.0
 36
0.0
 17
0.0
 27
1.0
 37
0.0
 76
     0
330
818
  0
LAYOUT
  5
81F
102
{ACAD_REACTORS
330
815
102
}
330
815
100
AcDbPlotSettings
  1

  2
RICOH Aficio 2027 PCL 6
  4
A4
  6

 40
5.027083
 41
5.027084999999999
 42
5.027084
 43
5.027069
 44
209.973328
 45
296.925995
 46
0.0
 47
2.06
 48
0.0
 49
0.0
140
0.0
141
0.0
142
1.0
143
5.252122881808211
 70
 11956
 72
     1
 73
     0
 74
     2
  7
monochrome1.ctb
 75
     0
147
0.190399200952381
 76
     1
 77
     2
 78
   300
148
0.0
149
0.0
100
AcDbLayout
  1
Model
 70
     1
 71
     0
 10
0.0
 20
0.0
 11
12.0
 21
9.0
 12
0.0
 22
0.0
 32
0.0
 14
0.0
 24
0.0
 34
0.0
 15
0.0
 25
0.0
 35
0.0
146
0.0
 13
0.0
 23
0.0
 33
0.0
 16
1.0
 26
0.0
 36
0.0
 17
0.0
 27
1.0
 37
0.0
 76
     0
330
81C
  0
MLINESTYLE
  5
813
102
{ACAD_REACTORS
330
812
102
}
330
812
100
AcDbMlineStyle
  2
STANDARD
 70
     0
  3

 62
   256
 51
90.0
 52
90.0
 71
     2
 49
0.5
 62
   256
  6
BYLAYER
 49
-0.5
 62
   256
  6
BYLAYER
  0
ACDBPLACEHOLDER
  5
80B
102
{ACAD_REACTORS
330
80A
102
}
330
80A
  0
DICTIONARYVAR
  5
8D5
102
{ACAD_REACTORS
330
8D3
102
}
330
8D3
100
DictionaryVariables
280
     0
  1
2
  0
DICTIONARYVAR
  5
8D4
102
{ACAD_REACTORS
330
8D3
102
}
330
8D3
100
DictionaryVariables
280
     0
  1
1
  0
DICTIONARYVAR
  5
8D6
102
{ACAD_REACTORS
330
8D3
102
}
330
8D3
100
DictionaryVariables
280
     0
  1

  0
ENDSEC
  0
EOF
