  0
SECTION
  2
HEADER
  9
$ACADVER
  1
AC1018
  9
$ACADMAINTVER
 70
     2
  9
$DWGCODEPAGE
  3
ANSI_1252
  9
$INSBASE
 10
0.0
 20
0.0
 30
0.0
  9
$EXTMIN
 10
-0.0169569663613629
 20
-0.0226105521780937
 30
-0.0000000000000053
  9
$EXTMAX
 10
420.0242942844528
 20
594.0362190951334
 30
0.0000000000000099
  9
$LIMMIN
 10
0.0
 20
0.0
  9
$LIMMAX
 10
420.0
 20
594.0000000000002
  9
$ORTHOMODE
 70
     1
  9
$REGENMODE
 70
     1
  9
$FILLMODE
 70
     1
  9
$QTEXTMODE
 70
     0
  9
$MIRRTEXT
 70
     1
  9
$LTSCALE
 40
20.0
  9
$ATTMODE
 70
     1
  9
$TEXTSIZE
 40
3.5
  9
$TRACEWID
 40
0.5
  9
$TEXTSTYLE
  7
STANDARD
  9
$CLAYER
  8
BEM
  9
$CELTYPE
  6
ByLayer
  9
$CECOLOR
 62
   256
  9
$CELTSCALE
 40
1.0
  9
$DISPSILH
 70
     0
  9
$DIMSCALE
 40
2.0
  9
$DIMASZ
 40
3.5
  9
$DIMEXO
 40
1.0
  9
$DIMDLI
 40
8.0
  9
$DIMRND
 40
0.0
  9
$DIMDLE
 40
0.0
  9
$DIMEXE
 40
1.0
  9
$DIMTP
 40
0.0
  9
$DIMTM
 40
0.0
  9
$DIMTXT
 40
3.5
  9
$DIMCEN
 40
1.5
  9
$DIMTSZ
 40
0.0
  9
$DIMTOL
 70
     0
  9
$DIMLIM
 70
     0
  9
$DIMTIH
 70
     0
  9
$DIMTOH
 70
     0
  9
$DIMSE1
 70
     0
  9
$DIMSE2
 70
     0
  9
$DIMTAD
 70
     1
  9
$DIMZIN
 70
     8
  9
$DIMBLK
  1

  9
$DIMASO
 70
     1
  9
$DIMSHO
 70
     0
  9
$DIMPOST
  1

  9
$DIMAPOST
  1

  9
$DIMALT
 70
     0
  9
$DIMALTD
 70
     2
  9
$DIMALTF
 40
25.4
  9
$DIMLFAC
 40
1.0
  9
$DIMTOFL
 70
     1
  9
$DIMTVP
 40
0.0
  9
$DIMTIX
 70
     0
  9
$DIMSOXD
 70
     0
  9
$DIMSAH
 70
     0
  9
$DIMBLK1
  1

  9
$DIMBLK2
  1

  9
$DIMSTYLE
  2
STANDARD
  9
$DIMCLRD
 70
     0
  9
$DIMCLRE
 70
     0
  9
$DIMCLRT
 70
     1
  9
$DIMTFAC
 40
0.5
  9
$DIMGAP
 40
1.5
  9
$DIMJUST
 70
     0
  9
$DIMSD1
 70
     0
  9
$DIMSD2
 70
     0
  9
$DIMTOLJ
 70
     1
  9
$DIMTZIN
 70
     8
  9
$DIMALTZ
 70
     8
  9
$DIMALTTZ
 70
     8
  9
$DIMUPT
 70
     0
  9
$DIMDEC
 70
     2
  9
$DIMTDEC
 70
     2
  9
$DIMALTU
 70
     2
  9
$DIMALTTD
 70
     2
  9
$DIMTXSTY
  7
STANDARD
  9
$DIMAUNIT
 70
     0
  9
$DIMADEC
 70
     2
  9
$DIMALTRND
 40
0.0
  9
$DIMAZIN
 70
     2
  9
$DIMDSEP
 70
    46
  9
$DIMATFIT
 70
     3
  9
$DIMFRAC
 70
     0
  9
$DIMLDRBLK
  1

  9
$DIMLUNIT
 70
     2
  9
$DIMLWD
 70
    -2
  9
$DIMLWE
 70
    -2
  9
$DIMTMOVE
 70
     0
  9
$LUNITS
 70
     2
  9
$LUPREC
 70
     2
  9
$SKETCHINC
 40
1.0
  9
$FILLETRAD
 40
3.0
  9
$AUNITS
 70
     0
  9
$AUPREC
 70
     0
  9
$MENU
  1
ACAD
  9
$ELEVATION
 40
0.0
  9
$PELEVATION
 40
0.0
  9
$THICKNESS
 40
0.0
  9
$LIMCHECK
 70
     0
  9
$CHAMFERA
 40
0.0
  9
$CHAMFERB
 40
0.0
  9
$CHAMFERC
 40
0.0
  9
$CHAMFERD
 40
0.0
  9
$SKPOLY
 70
     0
  9
$TDCREATE
 40
2451890.577375810
  9
$TDUCREATE
 40
2451890.535709144
  9
$TDUPDATE
 40
2455531.345519723
  9
$TDUUPDATE
 40
2455531.303853056
  9
$TDINDWG
 40
0.2468501273
  9
$TDUSRTIMER
 40
0.2468501273
  9
$USRTIMER
 70
     1
  9
$ANGBASE
 50
0.0
  9
$ANGDIR
 70
     0
  9
$PDMODE
 70
     0
  9
$PDSIZE
 40
0.0
  9
$PLINEWID
 40
0.0
  9
$SPLFRAME
 70
     0
  9
$SPLINETYPE
 70
     6
  9
$SPLINESEGS
 70
     8
  9
$HANDSEED
  5
1137
  9
$SURFTAB1
 70
     6
  9
$SURFTAB2
 70
     6
  9
$SURFTYPE
 70
     6
  9
$SURFU
 70
     6
  9
$SURFV
 70
     6
  9
$UCSBASE
  2

  9
$UCSNAME
  2

  9
$UCSORG
 10
0.0
 20
0.0
 30
0.0
  9
$UCSXDIR
 10
1.0
 20
0.0
 30
0.0
  9
$UCSYDIR
 10
0.0
 20
1.0
 30
0.0
  9
$UCSORTHOREF
  2

  9
$UCSORTHOVIEW
 70
     0
  9
$UCSORGTOP
 10
0.0
 20
0.0
 30
0.0
  9
$UCSORGBOTTOM
 10
0.0
 20
0.0
 30
0.0
  9
$UCSORGLEFT
 10
0.0
 20
0.0
 30
0.0
  9
$UCSORGRIGHT
 10
0.0
 20
0.0
 30
0.0
  9
$UCSORGFRONT
 10
0.0
 20
0.0
 30
0.0
  9
$UCSORGBACK
 10
0.0
 20
0.0
 30
0.0
  9
$PUCSBASE
  2

  9
$PUCSNAME
  2

  9
$PUCSORG
 10
0.0
 20
0.0
 30
0.0
  9
$PUCSXDIR
 10
1.0
 20
0.0
 30
0.0
  9
$PUCSYDIR
 10
0.0
 20
1.0
 30
0.0
  9
$PUCSORTHOREF
  2

  9
$PUCSORTHOVIEW
 70
     0
  9
$PUCSORGTOP
 10
0.0
 20
0.0
 30
0.0
  9
$PUCSORGBOTTOM
 10
0.0
 20
0.0
 30
0.0
  9
$PUCSORGLEFT
 10
0.0
 20
0.0
 30
0.0
  9
$PUCSORGRIGHT
 10
0.0
 20
0.0
 30
0.0
  9
$PUCSORGFRONT
 10
0.0
 20
0.0
 30
0.0
  9
$PUCSORGBACK
 10
0.0
 20
0.0
 30
0.0
  9
$USERI1
 70
     0
  9
$USERI2
 70
     0
  9
$USERI3
 70
     0
  9
$USERI4
 70
     0
  9
$USERI5
 70
     0
  9
$USERR1
 40
0.0
  9
$USERR2
 40
0.0
  9
$USERR3
 40
0.0
  9
$USERR4
 40
0.0
  9
$USERR5
 40
0.0
  9
$WORLDVIEW
 70
     1
  9
$SHADEDGE
 70
     3
  9
$SHADEDIF
 70
    70
  9
$TILEMODE
 70
     1
  9
$MAXACTVP
 70
    16
  9
$PINSBASE
 10
0.0
 20
0.0
 30
0.0
  9
$PLIMCHECK
 70
     0
  9
$PEXTMIN
 10
1.000000000000000E+20
 20
1.000000000000000E+20
 30
1.000000000000000E+20
  9
$PEXTMAX
 10
-1.000000000000000E+20
 20
-1.000000000000000E+20
 30
-1.000000000000000E+20
  9
$PLIMMIN
 10
0.0
 20
0.0
  9
$PLIMMAX
 10
12.0
 20
9.0
  9
$UNITMODE
 70
     0
  9
$VISRETAIN
 70
     0
  9
$PLINEGEN
 70
     0
  9
$PSLTSCALE
 70
     0
  9
$TREEDEPTH
 70
  3020
  9
$CMLSTYLE
  2
Standard
  9
$CMLJUST
 70
     0
  9
$CMLSCALE
 40
1.0
  9
$PROXYGRAPHICS
 70
     1
  9
$MEASUREMENT
 70
     0
  9
$CELWEIGHT
370
    -1
  9
$ENDCAPS
280
     0
  9
$JOINSTYLE
280
     0
  9
$LWDISPLAY
290
     0
  9
$INSUNITS
 70
     0
  9
$HYPERLINKBASE
  1

  9
$STYLESHEET
  1
monochrome1.ctb
  9
$XEDIT
290
     1
  9
$CEPSNTYPE
380
     0
  9
$PSTYLEMODE
290
     1
  9
$FINGERPRINTGUID
  2
{B4DA9979-E90E-4ED3-B73A-3EB98DE71AC9}
  9
$VERSIONGUID
  2
{52DB8902-12E9-4E1E-8C9E-B10BB690464F}
  9
$EXTNAMES
290
     1
  9
$PSVPSCALE
 40
0.0
  9
$OLESTARTUP
290
     0
  9
$SORTENTS
280
   127
  9
$INDEXCTL
280
     0
  9
$HIDETEXT
280
     1
  9
$XCLIPFRAME
290
     0
  9
$HALOGAP
280
     0
  9
$OBSCOLOR
 70
   257
  9
$OBSLTYPE
280
     0
  9
$INTERSECTIONDISPLAY
280
     0
  9
$INTERSECTIONCOLOR
 70
   257
  9
$DIMASSOC
280
     2
  9
$PROJECTNAME
  1

  0
ENDSEC
  0
SECTION
  2
CLASSES
  0
CLASS
  1
ACDBDICTIONARYWDFLT
  2
AcDbDictionaryWithDefault
  3
ObjectDBX Classes
 90
        0
 91
        1
280
     0
281
     0
  0
CLASS
  1
DICTIONARYVAR
  2
AcDbDictionaryVar
  3
ObjectDBX Classes
 90
        0
 91
        3
280
     0
281
     0
  0
CLASS
  1
DIMASSOC
  2
AcDbDimAssoc
  3
"AcDbDimAssoc|Product Desc:     AcDim ARX App For Dimension|Company:          Autodesk, Inc.|WEB Address:      www.autodesk.com"
 90
        0
 91
        4
280
     0
281
     0
  0
ENDSEC
  0
SECTION
  2
TABLES
  0
TABLE
  2
VPORT
  5
804
330
0
100
AcDbSymbolTable
 70
     2
  0
VPORT
  5
1136
330
804
100
AcDbSymbolTableRecord
100
AcDbViewportTableRecord
  2
*Active
 70
     0
 10
0.0
 20
0.0
 11
1.0
 21
1.0
 12
210.0036686590457
 22
297.0068042714777
 13
0.0
 23
0.0
 14
1.0
 24
1.0
 15
20.0
 25
20.0
 16
0.0
 26
0.0
 36
1.0
 17
0.0
 27
0.0
 37
0.0
 40
598.8560745704392
 41
1.336927223719676
 42
50.0
 43
0.0
 44
0.0
 50
0.0
 51
0.0
 71
     0
 72
  1500
 73
     1
 74
     0
 75
     0
 76
     0
 77
     0
 78
     0
281
     0
 65
     1
110
0.0
120
0.0
130
0.0
111
1.0
121
0.0
131
0.0
112
0.0
122
1.0
132
0.0
 79
     0
146
0.0
  0
ENDTAB
  0
TABLE
  2
LTYPE
  5
801
330
0
100
AcDbSymbolTable
 70
     3
  0
LTYPE
  5
80F
330
801
100
AcDbSymbolTableRecord
100
AcDbLinetypeTableRecord
  2
ByBlock
 70
     0
  3

 72
    65
 73
     0
 40
0.0
  0
LTYPE
  5
810
330
801
100
AcDbSymbolTableRecord
100
AcDbLinetypeTableRecord
  2
ByLayer
 70
     0
  3

 72
    65
 73
     0
 40
0.0
  0
LTYPE
  5
811
330
801
100
AcDbSymbolTableRecord
100
AcDbLinetypeTableRecord
  2
AUSGEZOGEN
 70
     0
  3
Ausgezogene Linie
 72
    65
 73
     0
 40
0.0
  0
LTYPE
  5
829
330
801
100
AcDbSymbolTableRecord
100
AcDbLinetypeTableRecord
  2
STRICHPUNKT
 70
     0
  3
__ . __ . __ . __ . __ . __ . __ . __ . __ . __
 72
    65
 73
     4
 40
1.0
 49
0.5
 74
     0
 49
-0.25
 74
     0
 49
0.0
 74
     0
 49
-0.25
 74
     0
  0
LTYPE
  5
82A
330
801
100
AcDbSymbolTableRecord
100
AcDbLinetypeTableRecord
  2
CONTINUOUS
 70
     0
  3
Solid line
 72
    65
 73
     0
 40
0.0
  0
ENDTAB
  0
TABLE
  2
LAYER
  5
7FE
330
0
100
AcDbSymbolTable
 70
     9
  0
LAYER
  5
80C
330
7FE
100
AcDbSymbolTableRecord
100
AcDbLayerTableRecord
  2
0
 70
     0
 62
     7
  6
AUSGEZOGEN
370
    -3
390
80B
  0
LAYER
  5
82E
330
7FE
100
AcDbSymbolTableRecord
100
AcDbLayerTableRecord
  2
VOLL
 70
     0
 62
     1
  6
AUSGEZOGEN
370
    -3
390
80B
  0
LAYER
  5
82F
330
7FE
100
AcDbSymbolTableRecord
100
AcDbLayerTableRecord
  2
MITTEL
 70
     0
 62
     2
  6
STRICHPUNKT
370
    -3
390
80B
  0
LAYER
  5
830
330
7FE
100
AcDbSymbolTableRecord
100
AcDbLayerTableRecord
  2
BEM
 70
     0
 62
     7
  6
AUSGEZOGEN
370
    -3
390
80B
  0
LAYER
  5
831
330
7FE
100
AcDbSymbolTableRecord
100
AcDbLayerTableRecord
  2
STEMPEL
 70
     0
 62
     3
  6
AUSGEZOGEN
370
    -3
390
80B
  0
LAYER
  5
832
330
7FE
100
AcDbSymbolTableRecord
100
AcDbLayerTableRecord
  2
DEFPOINTS
 70
     0
 62
     7
  6
AUSGEZOGEN
290
     0
370
    -3
390
80B
  0
LAYER
  5
834
330
7FE
100
AcDbSymbolTableRecord
100
AcDbLayerTableRecord
  2
HILF
 70
     0
 62
     2
  6
AUSGEZOGEN
370
    -3
390
80B
  0
LAYER
  5
835
330
7FE
100
AcDbSymbolTableRecord
100
AcDbLayerTableRecord
  2
TEXT
 70
     0
 62
     7
  6
AUSGEZOGEN
370
    -3
390
80B
  0
LAYER
  5
CDC
330
7FE
100
AcDbSymbolTableRecord
100
AcDbLayerTableRecord
  2
SCHRAFF
 70
     0
 62
     7
  6
AUSGEZOGEN
370
    -3
390
80B
  0
ENDTAB
  0
TABLE
  2
STYLE
  5
7FF
330
0
100
AcDbSymbolTable
 70
     2
  0
STYLE
  5
80D
330
7FF
100
AcDbSymbolTableRecord
100
AcDbTextStyleTableRecord
  2
STANDARD
 70
     0
 40
0.0
 41
0.8
 50
0.0
 71
     0
 42
3.5
  3
simplex.shx
  4

  0
STYLE
  5
828
330
7FF
100
AcDbSymbolTableRecord
100
AcDbTextStyleTableRecord
  2
GREEKS
 70
     0
 40
0.0
 41
0.8
 50
0.0
 71
     0
 42
2.5
  3
SIMPLEX.shx
  4

  0
ENDTAB
  0
TABLE
  2
VIEW
  5
802
330
0
100
AcDbSymbolTable
 70
     0
  0
ENDTAB
  0
TABLE
  2
UCS
  5
803
330
0
100
AcDbSymbolTable
 70
     0
  0
ENDTAB
  0
TABLE
  2
APPID
  5
805
330
0
100
AcDbSymbolTable
 70
     2
  0
APPID
  5
80E
330
805
100
AcDbSymbolTableRecord
100
AcDbRegAppTableRecord
  2
ACAD
 70
     0
  0
APPID
  5
82C
330
805
100
AcDbSymbolTableRecord
100
AcDbRegAppTableRecord
  2
RAK
 70
     0
  0
ENDTAB
  0
TABLE
  2
DIMSTYLE
  5
806
330
0
100
AcDbSymbolTable
 70
     1
100
AcDbDimStyleTable
 71
     1
340
82D
  0
DIMSTYLE
105
82D
102
{ACAD_REACTORS
330
E23
330
E2B
330
E2E
330
E31
330
E3C
330
10C5
102
}
330
806
100
AcDbSymbolTableRecord
100
AcDbDimStyleTableRecord
  2
STANDARD
 70
     0
271
     2
272
     2
279
     2
284
     8
285
     8
286
     8
340
80D
  0
ENDTAB
  0
TABLE
  2
BLOCK_RECORD
  5
7FD
330
0
100
AcDbSymbolTable
 70
     7
  0
BLOCK_RECORD
  5
81C
330
7FD
100
AcDbSymbolTableRecord
100
AcDbBlockTableRecord
  2
*Model_Space
340
81F
  0
BLOCK_RECORD
  5
818
330
7FD
100
AcDbSymbolTableRecord
100
AcDbBlockTableRecord
  2
*Paper_Space
340
81B
  0
BLOCK_RECORD
  5
825
330
7FD
100
AcDbSymbolTableRecord
100
AcDbBlockTableRecord
  2
LOGO
340
0
102
{BLKREFS
331
E55
102
}
  0
BLOCK_RECORD
  5
EC6
330
7FD
100
AcDbSymbolTableRecord
100
AcDbBlockTableRecord
  2
*D1
340
0
  0
BLOCK_RECORD
  5
ED4
330
7FD
100
AcDbSymbolTableRecord
100
AcDbBlockTableRecord
  2
*D2
340
0
  0
BLOCK_RECORD
  5
F06
330
7FD
100
AcDbSymbolTableRecord
100
AcDbBlockTableRecord
  2
*D3
340
0
  0
BLOCK_RECORD
  5
F12
330
7FD
100
AcDbSymbolTableRecord
100
AcDbBlockTableRecord
  2
*D4
340
0
  0
BLOCK_RECORD
  5
F20
330
7FD
100
AcDbSymbolTableRecord
100
AcDbBlockTableRecord
  2
*D5
340
0
  0
BLOCK_RECORD
  5
10C6
330
7FD
100
AcDbSymbolTableRecord
100
AcDbBlockTableRecord
  2
*D6
340
0
  0
ENDTAB
  0
ENDSEC
  0
SECTION
  2
BLOCKS
  0
BLOCK
  5
839
330
81C
100
AcDbEntity
  8
0
100
AcDbBlockBegin
  2
*Model_Space
 70
     0
 10
0.0
 20
0.0
 30
0.0
  3
*Model_Space
  1

  0
ENDBLK
  5
83A
330
81C
100
AcDbEntity
  8
0
100
AcDbBlockEnd
  0
BLOCK
  5
837
330
818
100
AcDbEntity
 67
     1
  8
0
100
AcDbBlockBegin
  2
*Paper_Space
 70
     0
 10
0.0
 20
0.0
 30
0.0
  3
*Paper_Space
  1

  0
ENDBLK
  5
838
330
818
100
AcDbEntity
 67
     1
  8
0
100
AcDbBlockEnd
  0
BLOCK
  5
30E
330
825
100
AcDbEntity
  8
0
100
AcDbBlockBegin
  2
LOGO
 70
     0
 10
0.0
 20
0.0
 30
0.0
  3
LOGO
  1

  0
ARC
  5
2F4
330
825
100
AcDbEntity
  8
0
100
AcDbCircle
 10
11.59973089678112
 20
-9.271599258481501
 30
0.0
 40
4.5
100
AcDbArc
 50
270.0
 51
231.0575587310159
  0
LINE
  5
2F5
330
825
100
AcDbEntity
  8
0
100
AcDbLine
 10
3.599730896781125
 20
-4.771599258481529
 30
0.0
 11
3.599730896781153
 21
-11.77159925848133
 31
0.0
  0
LINE
  5
2F6
330
825
100
AcDbEntity
  8
0
100
AcDbLine
 10
2.599730896781125
 20
-4.771599258481529
 30
0.0
 11
2.599730896781153
 21
-11.77159925848133
 31
0.0
  0
CIRCLE
  5
2F7
330
825
100
AcDbEntity
  8
0
100
AcDbCircle
 10
11.59973089678112
 20
-9.271599258481501
 30
0.0
 40
3.5
  0
ARC
  5
2F8
330
825
100
AcDbEntity
  8
0
100
AcDbCircle
 10
31.59973089678115
 20
-9.271599258481472
 30
0.0
 40
4.5
100
AcDbArc
 50
270.0
 51
231.0575587310182
  0
LINE
  5
2F9
330
825
100
AcDbEntity
  8
0
100
AcDbLine
 10
17.59973089678112
 20
-4.771599258481472
 30
0.0
 11
17.59973089678115
 21
-13.77159925848147
 31
0.0
  0
ARC
  5
2FA
330
825
100
AcDbEntity
  8
0
100
AcDbCircle
 10
22.59973089678116
 20
-7.271599258481472
 30
0.0
 40
2.5
100
AcDbArc
 50
293.1161887722295
 51
90.0
  0
CIRCLE
  5
2FB
330
825
100
AcDbEntity
  8
0
100
AcDbCircle
 10
31.59973089678115
 20
-9.271599258481472
 30
0.0
 40
3.5
  0
ARC
  5
2FC
330
825
100
AcDbEntity
  8
0
100
AcDbCircle
 10
4.599730896781153
 20
-11.77159925848133
 30
0.0
 40
1.0
100
AcDbArc
 50
180.0
 51
270.0
  0
ARC
  5
2FD
330
825
100
AcDbEntity
  8
0
100
AcDbCircle
 10
4.599730896781153
 20
-11.77159925848133
 30
0.0
 40
2.0
100
AcDbArc
 50
179.9999999999992
 51
270.0
  0
LINE
  5
2FE
330
825
100
AcDbEntity
  8
0
100
AcDbLine
 10
11.59973089678115
 20
-13.77159925848144
 30
0.0
 11
4.599730896781153
 21
-13.77159925848147
 31
0.0
  0
LINE
  5
2FF
330
825
100
AcDbEntity
  8
0
100
AcDbLine
 10
8.771303772034769
 20
-12.77159925848136
 30
0.0
 11
4.599730896781153
 21
-12.77159925848133
 31
0.0
  0
LINE
  5
300
330
825
100
AcDbEntity
  8
0
100
AcDbLine
 10
31.59973089678115
 20
-13.77159925848147
 30
0.0
 11
23.6715276665056
 21
-13.77159925848144
 31
0.0
  0
LINE
  5
301
330
825
100
AcDbEntity
  8
0
100
AcDbLine
 10
23.56565672307022
 20
-9.51278021337896
 30
0.0
 11
24.4388546544846
 21
-12.77159925848144
 31
0.0
  0
LINE
  5
302
330
825
100
AcDbEntity
  8
0
100
AcDbLine
 10
22.59973089678116
 20
-9.771599258481472
 30
0.0
 11
18.59973089678112
 21
-9.771599258481472
 31
0.0
  0
LINE
  5
303
330
825
100
AcDbEntity
  8
0
100
AcDbLine
 10
18.59973089678115
 20
-13.77159925848144
 30
0.0
 11
17.59973089678115
 21
-13.77159925848144
 31
0.0
  0
LINE
  5
304
330
825
100
AcDbEntity
  8
0
100
AcDbLine
 10
18.59973089678115
 20
-9.771599258481472
 30
0.0
 11
18.59973089678115
 21
-13.77159925848144
 31
0.0
  0
LINE
  5
305
330
825
100
AcDbEntity
  8
0
100
AcDbLine
 10
22.59973089678116
 20
-9.771599258481472
 30
0.0
 11
23.67152766650562
 21
-13.77159925848147
 31
0.0
  0
ARC
  5
306
330
825
100
AcDbEntity
  8
0
100
AcDbCircle
 10
22.59973089678116
 20
-7.271599258481472
 30
0.0
 40
2.5
100
AcDbArc
 50
270.0
 51
270.0000000000007
  0
LINE
  5
307
330
825
100
AcDbEntity
  8
0
100
AcDbLine
 10
28.77130377203494
 20
-12.77159925848147
 30
0.0
 11
24.43885465448463
 21
-12.77159925848144
 31
0.0
  0
LINE
  5
308
330
825
100
AcDbEntity
  8
0
100
AcDbLine
 10
3.599730896781125
 20
-4.771599258481472
 30
0.0
 11
2.599730896781125
 21
-4.771599258481472
 31
0.0
  0
LINE
  5
309
330
825
100
AcDbEntity
  8
0
100
AcDbLine
 10
22.59973089678116
 20
-8.771599258481472
 30
0.0
 11
18.59973089678115
 21
-8.771599258481472
 31
0.0
  0
LINE
  5
30A
330
825
100
AcDbEntity
  8
0
100
AcDbLine
 10
22.59973089678116
 20
-5.771599258481472
 30
0.0
 11
18.59973089678115
 21
-5.771599258481472
 31
0.0
  0
LINE
  5
30B
330
825
100
AcDbEntity
  8
0
100
AcDbLine
 10
22.59973089678116
 20
-4.771599258481472
 30
0.0
 11
17.59973089678115
 21
-4.771599258481472
 31
0.0
  0
LINE
  5
30C
330
825
100
AcDbEntity
  8
0
100
AcDbLine
 10
18.59973089678115
 20
-5.771599258481472
 30
0.0
 11
18.59973089678115
 21
-8.771599258481472
 31
0.0
  0
ARC
  5
30D
330
825
100
AcDbEntity
  8
0
100
AcDbCircle
 10
22.59973089678116
 20
-7.271599258481472
 30
0.0
 40
1.5
100
AcDbArc
 50
270.0
 51
90.0
  0
ENDBLK
  5
30F
330
825
100
AcDbEntity
  8
0
100
AcDbBlockEnd
  0
BLOCK
  5
ED2
330
EC6
100
AcDbEntity
  8
0
100
AcDbBlockBegin
  2
*D1
 70
     1
 10
0.0
 20
0.0
 30
0.0
  3
*D1
  1

  0
LINE
  5
104D
330
EC6
100
AcDbEntity
  8
BEM
 62
     0
370
    -2
100
AcDbLine
 10
58.5175124938753
 20
480.7313623003174
 30
0.0
 11
62.62879297596487
 21
480.7313623003174
 31
0.0
  0
LINE
  5
104E
330
EC6
100
AcDbEntity
  8
BEM
 62
     0
370
    -2
100
AcDbLine
 10
59.24062253876877
 20
482.7313623003176
 30
0.0
 11
62.62879297596487
 21
482.7313623003176
 31
0.0
  0
LINE
  5
104F
330
EC6
100
AcDbEntity
  8
BEM
 62
     0
370
    -2
100
AcDbLine
 10
60.62879297596487
 20
473.7313623003173
 30
0.0
 11
60.62879297596487
 21
466.7313623003174
 31
0.0
  0
LINE
  5
1050
330
EC6
100
AcDbEntity
  8
BEM
 62
     0
370
    -2
100
AcDbLine
 10
60.62879297596487
 20
489.7313623003176
 30
0.0
 11
60.62879297596488
 21
506.464695633651
 31
0.0
  0
LINE
  5
1051
330
EC6
100
AcDbEntity
  8
BEM
 62
     0
370
    -2
100
AcDbLine
 10
60.62879297596487
 20
480.7313623003174
 30
0.0
 11
60.62879297596487
 21
482.7313623003176
 31
0.0
  0
SOLID
  5
1052
330
EC6
100
AcDbEntity
  8
BEM
 62
     0
100
AcDbTrace
 10
59.46212630929821
 20
473.7313623003173
 30
0.0
 11
61.79545964263153
 21
473.7313623003173
 31
0.0
 12
60.62879297596487
 22
480.7313623003174
 32
0.0
 13
60.62879297596487
 23
480.7313623003174
 33
0.0
  0
SOLID
  5
1053
330
EC6
100
AcDbEntity
  8
BEM
 62
     0
100
AcDbTrace
 10
59.46212630929821
 20
489.7313623003176
 30
0.0
 11
61.79545964263153
 21
489.7313623003176
 31
0.0
 12
60.62879297596487
 22
482.7313623003176
 32
0.0
 13
60.62879297596487
 23
482.7313623003176
 33
0.0
  0
MTEXT
  5
1054
330
EC6
100
AcDbEntity
  8
BEM
 62
     1
100
AcDbMText
 10
54.12879297596479
 20
501.5980289669843
 30
0.0
 40
7.0
 41
0.0
 71
     5
 72
     1
  1
\A1;2
 11
0.0000000000000001
 21
1.0
 31
0.0
 73
     1
 44
1.0
  0
POINT
  5
1055
330
EC6
100
AcDbEntity
  8
DEFPOINTS
 62
     0
100
AcDbPoint
 10
56.5175124938753
 20
480.7313623003174
 30
0.0
  0
POINT
  5
1056
330
EC6
100
AcDbEntity
  8
DEFPOINTS
 62
     0
100
AcDbPoint
 10
57.24062253876877
 20
482.7313623003176
 30
0.0
  0
POINT
  5
1057
330
EC6
100
AcDbEntity
  8
DEFPOINTS
 62
     0
100
AcDbPoint
 10
60.62879297596487
 20
482.7313623003176
 30
0.0
  0
ENDBLK
  5
ED3
330
EC6
100
AcDbEntity
  8
0
100
AcDbBlockEnd
  0
BLOCK
  5
EDE
330
ED4
100
AcDbEntity
  8
0
100
AcDbBlockBegin
  2
*D2
 70
     1
 10
0.0
 20
0.0
 30
0.0
  3
*D2
  1

  0
LINE
  5
1044
330
ED4
100
AcDbEntity
  8
BEM
 62
     0
370
    -2
100
AcDbLine
 10
43.61411604518434
 20
478.7313623003174
 30
0.0
 11
43.61411604518434
 21
426.7313623003175
 31
0.0
  0
LINE
  5
1045
330
ED4
100
AcDbEntity
  8
BEM
 62
     0
370
    -2
100
AcDbLine
 10
403.6141160451843
 20
478.7313623003174
 30
0.0
 11
403.6141160451843
 21
426.7313623003175
 31
0.0
  0
LINE
  5
1046
330
ED4
100
AcDbEntity
  8
BEM
 62
     0
370
    -2
100
AcDbLine
 10
50.61411604518434
 20
428.7313623003176
 30
0.0
 11
396.6141160451844
 21
428.7313623003176
 31
0.0
  0
SOLID
  5
1047
330
ED4
100
AcDbEntity
  8
BEM
 62
     0
100
AcDbTrace
 10
50.61411604518434
 20
429.8980289669843
 30
0.0
 11
50.61411604518434
 21
427.5646956336508
 31
0.0
 12
43.61411604518434
 22
428.7313623003176
 32
0.0
 13
43.61411604518434
 23
428.7313623003176
 33
0.0
  0
SOLID
  5
1048
330
ED4
100
AcDbEntity
  8
BEM
 62
     0
100
AcDbTrace
 10
396.6141160451844
 20
429.8980289669843
 30
0.0
 11
396.6141160451844
 21
427.5646956336508
 31
0.0
 12
403.6141160451843
 22
428.7313623003176
 32
0.0
 13
403.6141160451843
 23
428.7313623003176
 33
0.0
  0
MTEXT
  5
1049
330
ED4
100
AcDbEntity
  8
BEM
 62
     1
100
AcDbMText
 10
223.6141160451843
 20
435.2313623003175
 30
0.0
 40
7.0
 41
0.0
 71
     5
 72
     1
  1
\A1;%%c360
 73
     1
 44
1.0
  0
POINT
  5
104A
330
ED4
100
AcDbEntity
  8
DEFPOINTS
 62
     0
100
AcDbPoint
 10
43.61411604518434
 20
480.7313623003174
 30
0.0
  0
POINT
  5
104B
330
ED4
100
AcDbEntity
  8
DEFPOINTS
 62
     0
100
AcDbPoint
 10
403.6141160451843
 20
480.7313623003174
 30
0.0
  0
POINT
  5
104C
330
ED4
100
AcDbEntity
  8
DEFPOINTS
 62
     0
100
AcDbPoint
 10
403.6141160451843
 20
428.7313623003176
 30
0.0
  0
ENDBLK
  5
EDF
330
ED4
100
AcDbEntity
  8
0
100
AcDbBlockEnd
  0
BLOCK
  5
F10
330
F06
100
AcDbEntity
  8
0
100
AcDbBlockBegin
  2
*D3
 70
     1
 10
0.0
 20
0.0
 30
0.0
  3
*D3
  1

  0
LINE
  5
106C
330
F06
100
AcDbEntity
  8
BEM
 62
     0
370
    -2
100
AcDbLine
 10
113.6141160451843
 20
478.7313623003174
 30
0.0
 11
113.6141160451843
 21
458.7313623003176
 31
0.0
  0
LINE
  5
106D
330
F06
100
AcDbEntity
  8
BEM
 62
     0
370
    -2
100
AcDbLine
 10
333.6141160451843
 20
478.7313623003171
 30
0.0
 11
333.6141160451843
 21
458.7313623003176
 31
0.0
  0
LINE
  5
106E
330
F06
100
AcDbEntity
  8
BEM
 62
     0
370
    -2
100
AcDbLine
 10
120.6141160451843
 20
460.7313623003176
 30
0.0
 11
326.6141160451843
 21
460.7313623003176
 31
0.0
  0
SOLID
  5
106F
330
F06
100
AcDbEntity
  8
BEM
 62
     0
100
AcDbTrace
 10
120.6141160451843
 20
461.8980289669843
 30
0.0
 11
120.6141160451843
 21
459.5646956336509
 31
0.0
 12
113.6141160451843
 22
460.7313623003176
 32
0.0
 13
113.6141160451843
 23
460.7313623003176
 33
0.0
  0
SOLID
  5
1070
330
F06
100
AcDbEntity
  8
BEM
 62
     0
100
AcDbTrace
 10
326.6141160451843
 20
461.8980289669843
 30
0.0
 11
326.6141160451843
 21
459.5646956336509
 31
0.0
 12
333.6141160451843
 22
460.7313623003176
 32
0.0
 13
333.6141160451843
 23
460.7313623003176
 33
0.0
  0
MTEXT
  5
1071
330
F06
100
AcDbEntity
  8
BEM
 62
     1
100
AcDbMText
 10
223.6141160451843
 20
467.2313623003176
 30
0.0
 40
7.0
 41
0.0
 71
     5
 72
     1
  1
\A1;%%c220
 73
     1
 44
1.0
  0
POINT
  5
1072
330
F06
100
AcDbEntity
  8
DEFPOINTS
 62
     0
100
AcDbPoint
 10
113.6141160451843
 20
480.7313623003174
 30
0.0
  0
POINT
  5
1073
330
F06
100
AcDbEntity
  8
DEFPOINTS
 62
     0
100
AcDbPoint
 10
333.6141160451843
 20
480.7313623003172
 30
0.0
  0
POINT
  5
1074
330
F06
100
AcDbEntity
  8
DEFPOINTS
 62
     0
100
AcDbPoint
 10
333.6141160451843
 20
460.7313623003176
 30
0.0
  0
ENDBLK
  5
F11
330
F06
100
AcDbEntity
  8
0
100
AcDbBlockEnd
  0
BLOCK
  5
F1E
330
F12
100
AcDbEntity
  8
0
100
AcDbBlockBegin
  2
*D4
 70
     1
 10
0.0
 20
0.0
 30
0.0
  3
*D4
  1

  0
LINE
  5
1061
330
F12
100
AcDbEntity
  8
BEM
 62
     0
370
    -2
100
AcDbLine
 10
357.6141160451841
 20
484.7313623003174
 30
0.0
 11
357.6141160451841
 21
504.7313623003174
 31
0.0
  0
LINE
  5
1062
330
F12
100
AcDbEntity
  8
BEM
 62
     0
370
    -2
100
AcDbLine
 10
373.6141160451841
 20
484.7313623003174
 30
0.0
 11
373.6141160451841
 21
504.7313623003174
 31
0.0
  0
LINE
  5
1063
330
F12
100
AcDbEntity
  8
BEM
 62
     0
370
    -2
100
AcDbLine
 10
350.6141160451841
 20
502.7313623003173
 30
0.0
 11
343.6141160451841
 21
502.7313623003173
 31
0.0
  0
LINE
  5
1064
330
F12
100
AcDbEntity
  8
BEM
 62
     0
370
    -2
100
AcDbLine
 10
380.6141160451841
 20
502.7313623003173
 30
0.0
 11
406.4141160451841
 21
502.7313623003173
 31
0.0
  0
LINE
  5
1065
330
F12
100
AcDbEntity
  8
BEM
 62
     0
370
    -2
100
AcDbLine
 10
357.6141160451841
 20
502.7313623003173
 30
0.0
 11
373.6141160451841
 21
502.7313623003173
 31
0.0
  0
SOLID
  5
1066
330
F12
100
AcDbEntity
  8
BEM
 62
     0
100
AcDbTrace
 10
350.6141160451841
 20
503.8980289669841
 30
0.0
 11
350.6141160451841
 21
501.5646956336507
 31
0.0
 12
357.6141160451841
 22
502.7313623003173
 32
0.0
 13
357.6141160451841
 23
502.7313623003173
 33
0.0
  0
SOLID
  5
1067
330
F12
100
AcDbEntity
  8
BEM
 62
     0
100
AcDbTrace
 10
380.6141160451841
 20
503.8980289669841
 30
0.0
 11
380.6141160451841
 21
501.5646956336507
 31
0.0
 12
373.6141160451841
 22
502.7313623003173
 32
0.0
 13
373.6141160451841
 23
502.7313623003173
 33
0.0
  0
MTEXT
  5
1068
330
F12
100
AcDbEntity
  8
BEM
 62
     1
100
AcDbMText
 10
397.0141160451841
 20
509.2313623003174
 30
0.0
 40
7.0
 41
0.0
 71
     5
 72
     1
  1
\A1;%%c16
 73
     1
 44
1.0
  0
POINT
  5
1069
330
F12
100
AcDbEntity
  8
DEFPOINTS
 62
     0
100
AcDbPoint
 10
357.6141160451841
 20
482.7313623003174
 30
0.0
  0
POINT
  5
106A
330
F12
100
AcDbEntity
  8
DEFPOINTS
 62
     0
100
AcDbPoint
 10
373.6141160451841
 20
482.7313623003174
 30
0.0
  0
POINT
  5
106B
330
F12
100
AcDbEntity
  8
DEFPOINTS
 62
     0
100
AcDbPoint
 10
373.6141160451841
 20
502.7313623003173
 30
0.0
  0
ENDBLK
  5
F1F
330
F12
100
AcDbEntity
  8
0
100
AcDbBlockEnd
  0
BLOCK
  5
F2A
330
F20
100
AcDbEntity
  8
0
100
AcDbBlockBegin
  2
*D5
 70
     1
 10
0.0
 20
0.0
 30
0.0
  3
*D5
  1

  0
LINE
  5
1058
330
F20
100
AcDbEntity
  8
BEM
 62
     0
370
    -2
100
AcDbLine
 10
81.61411604518434
 20
473.7313623003173
 30
0.0
 11
81.61411604518434
 21
442.7313623003176
 31
0.0
  0
LINE
  5
1059
330
F20
100
AcDbEntity
  8
BEM
 62
     0
370
    -2
100
AcDbLine
 10
365.6141160451841
 20
473.7313623003173
 30
0.0
 11
365.6141160451841
 21
442.7313623003176
 31
0.0
  0
LINE
  5
105A
330
F20
100
AcDbEntity
  8
BEM
 62
     0
370
    -2
100
AcDbLine
 10
88.61411604518435
 20
444.7313623003176
 30
0.0
 11
358.6141160451841
 21
444.7313623003176
 31
0.0
  0
SOLID
  5
105B
330
F20
100
AcDbEntity
  8
BEM
 62
     0
100
AcDbTrace
 10
88.61411604518435
 20
445.8980289669843
 30
0.0
 11
88.61411604518435
 21
443.5646956336509
 31
0.0
 12
81.61411604518434
 22
444.7313623003176
 32
0.0
 13
81.61411604518434
 23
444.7313623003176
 33
0.0
  0
SOLID
  5
105C
330
F20
100
AcDbEntity
  8
BEM
 62
     0
100
AcDbTrace
 10
358.6141160451841
 20
445.8980289669843
 30
0.0
 11
358.6141160451841
 21
443.5646956336509
 31
0.0
 12
365.6141160451841
 22
444.7313623003176
 32
0.0
 13
365.6141160451841
 23
444.7313623003176
 33
0.0
  0
MTEXT
  5
105D
330
F20
100
AcDbEntity
  8
BEM
 62
     1
100
AcDbMText
 10
223.6141160451842
 20
451.2313623003176
 30
0.0
 40
7.0
 41
0.0
 71
     5
 72
     1
  1
\A1;%%c284
 73
     1
 44
1.0
  0
POINT
  5
105E
330
F20
100
AcDbEntity
  8
DEFPOINTS
 62
     0
100
AcDbPoint
 10
81.61411604518434
 20
475.7313623003174
 30
0.0
  0
POINT
  5
105F
330
F20
100
AcDbEntity
  8
DEFPOINTS
 62
     0
100
AcDbPoint
 10
365.6141160451841
 20
475.7313623003174
 30
0.0
  0
POINT
  5
1060
330
F20
100
AcDbEntity
  8
DEFPOINTS
 62
     0
100
AcDbPoint
 10
365.6141160451841
 20
444.7313623003176
 30
0.0
  0
ENDBLK
  5
F2B
330
F20
100
AcDbEntity
  8
0
100
AcDbBlockEnd
  0
BLOCK
  5
10D1
330
10C6
100
AcDbEntity
  8
0
100
AcDbBlockBegin
  2
*D6
 70
     1
 10
0.0
 20
0.0
 30
0.0
  3
*D6
  1

  0
LINE
  5
10D4
330
10C6
100
AcDbEntity
  8
BEM
 62
     0
370
    -2
100
AcDbLine
 10
112.598351398896
 20
251.7979527905467
 30
0.0
 11
105.4300230860715
 21
244.6296244777222
 31
0.0
  0
ARC
  5
10D5
330
10C6
100
AcDbEntity
  8
BEM
 62
     0
370
    -2
100
AcDbCircle
 10
223.6141160451851
 20
362.8137174368344
 30
0.0
 40
165.13754711954
100
AcDbArc
 50
182.428887292994
 51
222.5711127070056
  0
SOLID
  5
10D6
330
10C6
100
AcDbEntity
  8
BEM
 62
     0
100
AcDbTrace
 10
57.45852549637746
 20
355.7905629684181
 30
0.0
 11
59.79133469852694
 21
355.8400166923537
 31
0.0
 12
58.47656892564514
 22
362.8137174368344
 32
0.0
 13
58.47656892564514
 23
362.8137174368344
 33
0.0
  0
SOLID
  5
10D7
330
10C6
100
AcDbEntity
  8
BEM
 62
     0
100
AcDbTrace
 10
102.8427653557334
 20
251.90466892016
 30
0.0
 11
101.1582510861293
 21
250.2900927776555
 31
0.0
 12
106.8442366484446
 22
246.0438380400954
 32
0.0
 13
106.8442366484446
 23
246.0438380400954
 33
0.0
  0
MTEXT
  5
10D8
330
10C6
100
AcDbEntity
  8
BEM
 62
     1
100
AcDbMText
 10
77.05213317364708
 20
302.1057564031506
 30
0.0
 40
7.0
 41
0.0
 71
     5
 72
     1
  1
\A1;45°
 11
0.3826834323650869
 21
-0.923879532511288
 31
0.0
 73
     1
 44
1.0
  0
POINT
  5
10D9
330
10C6
100
AcDbEntity
  8
DEFPOINTS
 62
     0
100
AcDbPoint
 10
64.1034943923934
 20
320.0729751807829
 30
0.0
  0
POINT
  5
10DA
330
10C6
100
AcDbEntity
  8
DEFPOINTS
 62
     0
100
AcDbPoint
 10
40.61411604518437
 20
362.8137174368344
 30
0.0
  0
POINT
  5
10DB
330
10C6
100
AcDbEntity
  8
DEFPOINTS
 62
     0
100
AcDbPoint
 10
114.0125649612691
 20
253.2121663529197
 30
0.0
  0
POINT
  5
10DC
330
10C6
100
AcDbEntity
  8
DEFPOINTS
 62
     0
100
AcDbPoint
 10
132.3973412721195
 20
271.5969426637699
 30
0.0
  0
POINT
  5
10DD
330
10C6
100
AcDbEntity
  8
DEFPOINTS
 62
     0
100
AcDbPoint
 10
406.6141160451843
 20
362.8137174368344
 30
0.0
  0
ENDBLK
  5
10D2
330
10C6
100
AcDbEntity
  8
0
100
AcDbBlockEnd
  0
ENDSEC
  0
SECTION
  2
ENTITIES
  0
TEXT
  5
16A
330
81C
100
AcDbEntity
  8
VOLL
100
AcDbText
 10
78.07675471698113
 20
31.02594776470585
 30
0.0
 40
1.8
  1

  7
GREEKS
100
AcDbText
  0
TEXT
  5
398
330
81C
100
AcDbEntity
  8
VOLL
100
AcDbText
 10
156.1535094339622
 20
62.05189552941169
 30
0.0
 40
3.6
  1

  7
GREEKS
100
AcDbText
  0
ARC
  5
E20
330
81C
100
AcDbEntity
  8
STEMPEL
100
AcDbCircle
 10
223.6141160451843
 20
362.8137174368344
 30
0.0
 40
110.0
100
AcDbArc
 50
180.0
 51
0.0
  0
ARC
  5
E21
330
81C
100
AcDbEntity
  8
MITTEL
100
AcDbCircle
 10
223.6141160451843
 20
362.8137174368344
 30
0.0
 40
142.0
100
AcDbArc
 50
180.0
 51
0.0
  0
ARC
  5
E22
330
81C
100
AcDbEntity
  8
STEMPEL
100
AcDbCircle
 10
223.6141160451843
 20
362.8137174368344
 30
0.0
 40
180.0
100
AcDbArc
 50
180.0
 51
0.0
  0
DIMENSION
  5
E23
102
{ACAD_XDICTIONARY
360
E24
102
}
102
{ACAD_REACTORS
330
E25
102
}
330
81C
100
AcDbEntity
  8
BEM
100
AcDbDimension
  2
*D3
 10
333.6141160451843
 20
460.7313623003176
 30
0.0
 11
223.6141160451843
 21
467.2313623003176
 31
0.0
 70
    32
  1
%%c<>
 71
     5
 42
220.0
  3
STANDARD
100
AcDbAlignedDimension
 13
113.6141160451843
 23
480.7313623003174
 33
0.0
 14
333.6141160451843
 24
480.7313623003172
 34
0.0
100
AcDbRotatedDimension
1001
ACAD
1000
DSTYLE
1002
{
1070
    40
1040
2.0
1070
    41
1040
3.5
1070
    42
1040
1.0
1070
    43
1040
8.0
1070
    44
1040
1.0
1070
    73
1070
     0
1070
    74
1070
     0
1070
    77
1070
     1
1070
    78
1070
     8
1070
    79
1070
     2
1070
   140
1040
3.5
1070
   141
1040
1.5
1070
   146
1040
0.5
1070
   147
1040
1.5
1070
   172
1070
     1
1070
   178
1070
     1
1070
   179
1070
     2
1070
   279
1070
     0
1002
}
  0
DIMENSION
  5
E2B
102
{ACAD_XDICTIONARY
360
E2C
102
}
102
{ACAD_REACTORS
330
E2D
102
}
330
81C
100
AcDbEntity
  8
BEM
100
AcDbDimension
  2
*D4
 10
373.6141160451841
 20
502.7313623003173
 30
0.0
 11
397.0141160451841
 21
509.2313623003174
 31
0.0
 70
    32
  1
%%c<>
 71
     5
 42
16.0
  3
STANDARD
100
AcDbAlignedDimension
 13
357.6141160451841
 23
482.7313623003174
 33
0.0
 14
373.6141160451841
 24
482.7313623003174
 34
0.0
100
AcDbRotatedDimension
1001
ACAD
1000
DSTYLE
1002
{
1070
    40
1040
2.0
1070
    41
1040
3.5
1070
    42
1040
1.0
1070
    43
1040
8.0
1070
    44
1040
1.0
1070
    73
1070
     0
1070
    74
1070
     0
1070
    77
1070
     1
1070
    78
1070
     8
1070
    79
1070
     2
1070
   140
1040
3.5
1070
   141
1040
1.5
1070
   146
1040
0.5
1070
   147
1040
1.5
1070
   172
1070
     1
1070
   178
1070
     1
1070
   179
1070
     2
1070
   279
1070
     0
1002
}
  0
DIMENSION
  5
E2E
102
{ACAD_XDICTIONARY
360
E2F
102
}
102
{ACAD_REACTORS
330
E30
102
}
330
81C
100
AcDbEntity
  8
BEM
100
AcDbDimension
  2
*D5
 10
365.6141160451841
 20
444.7313623003176
 30
0.0
 11
223.6141160451842
 21
451.2313623003176
 31
0.0
 70
    32
  1
%%c<>
 71
     5
 42
283.9999999999998
  3
STANDARD
100
AcDbAlignedDimension
 13
81.61411604518434
 23
475.7313623003174
 33
0.0
 14
365.6141160451841
 24
475.7313623003174
 34
0.0
100
AcDbRotatedDimension
1001
ACAD
1000
DSTYLE
1002
{
1070
    40
1040
2.0
1070
    41
1040
3.5
1070
    42
1040
1.0
1070
    43
1040
8.0
1070
    44
1040
1.0
1070
    73
1070
     0
1070
    74
1070
     0
1070
    77
1070
     1
1070
    78
1070
     8
1070
    79
1070
     2
1070
   140
1040
3.5
1070
   141
1040
1.5
1070
   146
1040
0.5
1070
   147
1040
1.5
1070
   172
1070
     1
1070
   178
1070
     1
1070
   179
1070
     2
1070
   279
1070
     0
1002
}
  0
DIMENSION
  5
E31
330
81C
100
AcDbEntity
  8
BEM
100
AcDbDimension
  2
*D1
 10
60.62879297596487
 20
482.7313623003176
 30
0.0
 11
54.12879297596479
 21
501.5980289669843
 31
0.0
 70
    32
 71
     5
 42
2.000000000000227
  3
STANDARD
100
AcDbAlignedDimension
 13
56.5175124938753
 23
480.7313623003174
 33
0.0
 14
57.24062253876877
 24
482.7313623003176
 34
0.0
 50
90.0
100
AcDbRotatedDimension
1001
ACAD
1000
DSTYLE
1002
{
1070
    40
1040
2.0
1070
    41
1040
3.5
1070
    42
1040
1.0
1070
    43
1040
8.0
1070
    44
1040
1.0
1070
    73
1070
     0
1070
    74
1070
     0
1070
    77
1070
     1
1070
    78
1070
     8
1070
    79
1070
     2
1070
   140
1040
3.5
1070
   141
1040
1.5
1070
   146
1040
0.5
1070
   147
1040
1.5
1070
   172
1070
     1
1070
   178
1070
     1
1070
   179
1070
     2
1070
   279
1070
     0
1002
}
  0
LINE
  5
E32
102
{ACAD_REACTORS
330
E2D
330
FDD
102
}
330
81C
100
AcDbEntity
  8
STEMPEL
100
AcDbLine
 10
373.6141160451841
 20
482.7313623003176
 30
0.0
 11
373.6141160451841
 21
480.7313623003176
 31
0.0
  0
LINE
  5
E33
102
{ACAD_REACTORS
330
E2D
330
FDD
102
}
330
81C
100
AcDbEntity
  8
STEMPEL
100
AcDbLine
 10
357.6141160451841
 20
482.7313623003176
 30
0.0
 11
357.6141160451841
 21
480.7313623003176
 31
0.0
  0
LINE
  5
E34
102
{ACAD_REACTORS
330
FDD
102
}
330
81C
100
AcDbEntity
  8
STEMPEL
100
AcDbLine
 10
89.61411604518435
 20
482.7313623003176
 30
0.0
 11
89.61411604518435
 21
480.7313623003176
 31
0.0
  0
LINE
  5
E35
102
{ACAD_REACTORS
330
FDD
102
}
330
81C
100
AcDbEntity
  8
STEMPEL
100
AcDbLine
 10
73.61411604518434
 20
482.7313623003176
 30
0.0
 11
73.61411604518434
 21
480.7313623003176
 31
0.0
  0
LINE
  5
E36
102
{ACAD_REACTORS
330
E30
102
}
330
81C
100
AcDbEntity
  8
MITTEL
100
AcDbLine
 10
365.6141160451841
 20
487.7313623003174
 30
0.0
 11
365.6141160451841
 21
475.7313623003174
 31
0.0
  0
LINE
  5
E37
102
{ACAD_REACTORS
330
E30
102
}
330
81C
100
AcDbEntity
  8
MITTEL
100
AcDbLine
 10
81.61411604518434
 20
487.7313623003174
 30
0.0
 11
81.61411604518434
 21
475.7313623003174
 31
0.0
  0
LINE
  5
E38
102
{ACAD_REACTORS
330
FDD
102
}
330
81C
100
AcDbEntity
  8
STEMPEL
100
AcDbLine
 10
403.6141160451843
 20
482.7313623003176
 30
0.0
 11
403.6141160451843
 21
480.7313623003174
 31
0.0
  0
LINE
  5
E39
102
{ACAD_REACTORS
330
FDD
102
}
330
81C
100
AcDbEntity
  8
STEMPEL
100
AcDbLine
 10
43.61411604518434
 20
482.7313623003176
 30
0.0
 11
43.61411604518434
 21
480.7313623003174
 31
0.0
  0
LINE
  5
E3A
102
{ACAD_REACTORS
330
E25
330
FDD
102
}
330
81C
100
AcDbEntity
  8
STEMPEL
100
AcDbLine
 10
333.6141160451843
 20
482.7313623003174
 30
0.0
 11
333.6141160451843
 21
480.7313623003172
 31
0.0
  0
LINE
  5
E3B
102
{ACAD_REACTORS
330
E25
330
FDD
102
}
330
81C
100
AcDbEntity
  8
STEMPEL
100
AcDbLine
 10
113.6141160451843
 20
482.7313623003171
 30
0.0
 11
113.6141160451843
 21
480.7313623003174
 31
0.0
  0
DIMENSION
  5
E3C
330
81C
100
AcDbEntity
  8
BEM
100
AcDbDimension
  2
*D2
 10
403.6141160451843
 20
428.7313623003176
 30
0.0
 11
223.6141160451843
 21
435.2313623003175
 31
0.0
 70
    32
  1
%%c<>
 71
     5
 42
360.0
  3
STANDARD
100
AcDbAlignedDimension
 13
43.61411604518434
 23
480.7313623003174
 33
0.0
 14
403.6141160451843
 24
480.7313623003174
 34
0.0
100
AcDbRotatedDimension
1001
ACAD
1000
DSTYLE
1002
{
1070
    40
1040
2.0
1070
    41
1040
3.5
1070
    42
1040
1.0
1070
    43
1040
8.0
1070
    44
1040
1.0
1070
    73
1070
     0
1070
    74
1070
     0
1070
    77
1070
     1
1070
    78
1070
     8
1070
    79
1070
     2
1070
   140
1040
3.5
1070
   141
1040
1.5
1070
   146
1040
0.5
1070
   147
1040
1.5
1070
   172
1070
     1
1070
   178
1070
     1
1070
   179
1070
     2
1070
   279
1070
     0
1002
}
  0
LINE
  5
E3D
102
{ACAD_REACTORS
330
10DE
102
}
330
81C
100
AcDbEntity
  8
MITTEL
100
AcDbLine
 10
114.0125649612691
 20
253.2121663529197
 30
0.0
 11
132.3973412721195
 21
271.5969426637699
 31
0.0
  0
CIRCLE
  5
E3E
330
81C
100
AcDbEntity
  8
STEMPEL
100
AcDbCircle
 10
123.2049531166945
 20
262.4045545083448
 30
0.0
 40
8.0
  0
CIRCLE
  5
E41
330
81C
100
AcDbEntity
  8
STEMPEL
100
AcDbCircle
 10
324.0232789736742
 20
262.4045545083448
 30
0.0
 40
8.0
  0
LINE
  5
E42
330
81C
100
AcDbEntity
  8
MITTEL
100
AcDbLine
 10
333.2156671290996
 20
253.2121663529197
 30
0.0
 11
314.8308908182494
 21
271.5969426637699
 31
0.0
  0
CIRCLE
  5
E43
330
81C
100
AcDbEntity
  8
STEMPEL
100
AcDbCircle
 10
223.6141160451843
 20
220.8137174368344
 30
0.0
 40
8.0
  0
ARC
  5
E44
330
81C
100
AcDbEntity
  8
STEMPEL
100
AcDbCircle
 10
365.6141160451844
 20
362.8137174368344
 30
0.0
 40
8.0
100
AcDbArc
 50
180.0
 51
0.0
  0
ARC
  5
E48
330
81C
100
AcDbEntity
  8
STEMPEL
100
AcDbCircle
 10
81.61411604518434
 20
362.8137174368344
 30
0.0
 40
8.0
100
AcDbArc
 50
180.0
 51
0.0
  0
LINE
  5
E49
330
81C
100
AcDbEntity
  8
MITTEL
100
AcDbLine
 10
223.6141160451843
 20
362.8137174368344
 30
0.0
 11
223.6141160451843
 21
179.8137174368344
 31
0.0
  0
LINE
  5
E4A
102
{ACAD_REACTORS
330
10DE
102
}
330
81C
100
AcDbEntity
  8
MITTEL
100
AcDbLine
 10
40.61411604518434
 20
362.8137174368344
 30
0.0
 11
406.6141160451843
 21
362.8137174368344
 31
0.0
  0
TEXT
  5
E4B
330
81C
100
AcDbEntity
  8
TEXT
100
AcDbText
 10
416.5811541437437
 20
12.14804815338311
 30
0.0
 40
4.0
  1
Diese Zeichnung ist urheberrechtlich geschützt und bleibt unser Eigentum. Sie darf weder ganz noch teilweise vervielfältigt und nicht an Dritte weitergegeben werden.
 50
90.0
 41
0.8
100
AcDbText
  0
TEXT
  5
E4C
330
81C
100
AcDbEntity
  8
TEXT
100
AcDbText
 10
139.6666666666669
 20
73.0
 30
0.0
 40
4.0
  1
2010
 41
0.8
 72
     4
 11
145.0000000000002
 21
75.0
 31
0.0
100
AcDbText
  0
TEXT
  5
E4D
330
81C
100
AcDbEntity
  8
TEXT
100
AcDbText
 10
163.2666666666669
 20
73.66666666666667
 30
0.0
 40
4.0
  1
Tag
 41
0.8
 72
     4
 11
167.0000000000002
 21
75.0
 31
0.0
100
AcDbText
  0
TEXT
  5
E4E
330
81C
100
AcDbEntity
  8
TEXT
100
AcDbText
 10
160.6000000000002
 20
63.0
 30
0.0
 40
4.0
  1
30.11.
 41
0.8
 72
     4
 11
167.0000000000002
 21
65.0
 31
0.0
100
AcDbText
  0
TEXT
  5
E4F
330
81C
100
AcDbEntity
  8
TEXT
100
AcDbText
 10
194.7428571428573
 20
63.0
 30
0.0
 40
4.0
  1
Koeh
 41
0.8
 72
     4
 11
200.0000000000002
 21
65.0
 31
0.0
100
AcDbText
  0
TEXT
  5
E50
330
81C
100
AcDbEntity
  8
TEXT
100
AcDbText
 10
193.6761904761907
 20
73.0
 30
0.0
 40
4.0
  1
Name
 41
0.8
 72
     4
 11
200.0000000000002
 21
75.0
 31
0.0
100
AcDbText
  0
TEXT
  5
E51
330
81C
100
AcDbEntity
  8
TEXT
100
AcDbText
 10
183.3333333333335
 20
87.97451858822
 30
0.0
 40
4.0
  1
DIN ISO 3302-1
 41
0.7
 72
     1
 11
200.0000000000002
 21
87.97451858822
 31
0.0
100
AcDbText
  0
TEXT
  5
E52
330
81C
100
AcDbEntity
  8
TEXT
 62
     1
100
AcDbText
 10
152.0000000000004
 20
86.76797432752641
 30
0.0
 40
7.0
  1
1:2
 41
0.8
 72
     1
 11
158.0000000000004
 21
86.76797432752641
 31
0.0
100
AcDbText
  0
TEXT
  5
E53
330
81C
100
AcDbEntity
  8
TEXT
100
AcDbText
 10
146.1904761904766
 20
102.5489328011779
 30
0.0
 40
5.0
  1
Maßstab
 41
0.8
 72
     1
 11
158.0000000000004
 21
102.5489328011779
 31
0.0
100
AcDbText
  0
TEXT
  5
E54
330
81C
100
AcDbEntity
  8
TEXT
100
AcDbText
 10
186.5714285714288
 20
102.5489328011779
 30
0.0
 40
5.0
  1
Zul. Abw.
 41
0.8
 72
     1
 11
200.0000000000002
 21
102.5489328011779
 31
0.0
100
AcDbText
  0
INSERT
  5
E55
330
81C
100
AcDbEntity
  8
STEMPEL
100
AcDbBlockReference
  2
LOGO
 10
140.9955485457794
 20
45.02105276448332
 30
0.0
 41
2.0
 42
2.0
 43
2.0
  0
TEXT
  5
E56
330
81C
100
AcDbEntity
  8
TEXT
100
AcDbText
 10
224.9837501577827
 20
42.62974153022628
 30
0.0
 40
4.0
  1
21804150W.DWG
 41
0.8
100
AcDbText
  0
TEXT
  5
E57
330
81C
100
AcDbEntity
  8
TEXT
100
AcDbText
 10
225.1296391125316
 20
51.64011943042169
 30
0.0
 40
5.0
  1
EDV-Art.Nr. 21804.150X
 41
0.8
100
AcDbText
  0
TEXT
  5
E58
330
81C
100
AcDbEntity
  8
TEXT
100
AcDbText
 10
225.1296391125316
 20
71.50334417585281
 30
0.0
 40
5.0
  1
für LORO-FLEX Rohrdurchführung DN125
 41
0.6
100
AcDbText
  0
TEXT
  5
E59
330
81C
100
AcDbEntity
  8
TEXT
 62
     1
100
AcDbText
 10
224.7736801096948
 20
88.06884614051297
 30
0.0
 40
7.0
  1
Kompressionsdichtung
 41
0.8
100
AcDbText
  0
TEXT
  5
E5A
330
81C
100
AcDbEntity
  8
TEXT
 62
     1
100
AcDbText
 10
347.8717571204384
 20
87.30328446770476
 30
0.0
 40
7.0
  1
21804150W
 41
0.8
 72
     1
 11
370.8050904537718
 21
87.30328446770476
 31
0.0
100
AcDbText
  0
TEXT
  5
E5B
330
81C
100
AcDbEntity
  8
TEXT
100
AcDbText
 10
41.85509950977677
 20
111.672
 30
0.0
 40
5.0
  1
Erstellt mit AUTOCAD 2004
 41
0.8
100
AcDbText
  0
LINE
  5
E5C
330
81C
100
AcDbEntity
  8
HILF
100
AcDbLine
 10
420.0
 20
0.0
 30
0.0
 11
420.0
 21
594.0
 31
0.0
  0
LINE
  5
E5D
330
81C
100
AcDbEntity
  8
HILF
100
AcDbLine
 10
31.08767135713856
 20
297.0
 30
0.0
 11
0.0000000000001137
 21
297.0
 31
0.0
  0
LINE
  5
E5E
330
81C
100
AcDbEntity
  8
HILF
100
AcDbLine
 10
420.0
 20
0.0
 30
0.0
 11
0.0
 21
0.0
 31
0.0
  0
LINE
  5
E5F
330
81C
100
AcDbEntity
  8
HILF
100
AcDbLine
 10
420.0
 20
594.0000000000002
 30
0.0
 11
0.0
 21
594.0
 31
0.0
  0
LINE
  5
E60
330
81C
100
AcDbEntity
  8
HILF
100
AcDbLine
 10
0.0
 20
0.0
 30
0.0
 11
-0.0000000000001137
 21
594.0
 31
0.0
  0
LINE
  5
E61
330
81C
100
AcDbEntity
  8
STEMPEL
100
AcDbLine
 10
410.0
 20
584.0
 30
0.0
 11
39.99999999999989
 21
584.0
 31
0.0
  0
LINE
  5
E62
330
81C
100
AcDbEntity
  8
STEMPEL
100
AcDbLine
 10
40.0
 20
10.0
 30
0.0
 11
39.99999999999989
 21
584.0
 31
0.0
  0
LINE
  5
E63
330
81C
100
AcDbEntity
  8
STEMPEL
100
AcDbLine
 10
410.0
 20
110.0
 30
0.0
 11
410.0
 21
584.0
 31
0.0
  0
LINE
  5
E64
330
81C
100
AcDbEntity
  8
STEMPEL
100
AcDbLine
 10
410.0
 20
10.0
 30
0.0
 11
39.99999999999989
 21
10.0
 31
0.0
  0
TEXT
  5
E65
330
81C
100
AcDbEntity
  8
TEXT
100
AcDbText
 10
337.2400861497006
 20
52.07416177878599
 30
0.0
 40
5.0
  1
ersetzt durch:
 41
0.8
100
AcDbText
  0
LINE
  5
E66
330
81C
100
AcDbEntity
  8
STEMPEL
100
AcDbLine
 10
410.0
 20
110.0
 30
0.0
 11
410.0
 21
10.0
 31
0.0
  0
LINE
  5
E67
330
81C
100
AcDbEntity
  8
STEMPEL
100
AcDbLine
 10
49.99999999999989
 20
10.0
 30
0.0
 11
410.0
 21
10.0
 31
0.0
  0
TEXT
  5
E68
330
81C
100
AcDbEntity
  8
TEXT
100
AcDbText
 10
137.6006777387304
 20
43.5294638964981
 30
0.0
 40
4.0
  1
Norm.
 41
0.8
100
AcDbText
  0
TEXT
  5
E69
330
81C
100
AcDbEntity
  8
TEXT
100
AcDbText
 10
137.5515086571672
 20
53.68926291428374
 30
0.0
 40
4.0
  1
Gepr.
 41
0.8
100
AcDbText
  0
TEXT
  5
E6A
330
81C
100
AcDbEntity
  8
TEXT
100
AcDbText
 10
137.5836127167615
 20
63.62990369617955
 30
0.0
 40
4.0
  1
Gez.
 41
0.8
100
AcDbText
  0
TEXT
  5
E6B
330
81C
100
AcDbEntity
  8
TEXT
100
AcDbText
 10
118.6761904761904
 20
18.0
 30
0.0
 40
4.0
  1
Name
 41
0.8
 72
     4
 11
125.0
 21
20.0
 31
0.0
100
AcDbText
  0
TEXT
  5
E6C
330
81C
100
AcDbEntity
  8
TEXT
100
AcDbText
 10
100.2666666666666
 20
18.66666666666667
 30
0.0
 40
4.0
  1
Tag
 41
0.8
 72
     4
 11
104.0
 21
20.0
 31
0.0
100
AcDbText
  0
TEXT
  5
E6D
330
81C
100
AcDbEntity
  8
TEXT
100
AcDbText
 10
48.26641107045759
 20
13.654658460272
 30
0.0
 40
4.0
  1
Index
 50
90.0
 41
0.8
100
AcDbText
  0
TEXT
  5
E6E
330
81C
100
AcDbEntity
  8
TEXT
100
AcDbText
 10
336.7238616296993
 20
73.18118237099975
 30
0.0
 40
5.0
  1
Ersatz für:
 41
0.8
100
AcDbText
  0
TEXT
  5
E6F
330
81C
100
AcDbEntity
  8
TEXT
100
AcDbText
 10
224.742238391136
 20
30.84560570193048
 30
0.0
 40
5.0
  1
Bauvorhaben
 41
0.8
100
AcDbText
  0
TEXT
  5
E70
330
81C
100
AcDbEntity
  8
TEXT
100
AcDbText
 10
336.178754957634
 20
102.3132034537136
 30
0.0
 40
5.0
  1
Zeichnungs Nr.
 41
0.8
100
AcDbText
  0
TEXT
  5
E71
330
81C
100
AcDbEntity
  8
TEXT
100
AcDbText
 10
224.877940380901
 20
102.5489328011779
 30
0.0
 40
5.0
  1
Benennung
 41
0.8
100
AcDbText
  0
TEXT
  5
E72
330
81C
100
AcDbEntity
  8
TEXT
100
AcDbText
 10
63.25714285714285
 20
18.28571428571428
 30
0.0
 40
4.0
  1
Änderung
 41
0.8
 72
     4
 11
74.0
 21
20.0
 31
0.0
100
AcDbText
  0
LINE
  5
E73
330
81C
100
AcDbEntity
  8
HILF
100
AcDbLine
 10
223.4909699289886
 20
14.89398258028314
 30
0.0
 11
404.8588839326728
 21
14.89398258028314
 31
0.0
  0
LINE
  5
E74
330
81C
100
AcDbEntity
  8
HILF
100
AcDbLine
 10
336.7238616296993
 20
83.77983636955832
 30
0.0
 11
404.8588839326728
 21
83.77983636955832
 31
0.0
  0
LINE
  5
E75
330
81C
100
AcDbEntity
  8
VOLL
100
AcDbLine
 10
332.0
 20
60.0
 30
0.0
 11
410.0
 21
60.0
 31
0.0
  0
LINE
  5
E76
330
81C
100
AcDbEntity
  8
HILF
100
AcDbLine
 10
224.7736801096948
 20
50.0
 30
0.0
 11
324.8353916556309
 21
50.0
 31
0.0
  0
LINE
  5
E77
330
81C
100
AcDbEntity
  8
HILF
100
AcDbLine
 10
224.7736801096948
 20
60.0
 30
0.0
 11
324.8353916556309
 21
60.0
 31
0.0
  0
LINE
  5
E78
330
81C
100
AcDbEntity
  8
HILF
100
AcDbLine
 10
224.7736801096948
 20
70.0
 30
0.0
 11
324.8353916556309
 21
70.0
 31
0.0
  0
LINE
  5
E79
330
81C
100
AcDbEntity
  8
HILF
100
AcDbLine
 10
224.7736801096948
 20
84.03758247564132
 30
0.0
 11
324.8353916556312
 21
84.03758247564132
 31
0.0
  0
LINE
  5
E7A
330
81C
100
AcDbEntity
  8
HILF
100
AcDbLine
 10
136.0000000000001
 20
50.0
 30
0.0
 11
220.0
 21
50.0
 31
0.0
  0
LINE
  5
E7B
330
81C
100
AcDbEntity
  8
HILF
100
AcDbLine
 10
136.0000000000001
 20
60.0
 30
0.0
 11
220.0
 21
60.0
 31
0.0
  0
LINE
  5
E7C
330
81C
100
AcDbEntity
  8
HILF
100
AcDbLine
 10
136.0000000000001
 20
70.0
 30
0.0
 11
220.0
 21
70.0
 31
0.0
  0
LINE
  5
E7D
330
81C
100
AcDbEntity
  8
HILF
100
AcDbLine
 10
40.00000000000011
 20
40.0
 30
0.0
 11
136.0000000000001
 21
40.0
 31
0.0
  0
LINE
  5
E7E
330
81C
100
AcDbEntity
  8
HILF
100
AcDbLine
 10
40.00000000000011
 20
50.0
 30
0.0
 11
136.0000000000001
 21
50.0
 31
0.0
  0
LINE
  5
E7F
330
81C
100
AcDbEntity
  8
HILF
100
AcDbLine
 10
40.00000000000011
 20
60.0
 30
0.0
 11
136.0000000000001
 21
60.0
 31
0.0
  0
LINE
  5
E80
330
81C
100
AcDbEntity
  8
HILF
100
AcDbLine
 10
40.00000000000011
 20
70.0
 30
0.0
 11
136.0000000000001
 21
70.0
 31
0.0
  0
LINE
  5
E81
330
81C
100
AcDbEntity
  8
HILF
100
AcDbLine
 10
40.00000000000011
 20
80.0
 30
0.0
 11
136.0000000000001
 21
80.0
 31
0.0
  0
LINE
  5
E82
330
81C
100
AcDbEntity
  8
HILF
100
AcDbLine
 10
40.00000000000011
 20
90.0
 30
0.0
 11
136.0000000000001
 21
90.0
 31
0.0
  0
LINE
  5
E83
330
81C
100
AcDbEntity
  8
HILF
100
AcDbLine
 10
40.00000000000011
 20
100.0
 30
0.0
 11
136.0000000000001
 21
100.0
 31
0.0
  0
LINE
  5
E84
330
81C
100
AcDbEntity
  8
VOLL
100
AcDbLine
 10
180.0000000000001
 20
109.9999999999997
 30
0.0
 11
180.0
 21
40.0
 31
0.0
  0
LINE
  5
E85
330
81C
100
AcDbEntity
  8
VOLL
100
AcDbLine
 10
154.0000000000001
 20
80.0
 30
0.0
 11
154.0000000000001
 21
40.0
 31
0.0
  0
LINE
  5
E86
330
81C
100
AcDbEntity
  8
VOLL
100
AcDbLine
 10
114.0000000000001
 20
110.0
 30
0.0
 11
114.0
 21
10.0
 31
0.0
  0
LINE
  5
E87
330
81C
100
AcDbEntity
  8
VOLL
100
AcDbLine
 10
94.00000000000011
 20
110.0
 30
0.0
 11
94.0
 21
10.0
 31
0.0
  0
LINE
  5
E88
330
81C
100
AcDbEntity
  8
VOLL
100
AcDbLine
 10
54.00000000000011
 20
110.0
 30
0.0
 11
54.0
 21
10.0
 31
0.0
  0
LINE
  5
E89
330
81C
100
AcDbEntity
  8
STEMPEL
100
AcDbLine
 10
410.0
 20
80.0
 30
0.0
 11
136.0000000000001
 21
80.0
 31
0.0
  0
LINE
  5
E8A
330
81C
100
AcDbEntity
  8
STEMPEL
100
AcDbLine
 10
410.0
 20
40.0
 30
0.0
 11
136.0000000000001
 21
40.0
 31
0.0
  0
LINE
  5
E8B
330
81C
100
AcDbEntity
  8
STEMPEL
100
AcDbLine
 10
135.9999999999999
 20
30.0
 30
0.0
 11
40.0
 21
30.0
 31
0.0
  0
LINE
  5
E8C
330
81C
100
AcDbEntity
  8
STEMPEL
100
AcDbLine
 10
332.0
 20
109.9999999999997
 30
0.0
 11
332.0
 21
40.0
 31
0.0
  0
LINE
  5
E8D
330
81C
100
AcDbEntity
  8
STEMPEL
100
AcDbLine
 10
220.0
 20
110.0
 30
0.0
 11
220.0
 21
10.0
 31
0.0
  0
LINE
  5
E8E
330
81C
100
AcDbEntity
  8
STEMPEL
100
AcDbLine
 10
136.0000000000001
 20
110.0
 30
0.0
 11
136.0
 21
10.0
 31
0.0
  0
LINE
  5
E8F
330
81C
100
AcDbEntity
  8
STEMPEL
100
AcDbLine
 10
410.0
 20
110.0
 30
0.0
 11
40.0
 21
110.0
 31
0.0
  0
TEXT
  5
E90
330
81C
100
AcDbEntity
  8
TEXT
 62
     1
100
AcDbText
 10
284.0667074336911
 20
126.3622062952267
 30
0.0
 40
7.0
  1
Werkstoff: Semperit P9540
 41
0.8
100
AcDbText
  0
LINE
  5
E91
102
{ACAD_REACTORS
330
FDD
102
}
330
81C
100
AcDbEntity
  8
STEMPEL
100
AcDbLine
 10
43.61411604518434
 20
480.7313623003176
 30
0.0
 11
403.6141160451843
 21
480.7313623003176
 31
0.0
  0
LINE
  5
E92
102
{ACAD_REACTORS
330
E2D
330
FDD
102
}
330
81C
100
AcDbEntity
  8
STEMPEL
100
AcDbLine
 10
43.61411604518434
 20
482.7313623003174
 30
0.0
 11
403.6141160451843
 21
482.7313623003174
 31
0.0
  0
LINE
  5
E93
330
81C
100
AcDbEntity
  8
MITTEL
100
AcDbLine
 10
223.6141160451843
 20
487.7313623003174
 30
0.0
 11
223.6141160451843
 21
475.7313623003174
 31
0.0
  0
HATCH
  5
FDD
330
81C
100
AcDbEntity
  8
SCHRAFF
100
AcDbHatch
 10
0.0
 20
0.0
 30
0.0
210
0.0
220
0.0
230
1.0
  2
ANSI37
 70
     0
 71
     1
 91
        4
 92
        7
 72
     0
 73
     1
 93
        4
 10
43.61411604518434
 20
482.7313623003174
 10
43.61411604518434
 20
480.7313623003176
 10
73.61411604518434
 20
480.7313623003177
 10
73.61411604518436
 20
482.7313623003174
 97
        4
330
E92
330
E39
330
E91
330
E35
 92
        7
 72
     0
 73
     1
 93
        4
 10
89.61411604518435
 20
482.7313623003174
 10
89.61411604518435
 20
480.7313623003176
 10
113.6141160451843
 20
480.7313623003175
 10
113.6141160451843
 20
482.7313623003174
 97
        4
330
E92
330
E34
330
E91
330
E3B
 92
        7
 72
     0
 73
     1
 93
        4
 10
333.6141160451843
 20
482.7313623003174
 10
333.6141160451843
 20
480.7313623003176
 10
357.6141160451841
 20
480.7313623003176
 10
357.6141160451841
 20
482.7313623003174
 97
        4
330
E92
330
E3A
330
E91
330
E33
 92
        7
 72
     0
 73
     1
 93
        4
 10
403.6141160451843
 20
480.7313623003176
 10
403.6141160451843
 20
482.7313623003174
 10
373.6141160451841
 20
482.7313623003174
 10
373.6141160451841
 20
480.7313623003176
 97
        4
330
E92
330
E32
330
E91
330
E38
 75
     0
 76
     1
 52
0.0
 41
15.0
 77
     0
 78
     2
 53
45.0
 43
0.0
 44
-68.36860920927756
 45
-1.325825214724776
 46
1.325825214724776
 79
     0
 53
135.0
 43
0.0
 44
-68.36860920927756
 45
-1.325825214724776
 46
-1.325825214724776
 79
     0
 47
0.552815404674303
 98
        4
 10
54.43112758400639
 20
481.9644356382532
 10
98.13667128740418
 20
481.9644356382532
 10
345.9857569986816
 20
481.9644356382532
 10
389.6912856945037
 20
481.4116181985
  0
DIMENSION
  5
10C5
102
{ACAD_XDICTIONARY
360
10D3
102
}
102
{ACAD_REACTORS
330
10DE
102
}
330
81C
100
AcDbEntity
  8
BEM
100
AcDbDimension
  2
*D6
 10
406.6141160451843
 20
362.8137174368344
 30
0.0
 11
77.05213317364711
 21
302.1057564031506
 31
0.0
 70
    34
 71
     5
 42
0.7853981633974421
  3
STANDARD
100
AcDb2LineAngularDimension
 13
114.0125649612691
 23
253.2121663529197
 33
0.0
 14
132.3973412721195
 24
271.5969426637699
 34
0.0
 15
40.61411604518434
 25
362.8137174368344
 35
0.0
 16
64.1034943923934
 26
320.0729751807829
 36
0.0
1001
ACAD
1000
DSTYLE
1002
{
1070
    40
1040
2.0
1070
    41
1040
3.5
1070
    42
1040
1.0
1070
    43
1040
8.0
1070
    44
1040
1.0
1070
    73
1070
     0
1070
    74
1070
     0
1070
    77
1070
     1
1070
    78
1070
     8
1070
    79
1070
     2
1070
   140
1040
3.5
1070
   141
1040
1.5
1070
   146
1040
0.5
1070
   147
1040
1.5
1070
   172
1070
     1
1070
   178
1070
     1
1070
   179
1070
     2
1070
   279
1070
     0
1002
}
  0
ENDSEC
  0
SECTION
  2
OBJECTS
  0
DICTIONARY
  5
808
330
0
100
AcDbDictionary
281
     1
  3
ACAD_COLOR
350
817
  3
ACAD_GROUP
350
809
  3
ACAD_LAYOUT
350
815
  3
ACAD_MATERIAL
350
816
  3
ACAD_MLINESTYLE
350
812
  3
ACAD_PLOTSETTINGS
350
814
  3
ACAD_PLOTSTYLENAME
350
80A
  3
AcDbVariableDictionary
350
9EB
  0
DICTIONARY
  5
E24
330
E23
100
AcDbDictionary
280
     1
281
     1
  3
ACAD_DIMASSOC
360
E25
  0
DICTIONARY
  5
E2C
330
E2B
100
AcDbDictionary
280
     1
281
     1
  3
ACAD_DIMASSOC
360
E2D
  0
DICTIONARY
  5
E2F
330
E2E
100
AcDbDictionary
280
     1
281
     1
  3
ACAD_DIMASSOC
360
E30
  0
DICTIONARY
  5
10D3
330
10C5
100
AcDbDictionary
280
     1
281
     1
  3
ACAD_DIMASSOC
360
10DE
  0
DICTIONARY
  5
817
102
{ACAD_REACTORS
330
808
102
}
330
808
100
AcDbDictionary
281
     1
  0
DICTIONARY
  5
809
102
{ACAD_REACTORS
330
808
102
}
330
808
100
AcDbDictionary
281
     1
  0
DICTIONARY
  5
815
102
{ACAD_REACTORS
330
808
102
}
330
808
100
AcDbDictionary
281
     1
  3
Layout1
350
81B
  3
Model
350
81F
  0
DICTIONARY
  5
816
102
{ACAD_REACTORS
330
808
102
}
330
808
100
AcDbDictionary
281
     1
  0
DICTIONARY
  5
812
102
{ACAD_REACTORS
330
808
102
}
330
808
100
AcDbDictionary
281
     1
  3
Standard
350
813
  0
DICTIONARY
  5
814
102
{ACAD_REACTORS
330
808
102
}
330
808
100
AcDbDictionary
281
     1
  0
ACDBDICTIONARYWDFLT
  5
80A
102
{ACAD_REACTORS
330
808
102
}
330
808
100
AcDbDictionary
281
     1
  3
Normal
350
80B
100
AcDbDictionaryWithDefault
340
80B
  0
DICTIONARY
  5
9EB
102
{ACAD_REACTORS
330
808
102
}
330
808
100
AcDbDictionary
281
     1
  3
DIMASSOC
350
9ED
  3
HIDETEXT
350
9EC
  3
PROJECTNAME
350
9EE
  0
DIMASSOC
  5
E25
102
{ACAD_REACTORS
330
E24
102
}
330
E24
100
AcDbDimAssoc
330
E23
 90
        3
 70
     0
 71
     0
  1
AcDbOsnapPointRef
 72
     1
331
E3B
 73
     2
 91
        0
 40
1.0
 10
0.0
 20
0.0
 30
2.000000000000000E+50
 75
     0
  1
AcDbOsnapPointRef
 72
     1
331
E3A
 73
     2
 91
        0
 40
1.0
 10
0.0
 20
0.0
 30
2.000000000000000E+50
 75
     0
  0
DIMASSOC
  5
E2D
102
{ACAD_REACTORS
330
E2C
102
}
330
E2C
100
AcDbDimAssoc
330
E2B
 90
        3
 70
     0
 71
     0
  1
AcDbOsnapPointRef
 72
     6
331
E33
 73
     2
 91
        0
 40
0.0000000000001137
 10
0.0
 20
0.0
 30
0.0
332
E92
 74
     2
 92
        0
 75
     0
  1
AcDbOsnapPointRef
 72
     6
331
E32
 73
     2
 91
        0
 40
0.0000000000001137
 10
0.0
 20
0.0
 30
0.0
332
E92
 74
     2
 92
        0
 75
     0
  0
DIMASSOC
  5
E30
102
{ACAD_REACTORS
330
E2F
102
}
330
E2F
100
AcDbDimAssoc
330
E2E
 90
        3
 70
     0
 71
     0
  1
AcDbOsnapPointRef
 72
     1
331
E37
 73
     2
 91
        0
 40
1.0
 10
0.0
 20
0.0
 30
2.000000000000000E+50
 75
     0
  1
AcDbOsnapPointRef
 72
     1
331
E36
 73
     2
 91
        0
 40
1.0
 10
0.0
 20
0.0
 30
2.000000000000000E+50
 75
     0
  0
DIMASSOC
  5
10DE
102
{ACAD_REACTORS
330
10D3
102
}
330
10D3
100
AcDbDimAssoc
330
10C5
 90
       15
 70
     0
 71
     0
  1
AcDbOsnapPointRef
 72
    13
331
E3D
 73
     2
 91
        0
 40
0.0
 10
0.0
 20
0.0
 30
2.000000000000000E+50
 75
     0
  1
AcDbOsnapPointRef
 72
     1
331
E3D
 73
     2
 91
        0
 40
0.9999999999999998
 10
0.0
 20
0.0
 30
2.000000000000000E+50
 75
     0
  1
AcDbOsnapPointRef
 72
    13
331
E4A
 73
     2
 91
        0
 40
0.0
 10
0.0
 20
0.0
 30
2.000000000000000E+50
 75
     0
  1
AcDbOsnapPointRef
 72
     1
331
E4A
 73
     2
 91
        0
 40
1.0
 10
0.0
 20
0.0
 30
2.000000000000000E+50
 75
     0
  0
LAYOUT
  5
81B
102
{ACAD_REACTORS
330
815
102
}
330
815
100
AcDbPlotSettings
  1

  2
RICOH Aficio 2027 PCL 6
  4

  6

 40
0.0
 41
0.0
 42
0.0
 43
0.0
 44
0.0
 45
0.0
 46
0.0
 47
0.0
 48
0.0
 49
0.0
140
0.0
141
0.0
142
1.0
143
1.0
 70
   688
 72
     0
 73
     0
 74
     5
  7
monochrome1.ctb
 75
    16
147
1.0
 76
     0
 77
     2
 78
   300
148
0.0
149
0.0
100
AcDbLayout
  1
Layout1
 70
     0
 71
     1
 10
0.0
 20
0.0
 11
12.0
 21
9.0
 12
0.0
 22
0.0
 32
0.0
 14
1.000000000000000E+20
 24
1.000000000000000E+20
 34
1.000000000000000E+20
 15
-1.000000000000000E+20
 25
-1.000000000000000E+20
 35
-1.000000000000000E+20
146
0.0
 13
0.0
 23
0.0
 33
0.0
 16
1.0
 26
0.0
 36
0.0
 17
0.0
 27
1.0
 37
0.0
 76
     0
330
818
  0
LAYOUT
  5
81F
102
{ACAD_REACTORS
330
815
102
}
330
815
100
AcDbPlotSettings
  1

  2
RICOH Aficio 2027 PCL 6
  4
A4
  6

 40
5.027083
 41
5.027084999999999
 42
5.027084
 43
5.027069
 44
209.973328
 45
296.925995
 46
0.0
 47
2.06
 48
0.0
 49
0.0
140
0.0
141
0.0
142
1.0
143
5.252122881808211
 70
 11956
 72
     1
 73
     0
 74
     2
  7
monochrome1.ctb
 75
     0
147
0.190399200952381
 76
     1
 77
     2
 78
   300
148
0.0
149
0.0
100
AcDbLayout
  1
Model
 70
     1
 71
     0
 10
0.0
 20
0.0
 11
12.0
 21
9.0
 12
0.0
 22
0.0
 32
0.0
 14
0.0
 24
0.0
 34
0.0
 15
0.0
 25
0.0
 35
0.0
146
0.0
 13
0.0
 23
0.0
 33
0.0
 16
1.0
 26
0.0
 36
0.0
 17
0.0
 27
1.0
 37
0.0
 76
     0
330
81C
  0
MLINESTYLE
  5
813
102
{ACAD_REACTORS
330
812
102
}
330
812
100
AcDbMlineStyle
  2
STANDARD
 70
     0
  3

 62
   256
 51
90.0
 52
90.0
 71
     2
 49
0.5
 62
   256
  6
BYLAYER
 49
-0.5
 62
   256
  6
BYLAYER
  0
ACDBPLACEHOLDER
  5
80B
102
{ACAD_REACTORS
330
80A
102
}
330
80A
  0
DICTIONARYVAR
  5
9ED
102
{ACAD_REACTORS
330
9EB
102
}
330
9EB
100
DictionaryVariables
280
     0
  1
2
  0
DICTIONARYVAR
  5
9EC
102
{ACAD_REACTORS
330
9EB
102
}
330
9EB
100
DictionaryVariables
280
     0
  1
1
  0
DICTIONARYVAR
  5
9EE
102
{ACAD_REACTORS
330
9EB
102
}
330
9EB
100
DictionaryVariables
280
     0
  1

  0
ENDSEC
  0
EOF
