  0
SECTION
  2
HEADER
  9
$ACADVER
  1
AC1018
  9
$ACADMAINTVER
 70
     2
  9
$DWGCODEPAGE
  3
ANSI_1252
  9
$INSBASE
 10
0.0
 20
0.0
 30
0.0
  9
$EXTMIN
 10
0.0
 20
-0.0000000000000568
 30
0.0
  9
$EXTMAX
 10
594.0
 20
840.0
 30
0.0
  9
$LIMMIN
 10
0.0
 20
0.0
  9
$LIMMAX
 10
594.0
 20
840.0
  9
$ORTHOMODE
 70
     1
  9
$REGENMODE
 70
     1
  9
$FILLMODE
 70
     1
  9
$QTEXTMODE
 70
     0
  9
$MIRRTEXT
 70
     1
  9
$LTSCALE
 40
20.0
  9
$ATTMODE
 70
     1
  9
$TEXTSIZE
 40
3.5
  9
$TRACEWID
 40
1.0
  9
$TEXTSTYLE
  7
STANDARD
  9
$CLAYER
  8
SCHRAFF
  9
$CELTYPE
  6
ByLayer
  9
$CECOLOR
 62
   256
  9
$CELTSCALE
 40
1.0
  9
$DISPSILH
 70
     0
  9
$DIMSCALE
 40
2.0
  9
$DIMASZ
 40
3.5
  9
$DIMEXO
 40
1.0
  9
$DIMDLI
 40
7.0
  9
$DIMRND
 40
0.0
  9
$DIMDLE
 40
0.0
  9
$DIMEXE
 40
1.0
  9
$DIMTP
 40
0.0
  9
$DIMTM
 40
0.0
  9
$DIMTXT
 40
3.5
  9
$DIMCEN
 40
1.5
  9
$DIMTSZ
 40
0.0
  9
$DIMTOL
 70
     0
  9
$DIMLIM
 70
     0
  9
$DIMTIH
 70
     0
  9
$DIMTOH
 70
     0
  9
$DIMSE1
 70
     0
  9
$DIMSE2
 70
     0
  9
$DIMTAD
 70
     1
  9
$DIMZIN
 70
     8
  9
$DIMBLK
  1

  9
$DIMASO
 70
     1
  9
$DIMSHO
 70
     0
  9
$DIMPOST
  1

  9
$DIMAPOST
  1

  9
$DIMALT
 70
     0
  9
$DIMALTD
 70
     2
  9
$DIMALTF
 40
25.4
  9
$DIMLFAC
 40
1.0
  9
$DIMTOFL
 70
     1
  9
$DIMTVP
 40
0.0
  9
$DIMTIX
 70
     0
  9
$DIMSOXD
 70
     0
  9
$DIMSAH
 70
     0
  9
$DIMBLK1
  1

  9
$DIMBLK2
  1

  9
$DIMSTYLE
  2
Standard
  9
$DIMCLRD
 70
     0
  9
$DIMCLRE
 70
     0
  9
$DIMCLRT
 70
     1
  9
$DIMTFAC
 40
0.5142857142857144
  9
$DIMGAP
 40
1.5
  9
$DIMJUST
 70
     0
  9
$DIMSD1
 70
     0
  9
$DIMSD2
 70
     0
  9
$DIMTOLJ
 70
     1
  9
$DIMTZIN
 70
     8
  9
$DIMALTZ
 70
     8
  9
$DIMALTTZ
 70
     8
  9
$DIMUPT
 70
     0
  9
$DIMDEC
 70
     2
  9
$DIMTDEC
 70
     2
  9
$DIMALTU
 70
     2
  9
$DIMALTTD
 70
     2
  9
$DIMTXSTY
  7
STANDARD
  9
$DIMAUNIT
 70
     0
  9
$DIMADEC
 70
     2
  9
$DIMALTRND
 40
0.0
  9
$DIMAZIN
 70
     2
  9
$DIMDSEP
 70
    46
  9
$DIMATFIT
 70
     3
  9
$DIMFRAC
 70
     0
  9
$DIMLDRBLK
  1

  9
$DIMLUNIT
 70
     2
  9
$DIMLWD
 70
    -2
  9
$DIMLWE
 70
    -2
  9
$DIMTMOVE
 70
     0
  9
$LUNITS
 70
     2
  9
$LUPREC
 70
     2
  9
$SKETCHINC
 40
1.0
  9
$FILLETRAD
 40
0.0
  9
$AUNITS
 70
     0
  9
$AUPREC
 70
     0
  9
$MENU
  1
ACAD
  9
$ELEVATION
 40
0.0
  9
$PELEVATION
 40
0.0
  9
$THICKNESS
 40
0.0
  9
$LIMCHECK
 70
     0
  9
$CHAMFERA
 40
0.0
  9
$CHAMFERB
 40
0.0
  9
$CHAMFERC
 40
0.0
  9
$CHAMFERD
 40
0.0
  9
$SKPOLY
 70
     0
  9
$TDCREATE
 40
2455397.825393172
  9
$TDUCREATE
 40
2455397.783726505
  9
$TDUPDATE
 40
2455610.571638959
  9
$TDUUPDATE
 40
2455610.529972291
  9
$TDINDWG
 40
0.0655339236
  9
$TDUSRTIMER
 40
0.0655339236
  9
$USRTIMER
 70
     1
  9
$ANGBASE
 50
0.0
  9
$ANGDIR
 70
     0
  9
$PDMODE
 70
     0
  9
$PDSIZE
 40
0.0
  9
$PLINEWID
 40
0.0
  9
$SPLFRAME
 70
     0
  9
$SPLINETYPE
 70
     6
  9
$SPLINESEGS
 70
     8
  9
$HANDSEED
  5
F89
  9
$SURFTAB1
 70
     6
  9
$SURFTAB2
 70
     6
  9
$SURFTYPE
 70
     6
  9
$SURFU
 70
     6
  9
$SURFV
 70
     6
  9
$UCSBASE
  2

  9
$UCSNAME
  2

  9
$UCSORG
 10
0.0
 20
0.0
 30
0.0
  9
$UCSXDIR
 10
1.0
 20
0.0
 30
0.0
  9
$UCSYDIR
 10
0.0
 20
1.0
 30
0.0
  9
$UCSORTHOREF
  2

  9
$UCSORTHOVIEW
 70
     0
  9
$UCSORGTOP
 10
0.0
 20
0.0
 30
0.0
  9
$UCSORGBOTTOM
 10
0.0
 20
0.0
 30
0.0
  9
$UCSORGLEFT
 10
0.0
 20
0.0
 30
0.0
  9
$UCSORGRIGHT
 10
0.0
 20
0.0
 30
0.0
  9
$UCSORGFRONT
 10
0.0
 20
0.0
 30
0.0
  9
$UCSORGBACK
 10
0.0
 20
0.0
 30
0.0
  9
$PUCSBASE
  2

  9
$PUCSNAME
  2

  9
$PUCSORG
 10
0.0
 20
0.0
 30
0.0
  9
$PUCSXDIR
 10
1.0
 20
0.0
 30
0.0
  9
$PUCSYDIR
 10
0.0
 20
1.0
 30
0.0
  9
$PUCSORTHOREF
  2

  9
$PUCSORTHOVIEW
 70
     0
  9
$PUCSORGTOP
 10
0.0
 20
0.0
 30
0.0
  9
$PUCSORGBOTTOM
 10
0.0
 20
0.0
 30
0.0
  9
$PUCSORGLEFT
 10
0.0
 20
0.0
 30
0.0
  9
$PUCSORGRIGHT
 10
0.0
 20
0.0
 30
0.0
  9
$PUCSORGFRONT
 10
0.0
 20
0.0
 30
0.0
  9
$PUCSORGBACK
 10
0.0
 20
0.0
 30
0.0
  9
$USERI1
 70
     0
  9
$USERI2
 70
     0
  9
$USERI3
 70
     0
  9
$USERI4
 70
     0
  9
$USERI5
 70
     0
  9
$USERR1
 40
0.0
  9
$USERR2
 40
0.0
  9
$USERR3
 40
0.0
  9
$USERR4
 40
0.0
  9
$USERR5
 40
0.0
  9
$WORLDVIEW
 70
     1
  9
$SHADEDGE
 70
     3
  9
$SHADEDIF
 70
    70
  9
$TILEMODE
 70
     1
  9
$MAXACTVP
 70
    16
  9
$PINSBASE
 10
0.0
 20
0.0
 30
0.0
  9
$PLIMCHECK
 70
     0
  9
$PEXTMIN
 10
1.000000000000000E+20
 20
1.000000000000000E+20
 30
1.000000000000000E+20
  9
$PEXTMAX
 10
-1.000000000000000E+20
 20
-1.000000000000000E+20
 30
-1.000000000000000E+20
  9
$PLIMMIN
 10
0.0
 20
0.0
  9
$PLIMMAX
 10
12.0
 20
9.0
  9
$UNITMODE
 70
     0
  9
$VISRETAIN
 70
     0
  9
$PLINEGEN
 70
     0
  9
$PSLTSCALE
 70
     0
  9
$TREEDEPTH
 70
  3020
  9
$CMLSTYLE
  2
Standard
  9
$CMLJUST
 70
     0
  9
$CMLSCALE
 40
1.0
  9
$PROXYGRAPHICS
 70
     1
  9
$MEASUREMENT
 70
     0
  9
$CELWEIGHT
370
    -1
  9
$ENDCAPS
280
     0
  9
$JOINSTYLE
280
     0
  9
$LWDISPLAY
290
     0
  9
$INSUNITS
 70
     0
  9
$HYPERLINKBASE
  1

  9
$STYLESHEET
  1
monochrome 1.ctb
  9
$XEDIT
290
     1
  9
$CEPSNTYPE
380
     0
  9
$PSTYLEMODE
290
     1
  9
$FINGERPRINTGUID
  2
{D68B0D0D-A558-11D7-B632-000102183313}
  9
$VERSIONGUID
  2
{D0A9EE2B-9A1B-4F4E-9971-8EA5EF4B6073}
  9
$EXTNAMES
290
     1
  9
$PSVPSCALE
 40
0.0
  9
$OLESTARTUP
290
     0
  9
$SORTENTS
280
   127
  9
$INDEXCTL
280
     0
  9
$HIDETEXT
280
     0
  9
$XCLIPFRAME
290
     0
  9
$HALOGAP
280
     0
  9
$OBSCOLOR
 70
   257
  9
$OBSLTYPE
280
     0
  9
$INTERSECTIONDISPLAY
280
     0
  9
$INTERSECTIONCOLOR
 70
   257
  9
$DIMASSOC
280
     1
  9
$PROJECTNAME
  1

  0
ENDSEC
  0
SECTION
  2
CLASSES
  0
CLASS
  1
ACDBDICTIONARYWDFLT
  2
AcDbDictionaryWithDefault
  3
ObjectDBX Classes
 90
        0
 91
        1
280
     0
281
     0
  0
CLASS
  1
DICTIONARYVAR
  2
AcDbDictionaryVar
  3
ObjectDBX Classes
 90
        0
 91
        2
280
     0
281
     0
  0
ENDSEC
  0
SECTION
  2
TABLES
  0
TABLE
  2
VPORT
  5
8
330
0
100
AcDbSymbolTable
 70
     2
  0
VPORT
  5
F88
330
8
100
AcDbSymbolTableRecord
100
AcDbViewportTableRecord
  2
*Active
 70
     0
 10
0.0
 20
0.0
 11
1.0
 21
1.0
 12
296.9999999999999
 22
420.0
 13
0.0
 23
0.0
 14
1.0
 24
1.0
 15
10.0
 25
10.0
 16
0.0
 26
0.0
 36
1.0
 17
0.0
 27
0.0
 37
0.0
 40
840.0
 41
1.336927223719676
 42
50.0
 43
0.0
 44
0.0
 50
0.0
 51
0.0
 71
     0
 72
  1500
 73
     1
 74
     0
 75
     0
 76
     0
 77
     0
 78
     0
281
     0
 65
     1
110
0.0
120
0.0
130
0.0
111
1.0
121
0.0
131
0.0
112
0.0
122
1.0
132
0.0
 79
     0
146
0.0
  0
ENDTAB
  0
TABLE
  2
LTYPE
  5
5
330
0
100
AcDbSymbolTable
 70
     3
  0
LTYPE
  5
13
330
5
100
AcDbSymbolTableRecord
100
AcDbLinetypeTableRecord
  2
ByBlock
 70
     0
  3

 72
    65
 73
     0
 40
0.0
  0
LTYPE
  5
14
330
5
100
AcDbSymbolTableRecord
100
AcDbLinetypeTableRecord
  2
ByLayer
 70
     0
  3

 72
    65
 73
     0
 40
0.0
  0
LTYPE
  5
15
330
5
100
AcDbSymbolTableRecord
100
AcDbLinetypeTableRecord
  2
Continuous
 70
     0
  3
Solid line
 72
    65
 73
     0
 40
0.0
  0
LTYPE
  5
25
330
5
100
AcDbSymbolTableRecord
100
AcDbLinetypeTableRecord
  2
STRICHPUNKT
 70
     0
  3
__ . __ . __ . __ . __ . __ . __ . __ . __ . __
 72
    65
 73
     4
 40
1.0
 49
0.5
 74
     0
 49
-0.25
 74
     0
 49
0.0
 74
     0
 49
-0.25
 74
     0
  0
LTYPE
  5
34
330
5
100
AcDbSymbolTableRecord
100
AcDbLinetypeTableRecord
  2
AUSGEZOGEN
 70
     0
  3
Ausgezogene Linie
 72
    65
 73
     0
 40
0.0
  0
ENDTAB
  0
TABLE
  2
LAYER
  5
2
330
0
100
AcDbSymbolTable
 70
     9
  0
LAYER
  5
10
330
2
100
AcDbSymbolTableRecord
100
AcDbLayerTableRecord
  2
0
 70
     0
 62
     7
  6
Continuous
370
    -3
390
F
  0
LAYER
  5
2B
330
2
100
AcDbSymbolTableRecord
100
AcDbLayerTableRecord
  2
VOLL
 70
     0
 62
     1
  6
Continuous
370
    -3
390
F
  0
LAYER
  5
2C
330
2
100
AcDbSymbolTableRecord
100
AcDbLayerTableRecord
  2
HILF
 70
     0
 62
     2
  6
Continuous
370
    -3
390
F
  0
LAYER
  5
2D
330
2
100
AcDbSymbolTableRecord
100
AcDbLayerTableRecord
  2
MITTEL
 70
     0
 62
     2
  6
STRICHPUNKT
370
    -3
390
F
  0
LAYER
  5
2F
330
2
100
AcDbSymbolTableRecord
100
AcDbLayerTableRecord
  2
BEM
 70
     0
 62
     7
  6
Continuous
370
    -3
390
F
  0
LAYER
  5
30
330
2
100
AcDbSymbolTableRecord
100
AcDbLayerTableRecord
  2
STEMPEL
 70
     0
 62
     3
  6
Continuous
370
    -3
390
F
  0
LAYER
  5
33
330
2
100
AcDbSymbolTableRecord
100
AcDbLayerTableRecord
  2
TEXT
 70
     0
 62
     7
  6
Continuous
370
    -3
390
F
  0
LAYER
  5
242
330
2
100
AcDbSymbolTableRecord
100
AcDbLayerTableRecord
  2
DEFPOINTS
 70
     0
 62
     7
  6
AUSGEZOGEN
290
     0
370
    -3
390
F
  0
LAYER
  5
243
330
2
100
AcDbSymbolTableRecord
100
AcDbLayerTableRecord
  2
SCHRAFF
 70
     0
 62
     7
  6
AUSGEZOGEN
370
    -3
390
F
  0
ENDTAB
  0
TABLE
  2
STYLE
  5
3
330
0
100
AcDbSymbolTable
 70
     2
  0
STYLE
  5
11
330
3
100
AcDbSymbolTableRecord
100
AcDbTextStyleTableRecord
  2
STANDARD
 70
     0
 40
0.0
 41
0.8
 50
0.0
 71
     0
 42
3.5
  3
simplex.shx
  4

  0
STYLE
  5
24
330
3
100
AcDbSymbolTableRecord
100
AcDbTextStyleTableRecord
  2
GREEKS
 70
     0
 40
0.0
 41
0.8
 50
0.0
 71
     0
 42
2.5
  3
SIMPLEX.shx
  4

  0
ENDTAB
  0
TABLE
  2
VIEW
  5
6
330
0
100
AcDbSymbolTable
 70
     0
  0
ENDTAB
  0
TABLE
  2
UCS
  5
7
330
0
100
AcDbSymbolTable
 70
     0
  0
ENDTAB
  0
TABLE
  2
APPID
  5
9
330
0
100
AcDbSymbolTable
 70
     1
  0
APPID
  5
12
330
9
100
AcDbSymbolTableRecord
100
AcDbRegAppTableRecord
  2
ACAD
 70
     0
  0
ENDTAB
  0
TABLE
  2
DIMSTYLE
  5
A
330
0
100
AcDbSymbolTable
 70
     1
100
AcDbDimStyleTable
 71
     1
340
A2
  0
DIMSTYLE
105
A2
102
{ACAD_REACTORS
330
65B
330
65E
330
660
330
67E
330
683
330
725
330
729
330
BB2
330
BB3
330
BB9
330
CEB
102
}
330
A
100
AcDbSymbolTableRecord
100
AcDbDimStyleTableRecord
  2
Standard
 70
     0
340
11
  0
ENDTAB
  0
TABLE
  2
BLOCK_RECORD
  5
1
330
0
100
AcDbSymbolTable
 70
    13
  0
BLOCK_RECORD
  5
1E
102
{ACAD_XDICTIONARY
360
DB
102
}
330
1
100
AcDbSymbolTableRecord
100
AcDbBlockTableRecord
  2
*Model_Space
340
21
  0
BLOCK_RECORD
  5
1A
102
{ACAD_XDICTIONARY
360
DD
102
}
330
1
100
AcDbSymbolTableRecord
100
AcDbBlockTableRecord
  2
*Paper_Space
340
1D
  0
BLOCK_RECORD
  5
22
330
1
100
AcDbSymbolTableRecord
100
AcDbBlockTableRecord
  2
LOGO
340
0
102
{BLKREFS
331
56
102
}
  0
BLOCK_RECORD
  5
23
330
1
100
AcDbSymbolTableRecord
100
AcDbBlockTableRecord
  2
LORO
340
0
102
{BLKREFS
331
9B
102
}
  0
BLOCK_RECORD
  5
794
330
1
100
AcDbSymbolTableRecord
100
AcDbBlockTableRecord
  2
*D2
340
0
  0
BLOCK_RECORD
  5
7A0
330
1
100
AcDbSymbolTableRecord
100
AcDbBlockTableRecord
  2
*D3
340
0
  0
BLOCK_RECORD
  5
7AC
330
1
100
AcDbSymbolTableRecord
100
AcDbBlockTableRecord
  2
*D4
340
0
  0
BLOCK_RECORD
  5
7BD
330
1
100
AcDbSymbolTableRecord
100
AcDbBlockTableRecord
  2
*D5
340
0
  0
BLOCK_RECORD
  5
7C9
330
1
100
AcDbSymbolTableRecord
100
AcDbBlockTableRecord
  2
*D6
340
0
  0
BLOCK_RECORD
  5
7D5
330
1
100
AcDbSymbolTableRecord
100
AcDbBlockTableRecord
  2
*D7
340
0
  0
BLOCK_RECORD
  5
7E1
330
1
100
AcDbSymbolTableRecord
100
AcDbBlockTableRecord
  2
*D8
340
0
  0
BLOCK_RECORD
  5
D0F
330
1
100
AcDbSymbolTableRecord
100
AcDbBlockTableRecord
  2
*D9
340
0
  0
BLOCK_RECORD
  5
D1B
330
1
100
AcDbSymbolTableRecord
100
AcDbBlockTableRecord
  2
*D10
340
0
  0
BLOCK_RECORD
  5
D27
330
1
100
AcDbSymbolTableRecord
100
AcDbBlockTableRecord
  2
*D11
340
0
  0
BLOCK_RECORD
  5
D33
330
1
100
AcDbSymbolTableRecord
100
AcDbBlockTableRecord
  2
*D12
340
0
  0
ENDTAB
  0
ENDSEC
  0
SECTION
  2
BLOCKS
  0
BLOCK
  5
37
330
1E
100
AcDbEntity
  8
0
100
AcDbBlockBegin
  2
*Model_Space
 70
     0
 10
0.0
 20
0.0
 30
0.0
  3
*Model_Space
  1

  0
ENDBLK
  5
38
330
1E
100
AcDbEntity
  8
0
100
AcDbBlockEnd
  0
BLOCK
  5
35
330
1A
100
AcDbEntity
 67
     1
  8
0
100
AcDbBlockBegin
  2
*Paper_Space
 70
     0
 10
0.0
 20
0.0
 30
0.0
  3
*Paper_Space
  1

  0
ENDBLK
  5
36
330
1A
100
AcDbEntity
 67
     1
  8
0
100
AcDbBlockEnd
  0
BLOCK
  5
39
330
22
100
AcDbEntity
  8
0
100
AcDbBlockBegin
  2
LOGO
 70
     0
 10
0.0
 20
0.0
 30
0.0
  3
LOGO
  1

  0
ARC
  5
3A
330
22
100
AcDbEntity
  8
0
100
AcDbCircle
 10
11.59973089678112
 20
-9.271599258481501
 30
0.0
 40
4.5
100
AcDbArc
 50
270.0
 51
231.0575587310159
  0
LINE
  5
3B
330
22
100
AcDbEntity
  8
0
100
AcDbLine
 10
3.599730896781125
 20
-4.771599258481529
 30
0.0
 11
3.599730896781153
 21
-11.77159925848133
 31
0.0
  0
LINE
  5
3C
330
22
100
AcDbEntity
  8
0
100
AcDbLine
 10
2.599730896781125
 20
-4.771599258481529
 30
0.0
 11
2.599730896781153
 21
-11.77159925848133
 31
0.0
  0
CIRCLE
  5
3D
330
22
100
AcDbEntity
  8
0
100
AcDbCircle
 10
11.59973089678112
 20
-9.271599258481501
 30
0.0
 40
3.5
  0
ARC
  5
3E
330
22
100
AcDbEntity
  8
0
100
AcDbCircle
 10
31.59973089678115
 20
-9.271599258481472
 30
0.0
 40
4.5
100
AcDbArc
 50
270.0
 51
231.0575587310182
  0
LINE
  5
3F
330
22
100
AcDbEntity
  8
0
100
AcDbLine
 10
17.59973089678112
 20
-4.771599258481472
 30
0.0
 11
17.59973089678115
 21
-13.77159925848147
 31
0.0
  0
ARC
  5
40
330
22
100
AcDbEntity
  8
0
100
AcDbCircle
 10
22.59973089678116
 20
-7.271599258481472
 30
0.0
 40
2.5
100
AcDbArc
 50
293.1161887722295
 51
90.0
  0
CIRCLE
  5
41
330
22
100
AcDbEntity
  8
0
100
AcDbCircle
 10
31.59973089678115
 20
-9.271599258481472
 30
0.0
 40
3.5
  0
ARC
  5
42
330
22
100
AcDbEntity
  8
0
100
AcDbCircle
 10
4.599730896781153
 20
-11.77159925848133
 30
0.0
 40
1.0
100
AcDbArc
 50
180.0
 51
270.0
  0
ARC
  5
43
330
22
100
AcDbEntity
  8
0
100
AcDbCircle
 10
4.599730896781153
 20
-11.77159925848133
 30
0.0
 40
2.0
100
AcDbArc
 50
179.9999999999992
 51
270.0
  0
LINE
  5
44
330
22
100
AcDbEntity
  8
0
100
AcDbLine
 10
11.59973089678115
 20
-13.77159925848144
 30
0.0
 11
4.599730896781153
 21
-13.77159925848147
 31
0.0
  0
LINE
  5
45
330
22
100
AcDbEntity
  8
0
100
AcDbLine
 10
8.771303772034769
 20
-12.77159925848136
 30
0.0
 11
4.599730896781153
 21
-12.77159925848133
 31
0.0
  0
LINE
  5
46
330
22
100
AcDbEntity
  8
0
100
AcDbLine
 10
31.59973089678115
 20
-13.77159925848147
 30
0.0
 11
23.6715276665056
 21
-13.77159925848144
 31
0.0
  0
LINE
  5
47
330
22
100
AcDbEntity
  8
0
100
AcDbLine
 10
23.56565672307022
 20
-9.51278021337896
 30
0.0
 11
24.4388546544846
 21
-12.77159925848144
 31
0.0
  0
LINE
  5
48
330
22
100
AcDbEntity
  8
0
100
AcDbLine
 10
22.59973089678116
 20
-9.771599258481472
 30
0.0
 11
18.59973089678112
 21
-9.771599258481472
 31
0.0
  0
LINE
  5
49
330
22
100
AcDbEntity
  8
0
100
AcDbLine
 10
18.59973089678115
 20
-13.77159925848144
 30
0.0
 11
17.59973089678115
 21
-13.77159925848144
 31
0.0
  0
LINE
  5
4A
330
22
100
AcDbEntity
  8
0
100
AcDbLine
 10
18.59973089678115
 20
-9.771599258481472
 30
0.0
 11
18.59973089678115
 21
-13.77159925848144
 31
0.0
  0
LINE
  5
4B
330
22
100
AcDbEntity
  8
0
100
AcDbLine
 10
22.59973089678116
 20
-9.771599258481472
 30
0.0
 11
23.67152766650562
 21
-13.77159925848147
 31
0.0
  0
ARC
  5
4C
330
22
100
AcDbEntity
  8
0
100
AcDbCircle
 10
22.59973089678116
 20
-7.271599258481472
 30
0.0
 40
2.5
100
AcDbArc
 50
270.0
 51
270.0000000000007
  0
LINE
  5
4D
330
22
100
AcDbEntity
  8
0
100
AcDbLine
 10
28.77130377203494
 20
-12.77159925848147
 30
0.0
 11
24.43885465448463
 21
-12.77159925848144
 31
0.0
  0
LINE
  5
4E
330
22
100
AcDbEntity
  8
0
100
AcDbLine
 10
3.599730896781125
 20
-4.771599258481472
 30
0.0
 11
2.599730896781125
 21
-4.771599258481472
 31
0.0
  0
LINE
  5
4F
330
22
100
AcDbEntity
  8
0
100
AcDbLine
 10
22.59973089678116
 20
-8.771599258481472
 30
0.0
 11
18.59973089678115
 21
-8.771599258481472
 31
0.0
  0
LINE
  5
50
330
22
100
AcDbEntity
  8
0
100
AcDbLine
 10
22.59973089678116
 20
-5.771599258481472
 30
0.0
 11
18.59973089678115
 21
-5.771599258481472
 31
0.0
  0
LINE
  5
51
330
22
100
AcDbEntity
  8
0
100
AcDbLine
 10
22.59973089678116
 20
-4.771599258481472
 30
0.0
 11
17.59973089678115
 21
-4.771599258481472
 31
0.0
  0
LINE
  5
52
330
22
100
AcDbEntity
  8
0
100
AcDbLine
 10
18.59973089678115
 20
-5.771599258481472
 30
0.0
 11
18.59973089678115
 21
-8.771599258481472
 31
0.0
  0
ARC
  5
53
330
22
100
AcDbEntity
  8
0
100
AcDbCircle
 10
22.59973089678116
 20
-7.271599258481472
 30
0.0
 40
1.5
100
AcDbArc
 50
270.0
 51
90.0
  0
ENDBLK
  5
54
330
22
100
AcDbEntity
  8
0
100
AcDbBlockEnd
  0
BLOCK
  5
55
330
23
100
AcDbEntity
  8
0
100
AcDbBlockBegin
  2
LORO
 70
     0
 10
0.0
 20
0.0
 30
0.0
  3
LORO
  1

  0
INSERT
  5
56
330
23
100
AcDbEntity
  8
STEMPEL
100
AcDbBlockReference
  2
LOGO
 10
-1.748032802467321
 20
3.771489518552062
 30
0.0
  0
ENDBLK
  5
57
330
23
100
AcDbEntity
  8
0
100
AcDbBlockEnd
  0
BLOCK
  5
79E
330
794
100
AcDbEntity
  8
0
100
AcDbBlockBegin
  2
*D2
 70
     1
 10
0.0
 20
0.0
 30
0.0
  3
*D2
  1

  0
LINE
  5
81A
330
794
100
AcDbEntity
  8
SCHRAFF
 62
     0
370
    -2
100
AcDbLine
 10
166.3981392611245
 20
190.1674298717901
 30
0.0
 11
166.3981392611245
 21
168.0242812908373
 31
0.0
  0
LINE
  5
81B
330
794
100
AcDbEntity
  8
SCHRAFF
 62
     0
370
    -2
100
AcDbLine
 10
415.3954552678847
 20
190.1674298717901
 30
0.0
 11
415.3954552678847
 21
168.0242812908373
 31
0.0
  0
LINE
  5
81C
330
794
100
AcDbEntity
  8
SCHRAFF
 62
     0
370
    -2
100
AcDbLine
 10
173.3981392611245
 20
170.0242812908373
 30
0.0
 11
408.3954552678846
 21
170.0242812908373
 31
0.0
  0
SOLID
  5
81D
330
794
100
AcDbEntity
  8
SCHRAFF
 62
     0
100
AcDbTrace
 10
173.3981392611245
 20
171.1909479575039
 30
0.0
 11
173.3981392611245
 21
168.8576146241706
 31
0.0
 12
166.3981392611245
 22
170.0242812908373
 32
0.0
 13
166.3981392611245
 23
170.0242812908373
 33
0.0
  0
SOLID
  5
81E
330
794
100
AcDbEntity
  8
SCHRAFF
 62
     0
100
AcDbTrace
 10
408.3954552678846
 20
171.1909479575039
 30
0.0
 11
408.3954552678846
 21
168.8576146241706
 31
0.0
 12
415.3954552678847
 22
170.0242812908373
 32
0.0
 13
415.3954552678847
 23
170.0242812908373
 33
0.0
  0
MTEXT
  5
81F
330
794
100
AcDbEntity
  8
SCHRAFF
 62
     1
100
AcDbMText
 10
290.8967972645046
 20
176.5242812908373
 30
0.0
 40
7.0
 41
0.0
 71
     5
 72
     1
  1
\A1;249
 73
     1
 44
1.0
  0
POINT
  5
820
330
794
100
AcDbEntity
  8
DEFPOINTS
 62
     0
100
AcDbPoint
 10
166.3981392611245
 20
192.1674298717901
 30
0.0
  0
POINT
  5
821
330
794
100
AcDbEntity
  8
DEFPOINTS
 62
     0
100
AcDbPoint
 10
415.3954552678847
 20
192.1674298717901
 30
0.0
  0
POINT
  5
822
330
794
100
AcDbEntity
  8
DEFPOINTS
 62
     0
100
AcDbPoint
 10
415.3954552678847
 20
170.0242812908373
 30
0.0
  0
ENDBLK
  5
79F
330
794
100
AcDbEntity
  8
0
100
AcDbBlockEnd
  0
BLOCK
  5
7AA
330
7A0
100
AcDbEntity
  8
0
100
AcDbBlockBegin
  2
*D3
 70
     1
 10
0.0
 20
0.0
 30
0.0
  3
*D3
  1

  0
LINE
  5
97F
330
7A0
100
AcDbEntity
  8
BEM
 62
     0
370
    -2
100
AcDbLine
 10
228.5236626852115
 20
168.0242812908373
 30
0.0
 11
228.5236626852115
 21
152.0242812908373
 31
0.0
  0
LINE
  5
980
330
7A0
100
AcDbEntity
  8
BEM
 62
     0
370
    -2
100
AcDbLine
 10
513.5236626852114
 20
245.333157596884
 30
0.0
 11
513.5236626852114
 21
152.0242812908373
 31
0.0
  0
LINE
  5
981
330
7A0
100
AcDbEntity
  8
BEM
 62
     0
370
    -2
100
AcDbLine
 10
235.5236626852115
 20
154.0242812908372
 30
0.0
 11
506.5236626852114
 21
154.0242812908372
 31
0.0
  0
SOLID
  5
982
330
7A0
100
AcDbEntity
  8
BEM
 62
     0
100
AcDbTrace
 10
235.5236626852115
 20
155.1909479575039
 30
0.0
 11
235.5236626852115
 21
152.8576146241706
 31
0.0
 12
228.5236626852115
 22
154.0242812908372
 32
0.0
 13
228.5236626852115
 23
154.0242812908372
 33
0.0
  0
SOLID
  5
983
330
7A0
100
AcDbEntity
  8
BEM
 62
     0
100
AcDbTrace
 10
506.5236626852114
 20
155.1909479575039
 30
0.0
 11
506.5236626852114
 21
152.8576146241706
 31
0.0
 12
513.5236626852114
 22
154.0242812908372
 32
0.0
 13
513.5236626852114
 23
154.0242812908372
 33
0.0
  0
MTEXT
  5
984
330
7A0
100
AcDbEntity
  8
BEM
 62
     1
100
AcDbMText
 10
371.0236626852114
 20
160.5242812908373
 30
0.0
 40
7.0
 41
0.0
 71
     5
 72
     1
  1
\A1;285
 73
     1
 44
1.0
  0
POINT
  5
985
330
7A0
100
AcDbEntity
  8
DEFPOINTS
 62
     0
100
AcDbPoint
 10
228.5236626852115
 20
170.0242812908373
 30
0.0
  0
POINT
  5
986
330
7A0
100
AcDbEntity
  8
DEFPOINTS
 62
     0
100
AcDbPoint
 10
513.5236626852114
 20
247.333157596884
 30
0.0
  0
POINT
  5
987
330
7A0
100
AcDbEntity
  8
DEFPOINTS
 62
     0
100
AcDbPoint
 10
513.5236626852114
 20
154.0242812908372
 30
0.0
  0
ENDBLK
  5
7AB
330
7A0
100
AcDbEntity
  8
0
100
AcDbBlockEnd
  0
BLOCK
  5
7BB
330
7AC
100
AcDbEntity
  8
0
100
AcDbBlockBegin
  2
*D4
 70
     1
 10
0.0
 20
0.0
 30
0.0
  3
*D4
  1

  0
LINE
  5
971
330
7AC
100
AcDbEntity
  8
BEM
 62
     0
370
    -2
100
AcDbLine
 10
230.5236626852116
 20
262.2693746925507
 30
0.0
 11
297.3447995973422
 21
262.2693746925501
 31
0.0
  0
ARC
  5
972
330
7AC
100
AcDbEntity
  8
BEM
 62
     0
370
    -2
100
AcDbCircle
 10
228.5236626852115
 20
262.2693746925508
 30
0.0
 40
66.82113691213072
100
AcDbArc
 50
344.9736357326496
 51
357.0
  0
LINE
  5
973
330
7AC
100
AcDbEntity
  8
BEM
 62
     0
370
    -2
100
AcDbLine
 10
293.0599597519725
 20
244.9450940685103
 30
0.0
 11
289.8450925757287
 21
232.9690918541188
 31
0.0
  0
ARC
  5
974
330
7AC
100
AcDbEntity
  8
BEM
 62
     0
370
    -2
100
AcDbCircle
 10
228.5236626852115
 20
262.2693746925508
 30
0.0
 40
66.82113691213072
100
AcDbArc
 50
344.9902051111601
 51
350.9951025555801
  0
ARC
  5
975
330
7AC
100
AcDbEntity
  8
BEM
 62
     0
370
    -2
100
AcDbCircle
 10
228.5236626852115
 20
262.2693746925508
 30
0.0
 40
66.82113691213072
100
AcDbArc
 50
6.004897444419503
 51
12.00979488883948
  0
ARC
  5
976
330
7AC
100
AcDbEntity
  8
BEM
 62
     0
370
    -2
100
AcDbCircle
 10
228.5236626852115
 20
262.2693746925508
 30
0.0
 40
66.82113691213072
100
AcDbArc
 50
357.0
 51
359.9999999999995
  0
SOLID
  5
977
330
7AC
100
AcDbEntity
  8
BEM
 62
     0
100
AcDbTrace
 10
293.360956448746
 20
251.9326040672145
 30
0.0
 11
295.6814971119673
 21
251.6886051434852
 31
0.0
 12
295.2532235515444
 22
258.7722265950136
 32
0.0
 13
295.2532235515444
 23
258.7722265950136
 33
0.0
  0
SOLID
  5
978
330
7AC
100
AcDbEntity
  8
BEM
 62
     0
100
AcDbTrace
 10
296.143214326064
 20
269.3208741807491
 30
0.0
 11
293.8130839661766
 21
269.1986573636752
 31
0.0
 12
295.3447995973423
 22
262.2693746925501
 32
0.0
 13
295.3447995973423
 23
262.2693746925501
 33
0.0
  0
MTEXT
  5
979
330
7AC
100
AcDbEntity
  8
BEM
 62
     1
100
AcDbMText
 10
285.1747830675969
 20
240.642305594023
 30
0.0
 40
7.0
 41
0.0
 71
     5
 72
     1
  1
\A1;3°
 11
0.2592634819551407
 21
0.9658066301928645
 31
0.0
 73
     1
 44
1.0
  0
POINT
  5
97A
330
7AC
100
AcDbEntity
  8
DEFPOINTS
 62
     0
100
AcDbPoint
 10
295.334622414535
 20
261.1031850525584
 30
0.0
  0
POINT
  5
97B
330
7AC
100
AcDbEntity
  8
DEFPOINTS
 62
     0
100
AcDbPoint
 10
228.5236626852114
 20
262.2693746925508
 30
0.0
  0
POINT
  5
97C
330
7AC
100
AcDbEntity
  8
DEFPOINTS
 62
     0
100
AcDbPoint
 10
228.5236626852116
 20
262.2693746925508
 30
0.0
  0
POINT
  5
97D
330
7AC
100
AcDbEntity
  8
DEFPOINTS
 62
     0
100
AcDbPoint
 10
226.5236626852116
 20
262.2693746925508
 30
0.0
  0
POINT
  5
97E
330
7AC
100
AcDbEntity
  8
DEFPOINTS
 62
     0
100
AcDbPoint
 10
519.0866022111771
 20
247.0416162900423
 30
0.0
  0
ENDBLK
  5
7BC
330
7AC
100
AcDbEntity
  8
0
100
AcDbBlockEnd
  0
BLOCK
  5
7C7
330
7BD
100
AcDbEntity
  8
0
100
AcDbBlockBegin
  2
*D5
 70
     1
 10
0.0
 20
0.0
 30
0.0
  3
*D5
  1

  0
LINE
  5
EC4
330
7BD
100
AcDbEntity
  8
BEM
 62
     0
370
    -2
100
AcDbLine
 10
104.0236626852114
 20
329.1674298717904
 30
0.0
 11
64.03900796850149
 21
329.1674298717904
 31
0.0
  0
LINE
  5
EC5
330
7BD
100
AcDbEntity
  8
BEM
 62
     0
370
    -2
100
AcDbLine
 10
104.0236626852115
 20
567.1017651089962
 30
0.0
 11
64.03900796850155
 21
567.1017651089962
 31
0.0
  0
LINE
  5
EC6
330
7BD
100
AcDbEntity
  8
BEM
 62
     0
370
    -2
100
AcDbLine
 10
66.03900796850149
 20
336.1674298717904
 30
0.0
 11
66.03900796850155
 21
560.1017651089962
 31
0.0
  0
SOLID
  5
EC7
330
7BD
100
AcDbEntity
  8
BEM
 62
     0
100
AcDbTrace
 10
64.87234130183482
 20
336.1674298717904
 30
0.0
 11
67.20567463516816
 21
336.1674298717904
 31
0.0
 12
66.03900796850149
 22
329.1674298717904
 32
0.0
 13
66.03900796850149
 23
329.1674298717904
 33
0.0
  0
SOLID
  5
EC8
330
7BD
100
AcDbEntity
  8
BEM
 62
     0
100
AcDbTrace
 10
64.87234130183487
 20
560.1017651089962
 30
0.0
 11
67.20567463516822
 21
560.1017651089962
 31
0.0
 12
66.03900796850155
 22
567.1017651089962
 32
0.0
 13
66.03900796850155
 23
567.1017651089962
 33
0.0
  0
MTEXT
  5
EC9
330
7BD
100
AcDbEntity
  8
BEM
 62
     1
100
AcDbMText
 10
59.53900796850145
 20
448.1345974903932
 30
0.0
 40
7.0
 41
0.0
 71
     5
 72
     1
  1
\A1;min.35 - max.230
 11
0.0000000000000001
 21
1.0
 31
0.0
 73
     1
 44
1.0
  0
POINT
  5
ECA
330
7BD
100
AcDbEntity
  8
DEFPOINTS
 62
     0
100
AcDbPoint
 10
106.0236626852114
 20
329.1674298717904
 30
0.0
  0
POINT
  5
ECB
330
7BD
100
AcDbEntity
  8
DEFPOINTS
 62
     0
100
AcDbPoint
 10
106.0236626852115
 20
567.1017651089962
 30
0.0
  0
POINT
  5
ECC
330
7BD
100
AcDbEntity
  8
DEFPOINTS
 62
     0
100
AcDbPoint
 10
66.03900796850155
 20
567.1017651089962
 30
0.0
  0
ENDBLK
  5
7C8
330
7BD
100
AcDbEntity
  8
0
100
AcDbBlockEnd
  0
BLOCK
  5
7D3
330
7C9
100
AcDbEntity
  8
0
100
AcDbBlockBegin
  2
*D6
 70
     1
 10
0.0
 20
0.0
 30
0.0
  3
*D6
  1

  0
LINE
  5
843
330
7C9
100
AcDbEntity
  8
BEM
 62
     0
370
    -2
100
AcDbLine
 10
164.3981392611244
 20
192.1674298717901
 30
0.0
 11
64.03900796850146
 21
192.1674298717901
 31
0.0
  0
LINE
  5
844
330
7C9
100
AcDbEntity
  8
BEM
 62
     0
370
    -2
100
AcDbLine
 10
104.0236626852114
 20
329.1674298717904
 30
0.0
 11
64.03900796850149
 21
329.1674298717904
 31
0.0
  0
LINE
  5
845
330
7C9
100
AcDbEntity
  8
BEM
 62
     0
370
    -2
100
AcDbLine
 10
66.03900796850147
 20
199.1674298717901
 30
0.0
 11
66.03900796850149
 21
322.1674298717904
 31
0.0
  0
SOLID
  5
846
330
7C9
100
AcDbEntity
  8
BEM
 62
     0
100
AcDbTrace
 10
64.87234130183479
 20
199.1674298717901
 30
0.0
 11
67.20567463516814
 21
199.1674298717901
 31
0.0
 12
66.03900796850147
 22
192.1674298717901
 32
0.0
 13
66.03900796850147
 23
192.1674298717901
 33
0.0
  0
SOLID
  5
847
330
7C9
100
AcDbEntity
  8
BEM
 62
     0
100
AcDbTrace
 10
64.87234130183482
 20
322.1674298717904
 30
0.0
 11
67.20567463516816
 21
322.1674298717904
 31
0.0
 12
66.03900796850149
 22
329.1674298717904
 32
0.0
 13
66.03900796850149
 23
329.1674298717904
 33
0.0
  0
MTEXT
  5
848
330
7C9
100
AcDbEntity
  8
BEM
 62
     1
100
AcDbMText
 10
59.53900796850144
 20
260.6674298717903
 30
0.0
 40
7.0
 41
0.0
 71
     5
 72
     1
  1
\A1;137
 11
0.0000000000000001
 21
1.0
 31
0.0
 73
     1
 44
1.0
  0
POINT
  5
849
330
7C9
100
AcDbEntity
  8
DEFPOINTS
 62
     0
100
AcDbPoint
 10
166.3981392611245
 20
192.1674298717901
 30
0.0
  0
POINT
  5
84A
330
7C9
100
AcDbEntity
  8
DEFPOINTS
 62
     0
100
AcDbPoint
 10
106.0236626852114
 20
329.1674298717904
 30
0.0
  0
POINT
  5
84B
330
7C9
100
AcDbEntity
  8
DEFPOINTS
 62
     0
100
AcDbPoint
 10
66.03900796850149
 20
329.1674298717904
 30
0.0
  0
ENDBLK
  5
7D4
330
7C9
100
AcDbEntity
  8
0
100
AcDbBlockEnd
  0
BLOCK
  5
7DF
330
7D5
100
AcDbEntity
  8
0
100
AcDbBlockBegin
  2
*D7
 70
     1
 10
0.0
 20
0.0
 30
0.0
  3
*D7
  1

  0
LINE
  5
968
330
7D5
100
AcDbEntity
  8
BEM
 62
     0
370
    -2
100
AcDbLine
 10
510.4407774143064
 20
284.0448153966406
 30
0.0
 11
538.931160337109
 21
282.5516976967328
 31
0.0
  0
LINE
  5
969
330
7D5
100
AcDbEntity
  8
BEM
 62
     0
370
    -2
100
AcDbLine
 10
506.6202526085709
 20
211.1448593595564
 30
0.0
 11
535.1106355313735
 21
209.6517416596487
 31
0.0
  0
LINE
  5
96A
330
7D5
100
AcDbEntity
  8
BEM
 62
     0
370
    -2
100
AcDbLine
 10
536.567549573899
 20
275.6659628659367
 30
0.0
 11
533.479728155565
 21
216.7468203154166
 31
0.0
  0
SOLID
  5
96B
330
7D5
100
AcDbEntity
  8
BEM
 62
     0
100
AcDbTrace
 10
535.402481783352
 20
275.7270214815535
 30
0.0
 11
537.732617364446
 21
275.6049042503199
 31
0.0
 12
536.9339012675998
 22
282.6563696092188
 32
0.0
 13
536.9339012675998
 23
282.6563696092188
 33
0.0
  0
SOLID
  5
96C
330
7D5
100
AcDbEntity
  8
BEM
 62
     0
100
AcDbTrace
 10
532.314660365018
 20
216.8078789310334
 30
0.0
 11
534.644795946112
 21
216.6857616997998
 31
0.0
 12
533.1133764618644
 22
209.7564135721346
 32
0.0
 13
533.1133764618644
 23
209.7564135721346
 33
0.0
  0
MTEXT
  5
96D
330
7D5
100
AcDbEntity
  8
BEM
 62
     1
100
AcDbMText
 10
528.5325468888273
 20
246.5465753062558
 30
0.0
 40
7.0
 41
0.0
 71
     5
 72
     1
  1
\A1;%%c73
 11
0.0523359562429504
 21
0.9986295347545738
 31
0.0
 73
     1
 44
1.0
  0
POINT
  5
96E
330
7D5
100
AcDbEntity
  8
DEFPOINTS
 62
     0
100
AcDbPoint
 10
508.4435183447973
 20
284.1494873091265
 30
0.0
  0
POINT
  5
96F
330
7D5
100
AcDbEntity
  8
DEFPOINTS
 62
     0
100
AcDbPoint
 10
504.6229935390618
 20
211.2495312720423
 30
0.0
  0
POINT
  5
970
330
7D5
100
AcDbEntity
  8
DEFPOINTS
 62
     0
100
AcDbPoint
 10
533.1133764618644
 20
209.7564135721346
 30
0.0
  0
ENDBLK
  5
7E0
330
7D5
100
AcDbEntity
  8
0
100
AcDbBlockEnd
  0
BLOCK
  5
7EB
330
7E1
100
AcDbEntity
  8
0
100
AcDbBlockBegin
  2
*D8
 70
     1
 10
0.0
 20
0.0
 30
0.0
  3
*D8
  1

  0
LINE
  5
9A0
330
7E1
100
AcDbEntity
  8
BEM
 62
     0
370
    -2
100
AcDbLine
 10
353.0236626852115
 20
329.1674298717897
 30
0.0
 11
558.7976055755562
 21
329.1674298717897
 31
0.0
  0
LINE
  5
9A1
330
7E1
100
AcDbEntity
  8
BEM
 62
     0
370
    -2
100
AcDbLine
 10
535.4733129670515
 20
247.333157596884
 30
0.0
 11
558.797605575556
 21
247.333157596884
 31
0.0
  0
LINE
  5
9A2
330
7E1
100
AcDbEntity
  8
BEM
 62
     0
370
    -2
100
AcDbLine
 10
556.7976055755561
 20
322.1674298717897
 30
0.0
 11
556.797605575556
 21
254.333157596884
 31
0.0
  0
SOLID
  5
9A3
330
7E1
100
AcDbEntity
  8
BEM
 62
     0
100
AcDbTrace
 10
555.6309389088895
 20
322.1674298717897
 30
0.0
 11
557.9642722422228
 21
322.1674298717897
 31
0.0
 12
556.7976055755561
 22
329.1674298717897
 32
0.0
 13
556.7976055755561
 23
329.1674298717897
 33
0.0
  0
SOLID
  5
9A4
330
7E1
100
AcDbEntity
  8
BEM
 62
     0
100
AcDbTrace
 10
555.6309389088894
 20
254.333157596884
 30
0.0
 11
557.9642722422227
 21
254.333157596884
 31
0.0
 12
556.797605575556
 22
247.333157596884
 32
0.0
 13
556.797605575556
 23
247.333157596884
 33
0.0
  0
MTEXT
  5
9A5
330
7E1
100
AcDbEntity
  8
BEM
 62
     1
100
AcDbMText
 10
550.297605575556
 20
288.2502937343369
 30
0.0
 40
7.0
 41
0.0
 71
     5
 72
     1
  1
\A1;82
 11
0.0000000000000001
 21
1.0
 31
0.0
 73
     1
 44
1.0
  0
POINT
  5
9A6
330
7E1
100
AcDbEntity
  8
DEFPOINTS
 62
     0
100
AcDbPoint
 10
351.0236626852115
 20
329.1674298717897
 30
0.0
  0
POINT
  5
9A7
330
7E1
100
AcDbEntity
  8
DEFPOINTS
 62
     0
100
AcDbPoint
 10
533.4733129670516
 20
247.333157596884
 30
0.0
  0
POINT
  5
9A8
330
7E1
100
AcDbEntity
  8
DEFPOINTS
 62
     0
100
AcDbPoint
 10
556.797605575556
 20
247.333157596884
 30
0.0
  0
ENDBLK
  5
7EC
330
7E1
100
AcDbEntity
  8
0
100
AcDbBlockEnd
  0
BLOCK
  5
D19
330
D0F
100
AcDbEntity
  8
0
100
AcDbBlockBegin
  2
*D9
 70
     1
 10
0.0
 20
0.0
 30
0.0
  3
*D9
  1

  0
LINE
  5
D3F
330
D0F
100
AcDbEntity
  8
BEM
 62
     0
370
    -2
100
AcDbLine
 10
98.52366268521164
 20
596.1017651089977
 30
0.0
 11
98.52366268521164
 21
707.4093194200383
 31
0.0
  0
LINE
  5
D40
330
D0F
100
AcDbEntity
  8
BEM
 62
     0
370
    -2
100
AcDbLine
 10
358.5236626852115
 20
596.1017651089979
 30
0.0
 11
358.5236626852115
 21
707.4093194200383
 31
0.0
  0
LINE
  5
D41
330
D0F
100
AcDbEntity
  8
BEM
 62
     0
370
    -2
100
AcDbLine
 10
105.5236626852116
 20
705.4093194200382
 30
0.0
 11
351.5236626852115
 21
705.4093194200382
 31
0.0
  0
SOLID
  5
D42
330
D0F
100
AcDbEntity
  8
BEM
 62
     0
100
AcDbTrace
 10
105.5236626852116
 20
706.5759860867049
 30
0.0
 11
105.5236626852116
 21
704.2426527533717
 31
0.0
 12
98.52366268521164
 22
705.4093194200382
 32
0.0
 13
98.52366268521164
 23
705.4093194200382
 33
0.0
  0
SOLID
  5
D43
330
D0F
100
AcDbEntity
  8
BEM
 62
     0
100
AcDbTrace
 10
351.5236626852115
 20
706.5759860867049
 30
0.0
 11
351.5236626852115
 21
704.2426527533717
 31
0.0
 12
358.5236626852115
 22
705.4093194200382
 32
0.0
 13
358.5236626852115
 23
705.4093194200382
 33
0.0
  0
MTEXT
  5
D44
330
D0F
100
AcDbEntity
  8
BEM
 62
     1
100
AcDbMText
 10
228.5236626852115
 20
711.9093194200383
 30
0.0
 40
7.0
 41
0.0
 71
     5
 72
     1
  1
\A1;%%c260
 73
     1
 44
1.0
  0
POINT
  5
D45
330
D0F
100
AcDbEntity
  8
DEFPOINTS
 62
     0
100
AcDbPoint
 10
98.52366268521164
 20
594.1017651089977
 30
0.0
  0
POINT
  5
D46
330
D0F
100
AcDbEntity
  8
DEFPOINTS
 62
     0
100
AcDbPoint
 10
358.5236626852115
 20
594.1017651089979
 30
0.0
  0
POINT
  5
D47
330
D0F
100
AcDbEntity
  8
DEFPOINTS
 62
     0
100
AcDbPoint
 10
358.5236626852115
 20
705.4093194200382
 30
0.0
  0
ENDBLK
  5
D1A
330
D0F
100
AcDbEntity
  8
0
100
AcDbBlockEnd
  0
BLOCK
  5
D25
330
D1B
100
AcDbEntity
  8
0
100
AcDbBlockBegin
  2
*D10
 70
     1
 10
0.0
 20
0.0
 30
0.0
  3
*D10
  1

  0
LINE
  5
D48
330
D1B
100
AcDbEntity
  8
BEM
 62
     0
370
    -2
100
AcDbLine
 10
118.5236626852116
 20
665.1017071416821
 30
0.0
 11
118.5236626852116
 21
693.9141181057308
 31
0.0
  0
LINE
  5
D49
330
D1B
100
AcDbEntity
  8
BEM
 62
     0
370
    -2
100
AcDbLine
 10
338.5236626852119
 20
665.1017071416821
 30
0.0
 11
338.5236626852119
 21
693.9141181057308
 31
0.0
  0
LINE
  5
D4A
330
D1B
100
AcDbEntity
  8
BEM
 62
     0
370
    -2
100
AcDbLine
 10
125.5236626852116
 20
691.9141181057308
 30
0.0
 11
331.5236626852118
 21
691.9141181057308
 31
0.0
  0
SOLID
  5
D4B
330
D1B
100
AcDbEntity
  8
BEM
 62
     0
100
AcDbTrace
 10
125.5236626852116
 20
693.0807847723975
 30
0.0
 11
125.5236626852116
 21
690.7474514390642
 31
0.0
 12
118.5236626852116
 22
691.9141181057308
 32
0.0
 13
118.5236626852116
 23
691.9141181057308
 33
0.0
  0
SOLID
  5
D4C
330
D1B
100
AcDbEntity
  8
BEM
 62
     0
100
AcDbTrace
 10
331.5236626852118
 20
693.0807847723975
 30
0.0
 11
331.5236626852118
 21
690.7474514390642
 31
0.0
 12
338.5236626852119
 22
691.9141181057308
 32
0.0
 13
338.5236626852119
 23
691.9141181057308
 33
0.0
  0
MTEXT
  5
D4D
330
D1B
100
AcDbEntity
  8
BEM
 62
     1
100
AcDbMText
 10
228.5236626852117
 20
698.4141181057308
 30
0.0
 40
7.0
 41
0.0
 71
     5
 72
     1
  1
\A1;%%c220
 73
     1
 44
1.0
  0
POINT
  5
D4E
330
D1B
100
AcDbEntity
  8
DEFPOINTS
 62
     0
100
AcDbPoint
 10
118.5236626852116
 20
663.1017071416821
 30
0.0
  0
POINT
  5
D4F
330
D1B
100
AcDbEntity
  8
DEFPOINTS
 62
     0
100
AcDbPoint
 10
338.5236626852119
 20
663.1017071416821
 30
0.0
  0
POINT
  5
D50
330
D1B
100
AcDbEntity
  8
DEFPOINTS
 62
     0
100
AcDbPoint
 10
338.5236626852119
 20
691.9141181057308
 30
0.0
  0
ENDBLK
  5
D26
330
D1B
100
AcDbEntity
  8
0
100
AcDbBlockEnd
  0
BLOCK
  5
D31
330
D27
100
AcDbEntity
  8
0
100
AcDbBlockBegin
  2
*D11
 70
     1
 10
0.0
 20
0.0
 30
0.0
  3
*D11
  1

  0
LINE
  5
F72
330
D27
100
AcDbEntity
  8
BEM
 62
     0
370
    -2
100
AcDbLine
 10
146.5236626852116
 20
683.101765108997
 30
0.0
 11
64.03900796850166
 21
683.101765108997
 31
0.0
  0
LINE
  5
F73
330
D27
100
AcDbEntity
  8
BEM
 62
     0
370
    -2
100
AcDbLine
 10
109.5236626852121
 20
573.1017651089955
 30
0.0
 11
64.03900796850163
 21
573.1017651089955
 31
0.0
  0
LINE
  5
F74
330
D27
100
AcDbEntity
  8
BEM
 62
     0
370
    -2
100
AcDbLine
 10
66.03900796850166
 20
676.101765108997
 30
0.0
 11
66.03900796850163
 21
580.1017651089956
 31
0.0
  0
SOLID
  5
F75
330
D27
100
AcDbEntity
  8
BEM
 62
     0
100
AcDbTrace
 10
64.87234130183499
 20
676.101765108997
 30
0.0
 11
67.20567463516833
 21
676.101765108997
 31
0.0
 12
66.03900796850166
 22
683.101765108997
 32
0.0
 13
66.03900796850166
 23
683.101765108997
 33
0.0
  0
SOLID
  5
F76
330
D27
100
AcDbEntity
  8
BEM
 62
     0
100
AcDbTrace
 10
64.87234130183496
 20
580.1017651089956
 30
0.0
 11
67.20567463516831
 21
580.1017651089956
 31
0.0
 12
66.03900796850163
 22
573.1017651089955
 32
0.0
 13
66.03900796850163
 23
573.1017651089955
 33
0.0
  0
MTEXT
  5
F77
330
D27
100
AcDbEntity
  8
BEM
 62
     1
100
AcDbMText
 10
59.53900796850154
 20
628.1017651089962
 30
0.0
 40
7.0
 41
0.0
 71
     5
 72
     1
  1
\A1;110
 11
0.0000000000000001
 21
1.0
 31
0.0
 73
     1
 44
1.0
  0
POINT
  5
F78
330
D27
100
AcDbEntity
  8
DEFPOINTS
 62
     0
100
AcDbPoint
 10
148.5236626852116
 20
683.101765108997
 30
0.0
  0
POINT
  5
F79
330
D27
100
AcDbEntity
  8
DEFPOINTS
 62
     0
100
AcDbPoint
 10
111.5236626852121
 20
573.1017651089955
 30
0.0
  0
POINT
  5
F7A
330
D27
100
AcDbEntity
  8
DEFPOINTS
 62
     0
100
AcDbPoint
 10
66.03900796850163
 20
573.1017651089955
 30
0.0
  0
ENDBLK
  5
D32
330
D27
100
AcDbEntity
  8
0
100
AcDbBlockEnd
  0
BLOCK
  5
D3D
330
D33
100
AcDbEntity
  8
0
100
AcDbBlockBegin
  2
*D12
 70
     1
 10
0.0
 20
0.0
 30
0.0
  3
*D12
  1

  0
LINE
  5
F69
330
D33
100
AcDbEntity
  8
BEM
 62
     0
370
    -2
100
AcDbLine
 10
160.0236626852115
 20
608.1017651089963
 30
0.0
 11
80.34544480432549
 21
608.1017651089963
 31
0.0
  0
LINE
  5
F6A
330
D33
100
AcDbEntity
  8
BEM
 62
     0
370
    -2
100
AcDbLine
 10
109.5236626852121
 20
573.1017651089955
 30
0.0
 11
80.34544480432547
 21
573.1017651089955
 31
0.0
  0
LINE
  5
F6B
330
D33
100
AcDbEntity
  8
BEM
 62
     0
370
    -2
100
AcDbLine
 10
82.34544480432546
 20
601.1017651089963
 30
0.0
 11
82.34544480432546
 21
580.1017651089956
 31
0.0
  0
SOLID
  5
F6C
330
D33
100
AcDbEntity
  8
BEM
 62
     0
100
AcDbTrace
 10
81.17877813765879
 20
601.1017651089963
 30
0.0
 11
83.51211147099213
 21
601.1017651089963
 31
0.0
 12
82.34544480432548
 22
608.1017651089963
 32
0.0
 13
82.34544480432548
 23
608.1017651089963
 33
0.0
  0
SOLID
  5
F6D
330
D33
100
AcDbEntity
  8
BEM
 62
     0
100
AcDbTrace
 10
81.17877813765879
 20
580.1017651089956
 30
0.0
 11
83.51211147099213
 21
580.1017651089956
 31
0.0
 12
82.34544480432546
 22
573.1017651089955
 32
0.0
 13
82.34544480432546
 23
573.1017651089955
 33
0.0
  0
MTEXT
  5
F6E
330
D33
100
AcDbEntity
  8
BEM
 62
     1
100
AcDbMText
 10
75.84544480432538
 20
590.601765108996
 30
0.0
 40
7.0
 41
0.0
 71
     5
 72
     1
  1
\A1;35
 11
0.0000000000000001
 21
1.0
 31
0.0
 73
     1
 44
1.0
  0
POINT
  5
F6F
330
D33
100
AcDbEntity
  8
DEFPOINTS
 62
     0
100
AcDbPoint
 10
162.0236626852115
 20
608.1017651089963
 30
0.0
  0
POINT
  5
F70
330
D33
100
AcDbEntity
  8
DEFPOINTS
 62
     0
100
AcDbPoint
 10
111.5236626852121
 20
573.1017651089955
 30
0.0
  0
POINT
  5
F71
330
D33
100
AcDbEntity
  8
DEFPOINTS
 62
     0
100
AcDbPoint
 10
82.34544480432546
 20
573.1017651089955
 30
0.0
  0
ENDBLK
  5
D3E
330
D33
100
AcDbEntity
  8
0
100
AcDbBlockEnd
  0
ENDSEC
  0
SECTION
  2
ENTITIES
  0
LINE
  5
58
330
1E
100
AcDbEntity
  8
STEMPEL
100
AcDbLine
 10
484.0
 20
830.0000000000002
 30
0.0
 11
484.0
 21
470.0000000000001
 31
0.0
  0
LINE
  5
59
330
1E
100
AcDbEntity
  8
STEMPEL
100
AcDbLine
 10
484.0
 20
470.0000000000001
 30
0.0
 11
584.0
 21
470.0000000000001
 31
0.0
  0
LINE
  5
5A
330
1E
100
AcDbEntity
  8
STEMPEL
100
AcDbLine
 10
484.0000000000001
 20
566.0000000000002
 30
0.0
 11
584.0000000000001
 21
566.0
 31
0.0
  0
LINE
  5
5B
330
1E
100
AcDbEntity
  8
STEMPEL
100
AcDbLine
 10
484.0
 20
650.0
 30
0.0
 11
584.0
 21
650.0
 31
0.0
  0
LINE
  5
5C
330
1E
100
AcDbEntity
  8
STEMPEL
100
AcDbLine
 10
484.0000000000003
 20
752.0000000000002
 30
0.0
 11
554.0
 21
752.0000000000002
 31
0.0
  0
LINE
  5
5D
330
1E
100
AcDbEntity
  8
STEMPEL
100
AcDbLine
 10
564.0
 20
566.0
 30
0.0
 11
564.0
 21
470.0000000000001
 31
0.0
  0
LINE
  5
5E
330
1E
100
AcDbEntity
  8
STEMPEL
100
AcDbLine
 10
554.0
 20
830.0000000000002
 30
0.0
 11
554.0
 21
566.0
 31
0.0
  0
LINE
  5
5F
330
1E
100
AcDbEntity
  8
STEMPEL
100
AcDbLine
 10
514.0
 20
830.0000000000002
 30
0.0
 11
514.0
 21
566.0000000000002
 31
0.0
  0
LINE
  5
60
330
1E
100
AcDbEntity
  8
VOLL
100
AcDbLine
 10
484.0
 20
484.0000000000001
 30
0.0
 11
584.0
 21
484.0
 31
0.0
  0
LINE
  5
61
330
1E
100
AcDbEntity
  8
VOLL
100
AcDbLine
 10
484.0000000000001
 20
524.0000000000001
 30
0.0
 11
584.0000000000001
 21
524.0
 31
0.0
  0
LINE
  5
62
330
1E
100
AcDbEntity
  8
VOLL
100
AcDbLine
 10
484.0000000000001
 20
544.0000000000002
 30
0.0
 11
584.0000000000001
 21
544.0
 31
0.0
  0
LINE
  5
63
330
1E
100
AcDbEntity
  8
VOLL
100
AcDbLine
 10
514.0
 20
584.0000000000002
 30
0.0
 11
554.0
 21
584.0000000000002
 31
0.0
  0
LINE
  5
64
330
1E
100
AcDbEntity
  8
VOLL
100
AcDbLine
 10
484.0000000000002
 20
610.0000000000002
 30
0.0
 11
554.0
 21
610.0
 31
0.0
  0
LINE
  5
65
330
1E
100
AcDbEntity
  8
HILF
100
AcDbLine
 10
494.0
 20
470.0000000000001
 30
0.0
 11
494.0
 21
566.0000000000002
 31
0.0
  0
LINE
  5
66
330
1E
100
AcDbEntity
  8
HILF
100
AcDbLine
 10
504.0
 20
470.0000000000001
 30
0.0
 11
504.0
 21
566.0000000000002
 31
0.0
  0
LINE
  5
67
330
1E
100
AcDbEntity
  8
HILF
100
AcDbLine
 10
514.0
 20
470.0000000000001
 30
0.0
 11
514.0
 21
566.0000000000002
 31
0.0
  0
LINE
  5
68
330
1E
100
AcDbEntity
  8
HILF
100
AcDbLine
 10
524.0
 20
470.0000000000001
 30
0.0
 11
524.0
 21
566.0000000000002
 31
0.0
  0
LINE
  5
69
330
1E
100
AcDbEntity
  8
HILF
100
AcDbLine
 10
534.0
 20
470.0000000000001
 30
0.0
 11
534.0
 21
566.0000000000002
 31
0.0
  0
LINE
  5
6A
330
1E
100
AcDbEntity
  8
HILF
100
AcDbLine
 10
544.0
 20
470.0000000000001
 30
0.0
 11
544.0
 21
566.0000000000002
 31
0.0
  0
LINE
  5
6B
330
1E
100
AcDbEntity
  8
HILF
100
AcDbLine
 10
554.0
 20
470.0000000000001
 30
0.0
 11
554.0
 21
566.0000000000002
 31
0.0
  0
LINE
  5
6C
330
1E
100
AcDbEntity
  8
HILF
100
AcDbLine
 10
524.0
 20
566.0000000000002
 30
0.0
 11
524.0
 21
650.0
 31
0.0
  0
LINE
  5
6D
330
1E
100
AcDbEntity
  8
HILF
100
AcDbLine
 10
534.0
 20
566.0000000000002
 30
0.0
 11
534.0
 21
650.0
 31
0.0
  0
LINE
  5
6E
330
1E
100
AcDbEntity
  8
HILF
100
AcDbLine
 10
544.0
 20
566.0000000000002
 30
0.0
 11
544.0
 21
650.0
 31
0.0
  0
LINE
  5
6F
330
1E
100
AcDbEntity
  8
HILF
100
AcDbLine
 10
509.9624175243587
 20
654.7736801096948
 30
0.0
 11
509.9624175243587
 21
746.6297842514811
 31
0.0
  0
LINE
  5
70
330
1E
100
AcDbEntity
  8
HILF
100
AcDbLine
 10
524.0
 20
654.7736801096948
 30
0.0
 11
524.0
 21
746.6297842514811
 31
0.0
  0
LINE
  5
71
330
1E
100
AcDbEntity
  8
HILF
100
AcDbLine
 10
534.0
 20
654.7736801096948
 30
0.0
 11
534.0
 21
746.6297842514811
 31
0.0
  0
LINE
  5
72
330
1E
100
AcDbEntity
  8
HILF
100
AcDbLine
 10
544.0
 20
654.7736801096948
 30
0.0
 11
544.0
 21
746.6297842514811
 31
0.0
  0
LINE
  5
73
330
1E
100
AcDbEntity
  8
VOLL
100
AcDbLine
 10
534.0
 20
752.0000000000002
 30
0.0
 11
534.0
 21
830.0000000000002
 31
0.0
  0
LINE
  5
74
330
1E
100
AcDbEntity
  8
HILF
100
AcDbLine
 10
510.2201636304418
 20
756.7238616296995
 30
0.0
 11
510.2201636304418
 21
824.858883932673
 31
0.0
  0
LINE
  5
75
330
1E
100
AcDbEntity
  8
HILF
100
AcDbLine
 10
579.1060174197169
 20
654.7736801096948
 30
0.0
 11
579.1060174197169
 21
824.858883932673
 31
0.0
  0
TEXT
  5
76
330
1E
100
AcDbEntity
  8
TEXT
100
AcDbText
 10
575.3261810501587
 20
492.3998239263297
 30
0.0
 40
4.0
  1
Änderung
 50
90.0
 41
0.8
  7
GREEKS
 72
     1
 11
575.3261810501587
 21
503.1426810691868
 31
0.0
100
AcDbText
  0
TEXT
  5
78
330
1E
100
AcDbEntity
  8
TEXT
100
AcDbText
 10
491.5379104912911
 20
573.5163572150376
 30
0.0
 40
5.0
  1
Maßstab
 50
90.0
 41
0.8
  7
GREEKS
100
AcDbText
  0
TEXT
  5
79
330
1E
100
AcDbEntity
  8
TEXT
100
AcDbText
 10
491.4510671988221
 20
654.8779403809009
 30
0.0
 40
5.0
  1
Benennung
 50
90.0
 41
0.8
  7
GREEKS
100
AcDbText
  0
TEXT
  5
7A
330
1E
100
AcDbEntity
  8
TEXT
100
AcDbText
 10
491.6867965462863
 20
756.1787549576343
 30
0.0
 40
5.0
  1
Zeichnungs Nr.
 50
90.0
 41
0.8
  7
GREEKS
100
AcDbText
  0
TEXT
  5
7B
330
1E
100
AcDbEntity
  8
TEXT
100
AcDbText
 10
563.1543942980694
 20
654.7422383911359
 30
0.0
 40
5.0
  1
Bauvorhaben
 50
90.0
 41
0.8
  7
GREEKS
100
AcDbText
  0
TEXT
  5
7C
330
1E
100
AcDbEntity
  8
TEXT
100
AcDbText
 10
520.8188176290003
 20
756.7238616296995
 30
0.0
 40
5.0
  1
Ersatz für:
 50
90.0
 41
0.8
  7
GREEKS
100
AcDbText
  0
TEXT
  5
7D
330
1E
100
AcDbEntity
  8
TEXT
100
AcDbText
 10
580.3453415397281
 20
478.2664110704577
 30
0.0
 40
4.0
  1
Index
 50
180.0
 41
0.8
  7
GREEKS
100
AcDbText
  0
TEXT
  5
7E
330
1E
100
AcDbEntity
  8
TEXT
100
AcDbText
 10
575.3284373066019
 20
529.8990113186978
 30
0.0
 40
4.0
  1
Tag
 50
90.0
 41
0.8
  7
GREEKS
 72
     1
 11
575.3284373066019
 21
533.6323446520311
 31
0.0
100
AcDbText
  0
TEXT
  5
7F
330
1E
100
AcDbEntity
  8
TEXT
100
AcDbText
 10
575.4067578303359
 20
548.9795678138292
 30
0.0
 40
4.0
  1
Name
 50
90.0
 41
0.8
  7
GREEKS
 72
     1
 11
575.4067578303359
 21
555.3033773376387
 31
0.0
100
AcDbText
  0
TEXT
  5
80
330
1E
100
AcDbEntity
  8
TEXT
100
AcDbText
 10
520.6811949877008
 20
592.3311673153651
 30
0.0
 40
4.0
  1
Tag
 50
90.0
 41
0.8
  7
GREEKS
100
AcDbText
  0
TEXT
  5
81
330
1E
100
AcDbEntity
  8
TEXT
100
AcDbText
 10
520.6903890808478
 20
622.4626584226296
 30
0.0
 40
4.0
  1
Name
 50
90.0
 41
0.8
  7
GREEKS
100
AcDbText
  0
TEXT
  5
82
330
1E
100
AcDbEntity
  8
TEXT
100
AcDbText
 10
530.3700963038204
 20
567.5836127167615
 30
0.0
 40
4.0
  1
Gez.
 50
90.0
 41
0.8
  7
GREEKS
100
AcDbText
  0
TEXT
  5
83
330
1E
100
AcDbEntity
  8
TEXT
100
AcDbText
 10
540.3107370857163
 20
567.5515086571672
 30
0.0
 40
4.0
  1
Gepr.
 50
90.0
 41
0.8
  7
GREEKS
100
AcDbText
  0
TEXT
  5
84
330
1E
100
AcDbEntity
  8
TEXT
100
AcDbText
 10
550.470536103502
 20
567.6006777387303
 30
0.0
 40
4.0
  1
Norm.
 50
90.0
 41
0.8
  7
GREEKS
100
AcDbText
  0
TEXT
  5
85
330
1E
100
AcDbEntity
  8
TEXT
100
AcDbText
 10
541.925838221214
 20
757.2400861497007
 30
0.0
 40
5.0
  1
ersetzt durch:
 50
90.0
 41
0.8
  7
GREEKS
100
AcDbText
  0
TEXT
  5
86
330
1E
100
AcDbEntity
  8
TEXT
100
AcDbText
 10
521.0331740347627
 20
568.8693027807324
 30
0.0
 40
4.0
  1
2011
 50
90.0
 41
0.8
  7
GREEKS
100
AcDbText
  0
LINE
  5
87
330
1E
100
AcDbEntity
  8
HILF
100
AcDbLine
 10
594.0
 20
-0.0000000000000568
 30
0.0
 11
594.0
 21
840.0
 31
0.0
  0
LINE
  5
88
330
1E
100
AcDbEntity
  8
HILF
100
AcDbLine
 10
594.0
 20
840.0
 30
0.0
 11
0.0
 21
840.0
 31
0.0
  0
LINE
  5
89
330
1E
100
AcDbEntity
  8
HILF
100
AcDbLine
 10
0.0
 20
840.0
 30
0.0
 11
0.0
 21
0.0
 31
0.0
  0
LINE
  5
8B
330
1E
100
AcDbEntity
  8
STEMPEL
100
AcDbLine
 10
10.0
 20
830.0
 30
0.0
 11
10.0
 21
39.99999999999995
 31
0.0
  0
LINE
  5
8D
330
1E
100
AcDbEntity
  8
STEMPEL
100
AcDbLine
 10
584.0
 20
39.99999999999995
 30
0.0
 11
584.0
 21
830.0
 31
0.0
  0
LINE
  5
8E
330
1E
100
AcDbEntity
  8
STEMPEL
100
AcDbLine
 10
584.0
 20
830.0
 30
0.0
 11
10.0
 21
830.0
 31
0.0
  0
TEXT
  5
8F
330
1E
100
AcDbEntity
  8
TEXT
 62
     1
100
AcDbText
 10
506.6265692434746
 20
655.0390572473189
 30
0.0
 40
7.0
  1
Drainlet-Notablauf
 50
90.0
 41
0.8
  7
GREEKS
100
AcDbText
  0
TEXT
  5
90
330
1E
100
AcDbEntity
  8
TEXT
 62
     1
100
AcDbText
 10
506.6265692434746
 20
766.6628088850802
 30
0.0
 40
7.0
  1
21735070W
 50
90.0
 41
0.8
  7
GREEKS
 72
     1
 11
506.6265692434746
 21
790.1294755517469
 31
0.0
100
AcDbText
  0
TEXT
  5
91
330
1E
100
AcDbEntity
  8
TEXT
100
AcDbText
 10
491.16010388621
 20
618.5090226415829
 30
0.0
 40
5.0
  1
Zul.Abw.
 50
90.0
 41
0.8
  7
GREEKS
100
AcDbText
  0
TEXT
  5
93
330
1E
100
AcDbEntity
  8
TEXT
100
AcDbText
 10
530.8491412387978
 20
590.4612856559488
 30
0.0
 40
4.0
  1
17.02.
 50
90.0
 41
0.8
  7
GREEKS
 72
     1
 11
530.8491412387978
 21
597.1660475607107
 31
0.0
100
AcDbText
  0
TEXT
  5
94
330
1E
100
AcDbEntity
  8
TEXT
100
AcDbText
 10
531.0570234483452
 20
624.0231753226609
 30
0.0
 40
4.0
  1
Koeh
 50
90.0
 41
0.8
  7
GREEKS
 72
     1
 11
531.0570234483452
 21
629.2803181798038
 31
0.0
100
AcDbText
  0
TEXT
  5
95
330
1E
100
AcDbEntity
  8
TEXT
100
AcDbText
 10
521.8997861689246
 20
654.3410940884991
 30
0.0
 40
5.0
  1
Kompletteinheit DN70, zweiteilig
 50
90.0
 41
0.75
  7
GREEKS
100
AcDbText
  0
TEXT
  5
96
330
1E
100
AcDbEntity
  8
TEXT
100
AcDbText
 10
531.6544091479096
 20
654.3410940884991
 30
0.0
 40
5.0
  1
mit Wärmedämmung
 50
90.0
 41
0.8
  7
GREEKS
100
AcDbText
  0
TEXT
  5
97
330
1E
100
AcDbEntity
  8
TEXT
100
AcDbText
 10
541.4090266215394
 20
654.3410940884991
 30
0.0
 40
5.0
  1
EDV-Art.Nr. 21735.070X
 50
90.0
 41
0.8
  7
GREEKS
100
AcDbText
  0
TEXT
  5
98
330
1E
100
AcDbEntity
  8
TEXT
100
AcDbText
 10
550.6887237520849
 20
654.1676050109347
 30
0.0
 40
4.0
  1
21735070W.DWG
 50
90.0
 41
0.8
  7
GREEKS
100
AcDbText
  0
TEXT
  5
99
330
1E
100
AcDbEntity
  8
TEXT
 62
     1
100
AcDbText
 10
506.5292291158502
 20
582.703491203422
 30
0.0
 40
7.0
  1
1:2
 50
90.0
 41
0.8
  7
GREEKS
100
AcDbText
  0
TEXT
  5
9A
330
1E
100
AcDbEntity
  8
TEXT
100
AcDbText
 10
479.8856414948956
 20
470.0441139350127
 30
0.0
 40
5.0
  1
Erstellt mit AUTOCAD 2004
 50
90.0
 41
0.8
  7
GREEKS
100
AcDbText
  0
INSERT
  5
9B
330
1E
100
AcDbEntity
  8
HILF
100
AcDbBlockReference
  2
LORO
 10
557.0194069970104
 20
573.0624985962354
 30
0.0
 41
2.0
 42
2.0
 43
2.0
 50
90.0
  0
LINE
  5
9C
330
1E
100
AcDbEntity
  8
BEM
100
AcDbLine
 10
594.0
 20
455.9999999999999
 30
0.0
 11
584.0
 21
455.9999999999999
 31
0.0
  0
LINE
  5
13E
330
1E
100
AcDbEntity
  8
HILF
100
AcDbLine
 10
594.0
 20
-0.0000000000000568
 30
0.0
 11
0.0
 21
0.0
 31
0.0
  0
LINE
  5
13F
330
1E
100
AcDbEntity
  8
STEMPEL
100
AcDbLine
 10
584.0
 20
39.99999999999995
 30
0.0
 11
10.0
 21
39.99999999999995
 31
0.0
  0
LINE
  5
14A
330
1E
100
AcDbEntity
  8
HILF
100
AcDbLine
 10
297.0
 20
-0.0000000000000568
 30
0.0
 11
297.0
 21
39.99999999999995
 31
0.0
  0
TEXT
  5
15B
330
1E
100
AcDbEntity
  8
BEM
100
AcDbText
 10
583.8320989200114
 20
837.3022923857165
 30
0.0
 40
4.0
  1
Diese Zeichnung ist urheberrechtlich geschützt und bleibt unser Eigentum. Sie darf weder ganz noch teilweise verfielfältigt und nicht an Dritte weitergegeben werden.
 50
180.0
 41
0.8
  7
GREEKS
100
AcDbText
  0
HATCH
  5
4D0
330
1E
100
AcDbEntity
  8
SCHRAFF
100
AcDbHatch
 10
0.0
 20
0.0
 30
0.0
210
0.0
220
0.0
230
1.0
  2
_USER
 70
     0
 71
     1
 91
        2
 92
        7
 72
     1
 73
     1
 93
       12
 10
170.003578438077
 20
567.1017651089961
 42
0.0
 10
112.2411771064838
 20
567.1017651089962
 42
0.1989123673797054
 10
108.3520898099572
 20
565.4908524055216
 42
0.0
 10
106.0236626852112
 20
563.1624252807755
 42
0.0
 10
107.437876247584
 20
561.7482117184022
 42
0.0
 10
109.7663033723303
 20
564.0766388431485
 42
-0.1989123673796765
 10
112.2411771064831
 20
565.1017651089962
 42
0.0
 10
170.0035784380771
 20
565.1017651089957
 42
-0.210277385297087
 10
174.4272424589379
 20
563.1553063546901
 42
0.0
 10
184.5559468856556
 20
552.1017651089961
 42
0.0
 10
186.0305015592757
 20
553.4529455242273
 42
0.0
 10
175.9017971325577
 20
564.5064867699217
 42
0.2102773852970721
 97
       12
330
4D9
330
4ED
330
4F9
330
4F8
330
4F7
330
4EE
330
513
330
581
330
577
330
586
330
578
330
580
 92
        7
 72
     1
 73
     1
 93
       12
 10
344.8061482639395
 20
567.101765108996
 42
0.0
 10
287.0437469323463
 20
567.1017651089961
 42
0.2102773852970721
 10
281.1455282378656
 20
564.5064867699217
 42
0.0
 10
271.0168238111474
 20
553.4529455242275
 42
0.0
 10
272.4913784847677
 20
552.1017651089961
 42
0.0
 10
282.6200829114857
 20
563.1553063546903
 42
-0.2102773852970678
 10
287.0437469323462
 20
565.1017651089959
 42
0.0
 10
344.8061482639395
 20
565.1017651089962
 42
-0.1989123673796966
 10
347.2810219980926
 20
564.0766388431485
 42
0.0
 10
349.6094491228388
 20
561.7482117184022
 42
0.0
 10
351.0236626852117
 20
563.1624252807754
 42
0.0
 10
348.6952355604657
 20
565.4908524055216
 42
0.1989123673796782
 97
       12
330
4D9
330
5A7
330
59F
330
5A1
330
59E
330
5A6
330
4D7
330
636
330
635
330
638
330
634
330
637
 75
     0
 76
     0
 52
45.0
 41
2.0
 77
     0
 78
     1
 53
45.0
 43
0.0
 44
-0.0000000000001137
 45
-1.414213562373094
 46
1.414213562373095
 79
     0
 47
0.5898668704803056
 98
        2
 10
146.9823833669084
 20
566.1882428671673
 10
318.7625968836619
 20
565.5983767039105
  0
LINE
  5
4D7
102
{ACAD_REACTORS
330
4D0
102
}
330
1E
100
AcDbEntity
  8
STEMPEL
100
AcDbLine
 10
344.8061482639395
 20
565.1017651089962
 30
0.0
 11
287.0437469323462
 21
565.1017651089959
 31
0.0
  0
LINE
  5
4D8
330
1E
100
AcDbEntity
  8
STEMPEL
100
AcDbLine
 10
281.330718231462
 20
561.7482117184021
 30
0.0
 11
349.6094491228386
 21
561.7482117184022
 31
0.0
  0
LINE
  5
4D9
102
{ACAD_REACTORS
330
4D0
102
}
330
1E
100
AcDbEntity
  8
STEMPEL
100
AcDbLine
 10
112.2411771064838
 20
567.1017651089962
 30
0.0
 11
344.8061482639395
 21
567.101765108996
 31
0.0
  0
LINE
  5
4E9
102
{ACAD_REACTORS
330
EC3
102
}
330
1E
100
AcDbEntity
  8
STEMPEL
100
AcDbLine
 10
106.0236626852115
 20
567.1017651089962
 30
0.0
 11
351.0236626852117
 21
567.101765108996
 31
0.0
  0
ARC
  5
4ED
102
{ACAD_REACTORS
330
4D0
102
}
330
1E
100
AcDbEntity
  8
STEMPEL
100
AcDbCircle
 10
112.2411771064834
 20
561.6017651089956
 30
0.0
 40
5.499999999999851
100
AcDbArc
 50
90.0
 51
134.9999999999996
  0
ARC
  5
4EE
102
{ACAD_REACTORS
330
4D0
102
}
330
1E
100
AcDbEntity
  8
STEMPEL
100
AcDbCircle
 10
112.2411771064834
 20
561.6017651089956
 30
0.0
 40
3.499999999999851
100
AcDbArc
 50
90.0
 51
134.9999999999996
  0
LINE
  5
4EF
330
1E
100
AcDbEntity
  8
STEMPEL
100
AcDbLine
 10
175.7166071389613
 20
561.7482117184022
 30
0.0
 11
107.4378762475843
 21
561.7482117184022
 31
0.0
  0
LINE
  5
4F7
102
{ACAD_REACTORS
330
4D0
102
}
330
1E
100
AcDbEntity
  8
STEMPEL
100
AcDbLine
 10
107.4378762475843
 20
561.7482117184024
 30
0.0
 11
109.7663033723303
 21
564.0766388431485
 31
0.0
  0
LINE
  5
4F8
102
{ACAD_REACTORS
330
4D0
102
}
330
1E
100
AcDbEntity
  8
STEMPEL
100
AcDbLine
 10
106.0236626852112
 20
563.1624252807754
 30
0.0
 11
107.4378762475841
 21
561.7482117184022
 31
0.0
  0
LINE
  5
4F9
102
{ACAD_REACTORS
330
4D0
102
}
330
1E
100
AcDbEntity
  8
STEMPEL
100
AcDbLine
 10
106.0236626852112
 20
563.1624252807754
 30
0.0
 11
108.3520898099572
 21
565.4908524055216
 31
0.0
  0
HATCH
  5
508
330
1E
100
AcDbEntity
  8
SCHRAFF
100
AcDbHatch
 10
0.0
 20
0.0
 30
0.0
210
0.0
220
0.0
230
1.0
  2
_USER
 70
     0
 71
     1
 91
        2
 92
        7
 72
     1
 73
     1
 93
        4
 10
186.8077391200915
 20
550.5646836956442
 42
0.0
 10
184.9289047703754
 20
552.4435180453604
 42
0.0
 10
184.5559468856556
 20
552.1017651089961
 42
0.0
 10
183.0384423824299
 20
553.7578306737771
 42
0.5252365674411922
 97
        4
330
586
330
577
330
50E
330
50F
 92
        7
 72
     1
 73
     1
 93
        4
 10
274.0088829879935
 20
553.7578306737771
 42
0.0
 10
272.4913784847676
 20
552.1017651089961
 42
0.0
 10
272.1184206000478
 20
552.4435180453605
 42
0.0
 10
270.2395862503317
 20
550.5646836956443
 42
0.5252365674411985
 97
        4
330
59E
330
5A1
330
593
330
591
 75
     0
 76
     0
 52
0.0
 41
0.1
 77
     0
 78
     1
 53
0.0
 43
0.0
 44
0.0
 45
0.0
 46
0.1
 79
     0
 47
0.1173904646505602
 98
        2
 10
958.6201865425191
 20
1054.942594099103
 10
1045.671872697002
 20
1055.412155598341
  0
LINE
  5
509
330
1E
100
AcDbEntity
  8
STEMPEL
100
AcDbLine
 10
186.023662685212
 20
553.4604088456311
 30
0.0
 11
271.0236626852113
 21
553.4604088456311
 31
0.0
  0
LINE
  5
50A
330
1E
100
AcDbEntity
  8
HILF
100
AcDbLine
 10
194.6271244463148
 20
545.7651346290321
 30
0.0
 11
262.420200924108
 21
545.7651346290318
 31
0.0
  0
ARC
  5
50E
102
{ACAD_REACTORS
330
508
102
}
330
1E
100
AcDbEntity
  8
SCHRAFF
100
AcDbCircle
 10
186.023662685212
 20
553.4604088456311
 30
0.0
 40
3.0
100
AcDbArc
 50
174.3103148957775
 51
285.1507044993655
  0
LINE
  5
50F
102
{ACAD_REACTORS
330
508
330
678
102
}
330
1E
100
AcDbEntity
  8
STEMPEL
100
AcDbLine
 10
184.9289047703753
 20
552.4435180453605
 30
0.0
 11
190.5591965911439
 21
546.8132262245916
 31
0.0
  0
LINE
  5
510
102
{ACAD_REACTORS
330
678
102
}
330
1E
100
AcDbEntity
  8
STEMPEL
100
AcDbLine
 10
186.0337758646128
 20
553.4599672946825
 30
0.0
 11
191.6198567629239
 21
547.8738863963716
 31
0.0
  0
ARC
  5
511
102
{ACAD_REACTORS
330
678
102
}
330
1E
100
AcDbEntity
  8
STEMPEL
100
AcDbCircle
 10
187.0236626852113
 20
543.2776923186589
 30
0.0
 40
6.5
100
AcDbArc
 50
0.0
 51
45.00000000000036
  0
ARC
  5
512
102
{ACAD_REACTORS
330
678
102
}
330
1E
100
AcDbEntity
  8
STEMPEL
100
AcDbCircle
 10
187.0236626852113
 20
543.2776923186589
 30
0.0
 40
5.0
100
AcDbArc
 50
0.0
 51
45.00000000000036
  0
LINE
  5
513
102
{ACAD_REACTORS
330
4D0
102
}
330
1E
100
AcDbEntity
  8
STEMPEL
100
AcDbLine
 10
112.2411771064834
 20
565.1017651089962
 30
0.0
 11
170.0035784380771
 21
565.1017651089957
 31
0.0
  0
LINE
  5
577
102
{ACAD_REACTORS
330
508
330
4D0
102
}
330
1E
100
AcDbEntity
  8
STEMPEL
100
AcDbLine
 10
174.4272424589376
 20
563.1553063546903
 30
0.0
 11
184.5559468856556
 21
552.1017651089961
 31
0.0
  0
LINE
  5
578
102
{ACAD_REACTORS
330
4D0
102
}
330
1E
100
AcDbEntity
  8
STEMPEL
100
AcDbLine
 10
175.9017971325577
 20
564.5064867699217
 30
0.0
 11
186.0305015592757
 21
553.4529455242274
 31
0.0
  0
ARC
  5
580
102
{ACAD_REACTORS
330
4D0
102
}
330
1E
100
AcDbEntity
  8
STEMPEL
100
AcDbCircle
 10
170.003578438077
 20
559.1017651089961
 30
0.0
 40
8.0
100
AcDbArc
 50
42.50000000000727
 51
90.0
  0
ARC
  5
581
102
{ACAD_REACTORS
330
4D0
102
}
330
1E
100
AcDbEntity
  8
STEMPEL
100
AcDbCircle
 10
170.003578438077
 20
559.1017651089961
 30
0.0
 40
6.0
100
AcDbArc
 50
42.50000000000727
 51
90.0
  0
LINE
  5
586
102
{ACAD_REACTORS
330
508
330
4D0
330
678
102
}
330
1E
100
AcDbEntity
  8
STEMPEL
100
AcDbLine
 10
184.5559468856556
 20
552.1017651089961
 30
0.0
 11
186.0305015592757
 21
553.4529455242274
 31
0.0
  0
ARC
  5
591
102
{ACAD_REACTORS
330
508
102
}
330
1E
100
AcDbEntity
  8
SCHRAFF
100
AcDbCircle
 10
271.0236626852113
 20
553.4604088456311
 30
0.0
 40
3.0
100
AcDbArc
 50
254.849295500629
 51
5.689685104222541
  0
LINE
  5
592
102
{ACAD_REACTORS
330
678
102
}
330
1E
100
AcDbEntity
  8
STEMPEL
100
AcDbLine
 10
271.0135495058103
 20
553.4599672946825
 30
0.0
 11
265.4274686074991
 21
547.8738863963716
 31
0.0
  0
LINE
  5
593
102
{ACAD_REACTORS
330
508
330
678
102
}
330
1E
100
AcDbEntity
  8
STEMPEL
100
AcDbLine
 10
272.1184206000478
 20
552.4435180453605
 30
0.0
 11
266.4881287792791
 21
546.8132262245916
 31
0.0
  0
ARC
  5
594
102
{ACAD_REACTORS
330
678
102
}
330
1E
100
AcDbEntity
  8
STEMPEL
100
AcDbCircle
 10
270.0236626852117
 20
543.2776923186589
 30
0.0
 40
5.0
100
AcDbArc
 50
134.9999999999996
 51
180.0
  0
ARC
  5
595
102
{ACAD_REACTORS
330
678
102
}
330
1E
100
AcDbEntity
  8
STEMPEL
100
AcDbCircle
 10
270.0236626852117
 20
543.2776923186589
 30
0.0
 40
6.5
100
AcDbArc
 50
134.9999999999996
 51
180.0
  0
LINE
  5
59E
102
{ACAD_REACTORS
330
508
330
4D0
102
}
330
1E
100
AcDbEntity
  8
STEMPEL
100
AcDbLine
 10
282.6200829114857
 20
563.1553063546903
 30
0.0
 11
272.4913784847676
 21
552.1017651089961
 31
0.0
  0
LINE
  5
59F
102
{ACAD_REACTORS
330
4D0
102
}
330
1E
100
AcDbEntity
  8
STEMPEL
100
AcDbLine
 10
281.1455282378656
 20
564.5064867699217
 30
0.0
 11
271.0168238111474
 21
553.4529455242274
 31
0.0
  0
LINE
  5
5A1
102
{ACAD_REACTORS
330
508
330
4D0
330
678
102
}
330
1E
100
AcDbEntity
  8
STEMPEL
100
AcDbLine
 10
272.4913784847676
 20
552.1017651089961
 30
0.0
 11
271.0168238111474
 21
553.4529455242274
 31
0.0
  0
ARC
  5
5A6
102
{ACAD_REACTORS
330
4D0
102
}
330
1E
100
AcDbEntity
  8
STEMPEL
100
AcDbCircle
 10
287.0437469323463
 20
559.1017651089961
 30
0.0
 40
6.0
100
AcDbArc
 50
90.0
 51
137.4999999999927
  0
ARC
  5
5A7
102
{ACAD_REACTORS
330
4D0
102
}
330
1E
100
AcDbEntity
  8
STEMPEL
100
AcDbCircle
 10
287.0437469323463
 20
559.1017651089961
 30
0.0
 40
8.0
100
AcDbArc
 50
90.0
 51
137.4999999999927
  0
LINE
  5
634
102
{ACAD_REACTORS
330
4D0
102
}
330
1E
100
AcDbEntity
  8
STEMPEL
100
AcDbLine
 10
351.0236626852117
 20
563.1624252807754
 30
0.0
 11
348.6952355604657
 21
565.4908524055216
 31
0.0
  0
LINE
  5
635
102
{ACAD_REACTORS
330
4D0
102
}
330
1E
100
AcDbEntity
  8
STEMPEL
100
AcDbLine
 10
349.6094491228386
 20
561.7482117184024
 30
0.0
 11
347.2810219980926
 21
564.0766388431485
 31
0.0
  0
ARC
  5
636
102
{ACAD_REACTORS
330
4D0
102
}
330
1E
100
AcDbEntity
  8
STEMPEL
100
AcDbCircle
 10
344.8061482639395
 20
561.6017651089956
 30
0.0
 40
3.499999999999851
100
AcDbArc
 50
45.00000000000036
 51
90.0
  0
ARC
  5
637
102
{ACAD_REACTORS
330
4D0
102
}
330
1E
100
AcDbEntity
  8
STEMPEL
100
AcDbCircle
 10
344.8061482639395
 20
561.6017651089956
 30
0.0
 40
5.499999999999851
100
AcDbArc
 50
45.00000000000036
 51
90.0
  0
LINE
  5
638
102
{ACAD_REACTORS
330
4D0
102
}
330
1E
100
AcDbEntity
  8
STEMPEL
100
AcDbLine
 10
351.0236626852117
 20
563.1624252807754
 30
0.0
 11
349.6094491228388
 21
561.7482117184022
 31
0.0
  0
HATCH
  5
657
330
1E
100
AcDbEntity
  8
SCHRAFF
100
AcDbHatch
 10
0.0
 20
0.0
 30
0.0
210
0.0
220
0.0
230
1.0
  2
HONEY
 70
     0
 71
     1
 91
        3
 92
        7
 72
     1
 73
     1
 93
        9
 10
422.5753210296615
 20
329.1674298717899
 42
0.0
 10
358.5236626852113
 20
329.1674298717899
 42
0.0
 10
358.5236626852112
 20
323.1674298717903
 42
0.0
 10
338.5236626852113
 20
323.1674298717903
 42
0.0
 10
338.5236626852113
 20
325.1674298717899
 42
0.0
 10
286.5947304970765
 20
325.1674298717897
 42
0.0
 10
271.6803130843007
 20
310.2530124590148
 42
0.6494075931975156
 10
274.2993963840747
 20
303.4300671952501
 42
0.0
 10
420.8240420303036
 20
295.7510359066969
 42
0.0
 97
        9
330
72A
330
74C
330
72C
330
73B
330
658
330
6F7
330
6F6
330
659
330
755
 92
        7
 72
     1
 73
     1
 93
       12
 10
228.5236626852115
 20
222.715167025632
 42
0.0
 10
189.0236626852111
 20
224.7852743073122
 42
0.0
 10
189.0236626852111
 20
256.3285032062472
 42
0.0
 10
179.0236626852104
 20
256.8525809990774
 42
0.0
 10
179.0236626852113
 20
276.8800279190357
 42
0.0
 10
189.0236626852112
 20
276.3559501262053
 42
0.0
 10
189.0236626852113
 20
298.3120908124643
 42
0.1989123673796738
 10
183.1657983089412
 20
312.454226436196
 42
0.0
 10
170.4525948733457
 20
325.1674298717901
 42
0.0
 10
153.5236626852113
 20
325.1674298717898
 42
0.0
 10
166.3981392611245
 20
192.1674298717901
 42
0.0
 10
228.5236626852115
 20
192.1674298717901
 42
0.0
 97
       12
330
65A
330
69C
330
699
330
69B
330
69A
330
695
330
6DE
330
6D3
330
69E
330
696
330
65C
330
6F5
 92
        7
 72
     0
 73
     1
 93
        4
 10
416.4801576621391
 20
212.8647845220671
 10
228.5236626852115
 20
222.715167025632
 10
228.5236626852115
 20
192.1674298717901
 10
415.3954552678847
 20
192.1674298717901
 97
        4
330
65A
330
6F5
330
65C
330
74D
 75
     0
 76
     1
 52
0.0
 41
40.0
 77
     0
 78
     3
 53
0.0
 43
0.0
 44
-0.0000000000001137
 45
7.5
 46
4.330127
 79
     2
 49
5.0
 49
-10.0
 53
120.0
 43
0.0
 44
-0.0000000000001137
 45
-7.499999983612898
 46
4.330127028383291
 79
     2
 49
4.999999999999998
 49
-9.999999999999996
 53
60.0
 43
0.0
 44
-0.0000000000001137
 45
0.0000000163871017
 46
8.66025402838329
 79
     2
 49
-10.0
 49
5.0
 47
0.8203949978660098
 98
        3
 10
385.5099992497348
 20
309.5228519588651
 10
204.0664989053453
 20
212.7162411682578
 10
273.8524598115146
 20
203.6918967147825
  0
LINE
  5
658
102
{ACAD_REACTORS
330
657
102
}
330
1E
100
AcDbEntity
  8
STEMPEL
100
AcDbLine
 10
282.5710213989596
 20
325.1674298717897
 30
0.0
 11
338.5236626852113
 21
325.1674298717899
 31
0.0
  0
LINE
  5
659
102
{ACAD_REACTORS
330
657
102
}
330
1E
100
AcDbEntity
  8
STEMPEL
100
AcDbLine
 10
274.2993963840754
 20
303.4300671952501
 30
0.0
 11
420.8240420303036
 21
295.7510359066969
 31
0.0
  0
LINE
  5
65A
102
{ACAD_REACTORS
330
657
102
}
330
1E
100
AcDbEntity
  8
STEMPEL
100
AcDbLine
 10
189.0236626852111
 20
224.7852743073122
 30
0.0
 11
416.4801576621391
 21
212.8647845220671
 31
0.0
  0
DIMENSION
  5
65B
330
1E
100
AcDbEntity
  8
SCHRAFF
100
AcDbDimension
  2
*D2
 10
415.3954552678847
 20
170.0242812908373
 30
0.0
 11
290.8967972645046
 21
176.5242812908373
 31
0.0
 70
    32
 71
     5
 42
248.9973160067602
  3
Standard
100
AcDbAlignedDimension
 13
166.3981392611245
 23
192.1674298717901
 33
0.0
 14
415.3954552678847
 24
192.1674298717901
 34
0.0
100
AcDbRotatedDimension
1001
ACAD
1000
DSTYLE
1002
{
1070
    40
1040
2.0
1070
    41
1040
3.5
1070
    42
1040
1.0
1070
    43
1040
7.0
1070
    44
1040
1.0
1070
    47
1040
2.0
1070
    48
1040
2.0
1070
    73
1070
     0
1070
    74
1070
     0
1070
    77
1070
     1
1070
    78
1070
     8
1070
    79
1070
     2
1070
   140
1040
3.5
1070
   141
1040
1.5
1070
   146
1040
0.5142857142857144
1070
   147
1040
1.5
1070
   172
1070
     1
1070
   178
1070
     1
1070
   179
1070
     1
1070
   271
1070
     0
1070
   272
1070
     0
1070
   279
1070
     0
1002
}
  0
LINE
  5
65C
102
{ACAD_REACTORS
330
657
102
}
330
1E
100
AcDbEntity
  8
STEMPEL
100
AcDbLine
 10
166.3981392611245
 20
192.1674298717901
 30
0.0
 11
415.3954552678847
 21
192.1674298717901
 31
0.0
  0
HATCH
  5
65D
330
1E
100
AcDbEntity
  8
SCHRAFF
100
AcDbHatch
 10
0.0
 20
0.0
 30
0.0
210
0.0
220
0.0
230
1.0
  2
_USER
 70
     0
 71
     1
 91
        3
 92
        7
 72
     1
 73
     1
 93
        9
 10
138.5236626852114
 20
329.1674298717904
 42
0.0
 10
138.5236626852114
 20
328.1674298717903
 42
0.0
 10
138.5236626852114
 20
327.1674298717903
 42
0.0
 10
170.0035784380769
 20
327.1674298717901
 42
-0.2102773852970862
 10
174.4272424589376
 20
325.2209711174843
 42
0.0
 10
184.5559468856554
 20
314.1674298717906
 42
0.0
 10
186.0305015592756
 20
315.5186102870218
 42
0.0
 10
175.9017971325574
 20
326.5721515327161
 42
0.2102773852970698
 10
170.0035784380768
 20
329.1674298717904
 42
0.0
 97
        9
330
681
330
6C6
330
6C8
330
6A3
330
6DA
330
6D5
330
6E3
330
6D4
330
6D9
 92
        7
 72
     1
 73
     1
 93
        8
 10
112.2411771064834
 20
329.1674298717904
 42
0.1989123673796802
 10
108.3520898099573
 20
327.5565171683159
 42
0.0
 10
106.0236626852115
 20
325.2280900435697
 42
0.0
 10
107.4378762475843
 20
323.8138764811965
 42
0.0
 10
109.7663033723306
 20
326.1423036059428
 42
-0.1989123673796736
 10
112.2411771064834
 20
327.1674298717905
 42
0.0
 10
138.5236626852114
 20
327.1674298717903
 42
0.0
 10
138.5236626852114
 20
329.1674298717903
 42
0.0
 97
        8
330
681
330
684
330
68B
330
68A
330
689
330
685
330
6A3
330
6C8
 92
        7
 72
     1
 73
     1
 93
       12
 10
344.8061482639396
 20
327.1674298717905
 42
-0.198912367379717
 10
347.2810219980929
 20
326.1423036059428
 42
0.0
 10
349.609449122839
 20
323.8138764811962
 42
0.0
 10
351.0236626852119
 20
325.2280900435697
 42
0.0
 10
348.6952355604658
 20
327.5565171683159
 42
0.1989123673796803
 10
344.8061482639396
 20
329.1674298717903
 42
0.0
 10
287.043746932346
 20
329.1674298717903
 42
0.2102773852970778
 10
281.1455282378652
 20
326.572151532716
 42
0.0
 10
271.0168238111471
 20
315.5186102870218
 42
0.0
 10
272.4913784847674
 20
314.1674298717906
 42
0.0
 10
282.6200829114855
 20
325.2209711174846
 42
-0.2102773852970694
 10
287.043746932346
 20
327.1674298717903
 42
0.0
 97
       12
330
669
330
716
330
6F9
330
70B
330
6F8
330
717
330
677
330
747
330
746
330
74B
330
745
330
748
 75
     0
 76
     0
 52
45.0
 41
2.0
 77
     0
 78
     1
 53
45.0
 43
0.0
 44
-0.0000000000001137
 45
-1.414213562373094
 46
1.414213562373095
 79
     0
 47
0.3538471257583322
 98
        3
 10
151.3588754604002
 20
328.1943706676058
 10
128.3415349567726
 20
328.1943706676058
 10
304.3356731500298
 20
327.8405233650416
  0
DIMENSION
  5
65E
330
1E
100
AcDbEntity
  8
BEM
100
AcDbDimension
  2
*D3
 10
513.5236626852114
 20
154.0242812908372
 30
0.0
 11
371.0236626852114
 21
160.5242812908373
 31
0.0
 70
    32
 71
     5
 42
285.0
  3
Standard
100
AcDbAlignedDimension
 13
228.5236626852115
 23
170.0242812908373
 33
0.0
 14
513.5236626852114
 24
247.333157596884
 34
0.0
100
AcDbRotatedDimension
1001
ACAD
1000
DSTYLE
1002
{
1070
    40
1040
2.0
1070
    41
1040
3.5
1070
    42
1040
1.0
1070
    43
1040
7.0
1070
    44
1040
1.0
1070
    47
1040
2.0
1070
    48
1040
2.0
1070
    73
1070
     0
1070
    74
1070
     0
1070
    77
1070
     1
1070
    78
1070
     8
1070
    79
1070
     2
1070
   140
1040
3.5
1070
   141
1040
1.5
1070
   146
1040
0.5142857142857144
1070
   147
1040
1.5
1070
   172
1070
     1
1070
   178
1070
     1
1070
   179
1070
     1
1070
   271
1070
     1
1070
   272
1070
     1
1070
   279
1070
     0
1002
}
  0
LINE
  5
65F
330
1E
100
AcDbEntity
  8
MITTEL
100
AcDbLine
 10
228.5236626852115
 20
262.2693746925508
 30
0.0
 11
518.5168103589843
 21
247.0714778156693
 31
0.0
  0
DIMENSION
  5
660
330
1E
100
AcDbEntity
  8
BEM
100
AcDbDimension
  2
*D4
 10
519.0866022111772
 20
247.0416162900423
 30
0.0
 11
285.1747830675969
 21
240.6423055940229
 31
0.0
 70
    34
 71
     5
 42
0.0523598775598213
  3
Standard
100
AcDb2LineAngularDimension
 13
228.5236626852116
 23
262.2693746925508
 33
0.0
 14
226.5236626852116
 24
262.2693746925508
 34
0.0
 15
228.5236626852114
 25
262.2693746925508
 35
0.0
 16
295.334622414535
 26
261.1031850525584
 36
0.0
1001
ACAD
1000
DSTYLE
1002
{
1070
    40
1040
2.0
1070
    41
1040
3.5
1070
    42
1040
1.0
1070
    43
1040
7.0
1070
    44
1040
1.0
1070
    47
1040
2.0
1070
    48
1040
2.0
1070
    73
1070
     0
1070
    74
1070
     0
1070
    77
1070
     1
1070
    78
1070
     8
1070
    79
1070
     2
1070
   140
1040
3.5
1070
   141
1040
1.5
1070
   146
1040
0.5142857142857144
1070
   147
1040
1.5
1070
   172
1070
     1
1070
   178
1070
     1
1070
   179
1070
     1
1070
   271
1070
     1
1070
   272
1070
     1
1070
   279
1070
     0
1002
}
  0
LINE
  5
661
102
{ACAD_REACTORS
330
99E
102
}
330
1E
100
AcDbEntity
  8
STEMPEL
100
AcDbLine
 10
193.5236626852114
 20
229.05561485753
 30
0.0
 11
504.6480675263731
 21
212.7502757190467
 31
0.0
  0
LINE
  5
662
102
{ACAD_REACTORS
330
99E
102
}
330
1E
100
AcDbEntity
  8
STEMPEL
100
AcDbLine
 10
192.0236626852114
 20
227.6321680074576
 30
0.0
 11
504.622993539062
 21
211.2495312720424
 31
0.0
  0
LINE
  5
664
102
{ACAD_REACTORS
330
99E
102
}
330
1E
100
AcDbEntity
  8
STEMPEL
100
AcDbLine
 10
263.5236626852117
 20
295.4831345275715
 30
0.0
 11
508.3352354933179
 21
282.6531036539101
 31
0.0
  0
LINE
  5
665
102
{ACAD_REACTORS
330
99E
102
}
330
1E
100
AcDbEntity
  8
STEMPEL
100
AcDbLine
 10
265.0236626852116
 20
296.9065813776436
 30
0.0
 11
508.4435183447974
 21
284.1494873091266
 31
0.0
  0
LINE
  5
667
102
{ACAD_REACTORS
330
95D
102
}
330
1E
100
AcDbEntity
  8
STEMPEL
100
AcDbLine
 10
269.6961726353093
 20
335.1674298717904
 30
0.0
 11
353.7847270189147
 21
335.1674298717903
 31
0.0
  0
LINE
  5
669
102
{ACAD_REACTORS
330
65D
102
}
330
1E
100
AcDbEntity
  8
STEMPEL
100
AcDbLine
 10
269.6470183064718
 20
329.1674298717903
 30
0.0
 11
344.8061482639396
 21
329.1674298717903
 31
0.0
  0
LINE
  5
66B
102
{ACAD_REACTORS
330
EE6
102
}
330
1E
100
AcDbEntity
  8
STEMPEL
100
AcDbLine
 10
278.7323800033259
 20
329.1674298717903
 30
0.0
 11
351.0236626852115
 21
329.1674298717904
 31
0.0
  0
LINE
  5
672
102
{ACAD_REACTORS
330
95D
102
}
330
1E
100
AcDbEntity
  8
STEMPEL
100
AcDbLine
 10
265.0236626852119
 20
341.167429871791
 30
0.0
 11
337.3658054606381
 21
341.1674298717912
 31
0.0
  0
LINE
  5
677
102
{ACAD_REACTORS
330
65D
102
}
330
1E
100
AcDbEntity
  8
STEMPEL
100
AcDbLine
 10
344.8061482639396
 20
327.1674298717905
 30
0.0
 11
287.043746932346
 21
327.1674298717903
 31
0.0
  0
HATCH
  5
678
330
1E
100
AcDbEntity
  8
SCHRAFF
100
AcDbHatch
 10
0.0
 20
0.0
 30
0.0
210
0.0
220
0.0
230
1.0
  2
_USER
 70
     0
 71
     1
 91
        2
 92
        7
 72
     1
 73
     1
 93
       10
 10
193.5236626852134
 20
543.2776923186589
 42
0.1989123673796959
 10
191.6198567629239
 20
547.8738863963716
 42
0.0
 10
186.0358743653605
 20
553.4578687939347
 42
0.0
 10
184.9289047703754
 20
552.4435180453604
 42
0.0
 10
190.5591965911439
 20
546.8132262245916
 42
-0.198912367379722
 10
192.0236626852139
 20
543.2776923186587
 42
0.0
 10
192.0236626852119
 20
312.0375682483612
 42
0.0
 10
192.4553762465264
 20
307.1030596627235
 42
0.0
 10
193.9611060028413
 20
307.1030596627235
 42
0.0
 10
193.5236626852116
 20
312.103059662724
 42
0.0
 97
       10
330
511
330
510
330
586
330
50F
330
512
330
67A
330
6EC
330
694
330
6ED
330
67B
 92
        7
 72
     1
 73
     1
 93
       10
 10
265.023662685214
 20
543.2776923186589
 42
-0.1989123673796056
 10
266.4881287792791
 20
546.8132262245916
 42
0.0
 10
272.1184206000478
 20
552.4435180453606
 42
0.0
 10
271.0114510050626
 20
553.4578687939348
 42
0.0
 10
265.4274686074991
 20
547.8738863963716
 42
0.198912367379613
 10
263.5236626852141
 20
543.2776923186592
 42
0.0
 10
263.5236626852117
 20
312.1030596627293
 42
0.0
 10
263.0862193675813
 20
307.1030596627235
 42
0.0
 10
264.5919491238964
 20
307.1030596627236
 42
0.0
 10
265.0236626852117
 20
312.0375682483703
 42
0.0
 97
       10
330
594
330
593
330
5A1
330
592
330
595
330
67D
330
709
330
694
330
70A
330
67C
 75
     0
 76
     0
 52
135.0
 41
2.0
 77
     0
 78
     1
 53
135.0
 43
0.0
 44
-0.0000000000001137
 45
-1.414213562373095
 46
-1.414213562373094
 79
     0
 47
0.5898668704803056
 98
        2
 10
193.0265653686297
 20
524.3076958255409
 10
264.4540774117118
 20
496.5839525262039
  0
LINE
  5
679
330
1E
100
AcDbEntity
  8
MITTEL
100
AcDbLine
 10
228.5236626852115
 20
689.6017651089972
 30
0.0
 11
228.5236626852115
 21
262.2693746925508
 31
0.0
  0
LINE
  5
67A
102
{ACAD_REACTORS
330
678
102
}
330
1E
100
AcDbEntity
  8
STEMPEL
  6
Continuous
100
AcDbLine
 10
192.0236626852139
 20
543.2776923186589
 30
0.0
 11
192.0236626852119
 21
312.0375682483611
 31
0.0
  0
LINE
  5
67B
102
{ACAD_REACTORS
330
678
102
}
330
1E
100
AcDbEntity
  8
STEMPEL
  6
Continuous
100
AcDbLine
 10
193.5236626852134
 20
543.2776923186589
 30
0.0
 11
193.5236626852116
 21
312.1030596627236
 31
0.0
  0
LINE
  5
67C
102
{ACAD_REACTORS
330
678
102
}
330
1E
100
AcDbEntity
  8
STEMPEL
  6
Continuous
100
AcDbLine
 10
265.023662685214
 20
543.2776923186589
 30
0.0
 11
265.0236626852116
 21
312.0375682483703
 31
0.0
  0
LINE
  5
67D
102
{ACAD_REACTORS
330
678
102
}
330
1E
100
AcDbEntity
  8
STEMPEL
  6
Continuous
100
AcDbLine
 10
263.5236626852141
 20
543.277692318659
 30
0.0
 11
263.5236626852117
 21
312.1030596627297
 31
0.0
  0
DIMENSION
  5
67E
330
1E
100
AcDbEntity
  8
BEM
100
AcDbDimension
  2
*D5
 10
66.03900796850155
 20
567.1017651089962
 30
0.0
 11
59.53900796850145
 21
448.1345974903932
 31
0.0
 70
    32
  1
min.35 - max.230
 71
     5
 42
237.9343352372059
  3
Standard
100
AcDbAlignedDimension
 13
106.0236626852114
 23
329.1674298717904
 33
0.0
 14
106.0236626852115
 24
567.1017651089962
 34
0.0
 50
90.0
100
AcDbRotatedDimension
1001
ACAD
1000
DSTYLE
1002
{
1070
    40
1040
2.0
1070
    41
1040
3.5
1070
    42
1040
1.0
1070
    43
1040
7.0
1070
    44
1040
1.0
1070
    47
1040
2.0
1070
    48
1040
2.0
1070
    73
1070
     0
1070
    74
1070
     0
1070
    77
1070
     1
1070
    78
1070
     8
1070
    79
1070
     2
1070
   140
1040
3.5
1070
   141
1040
1.5
1070
   146
1040
0.5142857142857144
1070
   147
1040
1.5
1070
   172
1070
     1
1070
   178
1070
     1
1070
   179
1070
     1
1070
   271
1070
     1
1070
   272
1070
     1
1070
   279
1070
     0
1002
}
  0
LINE
  5
680
102
{ACAD_REACTORS
330
95D
102
}
330
1E
100
AcDbEntity
  8
STEMPEL
100
AcDbLine
 10
116.5236626852121
 20
335.1674298717903
 30
0.0
 11
133.5236626852119
 21
335.1674298717903
 31
0.0
  0
LINE
  5
681
102
{ACAD_REACTORS
330
65D
330
EE6
102
}
330
1E
100
AcDbEntity
  8
STEMPEL
100
AcDbLine
 10
106.0236626852114
 20
329.1674298717904
 30
0.0
 11
179.6587240233511
 21
329.1674298717904
 31
0.0
  0
DIMENSION
  5
683
330
1E
100
AcDbEntity
  8
BEM
100
AcDbDimension
  2
*D6
 10
66.03900796850149
 20
329.1674298717904
 30
0.0
 11
59.53900796850144
 21
260.6674298717903
 31
0.0
 70
    32
 71
     5
 42
137.0000000000002
  3
Standard
100
AcDbAlignedDimension
 13
166.3981392611245
 23
192.1674298717901
 33
0.0
 14
106.0236626852114
 24
329.1674298717904
 34
0.0
 50
90.0
100
AcDbRotatedDimension
1001
ACAD
1000
DSTYLE
1002
{
1070
    40
1040
2.0
1070
    41
1040
3.5
1070
    42
1040
1.0
1070
    43
1040
7.0
1070
    44
1040
1.0
1070
    47
1040
2.0
1070
    48
1040
2.0
1070
    73
1070
     0
1070
    74
1070
     0
1070
    77
1070
     1
1070
    78
1070
     8
1070
    79
1070
     2
1070
   140
1040
3.5
1070
   141
1040
1.5
1070
   146
1040
0.5142857142857144
1070
   147
1040
1.5
1070
   172
1070
     1
1070
   178
1070
     1
1070
   179
1070
     1
1070
   271
1070
     0
1070
   272
1070
     0
1070
   279
1070
     0
1002
}
  0
ARC
  5
684
102
{ACAD_REACTORS
330
65D
102
}
330
1E
100
AcDbEntity
  8
STEMPEL
100
AcDbCircle
 10
112.2411771064835
 20
323.66742987179
 30
0.0
 40
5.499999999999851
100
AcDbArc
 50
90.0
 51
134.9999999999996
  0
ARC
  5
685
102
{ACAD_REACTORS
330
65D
102
}
330
1E
100
AcDbEntity
  8
STEMPEL
100
AcDbCircle
 10
112.2411771064835
 20
323.66742987179
 30
0.0
 40
3.499999999999851
100
AcDbArc
 50
90.0
 51
134.9999999999996
  0
LINE
  5
686
330
1E
100
AcDbEntity
  8
STEMPEL
100
AcDbLine
 10
153.6546874327409
 20
323.8138764811964
 30
0.0
 11
107.4378762475844
 21
323.8138764811964
 31
0.0
  0
LINE
  5
688
102
{ACAD_REACTORS
330
EE6
102
}
330
1E
100
AcDbEntity
  8
STEMPEL
100
AcDbLine
 10
106.0236626852114
 20
329.1674298717904
 30
0.0
 11
106.0236626852114
 21
332.1674298717904
 31
0.0
  0
LINE
  5
689
102
{ACAD_REACTORS
330
65D
102
}
330
1E
100
AcDbEntity
  8
STEMPEL
100
AcDbLine
 10
107.4378762475844
 20
323.8138764811966
 30
0.0
 11
109.7663033723306
 21
326.1423036059428
 31
0.0
  0
LINE
  5
68A
102
{ACAD_REACTORS
330
65D
102
}
330
1E
100
AcDbEntity
  8
STEMPEL
100
AcDbLine
 10
106.0236626852115
 20
325.2280900435697
 30
0.0
 11
107.4378762475844
 21
323.8138764811964
 31
0.0
  0
LINE
  5
68B
102
{ACAD_REACTORS
330
65D
102
}
330
1E
100
AcDbEntity
  8
STEMPEL
100
AcDbLine
 10
106.0236626852115
 20
325.2280900435697
 30
0.0
 11
108.3520898099573
 21
327.5565171683159
 31
0.0
  0
HATCH
  5
68C
330
1E
100
AcDbEntity
  8
SCHRAFF
100
AcDbHatch
 10
0.0
 20
0.0
 30
0.0
210
0.0
220
0.0
230
1.0
  2
_USER
 70
     0
 71
     0
 91
        2
 92
        7
 72
     1
 73
     1
 93
        5
 10
186.5723747534831
 20
315.5260736084254
 42
0.0
 10
186.0386463453696
 20
315.5260736084255
 42
0.0
 10
184.5559468856554
 20
314.1674298717906
 42
0.0
 10
183.0452812564935
 20
315.8160321151679
 42
0.5672726747274179
 10
187.1819635639573
 20
312.7483873263607
 42
-0.0620596133380966
 97
        0
 92
        7
 72
     1
 73
     1
 93
        5
 10
274.0088829879931
 20
315.8234954365714
 42
0.0
 10
272.4913784847674
 20
314.1674298717906
 42
0.0
 10
271.0086790250532
 20
315.5260736084256
 42
0.0
 10
270.47495061694
 20
315.5260736084254
 42
-0.0618515723663023
 10
269.8685372624206
 20
312.7573762147721
 42
0.5677098725483725
 97
        0
 75
     0
 76
     0
 52
0.0
 41
0.1
 77
     0
 78
     1
 53
0.0
 43
0.0
 44
0.0
 45
0.0
 46
0.1
 79
     0
 47
0.1467252792755902
 98
        2
 10
185.7988868062234
 20
313.2264636157848
 10
271.4039869280377
 20
313.3731888950602
  0
LINE
  5
68D
330
1E
100
AcDbEntity
  8
TEXT
 62
     2
100
AcDbLine
 10
194.6783428402075
 20
304.2726629639625
 30
0.0
 11
262.3689825302156
 21
304.2726629639625
 31
0.0
  0
HATCH
  5
68E
330
1E
100
AcDbEntity
  8
SCHRAFF
100
AcDbHatch
 10
0.0
 20
0.0
 30
0.0
210
0.0
220
0.0
230
1.0
  2
_USER
 70
     0
 71
     0
 91
        2
 92
        7
 72
     1
 73
     1
 93
       14
 10
193.5236626852113
 20
301.2962439452834
 42
0.1316524975874043
 10
191.9829548287325
 20
307.0462439452838
 42
0.0
 10
189.3634086473669
 20
311.583431024182
 42
-0.1316524975873951
 10
188.0236626852113
 20
316.583431024182
 42
0.0
 10
188.0236626852113
 20
322.6185074646718
 42
-0.1174534402570155
 10
190.5363403089807
 20
333.1674298717904
 42
0.0
 10
188.8686136706651
 20
333.1674298717904
 42
0.1098063296705094
 10
186.5236626852113
 20
322.6185074646716
 42
0.0
 10
186.5236626852113
 20
316.583431024182
 42
0.1316524975873904
 10
188.0643705416903
 20
310.8334310241823
 42
0.0
 10
190.6839167230559
 20
306.2962439452834
 42
-0.1316524975873914
 10
192.0236626852113
 20
301.2962439452835
 42
0.0
 10
192.0236626852113
 20
227.6321680074575
 42
0.0
 10
193.5236626852113
 20
229.0556148575299
 42
0.0
 97
        0
 92
        7
 72
     1
 73
     1
 93
       14
 10
268.1787116997579
 20
333.1674298717904
 42
0.0
 10
266.5109850614424
 20
333.1674298717904
 42
-0.1174534402570096
 10
269.0236626852116
 20
322.6185074646723
 42
0.0
 10
269.0236626852118
 20
316.583431024182
 42
-0.1316524975873954
 10
267.6839167230562
 20
311.583431024182
 42
0.0
 10
265.0643705416903
 20
307.0462439452837
 42
0.1316524975873947
 10
263.5236626852115
 20
301.2962439452837
 42
0.0
 10
263.5236626852115
 20
295.4831345275715
 42
0.0
 10
265.0236626852113
 20
296.9065813776435
 42
0.0
 10
265.0236626852113
 20
301.2962439452834
 42
-0.1316524975873911
 10
266.3634086473669
 20
306.2962439452833
 42
0.0
 10
268.9829548287328
 20
310.8334310241823
 42
0.1316524975873896
 10
270.5236626852116
 20
316.583431024182
 42
0.0
 10
270.5236626852116
 20
322.6185074646718
 42
0.1098063296705072
 97
        0
 75
     0
 76
     0
 52
135.0
 41
2.0
 77
     0
 78
     1
 53
135.0
 43
-118.6874292927634
 44
-38.64510158915812
 45
-1.414213562373095
 46
-1.414213562373094
 79
     0
 47
0.2171429602251947
 98
        2
 10
192.5846427374511
 20
298.5259911994664
 10
269.5109992799578
 20
323.2802880088497
  0
HATCH
  5
68F
330
1E
100
AcDbEntity
  8
SCHRAFF
100
AcDbHatch
 10
0.0
 20
0.0
 30
0.0
210
0.0
220
0.0
230
1.0
  2
ANSI37
 70
     0
 71
     0
 91
        2
 92
        7
 72
     1
 73
     1
 93
       11
 10
192.0236626852121
 20
332.1674298717908
 42
0.0
 10
190.6114089227957
 20
337.3410780494574
 42
0.7040385315423207
 10
188.7554894524343
 20
337.6585147686228
 42
0.0
 10
186.2236626852116
 20
333.1674298717905
 42
0.0
 10
190.5363403089808
 20
333.1674298717904
 42
0.1174534402570157
 10
188.0236626852115
 20
322.6185074646718
 42
0.0
 10
188.0236626852114
 20
319.0938987483235
 42
0.0
 10
188.3479968810425
 20
319.6948698243892
 42
-0.746481108894411
 10
190.0370127433097
 20
319.3408992595455
 42
0.075813045109401
 10
190.3155634416638
 20
318.1674298717904
 42
0.1672335555029111
 10
192.0236626852119
 20
316.2033282566524
 42
0.0
 97
        0
 92
        7
 72
     1
 73
     1
 93
       11
 10
266.5109850614424
 20
333.1674298717904
 42
0.0
 10
270.8236626852116
 20
333.1674298717904
 42
0.0
 10
268.291835917989
 20
337.6585147686228
 42
0.7040385315424445
 10
266.4359164476274
 20
337.3410780494574
 42
0.0
 10
265.0236626852119
 20
332.1674298717898
 42
0.0
 10
265.0236626852117
 20
316.2033282566528
 42
0.1672335555028753
 10
266.7317619287594
 20
318.1674298717904
 42
0.0758130451094022
 10
267.0103126271136
 20
319.3408992595455
 42
-0.746481108894327
 10
268.6993284893806
 20
319.6948698243892
 42
0.0
 10
269.0236626852118
 20
319.0938987483232
 42
0.0
 10
269.0236626852117
 20
322.6185074646718
 42
0.1174534402570158
 97
        0
 75
     0
 76
     1
 52
0.0
 41
15.0
 77
     0
 78
     2
 53
45.0
 43
0.0000000000000568
 44
1.260848494146671
 45
-1.325825214724776
 46
1.325825214724776
 79
     0
 53
135.0
 43
0.0000000000000568
 44
1.260848494146671
 45
-1.325825214724776
 46
-1.325825214724776
 79
     0
 47
0.1360344942823256
 98
        2
 10
190.5177218846475
 20
325.5706387742208
 10
266.0697483506916
 20
327.3390878540323
  0
LINE
  5
690
102
{ACAD_REACTORS
330
99E
102
}
330
1E
100
AcDbEntity
  8
STEMPEL
100
AcDbLine
 10
265.0236626852116
 20
296.9065813776436
 30
0.0
 11
192.0236626852114
 21
227.6321680074576
 31
0.0
  0
HATCH
  5
691
330
1E
100
AcDbEntity
  8
BEM
100
AcDbHatch
 10
0.0
 20
0.0
 30
0.0
210
0.0
220
0.0
230
1.0
  2
_USER
 70
     0
 71
     0
 91
        2
 92
        7
 72
     1
 73
     1
 93
        3
 10
265.0236626852115
 20
299.9065813776436
 42
0.0
 10
265.0236626852115
 20
296.9065813776436
 42
0.0
 10
268.0195512894753
 20
296.749573508915
 42
0.4296339059668427
 97
        0
 92
        7
 72
     1
 73
     1
 93
        3
 10
195.9319345199864
 20
227.4273441597626
 42
0.0
 10
192.0236626852114
 20
227.6321680074574
 42
0.0
 10
192.0236626852114
 20
231.5458033434437
 42
1.39845799594815
 97
        0
 75
     0
 76
     0
 52
0.0
 41
0.1
 77
     0
 78
     1
 53
0.0
 43
0.0
 44
0.0
 45
0.0
 46
0.1
 79
     0
 47
0.2198132944329655
 98
        2
 10
266.2248357874168
 20
298.3509256466008
 10
192.9787811282884
 20
226.6917885229688
  0
LINE
  5
692
330
1E
100
AcDbEntity
  8
HILF
100
AcDbLine
 10
262.0179329288961
 20
312.1030596627236
 30
0.0
 11
195.0293924415267
 21
312.1030596627236
 31
0.0
  0
LINE
  5
693
330
1E
100
AcDbEntity
  8
STEMPEL
100
AcDbLine
 10
264.4987614847822
 20
307.1017651089961
 30
0.0
 11
192.5485638856406
 21
307.1017651089961
 31
0.0
  0
LINE
  5
694
102
{ACAD_REACTORS
330
678
102
}
330
1E
100
AcDbEntity
  8
STEMPEL
100
AcDbLine
 10
264.5919491238964
 20
307.1030596627235
 30
0.0
 11
192.4553762465265
 21
307.1030596627235
 31
0.0
  0
LINE
  5
695
102
{ACAD_REACTORS
330
657
102
}
330
1E
100
AcDbEntity
  8
STEMPEL
100
AcDbLine
 10
189.0236626852113
 20
298.3120908124643
 30
0.0
 11
189.0236626852112
 21
276.3559501262053
 31
0.0
  0
LINE
  5
696
102
{ACAD_REACTORS
330
657
102
}
330
1E
100
AcDbEntity
  8
STEMPEL
100
AcDbLine
 10
153.5236626852113
 20
325.1674298717899
 30
0.0
 11
166.3981392611245
 21
192.1674298717901
 31
0.0
  0
LINE
  5
697
330
1E
100
AcDbEntity
  8
STEMPEL
100
AcDbLine
 10
192.0236626852113
 20
301.2962439452834
 30
0.0
 11
192.0236626852113
 21
227.6321680074575
 31
0.0
  0
LINE
  5
698
330
1E
100
AcDbEntity
  8
STEMPEL
100
AcDbLine
 10
193.5236626852113
 20
301.2962439452834
 30
0.0
 11
193.5236626852113
 21
229.05561485753
 31
0.0
  0
LINE
  5
699
102
{ACAD_REACTORS
330
657
102
}
330
1E
100
AcDbEntity
  8
STEMPEL
100
AcDbLine
 10
179.0236626852104
 20
256.8525809990774
 30
0.0
 11
192.0236626852113
 21
256.1712798683981
 31
0.0
  0
LINE
  5
69A
102
{ACAD_REACTORS
330
657
102
}
330
1E
100
AcDbEntity
  8
STEMPEL
100
AcDbLine
 10
179.0236626852113
 20
276.8800279190357
 30
0.0
 11
192.0236626852113
 21
276.1987267883561
 31
0.0
  0
LINE
  5
69B
102
{ACAD_REACTORS
330
657
102
}
330
1E
100
AcDbEntity
  8
STEMPEL
100
AcDbLine
 10
179.0236626852113
 20
276.8800279190357
 30
0.0
 11
179.0236626852104
 21
256.8525809990774
 31
0.0
  0
LINE
  5
69C
102
{ACAD_REACTORS
330
657
102
}
330
1E
100
AcDbEntity
  8
STEMPEL
100
AcDbLine
 10
189.0236626852111
 20
256.3285032062467
 30
0.0
 11
189.0236626852111
 21
224.6833294865519
 31
0.0
  0
ARC
  5
69D
330
1E
100
AcDbEntity
  8
SCHRAFF
100
AcDbCircle
 10
193.2741756274332
 20
228.8188604798444
 30
0.0
 40
3.0
100
AcDbArc
 50
114.6350953132649
 51
332.3649046867312
  0
LINE
  5
69E
102
{ACAD_REACTORS
330
657
102
}
330
1E
100
AcDbEntity
  8
STEMPEL
100
AcDbLine
 10
153.5236626852113
 20
325.1674298717899
 30
0.0
 11
174.4763039714629
 21
325.16742987179
 31
0.0
  0
LINE
  5
6A0
102
{ACAD_REACTORS
330
95D
102
}
330
1E
100
AcDbEntity
  8
STEMPEL
100
AcDbLine
 10
143.523662685212
 20
335.1674298717903
 30
0.0
 11
187.351152735114
 21
335.1674298717904
 31
0.0
  0
LINE
  5
6A2
102
{ACAD_REACTORS
330
95D
102
}
330
1E
100
AcDbEntity
  8
STEMPEL
100
AcDbLine
 10
116.5236626852113
 20
341.167429871791
 30
0.0
 11
192.0236626852121
 21
341.167429871791
 31
0.0
  0
LINE
  5
6A3
102
{ACAD_REACTORS
330
65D
102
}
330
1E
100
AcDbEntity
  8
STEMPEL
100
AcDbLine
 10
112.2411771064835
 20
327.1674298717905
 30
0.0
 11
170.0035784380769
 21
327.1674298717901
 31
0.0
  0
LINE
  5
6A4
102
{ACAD_REACTORS
330
EE6
102
}
330
1E
100
AcDbEntity
  8
STEMPEL
100
AcDbLine
 10
112.2411771064835
 20
329.1674298717904
 30
0.0
 11
187.4003070639511
 21
329.1674298717905
 31
0.0
  0
LINE
  5
6A5
330
1E
100
AcDbEntity
  8
MITTEL
100
AcDbLine
 10
138.5236626852115
 20
361.6674298717909
 30
0.0
 11
138.5236626852113
 21
345.6674298717904
 31
0.0
  0
LINE
  5
6A6
330
1E
100
AcDbEntity
  8
MITTEL
100
AcDbLine
 10
131.7345551696812
 20
360.1674298717914
 30
0.0
 11
131.7345551696812
 21
346.3505193110388
 31
0.0
  0
LINE
  5
6A7
330
1E
100
AcDbEntity
  8
STEMPEL
100
AcDbLine
 10
120.7131092293439
 20
355.1674298717922
 30
0.0
 11
120.5544904805526
 21
346.0801678396062
 31
0.0
  0
LINE
  5
6A8
330
1E
100
AcDbEntity
  8
STEMPEL
100
AcDbLine
 10
133.5572744857975
 20
355.1674298717914
 30
0.0
 11
133.5572744857975
 21
353.2010416723762
 31
0.0
  0
LINE
  5
6A9
330
1E
100
AcDbEntity
  8
STEMPEL
100
AcDbLine
 10
142.9438531612506
 20
355.1674298717905
 30
0.0
 11
142.9690830678786
 21
353.7220094891236
 31
0.0
  0
ARC
  5
6B2
102
{ACAD_REACTORS
330
95D
102
}
330
1E
100
AcDbEntity
  8
STEMPEL
100
AcDbCircle
 10
116.5236626852121
 20
338.1674298717903
 30
0.0
 40
3.000000000000682
100
AcDbArc
 50
90.00000000001303
 51
269.999999999987
  0
LWPOLYLINE
  5
6B3
330
1E
100
AcDbEntity
  8
STEMPEL
100
AcDbPolyline
 90
       10
 70
   128
 43
0.0
 10
118.9199203618832
 20
341.167429871791
 10
119.2037604842589
 20
341.2420654003843
 10
119.4789762681464
 20
341.4637042233954
 10
119.737205421218
 20
341.8256119573417
 10
119.9706017813278
 20
342.3167922188614
 10
120.1720737181783
 20
342.9223207442575
 10
120.3354996089178
 20
343.6237988556979
 10
120.4559138405541
 20
344.3999124957317
 10
120.529657687591
 20
345.2270798441388
 10
120.5544904805526
 20
346.0801678396048
  0
LINE
  5
6B4
330
1E
100
AcDbEntity
  8
STEMPEL
100
AcDbLine
 10
133.5236626852119
 20
341.167429871791
 30
0.0
 11
133.523662685212
 21
329.1674298717904
 31
0.0
  0
LINE
  5
6B5
330
1E
100
AcDbEntity
  8
HILF
100
AcDbLine
 10
134.523662685212
 20
341.1674298717909
 30
0.0
 11
134.523662685212
 21
329.1674298717904
 31
0.0
  0
LINE
  5
6B6
102
{ACAD_REACTORS
330
95D
102
}
330
1E
100
AcDbEntity
  8
STEMPEL
100
AcDbLine
 10
131.5236626852113
 20
341.1674298717914
 30
0.0
 11
131.5236626852111
 21
335.1674298717894
 31
0.0
  0
LINE
  5
6B8
102
{ACAD_REACTORS
330
EE6
102
}
330
1E
100
AcDbEntity
  8
STEMPEL
100
AcDbLine
 10
132.0236626852114
 20
329.1674298717903
 30
0.0
 11
132.0236626852114
 21
332.1674298717904
 31
0.0
  0
LINE
  5
6C4
330
1E
100
AcDbEntity
  8
HILF
100
AcDbLine
 10
142.523662685212
 20
341.1674298717909
 30
0.0
 11
142.523662685212
 21
329.1674298717903
 31
0.0
  0
LINE
  5
6C5
330
1E
100
AcDbEntity
  8
STEMPEL
100
AcDbLine
 10
143.523662685212
 20
341.167429871791
 30
0.0
 11
143.523662685212
 21
329.1674298717903
 31
0.0
  0
LINE
  5
6C6
102
{ACAD_REACTORS
330
65D
102
}
330
1E
100
AcDbEntity
  8
MITTEL
100
AcDbLine
 10
138.5236626852114
 20
328.1674298717903
 30
0.0
 11
138.5236626852114
 21
340.1674298717904
 31
0.0
  0
LINE
  5
6C7
102
{ACAD_REACTORS
330
95D
102
}
330
1E
100
AcDbEntity
  8
STEMPEL
100
AcDbLine
 10
145.5236626852111
 20
341.1674298717914
 30
0.0
 11
145.5236626852111
 21
335.1674298717896
 31
0.0
  0
LINE
  5
6C8
102
{ACAD_REACTORS
330
65D
102
}
330
1E
100
AcDbEntity
  8
MITTEL
100
AcDbLine
 10
138.5236626852114
 20
327.1674298717903
 30
0.0
 11
138.5236626852114
 21
336.1674298717904
 31
0.0
  0
LINE
  5
6CA
102
{ACAD_REACTORS
330
EE6
102
}
330
1E
100
AcDbEntity
  8
STEMPEL
100
AcDbLine
 10
145.0236626852114
 20
329.1674298717903
 30
0.0
 11
145.0236626852114
 21
332.1674298717904
 31
0.0
  0
LINE
  5
6D2
330
1E
100
AcDbEntity
  8
STEMPEL
100
AcDbLine
 10
120.7131092293439
 20
355.1674298717922
 30
0.0
 11
142.9438531612506
 21
355.1674298717905
 31
0.0
  0
LINE
  5
6D3
102
{ACAD_REACTORS
330
657
102
}
330
1E
100
AcDbEntity
  8
STEMPEL
100
AcDbLine
 10
170.4525948733458
 20
325.1674298717899
 30
0.0
 11
183.1657983089412
 21
312.454226436196
 31
0.0
  0
LINE
  5
6D4
102
{ACAD_REACTORS
330
65D
102
}
330
1E
100
AcDbEntity
  8
STEMPEL
100
AcDbLine
 10
175.9017971325574
 20
326.5721515327161
 30
0.0
 11
186.0305015592756
 21
315.5186102870218
 31
0.0
  0
LINE
  5
6D5
102
{ACAD_REACTORS
330
65D
102
}
330
1E
100
AcDbEntity
  8
STEMPEL
100
AcDbLine
 10
174.4272424589373
 20
325.2209711174846
 30
0.0
 11
184.5559468856554
 21
314.1674298717906
 31
0.0
  0
ARC
  5
6D6
102
{ACAD_REACTORS
330
95D
102
}
330
1E
100
AcDbEntity
  8
STEMPEL
100
AcDbCircle
 10
163.0236626852116
 20
338.1674298717908
 30
0.0
 40
3.000000000000397
100
AcDbArc
 50
270.0000000000065
 51
89.99999999999349
  0
LINE
  5
6D8
102
{ACAD_REACTORS
330
EE6
102
}
330
1E
100
AcDbEntity
  8
STEMPEL
100
AcDbLine
 10
166.0236626852114
 20
329.1674298717904
 30
0.0
 11
166.0236626852114
 21
332.1674298717905
 31
0.0
  0
ARC
  5
6D9
102
{ACAD_REACTORS
330
65D
102
}
330
1E
100
AcDbEntity
  8
STEMPEL
100
AcDbCircle
 10
170.0035784380768
 20
321.1674298717904
 30
0.0
 40
8.0
100
AcDbArc
 50
42.50000000000698
 51
90.0
  0
ARC
  5
6DA
102
{ACAD_REACTORS
330
65D
102
}
330
1E
100
AcDbEntity
  8
STEMPEL
100
AcDbCircle
 10
170.0035784380768
 20
321.1674298717904
 30
0.0
 40
6.0
100
AcDbArc
 50
42.50000000000698
 51
90.0
  0
LINE
  5
6DB
330
1E
100
AcDbEntity
  8
STEMPEL
100
AcDbLine
 10
186.5236626852113
 20
322.6185074646718
 30
0.0
 11
186.5236626852113
 21
316.583431024182
 31
0.0
  0
LINE
  5
6DC
330
1E
100
AcDbEntity
  8
STEMPEL
100
AcDbLine
 10
188.0236626852113
 20
322.6185074646718
 30
0.0
 11
188.0236626852113
 21
316.583431024182
 31
0.0
  0
ARC
  5
6DD
330
1E
100
AcDbEntity
  8
STEMPEL
100
AcDbCircle
 10
182.0236626852115
 20
301.2962439452834
 30
0.0
 40
11.5
100
AcDbArc
 50
0.0
 51
30.00000000000003
  0
ARC
  5
6DE
102
{ACAD_REACTORS
330
657
102
}
330
1E
100
AcDbEntity
  8
STEMPEL
100
AcDbCircle
 10
169.0236626852113
 20
298.3120908124643
 30
0.0
 40
20.0
100
AcDbArc
 50
0.0
 51
45.00000000000064
  0
ARC
  5
6DF
330
1E
100
AcDbEntity
  8
STEMPEL
100
AcDbCircle
 10
182.0236626852115
 20
301.2962439452834
 30
0.0
 40
10.0
100
AcDbArc
 50
0.0
 51
30.00000000000003
  0
ARC
  5
6E0
330
1E
100
AcDbEntity
  8
STEMPEL
100
AcDbCircle
 10
198.0236626852113
 20
316.583431024182
 30
0.0
 40
11.5
100
AcDbArc
 50
180.0
 51
210.0
  0
ARC
  5
6E1
330
1E
100
AcDbEntity
  8
SCHRAFF
100
AcDbCircle
 10
186.0305015592756
 20
315.5186102870218
 30
0.0
 40
3.0
100
AcDbArc
 50
174.3103148957775
 51
292.5705454002759
  0
LINE
  5
6E2
330
1E
100
AcDbEntity
  8
STEMPEL
100
AcDbLine
 10
186.0236626852118
 20
315.5260736084255
 30
0.0
 11
186.5236626852113
 21
315.5260736084254
 31
0.0
  0
LINE
  5
6E3
102
{ACAD_REACTORS
330
65D
102
}
330
1E
100
AcDbEntity
  8
STEMPEL
100
AcDbLine
 10
184.5559468856554
 20
314.1674298717906
 30
0.0
 11
186.0305015592756
 21
315.5186102870218
 31
0.0
  0
ARC
  5
6E4
330
1E
100
AcDbEntity
  8
STEMPEL
100
AcDbCircle
 10
198.0236626852113
 20
316.583431024182
 30
0.0
 40
10.0
100
AcDbArc
 50
180.0
 51
210.0
  0
LINE
  5
6E5
330
1E
100
AcDbEntity
  8
STEMPEL
100
AcDbLine
 10
191.9829548287325
 20
307.0462439452837
 30
0.0
 11
189.3634086473669
 21
311.583431024182
 31
0.0
  0
LINE
  5
6E6
330
1E
100
AcDbEntity
  8
STEMPEL
100
AcDbLine
 10
190.6839167230559
 20
306.2962439452834
 30
0.0
 11
188.0643705416903
 21
310.8334310241823
 31
0.0
  0
ARC
  5
6E7
330
1E
100
AcDbEntity
  8
STEMPEL
100
AcDbCircle
 10
194.0236626852116
 20
319.6674298717904
 30
0.0
 40
4.0
100
AcDbArc
 50
184.6824168622686
 51
202.0243128370422
  0
LINE
  5
6E8
330
1E
100
AcDbEntity
  8
STEMPEL
100
AcDbLine
 10
188.0236626852114
 20
319.0938987483235
 30
0.0
 11
188.3479968810425
 21
319.6948698243892
 31
0.0
  0
ARC
  5
6E9
330
1E
100
AcDbEntity
  8
STEMPEL
100
AcDbCircle
 10
189.1400165063817
 20
319.2674298717904
 30
0.0
 40
0.9
100
AcDbArc
 50
4.682416862268575
 51
151.6449939715936
  0
LINE
  5
6EA
330
1E
100
AcDbEntity
  8
STEMPEL
100
AcDbLine
 10
188.0236626852115
 20
318.1674298717904
 30
0.0
 11
190.3155634416638
 21
318.1674298717904
 31
0.0
  0
ARC
  5
6EB
330
1E
100
AcDbEntity
  8
STEMPEL
100
AcDbCircle
 10
194.0236626852116
 20
319.6674298717904
 30
0.0
 40
4.0
100
AcDbArc
 50
202.0243128370422
 51
240.0000000000098
  0
LINE
  5
6EC
102
{ACAD_REACTORS
330
678
102
}
330
1E
100
AcDbEntity
  8
STEMPEL
100
AcDbLine
 10
192.0236626852119
 20
312.0375682483611
 30
0.0
 11
192.4553762465265
 21
307.1030596627235
 31
0.0
  0
LINE
  5
6ED
102
{ACAD_REACTORS
330
678
102
}
330
1E
100
AcDbEntity
  8
STEMPEL
100
AcDbLine
 10
193.5236626852116
 20
312.1030596627236
 30
0.0
 11
193.9611060028413
 21
307.1030596627235
 31
0.0
  0
ARC
  5
6EE
330
1E
100
AcDbEntity
  8
STEMPEL
100
AcDbCircle
 10
189.6266011697835
 20
337.1674298717904
 30
0.0
 40
1.0
100
AcDbArc
 50
9.999999999998536
 51
150.5880863344675
  0
ARC
  5
6EF
330
1E
100
AcDbEntity
  8
STEMPEL
100
AcDbCircle
 10
211.4236626852114
 20
322.6185074646718
 30
0.0
 40
24.9
100
AcDbArc
 50
154.934662284811
 51
180.0
  0
LINE
  5
6F0
330
1E
100
AcDbEntity
  8
STEMPEL
100
AcDbLine
 10
190.5363403089808
 20
333.1674298717904
 30
0.0
 11
186.2236626852116
 21
333.1674298717904
 31
0.0
  0
LINE
  5
6F1
330
1E
100
AcDbEntity
  8
STEMPEL
100
AcDbLine
 10
186.2236626852116
 20
333.1674298717904
 30
0.0
 11
188.7554894524343
 21
337.6585147686228
 31
0.0
  0
ARC
  5
6F2
330
1E
100
AcDbEntity
  8
STEMPEL
100
AcDbCircle
 10
211.4236626852114
 20
322.6185074646718
 30
0.0
 40
23.4
100
AcDbArc
 50
153.2044220687671
 51
180.0
  0
LINE
  5
6F3
330
1E
100
AcDbEntity
  8
STEMPEL
100
AcDbLine
 10
192.0236626852122
 20
332.1674298717904
 30
0.0
 11
190.6114089227957
 21
337.3410780494574
 31
0.0
  0
LINE
  5
6F4
330
1E
100
AcDbEntity
  8
STEMPEL
100
AcDbLine
 10
189.6266011697835
 20
338.1674298717904
 30
0.0
 11
192.0236626852123
 21
338.1674298717905
 31
0.0
  0
LINE
  5
6F5
102
{ACAD_REACTORS
330
657
330
99E
102
}
330
1E
100
AcDbEntity
  8
BEM
100
AcDbLine
 10
228.5236626852115
 20
262.2693746925506
 30
0.0
 11
228.5236626852115
 21
173.6840848026212
 31
0.0
  0
ARC
  5
6F6
102
{ACAD_REACTORS
330
657
102
}
330
1E
100
AcDbEntity
  8
STEMPEL
100
AcDbCircle
 10
274.5087402090474
 20
307.4245853342682
 30
0.0
 40
4.0
100
AcDbArc
 50
134.9999999999996
 51
267.0000000000013
  0
LINE
  5
6F7
102
{ACAD_REACTORS
330
657
102
}
330
1E
100
AcDbEntity
  8
STEMPEL
100
AcDbLine
 10
286.5947304970766
 20
325.1674298717899
 30
0.0
 11
271.6803130843007
 21
310.2530124590148
 31
0.0
  0
LINE
  5
6F8
102
{ACAD_REACTORS
330
65D
102
}
330
1E
100
AcDbEntity
  8
STEMPEL
100
AcDbLine
 10
282.6200829114855
 20
325.2209711174846
 30
0.0
 11
272.4913784847674
 21
314.1674298717906
 31
0.0
  0
LINE
  5
6F9
102
{ACAD_REACTORS
330
65D
102
}
330
1E
100
AcDbEntity
  8
STEMPEL
100
AcDbLine
 10
281.1455282378654
 20
326.5721515327161
 30
0.0
 11
271.0168238111471
 21
315.5186102870218
 31
0.0
  0
ARC
  5
6FA
330
1E
100
AcDbEntity
  8
SCHRAFF
100
AcDbCircle
 10
271.0236626852111
 20
315.5260736084255
 30
0.0
 40
3.0
100
AcDbArc
 50
247.3536642463042
 51
5.689685104215999
  0
LINE
  5
6FB
330
1E
100
AcDbEntity
  8
STEMPEL
100
AcDbLine
 10
270.5236626852116
 20
322.6185074646718
 30
0.0
 11
270.5236626852116
 21
316.583431024182
 31
0.0
  0
LINE
  5
6FC
330
1E
100
AcDbEntity
  8
STEMPEL
100
AcDbLine
 10
269.0236626852116
 20
322.6185074646718
 30
0.0
 11
269.0236626852118
 21
316.583431024182
 31
0.0
  0
ARC
  5
6FD
330
1E
100
AcDbEntity
  8
STEMPEL
100
AcDbCircle
 10
275.0236626852113
 20
301.2962439452834
 30
0.0
 40
11.5
100
AcDbArc
 50
149.9999999999999
 51
180.0
  0
ARC
  5
6FE
330
1E
100
AcDbEntity
  8
STEMPEL
100
AcDbCircle
 10
275.0236626852113
 20
301.2962439452834
 30
0.0
 40
10.0
100
AcDbArc
 50
149.9999999999999
 51
180.0
  0
ARC
  5
6FF
330
1E
100
AcDbEntity
  8
SCHRAFF
100
AcDbCircle
 10
265.0236626852116
 20
296.9065813776436
 30
0.0
 40
3.0
100
AcDbArc
 50
357.0000000000009
 51
90.0
  0
LINE
  5
700
330
1E
100
AcDbEntity
  8
STEMPEL
100
AcDbLine
 10
263.5236626852115
 20
301.2962439452837
 30
0.0
 11
263.5236626852115
 21
295.4831345275715
 31
0.0
  0
LINE
  5
701
330
1E
100
AcDbEntity
  8
STEMPEL
100
AcDbLine
 10
265.0236626852113
 20
301.2962439452834
 30
0.0
 11
265.0236626852113
 21
296.9065813776436
 31
0.0
  0
LINE
  5
702
330
1E
100
AcDbEntity
  8
STEMPEL
100
AcDbLine
 10
266.3634086473669
 20
306.2962439452834
 30
0.0
 11
268.9829548287328
 21
310.8334310241823
 31
0.0
  0
ARC
  5
703
330
1E
100
AcDbEntity
  8
STEMPEL
100
AcDbCircle
 10
259.0236626852118
 20
316.583431024182
 30
0.0
 40
10.0
100
AcDbArc
 50
330.0
 51
0.0
  0
ARC
  5
704
330
1E
100
AcDbEntity
  8
STEMPEL
100
AcDbCircle
 10
267.9073088640416
 20
319.2674298717904
 30
0.0
 40
0.9
100
AcDbArc
 50
28.35500602840642
 51
175.3175831377314
  0
LINE
  5
705
330
1E
100
AcDbEntity
  8
STEMPEL
100
AcDbLine
 10
269.0236626852118
 20
318.1674298717904
 30
0.0
 11
266.7317619287595
 21
318.1674298717904
 31
0.0
  0
LINE
  5
706
330
1E
100
AcDbEntity
  8
STEMPEL
100
AcDbLine
 10
265.0643705416903
 20
307.0462439452837
 30
0.0
 11
267.6839167230562
 21
311.583431024182
 31
0.0
  0
ARC
  5
707
330
1E
100
AcDbEntity
  8
STEMPEL
100
AcDbCircle
 10
263.0236626852116
 20
319.6674298717904
 30
0.0
 40
4.0
100
AcDbArc
 50
337.9756871629578
 51
355.3175831377314
  0
ARC
  5
708
330
1E
100
AcDbEntity
  8
STEMPEL
100
AcDbCircle
 10
263.0236626852116
 20
319.6674298717904
 30
0.0
 40
4.0
100
AcDbArc
 50
300.000000000004
 51
337.9756871629578
  0
LINE
  5
709
102
{ACAD_REACTORS
330
678
102
}
330
1E
100
AcDbEntity
  8
STEMPEL
100
AcDbLine
 10
263.5236626852117
 20
312.1030596627297
 30
0.0
 11
263.0862193675813
 21
307.1030596627235
 31
0.0
  0
LINE
  5
70A
102
{ACAD_REACTORS
330
678
102
}
330
1E
100
AcDbEntity
  8
STEMPEL
100
AcDbLine
 10
265.0236626852116
 20
312.0375682483703
 30
0.0
 11
264.5919491238964
 21
307.1030596627235
 31
0.0
  0
LINE
  5
70B
102
{ACAD_REACTORS
330
65D
102
}
330
1E
100
AcDbEntity
  8
STEMPEL
100
AcDbLine
 10
272.4913784847674
 20
314.1674298717906
 30
0.0
 11
271.0168238111471
 21
315.5186102870218
 31
0.0
  0
LINE
  5
70C
330
1E
100
AcDbEntity
  8
STEMPEL
100
AcDbLine
 10
270.4749506169398
 20
315.5260736084254
 30
0.0
 11
271.0236626852111
 21
315.5260736084255
 31
0.0
  0
ARC
  5
70D
330
1E
100
AcDbEntity
  8
STEMPEL
100
AcDbCircle
 10
259.0236626852118
 20
316.583431024182
 30
0.0
 40
11.5
100
AcDbArc
 50
330.0
 51
0.0
  0
LINE
  5
70E
330
1E
100
AcDbEntity
  8
STEMPEL
100
AcDbLine
 10
269.0236626852118
 20
319.0938987483233
 30
0.0
 11
268.6993284893806
 21
319.6948698243892
 31
0.0
  0
ARC
  5
70F
330
1E
100
AcDbEntity
  8
STEMPEL
100
AcDbCircle
 10
267.4207242006397
 20
337.1674298717904
 30
0.0
 40
1.0
100
AcDbArc
 50
29.41191366553254
 51
170.0000000000014
  0
ARC
  5
710
330
1E
100
AcDbEntity
  8
STEMPEL
100
AcDbCircle
 10
245.6236626852115
 20
322.6185074646718
 30
0.0
 40
23.4
100
AcDbArc
 50
0.0
 51
26.79557793123291
  0
LINE
  5
711
330
1E
100
AcDbEntity
  8
STEMPEL
100
AcDbLine
 10
270.8236626852117
 20
333.1674298717904
 30
0.0
 11
266.5109850614424
 21
333.1674298717904
 31
0.0
  0
LINE
  5
712
330
1E
100
AcDbEntity
  8
STEMPEL
100
AcDbLine
 10
265.023662685212
 20
332.1674298717904
 30
0.0
 11
266.4359164476274
 21
337.3410780494574
 31
0.0
  0
ARC
  5
713
330
1E
100
AcDbEntity
  8
STEMPEL
100
AcDbCircle
 10
245.6236626852115
 20
322.6185074646718
 30
0.0
 40
24.9
100
AcDbArc
 50
0.0
 51
25.065337715189
  0
LINE
  5
714
330
1E
100
AcDbEntity
  8
STEMPEL
100
AcDbLine
 10
270.8236626852117
 20
333.1674298717904
 30
0.0
 11
268.291835917989
 21
337.6585147686228
 31
0.0
  0
LINE
  5
715
330
1E
100
AcDbEntity
  8
STEMPEL
100
AcDbLine
 10
265.0236626852122
 20
338.1674298717904
 30
0.0
 11
267.4207242006397
 21
338.1674298717904
 31
0.0
  0
ARC
  5
716
102
{ACAD_REACTORS
330
65D
102
}
330
1E
100
AcDbEntity
  8
STEMPEL
100
AcDbCircle
 10
287.043746932346
 20
321.1674298717904
 30
0.0
 40
8.0
100
AcDbArc
 50
90.0
 51
137.4999999999929
  0
ARC
  5
717
102
{ACAD_REACTORS
330
65D
102
}
330
1E
100
AcDbEntity
  8
STEMPEL
100
AcDbCircle
 10
287.043746932346
 20
321.1674298717904
 30
0.0
 40
6.0
100
AcDbArc
 50
90.0
 51
137.4999999999929
  0
ARC
  5
718
102
{ACAD_REACTORS
330
95D
102
}
330
1E
100
AcDbEntity
  8
STEMPEL
100
AcDbCircle
 10
294.0236626852121
 20
338.1674298717909
 30
0.0
 40
3.0
100
AcDbArc
 50
90.0
 51
270.0
  0
LINE
  5
71A
102
{ACAD_REACTORS
330
EE6
102
}
330
1E
100
AcDbEntity
  8
STEMPEL
100
AcDbLine
 10
291.0236626852115
 20
329.1674298717904
 30
0.0
 11
291.0236626852115
 21
332.1674298717904
 31
0.0
  0
TEXT
  5
724
330
1E
100
AcDbEntity
  8
TEXT
 62
     1
100
AcDbText
 10
225.7800158308219
 20
448.5360061378818
 30
0.0
 40
7.0
  1
DN70
 50
90.0
 41
0.8
  7
GREEKS
100
AcDbText
  0
DIMENSION
  5
725
330
1E
100
AcDbEntity
  8
BEM
100
AcDbDimension
  2
*D7
 10
533.1133764618644
 20
209.7564135721346
 30
0.0
 11
528.5325468888273
 21
246.5465753062558
 31
0.0
 70
    33
  1
%%c<>
 71
     5
 42
73.00000000000029
  3
Standard
100
AcDbAlignedDimension
 13
508.4435183447974
 23
284.1494873091266
 33
0.0
 14
504.622993539062
 24
211.2495312720424
 34
0.0
1001
ACAD
1000
DSTYLE
1002
{
1070
    40
1040
2.0
1070
    41
1040
3.5
1070
    42
1040
1.0
1070
    43
1040
7.0
1070
    44
1040
1.0
1070
    47
1040
2.0
1070
    48
1040
2.0
1070
    73
1070
     0
1070
    74
1070
     0
1070
    77
1070
     1
1070
    78
1070
     8
1070
    79
1070
     2
1070
   140
1040
3.5
1070
   141
1040
1.5
1070
   146
1040
0.5142857142857144
1070
   147
1040
1.5
1070
   172
1070
     1
1070
   178
1070
     1
1070
   179
1070
     1
1070
   271
1070
     1
1070
   272
1070
     1
1070
   279
1070
     0
1002
}
  0
DIMENSION
  5
729
330
1E
100
AcDbEntity
  8
BEM
100
AcDbDimension
  2
*D8
 10
556.797605575556
 20
247.333157596884
 30
0.0
 11
550.297605575556
 21
288.2502937343369
 31
0.0
 70
    32
 71
     5
 42
81.83427227490568
  3
Standard
100
AcDbAlignedDimension
 13
351.0236626852115
 23
329.1674298717897
 33
0.0
 14
533.4733129670516
 24
247.333157596884
 34
0.0
 50
90.0
100
AcDbRotatedDimension
1001
ACAD
1000
DSTYLE
1002
{
1070
    72
1070
     0
1070
    71
1070
     0
1070
   271
1070
     0
1070
    40
1040
2.0
1070
    41
1040
3.5
1070
    42
1040
1.0
1070
    43
1040
7.0
1070
    44
1040
1.0
1070
    47
1040
0.0
1070
    48
1040
8.0
1070
    73
1070
     0
1070
    74
1070
     0
1070
    77
1070
     1
1070
    78
1070
     8
1070
    79
1070
     2
1070
   140
1040
3.5
1070
   141
1040
1.5
1070
   146
1040
0.5142857142857144
1070
   147
1040
1.5
1070
   172
1070
     1
1070
   178
1070
     1
1070
   179
1070
     2
1070
   279
1070
     0
1002
}
  0
LINE
  5
72A
102
{ACAD_REACTORS
330
657
102
}
330
1E
100
AcDbEntity
  8
STEMPEL
100
AcDbLine
 10
358.5236626852113
 20
329.1674298717899
 30
0.0
 11
422.5753210296615
 21
329.1674298717899
 31
0.0
  0
LINE
  5
72C
102
{ACAD_REACTORS
330
657
102
}
330
1E
100
AcDbEntity
  8
STEMPEL
100
AcDbLine
 10
338.5236626852113
 20
323.1674298717903
 30
0.0
 11
358.5236626852113
 21
323.1674298717903
 31
0.0
  0
LINE
  5
72D
102
{ACAD_REACTORS
330
95D
102
}
330
1E
100
AcDbEntity
  8
STEMPEL
100
AcDbLine
 10
342.0842192178491
 20
355.1674298717924
 30
0.0
 11
358.5236626852113
 21
355.1674298717909
 31
0.0
  0
LINE
  5
72E
330
1E
100
AcDbEntity
  8
STEMPEL
100
AcDbLine
 10
338.5236626852113
 20
323.8138764811964
 30
0.0
 11
349.6094491228387
 21
323.8138764811964
 31
0.0
  0
LINE
  5
72F
102
{ACAD_REACTORS
330
95D
102
}
330
1E
100
AcDbEntity
  8
STEMPEL
100
AcDbLine
 10
342.5236626852113
 20
355.1674298717909
 30
0.0
 11
342.3650439364201
 21
346.080167839605
 31
0.0
  0
LINE
  5
730
330
1E
100
AcDbEntity
  8
STEMPEL
100
AcDbLine
 10
342.0842192178491
 20
355.1674298717921
 30
0.0
 11
341.9256004690578
 21
346.080167839606
 31
0.0
  0
LINE
  5
731
102
{ACAD_REACTORS
330
95D
330
EE6
102
}
330
1E
100
AcDbEntity
  8
MITTEL
100
AcDbLine
 10
299.9236626852114
 20
359.1674298717903
 30
0.0
 11
299.9236626852114
 21
329.1674298717903
 31
0.0
  0
LINE
  5
73B
102
{ACAD_REACTORS
330
657
102
}
330
1E
100
AcDbEntity
  8
STEMPEL
100
AcDbLine
 10
338.5236626852113
 20
323.1674298717903
 30
0.0
 11
338.5236626852113
 21
325.1674298717899
 31
0.0
  0
ARC
  5
73C
102
{ACAD_REACTORS
330
95D
102
}
330
1E
100
AcDbEntity
  8
STEMPEL
100
AcDbCircle
 10
337.3658054606381
 20
346.1674298717912
 30
0.0
 40
5.0
100
AcDbArc
 50
270.0
 51
358.9999999999982
  0
ARC
  5
73D
330
1E
100
AcDbEntity
  8
STEMPEL
100
AcDbCircle
 10
336.9263619932758
 20
346.1674298717923
 30
0.0
 40
5.0
100
AcDbArc
 50
270.0
 51
358.9999999999982
  0
LINE
  5
73E
102
{ACAD_REACTORS
330
95D
102
}
330
1E
100
AcDbEntity
  8
STEMPEL
100
AcDbLine
 10
358.5236626852113
 20
355.1674298717909
 30
0.0
 11
358.7839654946965
 21
340.2546919039775
 31
0.0
  0
LINE
  5
73F
102
{ACAD_REACTORS
330
95D
102
}
330
1E
100
AcDbEntity
  8
HILF
100
AcDbLine
 10
353.5236626852111
 20
355.1674298717914
 30
0.0
 11
353.5236626852121
 21
335.1674298717912
 31
0.0
  0
LINE
  5
740
102
{ACAD_REACTORS
330
95D
102
}
330
1E
100
AcDbEntity
  8
HILF
100
AcDbLine
 10
347.5236626852113
 20
355.1674298717916
 30
0.0
 11
347.5236626852113
 21
335.1674298717912
 31
0.0
  0
LINE
  5
741
330
1E
100
AcDbEntity
  8
MITTEL
100
AcDbLine
 10
350.5236626852116
 20
360.1674298717916
 30
0.0
 11
350.5236626852116
 21
335.1674298717912
 31
0.0
  0
LINE
  5
742
102
{ACAD_REACTORS
330
95D
102
}
330
1E
100
AcDbEntity
  8
STEMPEL
100
AcDbLine
 10
348.1736626852114
 20
355.1674298717916
 30
0.0
 11
348.1736626852114
 21
335.167429871791
 31
0.0
  0
LINE
  5
743
102
{ACAD_REACTORS
330
95D
102
}
330
1E
100
AcDbEntity
  8
STEMPEL
100
AcDbLine
 10
352.8736626852114
 20
355.1674298717914
 30
0.0
 11
352.8736626852114
 21
335.1674298717912
 31
0.0
  0
ARC
  5
744
102
{ACAD_REACTORS
330
95D
102
}
330
1E
100
AcDbEntity
  8
STEMPEL
100
AcDbCircle
 10
353.7847270189147
 20
340.1674298717912
 30
0.0
 40
5.0
100
AcDbArc
 50
270.0
 51
1.000000000001775
  0
LINE
  5
745
102
{ACAD_REACTORS
330
65D
102
}
330
1E
100
AcDbEntity
  8
STEMPEL
100
AcDbLine
 10
351.023662685212
 20
325.2280900435697
 30
0.0
 11
348.6952355604658
 21
327.5565171683159
 31
0.0
  0
LINE
  5
746
102
{ACAD_REACTORS
330
65D
102
}
330
1E
100
AcDbEntity
  8
STEMPEL
100
AcDbLine
 10
349.6094491228387
 20
323.8138764811966
 30
0.0
 11
347.2810219980929
 21
326.1423036059428
 31
0.0
  0
ARC
  5
747
102
{ACAD_REACTORS
330
65D
102
}
330
1E
100
AcDbEntity
  8
STEMPEL
100
AcDbCircle
 10
344.8061482639396
 20
323.66742987179
 30
0.0
 40
3.499999999999851
100
AcDbArc
 50
45.00000000000036
 51
90.0
  0
ARC
  5
748
102
{ACAD_REACTORS
330
65D
102
}
330
1E
100
AcDbEntity
  8
STEMPEL
100
AcDbCircle
 10
344.8061482639396
 20
323.66742987179
 30
0.0
 40
5.499999999999851
100
AcDbArc
 50
45.00000000000036
 51
90.0
  0
LINE
  5
74A
102
{ACAD_REACTORS
330
EE6
102
}
330
1E
100
AcDbEntity
  8
STEMPEL
100
AcDbLine
 10
351.0236626852115
 20
329.1674298717904
 30
0.0
 11
351.0236626852115
 21
332.1674298717904
 31
0.0
  0
LINE
  5
74B
102
{ACAD_REACTORS
330
65D
102
}
330
1E
100
AcDbEntity
  8
STEMPEL
100
AcDbLine
 10
351.023662685212
 20
325.2280900435697
 30
0.0
 11
349.6094491228391
 21
323.8138764811964
 31
0.0
  0
LINE
  5
74C
102
{ACAD_REACTORS
330
657
102
}
330
1E
100
AcDbEntity
  8
STEMPEL
100
AcDbLine
 10
358.5236626852113
 20
323.1674298717903
 30
0.0
 11
358.5236626852113
 21
329.1674298717903
 31
0.0
  0
LINE
  5
74D
102
{ACAD_REACTORS
330
657
102
}
330
1E
100
AcDbEntity
  8
STEMPEL
100
AcDbLine
 10
415.3954552678847
 20
192.1674298717901
 30
0.0
 11
416.637165530868
 21
215.8606731263315
 31
0.0
  0
TEXT
  5
74E
330
1E
100
AcDbEntity
  8
TEXT
 62
     1
100
AcDbText
 10
392.6233668626703
 20
257.6756672194325
 30
0.0
 40
7.0
  1
DN70
 50
357.0000000000009
 41
0.8
  7
GREEKS
100
AcDbText
  0
LINE
  5
74F
102
{ACAD_REACTORS
330
99E
102
}
330
1E
100
AcDbEntity
  8
STEMPEL
100
AcDbLine
 10
515.4193532913011
 20
283.5050891693205
 30
0.0
 11
511.6395682604652
 21
211.3824943457192
 31
0.0
  0
LINE
  5
750
330
1E
100
AcDbEntity
  8
HILF
100
AcDbLine
 10
508.286510476068
 20
281.1535987048629
 30
0.0
 11
504.7800014077906
 21
214.2454198763061
 31
0.0
  0
LINE
  5
751
102
{ACAD_REACTORS
330
99E
102
}
330
1E
100
AcDbEntity
  8
STEMPEL
100
AcDbLine
 10
504.622993539062
 20
211.2495312720424
 30
0.0
 11
511.6395682604654
 21
211.3824943457192
 31
0.0
  0
LINE
  5
752
102
{ACAD_REACTORS
330
99E
102
}
330
1E
100
AcDbEntity
  8
STEMPEL
100
AcDbLine
 10
504.6480675263731
 20
212.7502757190467
 30
0.0
 11
511.7182722051778
 21
212.8842550726407
 31
0.0
  0
LINE
  5
753
102
{ACAD_REACTORS
330
99E
102
}
330
1E
100
AcDbEntity
  8
STEMPEL
100
AcDbLine
 10
508.4435183447974
 20
284.1494873091266
 30
0.0
 11
515.4193532913011
 21
283.5050891693205
 31
0.0
  0
LINE
  5
754
102
{ACAD_REACTORS
330
99E
102
}
330
1E
100
AcDbEntity
  8
STEMPEL
100
AcDbLine
 10
508.3352354933179
 20
282.6531036539101
 30
0.0
 11
515.2813770775401
 21
282.0114484613733
 31
0.0
  0
LINE
  5
755
102
{ACAD_REACTORS
330
657
102
}
330
1E
100
AcDbEntity
  8
STEMPEL
100
AcDbLine
 10
420.457690336603
 20
288.7606291634155
 30
0.0
 11
422.5753210296615
 21
329.1674298717899
 31
0.0
  0
TEXT
  5
8DA
330
1E
100
AcDbEntity
  8
TEXT
100
AcDbText
 10
505.3403584742409
 20
612.2898419893275
 30
0.0
 40
4.0
  1
DIN EN1124-3
 50
90.0
 41
0.8
  7
GREEKS
 72
     1
 11
505.3403584742409
 21
629.2803181798038
 31
0.0
100
AcDbText
  0
HATCH
  5
95D
330
1E
100
AcDbEntity
  8
SCHRAFF
100
AcDbHatch
 10
0.0
 20
0.0
 30
0.0
210
0.0
220
0.0
230
1.0
  2
_USER
 70
     0
 71
     1
 91
        7
 92
        7
 72
     1
 73
     1
 93
        5
 10
358.5236626852113
 20
355.1674298717909
 42
0.0
 10
353.523662685211
 20
355.1674298717914
 42
0.0
 10
353.5236626852121
 20
335.1674298717903
 42
0.0
 10
353.7847270189147
 20
335.1674298717903
 42
0.4193348017584233
 10
358.7839654946965
 20
340.2546919039775
 42
0.0
 97
        5
330
72D
330
73F
330
667
330
744
330
73E
 92
        7
 72
     1
 73
     1
 93
        7
 10
347.5236626852114
 20
355.1674298717919
 42
0.0
 10
342.5236626852113
 20
355.1674298717923
 42
0.0
 10
342.3650439364201
 20
346.080167839605
 42
-0.4091108014277237
 10
337.3658054606381
 20
341.1674298717912
 42
0.0
 10
299.9236626852114
 20
341.1674298717911
 42
0.0
 10
299.9236626852113
 20
335.1674298717903
 42
0.0
 10
347.5236626852113
 20
335.1674298717903
 42
0.0
 97
        7
330
72D
330
72F
330
73C
330
672
330
731
330
667
330
740
 92
        7
 72
     1
 73
     1
 93
        4
 10
299.9236626852114
 20
341.1674298717911
 42
0.0
 10
294.0236626852121
 20
341.1674298717911
 42
1.0
 10
294.0236626852121
 20
335.1674298717904
 42
0.0
 10
299.9236626852114
 20
335.1674298717904
 42
0.0
 97
        4
330
672
330
718
330
667
330
731
 92
        7
 72
     1
 73
     1
 93
        4
 10
163.0236626852117
 20
341.167429871791
 42
0.0
 10
145.5236626852111
 20
341.167429871791
 42
0.0
 10
145.5236626852111
 20
335.1674298717903
 42
0.0
 10
163.0236626852116
 20
335.1674298717904
 42
1.0
 97
        4
330
6A2
330
6C7
330
6A0
330
6D6
 92
        7
 72
     1
 73
     1
 93
        4
 10
131.5236626852113
 20
341.167429871791
 42
0.0
 10
116.5236626852113
 20
341.167429871791
 42
1.0
 10
116.5236626852113
 20
335.1674298717904
 42
0.0
 10
131.5236626852111
 20
335.1674298717904
 42
0.0
 97
        4
330
6A2
330
6B2
330
680
330
6B6
 92
        7
 72
     0
 73
     1
 93
        4
 10
353.5236626852111
 20
355.1674298717914
 10
352.8736626852114
 20
355.1674298717914
 10
352.8736626852114
 20
335.1674298717903
 10
353.5236626852121
 20
335.1674298717903
 97
        4
330
72D
330
743
330
667
330
73F
 92
        7
 72
     0
 73
     1
 93
        4
 10
348.1736626852115
 20
355.1674298717919
 10
347.5236626852114
 20
355.167429871792
 10
347.5236626852114
 20
335.1674298717904
 10
348.1736626852115
 20
335.1674298717904
 97
        4
330
72D
330
740
330
667
330
742
 75
     0
 76
     0
 52
135.0
 41
5.0
 77
     0
 78
     1
 53
135.0
 43
0.0
 44
0.0
 45
-3.535533905932737
 46
-3.535533905932737
 79
     0
 47
0.0852035941957547
 98
        7
 10
356.0163235738155
 20
345.346949501329
 10
344.0961873516676
 20
348.3249482789936
 10
294.4289511803713
 20
337.4056240451432
 10
152.3806545065627
 20
337.4056240451432
 10
124.567003321551
 20
338.8946234339755
 10
353.1670758779305
 20
345.282284823779
 10
347.7955765047541
 20
348.4348184660696
  0
HATCH
  5
99E
330
1E
100
AcDbEntity
  8
SCHRAFF
100
AcDbHatch
 10
0.0
 20
0.0
 30
0.0
210
0.0
220
0.0
230
1.0
  2
_USER
 70
     0
 71
     1
 91
        3
 92
        7
 72
     0
 73
     1
 93
        6
 10
265.0236626852116
 20
296.9065813776436
 10
263.5236626852117
 20
295.4831345275715
 10
508.3352354933179
 20
282.65310365391
 10
515.340787281532
 20
282.005960397904
 10
515.419353291301
 20
283.5050891693205
 10
508.4435183447991
 20
284.1494873091266
 97
        6
330
690
330
664
330
754
330
74F
330
753
330
665
 92
        7
 72
     0
 73
     1
 93
        6
 10
228.5236626852115
 20
227.2213425826236
 10
228.5236626852115
 20
225.7192840636266
 10
504.6229935390615
 20
211.2495312720424
 10
511.6395682604653
 20
211.3824943457192
 10
511.7182722051778
 20
212.8842550726407
 10
504.648067526373
 20
212.7502757190467
 97
        6
330
6F5
330
662
330
751
330
74F
330
752
330
661
 92
        7
 72
     0
 73
     1
 93
        4
 10
228.5236626852115
 20
227.2213425826236
 10
193.5236626852115
 20
229.0556148575301
 10
192.0236626852114
 20
227.6321680074576
 10
228.5236626852115
 20
225.7192840636266
 97
        4
330
661
330
690
330
662
330
6F5
 75
     0
 76
     0
 52
45.0
 41
2.0
 77
     0
 78
     1
 53
45.0
 43
0.0
 44
0.0
 45
-1.414213562373094
 46
1.414213562373095
 79
     0
 47
0.4597368623914412
 98
        3
 10
369.4124970899143
 20
291.0192459995685
 10
327.0877779794282
 20
221.1392422797721
 10
212.9950515776755
 20
227.1158210765786
  0
TEXT
  5
9DC
330
1E
100
AcDbEntity
  8
TEXT
 62
     1
100
AcDbText
 10
346.8029229866811
 20
470.3859672273178
 30
0.0
 40
7.0
  1
Ablaufkörper DN70
 41
0.8
  7
GREEKS
100
AcDbText
  0
LINE
  5
9DD
330
1E
100
AcDbEntity
  8
TEXT
 62
     2
100
AcDbLine
 10
345.722236587844
 20
466.773198955124
 30
0.0
 11
264.7531193880635
 21
489.2729062345416
 31
0.0
  0
LINE
  5
9DE
330
1E
100
AcDbEntity
  8
TEXT
 62
     2
100
AcDbLine
 10
451.8461311955218
 20
466.7731989551242
 30
0.0
 11
345.722236587844
 21
466.773198955124
 31
0.0
  0
TEXT
  5
9DF
330
1E
100
AcDbEntity
  8
TEXT
 62
     1
100
AcDbText
 10
346.622367692529
 20
457.3381950803385
 30
0.0
 40
7.0
  1
EDV-Art.Nr. 21981.070X
 41
0.8
  7
GREEKS
100
AcDbText
  0
TEXT
  5
9E0
330
1E
100
AcDbEntity
  8
TEXT
 62
     1
100
AcDbText
 10
357.7126942893542
 20
530.3883816107094
 30
0.0
 40
7.0
  1
EDV-Art.Nr. 21907.070X
 41
0.8
100
AcDbText
  0
LINE
  5
9E1
330
1E
100
AcDbEntity
  8
TEXT
 62
     2
100
AcDbLine
 10
463.0559029857329
 20
539.6808784185085
 30
0.0
 11
357.1173384105998
 21
539.6808784185085
 31
0.0
  0
TEXT
  5
9E2
330
1E
100
AcDbEntity
  8
TEXT
 62
     1
100
AcDbText
 10
357.7126942893542
 20
543.164712579419
 30
0.0
 40
7.0
  1
Losflansch DN70
 41
0.8
100
AcDbText
  0
LINE
  5
9E3
102
{ACAD_REACTORS
330
EC3
102
}
330
1E
100
AcDbEntity
  8
TEXT
 62
     2
100
AcDbLine
 10
357.1173384105998
 20
539.6808784185085
 30
0.0
 11
333.3888116421742
 21
575.1512971554704
 31
0.0
  0
TEXT
  5
9E4
330
1E
100
AcDbEntity
  8
TEXT
 62
     1
100
AcDbText
 10
348.4030898416536
 20
494.8681020345826
 30
0.0
 40
7.0
  1
EDV-Art.Nr. 21920.070X
 41
0.8
100
AcDbText
  0
LINE
  5
9E5
330
1E
100
AcDbEntity
  8
TEXT
 62
     2
100
AcDbLine
 10
451.6608011629771
 20
504.1605988423818
 30
0.0
 11
345.722236587844
 21
504.1605988423818
 31
0.0
  0
TEXT
  5
9E6
330
1E
100
AcDbEntity
  8
TEXT
 62
     1
100
AcDbText
 10
348.4030898416536
 20
507.6444330032922
 30
0.0
 40
7.0
  1
Kompressionsdichtung
 41
0.8
100
AcDbText
  0
LINE
  5
9E7
330
1E
100
AcDbEntity
  8
TEXT
 62
     2
100
AcDbLine
 10
345.722236587844
 20
504.1605988423818
 30
0.0
 11
293.2934723723322
 21
568.4890344901997
 31
0.0
  0
LINE
  5
9E9
330
1E
100
AcDbEntity
  8
TEXT
 62
     2
100
AcDbLine
 10
343.9954505043713
 20
416.6325812498245
 30
0.0
 11
265.2331636264183
 21
334.0890420820268
 31
0.0
  0
TEXT
  5
9EA
330
1E
100
AcDbEntity
  8
TEXT
 62
     1
100
AcDbText
 10
345.0761369032084
 20
420.2453495220182
 30
0.0
 40
7.0
  1
Dichtelement DN70
 41
0.8
  7
GREEKS
100
AcDbText
  0
LINE
  5
9EB
330
1E
100
AcDbEntity
  8
TEXT
 62
     2
100
AcDbLine
 10
450.1193451120491
 20
416.6325812498247
 30
0.0
 11
343.9954505043713
 21
416.6325812498245
 31
0.0
  0
TEXT
  5
9EC
330
1E
100
AcDbEntity
  8
TEXT
 62
     1
100
AcDbText
 10
344.8955816090563
 20
407.197577375039
 30
0.0
 40
7.0
  1
EDV-Art.Nr. 00911.070X
 41
0.8
  7
GREEKS
100
AcDbText
  0
LINE
  5
9EE
330
1E
100
AcDbEntity
  8
TEXT
 62
     2
100
AcDbLine
 10
408.1314571313134
 20
352.179639283933
 30
0.0
 11
349.983025472721
 21
330.5213800080688
 31
0.0
  0
TEXT
  5
9EF
330
1E
100
AcDbEntity
  8
TEXT
 62
     1
100
AcDbText
 10
410.812310385123
 20
355.6634734448433
 30
0.0
 40
7.0
  1
Kompressionsdichtung
 41
0.8
100
AcDbText
  0
LINE
  5
9F0
330
1E
100
AcDbEntity
  8
TEXT
 62
     2
100
AcDbLine
 10
514.0700217064465
 20
352.179639283933
 30
0.0
 11
408.1314571313134
 21
352.179639283933
 31
0.0
  0
TEXT
  5
9F1
330
1E
100
AcDbEntity
  8
TEXT
 62
     1
100
AcDbText
 10
410.812310385123
 20
342.8871424761338
 30
0.0
 40
7.0
  1
EDV-Art.Nr. 21920.070X
 41
0.8
100
AcDbText
  0
LINE
  5
9F2
330
1E
100
AcDbEntity
  8
TEXT
 62
     2
100
AcDbLine
 10
410.3744682201047
 20
384.1326870417418
 30
0.0
 11
355.8045968198023
 21
353.4702719173057
 31
0.0
  0
TEXT
  5
9F3
330
1E
100
AcDbEntity
  8
TEXT
 62
     1
100
AcDbText
 10
410.9698240988591
 20
387.6165212026523
 30
0.0
 40
7.0
  1
Losflansch DN70
 41
0.8
100
AcDbText
  0
LINE
  5
9F4
330
1E
100
AcDbEntity
  8
TEXT
 62
     2
100
AcDbLine
 10
516.3130327952378
 20
384.1326870417418
 30
0.0
 11
410.3744682201047
 21
384.1326870417418
 31
0.0
  0
TEXT
  5
9F5
330
1E
100
AcDbEntity
  8
TEXT
 62
     1
100
AcDbText
 10
410.9698240988591
 20
374.8401902339427
 30
0.0
 40
7.0
  1
EDV-Art.Nr. 21905.070X
 41
0.8
100
AcDbText
  0
LINE
  5
9F6
330
1E
100
AcDbEntity
  8
TEXT
 62
     2
100
AcDbLine
 10
137.94693654754
 20
112.3071497660934
 30
0.0
 11
173.6603398009113
 21
206.1897033195899
 31
0.0
  0
LINE
  5
9F7
330
1E
100
AcDbEntity
  8
TEXT
 62
     2
100
AcDbLine
 10
29.36218769384098
 20
112.3071497660936
 30
0.0
 11
137.94693654754
 21
112.3071497660934
 31
0.0
  0
TEXT
  5
9F8
330
1E
100
AcDbEntity
  8
TEXT
 62
     1
100
AcDbText
 10
31.76721362182789
 20
101.5485826724745
 30
0.0
 40
7.0
  1
EDV-Art.Nr. 19843.070X
 41
0.8
  7
GREEKS
100
AcDbText
  0
TEXT
  5
9F9
330
1E
100
AcDbEntity
  8
TEXT
 62
     1
100
AcDbText
 10
31.76721362182789
 20
114.6932805115385
 30
0.0
 40
7.0
  1
Wärmedämmung DN70
 41
0.8
  7
GREEKS
100
AcDbText
  0
TEXT
  5
9FA
330
1E
100
AcDbEntity
  8
TEXT
 62
     1
100
AcDbText
 10
353.0346207854026
 20
99.24107572717629
 30
0.0
 40
7.0
  1
Unterteil DN70
 41
0.8
  7
GREEKS
100
AcDbText
  0
TEXT
  5
9FB
330
1E
100
AcDbEntity
  8
TEXT
 62
     1
100
AcDbText
 10
353.0346207854026
 20
86.09637788811221
 30
0.0
 40
7.0
  1
EDV-Art.Nr. 21987.070X
 41
0.8
  7
GREEKS
100
AcDbText
  0
LINE
  5
9FC
330
1E
100
AcDbEntity
  8
TEXT
 62
     2
100
AcDbLine
 10
350.6295948574157
 20
96.85494498173136
 30
0.0
 11
459.2143437111146
 21
96.85494498173113
 31
0.0
  0
LINE
  5
9FD
330
1E
100
AcDbEntity
  8
TEXT
 62
     2
100
AcDbLine
 10
459.2143437111146
 20
96.85494498173113
 30
0.0
 11
471.9463368899905
 21
152.0754123949759
 31
0.0
  0
LINE
  5
9FF
330
1E
100
AcDbEntity
  8
TEXT
 62
     2
100
AcDbLine
 10
472.8450248819968
 20
155.9731501866986
 30
0.0
 11
485.9901281318637
 21
212.9853348034287
 31
0.0
  0
LINE
  5
BAA
330
1E
100
AcDbEntity
  8
TEXT
 62
     2
100
AcDbLine
 10
288.564464459316
 20
707.8605345966749
 30
0.0
 11
302.9498163955644
 21
761.2026864060489
 31
0.0
  0
TEXT
  5
BAB
330
1E
100
AcDbEntity
  8
TEXT
 62
     1
100
AcDbText
 10
304.3011855437406
 20
764.3653480366805
 30
0.0
 40
7.0
  1
Siebkorb
 41
0.8
  7
GREEKS
100
AcDbText
  0
LINE
  5
BAC
330
1E
100
AcDbEntity
  8
TEXT
 62
     2
100
AcDbLine
 10
302.9498163955644
 20
761.2026864060489
 30
0.0
 11
411.2534211200761
 21
761.2026864060489
 31
0.0
  0
TEXT
  5
BAD
330
1E
100
AcDbEntity
  8
TEXT
 62
     1
100
AcDbText
 10
304.3011855437406
 20
750.689007518945
 30
0.0
 40
7.0
  1
EDV-Art.Nr. 21007.000X
 41
0.8
  7
GREEKS
100
AcDbText
  0
LINE
  5
BAE
330
1E
100
AcDbEntity
  8
TEXT
 62
     2
100
AcDbLine
 10
284.9905622421183
 20
694.6081904436454
 30
0.0
 11
287.2815500570423
 21
703.1033750146369
 31
0.0
  0
LINE
  5
BAF
330
1E
100
AcDbEntity
  8
TEXT
 62
     2
100
AcDbLine
 10
281.6503365998
 20
682.2223396087316
 30
0.0
 11
283.5995077271246
 21
689.4500378004042
 31
0.0
  0
DIMENSION
  5
BB2
330
1E
100
AcDbEntity
  8
BEM
100
AcDbDimension
  2
*D9
 10
358.5236626852115
 20
705.4093194200382
 30
0.0
 11
228.5236626852115
 21
711.9093194200383
 31
0.0
 70
    32
  1
%%c<>
 71
     5
 42
259.9999999999999
  3
Standard
100
AcDbAlignedDimension
 13
98.52366268521164
 23
594.1017651089977
 33
0.0
 14
358.5236626852115
 24
594.1017651089979
 34
0.0
100
AcDbRotatedDimension
1001
ACAD
1000
DSTYLE
1002
{
1070
    40
1040
2.0
1070
    41
1040
3.5
1070
    42
1040
1.0
1070
    43
1040
7.0
1070
    44
1040
1.0
1070
    73
1070
     0
1070
    74
1070
     0
1070
    77
1070
     1
1070
    78
1070
     8
1070
    79
1070
     2
1070
   140
1040
3.5
1070
   141
1040
1.5
1070
   146
1040
0.5142857142857144
1070
   147
1040
1.5
1070
   172
1070
     1
1070
   178
1070
     1
1070
   179
1070
     2
1070
   271
1070
     2
1070
   272
1070
     2
1070
   284
1070
     8
1070
   285
1070
     8
1070
   286
1070
     8
1002
}
  0
DIMENSION
  5
BB3
330
1E
100
AcDbEntity
  8
BEM
100
AcDbDimension
  2
*D10
 10
338.5236626852119
 20
691.9141181057308
 30
0.0
 11
228.5236626852117
 21
698.4141181057308
 31
0.0
 70
    32
  1
%%c<>
 71
     5
 42
220.0000000000002
  3
Standard
100
AcDbAlignedDimension
 13
118.5236626852116
 23
663.1017071416821
 33
0.0
 14
338.5236626852119
 24
663.1017071416821
 34
0.0
100
AcDbRotatedDimension
1001
ACAD
1000
DSTYLE
1002
{
1070
    40
1040
2.0
1070
    41
1040
3.5
1070
    42
1040
1.0
1070
    43
1040
7.0
1070
    44
1040
1.0
1070
    73
1070
     0
1070
    74
1070
     0
1070
    77
1070
     1
1070
    78
1070
     8
1070
    79
1070
     2
1070
   140
1040
3.5
1070
   141
1040
1.5
1070
   146
1040
0.5142857142857144
1070
   147
1040
1.5
1070
   172
1070
     1
1070
   178
1070
     1
1070
   179
1070
     2
1070
   271
1070
     2
1070
   272
1070
     2
1070
   284
1070
     8
1070
   285
1070
     8
1070
   286
1070
     8
1002
}
  0
LWPOLYLINE
  5
BB4
330
1E
100
AcDbEntity
  8
STEMPEL
100
AcDbPolyline
 90
       10
 70
   128
 43
0.0
 10
-141.4578775728854
 20
613.101765108999
 10
-142.250704918745
 20
612.9878232565905
 10
-143.0194426068908
 20
612.6494597648933
 10
-143.7407329316683
 20
612.0969556373822
 10
-144.3926598515498
 20
611.3470984323909
 10
-144.9554148969655
 20
610.4226721816474
 10
-145.4118990406284
 20
609.3517651089982
 10
-145.7482422428251
 20
608.1669161839405
 10
-145.9542248855552
 20
606.9041264414996
 10
-146.0235882904513
 20
605.6017651089974
210
0.0
220
0.0
230
-1.0
  0
LINE
  5
BB5
330
1E
100
AcDbEntity
  8
HILF
100
AcDbLine
 10
330.8499957427422
 20
666.1017651090004
 30
0.0
 11
125.6973296276809
 21
666.1017651090002
 31
0.0
  0
LWPOLYLINE
  5
BB6
330
1E
100
AcDbEntity
  8
STEMPEL
100
AcDbPolyline
 90
       18
 70
   128
 43
0.0
 10
-137.6873877421404
 20
605.6017651089959
 10
-137.7651276434005
 20
606.9798864926204
 10
-137.9957000080823
 20
608.3110776054001
 10
-138.3712529708475
 20
609.5500063305768
 10
-138.8789975259752
 20
610.654482436346
 10
-139.5016430416131
 20
611.5868943135989
 10
-140.2179860715071
 20
612.3154897941603
 10
-141.0036324129331
 20
612.8154574327935
 10
-141.8318278220125
 20
613.0697714312101
 10
-142.6743690974002
 20
613.0697714312101
 10
-143.5025645064796
 20
612.8154574327935
 10
-144.2882108479055
 20
612.3154897941603
 10
-145.0045538777995
 20
611.5868943135989
 10
-145.6271993934375
 20
610.654482436346
 10
-146.1349439485652
 20
609.5500063305768
 10
-146.5104969113303
 20
608.3110776054001
 10
-146.7410692760122
 20
606.9798864926204
 10
-146.8188091772723
 20
605.6017651089959
210
0.0
220
0.0
230
-1.0
  0
LINE
  5
BB7
330
1E
100
AcDbEntity
  8
STEMPEL
100
AcDbLine
 10
121.4909680635038
 20
668.278845669041
 30
0.0
 11
145.4772709389707
 21
682.2708556797295
 31
0.0
  0
LINE
  5
BB8
330
1E
100
AcDbEntity
  8
STEMPEL
100
AcDbLine
 10
122.0043091170846
 20
667.4206025558784
 30
0.0
 11
145.9831630100357
 21
681.4082557220639
 31
0.0
  0
DIMENSION
  5
BB9
330
1E
100
AcDbEntity
  8
BEM
100
AcDbDimension
  2
*D11
 10
66.03900796850163
 20
573.1017651089955
 30
0.0
 11
59.53900796850154
 21
628.1017651089962
 31
0.0
 70
    32
 71
     5
 42
110.0000000000014
  3
Standard
100
AcDbAlignedDimension
 13
148.5236626852116
 23
683.101765108997
 33
0.0
 14
111.5236626852121
 24
573.1017651089955
 34
0.0
 50
90.0
100
AcDbRotatedDimension
1001
ACAD
1000
DSTYLE
1002
{
1070
    40
1040
2.0
1070
    41
1040
3.5
1070
    42
1040
1.0
1070
    43
1040
7.0
1070
    44
1040
1.0
1070
    73
1070
     0
1070
    74
1070
     0
1070
    77
1070
     1
1070
    78
1070
     8
1070
    79
1070
     2
1070
   140
1040
3.5
1070
   141
1040
1.5
1070
   146
1040
0.5142857142857144
1070
   147
1040
1.5
1070
   172
1070
     1
1070
   178
1070
     1
1070
   179
1070
     2
1070
   271
1070
     2
1070
   272
1070
     2
1070
   284
1070
     8
1070
   285
1070
     8
1070
   286
1070
     8
1002
}
  0
LINE
  5
BBA
330
1E
100
AcDbEntity
  8
STEMPEL
100
AcDbLine
 10
118.5236626852116
 20
663.1017071416821
 30
0.0
 11
118.5236626852116
 21
599.1017651089982
 31
0.0
  0
LINE
  5
BBB
330
1E
100
AcDbEntity
  8
STEMPEL
100
AcDbLine
 10
119.5236626852117
 20
663.1017071416821
 30
0.0
 11
119.5236626852117
 21
599.1017651089982
 31
0.0
  0
LINE
  5
BBC
330
1E
100
AcDbEntity
  8
STEMPEL
100
AcDbLine
 10
130.9295885584585
 20
605.6017651089959
 30
0.0
 11
130.9295885584585
 21
599.1017651089992
 31
0.0
  0
LINE
  5
BBD
330
1E
100
AcDbEntity
  8
STEMPEL
100
AcDbLine
 10
130.0035342219513
 20
605.6017651089959
 30
0.0
 11
130.0035342219513
 21
599.1017651089992
 31
0.0
  0
LINE
  5
BBE
330
1E
100
AcDbEntity
  8
STEMPEL
100
AcDbLine
 10
137.6873877421403
 20
605.6017651089959
 30
0.0
 11
137.6873877421403
 21
599.1017651089992
 31
0.0
  0
LINE
  5
BBF
330
1E
100
AcDbEntity
  8
STEMPEL
100
AcDbLine
 10
125.1893370729808
 20
605.6017651089959
 30
0.0
 11
125.1893370729808
 21
599.1017651089992
 31
0.0
  0
LINE
  5
BC0
330
1E
100
AcDbEntity
  8
STEMPEL
100
AcDbLine
 10
119.733349926247
 20
605.6017651089959
 30
0.0
 11
119.733349926247
 21
599.1017651089982
 31
0.0
  0
LINE
  5
BC1
330
1E
100
AcDbEntity
  8
STEMPEL
100
AcDbLine
 10
120.6974640960096
 20
605.6017651089959
 30
0.0
 11
120.6974640960096
 21
599.1017651089982
 31
0.0
  0
LINE
  5
BC2
330
1E
100
AcDbEntity
  8
STEMPEL
100
AcDbLine
 10
121.6912428095474
 20
605.6017651089959
 30
0.0
 11
121.6912428095474
 21
599.101765108997
 31
0.0
  0
LINE
  5
BC3
330
1E
100
AcDbEntity
  8
STEMPEL
100
AcDbLine
 10
98.52366268521164
 20
594.1017651089977
 30
0.0
 11
113.5236626852118
 21
594.1017651089981
 31
0.0
  0
LINE
  5
BC4
330
1E
100
AcDbEntity
  8
STEMPEL
100
AcDbLine
 10
98.52366268521151
 20
594.1017651089979
 30
0.0
 11
98.52366268521141
 21
593.1017651089977
 31
0.0
  0
LINE
  5
BC8
102
{ACAD_REACTORS
330
EC3
102
}
330
1E
100
AcDbEntity
  8
STEMPEL
100
AcDbLine
 10
106.0236626852114
 20
570.1017651089963
 30
0.0
 11
133.5236626852116
 21
570.1017651089964
 31
0.0
  0
LINE
  5
BCB
102
{ACAD_REACTORS
330
EC3
102
}
330
1E
100
AcDbEntity
  8
STEMPEL
100
AcDbLine
 10
106.0236626852114
 20
570.1017651089963
 30
0.0
 11
106.0236626852115
 21
567.1017651089962
 31
0.0
  0
LINE
  5
BCD
102
{ACAD_REACTORS
330
EC3
102
}
330
1E
100
AcDbEntity
  8
STEMPEL
100
AcDbLine
 10
132.0236626852114
 20
570.1017651089963
 30
0.0
 11
132.0236626852114
 21
567.1017651089963
 31
0.0
  0
LWPOLYLINE
  5
BCE
330
1E
100
AcDbEntity
  8
STEMPEL
100
AcDbPolyline
 90
       10
 70
   128
 43
0.0
 10
126.1142240318846
 20
593.1017651089977
 10
126.9504033067262
 20
593.1929185909244
 10
127.7611756974288
 20
593.4636093842822
 10
128.5219062951716
 20
593.9056126862912
 10
129.2094806856904
 20
594.5054984502839
 10
129.8030072690588
 20
595.2450394508786
 10
130.28445204038
 20
596.1017651089979
 10
130.6391865439004
 20
597.049644249044
 10
130.8564323512346
 20
598.0598760429964
 10
130.9295885584585
 20
599.1017651089982
  0
LINE
  5
BCF
330
1E
100
AcDbEntity
  8
STEMPEL
100
AcDbLine
 10
120.713109229344
 20
593.1017651089981
 30
0.0
 11
132.5236626852115
 21
593.1017651089972
 31
0.0
  0
LINE
  5
BD0
330
1E
100
AcDbEntity
  8
STEMPEL
100
AcDbLine
 10
123.0357654403122
 20
594.1017651089977
 30
0.0
 11
127.8499625892836
 21
594.1017651089977
 31
0.0
  0
LWPOLYLINE
  5
BD3
330
1E
100
AcDbEntity
  8
STEMPEL
100
AcDbPolyline
 90
       10
 70
   128
 43
0.0
 10
116.1852540785166
 20
593.1017651089977
 10
117.0433270747894
 20
593.1678923235702
 10
117.8961392744116
 20
593.4204460733005
 10
118.7168975813286
 20
593.851491789618
 10
119.4798159477276
 20
594.4474871600581
 10
120.1609255032268
 20
595.1897075917787
 10
120.7388275931725
 20
596.0548344885761
 10
121.1953660675787
 20
597.0156878592921
 10
121.5161976991763
 20
598.0420802410043
 10
121.6912428095474
 20
599.101765108997
  0
LWPOLYLINE
  5
BD4
330
1E
100
AcDbEntity
  8
STEMPEL
100
AcDbPolyline
 90
       10
 70
   128
 43
0.0
 10
114.2273611952161
 20
593.1017651089988
 10
115.0854341914889
 20
593.1678923235714
 10
115.9382463911111
 20
593.4204460733017
 10
116.7590046980282
 20
593.8514917896192
 10
117.5219230644271
 20
594.4474871600593
 10
118.2030326199263
 20
595.1897075917798
 10
118.780934709872
 20
596.0548344885772
 10
119.2374731842783
 20
597.0156878592932
 10
119.5583048158758
 20
598.0420802410054
 10
119.733349926247
 20
599.1017651089982
  0
ARC
  5
BD5
330
1E
100
AcDbEntity
  8
STEMPEL
100
AcDbCircle
 10
113.5236626852117
 20
599.1017651089982
 30
0.0
 40
5.0
100
AcDbArc
 50
270.0
 51
0.0
  0
ARC
  5
BD6
330
1E
100
AcDbEntity
  8
STEMPEL
100
AcDbCircle
 10
113.5236626852117
 20
599.1017651089982
 30
0.0
 40
6.0
100
AcDbArc
 50
270.0000000000033
 51
0.0
  0
LWPOLYLINE
  5
BD7
330
1E
100
AcDbEntity
  8
STEMPEL
100
AcDbPolyline
 90
        7
 70
   128
 43
0.0
 10
118.0770049123387
 20
594.1017651089981
 10
118.7537067874162
 20
594.7113658368571
 10
119.3532562110501
 20
595.4389249207688
 10
119.8595448841998
 20
596.2648947824489
 10
120.2589701762453
 20
597.1670838076521
 10
120.5408005915082
 20
598.1212525758459
 10
120.6974640960097
 20
599.1017651089982
  0
LINE
  5
BD8
330
1E
100
AcDbEntity
  8
STEMPEL
100
AcDbLine
 10
117.1128907425763
 20
594.1017651089977
 30
0.0
 11
118.077004912339
 21
594.1017651089977
 31
0.0
  0
LWPOLYLINE
  5
BD9
330
1E
100
AcDbEntity
  8
STEMPEL
100
AcDbPolyline
 90
       10
 70
   128
 43
0.0
 10
120.3739725464068
 20
593.1017651089977
 10
121.2101518212484
 20
593.1929185909244
 10
122.020924211951
 20
593.4636093842822
 10
122.7816548096939
 20
593.9056126862912
 10
123.4692292002126
 20
594.5054984502839
 10
124.0627557835811
 20
595.2450394508786
 10
124.5442005549023
 20
596.1017651089979
 10
124.8989350584226
 20
597.049644249044
 10
125.1161808657568
 20
598.0598760429964
 10
125.1893370729808
 20
599.1017651089982
  0
LWPOLYLINE
  5
BDA
330
1E
100
AcDbEntity
  8
STEMPEL
100
AcDbPolyline
 90
        7
 70
   128
 43
0.0
 10
127.8499625892826
 20
594.1017651089977
 10
128.470053112347
 20
594.7111030108385
 10
129.0018732591304
 20
595.4385332841278
 10
129.4311190588616
 20
596.2644907780714
 10
129.7462454066589
 20
597.1667603285338
 10
129.9387765836248
 20
598.1210742627768
 10
130.0035342219512
 20
599.1017651089982
  0
LWPOLYLINE
  5
BDB
330
1E
100
AcDbEntity
  8
STEMPEL
100
AcDbPolyline
 90
       18
 70
   128
 43
0.0
 10
-125.1893370729808
 20
605.6017651089959
 10
-125.2382064178971
 20
606.9798864926204
 10
-125.3831502657171
 20
608.3110776054001
 10
-125.6192327275443
 20
609.5500063305768
 10
-125.9384142982911
 20
610.654482436346
 10
-126.3298256323814
 20
611.5868943135989
 10
-126.7801376862794
 20
612.3154897941603
 10
-127.2740156230788
 20
612.8154574327935
 10
-127.7946410219838
 20
613.0697714312101
 10
-128.3242846094556
 20
613.0697714312101
 10
-128.8449100083605
 20
612.8154574327935
 10
-129.3387879451599
 20
612.3154897941603
 10
-129.7890999990579
 20
611.5868943135989
 10
-130.1805113331482
 20
610.654482436346
 10
-130.499692903895
 20
609.5500063305768
 10
-130.7357753657222
 20
608.3110776054001
 10
-130.8807192135422
 20
606.9798864926204
 10
-130.9295885584585
 20
605.6017651089959
210
0.0
220
0.0
230
-1.0
  0
LWPOLYLINE
  5
BDC
330
1E
100
AcDbEntity
  8
STEMPEL
100
AcDbPolyline
 90
       18
 70
   128
 43
0.0
 10
-119.733349926247
 20
605.6017651089959
 10
-119.7500183497237
 20
606.9798864926204
 10
-119.7994559969841
 20
608.3110776054001
 10
-119.8799793282446
 20
609.5500063305768
 10
-119.9888462180363
 20
610.654482436346
 10
-120.1223493349985
 20
611.5868943135989
 10
-120.2759423906027
 20
612.3154897941603
 10
-120.4443949575547
 20
612.8154574327935
 10
-120.6219705857237
 20
613.0697714312101
 10
-120.8026221500707
 20
613.0697714312101
 10
-120.9801977782396
 20
612.8154574327935
 10
-121.1486503451917
 20
612.3154897941603
 10
-121.3022434007958
 20
611.5868943135989
 10
-121.4357465177581
 20
610.654482436346
 10
-121.5446134075498
 20
609.5500063305768
 10
-121.6251367388102
 20
608.3110776054001
 10
-121.6745743860707
 20
606.9798864926204
 10
-121.6912428095474
 20
605.6017651089959
210
0.0
220
0.0
230
-1.0
  0
LWPOLYLINE
  5
BDD
330
1E
100
AcDbEntity
  8
STEMPEL
100
AcDbPolyline
 90
        7
 70
   128
 43
0.0
 10
-120.2154070111281
 20
612.0638191648358
 10
-120.3532360206984
 20
611.3117129278972
 10
-120.4721002976645
 20
610.3889993171823
 10
-120.5684482995658
 20
609.3232480672781
 10
-120.639401247104
 20
608.146302730457
 10
-120.6828391391119
 20
606.8933292240553
 10
-120.6974640960095
 20
605.6017651089959
210
0.0
220
0.0
230
-1.0
  0
LWPOLYLINE
  5
BDE
330
1E
100
AcDbEntity
  8
STEMPEL
100
AcDbPolyline
 90
        9
 70
   128
 43
0.0
 10
-127.5964356474677
 20
613.003523353661
 10
-128.0854961907364
 20
612.6770904559036
 10
-128.5451091586373
 20
612.1318214426463
 10
-128.9610589622616
 20
611.3845811995182
 10
-129.3204804915532
 20
610.4584814767407
 10
-129.6122570264407
 20
609.3821660547704
 10
-129.8273640711788
 20
608.1889248071396
 10
-129.9591484772863
 20
606.9156640620639
 10
-130.0035342219512
 20
605.6017651089974
210
0.0
220
0.0
230
-1.0
  0
ARC
  5
BDF
330
1E
100
AcDbEntity
  8
STEMPEL
100
AcDbCircle
 10
124.5236626852117
 20
663.1017071416821
 30
0.0
 40
6.0
100
AcDbArc
 50
120.2564164748189
 51
180.0
  0
ARC
  5
BE0
330
1E
100
AcDbEntity
  8
STEMPEL
100
AcDbCircle
 10
124.5236626852117
 20
663.1017071416821
 30
0.0
 40
5.0
100
AcDbArc
 50
120.2564164748189
 51
180.0
  0
ARC
  5
BE1
330
1E
100
AcDbEntity
  8
STEMPEL
100
AcDbCircle
 10
119.0125190809001
 20
672.6216020914595
 30
0.0
 40
5.0
100
AcDbArc
 50
300.0670458384858
 51
300.2564371635302
  0
LINE
  5
BE2
330
1E
100
AcDbEntity
  8
STEMPEL
100
AcDbLine
 10
337.5236626852117
 20
663.1017071416821
 30
0.0
 11
337.5236626852117
 21
599.1017651089982
 31
0.0
  0
LINE
  5
BE3
330
1E
100
AcDbEntity
  8
STEMPEL
100
AcDbLine
 10
338.5236626852119
 20
663.1017071416821
 30
0.0
 11
338.5236626852119
 21
599.1017651089982
 31
0.0
  0
LINE
  5
BE6
102
{ACAD_REACTORS
330
EC3
102
}
330
1E
100
AcDbEntity
  8
STEMPEL
100
AcDbLine
 10
143.5236626852117
 20
570.1017651089963
 30
0.0
 11
351.0236626852116
 21
570.1017651089963
 31
0.0
  0
LWPOLYLINE
  5
BE7
330
1E
100
AcDbEntity
  8
STEMPEL
100
AcDbPolyline
 90
        8
 70
   128
 43
0.0
 10
270.3290889369259
 20
613.0988915320359
 10
269.0048794865961
 20
612.9200586249882
 10
267.73690008941
 20
612.4697827076639
 10
266.5721814013244
 20
611.7647649755248
 10
265.5539240327177
 20
610.8311552591414
 10
264.7198961934555
 20
609.7035821001654
 10
264.1010328312615
 20
608.4238683432134
 10
264.0124456511565
 20
608.1017651089963
  0
LWPOLYLINE
  5
BE8
330
1E
100
AcDbEntity
  8
STEMPEL
100
AcDbPolyline
 90
       16
 70
   128
 43
0.0
 10
276.6535080799433
 20
608.1017651089963
 10
276.5984868594787
 20
608.3110776054001
 10
276.0285333782969
 20
609.5500063305768
 10
275.2579609013408
 20
610.654482436346
 10
274.3130103501133
 20
611.5868943135989
 10
273.2258608822933
 20
612.3154897941603
 10
272.033534069115
 20
612.8154574327935
 10
270.7766331701632
 20
613.0697714312101
 10
269.4979604380648
 20
613.0697714312101
 10
268.241059539113
 20
612.8154574327935
 10
267.0487327259347
 20
612.3154897941603
 10
265.9615832581147
 20
611.5868943135989
 10
265.0166327068872
 20
610.654482436346
 10
264.2460602299311
 20
609.5500063305768
 10
263.6761067487493
 20
608.3110776054001
 10
263.6210855282848
 20
608.1017651089963
  0
LINE
  5
BE9
330
1E
100
AcDbEntity
  8
STEMPEL
100
AcDbLine
 10
98.52366268521141
 20
593.1017651089976
 30
0.0
 11
161.2478006162458
 21
593.1017651089977
 31
0.0
  0
LINE
  5
BEA
330
1E
100
AcDbEntity
  8
STEMPEL
100
AcDbLine
 10
146.8188091772722
 20
605.6017651089959
 30
0.0
 11
146.8188091772722
 21
599.1017651089992
 31
0.0
  0
LINE
  5
BEB
330
1E
100
AcDbEntity
  8
STEMPEL
100
AcDbLine
 10
146.0235882904514
 20
605.6017651089959
 30
0.0
 11
146.0235882904514
 21
599.1017651089992
 31
0.0
  0
LINE
  5
BEC
330
1E
100
AcDbEntity
  8
STEMPEL
100
AcDbLine
 10
156.3757804346239
 20
605.6017651089959
 30
0.0
 11
156.3757804346239
 21
599.1017651089992
 31
0.0
  0
LINE
  5
BEE
102
{ACAD_REACTORS
330
EC3
102
}
330
1E
100
AcDbEntity
  8
STEMPEL
100
AcDbLine
 10
145.0236626852116
 20
570.1017651089963
 30
0.0
 11
145.0236626852116
 21
567.1017651089963
 31
0.0
  0
LINE
  5
BF0
102
{ACAD_REACTORS
330
EC3
102
}
330
1E
100
AcDbEntity
  8
STEMPEL
100
AcDbLine
 10
166.0236626852115
 20
570.1017651089963
 30
0.0
 11
166.0236626852115
 21
567.1017651089963
 31
0.0
  0
LINE
  5
BF1
330
1E
100
AcDbEntity
  8
STEMPEL
100
AcDbLine
 10
154.7377573585185
 20
594.1017651089977
 30
0.0
 11
161.2995247541768
 21
594.1017651089977
 31
0.0
  0
LWPOLYLINE
  5
BF2
330
1E
100
AcDbEntity
  8
STEMPEL
100
AcDbPolyline
 90
        7
 70
   128
 43
0.0
 10
144.0720114619331
 20
594.1017651089977
 10
144.6339404351972
 20
594.7111030108385
 10
145.1158783747844
 20
595.4385332841278
 10
145.5048629545342
 20
596.2644907780714
 10
145.7904319456407
 20
597.1667603285338
 10
145.9649046114366
 20
598.121074262777
 10
146.0235882904515
 20
599.1017651089982
  0
LWPOLYLINE
  5
BF3
330
1E
100
AcDbEntity
  8
STEMPEL
100
AcDbPolyline
 90
        8
 70
   128
 43
0.0
 10
143.3832220744063
 20
593.1017651089976
 10
144.6369560899691
 20
593.9056126862912
 10
145.2600392640155
 20
594.5054984502839
 10
145.797895869127
 20
595.2450394508786
 10
146.2341834045259
 20
596.1017651089979
 10
146.5556454942212
 20
597.049644249044
 10
146.7525146752852
 20
598.0598760429964
 10
146.8188091772721
 20
599.1017651089982
  0
LWPOLYLINE
  5
BF4
330
1E
100
AcDbEntity
  8
STEMPEL
100
AcDbPolyline
 90
       10
 70
   128
 43
0.0
 10
152.7131772990998
 20
593.1017651089977
 10
153.3491816591007
 20
593.1929185909244
 10
153.9658613484568
 20
593.4636093842822
 10
154.5444788668619
 20
593.9056126862912
 10
155.0674532138137
 20
594.5054984502839
 10
155.5188940784182
 20
595.2450394508786
 10
155.8850846584442
 20
596.1017651089979
 10
156.1548984384191
 20
597.049644249044
 10
156.3201372631708
 20
598.0598760429964
 10
156.3757804346239
 20
599.1017651089982
  0
LWPOLYLINE
  5
BF5
330
1E
100
AcDbEntity
  8
STEMPEL
100
AcDbPolyline
 90
       17
 70
   128
 43
0.0
 10
-156.3757804346238
 20
605.6017651089959
 10
-156.4770930464281
 20
606.9798864926204
 10
-156.7775808023574
 20
608.3110776054001
 10
-157.2670109522786
 20
609.5500063305768
 10
-157.928716539443
 20
610.654482436346
 10
-158.7401639737081
 20
611.5868943135989
 10
-159.6737203859238
 20
612.3154897941603
 10
-160.6975946321499
 20
612.8154574327935
 10
-161.7769199029327
 20
613.0697714312101
 10
-162.8749410706838
 20
613.0697714312101
 10
-163.9542663414665
 20
612.8154574327935
 10
-164.9781405876926
 20
612.3154897941603
 10
-165.9116969999083
 20
611.5868943135989
 10
-166.7231444341734
 20
610.654482436346
 10
-167.3848500213379
 20
609.5500063305768
 10
-167.874280171259
 20
608.3110776054001
 10
-167.9215279644035
 20
608.1017651089963
210
0.0
220
0.0
230
-1.0
  0
LWPOLYLINE
  5
BF6
330
1E
100
AcDbEntity
  8
STEMPEL
100
AcDbPolyline
 90
        8
 70
   128
 43
0.0
 10
-162.0208332628888
 20
613.0918991868196
 10
-163.1372409842599
 20
612.8845920504123
 10
-164.2025202360022
 20
612.4153373229586
 10
-165.1783552190405
 20
611.7010130857901
 10
-166.0296472518984
 20
610.7673120423936
 10
-166.7257771946349
 20
609.6478174072331
 10
-167.2417067533262
 20
608.3827949898947
 10
-167.3070046466157
 20
608.1017651089963
210
0.0
220
0.0
230
-1.0
  0
LWPOLYLINE
  5
BF7
330
1E
100
AcDbEntity
  8
STEMPEL
100
AcDbPolyline
 90
        8
 70
   128
 43
0.0
 10
-186.7182364334976
 20
613.0988915320359
 10
-188.0424458838274
 20
612.9200586249882
 10
-189.3104252810135
 20
612.4697827076639
 10
-190.4751439690991
 20
611.7647649755248
 10
-191.4934013377057
 20
610.8311552591414
 10
-192.327429176968
 20
609.7035821001654
 10
-192.9462925391619
 20
608.4238683432134
 10
-193.034879719267
 20
608.1017651089963
210
0.0
220
0.0
230
-1.0
  0
LWPOLYLINE
  5
BF8
330
1E
100
AcDbEntity
  8
STEMPEL
100
AcDbPolyline
 90
       16
 70
   128
 43
0.0
 10
-180.3938172904802
 20
608.1017651089963
 10
-180.4488385109448
 20
608.3110776054001
 10
-181.0187919921265
 20
609.5500063305768
 10
-181.7893644690826
 20
610.654482436346
 10
-182.7343150203101
 20
611.5868943135989
 10
-183.8214644881303
 20
612.3154897941603
 10
-185.0137913013085
 20
612.8154574327935
 10
-186.2706922002603
 20
613.0697714312101
 10
-187.5493649323586
 20
613.0697714312101
 10
-188.8062658313105
 20
612.8154574327935
 10
-189.9985926444886
 20
612.3154897941603
 10
-191.0857421123088
 20
611.5868943135989
 10
-192.0306926635363
 20
610.654482436346
 10
-192.8012651404924
 20
609.5500063305768
 10
-193.3712186216741
 20
608.3110776054001
 10
-193.4262398421387
 20
608.1017651089963
210
0.0
220
0.0
230
-1.0
  0
LWPOLYLINE
  5
BF9
330
1E
100
AcDbEntity
  8
STEMPEL
100
AcDbPolyline
 90
        8
 70
   128
 43
0.0
 10
-214.2646103164851
 20
613.1014748687706
 10
-215.7059503003629
 20
612.9461734748469
 10
-217.0900312038125
 20
612.5117732278326
 10
-218.3642558163444
 20
611.8147820075575
 10
-219.4802016360743
 20
610.8816865561117
 10
-220.3954609995273
 20
609.7479459407683
 10
-221.0752526383024
 20
608.4566440546987
 10
-221.1813495444097
 20
608.1017651089963
210
0.0
220
0.0
230
-1.0
  0
LWPOLYLINE
  5
BFA
330
1E
100
AcDbEntity
  8
STEMPEL
100
AcDbPolyline
 90
       16
 70
   128
 43
0.0
 10
-207.337270997066
 20
608.1017651089963
 10
-207.3963160396028
 20
608.3110776054001
 10
-208.0079514641952
 20
609.5500063305768
 10
-208.8348775900696
 20
610.654482436346
 10
-209.8489344397978
 20
611.5868943135989
 10
-211.0155895235896
 20
612.3154897941603
 10
-212.2951138018148
 20
612.8154574327935
 10
-213.643934609799
 20
613.0697714312101
 10
-215.0161194726582
 20
613.0697714312101
 10
-216.3649402806424
 20
612.8154574327935
 10
-217.6444645588676
 20
612.3154897941603
 10
-218.8111196426593
 20
611.5868943135989
 10
-219.8251764923876
 20
610.654482436346
 10
-220.652102618262
 20
609.5500063305768
 10
-221.2637380428543
 20
608.3110776054001
 10
-221.3227830853912
 20
608.1017651089963
210
0.0
220
0.0
230
-1.0
  0
LWPOLYLINE
  5
BFB
330
1E
100
AcDbEntity
  8
STEMPEL
100
AcDbPolyline
 90
       16
 70
   128
 43
0.0
 10
249.7100543733576
 20
608.1017651089963
 10
249.6510093308206
 20
608.3110776054001
 10
249.0393739062283
 20
609.5500063305768
 10
248.2124477803539
 20
610.654482436346
 10
247.1983909306256
 20
611.5868943135989
 10
246.0317358468339
 20
612.3154897941603
 10
244.7522115686086
 20
612.8154574327935
 10
243.4033907606245
 20
613.0697714312101
 10
242.0312058977653
 20
613.0697714312101
 10
240.6823850897811
 20
612.8154574327935
 10
239.4028608115558
 20
612.3154897941603
 10
238.2362057277641
 20
611.5868943135989
 10
237.2221488780358
 20
610.654482436346
 10
236.3952227521615
 20
609.5500063305768
 10
235.7835873275691
 20
608.3110776054001
 10
235.7245422850323
 20
608.1017651089963
  0
LWPOLYLINE
  5
BFC
330
1E
100
AcDbEntity
  8
STEMPEL
100
AcDbPolyline
 90
        8
 70
   128
 43
0.0
 10
242.7827150539384
 20
613.1014748687706
 10
241.3413750700605
 20
612.9461734748469
 10
239.957294166611
 20
612.5117732278326
 10
238.683069554079
 20
611.8147820075575
 10
237.5671237343492
 20
610.8816865561117
 10
236.6518643708961
 20
609.7479459407683
 10
235.972072732121
 20
608.4566440546987
 10
235.8659758260138
 20
608.1017651089963
  0
LINE
  5
BFD
330
1E
100
AcDbEntity
  8
STEMPEL
100
AcDbLine
 10
311.023737079972
 20
605.6017651089959
 30
0.0
 11
311.023737079972
 21
599.1017651089992
 31
0.0
  0
LINE
  5
BFE
330
1E
100
AcDbEntity
  8
STEMPEL
100
AcDbLine
 10
319.3599376282831
 20
605.6017651089959
 30
0.0
 11
319.3599376282831
 21
599.1017651089992
 31
0.0
  0
LINE
  5
BFF
330
1E
100
AcDbEntity
  8
STEMPEL
100
AcDbLine
 10
300.6715449357995
 20
605.6017651089959
 30
0.0
 11
300.6715449357995
 21
599.1017651089992
 31
0.0
  0
LINE
  5
C00
330
1E
100
AcDbEntity
  8
STEMPEL
100
AcDbLine
 10
310.2285161931513
 20
605.6017651089959
 30
0.0
 11
310.2285161931513
 21
599.1017651089992
 31
0.0
  0
LINE
  5
C01
102
{ACAD_REACTORS
330
EC3
102
}
330
1E
100
AcDbEntity
  8
MITTEL
100
AcDbLine
 10
299.9236626852115
 20
597.1017651089968
 30
0.0
 11
299.9236626852116
 21
562.1017651089959
 31
0.0
  0
LINE
  5
C04
102
{ACAD_REACTORS
330
EC3
102
}
330
1E
100
AcDbEntity
  8
STEMPEL
100
AcDbLine
 10
291.0236626852115
 20
570.1017651089963
 30
0.0
 11
291.0236626852115
 21
567.1017651089962
 31
0.0
  0
LINE
  5
C05
330
1E
100
AcDbEntity
  8
STEMPEL
100
AcDbLine
 10
302.3318428036497
 20
594.1017651089975
 30
0.0
 11
295.7478006162456
 21
594.1017651089977
 31
0.0
  0
LWPOLYLINE
  5
C06
330
1E
100
AcDbEntity
  8
STEMPEL
100
AcDbPolyline
 90
       10
 70
   128
 43
0.0
 10
-314.5922223677572
 20
593.1017651089977
 10
-313.834472742663
 20
593.1929185909244
 10
-313.0997469564874
 20
593.4636093842822
 10
-312.4103692804543
 20
593.9056126862912
 10
-311.7872861064079
 20
594.5054984502839
 10
-311.2494295012965
 20
595.2450394508786
 10
-310.8131419658975
 20
596.1017651089979
 10
-310.4916798762022
 20
597.049644249044
 10
-310.2948106951382
 20
598.0598760429964
 10
-310.2285161931514
 20
599.1017651089982
210
0.0
220
0.0
230
-1.0
  0
LINE
  5
C07
330
1E
100
AcDbEntity
  8
STEMPEL
100
AcDbLine
 10
321.3115144568016
 20
594.1017651089977
 30
0.0
 11
312.9753139084897
 21
594.1017651089977
 31
0.0
  0
LWPOLYLINE
  5
C08
330
1E
100
AcDbEntity
  8
STEMPEL
100
AcDbPolyline
 90
        7
 70
   128
 43
0.0
 10
-312.9753139084904
 20
594.1017651089977
 10
-312.4133849352262
 20
594.7111030108385
 10
-311.9314469956391
 20
595.4385332841278
 10
-311.5424624158892
 20
596.2644907780714
 10
-311.2568934247828
 20
597.1667603285338
 10
-311.0824207589869
 20
598.121074262777
 10
-311.0237370799719
 20
599.1017651089982
210
0.0
220
0.0
230
-1.0
  0
LWPOLYLINE
  5
C09
330
1E
100
AcDbEntity
  8
STEMPEL
100
AcDbPolyline
 90
       10
 70
   128
 43
0.0
 10
-323.7236438028891
 20
593.1017651089977
 10
-322.9658941777949
 20
593.1929185909244
 10
-322.2311683916193
 20
593.4636093842822
 10
-321.5417907155861
 20
593.9056126862912
 10
-320.9187075415397
 20
594.5054984502839
 10
-320.3808509364283
 20
595.2450394508786
 10
-319.9445634010294
 20
596.1017651089979
 10
-319.6231013113341
 20
597.049644249044
 10
-319.4262321302701
 20
598.0598760429964
 10
-319.3599376282833
 20
599.1017651089982
210
0.0
220
0.0
230
-1.0
  0
LWPOLYLINE
  5
C0A
330
1E
100
AcDbEntity
  8
STEMPEL
100
AcDbPolyline
 90
       17
 70
   128
 43
0.0
 10
300.6715449357997
 20
605.6017651089959
 10
300.5702323239953
 20
606.9798864926204
 10
300.2697445680661
 20
608.3110776054001
 10
299.7803144181449
 20
609.5500063305768
 10
299.1186088309805
 20
610.654482436346
 10
298.3071613967153
 20
611.5868943135989
 10
297.3736049844997
 20
612.3154897941603
 10
296.3497307382736
 20
612.8154574327935
 10
295.2704054674908
 20
613.0697714312101
 10
294.1723842997397
 20
613.0697714312101
 10
293.0930590289569
 20
612.8154574327935
 10
292.0691847827308
 20
612.3154897941603
 10
291.1356283705151
 20
611.5868943135989
 10
290.32418093625
 20
610.654482436346
 10
289.6624753490856
 20
609.5500063305768
 10
289.1730451991644
 20
608.3110776054001
 10
289.12579740602
 20
608.1017651089963
  0
LWPOLYLINE
  5
C0B
330
1E
100
AcDbEntity
  8
STEMPEL
100
AcDbPolyline
 90
        8
 70
   128
 43
0.0
 10
295.0264921075347
 20
613.0918991868196
 10
293.9100843861636
 20
612.8845920504123
 10
292.8448051344213
 20
612.4153373229586
 10
291.8689701513829
 20
611.7010130857901
 10
291.017678118525
 20
610.7673120423936
 10
290.3215481757886
 20
609.6478174072331
 10
289.8056186170972
 20
608.3827949898947
 10
289.7403207238079
 20
608.1017651089963
  0
LWPOLYLINE
  5
C0C
330
1E
100
AcDbEntity
  8
STEMPEL
100
AcDbPolyline
 90
       18
 70
   128
 43
0.0
 10
319.359937628283
 20
605.6017651089959
 10
319.2821977270229
 20
606.9798864926204
 10
319.0516253623411
 20
608.3110776054001
 10
318.676072399576
 20
609.5500063305768
 10
318.1683278444483
 20
610.654482436346
 10
317.5456823288103
 20
611.5868943135989
 10
316.8293392989162
 20
612.3154897941603
 10
316.0436929574903
 20
612.8154574327935
 10
315.2154975484109
 20
613.0697714312101
 10
314.3729562730233
 20
613.0697714312101
 10
313.5447608639438
 20
612.8154574327935
 10
312.759114522518
 20
612.3154897941603
 10
312.0427714926239
 20
611.5868943135989
 10
311.420125976986
 20
610.654482436346
 10
310.9123814218583
 20
609.5500063305768
 10
310.5368284590931
 20
608.3110776054001
 10
310.3062560944112
 20
606.9798864926204
 10
310.2285161931512
 20
605.6017651089959
  0
LWPOLYLINE
  5
C0D
330
1E
100
AcDbEntity
  8
STEMPEL
100
AcDbPolyline
 90
       10
 70
   128
 43
0.0
 10
315.5894477975381
 20
613.101765108999
 10
314.7966204516784
 20
612.9878232565905
 10
314.0278827635327
 20
612.6494597648933
 10
313.3065924387551
 20
612.0969556373822
 10
312.6546655188736
 20
611.3470984323909
 10
312.091910473458
 20
610.4226721816474
 10
311.635426329795
 20
609.3517651089982
 10
311.2990831275983
 20
608.1669161839405
 10
311.0931004848682
 20
606.9041264414996
 10
311.0237370799721
 20
605.6017651089974
  0
LINE
  5
C0E
330
1E
100
AcDbEntity
  8
STEMPEL
100
AcDbLine
 10
327.0437911484722
 20
605.6017651089959
 30
0.0
 11
327.0437911484722
 21
599.1017651089992
 31
0.0
  0
LINE
  5
C0F
330
1E
100
AcDbEntity
  8
STEMPEL
100
AcDbLine
 10
326.1177368119649
 20
605.6017651089959
 30
0.0
 11
326.1177368119649
 21
599.1017651089992
 31
0.0
  0
LINE
  5
C10
330
1E
100
AcDbEntity
  8
STEMPEL
100
AcDbLine
 10
337.3139754441765
 20
605.6017651089959
 30
0.0
 11
337.3139754441765
 21
599.1017651089982
 31
0.0
  0
LINE
  5
C11
330
1E
100
AcDbEntity
  8
STEMPEL
100
AcDbLine
 10
331.8579882974427
 20
605.6017651089959
 30
0.0
 11
331.8579882974427
 21
599.1017651089992
 31
0.0
  0
LINE
  5
C12
330
1E
100
AcDbEntity
  8
STEMPEL
100
AcDbLine
 10
335.356082560876
 20
605.6017651089959
 30
0.0
 11
335.356082560876
 21
599.101765108997
 31
0.0
  0
LINE
  5
C13
330
1E
100
AcDbEntity
  8
STEMPEL
100
AcDbLine
 10
336.3498612744138
 20
605.6017651089959
 30
0.0
 11
336.3498612744138
 21
599.1017651089982
 31
0.0
  0
LINE
  5
C15
330
1E
100
AcDbEntity
  8
STEMPEL
100
AcDbLine
 10
358.5236626852114
 20
594.1017651089977
 30
0.0
 11
343.5236626852115
 21
594.1017651089981
 31
0.0
  0
LINE
  5
C16
330
1E
100
AcDbEntity
  8
STEMPEL
100
AcDbLine
 10
353.5236626852115
 20
593.1017651089977
 30
0.0
 11
358.5236626852117
 21
593.1017651089977
 31
0.0
  0
LINE
  5
C19
102
{ACAD_REACTORS
330
EC3
102
}
330
1E
100
AcDbEntity
  8
STEMPEL
100
AcDbLine
 10
351.0236626852116
 20
570.1017651089962
 30
0.0
 11
351.0236626852117
 21
567.101765108996
 31
0.0
  0
ARC
  5
C1A
330
1E
100
AcDbEntity
  8
STEMPEL
100
AcDbCircle
 10
343.5236626852117
 20
599.1017651089982
 30
0.0
 40
5.0
100
AcDbArc
 50
180.0
 51
269.9999999999968
  0
LWPOLYLINE
  5
C1B
330
1E
100
AcDbEntity
  8
STEMPEL
100
AcDbPolyline
 90
       10
 70
   128
 43
0.0
 10
-342.8199641752073
 20
593.1017651089988
 10
-341.9618911789346
 20
593.1678923235714
 10
-341.1090789793123
 20
593.4204460733017
 10
-340.2883206723953
 20
593.8514917896192
 10
-339.5254023059962
 20
594.4474871600593
 10
-338.8442927504971
 20
595.1897075917798
 10
-338.2663906605514
 20
596.0548344885772
 10
-337.8098521861452
 20
597.0156878592932
 10
-337.4890205545476
 20
598.0420802410054
 10
-337.3139754441765
 20
599.1017651089982
210
0.0
220
0.0
230
-1.0
  0
ARC
  5
C1C
330
1E
100
AcDbEntity
  8
STEMPEL
100
AcDbCircle
 10
343.5236626852117
 20
599.1017651089982
 30
0.0
 40
6.0
100
AcDbArc
 50
180.0
 51
269.9999999999968
  0
LINE
  5
C1F
330
1E
100
AcDbEntity
  8
STEMPEL
100
AcDbLine
 10
334.0115599301112
 20
594.1017651089977
 30
0.0
 11
329.1973627811398
 21
594.1017651089977
 31
0.0
  0
LWPOLYLINE
  5
C20
330
1E
100
AcDbEntity
  8
STEMPEL
100
AcDbPolyline
 90
       10
 70
   128
 43
0.0
 10
-336.6733528240166
 20
593.1017651089977
 10
-335.837173549175
 20
593.1929185909244
 10
-335.0264011584724
 20
593.4636093842822
 10
-334.2656705607296
 20
593.9056126862912
 10
-333.5780961702108
 20
594.5054984502839
 10
-332.9845695868424
 20
595.2450394508786
 10
-332.5031248155212
 20
596.1017651089979
 10
-332.1483903120008
 20
597.049644249044
 10
-331.9311445046666
 20
598.0598760429964
 10
-331.8579882974427
 20
599.1017651089982
210
0.0
220
0.0
230
-1.0
  0
LWPOLYLINE
  5
C21
330
1E
100
AcDbEntity
  8
STEMPEL
100
AcDbPolyline
 90
        7
 70
   128
 43
0.0
 10
-329.1973627811409
 20
594.1017651089977
 10
-328.5772722580766
 20
594.7111030108385
 10
-328.0454521112931
 20
595.4385332841278
 10
-327.6162063115618
 20
596.2644907780714
 10
-327.3010799637645
 20
597.1667603285338
 10
-327.1085487867986
 20
598.1210742627768
 10
-327.0437911484723
 20
599.1017651089982
210
0.0
220
0.0
230
-1.0
  0
LWPOLYLINE
  5
C22
330
1E
100
AcDbEntity
  8
STEMPEL
100
AcDbPolyline
 90
       10
 70
   128
 43
0.0
 10
-330.9331013385389
 20
593.1017651089977
 10
-330.0969220636972
 20
593.1929185909244
 10
-329.2861496729947
 20
593.4636093842822
 10
-328.5254190752518
 20
593.9056126862912
 10
-327.8378446847331
 20
594.5054984502839
 10
-327.2443181013646
 20
595.2450394508786
 10
-326.7628733300434
 20
596.1017651089979
 10
-326.4081388265231
 20
597.049644249044
 10
-326.1908930191889
 20
598.0598760429964
 10
-326.1177368119649
 20
599.1017651089982
210
0.0
220
0.0
230
-1.0
  0
LINE
  5
C23
330
1E
100
AcDbEntity
  8
STEMPEL
100
AcDbLine
 10
339.9344346278471
 20
594.1017651089977
 30
0.0
 11
338.9703204580845
 21
594.1017651089977
 31
0.0
  0
LWPOLYLINE
  5
C24
330
1E
100
AcDbEntity
  8
STEMPEL
100
AcDbPolyline
 90
       10
 70
   128
 43
0.0
 10
-340.8620712919068
 20
593.1017651089977
 10
-340.0039982956341
 20
593.1678923235702
 10
-339.1511860960118
 20
593.4204460733005
 10
-338.3304277890948
 20
593.851491789618
 10
-337.5675094226957
 20
594.4474871600581
 10
-336.8863998671967
 20
595.1897075917787
 10
-336.3084977772509
 20
596.0548344885761
 10
-335.8519593028447
 20
597.0156878592921
 10
-335.5311276712471
 20
598.0420802410043
 10
-335.356082560876
 20
599.101765108997
210
0.0
220
0.0
230
-1.0
  0
LWPOLYLINE
  5
C25
330
1E
100
AcDbEntity
  8
STEMPEL
100
AcDbPolyline
 90
        7
 70
   128
 43
0.0
 10
-338.9703204580847
 20
594.1017651089981
 10
-338.2936185830073
 20
594.7113658368571
 10
-337.6940691593733
 20
595.4389249207688
 10
-337.1877804862237
 20
596.2648947824489
 10
-336.7883551941781
 20
597.1670838076521
 10
-336.5065247789152
 20
598.1212525758459
 10
-336.3498612744137
 20
599.1017651089982
210
0.0
220
0.0
230
-1.0
  0
LINE
  5
C2A
330
1E
100
AcDbEntity
  8
HILF
100
AcDbLine
 10
348.1736626852116
 20
579.701765108998
 30
0.0
 11
348.1736626852116
 21
594.1017651089979
 31
0.0
  0
LINE
  5
C2B
330
1E
100
AcDbEntity
  8
STEMPEL
100
AcDbLine
 10
347.5236626852115
 20
594.1017651089979
 30
0.0
 11
347.5236626852115
 21
580.3517651089979
 31
0.0
  0
LINE
  5
C2C
330
1E
100
AcDbEntity
  8
HILF
100
AcDbLine
 10
352.8736626852116
 20
579.701765108998
 30
0.0
 11
352.8736626852116
 21
594.1017651089979
 31
0.0
  0
LINE
  5
C2D
330
1E
100
AcDbEntity
  8
STEMPEL
100
AcDbLine
 10
353.5236626852115
 20
594.1017651089979
 30
0.0
 11
353.5236626852115
 21
580.3517651089979
 31
0.0
  0
LINE
  5
C2E
330
1E
100
AcDbEntity
  8
STEMPEL
100
AcDbLine
 10
348.1736626852116
 20
579.701765108998
 30
0.0
 11
352.8736626852116
 21
579.701765108998
 31
0.0
  0
LINE
  5
C2F
330
1E
100
AcDbEntity
  8
STEMPEL
100
AcDbLine
 10
347.5236626852115
 20
580.3517651089979
 30
0.0
 11
353.5236626852115
 21
580.3517651089979
 31
0.0
  0
LINE
  5
C30
330
1E
100
AcDbEntity
  8
STEMPEL
100
AcDbLine
 10
347.5236626852115
 20
580.3517651089979
 30
0.0
 11
348.1736626852116
 21
579.701765108998
 31
0.0
  0
LINE
  5
C32
330
1E
100
AcDbEntity
  8
STEMPEL
100
AcDbLine
 10
352.8736626852116
 20
579.701765108998
 30
0.0
 11
353.5236626852115
 21
580.3517651089979
 31
0.0
  0
LINE
  5
C38
330
1E
100
AcDbEntity
  8
STEMPEL
100
AcDbLine
 10
346.5236626852116
 20
594.1017651089981
 30
0.0
 11
346.5236626852116
 21
593.1017651089977
 31
0.0
  0
LINE
  5
C3E
330
1E
100
AcDbEntity
  8
STEMPEL
100
AcDbLine
 10
354.5236626852116
 20
594.1017651089977
 30
0.0
 11
354.5236626852116
 21
593.1017651089977
 31
0.0
  0
LINE
  5
C46
330
1E
100
AcDbEntity
  8
STEMPEL
100
AcDbLine
 10
358.5236626852115
 20
594.1017651089979
 30
0.0
 11
358.5236626852116
 21
593.1017651089977
 31
0.0
  0
LWPOLYLINE
  5
C47
330
1E
100
AcDbEntity
  8
STEMPEL
100
AcDbPolyline
 90
       18
 70
   128
 43
0.0
 10
331.8579882974427
 20
605.6017651089959
 10
331.8091189525264
 20
606.9798864926204
 10
331.6641751047063
 20
608.3110776054001
 10
331.4280926428791
 20
609.5500063305768
 10
331.1089110721324
 20
610.654482436346
 10
330.717499738042
 20
611.5868943135989
 10
330.267187684144
 20
612.3154897941603
 10
329.7733097473446
 20
612.8154574327935
 10
329.2526843484397
 20
613.0697714312101
 10
328.7230407609679
 20
613.0697714312101
 10
328.2024153620629
 20
612.8154574327935
 10
327.7085374252635
 20
612.3154897941603
 10
327.2582253713655
 20
611.5868943135989
 10
326.8668140372751
 20
610.654482436346
 10
326.5476324665284
 20
609.5500063305768
 10
326.3115500047013
 20
608.3110776054001
 10
326.1666061568812
 20
606.9798864926204
 10
326.1177368119649
 20
605.6017651089959
  0
LWPOLYLINE
  5
C48
330
1E
100
AcDbEntity
  8
STEMPEL
100
AcDbPolyline
 90
        9
 70
   128
 43
0.0
 10
329.4508897229559
 20
613.003523353661
 10
328.9618291796871
 20
612.6770904559036
 10
328.5022162117861
 20
612.1318214426463
 10
328.0862664081618
 20
611.3845811995182
 10
327.7268448788703
 20
610.4584814767407
 10
327.4350683439828
 20
609.3821660547704
 10
327.2199612992446
 20
608.1889248071396
 10
327.0881768931371
 20
606.9156640620639
 10
327.0437911484723
 20
605.6017651089974
  0
LWPOLYLINE
  5
C49
330
1E
100
AcDbEntity
  8
STEMPEL
100
AcDbPolyline
 90
       18
 70
   128
 43
0.0
 10
337.3139754441765
 20
605.6017651089959
 10
337.2973070206996
 20
606.9798864926204
 10
337.2478693734393
 20
608.3110776054001
 10
337.1673460421789
 20
609.5500063305768
 10
337.0584791523872
 20
610.654482436346
 10
336.9249760354249
 20
611.5868943135989
 10
336.7713829798208
 20
612.3154897941603
 10
336.6029304128687
 20
612.8154574327935
 10
336.4253547846998
 20
613.0697714312101
 10
336.2447032203527
 20
613.0697714312101
 10
336.0671275921838
 20
612.8154574327935
 10
335.8986750252317
 20
612.3154897941603
 10
335.7450819696276
 20
611.5868943135989
 10
335.6115788526653
 20
610.654482436346
 10
335.5027119628737
 20
609.5500063305768
 10
335.4221886316132
 20
608.3110776054001
 10
335.3727509843529
 20
606.9798864926204
 10
335.356082560876
 20
605.6017651089959
  0
LWPOLYLINE
  5
C4A
330
1E
100
AcDbEntity
  8
STEMPEL
100
AcDbPolyline
 90
        7
 70
   128
 43
0.0
 10
336.8319183592953
 20
612.0638191648358
 10
336.6940893497251
 20
611.3117129278972
 10
336.5752250727589
 20
610.3889993171823
 10
336.4788770708577
 20
609.3232480672781
 10
336.4079241233195
 20
608.146302730457
 10
336.3644862313116
 20
606.8933292240553
 10
336.349861274414
 20
605.6017651089959
  0
LINE
  5
C4B
330
1E
100
AcDbEntity
  8
STEMPEL
100
AcDbLine
 10
148.5236626852116
 20
682.101765108997
 30
0.0
 11
308.5236626852118
 21
682.1017651089976
 31
0.0
  0
LINE
  5
C4C
330
1E
100
AcDbEntity
  8
STEMPEL
100
AcDbLine
 10
253.9631772802684
 20
683.1017651089974
 30
0.0
 11
308.5236626852118
 21
683.1017651089977
 31
0.0
  0
LINE
  5
C4D
330
1E
100
AcDbEntity
  8
STEMPEL
100
AcDbLine
 10
148.5236626852116
 20
683.101765108997
 30
0.0
 11
203.262024857561
 21
683.1017651089972
 31
0.0
  0
ARC
  5
C4E
330
1E
100
AcDbEntity
  8
STEMPEL
100
AcDbCircle
 10
148.5236626852116
 20
677.1017651089972
 30
0.0
 40
5.0
100
AcDbArc
 50
90.0
 51
120.5373500483019
  0
ARC
  5
C4F
330
1E
100
AcDbEntity
  8
STEMPEL
100
AcDbCircle
 10
148.5236626852116
 20
677.1017651089972
 30
0.0
 40
6.0
100
AcDbArc
 50
90.0
 51
120.5128743276211
  0
ARC
  5
C50
330
1E
100
AcDbEntity
  8
STEMPEL
100
AcDbCircle
 10
148.5236626852116
 20
677.1017651089972
 30
0.0
 40
6.0
100
AcDbArc
 50
90.0
 51
90.0
  0
LINE
  5
C51
330
1E
100
AcDbEntity
  8
STEMPEL
100
AcDbLine
 10
225.1651010689144
 20
683.6017651089974
 30
0.0
 11
235.2533685301079
 21
683.6017651089974
 31
0.0
  0
LINE
  5
C52
330
1E
100
AcDbEntity
  8
STEMPEL
100
AcDbLine
 10
205.8601010689145
 20
684.6017651089972
 30
0.0
 11
251.3651010689144
 21
684.6017651089972
 31
0.0
  0
LINE
  5
C53
330
1E
100
AcDbEntity
  8
STEMPEL
100
AcDbLine
 10
216.1131772802674
 20
683.1017651089972
 30
0.0
 11
222.5670248575617
 21
683.1017651089972
 31
0.0
  0
LINE
  5
C54
330
1E
100
AcDbEntity
  8
STEMPEL
100
AcDbLine
 10
216.1131772802674
 20
683.1017651089972
 30
0.0
 11
222.5670248575617
 21
683.1017651089972
 31
0.0
  0
ARC
  5
C55
330
1E
100
AcDbEntity
  8
STEMPEL
100
AcDbCircle
 10
210.7170248575608
 20
684.6017651089972
 30
0.0
 40
2.5
100
AcDbArc
 50
270.0
 51
330.0000000000076
  0
ARC
  5
C56
330
1E
100
AcDbEntity
  8
STEMPEL
100
AcDbCircle
 10
216.1131772802674
 20
684.6017651089972
 30
0.0
 40
2.5
100
AcDbArc
 50
209.9999999999997
 51
270.0
  0
ARC
  5
C57
330
1E
100
AcDbEntity
  8
STEMPEL
100
AcDbCircle
 10
203.262024857561
 20
684.6017651089972
 30
0.0
 40
2.5
100
AcDbArc
 50
270.0
 51
330.0000000000003
  0
ARC
  5
C58
330
1E
100
AcDbEntity
  8
STEMPEL
100
AcDbCircle
 10
208.6581772802684
 20
684.6017651089972
 30
0.0
 40
2.5
100
AcDbArc
 50
209.9999999999925
 51
270.0
  0
LINE
  5
C59
330
1E
100
AcDbEntity
  8
STEMPEL
100
AcDbLine
 10
208.6581772802684
 20
683.1017651089972
 30
0.0
 11
210.7170248575608
 21
683.1017651089972
 31
0.0
  0
LINE
  5
C5A
330
1E
100
AcDbEntity
  8
STEMPEL
100
AcDbLine
 10
208.6581772802684
 20
683.1017651089972
 30
0.0
 11
210.7170248575608
 21
683.1017651089972
 31
0.0
  0
ARC
  5
C5B
330
1E
100
AcDbEntity
  8
STEMPEL
100
AcDbCircle
 10
208.6581772802684
 20
684.6017651089972
 30
0.0
 40
1.5
100
AcDbArc
 50
209.9999999999925
 51
270.0
  0
ARC
  5
C5C
330
1E
100
AcDbEntity
  8
STEMPEL
100
AcDbCircle
 10
203.262024857561
 20
684.6017651089972
 30
0.0
 40
1.5
100
AcDbArc
 50
270.0
 51
330.0000000000003
  0
ARC
  5
C5D
330
1E
100
AcDbEntity
  8
STEMPEL
100
AcDbCircle
 10
205.8601010689145
 20
683.1017651089972
 30
0.0
 40
0.5
100
AcDbArc
 50
90.0
 51
149.9999999999994
  0
LINE
  5
C5E
330
1E
100
AcDbEntity
  8
STEMPEL
100
AcDbLine
 10
205.8601010689145
 20
683.6017651089973
 30
0.0
 11
206.0601010689146
 21
683.6017651089973
 31
0.0
  0
ARC
  5
C5F
330
1E
100
AcDbEntity
  8
STEMPEL
100
AcDbCircle
 10
206.0601010689146
 20
683.1017651089972
 30
0.0
 40
0.5
100
AcDbArc
 50
29.99999999999973
 51
90.0
  0
ARC
  5
C60
330
1E
100
AcDbEntity
  8
STEMPEL
100
AcDbCircle
 10
206.0601010689146
 20
683.1017651089972
 30
0.0
 40
1.5
100
AcDbArc
 50
29.99999999999246
 51
90.0
  0
ARC
  5
C61
330
1E
100
AcDbEntity
  8
STEMPEL
100
AcDbCircle
 10
205.8601010689145
 20
683.1017651089972
 30
0.0
 40
1.5
100
AcDbArc
 50
90.0
 51
149.9999999999994
  0
ARC
  5
C62
330
1E
100
AcDbEntity
  8
STEMPEL
100
AcDbCircle
 10
213.3151010689144
 20
683.1017651089972
 30
0.0
 40
1.5
100
AcDbArc
 50
90.0
 51
150.0000000000075
  0
ARC
  5
C63
330
1E
100
AcDbEntity
  8
STEMPEL
100
AcDbCircle
 10
210.7170248575608
 20
684.6017651089972
 30
0.0
 40
1.5
100
AcDbArc
 50
270.0
 51
330.0000000000076
  0
ARC
  5
C64
330
1E
100
AcDbEntity
  8
STEMPEL
100
AcDbCircle
 10
216.1131772802674
 20
684.6017651089972
 30
0.0
 40
1.5
100
AcDbArc
 50
209.9999999999997
 51
270.0
  0
ARC
  5
C65
330
1E
100
AcDbEntity
  8
STEMPEL
100
AcDbCircle
 10
213.3151010689144
 20
683.1017651089972
 30
0.0
 40
0.5
100
AcDbArc
 50
90.0
 51
150.0000000000075
  0
LINE
  5
C66
330
1E
100
AcDbEntity
  8
STEMPEL
100
AcDbLine
 10
213.3151010689144
 20
683.6017651089974
 30
0.0
 11
213.5151010689145
 21
683.6017651089974
 31
0.0
  0
ARC
  5
C67
330
1E
100
AcDbEntity
  8
STEMPEL
100
AcDbCircle
 10
213.5151010689145
 20
683.1017651089972
 30
0.0
 40
0.5
100
AcDbArc
 50
29.99999999999973
 51
90.0
  0
ARC
  5
C68
330
1E
100
AcDbEntity
  8
STEMPEL
100
AcDbCircle
 10
213.5151010689145
 20
683.1017651089972
 30
0.0
 40
1.5
100
AcDbArc
 50
29.99999999999973
 51
90.0
  0
ARC
  5
C69
330
1E
100
AcDbEntity
  8
STEMPEL
100
AcDbCircle
 10
222.5670248575617
 20
684.6017651089972
 30
0.0
 40
2.5
100
AcDbArc
 50
270.0
 51
329.9999999999922
  0
ARC
  5
C6A
330
1E
100
AcDbEntity
  8
STEMPEL
100
AcDbCircle
 10
225.1651010689144
 20
683.1017651089972
 30
0.0
 40
1.5
100
AcDbArc
 50
90.0
 51
149.9999999999922
  0
ARC
  5
C6B
330
1E
100
AcDbEntity
  8
STEMPEL
100
AcDbCircle
 10
222.5670248575617
 20
684.6017651089972
 30
0.0
 40
1.5
100
AcDbArc
 50
270.0
 51
329.9999999999922
  0
ARC
  5
C6C
330
1E
100
AcDbEntity
  8
STEMPEL
100
AcDbCircle
 10
225.1651010689144
 20
683.1017651089972
 30
0.0
 40
0.5
100
AcDbArc
 50
90.0
 51
149.9999999999922
  0
ARC
  5
C6D
330
1E
100
AcDbEntity
  8
STEMPEL
100
AcDbCircle
 10
248.567024857562
 20
684.6017651089972
 30
0.0
 40
1.5
100
AcDbArc
 50
270.0
 51
329.9999999999922
  0
ARC
  5
C6E
330
1E
100
AcDbEntity
  8
STEMPEL
100
AcDbCircle
 10
248.567024857562
 20
684.6017651089972
 30
0.0
 40
2.5
100
AcDbArc
 50
270.0
 51
329.9999999999922
  0
ARC
  5
C6F
330
1E
100
AcDbEntity
  8
STEMPEL
100
AcDbCircle
 10
237.1898602032112
 20
683.6017651089973
 30
0.0
 40
1.5
100
AcDbArc
 50
194.4775121859299
 51
270.0
  0
ARC
  5
C70
330
1E
100
AcDbEntity
  8
STEMPEL
100
AcDbCircle
 10
237.3786093958104
 20
683.6017651089973
 30
0.0
 40
1.5
100
AcDbArc
 50
270.0
 51
345.5224878140701
  0
ARC
  5
C71
330
1E
100
AcDbEntity
  8
STEMPEL
100
AcDbCircle
 10
242.1131772802679
 20
684.6017651089972
 30
0.0
 40
2.5
100
AcDbArc
 50
209.9999999999997
 51
270.0
  0
ARC
  5
C72
330
1E
100
AcDbEntity
  8
STEMPEL
100
AcDbCircle
 10
242.1131772802679
 20
684.6017651089972
 30
0.0
 40
1.5
100
AcDbArc
 50
209.9999999999997
 51
270.0
  0
ARC
  5
C73
330
1E
100
AcDbEntity
  8
STEMPEL
100
AcDbCircle
 10
237.1898602032112
 20
683.6017651089973
 30
0.0
 40
0.5
100
AcDbArc
 50
194.4775121859299
 51
270.0
  0
ARC
  5
C74
330
1E
100
AcDbEntity
  8
STEMPEL
100
AcDbCircle
 10
235.2533685301079
 20
683.1017651089972
 30
0.0
 40
0.5
100
AcDbArc
 50
14.47751218592986
 51
90.0
  0
ARC
  5
C75
330
1E
100
AcDbEntity
  8
STEMPEL
100
AcDbCircle
 10
235.2533685301079
 20
683.1017651089972
 30
0.0
 40
1.5
100
AcDbArc
 50
14.47751218592986
 51
90.0
  0
ARC
  5
C76
330
1E
100
AcDbEntity
  8
STEMPEL
100
AcDbCircle
 10
239.5151010689145
 20
683.1017651089972
 30
0.0
 40
1.5
100
AcDbArc
 50
29.99999999999973
 51
90.0
  0
ARC
  5
C77
330
1E
100
AcDbEntity
  8
STEMPEL
100
AcDbCircle
 10
239.3151010689144
 20
683.1017651089972
 30
0.0
 40
1.5
100
AcDbArc
 50
90.0
 51
165.5224878140701
  0
ARC
  5
C78
330
1E
100
AcDbEntity
  8
STEMPEL
100
AcDbCircle
 10
237.3786093958104
 20
683.6017651089973
 30
0.0
 40
0.5
100
AcDbArc
 50
270.0
 51
345.5224878140701
  0
LINE
  5
C79
330
1E
100
AcDbEntity
  8
STEMPEL
100
AcDbLine
 10
237.1898602032112
 20
683.1017651089972
 30
0.0
 11
237.3786093958104
 21
683.1017651089972
 31
0.0
  0
ARC
  5
C7A
330
1E
100
AcDbEntity
  8
STEMPEL
100
AcDbCircle
 10
239.3151010689144
 20
683.1017651089972
 30
0.0
 40
0.5
100
AcDbArc
 50
90.0
 51
165.5224878140701
  0
LINE
  5
C7B
330
1E
100
AcDbEntity
  8
STEMPEL
100
AcDbLine
 10
239.3151010689144
 20
683.6017651089974
 30
0.0
 11
239.5151010689145
 21
683.6017651089974
 31
0.0
  0
ARC
  5
C7C
330
1E
100
AcDbEntity
  8
STEMPEL
100
AcDbCircle
 10
239.5151010689145
 20
683.1017651089972
 30
0.0
 40
0.5
100
AcDbArc
 50
29.99999999999973
 51
90.0
  0
LINE
  5
C7D
330
1E
100
AcDbEntity
  8
STEMPEL
100
AcDbLine
 10
242.1131772802679
 20
683.1017651089974
 30
0.0
 11
248.567024857562
 21
683.1017651089974
 31
0.0
  0
LINE
  5
C7E
330
1E
100
AcDbEntity
  8
STEMPEL
100
AcDbLine
 10
242.1131772802679
 20
683.1017651089972
 30
0.0
 11
248.567024857562
 21
683.1017651089972
 31
0.0
  0
ARC
  5
C7F
330
1E
100
AcDbEntity
  8
STEMPEL
100
AcDbCircle
 10
253.9631772802684
 20
684.6017651089972
 30
0.0
 40
2.5
100
AcDbArc
 50
209.9999999999925
 51
270.0
  0
ARC
  5
C80
330
1E
100
AcDbEntity
  8
STEMPEL
100
AcDbCircle
 10
253.9631772802684
 20
684.6017651089972
 30
0.0
 40
1.5
100
AcDbArc
 50
209.9999999999925
 51
270.0
  0
ARC
  5
C81
330
1E
100
AcDbEntity
  8
STEMPEL
100
AcDbCircle
 10
251.1651010689143
 20
683.1017651089972
 30
0.0
 40
1.5
100
AcDbArc
 50
90.0
 51
149.9999999999922
  0
ARC
  5
C82
330
1E
100
AcDbEntity
  8
STEMPEL
100
AcDbCircle
 10
251.1651010689143
 20
683.1017651089972
 30
0.0
 40
0.5
100
AcDbArc
 50
90.0
 51
149.9999999999922
  0
LINE
  5
C83
330
1E
100
AcDbEntity
  8
STEMPEL
100
AcDbLine
 10
251.1651010689143
 20
683.6017651089973
 30
0.0
 11
251.3651010689144
 21
683.6017651089973
 31
0.0
  0
ARC
  5
C84
330
1E
100
AcDbEntity
  8
STEMPEL
100
AcDbCircle
 10
251.3651010689144
 20
683.1017651089972
 30
0.0
 40
0.5
100
AcDbArc
 50
29.99999999999246
 51
90.0
  0
ARC
  5
C85
330
1E
100
AcDbEntity
  8
STEMPEL
100
AcDbCircle
 10
251.3651010689144
 20
683.1017651089972
 30
0.0
 40
1.5
100
AcDbArc
 50
29.99999999999246
 51
90.0
  0
LINE
  5
C86
330
1E
100
AcDbEntity
  8
STEMPEL
100
AcDbLine
 10
335.0430162533389
 20
667.4206025558784
 30
0.0
 11
311.0641623603877
 21
681.4082557220639
 31
0.0
  0
LINE
  5
C87
330
1E
100
AcDbEntity
  8
STEMPEL
100
AcDbLine
 10
335.5563573069197
 20
668.278845669041
 30
0.0
 11
311.5700544314528
 21
682.2708556797295
 31
0.0
  0
ARC
  5
C88
330
1E
100
AcDbEntity
  8
STEMPEL
100
AcDbCircle
 10
308.5236626852118
 20
677.1017651089972
 30
0.0
 40
6.0
100
AcDbArc
 50
59.48712567237889
 51
90.0
  0
ARC
  5
C89
330
1E
100
AcDbEntity
  8
STEMPEL
100
AcDbCircle
 10
308.5236626852118
 20
677.1017651089972
 30
0.0
 40
5.0
100
AcDbArc
 50
59.46264995169811
 51
90.0
  0
ARC
  5
C8A
330
1E
100
AcDbEntity
  8
STEMPEL
100
AcDbCircle
 10
308.5236626852118
 20
677.1017651089972
 30
0.0
 40
6.0
100
AcDbArc
 50
90.0
 51
90.0
  0
ARC
  5
C8B
330
1E
100
AcDbEntity
  8
STEMPEL
100
AcDbCircle
 10
332.5236626852117
 20
663.1017071416821
 30
0.0
 40
5.0
100
AcDbArc
 50
0.0
 51
59.74358352518112
  0
ARC
  5
C8C
330
1E
100
AcDbEntity
  8
STEMPEL
100
AcDbCircle
 10
338.0348062895234
 20
672.6216020914595
 30
0.0
 40
5.0
100
AcDbArc
 50
239.7435628364698
 51
239.9329541615142
  0
ARC
  5
C8D
330
1E
100
AcDbEntity
  8
STEMPEL
100
AcDbCircle
 10
332.5236626852117
 20
663.1017071416821
 30
0.0
 40
6.0
100
AcDbArc
 50
0.0
 51
59.74358352518112
  0
LINE
  5
C8F
330
1E
100
AcDbEntity
  8
STEMPEL
100
AcDbLine
 10
127.849962589283
 20
594.1017651089981
 30
0.0
 11
125.7345551696813
 21
594.1017651089981
 31
0.0
  0
LINE
  5
C97
330
1E
100
AcDbEntity
  8
MITTEL
100
AcDbLine
 10
183.5236626852115
 20
579.101765108997
 30
0.0
 11
183.5236626852114
 21
562.1017651089958
 31
0.0
  0
LINE
  5
C98
330
1E
100
AcDbEntity
  8
STEMPEL
100
AcDbLine
 10
143.5236626852116
 20
591.1017651089962
 30
0.0
 11
143.5236626852116
 21
589.101765108997
 31
0.0
  0
LINE
  5
C99
330
1E
100
AcDbEntity
  8
HILF
100
AcDbLine
 10
142.5236626852116
 20
592.1017651089963
 30
0.0
 11
142.5236626852116
 21
589.101765108997
 31
0.0
  0
LINE
  5
C9A
330
1E
100
AcDbEntity
  8
STEMPEL
100
AcDbLine
 10
133.5236626852116
 20
591.1017651089963
 30
0.0
 11
133.5236626852116
 21
589.101765108997
 31
0.0
  0
LINE
  5
C9B
330
1E
100
AcDbEntity
  8
HILF
100
AcDbLine
 10
134.5236626852116
 20
592.1017651089963
 30
0.0
 11
134.5236626852116
 21
589.101765108997
 31
0.0
  0
LINE
  5
C9C
330
1E
100
AcDbEntity
  8
MITTEL
100
AcDbLine
 10
138.5236626852116
 20
597.1017651089963
 30
0.0
 11
138.5236626852116
 21
562.1017651089958
 31
0.0
  0
LINE
  5
C9D
330
1E
100
AcDbEntity
  8
STEMPEL
100
AcDbLine
 10
133.5236626852116
 20
591.1017651089963
 30
0.0
 11
143.5236626852114
 21
591.1017651089963
 31
0.0
  0
LINE
  5
C9E
330
1E
100
AcDbEntity
  8
STEMPEL
100
AcDbLine
 10
142.5236626852116
 20
592.1017651089963
 30
0.0
 11
134.5236626852116
 21
592.1017651089963
 31
0.0
  0
LINE
  5
C9F
330
1E
100
AcDbEntity
  8
STEMPEL
100
AcDbLine
 10
134.5236626852116
 20
592.1017651089963
 30
0.0
 11
133.5236626852116
 21
591.1017651089963
 31
0.0
  0
LINE
  5
CA0
330
1E
100
AcDbEntity
  8
STEMPEL
100
AcDbLine
 10
143.5236626852116
 20
591.1017651089963
 30
0.0
 11
142.5236626852116
 21
592.1017651089963
 31
0.0
  0
LINE
  5
CA1
330
1E
100
AcDbEntity
  8
STEMPEL
100
AcDbLine
 10
178.5236626852116
 20
573.1017651089963
 30
0.0
 11
178.5236626852116
 21
570.1017651089963
 31
0.0
  0
LINE
  5
CA2
330
1E
100
AcDbEntity
  8
HILF
100
AcDbLine
 10
179.5236626852116
 20
573.1017651089963
 30
0.0
 11
179.5236626852116
 21
570.1017651089963
 31
0.0
  0
LINE
  5
CA3
330
1E
100
AcDbEntity
  8
STEMPEL
100
AcDbLine
 10
188.5236626852116
 20
573.1017651089963
 30
0.0
 11
188.5236626852116
 21
570.1017651089963
 31
0.0
  0
LINE
  5
CA4
330
1E
100
AcDbEntity
  8
HILF
100
AcDbLine
 10
187.5236626852116
 20
573.1017651089963
 30
0.0
 11
187.5236626852116
 21
570.1017651089963
 31
0.0
  0
LINE
  5
CA5
330
1E
100
AcDbEntity
  8
STEMPEL
100
AcDbLine
 10
132.0236626852115
 20
579.101765108997
 30
0.0
 11
132.0236626852114
 21
573.1017651089965
 31
0.0
  0
LINE
  5
CA6
330
1E
100
AcDbEntity
  8
STEMPEL
100
AcDbLine
 10
145.0236626852116
 20
579.101765108997
 30
0.0
 11
145.0236626852116
 21
573.1017651089962
 31
0.0
  0
LINE
  5
CA8
330
1E
100
AcDbEntity
  8
HILF
100
AcDbLine
 10
134.5236626852116
 20
579.101765108997
 30
0.0
 11
134.5236626852116
 21
567.1017651089963
 31
0.0
  0
LINE
  5
CA9
330
1E
100
AcDbEntity
  8
STEMPEL
100
AcDbLine
 10
133.5236626852116
 20
579.1017651089969
 30
0.0
 11
133.5236626852116
 21
567.1017651089963
 31
0.0
  0
LINE
  5
CAA
330
1E
100
AcDbEntity
  8
HILF
100
AcDbLine
 10
142.5236626852116
 20
579.101765108997
 30
0.0
 11
142.5236626852116
 21
567.1017651089963
 31
0.0
  0
LINE
  5
CAB
330
1E
100
AcDbEntity
  8
STEMPEL
100
AcDbLine
 10
143.5236626852116
 20
579.101765108997
 30
0.0
 11
143.5236626852116
 21
567.1017651089963
 31
0.0
  0
LINE
  5
CAC
330
1E
100
AcDbEntity
  8
STEMPEL
100
AcDbLine
 10
135.7092722353456
 20
594.1017651089977
 30
0.0
 11
144.0720114619331
 21
594.1017651089977
 31
0.0
  0
LWPOLYLINE
  5
CAD
330
1E
100
AcDbEntity
  8
STEMPEL
100
AcDbPolyline
 90
        8
 70
   128
 43
0.0
 10
134.2518006392744
 20
593.101765108997
 10
135.5055346548373
 20
593.9056126862904
 10
136.1286178288836
 20
594.5054984502832
 10
136.6664744339951
 20
595.245039450878
 10
137.1027619693941
 20
596.1017651089973
 10
137.4242240590893
 20
597.0496442490433
 10
137.6210932401534
 20
598.0598760429958
 10
137.6873877421402
 20
599.1017651089975
  0
LWPOLYLINE
  5
CAE
330
1E
100
AcDbEntity
  8
STEMPEL
100
AcDbPolyline
 90
       10
 70
   128
 43
0.0
 10
-304.3341480713237
 20
593.1017651089988
 10
-303.6981437113228
 20
593.1929185909256
 10
-303.0814640219666
 20
593.4636093842833
 10
-302.5028465035616
 20
593.9056126862923
 10
-301.9798721566097
 20
594.505498450285
 10
-301.5284312920052
 20
595.2450394508797
 10
-301.1622407119792
 20
596.101765108999
 10
-300.8924269320043
 20
597.0496442490452
 10
-300.7271881072526
 20
598.0598760429976
 10
-300.6715449357995
 20
599.1017651089992
210
0.0
220
0.0
230
-1.0
  0
LINE
  5
CAF
330
1E
100
AcDbEntity
  8
STEMPEL
100
AcDbLine
 10
294.9236626852117
 20
573.1017651089963
 30
0.0
 11
294.9236626852117
 21
570.1017651089967
 31
0.0
  0
LINE
  5
CB0
330
1E
100
AcDbEntity
  8
HILF
100
AcDbLine
 10
295.9236626852117
 20
573.1017651089963
 30
0.0
 11
295.9236626852117
 21
570.1017651089967
 31
0.0
  0
LINE
  5
CB1
330
1E
100
AcDbEntity
  8
HILF
100
AcDbLine
 10
303.9236626852117
 20
573.1017651089963
 30
0.0
 11
303.9236626852117
 21
570.1017651089967
 31
0.0
  0
LINE
  5
CB2
330
1E
100
AcDbEntity
  8
STEMPEL
100
AcDbLine
 10
304.9236626852117
 20
573.1017651089963
 30
0.0
 11
304.9236626852117
 21
570.1017651089967
 31
0.0
  0
LINE
  5
CB3
330
1E
100
AcDbEntity
  8
STEMPEL
100
AcDbLine
 10
304.9236626852115
 20
591.1017651089967
 30
0.0
 11
303.9236626852115
 21
592.1017651089967
 31
0.0
  0
LINE
  5
CB4
330
1E
100
AcDbEntity
  8
STEMPEL
100
AcDbLine
 10
295.9029730300388
 20
591.1017651089967
 30
0.0
 11
304.9236626852112
 21
591.1017651089967
 31
0.0
  0
LINE
  5
CB5
330
1E
100
AcDbEntity
  8
STEMPEL
100
AcDbLine
 10
295.9236626852115
 20
592.1017651089967
 30
0.0
 11
295.8548102261948
 21
592.0329126499801
 31
0.0
  0
LINE
  5
CB6
330
1E
100
AcDbEntity
  8
HILF
100
AcDbLine
 10
303.9236626852115
 20
592.1017651089967
 30
0.0
 11
303.9236626852115
 21
589.1017651089971
 31
0.0
  0
LINE
  5
CB7
330
1E
100
AcDbEntity
  8
HILF
100
AcDbLine
 10
295.9236626852115
 20
592.1017651089966
 30
0.0
 11
295.9236626852115
 21
590.7017651089915
 31
0.0
  0
LINE
  5
CB8
330
1E
100
AcDbEntity
  8
STEMPEL
100
AcDbLine
 10
303.9236626852115
 20
592.1017651089967
 30
0.0
 11
295.9236626852115
 21
592.1017651089967
 31
0.0
  0
LINE
  5
CB9
330
1E
100
AcDbEntity
  8
STEMPEL
100
AcDbLine
 10
304.9236626852115
 20
591.1017651089966
 30
0.0
 11
304.9236626852115
 21
589.1017651089971
 31
0.0
  0
HATCH
  5
CBC
330
1E
100
AcDbEntity
  8
SCHRAFF
100
AcDbHatch
 10
0.0
 20
0.0
 30
0.0
210
0.0
220
0.0
230
1.0
  2
_U
 70
     0
 71
     0
 91
        5
 92
        7
 72
     1
 73
     1
 93
       39
 10
308.5236626852118
 20
683.1017651089974
 42
0.0
 10
253.9631772802684
 20
683.1017651089972
 42
-0.2679491924311848
 10
252.6641391745914
 20
683.8517651089972
 42
0.2859076546239628
 10
251.2651010689142
 20
684.5984280637068
 42
0.2859076546237491
 10
249.8660629632382
 20
683.8517651089972
 42
-0.2679491924311245
 10
248.5670248575615
 20
683.1017651089972
 42
0.0
 10
242.1131772802679
 20
683.1017651089972
 42
-0.2679491924311449
 10
240.8141391745913
 20
683.8517651089972
 42
0.2859076546238214
 10
239.4151010689148
 20
684.5984280637068
 42
0.3607372083888889
 10
237.8627323140866
 20
683.4767651089972
 42
-0.3419987131196436
 10
237.3786093958107
 20
683.1017651089972
 42
0.0
 10
237.1898602032112
 20
683.1017651089972
 42
-0.341998713119513
 10
236.7057372849357
 20
683.4767651089972
 42
0.3419987131196436
 10
235.2533685301079
 20
684.6017651089972
 42
0.0
 10
228.5236626852117
 20
684.6017651089972
 42
0.0
 10
228.5236626852117
 20
683.6017651089973
 42
0.0
 10
235.2533685301079
 20
683.6017651089973
 42
-0.3419987131195064
 10
235.7374914483835
 20
683.2267651089972
 42
0.3596757619904947
 10
237.2842347995109
 20
682.1047369076685
 42
0.3596757619905158
 10
238.8309781506383
 20
683.2267651089972
 42
-0.3419987131196715
 10
239.3151010689142
 20
683.6017651089973
 42
0.0
 10
239.5151010689145
 20
683.6017651089973
 42
-0.267949192431149
 10
239.9481137708067
 20
683.3517651089972
 42
0.2679491924311241
 10
242.1131772802679
 20
682.1017651089975
 42
0.0
 10
248.567024857562
 20
682.1017651089975
 42
0.2679491924310771
 10
250.7320883670228
 20
683.351765108997
 42
-0.2679491924312612
 10
251.1651010689151
 20
683.6017651089973
 42
0.0
 10
251.3651010689144
 20
683.6017651089973
 42
-0.2679491924313018
 10
251.7981137708071
 20
683.3517651089975
 42
0.2679491924311406
 10
253.9631772802683
 20
682.1017651089975
 42
0.0
 10
308.5236626852098
 20
682.1017651089975
 42
-0.1340385084113211
 10
311.0641623603884
 20
681.4082557220634
 42
0.0
 10
335.0430162533386
 20
667.4206025558786
 42
-0.2667503951500854
 10
337.5236626852117
 20
663.1017071416819
 42
0.0
 10
337.5236626852117
 20
658.1017651089974
 42
0.0
 10
338.5236626852119
 20
658.1017651089974
 42
0.0
 10
338.5236626852119
 20
663.1017071416817
 42
0.2662608607120724
 10
335.5563573068865
 20
668.2788456690603
 42
0.0
 10
311.5236626851601
 20
682.2979175317335
 42
0.1316524975848892
 97
        0
 92
        7
 72
     1
 73
     1
 93
        8
 10
338.5236626852119
 20
618.1017651089974
 42
0.0
 10
337.5236626852117
 20
618.1017651089974
 42
0.0
 10
337.5236626852117
 20
599.1017651089982
 42
0.4142135623731166
 10
343.5236626852117
 20
593.1017651089977
 42
0.0
 10
346.5236626852117
 20
593.1017651089977
 42
0.0
 10
346.5236626852116
 20
594.1017651089979
 42
0.0
 10
343.5236626852115
 20
594.1017651089981
 42
-0.4142135623730752
 10
338.5236626852119
 20
599.1017651089982
 42
0.0
 97
        0
 92
        7
 72
     0
 73
     1
 93
        4
 10
358.5236626852115
 20
594.1017651089977
 10
354.5236626852116
 20
594.1017651089977
 10
354.5236626852117
 20
593.1017651089977
 10
358.5236626852116
 20
593.1017651089977
 97
        0
 92
        7
 72
     1
 73
     1
 93
        8
 10
119.5236626852117
 20
599.1017651089982
 42
0.0
 10
119.5236626852117
 20
618.1017651089974
 42
0.0
 10
118.5236626852116
 20
618.1017651089974
 42
0.0
 10
118.5236626852115
 20
599.1017651089982
 42
-0.4142135623730909
 10
113.5236626852117
 20
594.1017651089981
 42
0.0
 10
98.52366268521146
 20
594.1017651089977
 42
0.0
 10
98.52366268521135
 20
593.1017651089977
 42
0.0
 10
113.5236626852117
 20
593.1017651089977
 42
0.4142135623731175
 97
        0
 92
        7
 72
     1
 73
     1
 93
       40
 10
205.4270883670222
 20
683.3517651089972
 42
-0.2679491924310875
 10
205.8601010689144
 20
683.6017651089973
 42
0.0
 10
206.0601010689146
 20
683.6017651089973
 42
-0.2679491924312574
 10
206.4931137708071
 20
683.3517651089975
 42
0.267949192431145
 10
208.6581772802683
 20
682.1017651089972
 42
0.0
 10
210.7170248575608
 20
682.1017651089972
 42
0.2679491924311416
 10
212.882088367022
 20
683.3517651089975
 42
-0.2679491924310647
 10
213.3151010689141
 20
683.6017651089973
 42
0.0
 10
213.5151010689145
 20
683.6017651089973
 42
-0.267949192430994
 10
213.9481137708064
 20
683.3517651089972
 42
0.2679491924311175
 10
216.1131772802675
 20
682.1017651089972
 42
0.0
 10
222.5670248575617
 20
682.1017651089972
 42
0.2679491924310871
 10
224.7320883670225
 20
683.351765108997
 42
-0.2679491924312534
 10
225.1651010689148
 20
683.6017651089973
 42
0.0
 10
228.5236626852117
 20
683.6017651089973
 42
0.0
 10
228.5236626852117
 20
684.6017651089972
 42
0.0
 10
225.1651010689144
 20
684.6017651089972
 42
0.2679491924310706
 10
223.866062963238
 20
683.8517651089972
 42
-0.2679491924311357
 10
222.5670248575613
 20
683.1017651089972
 42
0.0
 10
216.1131772802674
 20
683.1017651089972
 42
-0.2679491924310962
 10
214.8141391745909
 20
683.8517651089972
 42
0.2859076546238522
 10
213.4151010689143
 20
684.5984280637068
 42
0.2859076546238809
 10
212.0160629632376
 20
683.8517651089972
 42
-0.2679491924311237
 10
210.7170248575609
 20
683.1017651089972
 42
0.0
 10
208.6581772802684
 20
683.1017651089972
 42
-0.2679491924311723
 10
207.3591391745915
 20
683.8517651089972
 42
0.2859076546238861
 10
205.9601010689147
 20
684.5984280637068
 42
0.2859076546239122
 10
204.5610629632378
 20
683.8517651089972
 42
-0.267949192431137
 10
203.2620248575611
 20
683.1017651089972
 42
0.0
 10
148.5236626852115
 20
683.1017651089967
 42
0.1316524975836561
 10
145.5236626852879
 20
682.2979175317478
 42
0.0
 10
121.490968063507
 20
668.2788456690428
 42
0.2662608607105233
 10
118.5236626852115
 20
663.1017071416821
 42
0.0
 10
118.5236626852115
 20
658.1017651089974
 42
0.0
 10
119.5236626852117
 20
658.1017651089974
 42
0.0
 10
119.5236626852117
 20
663.1017071416821
 42
-0.2667503951500889
 10
122.0043091170846
 20
667.4206025558784
 42
0.0
 10
145.9831630100255
 20
681.4082557220578
 42
-0.1340385084119114
 10
148.5236626852115
 20
682.1017651089972
 42
0.0
 10
203.262024857561
 20
682.1017651089972
 42
0.2679491924311331
 97
        0
 75
     0
 76
     0
 52
45.0
 41
2.0
 77
     0
 78
     1
 53
45.0
 43
-5.960853689466006
 44
164.5735552008382
 45
-1.414213562373094
 46
1.414213562373095
 79
     0
 47
0.2376111440341236
 98
        5
 10
290.6337403469379
 20
682.8965878919153
 10
338.3144546589292
 20
609.2322930135102
 10
356.8443305585983
 20
593.8843719819232
 10
105.3966535827316
 20
593.4606316507978
 10
155.8149641801414
 20
682.8024241716486
  0
ELLIPSE
  5
CBD
330
1E
100
AcDbEntity
  8
STEMPEL
100
AcDbEllipse
 10
283.3956728543327
 20
650.6017651089979
 30
0.0
 11
0.0
 21
7.5
 31
0.0
210
0.0
220
0.0
230
-1.0
 40
0.8660254037843856
 41
4.712388980384689
 42
6.24459510668465
  0
ELLIPSE
  5
CBE
330
1E
100
AcDbEntity
  8
STEMPEL
100
AcDbEllipse
 10
282.8944958588908
 20
650.6017651089979
 30
0.0
 11
0.0
 21
7.5
 31
0.0
210
0.0
220
0.0
230
-1.0
 40
0.8660254037843856
 41
4.712388980384689
 42
7.853981633974482
  0
ELLIPSE
  5
CBF
330
1E
100
AcDbEntity
  8
STEMPEL
100
AcDbEllipse
 10
282.8944958588908
 20
625.6017651089979
 30
0.0
 11
0.0
 21
-7.5
 31
0.0
210
0.0
220
0.0
230
1.0
 40
0.8660254037843856
 41
4.712388980384689
 42
7.853981633974482
  0
ELLIPSE
  5
CC0
330
1E
100
AcDbEntity
  8
STEMPEL
100
AcDbEllipse
 10
283.3956728543327
 20
625.6017651089979
 30
0.0
 11
0.0
 21
-7.5
 31
0.0
210
0.0
220
0.0
230
1.0
 40
0.8660254037843856
 41
4.712388980384689
 42
6.24459510668465
  0
LINE
  5
CC1
330
1E
100
AcDbEntity
  8
STEMPEL
100
AcDbLine
 10
276.399305330508
 20
650.6017651089979
 30
0.0
 11
276.399305330508
 21
625.6017651089979
 31
0.0
  0
LINE
  5
CC2
330
1E
100
AcDbEntity
  8
STEMPEL
100
AcDbLine
 10
276.9004823259499
 20
650.6017651089979
 30
0.0
 11
276.9004823259499
 21
625.6017651089979
 31
0.0
  0
LINE
  5
CC3
330
1E
100
AcDbEntity
  8
STEMPEL
100
AcDbLine
 10
289.3896863872737
 20
650.6017651089979
 30
0.0
 11
289.3896863872737
 21
625.6017651089995
 31
0.0
  0
LINE
  5
CC4
330
1E
100
AcDbEntity
  8
STEMPEL
100
AcDbLine
 10
326.4467081918748
 20
650.6017651089979
 30
0.0
 11
326.4467081918748
 21
625.6017651090011
 31
0.0
  0
LINE
  5
CC5
330
1E
100
AcDbEntity
  8
STEMPEL
100
AcDbLine
 10
318.9467081918749
 20
650.6017651089979
 30
0.0
 11
318.9467081918749
 21
625.6017651089995
 31
0.0
  0
LINE
  5
CC6
330
1E
100
AcDbEntity
  8
STEMPEL
100
AcDbLine
 10
319.8147722115638
 20
625.6017651089979
 30
0.0
 11
319.8147722115638
 21
650.6017651089995
 31
0.0
  0
ELLIPSE
  5
CC7
330
1E
100
AcDbEntity
  8
STEMPEL
100
AcDbEllipse
 10
323.5647722115636
 20
625.6017651089995
 30
0.0
 11
0.0
 21
-7.499999999999999
 31
0.0
210
0.0
220
0.0
230
1.0
 40
0.4999999999999926
 41
4.712388980384689
 42
6.167183451052224
  0
ELLIPSE
  5
CC8
330
1E
100
AcDbEntity
  8
STEMPEL
100
AcDbEllipse
 10
322.6967081918748
 20
625.6017651089995
 30
0.0
 11
0.0
 21
-7.499999999999999
 31
0.0
210
0.0
220
0.0
230
1.0
 40
0.4999999999999926
 41
4.712388980384689
 42
7.853981633974482
  0
ELLIPSE
  5
CC9
330
1E
100
AcDbEntity
  8
STEMPEL
100
AcDbEllipse
 10
323.5647722115636
 20
650.6017651089979
 30
0.0
 11
0.0
 21
7.499999999999999
 31
0.0
210
0.0
220
0.0
230
-1.0
 40
0.4999999999999926
 41
4.712388980384689
 42
6.167183451052224
  0
ELLIPSE
  5
CCA
330
1E
100
AcDbEntity
  8
STEMPEL
100
AcDbEllipse
 10
322.6967081918748
 20
650.6017651089979
 30
0.0
 11
0.0
 21
7.499999999999999
 31
0.0
210
0.0
220
0.0
230
-1.0
 40
0.4999999999999926
 41
4.712388980384689
 42
7.853981633974482
  0
LINE
  5
CCB
330
1E
100
AcDbEntity
  8
STEMPEL
100
AcDbLine
 10
338.5236626852115
 20
618.1017651089974
 30
0.0
 11
337.5236626852115
 21
618.1017651089974
 31
0.0
  0
LINE
  5
CCC
330
1E
100
AcDbEntity
  8
STEMPEL
100
AcDbLine
 10
338.5236626852115
 20
658.1017651089974
 30
0.0
 11
337.5236626852115
 21
658.1017651089974
 31
0.0
  0
ELLIPSE
  5
CCD
330
1E
100
AcDbEntity
  8
STEMPEL
100
AcDbEllipse
 10
173.6516525160904
 20
650.6017651089979
 30
0.0
 11
0.0
 21
7.5
 31
0.0
210
0.0
220
0.0
230
1.0
 40
0.8660254037843856
 41
4.712388980384689
 42
6.24459510668465
  0
ELLIPSE
  5
CCE
330
1E
100
AcDbEntity
  8
STEMPEL
100
AcDbEllipse
 10
134.3506171785485
 20
650.6017651089979
 30
0.0
 11
0.0
 21
7.499999999999999
 31
0.0
210
0.0
220
0.0
230
1.0
 40
0.4999999999999926
 41
4.712388980384689
 42
7.853981633974482
  0
ELLIPSE
  5
CCF
330
1E
100
AcDbEntity
  8
STEMPEL
100
AcDbEllipse
 10
133.4825531588596
 20
650.6017651089979
 30
0.0
 11
0.0
 21
7.499999999999999
 31
0.0
210
0.0
220
0.0
230
1.0
 40
0.4999999999999926
 41
4.712388980384689
 42
6.167183451052224
  0
ELLIPSE
  5
CD0
330
1E
100
AcDbEntity
  8
STEMPEL
100
AcDbEllipse
 10
133.4825531588596
 20
625.6017651089995
 30
0.0
 11
0.0
 21
-7.499999999999999
 31
0.0
210
0.0
220
0.0
230
-1.0
 40
0.4999999999999926
 41
4.712388980384689
 42
6.167183451052224
  0
ELLIPSE
  5
CD1
330
1E
100
AcDbEntity
  8
STEMPEL
100
AcDbEllipse
 10
134.3506171785485
 20
625.6017651089995
 30
0.0
 11
0.0
 21
-7.499999999999999
 31
0.0
210
0.0
220
0.0
230
-1.0
 40
0.4999999999999926
 41
4.712388980384689
 42
7.853981633974482
  0
LINE
  5
CD2
330
1E
100
AcDbEntity
  8
STEMPEL
100
AcDbLine
 10
130.6006171785485
 20
650.6017651089979
 30
0.0
 11
130.6006171785485
 21
625.6017651090011
 31
0.0
  0
LINE
  5
CD3
330
1E
100
AcDbEntity
  8
STEMPEL
100
AcDbLine
 10
118.5236626852112
 20
618.1017651089974
 30
0.0
 11
119.5236626852114
 21
618.1017651089974
 31
0.0
  0
LINE
  5
CD4
330
1E
100
AcDbEntity
  8
STEMPEL
100
AcDbLine
 10
118.5236626852114
 20
658.1017651089974
 30
0.0
 11
119.5236626852114
 21
658.1017651089974
 31
0.0
  0
LINE
  5
CD5
330
1E
100
AcDbEntity
  8
STEMPEL
100
AcDbLine
 10
137.2325531588596
 20
625.6017651089979
 30
0.0
 11
137.2325531588596
 21
650.6017651089995
 31
0.0
  0
LINE
  5
CD6
330
1E
100
AcDbEntity
  8
STEMPEL
100
AcDbLine
 10
138.1006171785484
 20
650.6017651089979
 30
0.0
 11
138.1006171785484
 21
625.6017651089995
 31
0.0
  0
LINE
  5
CD7
330
1E
100
AcDbEntity
  8
STEMPEL
100
AcDbLine
 10
180.1468430444733
 20
650.6017651089979
 30
0.0
 11
180.1468430444733
 21
625.6017651089979
 31
0.0
  0
LINE
  5
CD8
330
1E
100
AcDbEntity
  8
STEMPEL
100
AcDbLine
 10
167.6576389831495
 20
650.6017651089979
 30
0.0
 11
167.6576389831495
 21
625.6017651089995
 31
0.0
  0
LINE
  5
CD9
330
1E
100
AcDbEntity
  8
STEMPEL
100
AcDbLine
 10
180.6480200399153
 20
650.6017651089979
 30
0.0
 11
180.6480200399153
 21
625.6017651089979
 31
0.0
  0
ELLIPSE
  5
CDA
330
1E
100
AcDbEntity
  8
STEMPEL
100
AcDbEllipse
 10
173.6516525160904
 20
625.6017651089979
 30
0.0
 11
0.0
 21
-7.5
 31
0.0
210
0.0
220
0.0
230
-1.0
 40
0.8660254037843856
 41
4.712388980384689
 42
6.24459510668465
  0
ELLIPSE
  5
CDB
330
1E
100
AcDbEntity
  8
STEMPEL
100
AcDbEllipse
 10
174.1528295115324
 20
625.6017651089979
 30
0.0
 11
0.0
 21
-7.5
 31
0.0
210
0.0
220
0.0
230
-1.0
 40
0.8660254037843856
 41
4.712388980384689
 42
7.853981633974482
  0
ELLIPSE
  5
CDC
330
1E
100
AcDbEntity
  8
STEMPEL
100
AcDbEllipse
 10
174.1528295115324
 20
650.6017651089979
 30
0.0
 11
0.0
 21
7.5
 31
0.0
210
0.0
220
0.0
230
1.0
 40
0.8660254037843856
 41
4.712388980384689
 42
7.853981633974482
  0
ARC
  5
CDD
330
1E
100
AcDbEntity
  8
STEMPEL
100
AcDbCircle
 10
228.5236626852117
 20
650.6017651089979
 30
0.0
 40
7.5
100
AcDbArc
 50
0.0000000000260551
 51
180.000000000013
  0
ARC
  5
CDE
330
1E
100
AcDbEntity
  8
STEMPEL
100
AcDbCircle
 10
228.5236626852116
 20
625.6017651089979
 30
0.0
 40
7.5
100
AcDbArc
 50
180.0
 51
0.0
  0
LINE
  5
CDF
330
1E
100
AcDbEntity
  8
STEMPEL
100
AcDbLine
 10
221.0236626852117
 20
650.6017651089963
 30
0.0
 11
221.0236626852118
 21
625.6017651089979
 31
0.0
  0
LINE
  5
CE0
330
1E
100
AcDbEntity
  8
STEMPEL
100
AcDbLine
 10
236.0236626852117
 20
650.6017651089979
 30
0.0
 11
236.0236626852117
 21
625.6017651089977
 31
0.0
  0
LINE
  5
CE6
330
1E
100
AcDbEntity
  8
STEMPEL
100
AcDbLine
 10
295.7995247541766
 20
593.1017651089977
 30
0.0
 11
347.5236626852115
 21
593.1017651089977
 31
0.0
  0
DIMENSION
  5
CEB
330
1E
100
AcDbEntity
  8
BEM
100
AcDbDimension
  2
*D12
 10
82.34544480432546
 20
573.1017651089955
 30
0.0
 11
75.84544480432538
 21
590.601765108996
 31
0.0
 70
    32
 71
     5
 42
35.0000000000008
  3
Standard
100
AcDbAlignedDimension
 13
162.0236626852115
 23
608.1017651089963
 33
0.0
 14
111.5236626852121
 24
573.1017651089955
 34
0.0
 50
90.0
100
AcDbRotatedDimension
1001
ACAD
1000
DSTYLE
1002
{
1070
    40
1040
2.0
1070
    41
1040
3.5
1070
    42
1040
1.0
1070
    43
1040
7.0
1070
    44
1040
1.0
1070
    73
1070
     0
1070
    74
1070
     0
1070
    77
1070
     1
1070
    78
1070
     8
1070
    79
1070
     2
1070
   140
1040
3.5
1070
   141
1040
1.5
1070
   146
1040
0.5142857142857144
1070
   147
1040
1.5
1070
   172
1070
     1
1070
   178
1070
     1
1070
   179
1070
     2
1070
   271
1070
     2
1070
   272
1070
     2
1070
   284
1070
     8
1070
   285
1070
     8
1070
   286
1070
     8
1002
}
  0
ARC
  5
CEC
330
1E
100
AcDbEntity
  8
STEMPEL
100
AcDbCircle
 10
138.5236626852116
 20
558.790875976542
 30
0.0
 40
30.31088913245485
100
AcDbArc
 50
81.78678929826174
 51
98.21321070173826
  0
ARC
  5
CED
330
1E
100
AcDbEntity
  8
STEMPEL
100
AcDbCircle
 10
132.0284721568283
 20
581.4074594012124
 30
0.0
 40
7.694305707784447
100
AcDbArc
 50
73.65710669401501
 51
106.342893305985
  0
ARC
  5
CEE
330
1E
100
AcDbEntity
  8
STEMPEL
100
AcDbCircle
 10
145.0188532135949
 20
581.4074594012124
 30
0.0
 40
7.694305707784447
100
AcDbArc
 50
73.65710669401501
 51
106.342893305985
  0
ARC
  5
CEF
330
1E
100
AcDbEntity
  8
HILF
100
AcDbCircle
 10
138.5236626852116
 20
559.2033040613356
 30
0.0
 40
22.41111549782308
100
AcDbArc
 50
78.85962783890552
 51
101.1403721610945
  0
ARC
  5
CF0
330
1E
100
AcDbEntity
  8
HILF
100
AcDbCircle
 10
145.0188532135949
 20
575.8532789594672
 30
0.0
 40
5.761140599691502
100
AcDbArc
 50
67.92594526326206
 51
112.0740547367379
  0
ARC
  5
CF1
330
1E
100
AcDbEntity
  8
HILF
100
AcDbCircle
 10
132.0284721568283
 20
575.8532789594672
 30
0.0
 40
5.761140599691502
100
AcDbArc
 50
67.92594526326206
 51
112.0740547367379
  0
POINT
  5
CF2
330
1E
100
AcDbEntity
  8
0
100
AcDbPoint
 10
138.5236626852116
 20
579.1017651089969
 30
0.0
210
0.0000000000000001
220
1.0
230
0.0
  0
LINE
  5
CF3
330
1E
100
AcDbEntity
  8
STEMPEL
100
AcDbLine
 10
131.0236626852116
 20
589.1017651089969
 30
0.0
 11
146.0236626852116
 21
589.1017651089969
 31
0.0
  0
LINE
  5
CF4
330
1E
100
AcDbEntity
  8
STEMPEL
100
AcDbLine
 10
147.183916723056
 20
581.1921216251968
 30
0.0
 11
147.183916723056
 21
588.7908759765415
 31
0.0
  0
LINE
  5
CF5
330
1E
100
AcDbEntity
  8
STEMPEL
100
AcDbLine
 10
142.8537897041338
 20
581.1921216251968
 30
0.0
 11
142.8537897041338
 21
588.7908759765415
 31
0.0
  0
LINE
  5
CF6
330
1E
100
AcDbEntity
  8
STEMPEL
100
AcDbLine
 10
134.1935356662894
 20
581.1921216251968
 30
0.0
 11
134.1935356662894
 21
588.7908759765415
 31
0.0
  0
LINE
  5
CF7
330
1E
100
AcDbEntity
  8
STEMPEL
100
AcDbLine
 10
148.9301777927059
 20
580.5565345745864
 30
0.0
 11
128.1171475777174
 21
580.5565345745864
 31
0.0
  0
LINE
  5
CF8
330
1E
100
AcDbEntity
  8
STEMPEL
100
AcDbLine
 10
148.6736626852116
 20
579.1017651089969
 30
0.0
 11
128.3736626852116
 21
579.1017651089969
 31
0.0
  0
LINE
  5
CF9
330
1E
100
AcDbEntity
  8
STEMPEL
100
AcDbLine
 10
129.8634086473672
 20
581.1921216251968
 30
0.0
 11
129.8634086473672
 21
588.7908759765415
 31
0.0
  0
LINE
  5
CFA
330
1E
100
AcDbEntity
  8
STEMPEL
100
AcDbLine
 10
131.0236626852116
 20
589.1017651089969
 30
0.0
 11
129.8634086473672
 21
588.7908759765415
 31
0.0
  0
LINE
  5
CFB
330
1E
100
AcDbEntity
  8
STEMPEL
100
AcDbLine
 10
147.183916723056
 20
588.7908759765415
 30
0.0
 11
146.0236626852116
 21
589.1017651089969
 31
0.0
  0
LINE
  5
CFC
330
1E
100
AcDbEntity
  8
STEMPEL
100
AcDbLine
 10
148.9301777927059
 20
580.5565345745864
 30
0.0
 11
147.183916723056
 21
581.1921216251968
 31
0.0
  0
LINE
  5
CFD
330
1E
100
AcDbEntity
  8
STEMPEL
100
AcDbLine
 10
129.8634086473672
 20
581.1921216251968
 30
0.0
 11
128.1171475777174
 21
580.5565345745864
 31
0.0
  0
ARC
  5
CFE
330
1E
100
AcDbEntity
  8
STEMPEL
100
AcDbCircle
 10
128.3736626852116
 20
579.8517651089968
 30
0.0
 40
0.7500000000000013
100
AcDbArc
 50
110.0000000000006
 51
269.9999991462263
  0
ARC
  5
CFF
330
1E
100
AcDbEntity
  8
STEMPEL
100
AcDbCircle
 10
148.6736626852116
 20
579.8517651089968
 30
0.0
 40
0.750000000000001
100
AcDbArc
 50
269.9999991462263
 51
69.99999999999935
  0
ARC
  5
D00
330
1E
100
AcDbEntity
  8
STEMPEL
100
AcDbCircle
 10
299.9236626852115
 20
558.7908759765422
 30
0.0
 40
30.31088913245485
100
AcDbArc
 50
81.78678929826174
 51
97.40051944419835
  0
ARC
  5
D02
330
1E
100
AcDbEntity
  8
STEMPEL
100
AcDbCircle
 10
306.4188532135948
 20
581.4074594012127
 30
0.0
 40
7.694305707784447
100
AcDbArc
 50
73.65710669401501
 51
106.342893305985
  0
ARC
  5
D03
330
1E
100
AcDbEntity
  8
HILF
100
AcDbCircle
 10
299.9236626852115
 20
559.2033040613358
 30
0.0
 40
22.41111549782308
100
AcDbArc
 50
78.85962783890552
 51
99.02521875168815
  0
ARC
  5
D04
330
1E
100
AcDbEntity
  8
HILF
100
AcDbCircle
 10
306.4188532135948
 20
575.8532789594674
 30
0.0
 40
5.761140599691502
100
AcDbArc
 50
67.92594526326206
 51
112.0740547367379
  0
POINT
  5
D05
330
1E
100
AcDbEntity
  8
0
100
AcDbPoint
 10
299.9236626852115
 20
579.1017651089971
 30
0.0
210
0.0000000000000001
220
1.0
230
0.0
  0
LINE
  5
D06
330
1E
100
AcDbEntity
  8
STEMPEL
100
AcDbLine
 10
296.0064213059009
 20
589.1017651089971
 30
0.0
 11
307.4236626852115
 21
589.1017651089971
 31
0.0
  0
LINE
  5
D07
330
1E
100
AcDbEntity
  8
STEMPEL
100
AcDbLine
 10
308.5839167230559
 20
581.192121625197
 30
0.0
 11
308.5839167230559
 21
588.7908759765418
 31
0.0
  0
LINE
  5
D08
330
1E
100
AcDbEntity
  8
STEMPEL
100
AcDbLine
 10
304.2537897041337
 20
581.192121625197
 30
0.0
 11
304.2537897041337
 21
588.7908759765418
 31
0.0
  0
LINE
  5
D0A
330
1E
100
AcDbEntity
  8
STEMPEL
100
AcDbLine
 10
310.3301777927058
 20
580.5565345745866
 30
0.0
 11
297.6473329773764
 21
580.5565345745866
 31
0.0
  0
LINE
  5
D0C
330
1E
100
AcDbEntity
  8
STEMPEL
100
AcDbLine
 10
308.5839167230559
 20
588.7908759765418
 30
0.0
 11
307.4236626852115
 21
589.1017651089971
 31
0.0
  0
LINE
  5
D0D
330
1E
100
AcDbEntity
  8
STEMPEL
100
AcDbLine
 10
310.3301777927058
 20
580.5565345745866
 30
0.0
 11
308.5839167230559
 21
581.192121625197
 31
0.0
  0
ARC
  5
D0E
330
1E
100
AcDbEntity
  8
STEMPEL
100
AcDbCircle
 10
310.0736626852115
 20
579.8517651089971
 30
0.0
 40
0.750000000000001
100
AcDbArc
 50
269.9999991462263
 51
69.99999999999935
  0
ARC
  5
DC6
330
1E
100
AcDbEntity
  8
STEMPEL
100
AcDbCircle
 10
310.0736626852115
 20
341.9174298717911
 30
0.0
 40
0.750000000000001
100
AcDbArc
 50
269.9999991462263
 51
69.99999999999935
  0
ARC
  5
DC7
330
1E
100
AcDbEntity
  8
STEMPEL
100
AcDbCircle
 10
289.7736626852116
 20
341.9174298717911
 30
0.0
 40
0.7500000000000013
100
AcDbArc
 50
110.0000000000006
 51
269.9999991462263
  0
LINE
  5
DC8
330
1E
100
AcDbEntity
  8
STEMPEL
100
AcDbLine
 10
291.2634086473673
 20
343.257786387991
 30
0.0
 11
289.5171475777173
 21
342.6221993373806
 31
0.0
  0
LINE
  5
DC9
330
1E
100
AcDbEntity
  8
STEMPEL
100
AcDbLine
 10
310.3301777927059
 20
342.6221993373806
 30
0.0
 11
308.583916723056
 21
343.257786387991
 31
0.0
  0
LINE
  5
DCA
330
1E
100
AcDbEntity
  8
STEMPEL
100
AcDbLine
 10
308.583916723056
 20
350.8565407393358
 30
0.0
 11
307.4236626852116
 21
351.1674298717911
 31
0.0
  0
LINE
  5
DCB
330
1E
100
AcDbEntity
  8
STEMPEL
100
AcDbLine
 10
292.4236626852116
 20
351.1674298717911
 30
0.0
 11
291.2634086473673
 21
350.8565407393358
 31
0.0
  0
LINE
  5
DCC
330
1E
100
AcDbEntity
  8
STEMPEL
100
AcDbLine
 10
291.2634086473673
 20
343.257786387991
 30
0.0
 11
291.2634086473673
 21
350.8565407393358
 31
0.0
  0
LINE
  5
DCD
330
1E
100
AcDbEntity
  8
STEMPEL
100
AcDbLine
 10
310.0736626852115
 20
341.1674298717911
 30
0.0
 11
289.7736626852116
 21
341.1674298717911
 31
0.0
  0
LINE
  5
DCE
330
1E
100
AcDbEntity
  8
STEMPEL
100
AcDbLine
 10
310.3301777927059
 20
342.6221993373806
 30
0.0
 11
289.5171475777173
 21
342.6221993373806
 31
0.0
  0
LINE
  5
DCF
330
1E
100
AcDbEntity
  8
STEMPEL
100
AcDbLine
 10
295.5935356662894
 20
343.257786387991
 30
0.0
 11
295.5935356662894
 21
350.8565407393358
 31
0.0
  0
LINE
  5
DD0
330
1E
100
AcDbEntity
  8
STEMPEL
100
AcDbLine
 10
304.2537897041338
 20
343.257786387991
 30
0.0
 11
304.2537897041338
 21
350.8565407393358
 31
0.0
  0
LINE
  5
DD1
330
1E
100
AcDbEntity
  8
STEMPEL
100
AcDbLine
 10
308.583916723056
 20
343.257786387991
 30
0.0
 11
308.583916723056
 21
350.8565407393358
 31
0.0
  0
LINE
  5
DD2
330
1E
100
AcDbEntity
  8
STEMPEL
100
AcDbLine
 10
292.4236626852116
 20
351.1674298717911
 30
0.0
 11
307.4236626852116
 21
351.1674298717911
 31
0.0
  0
POINT
  5
DD3
330
1E
100
AcDbEntity
  8
0
100
AcDbPoint
 10
299.9236626852116
 20
341.1674298717911
 30
0.0
210
0.0000000000000001
220
1.0
230
0.0
  0
ARC
  5
DD4
330
1E
100
AcDbEntity
  8
HILF
100
AcDbCircle
 10
293.4284721568283
 20
337.9189437222616
 30
0.0
 40
5.761140599691502
100
AcDbArc
 50
67.92594526325932
 51
112.0740547367407
  0
ARC
  5
DD5
330
1E
100
AcDbEntity
  8
HILF
100
AcDbCircle
 10
306.4188532135949
 20
337.9189437222616
 30
0.0
 40
5.761140599691502
100
AcDbArc
 50
67.92594526325932
 51
112.0740547367407
  0
ARC
  5
DD6
330
1E
100
AcDbEntity
  8
HILF
100
AcDbCircle
 10
299.9236626852116
 20
321.26896882413
 30
0.0
 40
22.41111549782308
100
AcDbArc
 50
78.85962783890455
 51
101.1403721610954
  0
ARC
  5
DD7
330
1E
100
AcDbEntity
  8
STEMPEL
100
AcDbCircle
 10
306.4188532135949
 20
343.4731241640067
 30
0.0
 40
7.694305707784447
100
AcDbArc
 50
73.65710669401345
 51
106.3428933059825
  0
ARC
  5
DD8
330
1E
100
AcDbEntity
  8
STEMPEL
100
AcDbCircle
 10
293.4284721568284
 20
343.4731241640067
 30
0.0
 40
7.694305707784447
100
AcDbArc
 50
73.65710669401345
 51
106.3428933059825
  0
ARC
  5
DD9
330
1E
100
AcDbEntity
  8
STEMPEL
100
AcDbCircle
 10
299.9236626852116
 20
320.8565407393363
 30
0.0
 40
30.31088913245485
100
AcDbArc
 50
81.78678929826059
 51
98.2132107017394
  0
LINE
  5
DDA
330
1E
100
AcDbEntity
  8
STEMPEL
100
AcDbLine
 10
304.9236626852116
 20
353.1674298717907
 30
0.0
 11
304.9236626852116
 21
351.1674298717911
 31
0.0
  0
LINE
  5
DDB
330
1E
100
AcDbEntity
  8
STEMPEL
100
AcDbLine
 10
303.9236626852116
 20
354.1674298717908
 30
0.0
 11
295.9236626852116
 21
354.1674298717908
 31
0.0
  0
LINE
  5
DDC
330
1E
100
AcDbEntity
  8
HILF
100
AcDbLine
 10
295.9236626852116
 20
354.1674298717907
 30
0.0
 11
295.9236626852116
 21
351.1674298717912
 31
0.0
  0
LINE
  5
DDD
330
1E
100
AcDbEntity
  8
HILF
100
AcDbLine
 10
303.9236626852116
 20
354.1674298717908
 30
0.0
 11
303.9236626852117
 21
351.1674298717912
 31
0.0
  0
LINE
  5
DDE
330
1E
100
AcDbEntity
  8
STEMPEL
100
AcDbLine
 10
294.9236626852116
 20
353.1674298717908
 30
0.0
 11
294.9236626852116
 21
351.1674298717911
 31
0.0
  0
LINE
  5
DDF
330
1E
100
AcDbEntity
  8
STEMPEL
100
AcDbLine
 10
295.9236626852116
 20
354.1674298717908
 30
0.0
 11
294.9236626852116
 21
353.1674298717908
 31
0.0
  0
LINE
  5
DE0
330
1E
100
AcDbEntity
  8
STEMPEL
100
AcDbLine
 10
294.9236626852116
 20
353.1674298717908
 30
0.0
 11
304.9236626852114
 21
353.1674298717908
 31
0.0
  0
LINE
  5
DE1
330
1E
100
AcDbEntity
  8
STEMPEL
100
AcDbLine
 10
304.9236626852116
 20
353.1674298717908
 30
0.0
 11
303.9236626852116
 21
354.1674298717908
 31
0.0
  0
ARC
  5
DE2
330
1E
100
AcDbEntity
  8
STEMPEL
100
AcDbCircle
 10
173.3736626852115
 20
341.9174298717911
 30
0.0
 40
0.7500000000000013
100
AcDbArc
 50
110.0000000000006
 51
269.9999991462263
  0
LINE
  5
DE3
330
1E
100
AcDbEntity
  8
STEMPEL
100
AcDbLine
 10
174.8634086473671
 20
343.2577863879909
 30
0.0
 11
173.1171475777173
 21
342.6221993373805
 31
0.0
  0
LINE
  5
DE4
330
1E
100
AcDbEntity
  8
STEMPEL
100
AcDbLine
 10
192.0236626852132
 20
350.8994806793594
 30
0.0
 11
191.0236626852115
 21
351.1674298717911
 31
0.0
  0
LINE
  5
DE5
330
1E
100
AcDbEntity
  8
STEMPEL
100
AcDbLine
 10
176.0236626852115
 20
351.1674298717911
 30
0.0
 11
174.8634086473671
 21
350.8565407393356
 31
0.0
  0
LINE
  5
DE6
330
1E
100
AcDbEntity
  8
STEMPEL
100
AcDbLine
 10
174.8634086473671
 20
343.2577863879909
 30
0.0
 11
174.8634086473671
 21
350.8565407393356
 31
0.0
  0
LINE
  5
DE7
330
1E
100
AcDbEntity
  8
STEMPEL
100
AcDbLine
 10
192.0236626852131
 20
341.167429871791
 30
0.0
 11
173.3736626852115
 21
341.1674298717911
 31
0.0
  0
LINE
  5
DE8
330
1E
100
AcDbEntity
  8
STEMPEL
100
AcDbLine
 10
192.0236626852131
 20
342.6221993373804
 30
0.0
 11
173.1171475777173
 21
342.6221993373805
 31
0.0
  0
LINE
  5
DE9
330
1E
100
AcDbEntity
  8
STEMPEL
100
AcDbLine
 10
179.1935356662893
 20
343.2577863879909
 30
0.0
 11
179.1935356662893
 21
350.8565407393356
 31
0.0
  0
LINE
  5
DEA
330
1E
100
AcDbEntity
  8
STEMPEL
100
AcDbLine
 10
187.8537897041337
 20
343.2577863879909
 30
0.0
 11
187.8537897041337
 21
350.8565407393356
 31
0.0
  0
LINE
  5
DEB
330
1E
100
AcDbEntity
  8
STEMPEL
100
AcDbLine
 10
176.0236626852115
 20
351.1674298717911
 30
0.0
 11
191.0236626852115
 21
351.1674298717911
 31
0.0
  0
POINT
  5
DEC
330
1E
100
AcDbEntity
  8
0
100
AcDbPoint
 10
183.5236626852115
 20
341.1674298717911
 30
0.0
210
0.0000000000000001
220
1.0
230
0.0
  0
ARC
  5
DED
330
1E
100
AcDbEntity
  8
HILF
100
AcDbCircle
 10
177.0284721568282
 20
337.9189437222614
 30
0.0
 40
5.761140599691502
100
AcDbArc
 50
67.92594526326206
 51
112.0740547367379
  0
ARC
  5
DEE
330
1E
100
AcDbEntity
  8
HILF
100
AcDbCircle
 10
190.0188532135948
 20
337.9189437222614
 30
0.0
 40
5.761140599691502
100
AcDbArc
 50
69.63568072596782
 51
112.0740547367379
  0
ARC
  5
DEF
330
1E
100
AcDbEntity
  8
HILF
100
AcDbCircle
 10
183.5236626852115
 20
321.2689688241297
 30
0.0
 40
22.41111549782308
100
AcDbArc
 50
78.85962783890615
 51
101.1403721610938
  0
ARC
  5
DF0
330
1E
100
AcDbEntity
  8
STEMPEL
100
AcDbCircle
 10
190.0188532135948
 20
343.4731241640067
 30
0.0
 40
7.694305707784447
100
AcDbArc
 50
74.89685203626312
 51
106.342893305985
  0
ARC
  5
DF1
330
1E
100
AcDbEntity
  8
STEMPEL
100
AcDbCircle
 10
177.0284721568282
 20
343.4731241640067
 30
0.0
 40
7.694305707784447
100
AcDbArc
 50
73.65710669401501
 51
106.342893305985
  0
ARC
  5
DF2
330
1E
100
AcDbEntity
  8
STEMPEL
100
AcDbCircle
 10
183.5236626852115
 20
320.8565407393362
 30
0.0
 40
30.31088913245485
100
AcDbArc
 50
81.78678929826221
 51
98.2132107017378
  0
LINE
  5
DF3
330
1E
100
AcDbEntity
  8
STEMPEL
100
AcDbLine
 10
188.5236626852115
 20
353.1674298717904
 30
0.0
 11
187.5236626852115
 21
354.1674298717904
 31
0.0
  0
LINE
  5
DF4
330
1E
100
AcDbEntity
  8
STEMPEL
100
AcDbLine
 10
188.5236626852115
 20
353.1674298717902
 30
0.0
 11
188.5236626852115
 21
351.167429871791
 31
0.0
  0
LINE
  5
DF5
330
1E
100
AcDbEntity
  8
HILF
100
AcDbLine
 10
187.5236626852115
 20
354.1674298717904
 30
0.0
 11
187.5236626852115
 21
351.1674298717911
 31
0.0
  0
LINE
  5
DF6
330
1E
100
AcDbEntity
  8
STEMPEL
100
AcDbLine
 10
179.5236626852115
 20
354.1674298717904
 30
0.0
 11
178.5236626852115
 21
353.1674298717904
 31
0.0
  0
LINE
  5
DF7
330
1E
100
AcDbEntity
  8
HILF
100
AcDbLine
 10
179.5236626852115
 20
354.1674298717903
 30
0.0
 11
179.5236626852115
 21
351.167429871791
 31
0.0
  0
LINE
  5
DF8
330
1E
100
AcDbEntity
  8
STEMPEL
100
AcDbLine
 10
178.5236626852115
 20
353.1674298717904
 30
0.0
 11
178.5236626852115
 21
351.1674298717911
 31
0.0
  0
LINE
  5
DF9
330
1E
100
AcDbEntity
  8
STEMPEL
100
AcDbLine
 10
178.5236626852115
 20
353.1674298717904
 30
0.0
 11
188.5236626852113
 21
353.1674298717904
 31
0.0
  0
LINE
  5
DFA
330
1E
100
AcDbEntity
  8
STEMPEL
100
AcDbLine
 10
187.5236626852115
 20
354.1674298717904
 30
0.0
 11
179.5236626852115
 21
354.1674298717904
 31
0.0
  0
LINE
  5
DFB
330
1E
100
AcDbEntity
  8
MITTEL
100
AcDbLine
 10
183.5236626852116
 20
359.1674298717903
 30
0.0
 11
183.5236626852116
 21
324.1674298717901
 31
0.0
  0
LINE
  5
DFC
330
1E
100
AcDbEntity
  8
STEMPEL
100
AcDbLine
 10
178.5236626852116
 20
335.1674298717904
 30
0.0
 11
178.5236626852116
 21
332.1674298717905
 31
0.0
  0
LINE
  5
DFD
330
1E
100
AcDbEntity
  8
HILF
100
AcDbLine
 10
179.5236626852116
 20
335.1674298717904
 30
0.0
 11
179.5236626852116
 21
332.1674298717905
 31
0.0
  0
ARC
  5
DFE
330
1E
100
AcDbEntity
  8
STEMPEL
100
AcDbCircle
 10
148.6736626852117
 20
341.9174298717909
 30
0.0
 40
0.750000000000001
100
AcDbArc
 50
269.9999991462263
 51
69.99999999999935
  0
ARC
  5
DFF
330
1E
100
AcDbEntity
  8
STEMPEL
100
AcDbCircle
 10
128.3736626852117
 20
341.9174298717909
 30
0.0
 40
0.7500000000000013
100
AcDbArc
 50
110.0000000000006
 51
269.9999991462263
  0
LINE
  5
E00
330
1E
100
AcDbEntity
  8
STEMPEL
100
AcDbLine
 10
129.8634086473674
 20
343.2577863879908
 30
0.0
 11
128.1171475777175
 21
342.6221993373804
 31
0.0
  0
LINE
  5
E01
330
1E
100
AcDbEntity
  8
STEMPEL
100
AcDbLine
 10
148.930177792706
 20
342.6221993373804
 30
0.0
 11
147.1839167230561
 21
343.2577863879908
 31
0.0
  0
LINE
  5
E02
330
1E
100
AcDbEntity
  8
STEMPEL
100
AcDbLine
 10
147.1839167230561
 20
350.8565407393356
 30
0.0
 11
146.0236626852117
 21
351.1674298717909
 31
0.0
  0
LINE
  5
E03
330
1E
100
AcDbEntity
  8
STEMPEL
100
AcDbLine
 10
131.0236626852117
 20
351.1674298717909
 30
0.0
 11
129.8634086473673
 21
350.8565407393356
 31
0.0
  0
LINE
  5
E04
330
1E
100
AcDbEntity
  8
STEMPEL
100
AcDbLine
 10
129.8634086473673
 20
343.2577863879908
 30
0.0
 11
129.8634086473673
 21
350.8565407393356
 31
0.0
  0
LINE
  5
E05
330
1E
100
AcDbEntity
  8
STEMPEL
100
AcDbLine
 10
148.6736626852117
 20
341.1674298717909
 30
0.0
 11
128.3736626852117
 21
341.1674298717909
 31
0.0
  0
LINE
  5
E06
330
1E
100
AcDbEntity
  8
STEMPEL
100
AcDbLine
 10
148.930177792706
 20
342.6221993373804
 30
0.0
 11
128.1171475777175
 21
342.6221993373804
 31
0.0
  0
LINE
  5
E07
330
1E
100
AcDbEntity
  8
STEMPEL
100
AcDbLine
 10
134.1935356662895
 20
343.2577863879908
 30
0.0
 11
134.1935356662895
 21
350.8565407393356
 31
0.0
  0
LINE
  5
E08
330
1E
100
AcDbEntity
  8
STEMPEL
100
AcDbLine
 10
142.8537897041339
 20
343.2577863879908
 30
0.0
 11
142.8537897041339
 21
350.8565407393356
 31
0.0
  0
LINE
  5
E09
330
1E
100
AcDbEntity
  8
STEMPEL
100
AcDbLine
 10
147.1839167230561
 20
343.2577863879908
 30
0.0
 11
147.1839167230561
 21
350.8565407393356
 31
0.0
  0
LINE
  5
E0A
330
1E
100
AcDbEntity
  8
STEMPEL
100
AcDbLine
 10
131.0236626852117
 20
351.1674298717909
 30
0.0
 11
146.0236626852117
 21
351.1674298717909
 31
0.0
  0
POINT
  5
E0B
330
1E
100
AcDbEntity
  8
0
100
AcDbPoint
 10
138.5236626852117
 20
341.1674298717909
 30
0.0
210
0.0000000000000001
220
1.0
230
0.0
  0
ARC
  5
E0C
330
1E
100
AcDbEntity
  8
HILF
100
AcDbCircle
 10
132.0284721568284
 20
337.9189437222614
 30
0.0
 40
5.761140599691502
100
AcDbArc
 50
67.92594526326206
 51
112.0740547367379
  0
ARC
  5
E0D
330
1E
100
AcDbEntity
  8
HILF
100
AcDbCircle
 10
145.018853213595
 20
337.9189437222614
 30
0.0
 40
5.761140599691502
100
AcDbArc
 50
67.92594526326206
 51
112.0740547367379
  0
ARC
  5
E0E
330
1E
100
AcDbEntity
  8
HILF
100
AcDbCircle
 10
138.5236626852117
 20
321.2689688241297
 30
0.0
 40
22.41111549782308
100
AcDbArc
 50
78.85962783890615
 51
101.1403721610938
  0
ARC
  5
E0F
330
1E
100
AcDbEntity
  8
STEMPEL
100
AcDbCircle
 10
145.018853213595
 20
343.4731241640065
 30
0.0
 40
7.694305707784447
100
AcDbArc
 50
73.65710669401501
 51
106.342893305985
  0
ARC
  5
E10
330
1E
100
AcDbEntity
  8
STEMPEL
100
AcDbCircle
 10
132.0284721568284
 20
343.4731241640065
 30
0.0
 40
7.694305707784447
100
AcDbArc
 50
73.65710669401501
 51
106.342893305985
  0
ARC
  5
E11
330
1E
100
AcDbEntity
  8
STEMPEL
100
AcDbCircle
 10
138.5236626852117
 20
320.8565407393361
 30
0.0
 40
30.31088913245485
100
AcDbArc
 50
81.78678929826221
 51
98.2132107017378
  0
LINE
  5
E12
330
1E
100
AcDbEntity
  8
STEMPEL
100
AcDbLine
 10
143.5236626852117
 20
353.1674298717904
 30
0.0
 11
142.5236626852117
 21
354.1674298717904
 31
0.0
  0
LINE
  5
E13
330
1E
100
AcDbEntity
  8
STEMPEL
100
AcDbLine
 10
134.5236626852117
 20
354.1674298717904
 30
0.0
 11
133.5236626852117
 21
353.1674298717904
 31
0.0
  0
LINE
  5
E14
330
1E
100
AcDbEntity
  8
STEMPEL
100
AcDbLine
 10
142.5236626852117
 20
354.1674298717904
 30
0.0
 11
134.5236626852117
 21
354.1674298717904
 31
0.0
  0
LINE
  5
E15
330
1E
100
AcDbEntity
  8
STEMPEL
100
AcDbLine
 10
133.5236626852117
 20
353.1674298717904
 30
0.0
 11
143.5236626852115
 21
353.1674298717904
 31
0.0
  0
LINE
  5
E16
330
1E
100
AcDbEntity
  8
HILF
100
AcDbLine
 10
134.5236626852117
 20
354.1674298717903
 30
0.0
 11
134.5236626852117
 21
351.1674298717909
 31
0.0
  0
LINE
  5
E17
330
1E
100
AcDbEntity
  8
STEMPEL
100
AcDbLine
 10
133.5236626852117
 20
353.1674298717904
 30
0.0
 11
133.5236626852117
 21
351.1674298717909
 31
0.0
  0
LINE
  5
E18
330
1E
100
AcDbEntity
  8
HILF
100
AcDbLine
 10
142.5236626852117
 20
354.1674298717904
 30
0.0
 11
142.5236626852117
 21
351.1674298717909
 31
0.0
  0
LINE
  5
E19
330
1E
100
AcDbEntity
  8
STEMPEL
100
AcDbLine
 10
143.5236626852117
 20
353.1674298717902
 30
0.0
 11
143.5236626852117
 21
351.1674298717909
 31
0.0
  0
LINE
  5
E4D
330
1E
100
AcDbEntity
  8
STEMPEL
100
AcDbLine
 10
128.804523678667
 20
595.1685960504252
 30
0.0
 11
124.9964440908522
 21
595.1685960504252
 31
0.0
  0
ARC
  5
E4E
330
1E
100
AcDbEntity
  8
STEMPEL
100
AcDbCircle
 10
125.1845551696813
 20
594.6517651089928
 30
0.0
 40
0.5500000000000003
100
AcDbArc
 50
110.0000000000006
 51
270.0
  0
LINE
  5
E4F
330
1E
100
AcDbEntity
  8
STEMPEL
100
AcDbLine
 10
125.961052477785
 20
595.5196847909923
 30
0.0
 11
124.9964440908522
 21
595.1685960504252
 31
0.0
  0
ARC
  5
E50
330
1E
100
AcDbEntity
  8
HILF
100
AcDbCircle
 10
127.4044281507591
 20
591.9604563471765
 30
0.0
 40
3.840760399790701
100
AcDbArc
 50
67.92594526323999
 51
112.07405473676
  0
ARC
  5
E51
330
1E
100
AcDbEntity
  8
HILF
100
AcDbCircle
 10
131.7345551696813
 20
580.8604730817667
 30
0.0
 40
14.94074366520046
100
AcDbArc
 50
100.29090067769
 51
101.1403721611056
  0
LINE
  5
E52
330
1E
100
AcDbEntity
  8
STEMPEL
100
AcDbLine
 10
130.0035342219513
 20
600.7017651089929
 30
0.0
 11
126.7345551696813
 21
600.7017651089929
 31
0.0
  0
LINE
  5
E53
330
1E
100
AcDbEntity
  8
STEMPEL
100
AcDbLine
 10
128.8478038237331
 20
600.4945056873561
 30
0.0
 11
128.8478038237331
 21
595.5196847909923
 31
0.0
  0
LINE
  5
E54
330
1E
100
AcDbEntity
  8
STEMPEL
100
AcDbLine
 10
125.961052477785
 20
600.4945056873561
 30
0.0
 11
125.961052477785
 21
595.5196847909923
 31
0.0
  0
LINE
  5
E55
330
1E
100
AcDbEntity
  8
STEMPEL
100
AcDbLine
 10
126.7345551696813
 20
600.7017651089929
 30
0.0
 11
125.961052477785
 21
600.4945056873561
 31
0.0
  0
ARC
  5
E56
330
1E
100
AcDbEntity
  8
STEMPEL
100
AcDbCircle
 10
127.4044281507591
 20
595.5722279704698
 30
0.0
 40
5.129537138523076
100
AcDbArc
 50
73.65710669401657
 51
106.3428933059834
  0
ARC
  5
E57
330
1E
100
AcDbEntity
  8
STEMPEL
100
AcDbCircle
 10
131.7345551696813
 20
580.494505687356
 30
0.0
 40
20.20725942163691
100
AcDbArc
 50
94.91416948521033
 51
98.21321070173988
  0
ARC
  5
E58
330
1E
100
AcDbEntity
  8
STEMPEL
100
AcDbCircle
 10
138.2845551696813
 20
594.6517651089928
 30
0.0
 40
0.5500000000000009
100
AcDbArc
 50
270.0
 51
69.99999999999935
  0
LINE
  5
E59
330
1E
100
AcDbEntity
  8
STEMPEL
100
AcDbLine
 10
138.4726662485104
 20
595.1685960504252
 30
0.0
 11
137.5080578615775
 21
595.5196847909923
 31
0.0
  0
LINE
  5
E5A
330
1E
100
AcDbEntity
  8
STEMPEL
100
AcDbLine
 10
137.5080578615776
 20
597.4798363808123
 30
0.0
 11
137.5080578615776
 21
595.5196847909923
 31
0.0
  0
LINE
  5
E5B
330
1E
100
AcDbEntity
  8
STEMPEL
100
AcDbLine
 10
138.4726662485104
 20
595.1685960504252
 30
0.0
 11
136.6108783442345
 21
595.1685960504252
 31
0.0
  0
ARC
  5
E5C
330
1E
100
AcDbEntity
  8
HILF
100
AcDbCircle
 10
136.0646821886035
 20
591.9592917852883
 30
0.0
 40
3.841839622940954
100
AcDbArc
 50
67.9324721810082
 51
77.4028413078025
  0
LINE
  5
E5D
330
1E
100
AcDbEntity
  8
MITTEL
100
AcDbLine
 10
131.7345551696813
 20
605.701765108993
 30
0.0
 11
131.7345551696813
 21
577.1017651089969
 31
0.0
  0
LINE
  5
E5E
330
1E
100
AcDbEntity
  8
MITTEL
100
AcDbLine
 10
350.5236626852115
 20
605.7017651089981
 30
0.0
 11
350.5236626852115
 21
573.1017651089963
 31
0.0
  0
ARC
  5
E5F
330
1E
100
AcDbEntity
  8
HILF
100
AcDbCircle
 10
350.5236626852115
 20
580.8604730817717
 30
0.0
 40
14.94074366520046
100
AcDbArc
 50
78.85962783889434
 51
101.1403721611056
  0
ARC
  5
E60
330
1E
100
AcDbEntity
  8
HILF
100
AcDbCircle
 10
346.1935356662893
 20
591.9604563471815
 30
0.0
 40
3.840760399790701
100
AcDbArc
 50
67.92594526323999
 51
112.07405473676
  0
ARC
  5
E61
330
1E
100
AcDbEntity
  8
HILF
100
AcDbCircle
 10
354.8537897041337
 20
591.9592917852932
 30
0.0
 40
3.841839622940954
100
AcDbArc
 50
67.9324721810082
 51
112.0675278189918
  0
ARC
  5
E62
330
1E
100
AcDbEntity
  8
STEMPEL
100
AcDbCircle
 10
350.5236626852115
 20
580.494505687361
 30
0.0
 40
20.20725942163691
100
AcDbArc
 50
81.78678929826011
 51
98.21321070173988
  0
ARC
  5
E63
330
1E
100
AcDbEntity
  8
STEMPEL
100
AcDbCircle
 10
346.1935356662893
 20
595.5722279704748
 30
0.0
 40
5.129537138523076
100
AcDbArc
 50
73.65710669401657
 51
106.3428933059834
  0
LINE
  5
E64
330
1E
100
AcDbEntity
  8
STEMPEL
100
AcDbLine
 10
345.5236626852115
 20
600.7017651089979
 30
0.0
 11
344.7501599933152
 21
600.494505687361
 31
0.0
  0
LINE
  5
E65
330
1E
100
AcDbEntity
  8
STEMPEL
100
AcDbLine
 10
355.5236626852115
 20
600.7017651089979
 30
0.0
 11
356.2971653771078
 21
600.494505687361
 31
0.0
  0
ARC
  5
E66
330
1E
100
AcDbEntity
  8
STEMPEL
100
AcDbCircle
 10
354.8537897041337
 20
595.5722279704748
 30
0.0
 40
5.129537138523076
100
AcDbArc
 50
73.65710669401657
 51
106.3428933059834
  0
LINE
  5
E67
330
1E
100
AcDbEntity
  8
STEMPEL
100
AcDbLine
 10
357.2617737640406
 20
595.1685960504302
 30
0.0
 11
343.7855516063824
 21
595.1685960504302
 31
0.0
  0
LINE
  5
E68
330
1E
100
AcDbEntity
  8
STEMPEL
100
AcDbLine
 10
357.0736626852115
 20
594.1017651089979
 30
0.0
 11
343.9736626852115
 21
594.1017651089979
 31
0.0
  0
LINE
  5
E69
330
1E
100
AcDbEntity
  8
STEMPEL
100
AcDbLine
 10
344.7501599933152
 20
600.494505687361
 30
0.0
 11
344.7501599933152
 21
595.5196847909973
 31
0.0
  0
LINE
  5
E6A
330
1E
100
AcDbEntity
  8
STEMPEL
100
AcDbLine
 10
347.6369113392633
 20
600.494505687361
 30
0.0
 11
347.6369113392633
 21
595.5196847909973
 31
0.0
  0
LINE
  5
E6B
330
1E
100
AcDbEntity
  8
STEMPEL
100
AcDbLine
 10
353.4104140311596
 20
600.494505687361
 30
0.0
 11
353.4104140311596
 21
595.5196847909973
 31
0.0
  0
LINE
  5
E6C
330
1E
100
AcDbEntity
  8
STEMPEL
100
AcDbLine
 10
356.2971653771078
 20
600.494505687361
 30
0.0
 11
356.2971653771078
 21
595.5196847909973
 31
0.0
  0
LINE
  5
E6D
330
1E
100
AcDbEntity
  8
STEMPEL
100
AcDbLine
 10
355.5236626852115
 20
600.7017651089979
 30
0.0
 11
345.5236626852115
 21
600.7017651089979
 31
0.0
  0
LINE
  5
E6E
330
1E
100
AcDbEntity
  8
STEMPEL
100
AcDbLine
 10
344.7501599933152
 20
595.5196847909973
 30
0.0
 11
343.7855516063824
 21
595.1685960504302
 31
0.0
  0
LINE
  5
E6F
330
1E
100
AcDbEntity
  8
STEMPEL
100
AcDbLine
 10
357.2617737640406
 20
595.1685960504302
 30
0.0
 11
356.2971653771077
 21
595.5196847909973
 31
0.0
  0
ARC
  5
E70
330
1E
100
AcDbEntity
  8
STEMPEL
100
AcDbCircle
 10
357.0736626852115
 20
594.6517651089979
 30
0.0
 40
0.5500000000000009
100
AcDbArc
 50
270.0
 51
69.99999999999935
  0
ARC
  5
E71
330
1E
100
AcDbEntity
  8
STEMPEL
100
AcDbCircle
 10
343.9736626852115
 20
594.6517651089979
 30
0.0
 40
0.5500000000000003
100
AcDbArc
 50
110.0000000000006
 51
270.0
  0
HATCH
  5
EC3
330
1E
100
AcDbEntity
  8
SCHRAFF
100
AcDbHatch
 10
0.0
 20
0.0
 30
0.0
210
0.0
220
0.0
230
1.0
  2
NET
 70
     0
 71
     1
 91
        5
 92
        7
 72
     0
 73
     1
 93
        4
 10
351.0236626852116
 20
570.1017651089963
 10
336.7667801184225
 20
570.1017651089962
 10
338.7736800322119
 20
567.1017651089961
 10
351.0236626852117
 20
567.1017651089958
 97
        4
330
BE6
330
9E3
330
4E9
330
C19
 92
        7
 72
     0
 73
     1
 93
        4
 10
336.7667801184225
 20
570.1017651089963
 10
299.9236626852115
 20
570.1017651089963
 10
299.9236626852115
 20
567.1017651089961
 10
338.7736800322119
 20
567.101765108996
 97
        4
330
BE6
330
C01
330
4E9
330
9E3
 92
        7
 72
     0
 73
     1
 93
        4
 10
299.9236626852115
 20
570.1017651089963
 10
291.0236626852115
 20
570.1017651089963
 10
291.0236626852114
 20
567.1017651089961
 10
299.9236626852115
 20
567.1017651089961
 97
        4
330
BE6
330
C04
330
4E9
330
C01
 92
        7
 72
     0
 73
     1
 93
        4
 10
166.0236626852115
 20
570.1017651089963
 10
145.0236626852116
 20
570.1017651089963
 10
145.0236626852116
 20
567.1017651089963
 10
166.0236626852115
 20
567.1017651089962
 97
        4
330
BE6
330
BEE
330
4E9
330
BF0
 92
        7
 72
     0
 73
     1
 93
        4
 10
132.0236626852114
 20
570.1017651089964
 10
106.0236626852115
 20
570.1017651089963
 10
106.0236626852114
 20
567.1017651089962
 10
132.0236626852115
 20
567.1017651089962
 97
        4
330
BC8
330
BCB
330
4E9
330
BCD
 75
     0
 76
     1
 52
45.0
 41
15.0
 77
     0
 78
     2
 53
45.0
 43
0.0
 44
0.0
 45
-1.325825214724776
 46
1.325825214724776
 79
     0
 53
135.0
 43
0.0
 44
0.0
 45
-1.325825214724776
 46
-1.325825214724776
 79
     0
 47
0.2761869211928378
 98
        5
 10
342.163970013547
 20
568.1528982034372
 10
327.7973765117035
 20
568.4290846771066
 10
297.6827879461725
 20
568.7052711507765
 10
160.9238738117046
 20
568.4290846771066
 10
127.7701971032079
 20
568.1528982034372
  0
LINE
  5
ECD
102
{ACAD_REACTORS
330
EE6
102
}
330
1E
100
AcDbEntity
  8
STEMPEL
100
AcDbLine
 10
106.0236626852114
 20
332.1674298717904
 30
0.0
 11
133.5236626852119
 21
332.1674298717905
 31
0.0
  0
LINE
  5
ECE
102
{ACAD_REACTORS
330
EE6
102
}
330
1E
100
AcDbEntity
  8
STEMPEL
100
AcDbLine
 10
143.523662685212
 20
332.1674298717904
 30
0.0
 11
188.4274003614591
 21
332.1674298717905
 31
0.0
  0
LINE
  5
ECF
102
{ACAD_REACTORS
330
EE6
102
}
330
1E
100
AcDbEntity
  8
STEMPEL
100
AcDbLine
 10
268.6199250089638
 20
332.1674298717903
 30
0.0
 11
351.0236626852115
 21
332.1674298717904
 31
0.0
  0
HATCH
  5
EE6
330
1E
100
AcDbEntity
  8
SCHRAFF
100
AcDbHatch
 10
0.0
 20
0.0
 30
0.0
210
0.0
220
0.0
230
1.0
  2
NET
 70
     0
 71
     1
 91
        4
 92
        7
 72
     0
 73
     1
 93
        4
 10
351.0236626852115
 20
332.1674298717903
 10
299.9236626852114
 20
332.1674298717904
 10
299.9236626852114
 20
329.1674298717904
 10
351.0236626852115
 20
329.1674298717904
 97
        4
330
ECF
330
731
330
66B
330
74A
 92
        7
 72
     0
 73
     1
 93
        4
 10
299.9236626852114
 20
332.1674298717903
 10
291.0236626852115
 20
332.1674298717903
 10
291.0236626852115
 20
329.1674298717904
 10
299.9236626852114
 20
329.1674298717904
 97
        4
330
ECF
330
71A
330
66B
330
731
 92
        7
 72
     0
 73
     1
 93
        4
 10
166.0236626852114
 20
332.1674298717904
 10
145.0236626852114
 20
332.1674298717904
 10
145.0236626852114
 20
329.1674298717904
 10
166.0236626852114
 20
329.1674298717904
 97
        4
330
ECE
330
6CA
330
6A4
330
6D8
 92
        7
 72
     0
 73
     1
 93
        4
 10
132.0236626852114
 20
332.1674298717905
 10
106.0236626852114
 20
332.1674298717904
 10
106.0236626852114
 20
329.1674298717904
 10
132.0236626852114
 20
329.1674298717904
 97
        4
330
ECD
330
688
330
681
330
6B8
 75
     0
 76
     1
 52
45.0
 41
15.0
 77
     0
 78
     2
 53
45.0
 43
0.0
 44
0.0
 45
-1.325825214724776
 46
1.325825214724776
 79
     0
 53
135.0
 43
0.0
 44
0.0
 45
-1.325825214724776
 46
-1.325825214724776
 79
     0
 47
0.3712738091292536
 98
        4
 10
311.9803023483505
 20
330.4788116104353
 10
292.6675124710837
 20
330.1075371405513
 10
154.1353937819626
 20
330.8500860803194
 10
127.7660079553993
 20
331.592633064148
  0
LINE
  5
F37
330
1E
100
AcDbEntity
  8
HILF
100
AcDbLine
 10
347.5236626852116
 20
573.101765108998
 30
0.0
 11
347.5236626852116
 21
593.101765108998
 31
0.0
  0
LINE
  5
F38
330
1E
100
AcDbEntity
  8
STEMPEL
100
AcDbLine
 10
348.5236626852115
 20
573.101765108998
 30
0.0
 11
348.5236626852115
 21
593.101765108998
 31
0.0
  0
LINE
  5
F39
330
1E
100
AcDbEntity
  8
STEMPEL
100
AcDbLine
 10
346.5236626852117
 20
579.101765108998
 30
0.0
 11
346.5236626852114
 21
587.101765108998
 31
0.0
  0
LINE
  5
F3A
330
1E
100
AcDbEntity
  8
HILF
100
AcDbLine
 10
353.5236626852115
 20
573.101765108998
 30
0.0
 11
353.5236626852115
 21
593.101765108998
 31
0.0
  0
LINE
  5
F3B
330
1E
100
AcDbEntity
  8
STEMPEL
100
AcDbLine
 10
352.5236626852116
 20
573.101765108998
 30
0.0
 11
352.5236626852116
 21
593.101765108998
 31
0.0
  0
LINE
  5
F3C
330
1E
100
AcDbEntity
  8
STEMPEL
100
AcDbLine
 10
354.5236626852116
 20
579.1017651089982
 30
0.0
 11
354.5236626852114
 21
587.101765108998
 31
0.0
  0
HATCH
  5
F3D
330
1E
100
AcDbEntity
  8
SCHRAFF
100
AcDbHatch
 10
0.0
 20
0.0
 30
0.0
210
0.0
220
0.0
230
1.0
  2
_USER
 70
     0
 71
     0
 91
        4
 92
        7
 72
     0
 73
     1
 93
       12
 10
347.5236626852116
 20
593.101765108998
 10
346.5236626852115
 20
593.101765108998
 10
346.5236626852114
 20
590.101765108998
 10
347.0236626852117
 20
590.101765108998
 10
347.0236626852117
 20
587.101765108998
 10
346.5236626852114
 20
587.101765108998
 10
346.5236626852117
 20
579.101765108998
 10
347.0236626852117
 20
579.101765108998
 10
347.0236626852115
 20
576.1017651089982
 10
346.5236626852117
 20
576.1017651089982
 10
346.5236626852117
 20
573.1017651089977
 10
347.5236626852116
 20
573.1017651089976
 97
        0
 92
        7
 72
     0
 73
     1
 93
        5
 10
348.5236626852115
 20
593.101765108998
 10
347.5236626852116
 20
593.101765108998
 10
347.5236626852116
 20
573.1017651089976
 10
347.7495829196132
 20
573.1017651089976
 10
348.5236626852115
 20
575.3654105629318
 97
        0
 92
        7
 72
     0
 73
     1
 93
        4
 10
353.5236626852115
 20
593.1017651089982
 10
352.5236626852116
 20
593.1017651089982
 10
352.5236626852116
 20
573.1017651089976
 10
353.5236626852115
 20
573.1017651089976
 97
        0
 92
        7
 72
     0
 73
     1
 93
       12
 10
354.5236626852116
 20
593.101765108998
 10
353.5236626852114
 20
593.101765108998
 10
353.5236626852115
 20
573.1017651089976
 10
354.5236626852116
 20
573.1017651089976
 10
354.5236626852116
 20
576.1017651089982
 10
354.0236626852117
 20
576.1017651089982
 10
354.0236626852117
 20
579.1017651089982
 10
354.5236626852116
 20
579.1017651089982
 10
354.5236626852114
 20
587.101765108998
 10
354.0236626852116
 20
587.101765108998
 10
354.0236626852117
 20
590.101765108998
 10
354.5236626852116
 20
590.101765108998
 97
        0
 75
     0
 76
     0
 52
135.0
 41
1.0
 77
     0
 78
     1
 53
135.0
 43
3.523662685211661
 44
70.07822949041195
 45
-0.7071067811865476
 46
-0.7071067811865475
 79
     0
 47
0.0527561546155446
 98
        4
 10
347.1856144242753
 20
591.5025958029469
 10
348.241453657006
 20
591.5025958029469
 10
353.309477077251
 20
591.7663761875694
 10
354.154148018266
 20
591.7136192807858
  0
LINE
  5
F3E
330
1E
100
AcDbEntity
  8
STEMPEL
100
AcDbLine
 10
342.0842192178492
 20
593.101765108998
 30
0.0
 11
341.8741491729359
 21
581.0668602961227
 31
0.0
  0
LINE
  5
F3F
330
1E
100
AcDbEntity
  8
STEMPEL
100
AcDbLine
 10
342.5236626852115
 20
593.1017651089969
 30
0.0
 11
342.3135926402982
 21
581.0668602961227
 31
0.0
  0
LINE
  5
F40
330
1E
100
AcDbEntity
  8
STEMPEL
100
AcDbLine
 10
358.5236626852114
 20
593.1017651089969
 30
0.0
 11
358.8638841348672
 21
573.6104913122158
 31
0.0
  0
ARC
  5
F41
330
1E
100
AcDbEntity
  8
STEMPEL
100
AcDbCircle
 10
340.3138972499854
 20
581.1017651089973
 30
0.0
 40
2.0
100
AcDbArc
 50
270.0
 51
358.9999999999982
  0
ARC
  5
F42
330
1E
100
AcDbEntity
  8
STEMPEL
100
AcDbCircle
 10
339.8744537826231
 20
581.1017651089972
 30
0.0
 40
2.0
100
AcDbArc
 50
270.0
 51
358.9999999999982
  0
LINE
  5
F43
330
1E
100
AcDbEntity
  8
STEMPEL
100
AcDbLine
 10
346.5236626852117
 20
573.1017651089983
 30
0.0
 11
346.5236626852117
 21
576.1017651089982
 31
0.0
  0
LINE
  5
F44
330
1E
100
AcDbEntity
  8
STEMPEL
100
AcDbLine
 10
347.0236626852117
 20
576.101765108998
 30
0.0
 11
347.0236626852117
 21
579.101765108998
 31
0.0
  0
LINE
  5
F45
330
1E
100
AcDbEntity
  8
STEMPEL
100
AcDbLine
 10
347.0236626852117
 20
576.1017651089982
 30
0.0
 11
346.5236626852117
 21
576.1017651089982
 31
0.0
  0
LINE
  5
F46
330
1E
100
AcDbEntity
  8
STEMPEL
100
AcDbLine
 10
347.0236626852117
 20
579.101765108998
 30
0.0
 11
346.5236626852117
 21
579.101765108998
 31
0.0
  0
LINE
  5
F47
330
1E
100
AcDbEntity
  8
STEMPEL
100
AcDbLine
 10
354.5236626852116
 20
573.1017651089983
 30
0.0
 11
354.5236626852116
 21
576.1017651089982
 31
0.0
  0
ARC
  5
F48
330
1E
100
AcDbEntity
  8
STEMPEL
100
AcDbCircle
 10
358.363960287289
 20
573.6017651089971
 30
0.0
 40
0.5
100
AcDbArc
 50
270.0
 51
0.9999999999952489
  0
LINE
  5
F49
330
1E
100
AcDbEntity
  8
STEMPEL
100
AcDbLine
 10
354.0236626852117
 20
576.1017651089982
 30
0.0
 11
354.0236626852117
 21
579.1017651089982
 31
0.0
  0
LINE
  5
F4A
330
1E
100
AcDbEntity
  8
STEMPEL
100
AcDbLine
 10
354.5236626852116
 20
576.1017651089982
 30
0.0
 11
354.0236626852116
 21
576.1017651089982
 31
0.0
  0
LINE
  5
F4B
330
1E
100
AcDbEntity
  8
STEMPEL
100
AcDbLine
 10
354.5236626852116
 20
579.1017651089982
 30
0.0
 11
354.0236626852117
 21
579.1017651089982
 31
0.0
  0
LINE
  5
F4C
330
1E
100
AcDbEntity
  8
STEMPEL
100
AcDbLine
 10
342.0842192178492
 20
593.1017651089985
 30
0.0
 11
358.5236626852114
 21
593.1017651089969
 31
0.0
  0
LINE
  5
F4D
330
1E
100
AcDbEntity
  8
STEMPEL
100
AcDbLine
 10
347.0236626852117
 20
590.101765108998
 30
0.0
 11
346.5236626852115
 21
590.101765108998
 31
0.0
  0
LINE
  5
F4E
330
1E
100
AcDbEntity
  8
STEMPEL
100
AcDbLine
 10
346.5236626852114
 20
590.101765108998
 30
0.0
 11
346.5236626852115
 21
593.101765108998
 31
0.0
  0
LINE
  5
F4F
330
1E
100
AcDbEntity
  8
STEMPEL
100
AcDbLine
 10
347.0236626852117
 20
587.101765108998
 30
0.0
 11
347.0236626852117
 21
590.1017651089983
 31
0.0
  0
LINE
  5
F50
330
1E
100
AcDbEntity
  8
STEMPEL
100
AcDbLine
 10
347.0236626852117
 20
587.101765108998
 30
0.0
 11
346.5236626852115
 21
587.101765108998
 31
0.0
  0
LINE
  5
F51
330
1E
100
AcDbEntity
  8
STEMPEL
100
AcDbLine
 10
354.0236626852117
 20
587.101765108998
 30
0.0
 11
354.0236626852117
 21
590.1017651089983
 31
0.0
  0
LINE
  5
F52
330
1E
100
AcDbEntity
  8
STEMPEL
100
AcDbLine
 10
354.5236626852116
 20
587.101765108998
 30
0.0
 11
354.0236626852117
 21
587.101765108998
 31
0.0
  0
LINE
  5
F53
330
1E
100
AcDbEntity
  8
STEMPEL
100
AcDbLine
 10
354.5236626852116
 20
590.101765108998
 30
0.0
 11
354.0236626852117
 21
590.101765108998
 31
0.0
  0
LINE
  5
F54
330
1E
100
AcDbEntity
  8
STEMPEL
100
AcDbLine
 10
354.5236626852114
 20
590.101765108998
 30
0.0
 11
354.5236626852116
 21
593.101765108998
 31
0.0
  0
HATCH
  5
F55
330
1E
100
AcDbEntity
  8
SCHRAFF
100
AcDbHatch
 10
0.0
 20
0.0
 30
0.0
210
0.0
220
0.0
230
1.0
  2
_USER
 70
     0
 71
     0
 91
        5
 92
        7
 72
     1
 73
     1
 93
       13
 10
291.0236626852116
 20
573.1017651089969
 42
0.0
 10
346.5236626852117
 20
573.1017651089971
 42
0.0
 10
346.5236626852117
 20
576.1017651089982
 42
0.0
 10
347.0236626852117
 20
576.1017651089982
 42
0.0
 10
347.0236626852117
 20
579.101765108998
 42
0.0
 10
346.5236626852117
 20
579.101765108998
 42
0.0
 10
346.5236626852115
 20
586.6746978762531
 42
0.0
 10
342.4835348052606
 20
590.8028404062865
 42
0.0
 10
342.3135926402982
 20
581.0668602961227
 42
-0.4091108014277168
 10
340.3138972499854
 20
579.1017651089974
 42
0.0
 10
296.5236626852115
 20
579.101765108997
 42
0.0
 10
295.0236626852106
 20
608.1017651089974
 42
0.0
 10
292.5236626852106
 20
608.1017651089971
 42
0.0
 97
        0
 92
        7
 72
     0
 73
     1
 93
        6
 10
145.5236626852111
 20
579.101765108997
 10
145.5236626852111
 20
573.1017651089957
 10
166.0236626852115
 20
573.1017651089959
 10
164.5236626852107
 20
608.1017651089971
 10
162.0236626852111
 20
608.101765108997
 10
160.5236626852115
 20
579.1017651089971
 97
        0
 92
        7
 72
     1
 73
     1
 93
        6
 10
131.5236626852111
 20
573.1017651089955
 42
0.0
 10
131.5236626852113
 20
579.1017651089969
 42
0.0
 10
111.5236626852121
 20
579.1017651089969
 42
0.414213562373094
 10
111.0236626852121
 20
578.6017651089969
 42
0.0
 10
111.0236626852121
 20
573.6017651089955
 42
0.4142135623730971
 10
111.5236626852121
 20
573.1017651089955
 42
0.0
 97
        0
 92
        7
 72
     1
 73
     1
 93
       13
 10
358.5236626852114
 20
593.1017651089969
 42
0.0
 10
354.5236626852116
 20
593.1017651089973
 42
0.0
 10
354.5236626852114
 20
590.101765108998
 42
0.0
 10
354.0236626852116
 20
590.101765108998
 42
0.0
 10
354.0236626852117
 20
587.101765108998
 42
0.0
 10
354.5236626852114
 20
587.101765108998
 42
0.0
 10
354.5236626852116
 20
579.1017651089982
 42
0.0
 10
354.0236626852117
 20
579.1017651089982
 42
0.0
 10
354.0236626852117
 20
576.1017651089982
 42
0.0
 10
354.5236626852117
 20
576.1017651089982
 42
0.0
 10
354.5236626852116
 20
573.1017651089972
 42
0.0
 10
358.363960287289
 20
573.1017651089971
 42
0.4193348017583757
 10
358.8638841348672
 20
573.6104913122158
 42
0.0
 97
        0
 92
       23
 72
     0
 73
     1
 93
        8
 10
342.5236626852115
 20
593.1017651089984
 10
342.4835348052607
 20
590.8028404062865
 10
346.5236626852114
 20
586.6746978762533
 10
346.5236626852114
 20
587.1017651089982
 10
347.0236626852117
 20
587.101765108998
 10
347.0236626852117
 20
590.101765108998
 10
346.5236626852114
 20
590.101765108998
 10
346.5236626852115
 20
593.101765108998
 97
        0
 75
     0
 76
     0
 52
45.0
 41
5.0
 77
     0
 78
     1
 53
45.0
 43
27.09527301698364
 44
103.453059346298
 45
-3.535533905932737
 46
3.535533905932737
 79
     0
 47
0.2836031840932441
 98
        5
 10
292.9089084827161
 20
591.8479633961924
 10
152.4776985454353
 20
576.2497883399437
 10
119.2848661642959
 20
575.9661846792762
 10
357.3086755836003
 20
584.1906770068105
 10
345.3932988613065
 20
592.1315670568601
  0
LINE
  5
F56
330
1E
100
AcDbEntity
  8
STEMPEL
100
AcDbLine
 10
162.0236626852107
 20
608.1017651089971
 30
0.0
 11
295.0236626852106
 21
608.1017651089971
 31
0.0
  0
LINE
  5
F57
330
1E
100
AcDbEntity
  8
STEMPEL
100
AcDbLine
 10
111.5236626852121
 20
573.1017651089955
 30
0.0
 11
133.5236626852116
 21
573.1017651089956
 31
0.0
  0
LINE
  5
F58
330
1E
100
AcDbEntity
  8
STEMPEL
100
AcDbLine
 10
292.5236626852107
 20
608.1017651089971
 30
0.0
 11
291.0236626852116
 21
573.1017651089967
 31
0.0
  0
LINE
  5
F59
330
1E
100
AcDbEntity
  8
STEMPEL
100
AcDbLine
 10
295.0236626852106
 20
608.1017651089971
 30
0.0
 11
296.5236626852115
 21
579.1017651089971
 31
0.0
  0
LINE
  5
F5A
330
1E
100
AcDbEntity
  8
STEMPEL
100
AcDbLine
 10
296.5236626852115
 20
579.1017651089971
 30
0.0
 11
340.3138972499854
 21
579.1017651089974
 31
0.0
  0
LINE
  5
F5B
330
1E
100
AcDbEntity
  8
STEMPEL
100
AcDbLine
 10
162.023662685211
 20
608.1017651089953
 30
0.0
 11
160.5236626852115
 21
579.1017651089971
 31
0.0
  0
LINE
  5
F5C
330
1E
100
AcDbEntity
  8
STEMPEL
100
AcDbLine
 10
164.5236626852107
 20
608.1017651089971
 30
0.0
 11
166.0236626852116
 21
573.1017651089957
 31
0.0
  0
LINE
  5
F5D
330
1E
100
AcDbEntity
  8
STEMPEL
100
AcDbLine
 10
111.5236626852121
 20
579.1017651089969
 30
0.0
 11
160.5236626852115
 21
579.1017651089971
 31
0.0
  0
LINE
  5
F5E
330
1E
100
AcDbEntity
  8
STEMPEL
100
AcDbLine
 10
142.9438531612508
 20
593.1017651089964
 30
0.0
 11
142.9690830678787
 21
591.6563447263292
 31
0.0
  0
LINE
  5
F5F
330
1E
100
AcDbEntity
  8
STEMPEL
100
AcDbLine
 10
133.5572744857976
 20
593.1017651089973
 30
0.0
 11
133.5572744857976
 21
591.1353769095824
 31
0.0
  0
LINE
  5
F60
330
1E
100
AcDbEntity
  8
STEMPEL
100
AcDbLine
 10
120.713109229344
 20
593.1017651089982
 30
0.0
 11
120.4687383203494
 21
579.1017651089969
 31
0.0
  0
LINE
  5
F61
330
1E
100
AcDbEntity
  8
STEMPEL
100
AcDbLine
 10
111.0236626852121
 20
573.6017651089955
 30
0.0
 11
111.0236626852121
 21
578.6017651089969
 31
0.0
  0
ARC
  5
F62
330
1E
100
AcDbEntity
  8
STEMPEL
100
AcDbCircle
 10
111.5236626852121
 20
573.6017651089955
 30
0.0
 40
0.5
100
AcDbArc
 50
180.0
 51
270.0
  0
ARC
  5
F63
330
1E
100
AcDbEntity
  8
STEMPEL
100
AcDbCircle
 10
111.5236626852121
 20
578.6017651089969
 30
0.0
 40
0.5
100
AcDbArc
 50
90.0
 51
180.0
  0
LINE
  5
F64
330
1E
100
AcDbEntity
  8
STEMPEL
100
AcDbLine
 10
131.5236626852113
 20
579.1017651089974
 30
0.0
 11
131.5236626852111
 21
573.1017651089953
 31
0.0
  0
LINE
  5
F66
330
1E
100
AcDbEntity
  8
STEMPEL
100
AcDbLine
 10
145.5236626852111
 20
579.1017651089974
 30
0.0
 11
145.5236626852111
 21
573.1017651089955
 31
0.0
  0
LINE
  5
F68
330
1E
100
AcDbEntity
  8
STEMPEL
100
AcDbLine
 10
120.713109229344
 20
593.1017651089982
 30
0.0
 11
142.9438531612508
 21
593.1017651089964
 31
0.0
  0
LINE
  5
F7B
330
1E
100
AcDbEntity
  8
STEMPEL
100
AcDbLine
 10
143.5236626852116
 20
573.1017651089957
 30
0.0
 11
358.363960287289
 21
573.1017651089971
 31
0.0
  0
ENDSEC
  0
SECTION
  2
OBJECTS
  0
DICTIONARY
  5
C
330
0
100
AcDbDictionary
281
     1
  3
ACAD_COLOR
350
11A
  3
ACAD_GROUP
350
D
  3
ACAD_LAYOUT
350
19
  3
ACAD_MATERIAL
350
119
  3
ACAD_MLINESTYLE
350
16
  3
ACAD_PLOTSETTINGS
350
18
  3
ACAD_PLOTSTYLENAME
350
E
  3
AcDbVariableDictionary
350
125
  0
DICTIONARY
  5
DB
330
1E
100
AcDbDictionary
280
     1
281
     1
  3
ACAD_LAYOUTSELFREF
360
10F
  0
DICTIONARY
  5
DD
330
1A
100
AcDbDictionary
280
     1
281
     1
  3
ACAD_LAYOUTSELFREF
360
10E
  0
DICTIONARY
  5
11A
102
{ACAD_REACTORS
330
C
102
}
330
C
100
AcDbDictionary
281
     1
  0
DICTIONARY
  5
D
102
{ACAD_REACTORS
330
C
102
}
330
C
100
AcDbDictionary
281
     1
  0
DICTIONARY
  5
19
102
{ACAD_REACTORS
330
C
102
}
330
C
100
AcDbDictionary
281
     1
  3
Layout1
350
1D
  3
Model
350
21
  0
DICTIONARY
  5
119
102
{ACAD_REACTORS
330
C
102
}
330
C
100
AcDbDictionary
281
     1
  0
DICTIONARY
  5
16
102
{ACAD_REACTORS
330
C
102
}
330
C
100
AcDbDictionary
281
     1
  3
Standard
350
17
  0
DICTIONARY
  5
18
102
{ACAD_REACTORS
330
C
102
}
330
C
100
AcDbDictionary
281
     1
  0
ACDBDICTIONARYWDFLT
  5
E
102
{ACAD_REACTORS
330
C
102
}
330
C
100
AcDbDictionary
281
     1
  3
Normal
350
F
100
AcDbDictionaryWithDefault
340
F
  0
DICTIONARY
  5
125
102
{ACAD_REACTORS
330
C
102
}
330
C
100
AcDbDictionary
281
     1
  3
DIMASSOC
350
126
  3
PROJECTNAME
350
127
  0
XRECORD
  5
10F
102
{ACAD_REACTORS
330
DB
102
}
330
DB
100
AcDbXrecord
280
     1
340
1E
  0
XRECORD
  5
10E
102
{ACAD_REACTORS
330
DD
102
}
330
DD
100
AcDbXrecord
280
     1
340
1A
  0
LAYOUT
  5
1D
102
{ACAD_REACTORS
330
19
102
}
330
19
100
AcDbPlotSettings
  1

  2
\\NT_WORK01\HP LaserJet 5000 PCL 6
  4

  6

 40
0.0
 41
0.0
 42
0.0
 43
0.0
 44
0.0
 45
0.0
 46
0.0
 47
0.0
 48
0.0
 49
0.0
140
0.0
141
0.0
142
1.0
143
1.0
 70
   688
 72
     0
 73
     0
 74
     5
  7

 75
    16
147
1.0
 76
     0
 77
     2
 78
   300
148
0.0
149
0.0
100
AcDbLayout
  1
Layout1
 70
     0
 71
     1
 10
0.0
 20
0.0
 11
12.0
 21
9.0
 12
0.0
 22
0.0
 32
0.0
 14
1.000000000000000E+20
 24
1.000000000000000E+20
 34
1.000000000000000E+20
 15
-1.000000000000000E+20
 25
-1.000000000000000E+20
 35
-1.000000000000000E+20
146
0.0
 13
0.0
 23
0.0
 33
0.0
 16
1.0
 26
0.0
 36
0.0
 17
0.0
 27
1.0
 37
0.0
 76
     0
330
1A
  0
LAYOUT
  5
21
102
{ACAD_REACTORS
330
19
102
}
330
19
100
AcDbPlotSettings
  1

  2
none_device
  4
Letter_(8.50_x_11.00_Inches)
  6

 40
6.349999904632568
 41
6.349999904632568
 42
6.350006103515625
 43
6.350006103515625
 44
215.8999938964844
 45
279.3999938964844
 46
0.0
 47
0.0
 48
0.0
 49
0.0
140
0.0
141
0.0
142
1.0
143
1.0
 70
 11952
 72
     0
 73
     1
 74
     0
  7

 75
     0
147
1.0
 76
     0
 77
     2
 78
   300
148
3127.843092036032
149
3.643092036031907
100
AcDbLayout
  1
Model
 70
     1
 71
     0
 10
0.0
 20
0.0
 11
12.0
 21
9.0
 12
0.0
 22
0.0
 32
0.0
 14
0.0
 24
0.0
 34
0.0
 15
0.0
 25
0.0
 35
0.0
146
0.0
 13
0.0
 23
0.0
 33
0.0
 16
1.0
 26
0.0
 36
0.0
 17
0.0
 27
1.0
 37
0.0
 76
     0
330
1E
  0
MLINESTYLE
  5
17
102
{ACAD_REACTORS
330
16
102
}
330
16
100
AcDbMlineStyle
  2
STANDARD
 70
     0
  3

 62
   256
 51
90.0
 52
90.0
 71
     2
 49
0.5
 62
   256
  6
BYLAYER
 49
-0.5
 62
   256
  6
BYLAYER
  0
ACDBPLACEHOLDER
  5
F
102
{ACAD_REACTORS
330
E
102
}
330
E
  0
DICTIONARYVAR
  5
126
102
{ACAD_REACTORS
330
125
102
}
330
125
100
DictionaryVariables
280
     0
  1
1
  0
DICTIONARYVAR
  5
127
102
{ACAD_REACTORS
330
125
102
}
330
125
100
DictionaryVariables
280
     0
  1

  0
ENDSEC
  0
EOF
