  0
SECTION
  2
HEADER
  9
$ACADVER
  1
AC1018
  9
$ACADMAINTVER
 70
     2
  9
$DWGCODEPAGE
  3
ANSI_1252
  9
$INSBASE
 10
0.0
 20
0.0
 30
0.0
  9
$EXTMIN
 10
-0.0181260584133725
 20
-0.0256328098773793
 30
-0.0015258207003583
  9
$EXTMAX
 10
594.0181288244414
 20
840.0256367214323
 30
0.0000000349246037
  9
$LIMMIN
 10
0.0
 20
0.0
  9
$LIMMAX
 10
594.0
 20
840.0
  9
$ORTHOMODE
 70
     1
  9
$REGENMODE
 70
     1
  9
$FILLMODE
 70
     1
  9
$QTEXTMODE
 70
     0
  9
$MIRRTEXT
 70
     1
  9
$LTSCALE
 40
20.0
  9
$ATTMODE
 70
     1
  9
$TEXTSIZE
 40
3.5
  9
$TRACEWID
 40
1.0
  9
$TEXTSTYLE
  7
STANDARD
  9
$CLAYER
  8
VOLL
  9
$CELTYPE
  6
ByLayer
  9
$CECOLOR
 62
   256
  9
$CELTSCALE
 40
1.0
  9
$DISPSILH
 70
     0
  9
$DIMSCALE
 40
2.0
  9
$DIMASZ
 40
3.5
  9
$DIMEXO
 40
1.0
  9
$DIMDLI
 40
7.0
  9
$DIMRND
 40
0.0
  9
$DIMDLE
 40
0.0
  9
$DIMEXE
 40
1.0
  9
$DIMTP
 40
0.0
  9
$DIMTM
 40
0.0
  9
$DIMTXT
 40
3.5
  9
$DIMCEN
 40
1.5
  9
$DIMTSZ
 40
0.0
  9
$DIMTOL
 70
     0
  9
$DIMLIM
 70
     0
  9
$DIMTIH
 70
     0
  9
$DIMTOH
 70
     0
  9
$DIMSE1
 70
     0
  9
$DIMSE2
 70
     0
  9
$DIMTAD
 70
     1
  9
$DIMZIN
 70
     8
  9
$DIMBLK
  1

  9
$DIMASO
 70
     1
  9
$DIMSHO
 70
     0
  9
$DIMPOST
  1

  9
$DIMAPOST
  1

  9
$DIMALT
 70
     0
  9
$DIMALTD
 70
     2
  9
$DIMALTF
 40
25.4
  9
$DIMLFAC
 40
1.0
  9
$DIMTOFL
 70
     1
  9
$DIMTVP
 40
0.0
  9
$DIMTIX
 70
     0
  9
$DIMSOXD
 70
     0
  9
$DIMSAH
 70
     0
  9
$DIMBLK1
  1

  9
$DIMBLK2
  1

  9
$DIMSTYLE
  2
Standard
  9
$DIMCLRD
 70
     0
  9
$DIMCLRE
 70
     0
  9
$DIMCLRT
 70
     1
  9
$DIMTFAC
 40
0.5
  9
$DIMGAP
 40
1.5
  9
$DIMJUST
 70
     0
  9
$DIMSD1
 70
     0
  9
$DIMSD2
 70
     0
  9
$DIMTOLJ
 70
     1
  9
$DIMTZIN
 70
     8
  9
$DIMALTZ
 70
     8
  9
$DIMALTTZ
 70
     8
  9
$DIMUPT
 70
     0
  9
$DIMDEC
 70
     2
  9
$DIMTDEC
 70
     2
  9
$DIMALTU
 70
     2
  9
$DIMALTTD
 70
     2
  9
$DIMTXSTY
  7
STANDARD
  9
$DIMAUNIT
 70
     0
  9
$DIMADEC
 70
     2
  9
$DIMALTRND
 40
0.0
  9
$DIMAZIN
 70
     2
  9
$DIMDSEP
 70
    46
  9
$DIMATFIT
 70
     3
  9
$DIMFRAC
 70
     0
  9
$DIMLDRBLK
  1

  9
$DIMLUNIT
 70
     2
  9
$DIMLWD
 70
    -2
  9
$DIMLWE
 70
    -2
  9
$DIMTMOVE
 70
     0
  9
$LUNITS
 70
     2
  9
$LUPREC
 70
     2
  9
$SKETCHINC
 40
1.0
  9
$FILLETRAD
 40
0.0
  9
$AUNITS
 70
     0
  9
$AUPREC
 70
     0
  9
$MENU
  1
ACAD
  9
$ELEVATION
 40
0.0
  9
$PELEVATION
 40
0.0
  9
$THICKNESS
 40
0.0
  9
$LIMCHECK
 70
     0
  9
$CHAMFERA
 40
0.0
  9
$CHAMFERB
 40
0.0
  9
$CHAMFERC
 40
0.0
  9
$CHAMFERD
 40
0.0
  9
$SKPOLY
 70
     0
  9
$TDCREATE
 40
2455397.825393172
  9
$TDUCREATE
 40
2455397.783726505
  9
$TDUPDATE
 40
2455545.459351956
  9
$TDUUPDATE
 40
2455545.417685290
  9
$TDINDWG
 40
0.0913448032
  9
$TDUSRTIMER
 40
0.0913448032
  9
$USRTIMER
 70
     1
  9
$ANGBASE
 50
0.0
  9
$ANGDIR
 70
     0
  9
$PDMODE
 70
     0
  9
$PDSIZE
 40
0.0
  9
$PLINEWID
 40
0.0
  9
$SPLFRAME
 70
     0
  9
$SPLINETYPE
 70
     6
  9
$SPLINESEGS
 70
     8
  9
$HANDSEED
  5
1DCA
  9
$SURFTAB1
 70
     6
  9
$SURFTAB2
 70
     6
  9
$SURFTYPE
 70
     6
  9
$SURFU
 70
     6
  9
$SURFV
 70
     6
  9
$UCSBASE
  2

  9
$UCSNAME
  2

  9
$UCSORG
 10
0.0
 20
0.0
 30
0.0
  9
$UCSXDIR
 10
1.0
 20
0.0
 30
0.0
  9
$UCSYDIR
 10
0.0
 20
1.0
 30
0.0
  9
$UCSORTHOREF
  2

  9
$UCSORTHOVIEW
 70
     0
  9
$UCSORGTOP
 10
0.0
 20
0.0
 30
0.0
  9
$UCSORGBOTTOM
 10
0.0
 20
0.0
 30
0.0
  9
$UCSORGLEFT
 10
0.0
 20
0.0
 30
0.0
  9
$UCSORGRIGHT
 10
0.0
 20
0.0
 30
0.0
  9
$UCSORGFRONT
 10
0.0
 20
0.0
 30
0.0
  9
$UCSORGBACK
 10
0.0
 20
0.0
 30
0.0
  9
$PUCSBASE
  2

  9
$PUCSNAME
  2

  9
$PUCSORG
 10
0.0
 20
0.0
 30
0.0
  9
$PUCSXDIR
 10
1.0
 20
0.0
 30
0.0
  9
$PUCSYDIR
 10
0.0
 20
1.0
 30
0.0
  9
$PUCSORTHOREF
  2

  9
$PUCSORTHOVIEW
 70
     0
  9
$PUCSORGTOP
 10
0.0
 20
0.0
 30
0.0
  9
$PUCSORGBOTTOM
 10
0.0
 20
0.0
 30
0.0
  9
$PUCSORGLEFT
 10
0.0
 20
0.0
 30
0.0
  9
$PUCSORGRIGHT
 10
0.0
 20
0.0
 30
0.0
  9
$PUCSORGFRONT
 10
0.0
 20
0.0
 30
0.0
  9
$PUCSORGBACK
 10
0.0
 20
0.0
 30
0.0
  9
$USERI1
 70
     0
  9
$USERI2
 70
     0
  9
$USERI3
 70
     0
  9
$USERI4
 70
     0
  9
$USERI5
 70
     0
  9
$USERR1
 40
0.0
  9
$USERR2
 40
0.0
  9
$USERR3
 40
0.0
  9
$USERR4
 40
0.0
  9
$USERR5
 40
0.0
  9
$WORLDVIEW
 70
     1
  9
$SHADEDGE
 70
     3
  9
$SHADEDIF
 70
    70
  9
$TILEMODE
 70
     1
  9
$MAXACTVP
 70
    16
  9
$PINSBASE
 10
0.0
 20
0.0
 30
0.0
  9
$PLIMCHECK
 70
     0
  9
$PEXTMIN
 10
1.000000000000000E+20
 20
1.000000000000000E+20
 30
1.000000000000000E+20
  9
$PEXTMAX
 10
-1.000000000000000E+20
 20
-1.000000000000000E+20
 30
-1.000000000000000E+20
  9
$PLIMMIN
 10
0.0
 20
0.0
  9
$PLIMMAX
 10
12.0
 20
9.0
  9
$UNITMODE
 70
     0
  9
$VISRETAIN
 70
     0
  9
$PLINEGEN
 70
     0
  9
$PSLTSCALE
 70
     0
  9
$TREEDEPTH
 70
  3020
  9
$CMLSTYLE
  2
Standard
  9
$CMLJUST
 70
     0
  9
$CMLSCALE
 40
1.0
  9
$PROXYGRAPHICS
 70
     1
  9
$MEASUREMENT
 70
     0
  9
$CELWEIGHT
370
    -1
  9
$ENDCAPS
280
     0
  9
$JOINSTYLE
280
     0
  9
$LWDISPLAY
290
     0
  9
$INSUNITS
 70
     0
  9
$HYPERLINKBASE
  1

  9
$STYLESHEET
  1
monochrome 1.ctb
  9
$XEDIT
290
     1
  9
$CEPSNTYPE
380
     0
  9
$PSTYLEMODE
290
     1
  9
$FINGERPRINTGUID
  2
{D68B0D0D-A558-11D7-B632-000102183313}
  9
$VERSIONGUID
  2
{7CCE5CEA-A9D8-41C5-BC10-56010CD0DF79}
  9
$EXTNAMES
290
     1
  9
$PSVPSCALE
 40
0.0
  9
$OLESTARTUP
290
     0
  9
$SORTENTS
280
   127
  9
$INDEXCTL
280
     0
  9
$HIDETEXT
280
     0
  9
$XCLIPFRAME
290
     0
  9
$HALOGAP
280
     0
  9
$OBSCOLOR
 70
   257
  9
$OBSLTYPE
280
     0
  9
$INTERSECTIONDISPLAY
280
     0
  9
$INTERSECTIONCOLOR
 70
   257
  9
$DIMASSOC
280
     1
  9
$PROJECTNAME
  1

  0
ENDSEC
  0
SECTION
  2
CLASSES
  0
CLASS
  1
ACDBDICTIONARYWDFLT
  2
AcDbDictionaryWithDefault
  3
ObjectDBX Classes
 90
        0
 91
        1
280
     0
281
     0
  0
CLASS
  1
DICTIONARYVAR
  2
AcDbDictionaryVar
  3
ObjectDBX Classes
 90
        0
 91
        2
280
     0
281
     0
  0
ENDSEC
  0
SECTION
  2
TABLES
  0
TABLE
  2
VPORT
  5
8
330
0
100
AcDbSymbolTable
 70
     2
  0
VPORT
  5
1DC9
330
8
100
AcDbSymbolTableRecord
100
AcDbViewportTableRecord
  2
*Active
 70
     0
 10
0.0
 20
0.0
 11
1.0
 21
1.0
 12
297.000001383014
 22
420.0000019557775
 13
0.0
 23
0.0
 14
1.0
 24
1.0
 15
10.0
 25
10.0
 16
0.0
 26
0.0
 36
1.0
 17
0.0
 27
0.0
 37
0.0
 40
846.8349944535006
 41
1.336927223719676
 42
50.0
 43
0.0
 44
0.0
 50
0.0
 51
0.0
 71
     0
 72
  1500
 73
     1
 74
     0
 75
     0
 76
     0
 77
     0
 78
     0
281
     0
 65
     1
110
0.0
120
0.0
130
0.0
111
1.0
121
0.0
131
0.0
112
0.0
122
1.0
132
0.0
 79
     0
146
0.0
  0
ENDTAB
  0
TABLE
  2
LTYPE
  5
5
330
0
100
AcDbSymbolTable
 70
     3
  0
LTYPE
  5
13
330
5
100
AcDbSymbolTableRecord
100
AcDbLinetypeTableRecord
  2
ByBlock
 70
     0
  3

 72
    65
 73
     0
 40
0.0
  0
LTYPE
  5
14
330
5
100
AcDbSymbolTableRecord
100
AcDbLinetypeTableRecord
  2
ByLayer
 70
     0
  3

 72
    65
 73
     0
 40
0.0
  0
LTYPE
  5
15
330
5
100
AcDbSymbolTableRecord
100
AcDbLinetypeTableRecord
  2
Continuous
 70
     0
  3
Solid line
 72
    65
 73
     0
 40
0.0
  0
LTYPE
  5
25
330
5
100
AcDbSymbolTableRecord
100
AcDbLinetypeTableRecord
  2
STRICHPUNKT
 70
     0
  3
__ . __ . __ . __ . __ . __ . __ . __ . __ . __
 72
    65
 73
     4
 40
1.0
 49
0.5
 74
     0
 49
-0.25
 74
     0
 49
0.0
 74
     0
 49
-0.25
 74
     0
  0
LTYPE
  5
34
330
5
100
AcDbSymbolTableRecord
100
AcDbLinetypeTableRecord
  2
AUSGEZOGEN
 70
     0
  3
Ausgezogene Linie
 72
    65
 73
     0
 40
0.0
  0
ENDTAB
  0
TABLE
  2
LAYER
  5
2
330
0
100
AcDbSymbolTable
 70
     9
  0
LAYER
  5
10
330
2
100
AcDbSymbolTableRecord
100
AcDbLayerTableRecord
  2
0
 70
     0
 62
     7
  6
Continuous
370
    -3
390
F
  0
LAYER
  5
2B
330
2
100
AcDbSymbolTableRecord
100
AcDbLayerTableRecord
  2
VOLL
 70
     0
 62
     1
  6
Continuous
370
    -3
390
F
  0
LAYER
  5
2C
330
2
100
AcDbSymbolTableRecord
100
AcDbLayerTableRecord
  2
HILF
 70
     0
 62
     2
  6
Continuous
370
    -3
390
F
  0
LAYER
  5
2D
330
2
100
AcDbSymbolTableRecord
100
AcDbLayerTableRecord
  2
MITTEL
 70
     0
 62
     2
  6
STRICHPUNKT
370
    -3
390
F
  0
LAYER
  5
2F
330
2
100
AcDbSymbolTableRecord
100
AcDbLayerTableRecord
  2
BEM
 70
     0
 62
     7
  6
Continuous
370
    -3
390
F
  0
LAYER
  5
30
330
2
100
AcDbSymbolTableRecord
100
AcDbLayerTableRecord
  2
STEMPEL
 70
     0
 62
     3
  6
Continuous
370
    -3
390
F
  0
LAYER
  5
33
330
2
100
AcDbSymbolTableRecord
100
AcDbLayerTableRecord
  2
TEXT
 70
     0
 62
     7
  6
Continuous
370
    -3
390
F
  0
LAYER
  5
205
330
2
100
AcDbSymbolTableRecord
100
AcDbLayerTableRecord
  2
DEFPOINTS
 70
     0
 62
     7
  6
AUSGEZOGEN
290
     0
370
    -3
390
F
  0
LAYER
  5
206
330
2
100
AcDbSymbolTableRecord
100
AcDbLayerTableRecord
  2
SCHRAFF
 70
     0
 62
     7
  6
AUSGEZOGEN
370
    -3
390
F
  0
ENDTAB
  0
TABLE
  2
STYLE
  5
3
330
0
100
AcDbSymbolTable
 70
     2
  0
STYLE
  5
11
330
3
100
AcDbSymbolTableRecord
100
AcDbTextStyleTableRecord
  2
STANDARD
 70
     0
 40
0.0
 41
0.8
 50
0.0
 71
     0
 42
3.5
  3
simplex.shx
  4

  0
STYLE
  5
24
330
3
100
AcDbSymbolTableRecord
100
AcDbTextStyleTableRecord
  2
GREEKS
 70
     0
 40
0.0
 41
0.8
 50
0.0
 71
     0
 42
2.5
  3
SIMPLEX.shx
  4

  0
ENDTAB
  0
TABLE
  2
VIEW
  5
6
330
0
100
AcDbSymbolTable
 70
     0
  0
ENDTAB
  0
TABLE
  2
UCS
  5
7
330
0
100
AcDbSymbolTable
 70
     0
  0
ENDTAB
  0
TABLE
  2
APPID
  5
9
330
0
100
AcDbSymbolTable
 70
     1
  0
APPID
  5
12
330
9
100
AcDbSymbolTableRecord
100
AcDbRegAppTableRecord
  2
ACAD
 70
     0
  0
ENDTAB
  0
TABLE
  2
DIMSTYLE
  5
A
330
0
100
AcDbSymbolTable
 70
     1
100
AcDbDimStyleTable
 71
     1
340
A2
  0
DIMSTYLE
105
A2
102
{ACAD_REACTORS
330
C3D
330
1215
330
1262
330
1263
330
12C1
330
12CA
330
18AA
330
1B07
330
1C19
330
1C1A
330
1C42
102
}
330
A
100
AcDbSymbolTableRecord
100
AcDbDimStyleTableRecord
  2
Standard
 70
     0
340
11
  0
ENDTAB
  0
TABLE
  2
BLOCK_RECORD
  5
1
330
0
100
AcDbSymbolTable
 70
    13
  0
BLOCK_RECORD
  5
1E
102
{ACAD_XDICTIONARY
360
DB
102
}
330
1
100
AcDbSymbolTableRecord
100
AcDbBlockTableRecord
  2
*Model_Space
340
21
  0
BLOCK_RECORD
  5
1A
102
{ACAD_XDICTIONARY
360
DD
102
}
330
1
100
AcDbSymbolTableRecord
100
AcDbBlockTableRecord
  2
*Paper_Space
340
1D
  0
BLOCK_RECORD
  5
22
330
1
100
AcDbSymbolTableRecord
100
AcDbBlockTableRecord
  2
LOGO
340
0
102
{BLKREFS
331
56
102
}
  0
BLOCK_RECORD
  5
23
330
1
100
AcDbSymbolTableRecord
100
AcDbBlockTableRecord
  2
LORO
340
0
102
{BLKREFS
331
9B
102
}
  0
BLOCK_RECORD
  5
EE9
330
1
100
AcDbSymbolTableRecord
100
AcDbBlockTableRecord
  2
*D2
340
0
  0
BLOCK_RECORD
  5
12CB
330
1
100
AcDbSymbolTableRecord
100
AcDbBlockTableRecord
  2
*D3
340
0
  0
BLOCK_RECORD
  5
12D7
330
1
100
AcDbSymbolTableRecord
100
AcDbBlockTableRecord
  2
*D4
340
0
  0
BLOCK_RECORD
  5
12E3
330
1
100
AcDbSymbolTableRecord
100
AcDbBlockTableRecord
  2
*D5
340
0
  0
BLOCK_RECORD
  5
12EF
330
1
100
AcDbSymbolTableRecord
100
AcDbBlockTableRecord
  2
*D6
340
0
  0
BLOCK_RECORD
  5
1307
330
1
100
AcDbSymbolTableRecord
100
AcDbBlockTableRecord
  2
*D7
340
0
  0
BLOCK_RECORD
  5
18CF
330
1
100
AcDbSymbolTableRecord
100
AcDbBlockTableRecord
  2
*D8
340
0
  0
BLOCK_RECORD
  5
1C4D
330
1
100
AcDbSymbolTableRecord
100
AcDbBlockTableRecord
  2
*D9
340
0
  0
BLOCK_RECORD
  5
1C59
330
1
100
AcDbSymbolTableRecord
100
AcDbBlockTableRecord
  2
*D10
340
0
  0
BLOCK_RECORD
  5
1C65
330
1
100
AcDbSymbolTableRecord
100
AcDbBlockTableRecord
  2
*D11
340
0
  0
BLOCK_RECORD
  5
1C71
330
1
100
AcDbSymbolTableRecord
100
AcDbBlockTableRecord
  2
*D12
340
0
  0
ENDTAB
  0
ENDSEC
  0
SECTION
  2
BLOCKS
  0
BLOCK
  5
37
330
1E
100
AcDbEntity
  8
0
100
AcDbBlockBegin
  2
*Model_Space
 70
     0
 10
0.0
 20
0.0
 30
0.0
  3
*Model_Space
  1

  0
ENDBLK
  5
38
330
1E
100
AcDbEntity
  8
0
100
AcDbBlockEnd
  0
BLOCK
  5
35
330
1A
100
AcDbEntity
 67
     1
  8
0
100
AcDbBlockBegin
  2
*Paper_Space
 70
     0
 10
0.0
 20
0.0
 30
0.0
  3
*Paper_Space
  1

  0
ENDBLK
  5
36
330
1A
100
AcDbEntity
 67
     1
  8
0
100
AcDbBlockEnd
  0
BLOCK
  5
39
330
22
100
AcDbEntity
  8
0
100
AcDbBlockBegin
  2
LOGO
 70
     0
 10
0.0
 20
0.0
 30
0.0
  3
LOGO
  1

  0
ARC
  5
3A
330
22
100
AcDbEntity
  8
0
100
AcDbCircle
 10
11.59973089678112
 20
-9.271599258481501
 30
0.0
 40
4.5
100
AcDbArc
 50
270.0
 51
231.0575587310159
  0
LINE
  5
3B
330
22
100
AcDbEntity
  8
0
100
AcDbLine
 10
3.599730896781125
 20
-4.771599258481529
 30
0.0
 11
3.599730896781153
 21
-11.77159925848133
 31
0.0
  0
LINE
  5
3C
330
22
100
AcDbEntity
  8
0
100
AcDbLine
 10
2.599730896781125
 20
-4.771599258481529
 30
0.0
 11
2.599730896781153
 21
-11.77159925848133
 31
0.0
  0
CIRCLE
  5
3D
330
22
100
AcDbEntity
  8
0
100
AcDbCircle
 10
11.59973089678112
 20
-9.271599258481501
 30
0.0
 40
3.5
  0
ARC
  5
3E
330
22
100
AcDbEntity
  8
0
100
AcDbCircle
 10
31.59973089678115
 20
-9.271599258481472
 30
0.0
 40
4.5
100
AcDbArc
 50
270.0
 51
231.0575587310182
  0
LINE
  5
3F
330
22
100
AcDbEntity
  8
0
100
AcDbLine
 10
17.59973089678112
 20
-4.771599258481472
 30
0.0
 11
17.59973089678115
 21
-13.77159925848147
 31
0.0
  0
ARC
  5
40
330
22
100
AcDbEntity
  8
0
100
AcDbCircle
 10
22.59973089678116
 20
-7.271599258481472
 30
0.0
 40
2.5
100
AcDbArc
 50
293.1161887722295
 51
90.0
  0
CIRCLE
  5
41
330
22
100
AcDbEntity
  8
0
100
AcDbCircle
 10
31.59973089678115
 20
-9.271599258481472
 30
0.0
 40
3.5
  0
ARC
  5
42
330
22
100
AcDbEntity
  8
0
100
AcDbCircle
 10
4.599730896781153
 20
-11.77159925848133
 30
0.0
 40
1.0
100
AcDbArc
 50
180.0
 51
270.0
  0
ARC
  5
43
330
22
100
AcDbEntity
  8
0
100
AcDbCircle
 10
4.599730896781153
 20
-11.77159925848133
 30
0.0
 40
2.0
100
AcDbArc
 50
179.9999999999992
 51
270.0
  0
LINE
  5
44
330
22
100
AcDbEntity
  8
0
100
AcDbLine
 10
11.59973089678115
 20
-13.77159925848144
 30
0.0
 11
4.599730896781153
 21
-13.77159925848147
 31
0.0
  0
LINE
  5
45
330
22
100
AcDbEntity
  8
0
100
AcDbLine
 10
8.771303772034769
 20
-12.77159925848136
 30
0.0
 11
4.599730896781153
 21
-12.77159925848133
 31
0.0
  0
LINE
  5
46
330
22
100
AcDbEntity
  8
0
100
AcDbLine
 10
31.59973089678115
 20
-13.77159925848147
 30
0.0
 11
23.6715276665056
 21
-13.77159925848144
 31
0.0
  0
LINE
  5
47
330
22
100
AcDbEntity
  8
0
100
AcDbLine
 10
23.56565672307022
 20
-9.51278021337896
 30
0.0
 11
24.4388546544846
 21
-12.77159925848144
 31
0.0
  0
LINE
  5
48
330
22
100
AcDbEntity
  8
0
100
AcDbLine
 10
22.59973089678116
 20
-9.771599258481472
 30
0.0
 11
18.59973089678112
 21
-9.771599258481472
 31
0.0
  0
LINE
  5
49
330
22
100
AcDbEntity
  8
0
100
AcDbLine
 10
18.59973089678115
 20
-13.77159925848144
 30
0.0
 11
17.59973089678115
 21
-13.77159925848144
 31
0.0
  0
LINE
  5
4A
330
22
100
AcDbEntity
  8
0
100
AcDbLine
 10
18.59973089678115
 20
-9.771599258481472
 30
0.0
 11
18.59973089678115
 21
-13.77159925848144
 31
0.0
  0
LINE
  5
4B
330
22
100
AcDbEntity
  8
0
100
AcDbLine
 10
22.59973089678116
 20
-9.771599258481472
 30
0.0
 11
23.67152766650562
 21
-13.77159925848147
 31
0.0
  0
ARC
  5
4C
330
22
100
AcDbEntity
  8
0
100
AcDbCircle
 10
22.59973089678116
 20
-7.271599258481472
 30
0.0
 40
2.5
100
AcDbArc
 50
270.0
 51
270.0000000000007
  0
LINE
  5
4D
330
22
100
AcDbEntity
  8
0
100
AcDbLine
 10
28.77130377203494
 20
-12.77159925848147
 30
0.0
 11
24.43885465448463
 21
-12.77159925848144
 31
0.0
  0
LINE
  5
4E
330
22
100
AcDbEntity
  8
0
100
AcDbLine
 10
3.599730896781125
 20
-4.771599258481472
 30
0.0
 11
2.599730896781125
 21
-4.771599258481472
 31
0.0
  0
LINE
  5
4F
330
22
100
AcDbEntity
  8
0
100
AcDbLine
 10
22.59973089678116
 20
-8.771599258481472
 30
0.0
 11
18.59973089678115
 21
-8.771599258481472
 31
0.0
  0
LINE
  5
50
330
22
100
AcDbEntity
  8
0
100
AcDbLine
 10
22.59973089678116
 20
-5.771599258481472
 30
0.0
 11
18.59973089678115
 21
-5.771599258481472
 31
0.0
  0
LINE
  5
51
330
22
100
AcDbEntity
  8
0
100
AcDbLine
 10
22.59973089678116
 20
-4.771599258481472
 30
0.0
 11
17.59973089678115
 21
-4.771599258481472
 31
0.0
  0
LINE
  5
52
330
22
100
AcDbEntity
  8
0
100
AcDbLine
 10
18.59973089678115
 20
-5.771599258481472
 30
0.0
 11
18.59973089678115
 21
-8.771599258481472
 31
0.0
  0
ARC
  5
53
330
22
100
AcDbEntity
  8
0
100
AcDbCircle
 10
22.59973089678116
 20
-7.271599258481472
 30
0.0
 40
1.5
100
AcDbArc
 50
270.0
 51
90.0
  0
ENDBLK
  5
54
330
22
100
AcDbEntity
  8
0
100
AcDbBlockEnd
  0
BLOCK
  5
55
330
23
100
AcDbEntity
  8
0
100
AcDbBlockBegin
  2
LORO
 70
     0
 10
0.0
 20
0.0
 30
0.0
  3
LORO
  1

  0
INSERT
  5
56
330
23
100
AcDbEntity
  8
STEMPEL
100
AcDbBlockReference
  2
LOGO
 10
-1.748032802467321
 20
3.771489518552062
 30
0.0
  0
ENDBLK
  5
57
330
23
100
AcDbEntity
  8
0
100
AcDbBlockEnd
  0
BLOCK
  5
EF3
330
EE9
100
AcDbEntity
  8
0
100
AcDbBlockBegin
  2
*D2
 70
     1
 10
0.0
 20
0.0
 30
0.0
  3
*D2
  1

  0
LINE
  5
18E4
330
EE9
100
AcDbEntity
  8
BEM
 62
     0
370
    -2
100
AcDbLine
 10
53.9426844607899
 20
587.8491010452246
 30
0.0
 11
36.14631652053335
 21
587.8491010452246
 31
0.0
  0
LINE
  5
18E5
330
EE9
100
AcDbEntity
  8
BEM
 62
     0
370
    -2
100
AcDbLine
 10
61.94268446078973
 20
355.0436406908895
 30
0.0
 11
36.14631652053331
 21
355.0436406908895
 31
0.0
  0
LINE
  5
18E6
330
EE9
100
AcDbEntity
  8
BEM
 62
     0
370
    -2
100
AcDbLine
 10
38.14631652053336
 20
580.8491010452246
 30
0.0
 11
38.14631652053331
 21
362.0436406908895
 31
0.0
  0
SOLID
  5
18E7
330
EE9
100
AcDbEntity
  8
BEM
 62
     0
100
AcDbTrace
 10
36.97964985386669
 20
580.8491010452246
 30
0.0
 11
39.31298318720002
 21
580.8491010452246
 31
0.0
 12
38.14631652053336
 22
587.8491010452246
 32
0.0
 13
38.14631652053336
 23
587.8491010452246
 33
0.0
  0
SOLID
  5
18E8
330
EE9
100
AcDbEntity
  8
BEM
 62
     0
100
AcDbTrace
 10
36.97964985386664
 20
362.0436406908895
 30
0.0
 11
39.31298318719997
 21
362.0436406908895
 31
0.0
 12
38.14631652053331
 22
355.0436406908895
 32
0.0
 13
38.14631652053331
 23
355.0436406908895
 33
0.0
  0
MTEXT
  5
18E9
330
EE9
100
AcDbEntity
  8
BEM
 62
     1
100
AcDbMText
 10
32.64631652053326
 20
471.4463708680571
 30
0.0
 40
7.0
 41
0.0
 71
     5
 72
     1
  1
\A1;min.35 - max.230
 11
0.0000000000000001
 21
1.0
 31
0.0
 73
     1
 44
1.0
  0
POINT
  5
18EA
330
EE9
100
AcDbEntity
  8
DEFPOINTS
 62
     0
100
AcDbPoint
 10
55.94268446078991
 20
587.8491010452246
 30
0.0
  0
POINT
  5
18EB
330
EE9
100
AcDbEntity
  8
DEFPOINTS
 62
     0
100
AcDbPoint
 10
63.94268446078974
 20
355.0436406908895
 30
0.0
  0
POINT
  5
18EC
330
EE9
100
AcDbEntity
  8
DEFPOINTS
 62
     0
100
AcDbPoint
 10
38.14631652053331
 20
355.0436406908895
 30
0.0
  0
ENDBLK
  5
EF4
330
EE9
100
AcDbEntity
  8
0
100
AcDbBlockEnd
  0
BLOCK
  5
12D5
330
12CB
100
AcDbEntity
  8
0
100
AcDbBlockBegin
  2
*D3
 70
     1
 10
0.0
 20
0.0
 30
0.0
  3
*D3
  1

  0
LINE
  5
1318
330
12CB
100
AcDbEntity
  8
BEM
 62
     0
370
    -2
100
AcDbLine
 10
205.94268446079
 20
257.1455855116507
 30
0.0
 11
205.94268446079
 21
165.181192655865
 31
0.0
  0
LINE
  5
1319
330
12CB
100
AcDbEntity
  8
BEM
 62
     0
370
    -2
100
AcDbLine
 10
490.9426844607899
 20
242.2093684159829
 30
0.0
 11
490.9426844607899
 21
165.181192655865
 31
0.0
  0
LINE
  5
131A
330
12CB
100
AcDbEntity
  8
BEM
 62
     0
370
    -2
100
AcDbLine
 10
212.94268446079
 20
167.181192655865
 30
0.0
 11
483.9426844607898
 21
167.181192655865
 31
0.0
  0
SOLID
  5
131B
330
12CB
100
AcDbEntity
  8
BEM
 62
     0
100
AcDbTrace
 10
212.94268446079
 20
168.3478593225316
 30
0.0
 11
212.94268446079
 21
166.0145259891983
 31
0.0
 12
205.94268446079
 22
167.181192655865
 32
0.0
 13
205.94268446079
 23
167.181192655865
 33
0.0
  0
SOLID
  5
131C
330
12CB
100
AcDbEntity
  8
BEM
 62
     0
100
AcDbTrace
 10
483.9426844607898
 20
168.3478593225316
 30
0.0
 11
483.9426844607898
 21
166.0145259891983
 31
0.0
 12
490.9426844607899
 22
167.181192655865
 32
0.0
 13
490.9426844607899
 23
167.181192655865
 33
0.0
  0
MTEXT
  5
131D
330
12CB
100
AcDbEntity
  8
BEM
 62
     1
100
AcDbMText
 10
348.4426844607899
 20
172.681192655865
 30
0.0
 40
7.0
 41
0.0
 71
     5
 72
     1
  1
\A1;285
 73
     1
 44
1.0
  0
POINT
  5
131E
330
12CB
100
AcDbEntity
  8
DEFPOINTS
 62
     0
100
AcDbPoint
 10
205.94268446079
 20
259.1455855116507
 30
0.0
  0
POINT
  5
131F
330
12CB
100
AcDbEntity
  8
DEFPOINTS
 62
     0
100
AcDbPoint
 10
490.9426844607899
 20
244.2093684159829
 30
0.0
  0
POINT
  5
1320
330
12CB
100
AcDbEntity
  8
DEFPOINTS
 62
     0
100
AcDbPoint
 10
490.9426844607899
 20
167.181192655865
 30
0.0
  0
ENDBLK
  5
12D6
330
12CB
100
AcDbEntity
  8
0
100
AcDbBlockEnd
  0
BLOCK
  5
12E1
330
12D7
100
AcDbEntity
  8
0
100
AcDbBlockBegin
  2
*D4
 70
     1
 10
0.0
 20
0.0
 30
0.0
  3
*D4
  1

  0
LINE
  5
1321
330
12D7
100
AcDbEntity
  8
BEM
 62
     0
370
    -2
100
AcDbLine
 10
487.6095738294038
 20
295.2537645189728
 30
0.0
 11
513.6834169273039
 21
293.8872923048375
 31
0.0
  0
LINE
  5
1322
330
12D7
100
AcDbEntity
  8
BEM
 62
     0
370
    -2
100
AcDbLine
 10
482.2922406751209
 20
193.7930037879083
 30
0.0
 11
508.3660837730209
 21
192.4265315737729
 31
0.0
  0
LINE
  5
1323
330
12D7
100
AcDbEntity
  8
BEM
 62
     0
370
    -2
100
AcDbLine
 10
511.3198061640942
 20
287.0015574740413
 30
0.0
 11
506.7351763972124
 21
199.5216102295408
 31
0.0
  0
SOLID
  5
1324
330
12D7
100
AcDbEntity
  8
BEM
 62
     0
100
AcDbTrace
 10
510.1547383735471
 20
287.0626160896581
 30
0.0
 11
512.4848739546412
 21
286.9404988584246
 31
0.0
 12
511.6861578577948
 22
293.9919642173233
 32
0.0
 13
511.6861578577948
 23
293.9919642173233
 33
0.0
  0
SOLID
  5
1325
330
12D7
100
AcDbEntity
  8
BEM
 62
     0
100
AcDbTrace
 10
505.5701086066654
 20
199.5826688451576
 30
0.0
 11
507.9002441877594
 21
199.460551613924
 31
0.0
 12
506.3688247035117
 22
192.5312034862588
 32
0.0
 13
506.3688247035117
 23
192.5312034862588
 33
0.0
  0
MTEXT
  5
1326
330
12D7
100
AcDbEntity
  8
BEM
 62
     1
100
AcDbMText
 10
502.532771100089
 20
243.532537298332
 30
0.0
 40
7.0
 41
0.0
 71
     5
 72
     1
  1
\A1;%%c101.6
 11
0.0523359562429433
 21
0.9986295347545739
 31
0.0
 73
     1
 44
1.0
  0
POINT
  5
1327
330
12D7
100
AcDbEntity
  8
DEFPOINTS
 62
     0
100
AcDbPoint
 10
485.6123147598947
 20
295.3584364314588
 30
0.0
  0
POINT
  5
1328
330
12D7
100
AcDbEntity
  8
DEFPOINTS
 62
     0
100
AcDbPoint
 10
480.2949816056117
 20
193.8976757003941
 30
0.0
  0
POINT
  5
1329
330
12D7
100
AcDbEntity
  8
DEFPOINTS
 62
     0
100
AcDbPoint
 10
506.3688247035117
 20
192.5312034862588
 30
0.0
  0
ENDBLK
  5
12E2
330
12D7
100
AcDbEntity
  8
0
100
AcDbBlockEnd
  0
BLOCK
  5
12ED
330
12E3
100
AcDbEntity
  8
0
100
AcDbBlockBegin
  2
*D5
 70
     1
 10
0.0
 20
0.0
 30
0.0
  3
*D5
  1

  0
LINE
  5
132A
330
12E3
100
AcDbEntity
  8
BEM
 62
     0
370
    -2
100
AcDbLine
 10
357.9426844607898
 20
349.0436406908896
 30
0.0
 11
539.3493722975241
 21
349.0436406908895
 31
0.0
  0
LINE
  5
132B
330
12E3
100
AcDbEntity
  8
BEM
 62
     0
370
    -2
100
AcDbLine
 10
514.5200115959491
 20
244.2093684159833
 30
0.0
 11
539.349372297524
 21
244.2093684159833
 31
0.0
  0
LINE
  5
132C
330
12E3
100
AcDbEntity
  8
BEM
 62
     0
370
    -2
100
AcDbLine
 10
537.3493722975241
 20
342.0436406908895
 30
0.0
 11
537.349372297524
 21
251.2093684159833
 31
0.0
  0
SOLID
  5
132D
330
12E3
100
AcDbEntity
  8
BEM
 62
     0
100
AcDbTrace
 10
536.1827056308575
 20
342.0436406908895
 30
0.0
 11
538.5160389641908
 21
342.0436406908895
 31
0.0
 12
537.3493722975241
 22
349.0436406908895
 32
0.0
 13
537.3493722975241
 23
349.0436406908895
 33
0.0
  0
SOLID
  5
132E
330
12E3
100
AcDbEntity
  8
BEM
 62
     0
100
AcDbTrace
 10
536.1827056308574
 20
251.2093684159833
 30
0.0
 11
538.5160389641907
 21
251.2093684159833
 31
0.0
 12
537.349372297524
 22
244.2093684159833
 32
0.0
 13
537.349372297524
 23
244.2093684159833
 33
0.0
  0
MTEXT
  5
132F
330
12E3
100
AcDbEntity
  8
BEM
 62
     1
100
AcDbMText
 10
530.849372297524
 20
296.6265045534365
 30
0.0
 40
7.0
 41
0.0
 71
     5
 72
     1
  1
\A1;105
 11
0.0000000000000001
 21
1.0
 31
0.0
 73
     1
 44
1.0
  0
POINT
  5
1330
330
12E3
100
AcDbEntity
  8
DEFPOINTS
 62
     0
100
AcDbPoint
 10
355.9426844607898
 20
349.0436406908896
 30
0.0
  0
POINT
  5
1331
330
12E3
100
AcDbEntity
  8
DEFPOINTS
 62
     0
100
AcDbPoint
 10
512.5200115959492
 20
244.2093684159833
 30
0.0
  0
POINT
  5
1332
330
12E3
100
AcDbEntity
  8
DEFPOINTS
 62
     0
100
AcDbPoint
 10
537.349372297524
 20
244.2093684159833
 30
0.0
  0
ENDBLK
  5
12EE
330
12E3
100
AcDbEntity
  8
0
100
AcDbBlockEnd
  0
BLOCK
  5
12F9
330
12EF
100
AcDbEntity
  8
0
100
AcDbBlockBegin
  2
*D6
 70
     1
 10
0.0
 20
0.0
 30
0.0
  3
*D6
  1

  0
LINE
  5
1333
330
12EF
100
AcDbEntity
  8
BEM
 62
     0
370
    -2
100
AcDbLine
 10
203.9426844607898
 20
259.1455855116512
 30
0.0
 11
36.14631652053322
 21
259.1455855116512
 31
0.0
  0
LINE
  5
1334
330
12EF
100
AcDbEntity
  8
BEM
 62
     0
370
    -2
100
AcDbLine
 10
58.77111158553606
 20
349.0436406908906
 30
0.0
 11
36.14631652053325
 21
349.0436406908906
 31
0.0
  0
LINE
  5
1335
330
12EF
100
AcDbEntity
  8
BEM
 62
     0
370
    -2
100
AcDbLine
 10
38.14631652053323
 20
266.1455855116512
 30
0.0
 11
38.14631652053325
 21
342.0436406908907
 31
0.0
  0
SOLID
  5
1336
330
12EF
100
AcDbEntity
  8
BEM
 62
     0
100
AcDbTrace
 10
36.97964985386656
 20
266.1455855116512
 30
0.0
 11
39.31298318719989
 21
266.1455855116512
 31
0.0
 12
38.14631652053323
 22
259.1455855116512
 32
0.0
 13
38.14631652053323
 23
259.1455855116512
 33
0.0
  0
SOLID
  5
1337
330
12EF
100
AcDbEntity
  8
BEM
 62
     0
100
AcDbTrace
 10
36.97964985386658
 20
342.0436406908907
 30
0.0
 11
39.31298318719991
 21
342.0436406908907
 31
0.0
 12
38.14631652053325
 22
349.0436406908906
 32
0.0
 13
38.14631652053325
 23
349.0436406908906
 33
0.0
  0
MTEXT
  5
1338
330
12EF
100
AcDbEntity
  8
BEM
 62
     1
100
AcDbMText
 10
32.64631652053319
 20
304.094613101271
 30
0.0
 40
7.0
 41
0.0
 71
     5
 72
     1
  1
\A1;90
 11
0.0000000000000001
 21
1.0
 31
0.0
 73
     1
 44
1.0
  0
POINT
  5
1339
330
12EF
100
AcDbEntity
  8
DEFPOINTS
 62
     0
100
AcDbPoint
 10
205.9426844607898
 20
259.1455855116512
 30
0.0
  0
POINT
  5
133A
330
12EF
100
AcDbEntity
  8
DEFPOINTS
 62
     0
100
AcDbPoint
 10
60.77111158553606
 20
349.0436406908906
 30
0.0
  0
POINT
  5
133B
330
12EF
100
AcDbEntity
  8
DEFPOINTS
 62
     0
100
AcDbPoint
 10
38.14631652053325
 20
349.0436406908906
 30
0.0
  0
ENDBLK
  5
12FA
330
12EF
100
AcDbEntity
  8
0
100
AcDbBlockEnd
  0
BLOCK
  5
1316
330
1307
100
AcDbEntity
  8
0
100
AcDbBlockBegin
  2
*D7
 70
     1
 10
0.0
 20
0.0
 30
0.0
  3
*D7
  1

  0
LINE
  5
1345
330
1307
100
AcDbEntity
  8
BEM
 62
     0
370
    -2
100
AcDbLine
 10
207.9480125285163
 20
259.1453062794537
 30
0.0
 11
253.5721803266679
 21
259.145306279453
 31
0.0
  0
ARC
  5
1346
330
1307
100
AcDbEntity
  8
BEM
 62
     0
370
    -2
100
AcDbCircle
 10
205.9480125285163
 20
259.1453062794538
 30
0.0
 40
45.6241677981515
100
AcDbArc
 50
339.348789519161
 51
356.9999999999998
  0
LINE
  5
1347
330
1307
100
AcDbEntity
  8
BEM
 62
     0
370
    -2
100
AcDbLine
 10
248.6405852271786
 20
243.0546591935431
 30
0.0
 11
244.2673761694701
 21
231.4514250522541
 31
0.0
  0
ARC
  5
1348
330
1307
100
AcDbEntity
  8
BEM
 62
     0
370
    -2
100
AcDbCircle
 10
205.9480125285163
 20
259.1453062794538
 30
0.0
 40
45.6241677981515
100
AcDbArc
 50
339.401218283363
 51
348.2006091416814
  0
ARC
  5
1349
330
1307
100
AcDbEntity
  8
BEM
 62
     0
370
    -2
100
AcDbCircle
 10
205.9480125285163
 20
259.1453062794538
 30
0.0
 40
45.6241677981515
100
AcDbArc
 50
8.799390858317481
 51
17.59878171663584
  0
ARC
  5
134A
330
1307
100
AcDbEntity
  8
BEM
 62
     0
370
    -2
100
AcDbCircle
 10
205.9480125285163
 20
259.1453062794538
 30
0.0
 40
45.6241677981515
100
AcDbArc
 50
356.9999999999998
 51
359.9999999999992
  0
SOLID
  5
134B
330
1307
100
AcDbEntity
  8
BEM
 62
     0
100
AcDbTrace
 10
249.4511712265622
 20
249.9660742801031
 30
0.0
 11
251.7650722029331
 21
249.6655635215694
 31
0.0
 12
251.509653990349
 22
256.7575218299487
 32
0.0
 13
251.509653990349
 23
256.7575218299487
 33
0.0
  0
SOLID
  5
134C
330
1307
100
AcDbEntity
  8
BEM
 62
     0
100
AcDbTrace
 10
252.1984129171728
 20
266.2141777490513
 30
0.0
 11
249.8719555437623
 21
266.0351790503179
 31
0.0
 12
251.5721803266679
 22
259.145306279453
 32
0.0
 13
251.5721803266679
 23
259.145306279453
 33
0.0
  0
MTEXT
  5
134D
330
1307
100
AcDbEntity
  8
BEM
 62
     1
100
AcDbMText
 10
240.3716402210357
 20
239.5454500966974
 30
0.0
 40
7.0
 41
0.0
 71
     5
 72
     1
  1
\A1;3°
 11
0.3526781498151992
 21
0.9357446888136356
 31
0.0
 73
     1
 44
1.0
  0
POINT
  5
134E
330
1307
100
AcDbEntity
  8
DEFPOINTS
 62
     0
100
AcDbPoint
 10
251.5652315449265
 20
258.349054759677
 30
0.0
  0
POINT
  5
134F
330
1307
100
AcDbEntity
  8
DEFPOINTS
 62
     0
100
AcDbPoint
 10
205.9426844607898
 20
259.1455855116511
 30
0.0
  0
POINT
  5
1350
330
1307
100
AcDbEntity
  8
DEFPOINTS
 62
     0
100
AcDbPoint
 10
205.9480125285161
 20
259.1453062794538
 30
0.0
  0
POINT
  5
1351
330
1307
100
AcDbEntity
  8
DEFPOINTS
 62
     0
100
AcDbPoint
 10
203.9480125285161
 20
259.1453062794538
 30
0.0
  0
POINT
  5
1352
330
1307
100
AcDbEntity
  8
DEFPOINTS
 62
     0
100
AcDbPoint
 10
458.9385730650533
 20
245.886632822161
 30
0.0
  0
ENDBLK
  5
1317
330
1307
100
AcDbEntity
  8
0
100
AcDbBlockEnd
  0
BLOCK
  5
18D9
330
18CF
100
AcDbEntity
  8
0
100
AcDbBlockBegin
  2
*D8
 70
     1
 10
0.0
 20
0.0
 30
0.0
  3
*D8
  1

  0
LINE
  5
18DB
330
18CF
100
AcDbEntity
  8
BEM
 62
     0
370
    -2
100
AcDbLine
 10
355.9426844607899
 20
354.0436406908895
 30
0.0
 11
355.9426844607899
 21
389.8417465885188
 31
0.0
  0
LINE
  5
18DC
330
18CF
100
AcDbEntity
  8
BEM
 62
     0
370
    -2
100
AcDbLine
 10
55.94268446078974
 20
354.0436406908895
 30
0.0
 11
55.94268446078974
 21
389.8417465885188
 31
0.0
  0
LINE
  5
18DD
330
18CF
100
AcDbEntity
  8
BEM
 62
     0
370
    -2
100
AcDbLine
 10
348.9426844607899
 20
387.8417465885187
 30
0.0
 11
62.94268446078973
 21
387.8417465885187
 31
0.0
  0
SOLID
  5
18DE
330
18CF
100
AcDbEntity
  8
BEM
 62
     0
100
AcDbTrace
 10
348.9426844607899
 20
389.0084132551854
 30
0.0
 11
348.9426844607899
 21
386.675079921852
 31
0.0
 12
355.9426844607899
 22
387.8417465885187
 32
0.0
 13
355.9426844607899
 23
387.8417465885187
 33
0.0
  0
SOLID
  5
18DF
330
18CF
100
AcDbEntity
  8
BEM
 62
     0
100
AcDbTrace
 10
62.94268446078973
 20
389.0084132551854
 30
0.0
 11
62.94268446078973
 21
386.675079921852
 31
0.0
 12
55.94268446078974
 22
387.8417465885187
 32
0.0
 13
55.94268446078974
 23
387.8417465885187
 33
0.0
  0
MTEXT
  5
18E0
330
18CF
100
AcDbEntity
  8
BEM
 62
     1
100
AcDbMText
 10
205.9426844607898
 20
394.3417465885188
 30
0.0
 40
7.0
 41
0.0
 71
     5
 72
     1
  1
\A1;%%c300
 73
     1
 44
1.0
  0
POINT
  5
18E1
330
18CF
100
AcDbEntity
  8
DEFPOINTS
 62
     0
100
AcDbPoint
 10
355.9426844607899
 20
352.0436406908895
 30
0.0
  0
POINT
  5
18E2
330
18CF
100
AcDbEntity
  8
DEFPOINTS
 62
     0
100
AcDbPoint
 10
55.94268446078974
 20
352.0436406908895
 30
0.0
  0
POINT
  5
18E3
330
18CF
100
AcDbEntity
  8
DEFPOINTS
 62
     0
100
AcDbPoint
 10
55.94268446078974
 20
387.8417465885187
 30
0.0
  0
ENDBLK
  5
18DA
330
18CF
100
AcDbEntity
  8
0
100
AcDbBlockEnd
  0
BLOCK
  5
1C57
330
1C4D
100
AcDbEntity
  8
0
100
AcDbBlockBegin
  2
*D9
 70
     1
 10
0.0
 20
0.0
 30
0.0
  3
*D9
  1

  0
LINE
  5
1C7D
330
1C4D
100
AcDbEntity
  8
BEM
 62
     0
370
    -2
100
AcDbLine
 10
61.94268446078973
 20
593.8491010452247
 30
0.0
 11
24.70690501648236
 21
593.8491010452247
 31
0.0
  0
LINE
  5
1C7E
330
1C4D
100
AcDbEntity
  8
BEM
 62
     0
370
    -2
100
AcDbLine
 10
123.9426844607897
 20
703.8491010452239
 30
0.0
 11
24.70690501648238
 21
703.8491010452239
 31
0.0
  0
LINE
  5
1C7F
330
1C4D
100
AcDbEntity
  8
BEM
 62
     0
370
    -2
100
AcDbLine
 10
26.70690501648236
 20
600.8491010452247
 30
0.0
 11
26.70690501648238
 21
696.849101045224
 31
0.0
  0
SOLID
  5
1C80
330
1C4D
100
AcDbEntity
  8
BEM
 62
     0
100
AcDbTrace
 10
25.54023834981569
 20
600.8491010452247
 30
0.0
 11
27.87357168314903
 21
600.8491010452247
 31
0.0
 12
26.70690501648236
 22
593.8491010452247
 32
0.0
 13
26.70690501648236
 23
593.8491010452247
 33
0.0
  0
SOLID
  5
1C81
330
1C4D
100
AcDbEntity
  8
BEM
 62
     0
100
AcDbTrace
 10
25.54023834981571
 20
696.849101045224
 30
0.0
 11
27.87357168314905
 21
696.849101045224
 31
0.0
 12
26.70690501648238
 22
703.8491010452239
 32
0.0
 13
26.70690501648238
 23
703.8491010452239
 33
0.0
  0
MTEXT
  5
1C82
330
1C4D
100
AcDbEntity
  8
BEM
 62
     1
100
AcDbMText
 10
20.20690501648227
 20
648.8491010452244
 30
0.0
 40
7.0
 41
0.0
 71
     5
 72
     1
  1
\A1;110
 11
0.0000000000000001
 21
1.0
 31
0.0
 73
     1
 44
1.0
  0
POINT
  5
1C83
330
1C4D
100
AcDbEntity
  8
DEFPOINTS
 62
     0
100
AcDbPoint
 10
63.94268446078974
 20
593.8491010452247
 30
0.0
  0
POINT
  5
1C84
330
1C4D
100
AcDbEntity
  8
DEFPOINTS
 62
     0
100
AcDbPoint
 10
125.9426844607897
 20
703.8491010452239
 30
0.0
  0
POINT
  5
1C85
330
1C4D
100
AcDbEntity
  8
DEFPOINTS
 62
     0
100
AcDbPoint
 10
26.70690501648238
 20
703.8491010452239
 30
0.0
  0
ENDBLK
  5
1C58
330
1C4D
100
AcDbEntity
  8
0
100
AcDbBlockEnd
  0
BLOCK
  5
1C63
330
1C59
100
AcDbEntity
  8
0
100
AcDbBlockBegin
  2
*D10
 70
     1
 10
0.0
 20
0.0
 30
0.0
  3
*D10
  1

  0
LINE
  5
1C86
330
1C59
100
AcDbEntity
  8
BEM
 62
     0
370
    -2
100
AcDbLine
 10
55.94979124197627
 20
584.9704213887856
 30
0.0
 11
55.94979124197628
 21
728.6645085046075
 31
0.0
  0
LINE
  5
1C87
330
1C59
100
AcDbEntity
  8
BEM
 62
     0
370
    -2
100
AcDbLine
 10
355.9486558859041
 20
584.9573431824848
 30
0.0
 11
355.9486558859041
 21
728.6645085046075
 31
0.0
  0
LINE
  5
1C88
330
1C59
100
AcDbEntity
  8
BEM
 62
     0
370
    -2
100
AcDbLine
 10
62.94979124197627
 20
726.6645085046075
 30
0.0
 11
348.9486558859042
 21
726.6645085046075
 31
0.0
  0
SOLID
  5
1C89
330
1C59
100
AcDbEntity
  8
BEM
 62
     0
100
AcDbTrace
 10
62.94979124197627
 20
727.8311751712741
 30
0.0
 11
62.94979124197627
 21
725.4978418379408
 31
0.0
 12
55.94979124197628
 22
726.6645085046075
 32
0.0
 13
55.94979124197628
 23
726.6645085046075
 33
0.0
  0
SOLID
  5
1C8A
330
1C59
100
AcDbEntity
  8
BEM
 62
     0
100
AcDbTrace
 10
348.9486558859042
 20
727.8311751712741
 30
0.0
 11
348.9486558859042
 21
725.4978418379408
 31
0.0
 12
355.9486558859041
 22
726.6645085046075
 32
0.0
 13
355.9486558859041
 23
726.6645085046075
 33
0.0
  0
MTEXT
  5
1C8B
330
1C59
100
AcDbEntity
  8
BEM
 62
     1
100
AcDbMText
 10
205.9492235639402
 20
733.1645085046075
 30
0.0
 40
7.0
 41
0.0
 71
     5
 72
     1
  1
\A1;%%c300
 73
     1
 44
1.0
  0
POINT
  5
1C8C
330
1C59
100
AcDbEntity
  8
DEFPOINTS
 62
     0
100
AcDbPoint
 10
55.94979124197627
 20
582.9704213887857
 30
0.0
  0
POINT
  5
1C8D
330
1C59
100
AcDbEntity
  8
DEFPOINTS
 62
     0
100
AcDbPoint
 10
355.9486558859041
 20
582.9573431824847
 30
0.0
  0
POINT
  5
1C8E
330
1C59
100
AcDbEntity
  8
DEFPOINTS
 62
     0
100
AcDbPoint
 10
355.9486558859041
 20
726.6645085046075
 30
0.0
  0
ENDBLK
  5
1C64
330
1C59
100
AcDbEntity
  8
0
100
AcDbBlockEnd
  0
BLOCK
  5
1C6F
330
1C65
100
AcDbEntity
  8
0
100
AcDbBlockBegin
  2
*D11
 70
     1
 10
0.0
 20
0.0
 30
0.0
  3
*D11
  1

  0
LINE
  5
1C8F
330
1C65
100
AcDbEntity
  8
BEM
 62
     0
370
    -2
100
AcDbLine
 10
121.703301915982
 20
628.8491010452246
 30
0.0
 11
40.71343476716942
 21
628.8491010452246
 31
0.0
  0
LINE
  5
1C90
330
1C65
100
AcDbEntity
  8
BEM
 62
     0
370
    -2
100
AcDbLine
 10
61.94268446078973
 20
593.8491010452247
 30
0.0
 11
40.71343476716942
 21
593.8491010452247
 31
0.0
  0
LINE
  5
1C91
330
1C65
100
AcDbEntity
  8
BEM
 62
     0
370
    -2
100
AcDbLine
 10
42.71343476716942
 20
621.8491010452246
 30
0.0
 11
42.71343476716942
 21
600.8491010452247
 31
0.0
  0
SOLID
  5
1C92
330
1C65
100
AcDbEntity
  8
BEM
 62
     0
100
AcDbTrace
 10
41.54676810050275
 20
621.8491010452246
 30
0.0
 11
43.88010143383608
 21
621.8491010452246
 31
0.0
 12
42.71343476716942
 22
628.8491010452246
 32
0.0
 13
42.71343476716942
 23
628.8491010452246
 33
0.0
  0
SOLID
  5
1C93
330
1C65
100
AcDbEntity
  8
BEM
 62
     0
100
AcDbTrace
 10
41.54676810050275
 20
600.8491010452247
 30
0.0
 11
43.88010143383608
 21
600.8491010452247
 31
0.0
 12
42.71343476716942
 22
593.8491010452247
 32
0.0
 13
42.71343476716942
 23
593.8491010452247
 33
0.0
  0
MTEXT
  5
1C94
330
1C65
100
AcDbEntity
  8
BEM
 62
     1
100
AcDbMText
 10
36.21343476716932
 20
611.3491010452246
 30
0.0
 40
7.0
 41
0.0
 71
     5
 72
     1
  1
\A1;35
 11
0.0000000000000001
 21
1.0
 31
0.0
 73
     1
 44
1.0
  0
POINT
  5
1C95
330
1C65
100
AcDbEntity
  8
DEFPOINTS
 62
     0
100
AcDbPoint
 10
123.703301915982
 20
628.8491010452246
 30
0.0
  0
POINT
  5
1C96
330
1C65
100
AcDbEntity
  8
DEFPOINTS
 62
     0
100
AcDbPoint
 10
63.94268446078974
 20
593.8491010452247
 30
0.0
  0
POINT
  5
1C97
330
1C65
100
AcDbEntity
  8
DEFPOINTS
 62
     0
100
AcDbPoint
 10
42.71343476716942
 20
593.8491010452247
 30
0.0
  0
ENDBLK
  5
1C70
330
1C65
100
AcDbEntity
  8
0
100
AcDbBlockEnd
  0
BLOCK
  5
1C7B
330
1C71
100
AcDbEntity
  8
0
100
AcDbBlockBegin
  2
*D12
 70
     1
 10
0.0
 20
0.0
 30
0.0
  3
*D12
  1

  0
LINE
  5
1C98
330
1C71
100
AcDbEntity
  8
BEM
 62
     0
370
    -2
100
AcDbLine
 10
95.94268446078999
 20
685.8490430779092
 30
0.0
 11
95.94268446078999
 21
715.1883181920151
 31
0.0
  0
LINE
  5
1C99
330
1C71
100
AcDbEntity
  8
BEM
 62
     0
370
    -2
100
AcDbLine
 10
315.9426844607903
 20
685.8490430779092
 30
0.0
 11
315.9426844607903
 21
715.1883181920151
 31
0.0
  0
LINE
  5
1C9A
330
1C71
100
AcDbEntity
  8
BEM
 62
     0
370
    -2
100
AcDbLine
 10
102.94268446079
 20
713.1883181920151
 30
0.0
 11
308.9426844607903
 21
713.1883181920151
 31
0.0
  0
SOLID
  5
1C9B
330
1C71
100
AcDbEntity
  8
BEM
 62
     0
100
AcDbTrace
 10
102.94268446079
 20
714.3549848586817
 30
0.0
 11
102.94268446079
 21
712.0216515253485
 31
0.0
 12
95.94268446078999
 22
713.1883181920151
 32
0.0
 13
95.94268446078999
 23
713.1883181920151
 33
0.0
  0
SOLID
  5
1C9C
330
1C71
100
AcDbEntity
  8
BEM
 62
     0
100
AcDbTrace
 10
308.9426844607903
 20
714.3549848586817
 30
0.0
 11
308.9426844607903
 21
712.0216515253485
 31
0.0
 12
315.9426844607903
 22
713.1883181920151
 32
0.0
 13
315.9426844607903
 23
713.1883181920151
 33
0.0
  0
MTEXT
  5
1C9D
330
1C71
100
AcDbEntity
  8
BEM
 62
     1
100
AcDbMText
 10
205.9426844607901
 20
719.6883181920151
 30
0.0
 40
7.0
 41
0.0
 71
     5
 72
     1
  1
\A1;%%c220
 73
     1
 44
1.0
  0
POINT
  5
1C9E
330
1C71
100
AcDbEntity
  8
DEFPOINTS
 62
     0
100
AcDbPoint
 10
95.94268446078999
 20
683.8490430779091
 30
0.0
  0
POINT
  5
1C9F
330
1C71
100
AcDbEntity
  8
DEFPOINTS
 62
     0
100
AcDbPoint
 10
315.9426844607903
 20
683.8490430779091
 30
0.0
  0
POINT
  5
1CA0
330
1C71
100
AcDbEntity
  8
DEFPOINTS
 62
     0
100
AcDbPoint
 10
315.9426844607903
 20
713.1883181920151
 30
0.0
  0
ENDBLK
  5
1C7C
330
1C71
100
AcDbEntity
  8
0
100
AcDbBlockEnd
  0
ENDSEC
  0
SECTION
  2
ENTITIES
  0
LINE
  5
58
330
1E
100
AcDbEntity
  8
STEMPEL
100
AcDbLine
 10
484.0
 20
830.0000000000002
 30
0.0
 11
484.0
 21
470.0000000000001
 31
0.0
  0
LINE
  5
59
330
1E
100
AcDbEntity
  8
STEMPEL
100
AcDbLine
 10
484.0
 20
470.0000000000001
 30
0.0
 11
584.0
 21
470.0000000000001
 31
0.0
  0
LINE
  5
5A
330
1E
100
AcDbEntity
  8
STEMPEL
100
AcDbLine
 10
484.0000000000001
 20
566.0000000000002
 30
0.0
 11
584.0000000000001
 21
566.0
 31
0.0
  0
LINE
  5
5B
330
1E
100
AcDbEntity
  8
STEMPEL
100
AcDbLine
 10
484.0
 20
650.0
 30
0.0
 11
584.0
 21
650.0
 31
0.0
  0
LINE
  5
5C
330
1E
100
AcDbEntity
  8
STEMPEL
100
AcDbLine
 10
484.0000000000003
 20
752.0000000000002
 30
0.0
 11
554.0
 21
752.0000000000002
 31
0.0
  0
LINE
  5
5D
330
1E
100
AcDbEntity
  8
STEMPEL
100
AcDbLine
 10
564.0
 20
566.0
 30
0.0
 11
564.0
 21
470.0000000000001
 31
0.0
  0
LINE
  5
5E
330
1E
100
AcDbEntity
  8
STEMPEL
100
AcDbLine
 10
554.0
 20
830.0000000000002
 30
0.0
 11
554.0
 21
566.0
 31
0.0
  0
LINE
  5
5F
330
1E
100
AcDbEntity
  8
STEMPEL
100
AcDbLine
 10
514.0
 20
830.0000000000002
 30
0.0
 11
514.0
 21
566.0000000000002
 31
0.0
  0
LINE
  5
60
330
1E
100
AcDbEntity
  8
VOLL
100
AcDbLine
 10
484.0
 20
484.0000000000001
 30
0.0
 11
584.0
 21
484.0
 31
0.0
  0
LINE
  5
61
330
1E
100
AcDbEntity
  8
VOLL
100
AcDbLine
 10
484.0000000000001
 20
524.0000000000001
 30
0.0
 11
584.0000000000001
 21
524.0
 31
0.0
  0
LINE
  5
62
330
1E
100
AcDbEntity
  8
VOLL
100
AcDbLine
 10
484.0000000000001
 20
544.0000000000002
 30
0.0
 11
584.0000000000001
 21
544.0
 31
0.0
  0
LINE
  5
63
330
1E
100
AcDbEntity
  8
VOLL
100
AcDbLine
 10
514.0
 20
584.0000000000002
 30
0.0
 11
554.0
 21
584.0000000000002
 31
0.0
  0
LINE
  5
64
330
1E
100
AcDbEntity
  8
VOLL
100
AcDbLine
 10
484.0000000000002
 20
610.0000000000002
 30
0.0
 11
554.0
 21
610.0
 31
0.0
  0
LINE
  5
65
330
1E
100
AcDbEntity
  8
HILF
100
AcDbLine
 10
494.0
 20
470.0000000000001
 30
0.0
 11
494.0
 21
566.0000000000002
 31
0.0
  0
LINE
  5
66
330
1E
100
AcDbEntity
  8
HILF
100
AcDbLine
 10
504.0
 20
470.0000000000001
 30
0.0
 11
504.0
 21
566.0000000000002
 31
0.0
  0
LINE
  5
67
330
1E
100
AcDbEntity
  8
HILF
100
AcDbLine
 10
514.0
 20
470.0000000000001
 30
0.0
 11
514.0
 21
566.0000000000002
 31
0.0
  0
LINE
  5
68
330
1E
100
AcDbEntity
  8
HILF
100
AcDbLine
 10
524.0
 20
470.0000000000001
 30
0.0
 11
524.0
 21
566.0000000000002
 31
0.0
  0
LINE
  5
69
330
1E
100
AcDbEntity
  8
HILF
100
AcDbLine
 10
534.0
 20
470.0000000000001
 30
0.0
 11
534.0
 21
566.0000000000002
 31
0.0
  0
LINE
  5
6A
330
1E
100
AcDbEntity
  8
HILF
100
AcDbLine
 10
544.0
 20
470.0000000000001
 30
0.0
 11
544.0
 21
566.0000000000002
 31
0.0
  0
LINE
  5
6B
330
1E
100
AcDbEntity
  8
HILF
100
AcDbLine
 10
554.0
 20
470.0000000000001
 30
0.0
 11
554.0
 21
566.0000000000002
 31
0.0
  0
LINE
  5
6C
330
1E
100
AcDbEntity
  8
HILF
100
AcDbLine
 10
524.0
 20
566.0000000000002
 30
0.0
 11
524.0
 21
650.0
 31
0.0
  0
LINE
  5
6D
330
1E
100
AcDbEntity
  8
HILF
100
AcDbLine
 10
534.0
 20
566.0000000000002
 30
0.0
 11
534.0
 21
650.0
 31
0.0
  0
LINE
  5
6E
330
1E
100
AcDbEntity
  8
HILF
100
AcDbLine
 10
544.0
 20
566.0000000000002
 30
0.0
 11
544.0
 21
650.0
 31
0.0
  0
LINE
  5
6F
330
1E
100
AcDbEntity
  8
HILF
100
AcDbLine
 10
509.9624175243587
 20
654.7736801096948
 30
0.0
 11
509.9624175243587
 21
746.6297842514811
 31
0.0
  0
LINE
  5
70
330
1E
100
AcDbEntity
  8
HILF
100
AcDbLine
 10
524.0
 20
654.7736801096948
 30
0.0
 11
524.0
 21
746.6297842514811
 31
0.0
  0
LINE
  5
71
330
1E
100
AcDbEntity
  8
HILF
100
AcDbLine
 10
534.0
 20
654.7736801096948
 30
0.0
 11
534.0
 21
746.6297842514811
 31
0.0
  0
LINE
  5
72
330
1E
100
AcDbEntity
  8
HILF
100
AcDbLine
 10
544.0
 20
654.7736801096948
 30
0.0
 11
544.0
 21
746.6297842514811
 31
0.0
  0
LINE
  5
73
330
1E
100
AcDbEntity
  8
VOLL
100
AcDbLine
 10
534.0
 20
752.0000000000002
 30
0.0
 11
534.0
 21
830.0000000000002
 31
0.0
  0
LINE
  5
74
330
1E
100
AcDbEntity
  8
HILF
100
AcDbLine
 10
510.2201636304418
 20
756.7238616296995
 30
0.0
 11
510.2201636304418
 21
824.858883932673
 31
0.0
  0
LINE
  5
75
330
1E
100
AcDbEntity
  8
HILF
100
AcDbLine
 10
579.1060174197169
 20
654.7736801096948
 30
0.0
 11
579.1060174197169
 21
824.858883932673
 31
0.0
  0
TEXT
  5
76
330
1E
100
AcDbEntity
  8
TEXT
100
AcDbText
 10
575.3261810501587
 20
492.3998239263297
 30
0.0
 40
4.0
  1
Änderung
 50
90.0
 41
0.8
  7
GREEKS
 72
     1
 11
575.3261810501587
 21
503.1426810691868
 31
0.0
100
AcDbText
  0
TEXT
  5
78
330
1E
100
AcDbEntity
  8
TEXT
100
AcDbText
 10
491.5379104912911
 20
573.5163572150376
 30
0.0
 40
5.0
  1
Maßstab
 50
90.0
 41
0.8
  7
GREEKS
100
AcDbText
  0
TEXT
  5
79
330
1E
100
AcDbEntity
  8
TEXT
100
AcDbText
 10
491.4510671988221
 20
654.8779403809009
 30
0.0
 40
5.0
  1
Benennung
 50
90.0
 41
0.8
  7
GREEKS
100
AcDbText
  0
TEXT
  5
7A
330
1E
100
AcDbEntity
  8
TEXT
100
AcDbText
 10
491.6867965462863
 20
756.1787549576343
 30
0.0
 40
5.0
  1
Zeichnungs Nr.
 50
90.0
 41
0.8
  7
GREEKS
100
AcDbText
  0
TEXT
  5
7B
330
1E
100
AcDbEntity
  8
TEXT
100
AcDbText
 10
563.1543942980694
 20
654.7422383911359
 30
0.0
 40
5.0
  1
Bauvorhaben
 50
90.0
 41
0.8
  7
GREEKS
100
AcDbText
  0
TEXT
  5
7C
330
1E
100
AcDbEntity
  8
TEXT
100
AcDbText
 10
520.8188176290003
 20
756.7238616296995
 30
0.0
 40
5.0
  1
Ersatz für:
 50
90.0
 41
0.8
  7
GREEKS
100
AcDbText
  0
TEXT
  5
7D
330
1E
100
AcDbEntity
  8
TEXT
100
AcDbText
 10
580.3453415397281
 20
478.2664110704576
 30
0.0
 40
4.0
  1
Index
 50
180.0
 41
0.8
  7
GREEKS
100
AcDbText
  0
TEXT
  5
7E
330
1E
100
AcDbEntity
  8
TEXT
100
AcDbText
 10
575.3284373066019
 20
529.8990113186978
 30
0.0
 40
4.0
  1
Tag
 50
90.0
 41
0.8
  7
GREEKS
 72
     1
 11
575.3284373066019
 21
533.6323446520311
 31
0.0
100
AcDbText
  0
TEXT
  5
7F
330
1E
100
AcDbEntity
  8
TEXT
100
AcDbText
 10
575.4067578303359
 20
548.9795678138292
 30
0.0
 40
4.0
  1
Name
 50
90.0
 41
0.8
  7
GREEKS
 72
     1
 11
575.4067578303359
 21
555.3033773376387
 31
0.0
100
AcDbText
  0
TEXT
  5
80
330
1E
100
AcDbEntity
  8
TEXT
100
AcDbText
 10
520.6811949877008
 20
592.3311673153651
 30
0.0
 40
4.0
  1
Tag
 50
90.0
 41
0.8
  7
GREEKS
100
AcDbText
  0
TEXT
  5
81
330
1E
100
AcDbEntity
  8
TEXT
100
AcDbText
 10
520.6903890808478
 20
622.4626584226296
 30
0.0
 40
4.0
  1
Name
 50
90.0
 41
0.8
  7
GREEKS
100
AcDbText
  0
TEXT
  5
82
330
1E
100
AcDbEntity
  8
TEXT
100
AcDbText
 10
530.3700963038204
 20
567.5836127167615
 30
0.0
 40
4.0
  1
Gez.
 50
90.0
 41
0.8
  7
GREEKS
100
AcDbText
  0
TEXT
  5
83
330
1E
100
AcDbEntity
  8
TEXT
100
AcDbText
 10
540.3107370857163
 20
567.5515086571672
 30
0.0
 40
4.0
  1
Gepr.
 50
90.0
 41
0.8
  7
GREEKS
100
AcDbText
  0
TEXT
  5
84
330
1E
100
AcDbEntity
  8
TEXT
100
AcDbText
 10
550.470536103502
 20
567.6006777387303
 30
0.0
 40
4.0
  1
Norm.
 50
90.0
 41
0.8
  7
GREEKS
100
AcDbText
  0
TEXT
  5
85
330
1E
100
AcDbEntity
  8
TEXT
100
AcDbText
 10
541.925838221214
 20
757.2400861497007
 30
0.0
 40
5.0
  1
ersetzt durch:
 50
90.0
 41
0.8
  7
GREEKS
100
AcDbText
  0
TEXT
  5
86
330
1E
100
AcDbEntity
  8
TEXT
100
AcDbText
 10
521.0331740347627
 20
568.8693027807324
 30
0.0
 40
4.0
  1
2010
 50
90.0
 41
0.8
  7
GREEKS
100
AcDbText
  0
LINE
  5
87
330
1E
100
AcDbEntity
  8
HILF
100
AcDbLine
 10
594.0
 20
-0.0000000000000568
 30
0.0
 11
594.0
 21
840.0
 31
0.0
  0
LINE
  5
88
330
1E
100
AcDbEntity
  8
HILF
100
AcDbLine
 10
594.0
 20
840.0
 30
0.0
 11
0.0
 21
840.0
 31
0.0
  0
LINE
  5
89
330
1E
100
AcDbEntity
  8
HILF
100
AcDbLine
 10
0.0
 20
840.0
 30
0.0
 11
0.0
 21
0.0
 31
0.0
  0
LINE
  5
8B
330
1E
100
AcDbEntity
  8
STEMPEL
100
AcDbLine
 10
10.0
 20
830.0
 30
0.0
 11
10.0
 21
39.99999999999995
 31
0.0
  0
LINE
  5
8D
330
1E
100
AcDbEntity
  8
STEMPEL
100
AcDbLine
 10
584.0
 20
39.99999999999995
 30
0.0
 11
584.0
 21
830.0
 31
0.0
  0
LINE
  5
8E
330
1E
100
AcDbEntity
  8
STEMPEL
100
AcDbLine
 10
584.0
 20
830.0
 30
0.0
 11
10.0
 21
830.0
 31
0.0
  0
TEXT
  5
91
330
1E
100
AcDbEntity
  8
TEXT
100
AcDbText
 10
491.16010388621
 20
618.5090226415829
 30
0.0
 40
5.0
  1
Zul.Abw.
 50
90.0
 41
0.8
  7
GREEKS
100
AcDbText
  0
TEXT
  5
99
330
1E
100
AcDbEntity
  8
TEXT
 62
     1
100
AcDbText
 10
506.5292291158502
 20
582.703491203422
 30
0.0
 40
7.0
  1
1:2
 50
90.0
 41
0.8
  7
GREEKS
100
AcDbText
  0
TEXT
  5
9A
330
1E
100
AcDbEntity
  8
TEXT
100
AcDbText
 10
479.8856414948956
 20
470.0441139350127
 30
0.0
 40
5.0
  1
Erstellt mit AUTOCAD 2004
 50
90.0
 41
0.8
  7
GREEKS
100
AcDbText
  0
INSERT
  5
9B
330
1E
100
AcDbEntity
  8
HILF
100
AcDbBlockReference
  2
LORO
 10
557.0194069970104
 20
573.0624985962354
 30
0.0
 41
2.0
 42
2.0
 43
2.0
 50
90.0
  0
LINE
  5
9C
330
1E
100
AcDbEntity
  8
BEM
100
AcDbLine
 10
594.0
 20
455.9999999999999
 30
0.0
 11
584.0
 21
455.9999999999999
 31
0.0
  0
LINE
  5
13E
330
1E
100
AcDbEntity
  8
HILF
100
AcDbLine
 10
594.0
 20
-0.0000000000000568
 30
0.0
 11
0.0
 21
0.0
 31
0.0
  0
LINE
  5
13F
330
1E
100
AcDbEntity
  8
STEMPEL
100
AcDbLine
 10
584.0
 20
39.99999999999995
 30
0.0
 11
10.0
 21
39.99999999999995
 31
0.0
  0
LINE
  5
14A
330
1E
100
AcDbEntity
  8
HILF
100
AcDbLine
 10
297.0
 20
-0.0000000000000568
 30
0.0
 11
297.0
 21
39.99999999999995
 31
0.0
  0
TEXT
  5
15B
330
1E
100
AcDbEntity
  8
BEM
100
AcDbText
 10
583.8320989200114
 20
837.3022923857165
 30
0.0
 40
4.0
  1
Diese Zeichnung ist urheberrechtlich geschützt und bleibt unser Eigentum. Sie darf weder ganz noch teilweise verfielfältigt und nicht an Dritte weitergegeben werden.
 50
180.0
 41
0.8
  7
GREEKS
100
AcDbText
  0
TEXT
  5
8F3
330
1E
100
AcDbEntity
  8
TEXT
 62
     1
100
AcDbText
 10
508.2201636304418
 20
767.4377728175698
 30
0.0
 40
7.0
  1
21734100W
 50
90.0
 41
0.8
 72
     1
 11
508.2201636304418
 21
790.3711061509032
 31
0.0
100
AcDbText
  0
TEXT
  5
8F4
330
1E
100
AcDbEntity
  8
TEXT
 62
     1
100
AcDbText
 10
507.9624175243587
 20
654.9791173409951
 30
0.0
 40
7.0
  1
Drainlet Notablauf DN100
 50
90.0
 41
0.7
100
AcDbText
  0
TEXT
  5
8F5
330
1E
100
AcDbEntity
  8
TEXT
100
AcDbText
 10
522.0
 20
654.8629872542571
 30
0.0
 40
5.0
  1
Kompletteinheit, zweiteilig
 50
90.0
 41
0.8
100
AcDbText
  0
TEXT
  5
8F6
330
1E
100
AcDbEntity
  8
TEXT
100
AcDbText
 10
532.0
 20
654.8629872542571
 30
0.0
 40
5.0
  1

 50
90.0
 41
0.8
100
AcDbText
  0
TEXT
  5
8F7
330
1E
100
AcDbEntity
  8
TEXT
100
AcDbText
 10
542.0
 20
655.1623031583292
 30
0.0
 40
5.0
  1
EDV-Art.Nr. 21734.100X
 50
90.0
 41
0.8
100
AcDbText
  0
TEXT
  5
8F8
330
1E
100
AcDbEntity
  8
TEXT
100
AcDbText
 10
552.0
 20
654.9713400534565
 30
0.0
 40
4.0
  1
21734100W.DWG
 50
90.0
 41
0.8
100
AcDbText
  0
TEXT
  5
8F9
330
1E
100
AcDbEntity
  8
TEXT
100
AcDbText
 10
506.0254814117801
 20
613.0095238095239
 30
0.0
 40
4.0
  1
DIN EN1124-3
 50
90.0
 41
0.8
 72
     1
 11
506.0254814117801
 21
630.0000000000001
 31
0.0
100
AcDbText
  0
TEXT
  5
8FA
330
1E
100
AcDbEntity
  8
TEXT
100
AcDbText
 10
531.0
 20
624.7428571428572
 30
0.0
 40
4.0
  1
Koeh
 50
90.0
 41
0.8
 72
     4
 11
529.0
 21
630.0000000000001
 31
0.0
100
AcDbText
  0
TEXT
  5
8FB
330
1E
100
AcDbEntity
  8
TEXT
100
AcDbText
 10
531.0
 20
590.6000000000001
 30
0.0
 40
4.0
  1
14.12.
 50
90.0
 41
0.8
 72
     4
 11
529.0
 21
597.0000000000001
 31
0.0
100
AcDbText
  0
LINE
  5
C2F
330
1E
100
AcDbEntity
  8
MITTEL
100
AcDbLine
 10
205.9426844607899
 20
259.04364069089
 30
0.0
 11
495.9358321345628
 21
243.8457438140074
 31
0.0
  0
HATCH
  5
C37
330
1E
100
AcDbEntity
  8
SCHRAFF
100
AcDbHatch
 10
0.0
 20
0.0
 30
0.0
210
0.0
220
0.0
230
1.0
  2
_USER
 70
     0
 71
     1
 91
        2
 92
        7
 72
     1
 73
     1
 93
       10
 10
154.4426844607897
 20
325.7617791594086
 42
0.0
 10
155.1349540939106
 20
317.8491010452252
 42
0.0
 10
156.6406838502255
 20
317.8491010452252
 42
0.0
 10
155.9426844607898
 20
325.8272705737711
 42
0.0
 10
155.9426844607898
 20
562.9348874828524
 42
0.1989123673796526
 10
154.0388785385036
 20
567.5310815605653
 42
0.0
 10
146.6926844607898
 20
574.8772756382784
 42
0.0
 10
145.63202428901
 20
573.8166154664985
 42
0.0
 10
152.9782183667231
 20
566.4704213887859
 42
-0.1989123673796876
 10
154.4426844607898
 20
562.9348874828524
 42
0.0
 97
       10
330
D7F
330
D7C
330
D7D
330
D80
330
D81
330
C39
330
C8D
330
C61
330
C8E
330
C3A
 92
        7
 72
     1
 73
     1
 93
       10
 10
257.4426844607899
 20
562.9348874828531
 42
-0.1989123673796496
 10
258.9071505548564
 20
566.4704213887859
 42
0.0
 10
266.2533446325697
 20
573.8166154664987
 42
0.0
 10
265.1926844607897
 20
574.8772756382783
 42
0.0
 10
257.8464903830767
 20
567.5310815605658
 42
0.198912367379652
 10
255.94268446079
 20
562.9348874828531
 42
0.0
 10
255.9426844607899
 20
325.8272705737712
 42
0.0
 10
255.2446850713541
 20
317.8491010452247
 42
0.0
 10
256.7504148276691
 20
317.8491010452248
 42
0.0
 10
257.4426844607899
 20
325.7617791594083
 42
0.0
 97
       10
330
DF3
330
DF1
330
DF4
330
CFC
330
DF2
330
C3B
330
CA8
330
C61
330
CA7
330
C3C
 75
     0
 76
     0
 52
135.0
 41
2.0
 77
     0
 78
     1
 53
135.0
 43
-23.97272658011161
 44
-0.0000000000001137
 45
-1.414213562373095
 46
-1.414213562373094
 79
     0
 47
0.5722558680986915
 98
        2
 10
155.3451822319439
 20
524.4154622893669
 10
256.7105646411346
 20
504.9587620851728
  0
LINE
  5
C38
330
1E
100
AcDbEntity
  8
MITTEL
100
AcDbLine
 10
205.9426844607898
 20
710.3491010452241
 30
0.0
 11
205.9426844607899
 21
402.6830202750168
 31
0.0
  0
LINE
  5
C39
102
{ACAD_REACTORS
330
C37
102
}
330
1E
100
AcDbEntity
  8
STEMPEL
100
AcDbLine
 10
154.4426844607898
 20
562.9348874828524
 30
0.0
 11
154.4426844607898
 21
325.7617791594088
 31
0.0
  0
LINE
  5
C3A
102
{ACAD_REACTORS
330
C37
102
}
330
1E
100
AcDbEntity
  8
STEMPEL
100
AcDbLine
 10
155.9426844607898
 20
562.9348874828524
 30
0.0
 11
155.9426844607898
 21
325.8272705737712
 31
0.0
  0
LINE
  5
C3B
102
{ACAD_REACTORS
330
C37
102
}
330
1E
100
AcDbEntity
  8
STEMPEL
100
AcDbLine
 10
255.94268446079
 20
562.9348874828531
 30
0.0
 11
255.9426844607899
 21
325.8272705737712
 31
0.0
  0
LINE
  5
C3C
102
{ACAD_REACTORS
330
C37
102
}
330
1E
100
AcDbEntity
  8
STEMPEL
100
AcDbLine
 10
257.4426844607899
 20
562.9348874828531
 30
0.0
 11
257.4426844607899
 21
325.7617791594079
 31
0.0
  0
DIMENSION
  5
C3D
330
1E
100
AcDbEntity
  8
BEM
100
AcDbDimension
  2
*D2
 10
38.14631652053331
 20
355.0436406908895
 30
0.0
 11
32.64631652053326
 21
471.4463708680571
 31
0.0
 70
    32
  1
min.35 - max.230
 71
     5
 42
232.8054603543352
  3
Standard
100
AcDbAlignedDimension
 13
55.94268446078991
 23
587.8491010452246
 33
0.0
 14
63.94268446078974
 24
355.0436406908895
 34
0.0
 50
90.0
100
AcDbRotatedDimension
1001
ACAD
1000
DSTYLE
1002
{
1070
    40
1040
2.0
1070
    41
1040
3.5
1070
    42
1040
1.0
1070
    43
1040
7.0
1070
    44
1040
1.0
1070
    47
1040
2.0
1070
    48
1040
2.0
1070
    73
1070
     0
1070
    74
1070
     0
1070
    77
1070
     1
1070
    78
1070
     8
1070
    79
1070
     2
1070
   140
1040
3.5
1070
   141
1040
1.5
1070
   146
1040
0.5142857142857144
1070
   147
1040
1.0
1070
   172
1070
     1
1070
   178
1070
     1
1070
   179
1070
     1
1070
   271
1070
     1
1070
   272
1070
     1
1070
   279
1070
     0
1002
}
  0
LINE
  5
C61
102
{ACAD_REACTORS
330
C37
102
}
330
1E
100
AcDbEntity
  8
STEMPEL
100
AcDbLine
 10
155.1349540939105
 20
317.8491010452252
 30
0.0
 11
256.7504148276691
 21
317.8491010452248
 31
0.0
  0
LINE
  5
C62
330
1E
100
AcDbEntity
  8
HILF
100
AcDbLine
 10
157.9465042983331
 20
325.8491010452252
 30
0.0
 11
253.9388646232467
 21
325.8491010452248
 31
0.0
  0
LINE
  5
C8D
102
{ACAD_REACTORS
330
C37
102
}
330
1E
100
AcDbEntity
  8
STEMPEL
100
AcDbLine
 10
154.4426844607898
 20
325.7617791594088
 30
0.0
 11
155.1349540939105
 21
317.8491010452252
 31
0.0
  0
LINE
  5
C8E
102
{ACAD_REACTORS
330
C37
102
}
330
1E
100
AcDbEntity
  8
STEMPEL
100
AcDbLine
 10
155.9426844607898
 20
325.8272705737712
 30
0.0
 11
156.6406838502255
 21
317.8491010452252
 31
0.0
  0
LINE
  5
CA7
102
{ACAD_REACTORS
330
C37
102
}
330
1E
100
AcDbEntity
  8
STEMPEL
100
AcDbLine
 10
257.4426844607899
 20
325.7617791594079
 30
0.0
 11
256.7504148276691
 21
317.8491010452248
 31
0.0
  0
LINE
  5
CA8
102
{ACAD_REACTORS
330
C37
102
}
330
1E
100
AcDbEntity
  8
STEMPEL
100
AcDbLine
 10
255.9426844607899
 20
325.8272705737712
 30
0.0
 11
255.2446850713541
 21
317.8491010452248
 31
0.0
  0
TEXT
  5
CF5
330
1E
100
AcDbEntity
  8
TEXT
 62
     1
100
AcDbText
 10
431.5740284780631
 20
250.8044234296082
 30
0.0
 40
7.0
  1
DN100
 50
356.0000000000035
 41
0.8
  7
GREEKS
100
AcDbText
  0
HATCH
  5
CFA
330
1E
100
AcDbEntity
  8
SCHRAFF
100
AcDbHatch
 10
0.0
 20
0.0
 30
0.0
210
0.0
220
0.0
230
1.0
  2
_USER
 70
     0
 71
     1
 91
        2
 92
        7
 72
     1
 73
     1
 93
       11
 10
60.77111158553623
 20
587.8491010452255
 42
0.1989123673796629
 10
58.64979124197657
 20
586.9704213887851
 42
0.0
 10
55.94268446079001
 20
584.2633146075985
 42
0.0
 10
58.06400480434962
 20
582.1419942640388
 42
0.0
 10
60.77111158553623
 20
584.8491010452256
 42
0.0
 10
131.6497912419768
 20
584.849101045225
 42
-0.1989123673796601
 10
133.0640048043499
 20
584.2633146075981
 42
0.0
 10
144.5713641172303
 20
572.7559552947187
 42
0.0
 10
146.6926844607898
 20
574.8772756382784
 42
0.0
 10
135.1853251479092
 20
586.3846349511582
 42
0.1989123673796465
 10
131.6497912419766
 20
587.8491010452253
 42
0.0
 97
       11
330
D04
330
D1E
330
D1B
330
D19
330
D1A
330
D0E
330
D58
330
D2C
330
D7D
330
D7C
330
D2B
 92
        7
 72
     1
 73
     1
 93
       11
 10
280.2355776796029
 20
587.849101045225
 42
0.1989123673796687
 10
276.7000437736699
 20
586.3846349511578
 42
0.0
 10
265.1926844607897
 20
574.8772756382784
 42
0.0
 10
267.3140048043493
 20
572.7559552947188
 42
0.0
 10
278.8213641172298
 20
584.2633146075984
 42
-0.1989123673796442
 10
280.2355776796029
 20
584.849101045225
 42
0.0
 10
351.1142573360452
 20
584.8491010452241
 42
0.0
 10
353.8213641172304
 20
582.1419942640388
 42
0.0
 10
355.94268446079
 20
584.2633146075983
 42
0.0
 10
353.2355776796034
 20
586.9704213887851
 42
0.1989123673796376
 10
351.1142573360438
 20
587.8491010452246
 42
0.0
 97
       11
330
EB5
330
D04
330
E59
330
CFC
330
DF4
330
CFB
330
E5A
330
E48
330
EB2
330
EB1
330
EB3
 75
     0
 76
     0
 52
45.0
 41
2.0
 77
     0
 78
     1
 53
45.0
 43
-23.97272658011161
 44
-0.0000000000001137
 45
-1.414213562373094
 46
1.414213562373095
 79
     0
 47
0.3578591719262521
 98
        2
 10
124.7613263170092
 20
586.4504973559008
 10
318.8667110199371
 20
586.8083569514445
  0
LINE
  5
CFB
102
{ACAD_REACTORS
330
CFA
102
}
330
1E
100
AcDbEntity
  8
STEMPEL
100
AcDbLine
 10
278.8213641172298
 20
584.2633146075984
 30
0.0
 11
267.3140048043493
 21
572.7559552947188
 31
0.0
  0
LINE
  5
CFC
102
{ACAD_REACTORS
330
C37
330
CFA
102
}
330
1E
100
AcDbEntity
  8
STEMPEL
100
AcDbLine
 10
276.7000437736702
 20
586.3846349511582
 30
0.0
 11
257.8464903830767
 21
567.5310815605658
 31
0.0
  0
LINE
  5
D04
102
{ACAD_REACTORS
330
CFA
102
}
330
1E
100
AcDbEntity
  8
STEMPEL
100
AcDbLine
 10
55.94268446078991
 20
587.8491010452255
 30
0.0
 11
355.9426844607899
 21
587.8491010452246
 31
0.0
  0
LINE
  5
D0D
330
1E
100
AcDbEntity
  8
STEMPEL
100
AcDbLine
 10
58.06400480434956
 20
582.1419942640388
 30
0.0
 11
135.1853251479094
 21
582.1419942640388
 31
0.0
  0
LINE
  5
D0E
102
{ACAD_REACTORS
330
CFA
102
}
330
1E
100
AcDbEntity
  8
STEMPEL
100
AcDbLine
 10
60.77111158553623
 20
584.8491010452256
 30
0.0
 11
131.6497912419768
 21
584.849101045225
 31
0.0
  0
LINE
  5
D19
102
{ACAD_REACTORS
330
CFA
102
}
330
1E
100
AcDbEntity
  8
STEMPEL
100
AcDbLine
 10
55.94268446079002
 20
584.2633146075984
 30
0.0
 11
58.06400480434956
 21
582.1419942640388
 31
0.0
  0
LINE
  5
D1A
102
{ACAD_REACTORS
330
CFA
102
}
330
1E
100
AcDbEntity
  8
STEMPEL
100
AcDbLine
 10
58.06400480434956
 20
582.1419942640388
 30
0.0
 11
60.77111158553623
 21
584.8491010452256
 31
0.0
  0
LINE
  5
D1B
102
{ACAD_REACTORS
330
CFA
102
}
330
1E
100
AcDbEntity
  8
STEMPEL
100
AcDbLine
 10
55.94268446079002
 20
584.2633146075984
 30
0.0
 11
58.64979124197657
 21
586.9704213887851
 31
0.0
  0
ARC
  5
D1E
102
{ACAD_REACTORS
330
CFA
102
}
330
1E
100
AcDbEntity
  8
STEMPEL
100
AcDbCircle
 10
60.77111158553623
 20
584.8491010452256
 30
0.0
 40
3.0
100
AcDbArc
 50
90.0
 51
134.9999999999996
  0
LINE
  5
D27
330
1E
100
AcDbEntity
  8
HILF
100
AcDbLine
 10
157.0461462218947
 20
565.4223297932262
 30
0.0
 11
254.8392226996853
 21
565.4223297932262
 31
0.0
  0
LINE
  5
D28
330
1E
100
AcDbEntity
  8
STEMPEL
100
AcDbLine
 10
265.1926844607898
 20
574.8772756382784
 30
0.0
 11
146.6926844607898
 21
574.8772756382784
 31
0.0
  0
HATCH
  5
D29
330
1E
100
AcDbEntity
  8
SCHRAFF
100
AcDbHatch
 10
0.0
 20
0.0
 30
0.0
210
0.0
220
0.0
230
1.0
  2
_USER
 70
     0
 71
     0
 91
        2
 92
        7
 72
     1
 73
     1
 93
        4
 10
147.0462378513831
 20
572.4024019041255
 42
0.0
 10
145.63202428901
 20
573.8166154664987
 42
0.0
 10
144.5713641172303
 20
572.7559552947186
 42
0.0
 10
143.6359497705367
 20
573.6913696414121
 42
0.6457513110645602
 97
        0
 92
        7
 72
     1
 73
     1
 93
        4
 10
268.2494191510431
 20
573.6913696414126
 42
0.0
 10
267.3140048043493
 20
572.7559552947187
 42
0.0
 10
266.2533446325696
 20
573.8166154664987
 42
0.0
 10
264.8391310701966
 20
572.4024019041256
 42
0.6457513110646804
 97
        0
 75
     0
 76
     0
 52
0.0
 41
0.1
 77
     0
 78
     1
 53
0.0
 43
-23.97272658011161
 44
0.0
 45
0.0
 46
0.1
 79
     0
 47
0.2429454332087979
 98
        2
 10
145.7670122200453
 20
572.365016847254
 10
266.6016114231844
 20
572.365016847254
  0
ARC
  5
D2B
102
{ACAD_REACTORS
330
CFA
102
}
330
1E
100
AcDbEntity
  8
STEMPEL
100
AcDbCircle
 10
131.6497912419767
 20
582.8491010452252
 30
0.0
 40
5.0
100
AcDbArc
 50
45.00000000000036
 51
90.0
  0
LINE
  5
D2C
102
{ACAD_REACTORS
330
CFA
102
}
330
1E
100
AcDbEntity
  8
STEMPEL
100
AcDbLine
 10
133.0640048043497
 20
584.2633146075984
 30
0.0
 11
144.5713641172302
 21
572.7559552947186
 31
0.0
  0
ARC
  5
D58
102
{ACAD_REACTORS
330
CFA
102
}
330
1E
100
AcDbEntity
  8
STEMPEL
100
AcDbCircle
 10
131.6497912419767
 20
582.8491010452252
 30
0.0
 40
2.0
100
AcDbArc
 50
45.00000000000036
 51
90.0
  0
LINE
  5
D7C
102
{ACAD_REACTORS
330
C37
330
CFA
102
}
330
1E
100
AcDbEntity
  8
STEMPEL
100
AcDbLine
 10
135.1853251479092
 20
586.3846349511582
 30
0.0
 11
154.0388785385036
 21
567.5310815605653
 31
0.0
  0
LINE
  5
D7D
102
{ACAD_REACTORS
330
C37
330
CFA
102
}
330
1E
100
AcDbEntity
  8
STEMPEL
  6
STRICHPUNKT
100
AcDbLine
 10
146.6926844607898
 20
574.8772756382784
 30
0.0
 11
144.5713641172302
 21
572.7559552947186
 31
0.0
  0
ARC
  5
D7E
330
1E
100
AcDbEntity
  8
SCHRAFF
100
AcDbCircle
 10
145.63202428901
 20
573.8166154664987
 30
0.0
 40
2.0
100
AcDbArc
 50
183.5903778907336
 51
314.9999999999997
  0
ARC
  5
D7F
102
{ACAD_REACTORS
330
C37
102
}
330
1E
100
AcDbEntity
  8
STEMPEL
100
AcDbCircle
 10
149.4426844607911
 20
562.9348874828524
 30
0.0
 40
6.5
100
AcDbArc
 50
0.0
 51
45.00000000000036
  0
LINE
  5
D80
102
{ACAD_REACTORS
330
C37
102
}
330
1E
100
AcDbEntity
  8
STEMPEL
100
AcDbLine
 10
145.6320242890099
 20
573.8166154664987
 30
0.0
 11
152.9782183667231
 21
566.4704213887859
 31
0.0
  0
ARC
  5
D81
102
{ACAD_REACTORS
330
C37
102
}
330
1E
100
AcDbEntity
  8
STEMPEL
100
AcDbCircle
 10
149.4426844607911
 20
562.9348874828524
 30
0.0
 40
5.0
100
AcDbArc
 50
0.0
 51
45.00000000000036
  0
LINE
  5
DF1
102
{ACAD_REACTORS
330
C37
102
}
330
1E
100
AcDbEntity
  8
STEMPEL
100
AcDbLine
 10
266.2533446325698
 20
573.8166154664987
 30
0.0
 11
258.9071505548564
 21
566.4704213887859
 31
0.0
  0
ARC
  5
DF2
102
{ACAD_REACTORS
330
C37
102
}
330
1E
100
AcDbEntity
  8
STEMPEL
100
AcDbCircle
 10
262.4426844607891
 20
562.9348874828531
 30
0.0
 40
6.5
100
AcDbArc
 50
134.9999999999996
 51
180.0
  0
ARC
  5
DF3
102
{ACAD_REACTORS
330
C37
102
}
330
1E
100
AcDbEntity
  8
STEMPEL
100
AcDbCircle
 10
262.4426844607891
 20
562.9348874828531
 30
0.0
 40
5.0
100
AcDbArc
 50
134.9999999999996
 51
180.0
  0
LINE
  5
DF4
102
{ACAD_REACTORS
330
C37
330
CFA
102
}
330
1E
100
AcDbEntity
  8
STEMPEL
  6
STRICHPUNKT
100
AcDbLine
 10
265.1926844607898
 20
574.8772756382784
 30
0.0
 11
267.3140048043493
 21
572.7559552947188
 31
0.0
  0
ARC
  5
DF5
330
1E
100
AcDbEntity
  8
SCHRAFF
100
AcDbCircle
 10
266.2533446325698
 20
573.8166154664987
 30
0.0
 40
2.0
100
AcDbArc
 50
225.0000000000003
 51
356.4096221092663
  0
LINE
  5
E48
102
{ACAD_REACTORS
330
CFA
102
}
330
1E
100
AcDbEntity
  8
STEMPEL
100
AcDbLine
 10
280.2355776796031
 20
584.849101045225
 30
0.0
 11
351.1142573360448
 21
584.8491010452241
 31
0.0
  0
LINE
  5
E49
330
1E
100
AcDbEntity
  8
STEMPEL
100
AcDbLine
 10
353.8213641172305
 20
582.1419942640388
 30
0.0
 11
276.7000437736708
 21
582.1419942640393
 31
0.0
  0
ARC
  5
E59
102
{ACAD_REACTORS
330
CFA
102
}
330
1E
100
AcDbEntity
  8
STEMPEL
100
AcDbCircle
 10
280.2355776796029
 20
582.8491010452252
 30
0.0
 40
5.0
100
AcDbArc
 50
90.0
 51
134.9999999999996
  0
ARC
  5
E5A
102
{ACAD_REACTORS
330
CFA
102
}
330
1E
100
AcDbEntity
  8
STEMPEL
100
AcDbCircle
 10
280.2355776796029
 20
582.8491010452252
 30
0.0
 40
2.0
100
AcDbArc
 50
90.0
 51
134.9999999999996
  0
LINE
  5
EB1
102
{ACAD_REACTORS
330
CFA
102
}
330
1E
100
AcDbEntity
  8
STEMPEL
100
AcDbLine
 10
355.94268446079
 20
584.2633146075984
 30
0.0
 11
353.8213641172305
 21
582.1419942640388
 31
0.0
  0
LINE
  5
EB2
102
{ACAD_REACTORS
330
CFA
102
}
330
1E
100
AcDbEntity
  8
STEMPEL
100
AcDbLine
 10
353.8213641172305
 20
582.1419942640388
 30
0.0
 11
351.1142573360438
 21
584.8491010452256
 31
0.0
  0
LINE
  5
EB3
102
{ACAD_REACTORS
330
CFA
102
}
330
1E
100
AcDbEntity
  8
STEMPEL
100
AcDbLine
 10
355.94268446079
 20
584.2633146075984
 30
0.0
 11
353.2355776796034
 21
586.9704213887851
 31
0.0
  0
ARC
  5
EB5
102
{ACAD_REACTORS
330
CFA
102
}
330
1E
100
AcDbEntity
  8
STEMPEL
100
AcDbCircle
 10
351.1142573360438
 20
584.8491010452256
 30
0.0
 40
3.0
100
AcDbArc
 50
45.00000000000036
 51
90.0
  0
TEXT
  5
ECB
330
1E
100
AcDbEntity
  8
TEXT
 62
     1
100
AcDbText
 10
203.1961299586391
 20
450.2719172273473
 30
0.0
 40
7.0
  1
DN100
 50
90.0
 41
0.8
  7
GREEKS
 72
     1
 11
203.1961299586391
 21
462.6719172273473
 31
0.0
100
AcDbText
  0
LINE
  5
1077
330
1E
100
AcDbEntity
  8
TEXT
 62
     2
100
AcDbLine
 10
388.5560867482726
 20
379.8481735415748
 30
0.0
 11
354.056308690814
 21
349.9502107477032
 31
0.0
  0
TEXT
  5
1078
330
1E
100
AcDbEntity
  8
TEXT
 62
     1
100
AcDbText
 10
390.7517892877736
 20
383.944295480385
 30
0.0
 40
7.0
  1
Kompressionsdichtung
 41
0.8
100
AcDbText
  0
TEXT
  5
1079
330
1E
100
AcDbEntity
  8
TEXT
 62
     1
100
AcDbText
 10
391.1077482906104
 20
370.4062821753367
 30
0.0
 40
7.0
  1
EDV-Art.Nr. 21810.125X
 41
0.8
100
AcDbText
  0
LINE
  5
107A
330
1E
100
AcDbEntity
  8
TEXT
 62
     2
100
AcDbLine
 10
388.5560867482726
 20
379.8481735415748
 30
0.0
 11
494.9890742454298
 21
379.8481735415748
 31
0.0
  0
LINE
  5
107B
330
1E
100
AcDbEntity
  8
TEXT
 62
     2
100
AcDbLine
 10
387.815320343226
 20
415.2909697447616
 30
0.0
 11
501.3966826731588
 21
415.2909697447616
 31
0.0
  0
TEXT
  5
107C
330
1E
100
AcDbEntity
  8
TEXT
 62
     1
100
AcDbText
 10
390.3669818855639
 20
405.8490783785235
 30
0.0
 40
7.0
  1
EDV-Art.Nr. 21905.100X
 41
0.8
100
AcDbText
  0
TEXT
  5
107D
330
1E
100
AcDbEntity
  8
TEXT
 62
     1
100
AcDbText
 10
390.0110228827271
 20
419.3870916835718
 30
0.0
 40
7.0
  1
Losflansch DN100
 41
0.8
100
AcDbText
  0
LINE
  5
107E
330
1E
100
AcDbEntity
  8
TEXT
 62
     2
100
AcDbLine
 10
387.815320343226
 20
415.2909697447616
 30
0.0
 11
335.315736102148
 21
360.6741795036586
 31
0.0
  0
LINE
  5
1083
330
1E
100
AcDbEntity
  8
TEXT
 62
     2
100
AcDbLine
 10
139.3925667100071
 20
163.4484815619954
 30
0.0
 11
167.2416582583243
 21
210.3910377893386
 31
0.0
  0
TEXT
  5
1084
330
1E
100
AcDbEntity
  8
TEXT
 62
     1
100
AcDbText
 10
34.04391568625405
 20
154.0065901957574
 30
0.0
 40
7.0
  1
EDV-Art.Nr. 21987.100X
 41
0.8
100
AcDbText
  0
TEXT
  5
1085
330
1E
100
AcDbEntity
  8
TEXT
 62
     1
100
AcDbText
 10
33.68795668341724
 20
167.5446035008057
 30
0.0
 40
7.0
  1
Ablaufkörper DN100
 41
0.8
100
AcDbText
  0
LINE
  5
1086
330
1E
100
AcDbEntity
  8
TEXT
 62
     2
100
AcDbLine
 10
31.62925654866521
 20
163.4484815619954
 30
0.0
 11
139.3925667100071
 21
163.4484815619954
 31
0.0
  0
TEXT
  5
10E2
330
1E
100
AcDbEntity
  8
TEXT
 62
     1
100
AcDbText
 10
341.2610789084623
 20
517.7027987629182
 30
0.0
 40
7.0
  1
EDV-Art.Nr. 21810.125X
 41
0.8
100
AcDbText
  0
LINE
  5
10E7
330
1E
100
AcDbEntity
  8
TEXT
 62
     2
100
AcDbLine
 10
338.7094173661245
 20
527.1446901291563
 30
0.0
 11
444.0823642028427
 21
527.1446901291563
 31
0.0
  0
TEXT
  5
10E8
330
1E
100
AcDbEntity
  8
TEXT
 62
     1
100
AcDbText
 10
340.9051199056255
 20
531.2408120679665
 30
0.0
 40
7.0
  1
Kompressionsdichtung
 41
0.8
100
AcDbText
  0
LINE
  5
10E9
330
1E
100
AcDbEntity
  8
TEXT
 62
     2
100
AcDbLine
 10
338.7094173661245
 20
527.1446901291563
 30
0.0
 11
305.8477354358802
 21
588.7556711020381
 31
0.0
  0
LINE
  5
10EB
330
1E
100
AcDbEntity
  8
TEXT
 62
     2
100
AcDbLine
 10
341.5876083486531
 20
445.1301831517315
 30
0.0
 11
291.5526082143665
 21
389.8776831060292
 31
0.0
  0
TEXT
  5
10EC
330
1E
100
AcDbEntity
  8
TEXT
 62
     1
100
AcDbText
 10
343.7833108881541
 20
449.2263050905417
 30
0.0
 40
7.0
  1
Dichtelement DN100
 41
0.8
100
AcDbText
  0
TEXT
  5
10ED
330
1E
100
AcDbEntity
  8
TEXT
 62
     1
100
AcDbText
 10
344.1392698909909
 20
435.6882917854935
 30
0.0
 40
7.0
  1
EDV-Art.Nr. 00911.100X
 41
0.8
100
AcDbText
  0
LINE
  5
10EE
330
1E
100
AcDbEntity
  8
TEXT
 62
     2
100
AcDbLine
 10
341.5876083486531
 20
445.1301831517315
 30
0.0
 11
455.1689706785858
 21
445.1301831517315
 31
0.0
  0
TEXT
  5
10F8
330
1E
100
AcDbEntity
  8
TEXT
 62
     1
100
AcDbText
 10
338.0618295170998
 20
483.4959036839602
 30
0.0
 40
7.0
  1
EDV-Art.Nr. 21981.100X
 41
0.8
  7
GREEKS
100
AcDbText
  0
LINE
  5
10F9
330
1E
100
AcDbEntity
  8
TEXT
 62
     2
100
AcDbLine
 10
443.2855930200926
 20
492.9309075587459
 30
0.0
 11
337.1616984124148
 21
492.9309075587457
 31
0.0
  0
LINE
  5
10FA
330
1E
100
AcDbEntity
  8
TEXT
 62
     2
100
AcDbLine
 10
337.1616984124148
 20
492.9309075587457
 30
0.0
 11
256.7772839210103
 21
515.3137375647957
 31
0.0
  0
TEXT
  5
10FB
330
1E
100
AcDbEntity
  8
TEXT
 62
     1
100
AcDbText
 10
338.2423848112519
 20
496.5436758309395
 30
0.0
 40
7.0
  1
Ablaufkörper DN100
 41
0.8
  7
GREEKS
100
AcDbText
  0
HATCH
  5
1214
330
1E
100
AcDbEntity
  8
SCHRAFF
100
AcDbHatch
 10
0.0
 20
0.0
 30
0.0
210
0.0
220
0.0
230
1.0
  2
_USER
 70
     0
 71
     1
 91
        2
 92
        7
 72
     1
 73
     1
 93
       11
 10
131.6497912419769
 20
346.0436406908902
 42
-0.1989123673796123
 10
133.0640048043497
 20
345.4578542532633
 42
0.0
 10
144.5713641172304
 20
333.9504949403834
 42
0.0
 10
146.6926844607899
 20
336.0718152839431
 42
0.0
 10
135.1853251479094
 20
347.5791745968229
 42
0.1989123673796465
 10
131.6497912419769
 20
349.04364069089
 42
0.0
 10
60.77111158553623
 20
349.0436406908904
 42
0.1989123673796633
 10
58.64979124197657
 20
348.16496103445
 42
0.0
 10
55.94268446078996
 20
345.4578542532634
 42
0.0
 10
58.06400480434962
 20
343.3365339097038
 42
0.0
 10
60.77111158553626
 20
346.0436406908904
 42
0.0
 97
       11
330
1226
330
121E
330
1224
330
1221
330
1222
330
1223
330
1220
330
1225
330
121C
330
1228
330
121D
 92
        7
 72
     1
 73
     1
 93
       11
 10
280.2355776796031
 20
349.0436406908898
 42
0.1989123673796602
 10
276.7000437736703
 20
347.5791745968227
 42
0.0
 10
265.1926844607902
 20
336.0718152839432
 42
0.0
 10
267.3140048043493
 20
333.9504949403833
 42
0.0
 10
278.82136411723
 20
345.457854253263
 42
-0.1989123673796445
 10
280.2355776796031
 20
346.0436406908897
 42
0.0
 10
351.1142573360449
 20
346.0436406908892
 42
0.0
 10
353.8213641172304
 20
343.3365339097037
 42
0.0
 10
355.9426844607901
 20
345.4578542532634
 42
0.0
 10
353.2355776796034
 20
348.16496103445
 42
0.1989123673796101
 10
351.1142573360439
 20
349.0436406908893
 42
0.0
 97
       11
330
1216
330
1237
330
1218
330
1229
330
1217
330
1236
330
1235
330
1239
330
123A
330
1238
330
123B
 75
     0
 76
     0
 52
45.0
 41
2.0
 77
     0
 78
     1
 53
45.0
 43
-145.7567209798797
 44
-55.29419993215089
 45
-1.414213562373094
 46
1.414213562373095
 79
     0
 47
0.4061515595070223
 98
        2
 10
109.954924624556
 20
347.3007576651227
 10
288.3747498357166
 20
348.1130607815519
  0
DIMENSION
  5
1215
330
1E
100
AcDbEntity
  8
BEM
100
AcDbDimension
  2
*D3
 10
490.9426844607899
 20
167.181192655865
 30
0.0
 11
348.4426844607899
 21
172.681192655865
 31
0.0
 70
    32
 71
     5
 42
284.9999999999998
  3
Standard
100
AcDbAlignedDimension
 13
205.94268446079
 23
259.1455855116507
 33
0.0
 14
490.9426844607899
 24
244.2093684159829
 34
0.0
100
AcDbRotatedDimension
1001
ACAD
1000
DSTYLE
1002
{
1070
    40
1040
2.0
1070
    41
1040
3.5
1070
    42
1040
1.0
1070
    43
1040
7.0
1070
    44
1040
1.0
1070
    47
1040
2.0
1070
    48
1040
2.0
1070
    73
1070
     0
1070
    74
1070
     0
1070
    77
1070
     1
1070
    78
1070
     8
1070
    79
1070
     2
1070
   140
1040
3.5
1070
   141
1040
1.5
1070
   146
1040
0.5142857142857144
1070
   147
1040
1.0
1070
   172
1070
     1
1070
   178
1070
     1
1070
   179
1070
     1
1070
   271
1070
     1
1070
   272
1070
     1
1070
   279
1070
     0
1002
}
  0
LINE
  5
1216
102
{ACAD_REACTORS
330
1214
102
}
330
1E
100
AcDbEntity
  8
STEMPEL
100
AcDbLine
 10
262.5612222620582
 20
349.0436406908898
 30
0.0
 11
351.1142573360439
 21
349.0436406908893
 31
0.0
  0
LINE
  5
1217
102
{ACAD_REACTORS
330
1214
330
124F
102
}
330
1E
100
AcDbEntity
  8
STEMPEL
100
AcDbLine
 10
278.82136411723
 20
345.457854253263
 30
0.0
 11
267.3140048043494
 21
333.9504949403834
 31
0.0
  0
LINE
  5
1218
102
{ACAD_REACTORS
330
1214
102
}
330
1E
100
AcDbEntity
  8
STEMPEL
100
AcDbLine
 10
276.7000437736705
 20
347.5791745968229
 30
0.0
 11
265.1926844607902
 21
336.0718152839432
 31
0.0
  0
LINE
  5
1219
102
{ACAD_REACTORS
330
1260
330
1261
102
}
330
1E
100
AcDbEntity
  8
STEMPEL
100
AcDbLine
 10
155.14268446079
 20
210.9381855225345
 30
0.0
 11
256.7426844607908
 21
307.3529855007665
 31
0.0
  0
ARC
  5
121A
102
{ACAD_REACTORS
330
125D
102
}
330
1E
100
AcDbEntity
  8
SCHRAFF
100
AcDbCircle
 10
156.6426844607901
 20
212.3616323726068
 30
0.0
 40
3.0
100
AcDbArc
 50
120.0000000000005
 51
326.999999999998
  0
ARC
  5
121B
102
{ACAD_REACTORS
330
125F
102
}
330
1E
100
AcDbEntity
  8
SCHRAFF
100
AcDbCircle
 10
146.6773191991061
 20
336.0564500222592
 30
0.0
 40
4.0
100
AcDbArc
 50
183.1219690139969
 51
285.5795319564142
  0
LINE
  5
121C
102
{ACAD_REACTORS
330
1214
330
125F
102
}
330
1E
100
AcDbEntity
  8
STEMPEL
100
AcDbLine
 10
133.0640048043499
 20
345.457854253263
 30
0.0
 11
144.5713641172305
 21
333.9504949403834
 31
0.0
  0
LINE
  5
121D
102
{ACAD_REACTORS
330
1214
102
}
330
1E
100
AcDbEntity
  8
STEMPEL
100
AcDbLine
 10
135.1853251479094
 20
347.5791745968229
 30
0.0
 11
146.6926844607899
 21
336.0718152839431
 31
0.0
  0
LINE
  5
121E
102
{ACAD_REACTORS
330
1214
102
}
330
1E
100
AcDbEntity
  8
STEMPEL
100
AcDbLine
 10
60.77111158553623
 20
349.0436406908904
 30
0.0
 11
149.3241466595218
 21
349.0436406908899
 31
0.0
  0
LINE
  5
121F
330
1E
100
AcDbEntity
  8
STEMPEL
100
AcDbLine
 10
58.06400480434956
 20
343.3365339097037
 30
0.0
 11
135.1853251479095
 21
343.3365339097037
 31
0.0
  0
LINE
  5
1220
102
{ACAD_REACTORS
330
1214
102
}
330
1E
100
AcDbEntity
  8
STEMPEL
100
AcDbLine
 10
60.77111158553623
 20
346.0436406908904
 30
0.0
 11
131.6497912419769
 21
346.0436406908902
 31
0.0
  0
LINE
  5
1221
102
{ACAD_REACTORS
330
1214
102
}
330
1E
100
AcDbEntity
  8
STEMPEL
100
AcDbLine
 10
55.94268446079002
 20
345.4578542532635
 30
0.0
 11
58.64979124197657
 21
348.16496103445
 31
0.0
  0
LINE
  5
1222
102
{ACAD_REACTORS
330
1214
102
}
330
1E
100
AcDbEntity
  8
STEMPEL
100
AcDbLine
 10
55.94268446079002
 20
345.4578542532635
 30
0.0
 11
58.06400480434956
 21
343.3365339097037
 31
0.0
  0
LINE
  5
1223
102
{ACAD_REACTORS
330
1214
102
}
330
1E
100
AcDbEntity
  8
STEMPEL
100
AcDbLine
 10
58.06400480434956
 20
343.3365339097037
 30
0.0
 11
60.77111158553623
 21
346.0436406908904
 31
0.0
  0
ARC
  5
1224
102
{ACAD_REACTORS
330
1214
102
}
330
1E
100
AcDbEntity
  8
STEMPEL
100
AcDbCircle
 10
60.77111158553623
 20
346.0436406908904
 30
0.0
 40
3.0
100
AcDbArc
 50
90.0
 51
135.0
  0
ARC
  5
1225
102
{ACAD_REACTORS
330
1214
102
}
330
1E
100
AcDbEntity
  8
STEMPEL
100
AcDbCircle
 10
131.6497912419769
 20
344.0436406908899
 30
0.0
 40
2.0
100
AcDbArc
 50
45.0
 51
90.0
  0
ARC
  5
1226
102
{ACAD_REACTORS
330
1214
102
}
330
1E
100
AcDbEntity
  8
STEMPEL
100
AcDbCircle
 10
131.6497912419769
 20
344.0436406908899
 30
0.0
 40
5.0
100
AcDbArc
 50
45.0
 51
90.0
  0
ARC
  5
1227
102
{ACAD_REACTORS
330
124F
102
}
330
1E
100
AcDbEntity
  8
SCHRAFF
100
AcDbCircle
 10
265.2080497224726
 20
336.0564500222606
 30
0.0
 40
4.0
100
AcDbArc
 50
254.4204680436023
 51
356.8780309859704
  0
LINE
  5
1228
102
{ACAD_REACTORS
330
1214
330
125F
102
}
330
1E
100
AcDbEntity
  8
STEMPEL
100
AcDbLine
 10
146.69268446079
 20
336.0718152839431
 30
0.0
 11
144.5713641172305
 21
333.9504949403834
 31
0.0
  0
LINE
  5
1229
102
{ACAD_REACTORS
330
1214
330
124F
102
}
330
1E
100
AcDbEntity
  8
STEMPEL
100
AcDbLine
 10
265.1926844607901
 20
336.0718152839432
 30
0.0
 11
267.3140048043494
 21
333.9504949403834
 31
0.0
  0
LINE
  5
122A
102
{ACAD_REACTORS
330
1260
102
}
330
1E
100
AcDbEntity
  8
STEMPEL
100
AcDbLine
 10
262.9426844607904
 20
340.4388892283188
 30
0.0
 11
262.9426844607904
 21
332.8610649201614
 31
0.0
  0
LINE
  5
122B
330
1E
100
AcDbEntity
  8
HILF
100
AcDbLine
 10
156.8172305245491
 20
315.4734638626807
 30
0.0
 11
255.0681383970308
 21
315.4734638626807
 31
0.0
  0
LINE
  5
122C
330
1E
100
AcDbEntity
  8
BEM
100
AcDbLine
 10
205.94268446079
 20
259.1455855116507
 30
0.0
 11
203.94268446079
 21
259.1455855116507
 31
0.0
  0
ARC
  5
122D
102
{ACAD_REACTORS
330
1250
102
}
330
1E
100
AcDbEntity
  8
SCHRAFF
100
AcDbCircle
 10
256.74268446079
 20
307.3529855007665
 30
0.0
 40
3.0
100
AcDbArc
 50
357.0000000000009
 51
89.95180024250457
  0
ARC
  5
122E
102
{ACAD_REACTORS
330
1260
102
}
330
1E
100
AcDbEntity
  8
STEMPEL
100
AcDbCircle
 10
239.9426844607904
 20
332.8610649201616
 30
0.0
 40
23.0
100
AcDbArc
 50
323.2329059888247
 51
0.0
  0
LINE
  5
122F
102
{ACAD_REACTORS
330
1260
102
}
330
1E
100
AcDbEntity
  8
STEMPEL
100
AcDbLine
 10
150.7876175823468
 20
353.04364069089
 30
0.0
 11
151.1186309580345
 21
353.04364069089
 31
0.0
  0
ARC
  5
1230
102
{ACAD_REACTORS
330
1260
102
}
330
1E
100
AcDbEntity
  8
STEMPEL
100
AcDbCircle
 10
239.9426844607904
 20
340.4388892283188
 30
0.0
 40
23.0
100
AcDbArc
 50
0.0
 51
24.99999999999276
  0
LINE
  5
1231
102
{ACAD_REACTORS
330
1260
102
}
330
1E
100
AcDbEntity
  8
STEMPEL
100
AcDbLine
 10
259.4426844607903
 20
353.04364069089
 30
0.0
 11
260.7877635626335
 21
350.1591092483549
 31
0.0
  0
LINE
  5
1232
330
1E
100
AcDbEntity
  8
HILF
100
AcDbLine
 10
485.4862286692704
 20
292.9525705018349
 30
0.0
 11
480.4210676962361
 21
196.3035416300181
 31
0.0
  0
LINE
  5
1233
102
{ACAD_REACTORS
330
1261
102
}
330
1E
100
AcDbEntity
  8
STEMPEL
100
AcDbLine
 10
493.564720615003
 20
294.2407986746896
 30
0.0
 11
488.3206483065766
 21
194.1779381572762
 31
0.0
  0
LINE
  5
1234
330
1E
100
AcDbEntity
  8
STEMPEL
100
AcDbLine
 10
353.8213641172305
 20
343.3365339097037
 30
0.0
 11
276.7000437736709
 21
343.3365339097037
 31
0.0
  0
LINE
  5
1235
102
{ACAD_REACTORS
330
1214
102
}
330
1E
100
AcDbEntity
  8
STEMPEL
100
AcDbLine
 10
280.2355776796031
 20
346.0436406908897
 30
0.0
 11
351.1142573360448
 21
346.0436406908893
 31
0.0
  0
ARC
  5
1236
102
{ACAD_REACTORS
330
1214
102
}
330
1E
100
AcDbEntity
  8
STEMPEL
100
AcDbCircle
 10
280.2355776796031
 20
344.0436406908899
 30
0.0
 40
2.0
100
AcDbArc
 50
90.0
 51
135.0
  0
ARC
  5
1237
102
{ACAD_REACTORS
330
1214
102
}
330
1E
100
AcDbEntity
  8
STEMPEL
100
AcDbCircle
 10
280.2355776796031
 20
344.0436406908899
 30
0.0
 40
5.0
100
AcDbArc
 50
90.0
 51
135.0
  0
LINE
  5
1238
102
{ACAD_REACTORS
330
1214
102
}
330
1E
100
AcDbEntity
  8
STEMPEL
100
AcDbLine
 10
355.9426844607901
 20
345.4578542532635
 30
0.0
 11
353.2355776796034
 21
348.16496103445
 31
0.0
  0
LINE
  5
1239
102
{ACAD_REACTORS
330
1214
102
}
330
1E
100
AcDbEntity
  8
STEMPEL
100
AcDbLine
 10
353.8213641172305
 20
343.3365339097037
 30
0.0
 11
351.1142573360439
 21
346.0436406908904
 31
0.0
  0
LINE
  5
123A
102
{ACAD_REACTORS
330
1214
102
}
330
1E
100
AcDbEntity
  8
STEMPEL
100
AcDbLine
 10
355.9426844607901
 20
345.4578542532635
 30
0.0
 11
353.8213641172305
 21
343.3365339097037
 31
0.0
  0
ARC
  5
123B
102
{ACAD_REACTORS
330
1214
102
}
330
1E
100
AcDbEntity
  8
STEMPEL
100
AcDbCircle
 10
351.1142573360439
 20
346.0436406908904
 30
0.0
 40
3.0
100
AcDbArc
 50
45.0
 51
90.0
  0
LINE
  5
123C
102
{ACAD_REACTORS
330
1250
330
1261
102
}
330
1E
100
AcDbEntity
  8
STEMPEL
100
AcDbLine
 10
256.74268446079
 20
307.3529855007665
 30
0.0
 11
485.6123147598948
 21
295.3584364314588
 31
0.0
  0
LINE
  5
123D
102
{ACAD_REACTORS
330
125D
330
1261
102
}
330
1E
100
AcDbEntity
  8
STEMPEL
100
AcDbLine
 10
155.14268446079
 20
210.938185522535
 30
0.0
 11
480.2949816056117
 21
193.8976757003942
 31
0.0
  0
LINE
  5
123E
102
{ACAD_REACTORS
330
125D
330
1260
102
}
330
1E
100
AcDbEntity
  8
STEMPEL
100
AcDbLine
 10
155.1426844607899
 20
310.5944980541167
 30
0.0
 11
155.14268446079
 21
210.938185522535
 31
0.0
  0
LINE
  5
123F
102
{ACAD_REACTORS
330
1250
330
1260
102
}
330
1E
100
AcDbEntity
  8
STEMPEL
100
AcDbLine
 10
256.74268446079
 20
310.5944980541167
 30
0.0
 11
256.74268446079
 21
307.3529855007665
 31
0.0
  0
LINE
  5
1240
102
{ACAD_REACTORS
330
1261
102
}
330
1E
100
AcDbEntity
  8
STEMPEL
100
AcDbLine
 10
480.2949816056117
 20
193.8976757003942
 30
0.0
 11
488.3206483065766
 21
194.1779381572762
 31
0.0
  0
LINE
  5
1241
102
{ACAD_REACTORS
330
1261
102
}
330
1E
100
AcDbEntity
  8
STEMPEL
100
AcDbLine
 10
156.3426844607905
 20
212.0769430025928
 30
0.0
 11
480.3054634245794
 21
195.0987731867368
 31
0.0
  0
LINE
  5
1242
102
{ACAD_REACTORS
330
1261
102
}
330
1E
100
AcDbEntity
  8
STEMPEL
100
AcDbLine
 10
480.3054634245794
 20
195.0987731867368
 30
0.0
 11
488.3836913518886
 21
195.3808711220881
 31
0.0
  0
LINE
  5
1243
102
{ACAD_REACTORS
330
1261
102
}
330
1E
100
AcDbEntity
  8
STEMPEL
100
AcDbLine
 10
485.49719028388
 20
294.1628230343904
 30
0.0
 11
493.501677569691
 21
293.0378657098778
 31
0.0
  0
LINE
  5
1244
102
{ACAD_REACTORS
330
1261
102
}
330
1E
100
AcDbEntity
  8
STEMPEL
100
AcDbLine
 10
485.6123147598954
 20
295.3584364314589
 30
0.0
 11
493.564720615003
 21
294.2407986746896
 31
0.0
  0
LINE
  5
1245
102
{ACAD_REACTORS
330
1261
102
}
330
1E
100
AcDbEntity
  8
STEMPEL
100
AcDbLine
 10
255.5426844607908
 20
306.2142280207086
 30
0.0
 11
485.49719028388
 21
294.1628230343904
 31
0.0
  0
LINE
  5
1246
102
{ACAD_REACTORS
330
1260
102
}
330
1E
100
AcDbEntity
  8
STEMPEL
100
AcDbLine
 10
255.5426844607899
 20
310.5944980541167
 30
0.0
 11
255.54268446079
 21
306.2142280207079
 31
0.0
  0
ARC
  5
1247
102
{ACAD_REACTORS
330
1260
102
}
330
1E
100
AcDbEntity
  8
STEMPEL
100
AcDbCircle
 10
269.74268446079
 20
310.5944980541167
 30
0.0
 40
14.2
100
AcDbArc
 50
143.2329059888246
 51
180.0
  0
ARC
  5
1248
102
{ACAD_REACTORS
330
1260
102
}
330
1E
100
AcDbEntity
  8
STEMPEL
100
AcDbCircle
 10
269.74268446079
 20
310.5944980541167
 30
0.0
 40
13.0
100
AcDbArc
 50
143.2329059888246
 51
180.0
  0
ARC
  5
1249
102
{ACAD_REACTORS
330
124F
330
1260
102
}
330
1E
100
AcDbEntity
  8
STEMPEL
100
AcDbCircle
 10
239.9426844607904
 20
332.8610649201616
 30
0.0
 40
24.2
100
AcDbArc
 50
323.2329059888247
 51
0.0
  0
LINE
  5
124A
102
{ACAD_REACTORS
330
124F
330
1260
102
}
330
1E
100
AcDbEntity
  8
STEMPEL
100
AcDbLine
 10
264.1426844607904
 20
340.4388892283188
 30
0.0
 11
264.1426844607904
 21
332.8610649201614
 31
0.0
  0
ARC
  5
124B
102
{ACAD_REACTORS
330
1260
102
}
330
1E
100
AcDbEntity
  8
STEMPEL
100
AcDbCircle
 10
239.9426844607904
 20
340.4388892283188
 30
0.0
 40
24.2
100
AcDbArc
 50
0.0
 51
24.99999999999276
  0
LINE
  5
124C
102
{ACAD_REACTORS
330
1260
102
}
330
1E
100
AcDbEntity
  8
STEMPEL
100
AcDbLine
 10
260.7667379635454
 20
353.04364069089
 30
0.0
 11
261.8753329070774
 21
350.6662511624438
 31
0.0
  0
LINE
  5
124D
102
{ACAD_REACTORS
330
124F
102
}
330
1E
100
AcDbEntity
  8
STEMPEL
100
AcDbLine
 10
267.3140048043494
 20
333.9504949403834
 30
0.0
 11
264.1426844607903
 21
333.9504949403834
 31
0.0
  0
LINE
  5
124E
102
{ACAD_REACTORS
330
124F
102
}
330
1E
100
AcDbEntity
  8
STEMPEL
100
AcDbLine
 10
265.1926844607901
 20
336.0718152839432
 30
0.0
 11
264.1426844607904
 21
336.0718152839432
 31
0.0
  0
HATCH
  5
124F
330
1E
100
AcDbEntity
  8
SCHRAFF
100
AcDbHatch
 10
0.0
 20
0.0
 30
0.0
210
0.0
220
0.0
230
1.0
  2
_USER
 70
     0
 71
     1
 91
        2
 92
        7
 72
     0
 73
     1
 93
        4
 10
267.3140048043495
 20
333.9504949403834
 10
265.1926844607902
 20
336.0718152839432
 10
264.1426844607904
 20
336.0718152839432
 10
264.1426844607904
 20
333.9504949403834
 97
        4
330
124E
330
124A
330
124D
330
1229
 92
        7
 72
     1
 73
     1
 93
        5
 10
269.2021131680608
 20
335.8386033040946
 42
0.0
 10
267.3140048043495
 20
333.9504949403834
 42
0.0
 10
264.1426844607904
 20
333.9504949403834
 42
0.0
 10
264.1426844607904
 20
332.8610649201614
 42
-0.0067948376602653
 10
264.1337468091836
 20
332.2034157308872
 42
0.479428580817486
 97
        5
330
1217
330
124D
330
124A
330
1249
330
1227
 75
     0
 76
     0
 52
0.0
 41
0.1
 77
     0
 78
     1
 53
0.0
 43
-145.7567209798797
 44
-55.29419993215089
 45
0.0
 46
0.1
 79
     0
 47
0.038161733105324
 98
        2
 10
265.1057260396094
 20
334.2150284181605
 10
265.8693768390656
 20
332.9175291943408
  0
HATCH
  5
1250
330
1E
100
AcDbEntity
  8
SCHRAFF
100
AcDbHatch
 10
0.0
 20
0.0
 30
0.0
210
0.0
220
0.0
230
1.0
  2
_USER
 70
     0
 71
     1
 91
        1
 92
        7
 72
     1
 73
     1
 93
        3
 10
256.74268446079
 20
310.3529855007665
 42
0.0
 10
256.74268446079
 20
307.3529855007664
 42
0.0
 10
259.7385730650537
 20
307.1959776320376
 42
0.4296339059668455
 97
        3
330
123F
330
123C
330
122D
 75
     0
 76
     0
 52
0.0
 41
0.1
 77
     0
 78
     1
 53
0.0
 43
-145.7567209798797
 44
-55.29419993215089
 45
0.0
 46
0.1
 79
     0
 47
0.0861522758053821
 98
        1
 10
257.7099528185024
 20
308.8155952647678
  0
LINE
  5
1251
102
{ACAD_REACTORS
330
125F
102
}
330
1E
100
AcDbEntity
  8
STEMPEL
100
AcDbLine
 10
146.6926844607898
 20
336.0718152839432
 30
0.0
 11
147.7426844607895
 21
336.0718152839432
 31
0.0
  0
LINE
  5
1252
102
{ACAD_REACTORS
330
1260
102
}
330
1E
100
AcDbEntity
  8
STEMPEL
100
AcDbLine
 10
151.1186309580345
 20
353.04364069089
 30
0.0
 11
150.0100360145024
 21
350.6662511624438
 31
0.0
  0
ARC
  5
1253
102
{ACAD_REACTORS
330
1260
102
}
330
1E
100
AcDbEntity
  8
STEMPEL
100
AcDbCircle
 10
171.9426844607895
 20
340.4388892283188
 30
0.0
 40
24.2
100
AcDbArc
 50
155.0000000000072
 51
180.0
  0
LINE
  5
1254
102
{ACAD_REACTORS
330
125F
330
1260
102
}
330
1E
100
AcDbEntity
  8
STEMPEL
100
AcDbLine
 10
147.7426844607895
 20
340.4388892283188
 30
0.0
 11
147.7426844607895
 21
332.8610649201614
 31
0.0
  0
LINE
  5
1255
102
{ACAD_REACTORS
330
1260
102
}
330
1E
100
AcDbEntity
  8
STEMPEL
100
AcDbLine
 10
152.4426844607895
 20
353.04364069089
 30
0.0
 11
151.0976053589464
 21
350.1591092483549
 31
0.0
  0
ARC
  5
1256
102
{ACAD_REACTORS
330
1260
102
}
330
1E
100
AcDbEntity
  8
STEMPEL
100
AcDbCircle
 10
171.9426844607895
 20
340.4388892283188
 30
0.0
 40
23.0
100
AcDbArc
 50
155.0000000000072
 51
180.0
  0
LINE
  5
1257
102
{ACAD_REACTORS
330
1260
102
}
330
1E
100
AcDbEntity
  8
STEMPEL
100
AcDbLine
 10
148.9426844607895
 20
340.4388892283188
 30
0.0
 11
148.9426844607895
 21
332.8610649201614
 31
0.0
  0
ARC
  5
1258
102
{ACAD_REACTORS
330
125F
330
1260
102
}
330
1E
100
AcDbEntity
  8
STEMPEL
100
AcDbCircle
 10
171.9426844607895
 20
332.8610649201616
 30
0.0
 40
24.2
100
AcDbArc
 50
180.0
 51
216.7670940111754
  0
ARC
  5
1259
102
{ACAD_REACTORS
330
1260
102
}
330
1E
100
AcDbEntity
  8
STEMPEL
100
AcDbCircle
 10
171.9426844607895
 20
332.8610649201616
 30
0.0
 40
23.0
100
AcDbArc
 50
180.0
 51
216.7670940111754
  0
ARC
  5
125A
102
{ACAD_REACTORS
330
1260
102
}
330
1E
100
AcDbEntity
  8
STEMPEL
100
AcDbCircle
 10
142.1426844607899
 20
310.5944980541167
 30
0.0
 40
13.0
100
AcDbArc
 50
0.0
 51
36.76709401117536
  0
ARC
  5
125B
102
{ACAD_REACTORS
330
1260
102
}
330
1E
100
AcDbEntity
  8
STEMPEL
100
AcDbCircle
 10
142.1426844607899
 20
310.5944980541167
 30
0.0
 40
14.2
100
AcDbArc
 50
0.0
 51
36.76709401117536
  0
LINE
  5
125C
102
{ACAD_REACTORS
330
1260
102
}
330
1E
100
AcDbEntity
  8
STEMPEL
100
AcDbLine
 10
156.3426844607899
 20
310.5944980541167
 30
0.0
 11
156.34268446079
 21
212.0769430025923
 31
0.0
  0
HATCH
  5
125D
330
1E
100
AcDbEntity
  8
SCHRAFF
100
AcDbHatch
 10
0.0
 20
0.0
 30
0.0
210
0.0
220
0.0
230
1.0
  2
_USER
 70
     0
 71
     1
 91
        1
 92
        7
 72
     1
 73
     1
 93
        3
 10
159.1586961646267
 20
210.7277152675622
 42
0.0
 10
155.14268446079
 20
210.938185522535
 42
0.0
 10
155.14268446079
 20
214.95970858396
 42
1.268493952745392
 97
        3
330
123D
330
123E
330
121A
 75
     0
 76
     0
 52
0.0
 41
0.1
 77
     0
 78
     1
 53
0.0
 43
-145.7567209798797
 44
-55.29419993215089
 45
0.0
 46
0.1
 79
     0
 47
0.0638673198248007
 98
        1
 10
155.7376754648005
 20
210.1804139443572
  0
LINE
  5
125E
102
{ACAD_REACTORS
330
125F
102
}
330
1E
100
AcDbEntity
  8
STEMPEL
100
AcDbLine
 10
144.5713641172305
 20
333.9504949403834
 30
0.0
 11
147.7426844607895
 21
333.9504949403834
 31
0.0
  0
HATCH
  5
125F
330
1E
100
AcDbEntity
  8
SCHRAFF
100
AcDbHatch
 10
0.0
 20
0.0
 30
0.0
210
0.0
220
0.0
230
1.0
  2
_USER
 70
     0
 71
     1
 91
        2
 92
        7
 72
     0
 73
     1
 93
        4
 10
147.7426844607895
 20
336.0718152839432
 10
146.6926844607901
 20
336.0718152839432
 10
144.5713641172304
 20
333.9504949403834
 10
147.7426844607895
 20
333.9504949403834
 97
        4
330
1251
330
1228
330
125E
330
1254
 92
        7
 72
     1
 73
     1
 93
        5
 10
147.7426844607896
 20
333.9504949403834
 42
0.0
 10
144.5713641172305
 20
333.9504949403834
 42
0.0
 10
142.6832557535177
 20
335.838603304096
 42
0.4794285808177948
 10
147.7516221123964
 20
332.2034157308863
 42
-0.0067948376602753
 10
147.7426844607895
 20
332.8610649201614
 42
0.0
 97
        5
330
125E
330
121C
330
121B
330
1258
330
1254
 75
     0
 76
     0
 52
0.0
 41
0.1
 77
     0
 78
     1
 53
0.0
 43
-145.7567209798797
 44
-55.29419993215089
 45
0.0
 46
0.1
 79
     0
 47
0.0830760575476009
 98
        2
 10
146.4666192219417
 20
334.8182626940444
 10
145.9678925087062
 20
333.2398172520504
  0
HATCH
  5
1260
330
1E
100
AcDbEntity
  8
SCHRAFF
100
AcDbHatch
 10
0.0
 20
0.0
 30
0.0
210
0.0
220
0.0
230
1.0
  2
_USER
 70
     0
 71
     1
 91
        2
 92
        7
 72
     1
 73
     1
 93
       14
 10
264.1426844607904
 20
340.4388892283188
 42
0.1095178116832417
 10
261.8753329070774
 20
350.6662511624438
 42
0.0
 10
260.7667379635454
 20
353.0436406908901
 42
0.0
 10
259.4426844607903
 20
353.0436406908902
 42
0.0
 10
260.7877635626335
 20
350.1591092483549
 42
-0.1095178116832376
 10
262.9426844607904
 20
340.4388892283192
 42
0.0
 10
262.9426844607904
 20
332.8610649201614
 42
-0.1618173156292122
 10
258.3674156435857
 20
319.0941015352415
 42
0.1618173156292099
 10
255.5426844607899
 20
310.5944980541171
 42
0.0
 10
255.54268446079
 20
306.2142280207079
 42
0.0
 10
256.74268446079
 20
307.3529855007658
 42
0.0
 10
256.74268446079
 20
310.5944980541167
 42
-0.1618173156292146
 10
259.3287059661665
 20
318.3758251847237
 42
0.1618173156292139
 10
264.1426844607904
 20
332.8610649201614
 42
0.0
 97
       14
330
124B
330
124C
330
122F
330
1231
330
1230
330
122A
330
122E
330
1247
330
1246
330
1219
330
123F
330
1248
330
1249
330
124A
 92
        7
 72
     1
 73
     1
 93
       14
 10
156.3426844607899
 20
310.5944980541167
 42
0.1618173156292164
 10
153.5179532779941
 20
319.0941015352415
 42
-0.1618173156292125
 10
148.9426844607895
 20
332.8610649201614
 42
0.0
 10
148.9426844607895
 20
340.4388892283188
 42
-0.1095178116832414
 10
151.0976053589464
 20
350.1591092483549
 42
0.0
 10
152.4426844607895
 20
353.04364069089
 42
0.0
 10
151.1186309580345
 20
353.04364069089
 42
0.0
 10
150.0100360145024
 20
350.6662511624438
 42
0.1095178116832369
 10
147.7426844607895
 20
340.4388892283193
 42
0.0
 10
147.7426844607895
 20
332.8610649201614
 42
0.1618173156292134
 10
152.5566629554135
 20
318.3758251847239
 42
-0.1618173156292094
 10
155.1426844607899
 20
310.5944980541171
 42
0.0
 10
155.14268446079
 20
210.9381855225345
 42
0.0
 10
156.34268446079
 20
212.0769430025923
 42
0.0
 97
       14
330
125B
330
1259
330
1257
330
1256
330
1255
330
122F
330
1252
330
1253
330
1254
330
1258
330
125A
330
123E
330
1219
330
125C
 75
     0
 76
     0
 52
135.0
 41
2.0
 77
     0
 78
     1
 53
135.0
 43
-145.7567209798797
 44
-55.29419993215089
 45
-1.414213562373095
 46
-1.414213562373094
 79
     0
 47
0.2820831820746789
 98
        2
 10
263.4766562160442
 20
338.7350081724789
 10
155.9446689978815
 20
299.2433619945468
  0
HATCH
  5
1261
330
1E
100
AcDbEntity
  8
SCHRAFF
100
AcDbHatch
 10
0.0
 20
0.0
 30
0.0
210
0.0
220
0.0
230
1.0
  2
_USER
 70
     0
 71
     1
 91
        2
 92
        7
 72
     0
 73
     1
 93
        6
 10
256.7426844607908
 20
307.3529855007664
 10
255.5426844607908
 20
306.2142280207085
 10
485.4971902838796
 20
294.1628230343904
 10
493.501677569691
 20
293.0378657098779
 10
493.5647206150028
 20
294.2407986746896
 10
485.6123147598963
 20
295.3584364314586
 97
        6
330
1219
330
1245
330
1243
330
1233
330
1244
330
123C
 92
        7
 72
     0
 73
     1
 93
        6
 10
156.3426844607905
 20
212.0769430025928
 10
155.1426844607904
 20
210.9381855225349
 10
480.2949816056115
 20
193.8976757003942
 10
488.3206483065766
 20
194.1779381572762
 10
488.3836913518886
 20
195.3808711220881
 10
480.3054634245794
 20
195.0987731867368
 97
        6
330
1219
330
123D
330
1240
330
1233
330
1242
330
1241
 75
     0
 76
     0
 52
45.0
 41
2.0
 77
     0
 78
     1
 53
45.0
 43
-145.7567209798797
 44
-55.29419993215089
 45
-1.414213562373094
 46
1.414213562373095
 79
     0
 47
0.4381502735020374
 98
        2
 10
365.1517938804202
 20
300.9329553306497
 10
311.2300786809335
 20
203.2254446909484
  0
DIMENSION
  5
1262
330
1E
100
AcDbEntity
  8
BEM
100
AcDbDimension
  2
*D4
 10
506.3688247035117
 20
192.5312034862588
 30
0.0
 11
509.0238630759938
 21
243.1923535827529
 31
0.0
 70
   161
  1
%%c<>
 71
     5
 42
101.5999999999999
  3
Standard
100
AcDbAlignedDimension
 13
485.6123147598948
 23
295.3584364314588
 33
0.0
 14
480.2949816056117
 24
193.8976757003942
 34
0.0
1001
ACAD
1000
DSTYLE
1002
{
1070
    40
1040
2.0
1070
    41
1040
3.5
1070
    42
1040
1.0
1070
    43
1040
7.0
1070
    44
1040
1.0
1070
    45
1040
0.1
1070
    73
1070
     0
1070
    74
1070
     0
1070
    77
1070
     1
1070
    78
1070
     8
1070
    79
1070
     2
1070
   140
1040
3.5
1070
   141
1040
1.5
1070
   146
1040
0.5142857142857144
1070
   147
1040
1.5
1070
   172
1070
     1
1070
   178
1070
     1
1070
   179
1070
     2
1070
   271
1070
     2
1070
   272
1070
     2
1070
   284
1070
     8
1070
   285
1070
     8
1070
   286
1070
     8
1002
}
  0
DIMENSION
  5
1263
330
1E
100
AcDbEntity
  8
BEM
100
AcDbDimension
  2
*D5
 10
537.349372297524
 20
244.2093684159833
 30
0.0
 11
530.849372297524
 21
296.6265045534365
 31
0.0
 70
    32
  1
105
 71
     5
 42
104.8342722749062
  3
Standard
100
AcDbAlignedDimension
 13
355.9426844607898
 23
349.0436406908896
 33
0.0
 14
512.5200115959492
 24
244.2093684159833
 34
0.0
 50
90.0
100
AcDbRotatedDimension
1001
ACAD
1000
DSTYLE
1002
{
1070
    40
1040
2.0
1070
    41
1040
3.5
1070
    42
1040
1.0
1070
    43
1040
7.0
1070
    44
1040
1.0
1070
    73
1070
     0
1070
    74
1070
     0
1070
    77
1070
     1
1070
    78
1070
     8
1070
    79
1070
     2
1070
   140
1040
3.5
1070
   141
1040
1.5
1070
   146
1040
0.5
1070
   147
1040
1.5
1070
   172
1070
     1
1070
   178
1070
     1
1070
   179
1070
     2
1070
   271
1070
     2
1070
   272
1070
     2
1070
   284
1070
     8
1070
   285
1070
     8
1070
   286
1070
     8
1002
}
  0
LINE
  5
1288
330
1E
100
AcDbEntity
  8
MITTEL
100
AcDbLine
 10
309.4171921020538
 20
379.0436406908896
 30
0.0
 11
309.4171921020539
 21
349.0436406908902
 31
0.0
  0
LINE
  5
128A
330
1E
100
AcDbEntity
  8
STEMPEL
100
AcDbLine
 10
259.4426844607902
 20
353.0436406908904
 30
0.0
 11
260.7877635626333
 21
350.1591092483554
 31
0.0
  0
LINE
  5
12B4
330
1E
100
AcDbEntity
  8
MITTEL
100
AcDbLine
 10
93.94268446078973
 20
379.0436406908906
 30
0.0
 11
93.94268446078973
 21
349.0436406908902
 31
0.0
  0
LINE
  5
12BE
330
1E
100
AcDbEntity
  8
STEMPEL
100
AcDbLine
 10
60.77111158553606
 20
349.0436406908906
 30
0.0
 11
149.0520012306111
 21
349.0436406908903
 31
0.0
  0
DIMENSION
  5
12C1
330
1E
100
AcDbEntity
  8
BEM
100
AcDbDimension
  2
*D6
 10
38.14631652053325
 20
349.0436406908906
 30
0.0
 11
32.64631652053319
 21
304.094613101271
 31
0.0
 70
    32
 71
     5
 42
89.8980551792394
  3
Standard
100
AcDbAlignedDimension
 13
205.9426844607898
 23
259.1455855116512
 33
0.0
 14
60.77111158553606
 24
349.0436406908906
 34
0.0
 50
90.0
100
AcDbRotatedDimension
1001
ACAD
1000
DSTYLE
1002
{
1070
    40
1040
2.0
1070
    41
1040
3.5
1070
    42
1040
1.0
1070
    43
1040
7.0
1070
    44
1040
1.0
1070
    47
1040
2.0
1070
    48
1040
2.0
1070
    73
1070
     0
1070
    74
1070
     0
1070
    77
1070
     1
1070
    78
1070
     8
1070
    79
1070
     2
1070
   140
1040
3.5
1070
   141
1040
1.5
1070
   146
1040
0.5142857142857144
1070
   147
1040
1.0
1070
   172
1070
     1
1070
   178
1070
     1
1070
   179
1070
     1
1070
   271
1070
     0
1070
   272
1070
     1
1070
   279
1070
     0
1002
}
  0
LINE
  5
12C7
330
1E
100
AcDbEntity
  8
STEMPEL
100
AcDbLine
 10
150.7876175823466
 20
353.0436406908903
 30
0.0
 11
151.1186309580347
 21
353.0436406908904
 31
0.0
  0
LINE
  5
12C9
330
1E
100
AcDbEntity
  8
STEMPEL
100
AcDbLine
 10
150.7876175823466
 20
353.0436406908904
 30
0.0
 11
151.1186309580347
 21
353.0436406908904
 31
0.0
  0
DIMENSION
  5
12CA
330
1E
100
AcDbEntity
  8
BEM
100
AcDbDimension
  2
*D7
 10
458.9385730650534
 20
245.8866328221611
 30
0.0
 11
240.3716402210357
 21
239.5454500966974
 31
0.0
 70
    34
 71
     5
 42
0.0523598775598186
  3
Standard
100
AcDb2LineAngularDimension
 13
205.9480125285161
 23
259.1453062794538
 33
0.0
 14
203.9480125285161
 24
259.1453062794538
 34
0.0
 15
205.9426844607898
 25
259.1455855116512
 35
0.0
 16
251.5652315449265
 26
258.349054759677
 36
0.0
1001
ACAD
1000
DSTYLE
1002
{
1070
    40
1040
2.0
1070
    41
1040
3.5
1070
    42
1040
1.0
1070
    43
1040
7.0
1070
    44
1040
1.0
1070
    47
1040
2.0
1070
    48
1040
2.0
1070
    73
1070
     0
1070
    74
1070
     0
1070
    77
1070
     1
1070
    78
1070
     8
1070
    79
1070
     2
1070
   140
1040
3.5
1070
   141
1040
1.5
1070
   146
1040
0.5142857142857144
1070
   147
1040
1.5
1070
   172
1070
     1
1070
   178
1070
     1
1070
   179
1070
     1
1070
   271
1070
     1
1070
   272
1070
     1
1070
   279
1070
     0
1002
}
  0
LINE
  5
1353
330
1E
100
AcDbEntity
  8
MITTEL
100
AcDbLine
 10
205.9426844607899
 20
387.5569762175771
 30
0.0
 11
205.9426844607899
 21
259.04364069089
 31
0.0
  0
LINE
  5
13A5
330
1E
100
AcDbEntity
  8
STEMPEL
100
AcDbLine
 10
154.4426844607898
 20
353.8436406908897
 30
0.0
 11
153.0792977251821
 21
358.9318692585435
 31
0.0
  0
ARC
  5
13A7
330
1E
100
AcDbEntity
  8
STEMPEL
100
AcDbCircle
 10
151.6304089857485
 20
358.5436406908897
 30
0.0
 40
1.5
100
AcDbArc
 50
15.00000000000116
 51
148.1457059206459
  0
ARC
  5
13A8
330
1E
100
AcDbEntity
  8
STEMPEL
100
AcDbCircle
 10
151.1926844607899
 20
353.1021614344303
 30
0.0
 40
4.0
100
AcDbArc
 50
148.1457059206459
 51
180.0
  0
LINE
  5
13A9
330
1E
100
AcDbEntity
  8
STEMPEL
100
AcDbLine
 10
147.1926844607899
 20
353.1021614344303
 30
0.0
 11
147.1926844607899
 21
353.0436406908896
 31
0.0
  0
POINT
  5
13AA
330
1E
100
AcDbEntity
  8
DEFPOINTS
  6
ByBlock
 62
     0
100
AcDbPoint
 10
147.1926844607899
 20
353.0436406908896
 30
0.0
  0
LINE
  5
13AB
330
1E
100
AcDbEntity
  8
STEMPEL
100
AcDbLine
 10
152.4426844607894
 20
353.0436406908896
 30
0.0
 11
147.1926844607899
 21
353.0436406908896
 31
0.0
  0
LINE
  5
13AC
330
1E
100
AcDbEntity
  8
STEMPEL
100
AcDbLine
 10
147.7951126101641
 20
355.2132051383444
 30
0.0
 11
150.3563195417638
 21
359.3352820798575
 31
0.0
  0
LINE
  5
13AF
330
1E
100
AcDbEntity
  8
STEMPEL
100
AcDbLine
 10
152.5437049752239
 20
337.0436406908897
 30
0.0
 11
150.8775484498653
 21
337.0436406908897
 31
0.0
  0
LINE
  5
13B0
330
1E
100
AcDbEntity
  8
STEMPEL
100
AcDbLine
 10
150.0844643233738
 20
335.0436406908897
 30
0.0
 11
150.8775484498653
 21
337.0436406908897
 31
0.0
  0
ARC
  5
13B2
330
1E
100
AcDbEntity
  8
STEMPEL
100
AcDbCircle
 10
162.8524865420073
 20
336.6935245982319
 30
0.0
 40
10.31472533177678
100
AcDbArc
 50
178.0548169868644
 51
200.958032515257
  0
LINE
  5
13B7
330
1E
100
AcDbEntity
  8
STEMPEL
100
AcDbLine
 10
152.6705691507547
 20
335.0436406908898
 30
0.0
 11
148.9426844607895
 21
335.0436406908897
 31
0.0
  0
LINE
  5
13BB
330
1E
100
AcDbEntity
  8
STEMPEL
100
AcDbLine
 10
260.2549599358314
 20
360.0436406908897
 30
0.0
 11
257.4426844607899
 21
360.0436406908897
 31
0.0
  0
LINE
  5
13C0
330
1E
100
AcDbEntity
  8
STEMPEL
100
AcDbLine
 10
154.4426844607898
 20
333.004112041433
 30
0.0
 11
153.2201558969488
 21
333.0041120414331
 31
0.0
  0
LINE
  5
13C2
330
1E
100
AcDbEntity
  8
STEMPEL
100
AcDbLine
 10
259.4426844607903
 20
353.0436406908903
 30
0.0
 11
264.6926844607898
 21
353.0436406908902
 31
0.0
  0
LINE
  5
13C4
330
1E
100
AcDbEntity
  8
STEMPEL
100
AcDbLine
 10
259.4426844607904
 20
353.04364069089
 30
0.0
 11
260.7667379635454
 21
353.04364069089
 31
0.0
  0
LINE
  5
13C5
330
1E
100
AcDbEntity
  8
STEMPEL
100
AcDbLine
 10
154.4426844607898
 20
360.0436406908897
 30
0.0
 11
151.6304089857485
 21
360.0436406908897
 31
0.0
  0
LINE
  5
13C6
330
1E
100
AcDbEntity
  8
STEMPEL
100
AcDbLine
 10
257.4426844607899
 20
333.004112041433
 30
0.0
 11
258.6652130246309
 21
333.0041120414331
 31
0.0
  0
LINE
  5
13C7
330
1E
100
AcDbEntity
  8
STEMPEL
100
AcDbLine
 10
259.214799770825
 20
335.0436406908898
 30
0.0
 11
262.9426844607902
 21
335.0436406908897
 31
0.0
  0
ARC
  5
13C8
330
1E
100
AcDbEntity
  8
STEMPEL
100
AcDbCircle
 10
249.0328823795725
 20
336.6935245982319
 30
0.0
 40
10.31472533177678
100
AcDbArc
 50
339.041967484743
 51
1.945183013135613
  0
LINE
  5
13C9
330
1E
100
AcDbEntity
  8
STEMPEL
100
AcDbLine
 10
261.800904598206
 20
335.0436406908897
 30
0.0
 11
261.0078204717145
 21
337.0436406908897
 31
0.0
  0
LINE
  5
13CA
330
1E
100
AcDbEntity
  8
STEMPEL
100
AcDbLine
 10
259.3416639463559
 20
337.0436406908897
 30
0.0
 11
261.0078204717145
 21
337.0436406908897
 31
0.0
  0
POINT
  5
13CB
330
1E
100
AcDbEntity
  8
DEFPOINTS
  6
ByBlock
 62
     0
100
AcDbPoint
 10
264.6926844607899
 20
353.0436406908896
 30
0.0
  0
LINE
  5
13CC
330
1E
100
AcDbEntity
  8
STEMPEL
100
AcDbLine
 10
264.6926844607899
 20
353.1021614344303
 30
0.0
 11
264.6926844607899
 21
353.0436406908896
 31
0.0
  0
ARC
  5
13CD
330
1E
100
AcDbEntity
  8
STEMPEL
100
AcDbCircle
 10
260.6926844607899
 20
353.1021614344303
 30
0.0
 40
4.0
100
AcDbArc
 50
0.000000000000007
 51
31.85429407935407
  0
LINE
  5
13CE
330
1E
100
AcDbEntity
  8
STEMPEL
100
AcDbLine
 10
264.0902563114156
 20
355.2132051383444
 30
0.0
 11
261.5290493798159
 21
359.3352820798575
 31
0.0
  0
LINE
  5
13CF
330
1E
100
AcDbEntity
  8
STEMPEL
100
AcDbLine
 10
257.4426844607899
 20
360.0436406908897
 30
0.0
 11
260.2549599358312
 21
360.0436406908897
 31
0.0
  0
ARC
  5
13D0
330
1E
100
AcDbEntity
  8
STEMPEL
100
AcDbCircle
 10
260.2549599358312
 20
358.5436406908897
 30
0.0
 40
1.5
100
AcDbArc
 50
31.85429407935407
 51
164.9999999999988
  0
LINE
  5
13D1
330
1E
100
AcDbEntity
  8
STEMPEL
100
AcDbLine
 10
257.4426844607899
 20
353.8436406908897
 30
0.0
 11
258.8060711963976
 21
358.9318692585435
 31
0.0
  0
HATCH
  5
13F4
330
1E
100
AcDbEntity
  8
SCHRAFF
100
AcDbHatch
 10
0.0
 20
0.0
 30
0.0
210
0.0
220
0.0
230
1.0
  2
NET
 70
     0
 71
     0
 91
        2
 92
        7
 72
     1
 73
     1
 93
       15
 10
260.7877635626333
 20
350.1591092483554
 42
0.0
 10
259.4426844607903
 20
353.04364069089
 42
0.0
 10
260.7667379635454
 20
353.04364069089
 42
0.0
 10
264.6922563532023
 20
353.04364069089
 42
0.1436237563962938
 10
264.0902563114156
 20
355.2132051383444
 42
0.0
 10
261.5290493798159
 20
359.3352820798575
 42
0.6565381519876377
 10
258.8060711963976
 20
358.9318692585435
 42
0.0
 10
257.4426844607899
 20
353.8436406908897
 42
0.0
 10
257.4426844607899
 20
333.0041120414331
 42
0.0
 10
258.6652130246309
 20
333.0041120414331
 42
0.1002681394754772
 10
259.3416639463562
 20
337.0436406908897
 42
0.0
 10
261.0078204717145
 20
337.0436406908897
 42
0.0
 10
261.8009045982061
 20
335.0436406908898
 42
0.0
 10
262.9426844607904
 20
335.0436406908897
 42
0.0
 10
262.9426844607904
 20
340.4388892283188
 42
0.1095178116832469
 97
        0
 92
        7
 72
     1
 73
     1
 93
       14
 10
154.4426844607898
 20
353.8436406908899
 42
0.0
 10
153.0792977251821
 20
358.9318692585435
 42
0.6565381519876209
 10
150.3563195417638
 20
359.3352820798575
 42
0.0
 10
147.7951126101641
 20
355.2132051383444
 42
0.1436237563963224
 10
147.1931125683775
 20
353.0436406908896
 42
0.0
 10
152.4426844607894
 20
353.0436406908896
 42
0.0
 10
151.0976053589464
 20
350.1591092483549
 42
0.1095178116832371
 10
148.9426844607895
 20
340.4388892283192
 42
0.0
 10
148.9426844607896
 20
335.0436406908898
 42
0.0
 10
150.0844643233738
 20
335.0436406908898
 42
0.0
 10
150.8775484498653
 20
337.0436406908897
 42
0.0
 10
152.5437049752239
 20
337.0436406908897
 42
0.1002681394754756
 10
153.2201558969488
 20
333.0041120414331
 42
0.0
 10
154.4426844607897
 20
333.004112041433
 42
0.0
 97
        0
 75
     0
 76
     1
 52
45.0
 41
15.0
 77
     0
 78
     2
 53
45.0
 43
0.0
 44
0.0
 45
-1.325825214724776
 46
1.325825214724776
 79
     0
 53
135.0
 43
0.0
 44
0.0
 45
-1.325825214724776
 46
-1.325825214724776
 79
     0
 47
0.2181192788943681
 98
        2
 10
260.3792425566844
 20
344.936314905302
 10
152.3516333699826
 20
346.6812681451667
  0
ARC
  5
1886
330
1E
100
AcDbEntity
  8
STEMPEL
100
AcDbCircle
 10
104.0926844607897
 20
361.7936406908895
 30
0.0
 40
0.750000000000001
100
AcDbArc
 50
269.9999991462263
 51
70.00000000000124
  0
LINE
  5
1887
330
1E
100
AcDbEntity
  8
STEMPEL
100
AcDbLine
 10
104.349199568284
 20
362.4984101564789
 30
0.0
 11
102.6029384986341
 21
363.1339972070894
 31
0.0
  0
LINE
  5
1888
330
1E
100
AcDbEntity
  8
STEMPEL
100
AcDbLine
 10
102.6029384986341
 20
370.7327515584341
 30
0.0
 11
101.4426844607897
 21
371.0436406908895
 31
0.0
  0
LINE
  5
1889
330
1E
100
AcDbEntity
  8
STEMPEL
100
AcDbLine
 10
104.0926844607897
 20
361.0436406908895
 30
0.0
 11
83.79268446078972
 21
361.0436406908895
 31
0.0
  0
LINE
  5
188A
330
1E
100
AcDbEntity
  8
STEMPEL
100
AcDbLine
 10
104.349199568284
 20
362.4984101564789
 30
0.0
 11
83.53616935329547
 21
362.4984101564789
 31
0.0
  0
LINE
  5
188B
330
1E
100
AcDbEntity
  8
STEMPEL
100
AcDbLine
 10
98.27281147971193
 20
363.1339972070894
 30
0.0
 11
98.27281147971193
 21
370.7327515584341
 31
0.0
  0
LINE
  5
188C
330
1E
100
AcDbEntity
  8
STEMPEL
100
AcDbLine
 10
102.6029384986341
 20
363.1339972070894
 30
0.0
 11
102.6029384986341
 21
370.7327515584341
 31
0.0
  0
LINE
  5
188D
330
1E
100
AcDbEntity
  8
STEMPEL
100
AcDbLine
 10
86.44268446078976
 20
371.0436406908895
 30
0.0
 11
101.4426844607897
 21
371.0436406908895
 31
0.0
  0
ARC
  5
188E
330
1E
100
AcDbEntity
  8
HILF
100
AcDbCircle
 10
100.437874989173
 20
357.7951545413599
 30
0.0
 40
5.761140599691502
100
AcDbArc
 50
67.92594526326282
 51
112.0740547367372
  0
ARC
  5
188F
330
1E
100
AcDbEntity
  8
HILF
100
AcDbCircle
 10
93.94268446078973
 20
341.1451796432283
 30
0.0
 40
22.41111549782308
100
AcDbArc
 50
78.85962783890537
 51
101.1403721610946
  0
ARC
  5
1890
330
1E
100
AcDbEntity
  8
STEMPEL
100
AcDbCircle
 10
100.437874989173
 20
363.349334983105
 30
0.0
 40
7.694305707784447
100
AcDbArc
 50
73.65710669401501
 51
106.342893305985
  0
ARC
  5
1891
330
1E
100
AcDbEntity
  8
STEMPEL
100
AcDbCircle
 10
93.94268446078973
 20
340.7327515584346
 30
0.0
 40
30.31088913245485
100
AcDbArc
 50
81.78678929826139
 51
98.2132107017378
  0
LINE
  5
1895
330
1E
100
AcDbEntity
  8
STEMPEL
100
AcDbLine
 10
63.94268446078974
 20
361.0436406908895
 30
0.0
 11
154.4426844607897
 21
361.0436406908895
 31
0.0
  0
LINE
  5
1896
330
1E
100
AcDbEntity
  8
STEMPEL
100
AcDbLine
 10
148.8110945589739
 20
355.0436406908895
 30
0.0
 11
98.94268446078974
 21
355.0436406908895
 31
0.0
  0
LINE
  5
1897
330
1E
100
AcDbEntity
  8
STEMPEL
100
AcDbLine
 10
88.94268446078973
 20
373.0436406908902
 30
0.0
 11
98.94268446078974
 21
373.0436406908902
 31
0.0
  0
LINE
  5
1898
330
1E
100
AcDbEntity
  8
STEMPEL
100
AcDbLine
 10
97.94268446078973
 20
374.0436406908902
 30
0.0
 11
89.94268446078974
 21
374.0436406908902
 31
0.0
  0
LINE
  5
189A
330
1E
100
AcDbEntity
  8
STEMPEL
100
AcDbLine
 10
98.94268446078974
 20
361.0436406908895
 30
0.0
 11
98.94268446078974
 21
349.0436406908902
 31
0.0
  0
LINE
  5
189B
330
1E
100
AcDbEntity
  8
HILF
100
AcDbLine
 10
97.94268446078973
 20
361.0436406908895
 30
0.0
 11
97.94268446078973
 21
349.0436406908902
 31
0.0
  0
LINE
  5
189C
330
1E
100
AcDbEntity
  8
STEMPEL
100
AcDbLine
 10
100.9426844607897
 20
361.0436406908895
 30
0.0
 11
100.9426844607898
 21
355.0436406908895
 31
0.0
  0
LINE
  5
189D
330
1E
100
AcDbEntity
  8
STEMPEL
100
AcDbLine
 10
98.94268446078974
 20
373.0436406908902
 30
0.0
 11
97.94268446078973
 21
374.0436406908902
 31
0.0
  0
LINE
  5
189E
330
1E
100
AcDbEntity
  8
HILF
100
AcDbLine
 10
97.94268446078973
 20
374.0436406908902
 30
0.0
 11
97.94268446078973
 21
371.0436406908895
 31
0.0
  0
LINE
  5
189F
330
1E
100
AcDbEntity
  8
STEMPEL
100
AcDbLine
 10
98.94268446078974
 20
373.0436406908902
 30
0.0
 11
98.94268446078973
 21
371.0436406908895
 31
0.0
  0
ARC
  5
18A1
330
1E
100
AcDbEntity
  8
STEMPEL
100
AcDbCircle
 10
123.9426844607898
 20
358.0436406908895
 30
0.0
 40
3.0
100
AcDbArc
 50
270.0
 51
90.0
  0
ARC
  5
18A2
330
1E
100
AcDbEntity
  8
STEMPEL
100
AcDbCircle
 10
83.79268446078972
 20
361.7936406908895
 30
0.0
 40
0.7500000000000013
100
AcDbArc
 50
109.9999999999987
 51
269.9999991462263
  0
LINE
  5
18A3
330
1E
100
AcDbEntity
  8
STEMPEL
100
AcDbLine
 10
85.28243042294535
 20
363.1339972070894
 30
0.0
 11
83.53616935329549
 21
362.4984101564789
 31
0.0
  0
LINE
  5
18A4
330
1E
100
AcDbEntity
  8
STEMPEL
100
AcDbLine
 10
86.44268446078976
 20
371.0436406908895
 30
0.0
 11
85.28243042294535
 21
370.7327515584341
 31
0.0
  0
LINE
  5
18A5
330
1E
100
AcDbEntity
  8
STEMPEL
100
AcDbLine
 10
85.28243042294535
 20
363.1339972070894
 30
0.0
 11
85.28243042294535
 21
370.7327515584341
 31
0.0
  0
LINE
  5
18A6
330
1E
100
AcDbEntity
  8
STEMPEL
100
AcDbLine
 10
89.61255744186754
 20
363.1339972070894
 30
0.0
 11
89.61255744186754
 21
370.7327515584341
 31
0.0
  0
ARC
  5
18A7
330
1E
100
AcDbEntity
  8
HILF
100
AcDbCircle
 10
87.44749393240644
 20
357.7951545413599
 30
0.0
 40
5.761140599691502
100
AcDbArc
 50
67.92594526326282
 51
112.0740547367372
  0
ARC
  5
18A8
330
1E
100
AcDbEntity
  8
STEMPEL
100
AcDbCircle
 10
87.44749393240644
 20
363.349334983105
 30
0.0
 40
7.694305707784447
100
AcDbArc
 50
73.65710669401501
 51
106.342893305985
  0
DIMENSION
  5
18AA
330
1E
100
AcDbEntity
  8
BEM
100
AcDbDimension
  2
*D8
 10
55.94268446078974
 20
387.8417465885187
 30
0.0
 11
205.9426844607898
 21
394.3417465885188
 31
0.0
 70
    32
  1
%%c<>
 71
     5
 42
300.0000000000002
  3
Standard
100
AcDbAlignedDimension
 13
355.9426844607899
 23
352.0436406908895
 33
0.0
 14
55.94268446078974
 24
352.0436406908895
 34
0.0
100
AcDbRotatedDimension
1001
ACAD
1000
DSTYLE
1002
{
1070
    40
1040
2.0
1070
    41
1040
3.5
1070
    42
1040
1.0
1070
    43
1040
7.0
1070
    44
1040
1.0
1070
    73
1070
     0
1070
    74
1070
     0
1070
    77
1070
     1
1070
    78
1070
     8
1070
    79
1070
     2
1070
   140
1040
3.5
1070
   141
1040
1.5
1070
   146
1040
0.5142857142857144
1070
   147
1040
1.5
1070
   172
1070
     1
1070
   178
1070
     1
1070
   179
1070
     2
1070
   271
1070
     2
1070
   272
1070
     2
1070
   284
1070
     8
1070
   285
1070
     8
1070
   286
1070
     8
1002
}
  0
LINE
  5
18AB
330
1E
100
AcDbEntity
  8
STEMPEL
100
AcDbLine
 10
88.94268446078973
 20
355.0436406908895
 30
0.0
 11
63.94268446078974
 21
355.0436406908895
 31
0.0
  0
ARC
  5
18AC
330
1E
100
AcDbEntity
  8
STEMPEL
100
AcDbCircle
 10
63.94268446078974
 20
358.0436406908895
 30
0.0
 40
3.0
100
AcDbArc
 50
90.0
 51
270.0
  0
LINE
  5
18AF
330
1E
100
AcDbEntity
  8
STEMPEL
100
AcDbLine
 10
86.94268446078973
 20
361.0436406908895
 30
0.0
 11
86.94268446078982
 21
355.0436406908895
 31
0.0
  0
LINE
  5
18B0
330
1E
100
AcDbEntity
  8
HILF
100
AcDbLine
 10
89.94268446078974
 20
361.0436406908895
 30
0.0
 11
89.94268446078974
 21
349.0436406908902
 31
0.0
  0
LINE
  5
18B1
330
1E
100
AcDbEntity
  8
STEMPEL
100
AcDbLine
 10
88.94268446078973
 20
361.0436406908895
 30
0.0
 11
88.94268446078973
 21
349.0436406908902
 31
0.0
  0
LINE
  5
18B2
330
1E
100
AcDbEntity
  8
HILF
100
AcDbLine
 10
89.94268446078974
 20
374.0436406908902
 30
0.0
 11
89.94268446078972
 21
371.0436406908895
 31
0.0
  0
LINE
  5
18B3
330
1E
100
AcDbEntity
  8
STEMPEL
100
AcDbLine
 10
88.94268446078973
 20
373.0436406908902
 30
0.0
 11
88.94268446078973
 21
371.0436406908895
 31
0.0
  0
ARC
  5
18B4
330
1E
100
AcDbEntity
  8
STEMPEL
100
AcDbCircle
 10
139.7926844607898
 20
361.7936406908896
 30
0.0
 40
0.7500000000000013
100
AcDbArc
 50
109.9999999999987
 51
269.9999991462263
  0
LINE
  5
18B5
330
1E
100
AcDbEntity
  8
STEMPEL
100
AcDbLine
 10
141.2824304229455
 20
363.1339972070894
 30
0.0
 11
139.5361693532956
 21
362.498410156479
 31
0.0
  0
LINE
  5
18B6
330
1E
100
AcDbEntity
  8
STEMPEL
100
AcDbLine
 10
142.4426844607898
 20
371.0436406908895
 30
0.0
 11
141.2824304229454
 21
370.7327515584342
 31
0.0
  0
LINE
  5
18B7
330
1E
100
AcDbEntity
  8
STEMPEL
100
AcDbLine
 10
141.2824304229454
 20
363.1339972070894
 30
0.0
 11
141.2824304229454
 21
370.7327515584342
 31
0.0
  0
LINE
  5
18B8
330
1E
100
AcDbEntity
  8
STEMPEL
100
AcDbLine
 10
154.4426844607898
 20
361.0436406908896
 30
0.0
 11
139.7926844607898
 21
361.0436406908896
 31
0.0
  0
LINE
  5
18B9
330
1E
100
AcDbEntity
  8
STEMPEL
100
AcDbLine
 10
154.4426844607898
 20
362.498410156479
 30
0.0
 11
139.5361693532956
 21
362.498410156479
 31
0.0
  0
LINE
  5
18BA
330
1E
100
AcDbEntity
  8
STEMPEL
100
AcDbLine
 10
145.6125574418677
 20
363.1339972070894
 30
0.0
 11
145.6125574418677
 21
370.7327515584342
 31
0.0
  0
LINE
  5
18BB
330
1E
100
AcDbEntity
  8
STEMPEL
100
AcDbLine
 10
154.272811479712
 20
363.1339972070894
 30
0.0
 11
154.272811479712
 21
370.7327515584342
 31
0.0
  0
LINE
  5
18BC
330
1E
100
AcDbEntity
  8
STEMPEL
100
AcDbLine
 10
142.4426844607898
 20
371.0436406908895
 30
0.0
 11
154.4426844607898
 21
371.0436406908896
 31
0.0
  0
POINT
  5
18BD
330
1E
100
AcDbEntity
  8
0
100
AcDbPoint
 10
149.9426844607898
 20
361.0436406908896
 30
0.0
210
0.0000000000000001
220
1.0
230
0.0
  0
ARC
  5
18BE
330
1E
100
AcDbEntity
  8
HILF
100
AcDbCircle
 10
143.4474939324065
 20
357.7951545413599
 30
0.0
 40
5.761140599691502
100
AcDbArc
 50
67.92594526326282
 51
112.0740547367372
  0
ARC
  5
18BF
330
1E
100
AcDbEntity
  8
HILF
100
AcDbCircle
 10
156.4378749891731
 20
357.7951545413599
 30
0.0
 40
5.761140599691502
100
AcDbArc
 50
110.2623128518299
 51
112.0740547367372
  0
ARC
  5
18C0
330
1E
100
AcDbEntity
  8
HILF
100
AcDbCircle
 10
149.9426844607898
 20
341.1451796432283
 30
0.0
 40
22.41111549782308
100
AcDbArc
 50
78.85962783890615
 51
101.1403721610938
  0
ARC
  5
18C1
330
1E
100
AcDbEntity
  8
STEMPEL
100
AcDbCircle
 10
156.4378749891731
 20
363.3493349831051
 30
0.0
 40
7.694305707784447
100
AcDbArc
 50
105.028970618515
 51
106.342893305985
  0
ARC
  5
18C2
330
1E
100
AcDbEntity
  8
STEMPEL
100
AcDbCircle
 10
143.4474939324065
 20
363.3493349831051
 30
0.0
 40
7.694305707784447
100
AcDbArc
 50
73.65710669401501
 51
106.342893305985
  0
ARC
  5
18C3
330
1E
100
AcDbEntity
  8
STEMPEL
100
AcDbCircle
 10
149.9426844607898
 20
340.7327515584347
 30
0.0
 40
30.31088913245485
100
AcDbArc
 50
81.78678929826221
 51
98.2132107017378
  0
LINE
  5
18C4
330
1E
100
AcDbEntity
  8
STEMPEL
100
AcDbLine
 10
153.9426844607898
 20
374.04364069089
 30
0.0
 11
145.9426844607898
 21
374.0436406908902
 31
0.0
  0
LINE
  5
18C5
330
1E
100
AcDbEntity
  8
STEMPEL
100
AcDbLine
 10
144.9426844607899
 20
373.0436406908902
 30
0.0
 11
154.4426844607898
 21
373.0436406908902
 31
0.0
  0
LINE
  5
18C6
330
1E
100
AcDbEntity
  8
STEMPEL
100
AcDbLine
 10
145.9426844607898
 20
374.0436406908902
 30
0.0
 11
144.9426844607898
 21
373.0436406908902
 31
0.0
  0
LINE
  5
18C7
330
1E
100
AcDbEntity
  8
HILF
100
AcDbLine
 10
145.9426844607898
 20
374.0436406908902
 30
0.0
 11
145.9426844607898
 21
371.0436406908895
 31
0.0
  0
LINE
  5
18C8
330
1E
100
AcDbEntity
  8
STEMPEL
100
AcDbLine
 10
144.9426844607898
 20
373.0436406908902
 30
0.0
 11
144.9426844607898
 21
371.0436406908895
 31
0.0
  0
LINE
  5
18C9
330
1E
100
AcDbEntity
  8
STEMPEL
100
AcDbLine
 10
154.4426844607898
 20
373.54364069089
 30
0.0
 11
153.9426844607898
 21
374.04364069089
 31
0.0
  0
LINE
  5
18CA
330
1E
100
AcDbEntity
  8
HILF
100
AcDbLine
 10
153.9426844607898
 20
374.04364069089
 30
0.0
 11
153.9426844607898
 21
371.0436406908895
 31
0.0
  0
LINE
  5
18CC
330
1E
100
AcDbEntity
  8
MITTEL
100
AcDbLine
 10
149.9426844607898
 20
379.0436406908901
 30
0.0
 11
149.9426844607898
 21
358.876695445117
 31
0.0
  0
LINE
  5
18ED
330
1E
100
AcDbEntity
  8
STEMPEL
100
AcDbLine
 10
89.94268446078974
 20
374.0436406908902
 30
0.0
 11
88.94268446078973
 21
373.0436406908902
 31
0.0
  0
ARC
  5
1923
330
1E
100
AcDbEntity
  8
STEMPEL
100
AcDbCircle
 10
299.2671921020539
 20
361.7936406908895
 30
0.0
 40
0.7500000000000013
100
AcDbArc
 50
109.9999999999995
 51
269.9999991462263
  0
LINE
  5
1924
330
1E
100
AcDbEntity
  8
STEMPEL
100
AcDbLine
 10
300.7569380642095
 20
363.1339972070894
 30
0.0
 11
299.0106769945596
 21
362.4984101564789
 31
0.0
  0
LINE
  5
1925
330
1E
100
AcDbEntity
  8
STEMPEL
100
AcDbLine
 10
319.0673520434625
 20
362.7737009234676
 30
0.0
 11
318.0774461398983
 21
363.1339972070894
 31
0.0
  0
LINE
  5
1926
330
1E
100
AcDbEntity
  8
STEMPEL
100
AcDbLine
 10
318.0774461398983
 20
370.7327515584341
 30
0.0
 11
316.9171921020539
 21
371.0436406908895
 31
0.0
  0
LINE
  5
1927
330
1E
100
AcDbEntity
  8
STEMPEL
100
AcDbLine
 10
301.9171921020539
 20
371.0436406908895
 30
0.0
 11
300.7569380642095
 21
370.7327515584341
 31
0.0
  0
LINE
  5
1928
330
1E
100
AcDbEntity
  8
STEMPEL
100
AcDbLine
 10
300.7569380642095
 20
363.1339972070894
 30
0.0
 11
300.7569380642095
 21
370.7327515584341
 31
0.0
  0
LINE
  5
1929
330
1E
100
AcDbEntity
  8
STEMPEL
100
AcDbLine
 10
318.810637846258
 20
362.4984101564789
 30
0.0
 11
299.0106769945596
 21
362.4984101564789
 31
0.0
  0
LINE
  5
192A
330
1E
100
AcDbEntity
  8
STEMPEL
100
AcDbLine
 10
305.0870650831317
 20
363.1339972070894
 30
0.0
 11
305.0870650831317
 21
370.7327515584341
 31
0.0
  0
LINE
  5
192B
330
1E
100
AcDbEntity
  8
STEMPEL
100
AcDbLine
 10
313.7473191209761
 20
363.1339972070894
 30
0.0
 11
313.7473191209761
 21
370.7327515584341
 31
0.0
  0
LINE
  5
192C
330
1E
100
AcDbEntity
  8
STEMPEL
100
AcDbLine
 10
318.0774461398983
 20
363.1339972070894
 30
0.0
 11
318.0774461398983
 21
370.7327515584341
 31
0.0
  0
LINE
  5
192D
330
1E
100
AcDbEntity
  8
STEMPEL
100
AcDbLine
 10
301.9171921020539
 20
371.0436406908895
 30
0.0
 11
316.9171921020539
 21
371.0436406908895
 31
0.0
  0
POINT
  5
192E
330
1E
100
AcDbEntity
  8
0
100
AcDbPoint
 10
309.4171921020539
 20
361.0436406908895
 30
0.0
210
0.0000000000000001
220
1.0
230
0.0
  0
ARC
  5
192F
330
1E
100
AcDbEntity
  8
HILF
100
AcDbCircle
 10
302.9220015736706
 20
357.7951545413599
 30
0.0
 40
5.761140599691502
100
AcDbArc
 50
67.92594526325932
 51
112.0740547367407
  0
ARC
  5
1930
330
1E
100
AcDbEntity
  8
HILF
100
AcDbCircle
 10
315.9123826304372
 20
357.7951545413599
 30
0.0
 40
5.761140599691502
100
AcDbArc
 50
67.92594526325932
 51
112.0740547367407
  0
ARC
  5
1931
330
1E
100
AcDbEntity
  8
HILF
100
AcDbCircle
 10
309.4171921020539
 20
341.1451796432283
 30
0.0
 40
22.41111549782308
100
AcDbArc
 50
78.85962783890455
 51
101.1403721610954
  0
ARC
  5
1932
330
1E
100
AcDbEntity
  8
STEMPEL
100
AcDbCircle
 10
315.9123826304372
 20
363.349334983105
 30
0.0
 40
7.694305707784447
100
AcDbArc
 50
73.65710669401345
 51
106.3428933059825
  0
ARC
  5
1933
330
1E
100
AcDbEntity
  8
STEMPEL
100
AcDbCircle
 10
302.9220015736706
 20
363.349334983105
 30
0.0
 40
7.694305707784447
100
AcDbArc
 50
73.65710669401345
 51
106.3428933059825
  0
ARC
  5
1934
330
1E
100
AcDbEntity
  8
STEMPEL
100
AcDbCircle
 10
309.4171921020539
 20
340.7327515584346
 30
0.0
 40
30.31088913245485
100
AcDbArc
 50
81.78678929826059
 51
98.2132107017394
  0
HATCH
  5
1935
330
1E
100
AcDbEntity
  8
SCHRAFF
100
AcDbHatch
 10
0.0
 20
0.0
 30
0.0
210
0.0
220
0.0
230
1.0
  2
_U
 70
     0
 71
     0
 91
        5
 92
        7
 72
     1
 73
     1
 93
        4
 10
86.94268446078973
 20
361.0436406908895
 42
0.0
 10
63.94268446078974
 20
361.0436406908895
 42
1.0
 10
63.94268446078974
 20
355.0436406908895
 42
0.0
 10
86.94268446078973
 20
355.0436406908895
 42
0.0
 97
        0
 92
        7
 72
     1
 73
     1
 93
        4
 10
123.9426844607898
 20
361.0436406908895
 42
0.0
 10
100.9426844607897
 20
361.0436406908895
 42
0.0
 10
100.9426844607897
 20
355.0436406908895
 42
0.0
 10
123.9426844607898
 20
355.0436406908895
 42
1.0
 97
        0
 92
        7
 72
     1
 73
     1
 93
        5
 10
309.4171921020539
 20
361.0436406908895
 42
0.0
 10
287.9426844607898
 20
361.0436406908895
 42
0.0
 10
287.9426836348836
 20
361.0436406908897
 42
1.0
 10
287.9426844607898
 20
355.0436406908895
 42
0.0
 10
309.4171921020539
 20
355.0436406908895
 42
0.0
 97
        0
 92
        7
 72
     1
 73
     1
 93
        7
 10
325.9426844607897
 20
375.0436406908897
 42
0.0
 10
320.4426844607898
 20
375.0436406908895
 42
0.0
 10
320.2840657119984
 20
365.9563786587034
 42
-0.4091108014277335
 10
315.2848272362165
 20
361.0436406908895
 42
0.0
 10
309.4171921020539
 20
361.0436406908895
 42
0.0
 10
309.4171921020539
 20
355.0436406908895
 42
0.0
 10
325.9426844607899
 20
355.0436406908895
 42
0.0
 97
        0
 92
        7
 72
     1
 73
     1
 93
        7
 10
347.9426844607898
 20
361.0436406908897
 42
0.0
 10
340.6005416853633
 20
361.0436406908897
 42
-0.4091108014277076
 10
335.6013032095813
 20
365.9563786587032
 42
0.0
 10
335.4426844607897
 20
375.0436406908897
 42
0.0
 10
329.9426844607897
 20
375.0436406908895
 42
0.0
 10
329.9426844607897
 20
355.0436406908895
 42
0.0
 10
347.9426844607898
 20
355.0436406908895
 42
1.0
 97
        0
 75
     0
 76
     0
 52
135.0
 41
5.0
 77
     0
 78
     1
 53
135.0
 43
-16.36927871036533
 44
-97.48369282374808
 45
-3.535533905932737
 46
-3.535533905932737
 79
     0
 47
0.374699653914983
 98
        5
 10
72.95955261408067
 20
357.5967981756678
 10
115.7037569964491
 20
358.7208962448237
 10
302.0534961757213
 20
359.4702968230046
 10
317.4264118910378
 20
359.8449961793901
 10
334.6740752345886
 20
360.2196955357755
  0
LINE
  5
1936
330
1E
100
AcDbEntity
  8
STEMPEL
100
AcDbLine
 10
320.4426844607898
 20
375.0436406908895
 30
0.0
 11
335.4426844607897
 21
375.0436406908897
 31
0.0
  0
ARC
  5
1937
330
1E
100
AcDbEntity
  8
STEMPEL
100
AcDbCircle
 10
287.9426844607898
 20
358.0436406908897
 30
0.0
 40
2.999999999999886
100
AcDbArc
 50
90.0
 51
270.0
  0
LINE
  5
1938
330
1E
100
AcDbEntity
  8
STEMPEL
100
AcDbLine
 10
305.4171921020539
 20
374.0436406908902
 30
0.0
 11
313.4171921020539
 21
374.0436406908902
 31
0.0
  0
LINE
  5
1939
330
1E
100
AcDbEntity
  8
STEMPEL
100
AcDbLine
 10
314.4171921020539
 20
373.0436406908902
 30
0.0
 11
304.4171921020539
 21
373.0436406908902
 31
0.0
  0
LINE
  5
193A
330
1E
100
AcDbEntity
  8
HILF
100
AcDbLine
 10
305.4171921020539
 20
374.0436406908902
 30
0.0
 11
305.417192102054
 21
371.0436406908895
 31
0.0
  0
LINE
  5
193B
330
1E
100
AcDbEntity
  8
STEMPEL
100
AcDbLine
 10
304.4171921020539
 20
373.0436406908902
 30
0.0
 11
305.4171921020539
 21
374.0436406908902
 31
0.0
  0
LINE
  5
193C
330
1E
100
AcDbEntity
  8
STEMPEL
100
AcDbLine
 10
304.4171921020539
 20
373.0436406908902
 30
0.0
 11
304.4171921020539
 21
371.0436406908895
 31
0.0
  0
ARC
  5
193D
330
1E
100
AcDbEntity
  8
STEMPEL
100
AcDbCircle
 10
315.2848272362165
 20
366.0436406908897
 30
0.0
 40
5.0
100
AcDbArc
 50
270.0
 51
358.9999999999982
  0
LINE
  5
193E
330
1E
100
AcDbEntity
  8
STEMPEL
100
AcDbLine
 10
313.4171921020539
 20
374.0436406908902
 30
0.0
 11
314.4171921020539
 21
373.0436406908902
 31
0.0
  0
LINE
  5
193F
330
1E
100
AcDbEntity
  8
HILF
100
AcDbLine
 10
313.4171921020539
 20
374.0436406908902
 30
0.0
 11
313.417192102054
 21
371.0436406908895
 31
0.0
  0
LINE
  5
1940
330
1E
100
AcDbEntity
  8
STEMPEL
100
AcDbLine
 10
314.4171921020539
 20
373.0436406908902
 30
0.0
 11
314.4171921020539
 21
371.0436406908895
 31
0.0
  0
LINE
  5
1941
330
1E
100
AcDbEntity
  8
STEMPEL
100
AcDbLine
 10
320.2840657119984
 20
365.9563786587034
 30
0.0
 11
320.4426844607898
 21
375.0436406908895
 31
0.0
  0
LINE
  5
1942
330
1E
100
AcDbEntity
  8
STEMPEL
100
AcDbLine
 10
340.6005416853631
 20
361.0436406908897
 30
0.0
 11
347.9426844607898
 21
361.0436406908897
 31
0.0
  0
LINE
  5
1943
330
1E
100
AcDbEntity
  8
STEMPEL
100
AcDbLine
 10
329.9426844607897
 20
355.0436406908897
 30
0.0
 11
329.9426844607897
 21
375.0436406908897
 31
0.0
  0
LINE
  5
1944
330
1E
100
AcDbEntity
  8
STEMPEL
100
AcDbLine
 10
325.9426844607897
 20
355.0436406908897
 30
0.0
 11
325.9426844607897
 21
375.0436406908895
 31
0.0
  0
LINE
  5
1945
330
1E
100
AcDbEntity
  8
HILF
100
AcDbLine
 10
330.9426844607898
 20
355.0436406908895
 30
0.0
 11
330.9426844607898
 21
375.0436406908895
 31
0.0
  0
LINE
  5
1946
330
1E
100
AcDbEntity
  8
HILF
100
AcDbLine
 10
324.9426844607897
 20
355.0436406908897
 30
0.0
 11
324.9426844607897
 21
375.0436406908895
 31
0.0
  0
ARC
  5
1947
330
1E
100
AcDbEntity
  8
STEMPEL
100
AcDbCircle
 10
340.6005416853633
 20
366.0436406908895
 30
0.0
 40
4.99999999999995
100
AcDbArc
 50
181.0000000000017
 51
270.0
  0
LINE
  5
1948
330
1E
100
AcDbEntity
  8
MITTEL
100
AcDbLine
 10
327.9426844607897
 20
355.0436406908895
 30
0.0
 11
327.9426844607897
 21
380.0436406908897
 31
0.0
  0
LINE
  5
1949
330
1E
100
AcDbEntity
  8
STEMPEL
100
AcDbLine
 10
335.4426844607897
 20
375.0436406908897
 30
0.0
 11
335.6013032095813
 21
365.9563786587032
 31
0.0
  0
ARC
  5
194A
330
1E
100
AcDbEntity
  8
STEMPEL
100
AcDbCircle
 10
347.9426844607898
 20
358.0436406908897
 30
0.0
 40
3.000000000000028
100
AcDbArc
 50
270.0
 51
90.0
  0
LINE
  5
194B
330
1E
100
AcDbEntity
  8
STEMPEL
100
AcDbLine
 10
347.9426844607898
 20
355.0436406908894
 30
0.0
 11
264.1899202687872
 21
355.0436406908896
 31
0.0
  0
LINE
  5
1953
330
1E
100
AcDbEntity
  8
TEXT
 62
     2
100
AcDbLine
 10
288.4759889598928
 20
386.4802432131106
 30
0.0
 11
261.6435510615732
 21
356.8497990795194
 31
0.0
  0
LINE
  5
1967
330
1E
100
AcDbEntity
  8
STEMPEL
100
AcDbLine
 10
315.2848272362165
 20
361.0436406908897
 30
0.0
 11
257.4426844607899
 21
361.0436406908897
 31
0.0
  0
HATCH
  5
1AF9
330
1E
100
AcDbEntity
  8
SCHRAFF
100
AcDbHatch
 10
0.0
 20
0.0
 30
0.0
210
0.0
220
0.0
230
1.0
  2
_USER
 70
     0
 71
     1
 91
        7
 92
        7
 72
     1
 73
     1
 93
        8
 10
335.6013032095813
 20
604.7618390130383
 42
0.0
 10
335.4426844607897
 20
613.8491010452249
 42
0.0
 10
330.9426844607896
 20
613.8491010452248
 42
0.0
 10
330.9426844607899
 20
606.4491010452252
 42
0.0
 10
330.9426844607905
 20
593.8491010452248
 42
0.0
 10
347.9426844607898
 20
593.8491010452248
 42
1.0
 10
347.9426844607898
 20
599.849101045225
 42
0.0
 10
340.6005416853632
 20
599.849101045225
 42
-0.409110801427704
 97
        8
330
1C0F
330
1BF9
330
1C05
330
1C08
330
1C0C
330
1C07
330
1B00
330
1C10
 92
        7
 72
     1
 73
     1
 93
        8
 10
324.9426844607892
 20
593.8491010452247
 42
0.0
 10
324.9426844607899
 20
606.4491010452252
 42
0.0
 10
324.9426844607896
 20
613.8491010452249
 42
0.0
 10
320.4426844607897
 20
613.849101045225
 42
0.0
 10
320.2840657119984
 20
604.7618390130387
 42
-0.409110801427714
 10
315.2848272362165
 20
599.849101045225
 42
0.0
 10
309.4171921020538
 20
599.849101045225
 42
0.0
 10
309.417192102054
 20
593.8491010452247
 42
0.0
 97
        8
330
1C02
330
1B70
330
1BAE
330
1BAF
330
1B9D
330
1B9A
330
1B00
330
1BFF
 92
        7
 72
     1
 73
     1
 93
        8
 10
309.417192102054
 20
593.8491010452247
 42
0.0
 10
309.417192102054
 20
599.849101045225
 42
0.0
 10
290.6433024830686
 20
599.849101045225
 42
-0.4040262258351052
 10
289.6439116560497
 20
600.8142015485225
 42
0.0
 10
288.6817624191071
 20
628.3665507935761
 42
0.4040262258351217
 10
288.1820670055976
 20
628.8491010452248
 42
0.0
 10
286.164911393001
 20
628.8491010452248
 42
0.0
 10
284.9426844607898
 20
593.8491010452247
 42
0.0
 97
        8
330
1B9D
330
1BA3
330
1B8B
330
1B92
330
1AFA
330
1B8E
330
1B00
330
1B9A
 92
        7
 72
     1
 73
     1
 93
        8
 10
126.9426844607898
 20
593.8491010452247
 42
0.0
 10
125.7204575285786
 20
628.8491010452245
 42
0.0
 10
123.703301915982
 20
628.8491010452246
 42
0.4040262258349774
 10
123.2036065024725
 20
628.3665507935761
 42
0.0
 10
122.2414572655299
 20
600.8142015485224
 42
-0.4040262258352113
 10
121.2420664385107
 20
599.8491010452248
 42
0.0
 10
100.9426844607897
 20
599.8491010452247
 42
0.0
 10
100.9426844607897
 20
593.8491010452247
 42
0.0
 97
        8
330
1AFA
330
1B46
330
1B22
330
1B34
330
1B17
330
1B2A
330
1B00
330
1B49
 92
        7
 72
     1
 73
     1
 93
        4
 10
86.94268446078977
 20
593.8491010452247
 42
0.0
 10
86.94268446078973
 20
599.8491010452248
 42
0.0
 10
63.94268446078974
 20
599.8491010452247
 42
1.0
 10
63.94268446078974
 20
593.8491010452247
 42
0.0
 97
        4
330
1B17
330
1B18
330
1B05
330
1B19
 92
        7
 72
     0
 73
     1
 93
        4
 10
330.9426844607898
 20
606.449101045225
 10
330.2926844607894
 20
605.7991010452247
 10
330.2926844607897
 20
593.8491010452249
 10
330.9426844607906
 20
593.8491010452249
 97
        4
330
1C0A
330
1C06
330
1B00
330
1C07
 92
        7
 72
     0
 73
     1
 93
        4
 10
325.5926844607903
 20
605.7991010452242
 10
324.9426844607898
 20
606.449101045225
 10
324.9426844607893
 20
593.8491010452247
 10
325.59268446079
 20
593.8491010452249
 97
        4
330
1C04
330
1BFF
330
1B00
330
1BFE
 75
     0
 76
     0
 52
135.0
 41
5.0
 77
     0
 78
     1
 53
135.0
 43
-19.43049361181505
 44
180.5439295825887
 45
-3.535533905932737
 46
-3.535533905932737
 79
     0
 47
0.390930450306957
 98
        7
 10
334.7156429927942
 20
599.1406661702431
 10
312.8085644249678
 20
595.6222918781003
 10
301.4638276954694
 20
596.013222355005
 10
115.6448519107653
 20
596.013222355005
 10
83.17543150461103
 20
596.4041528319097
 10
330.8384228501242
 20
601.7299236932321
 10
325.1065603860908
 20
602.7800473795797
  0
LINE
  5
1AFA
102
{ACAD_REACTORS
330
1AF9
102
}
330
1E
100
AcDbEntity
  8
STEMPEL
100
AcDbLine
 10
123.703301915982
 20
628.8491010452246
 30
0.0
 11
288.1820670055976
 21
628.8491010452248
 31
0.0
  0
HATCH
  5
1AFB
330
1E
100
AcDbEntity
  8
SCHRAFF
100
AcDbHatch
 10
0.0
 20
0.0
 30
0.0
210
0.0
220
0.0
230
1.0
  2
_U
 70
     0
 71
     0
 91
        6
 92
        7
 72
     1
 73
     1
 93
        6
 10
95.94268446078974
 20
619.8491010452254
 42
-0.2360679774997897
 10
93.94268446078973
 20
615.8491010452254
 42
0.0
 10
93.94268446078973
 20
614.6529486225187
 42
0.2679491924311283
 10
96.94268446078986
 20
619.8491010452254
 42
0.0
 10
96.94268446078986
 20
638.8491010452262
 42
0.0
 10
95.94268446078974
 20
638.8491010452262
 42
0.0
 97
        0
 92
        7
 72
     1
 73
     1
 93
        6
 10
90.94268446078979
 20
613.8491010452276
 42
0.1316524975873934
 10
93.94268446078973
 20
614.6529486225209
 42
0.0
 10
93.94268446078973
 20
615.8491010452252
 42
-0.1622776601683657
 10
90.94268446078997
 20
614.8491010452254
 42
0.0
 10
75.9426844607896
 20
614.8491010452249
 42
0.0
 10
75.94268446078948
 20
613.8491010452277
 42
0.0
 97
        0
 92
        7
 72
     1
 73
     1
 93
       40
 10
125.9426844607897
 20
703.8491010452239
 42
0.1316524975839241
 10
122.9426844608605
 20
703.0452534679721
 42
0.0
 10
98.90998983909231
 20
689.0261816052743
 42
0.2662608607108976
 10
95.94268446078974
 20
683.8490430779093
 42
0.0
 10
95.94268446078974
 20
678.8491010452262
 42
0.0
 10
96.94268446078986
 20
678.8491010452262
 42
0.0
 10
96.94268446078986
 20
683.8490430779093
 42
-0.2667503951500906
 10
99.4233308926627
 20
688.1679384921056
 42
0.0
 10
123.4021847856139
 20
702.1555916582911
 42
-0.1340385084112999
 10
125.9426844607897
 20
702.8491010452239
 42
0.0
 10
180.6810466331391
 20
702.8491010452244
 42
0.2679491924311331
 10
182.8461101426002
 20
704.0991010452244
 42
-0.2679491924311204
 10
183.2791228444925
 20
704.3491010452243
 42
0.0
 10
183.4791228444927
 20
704.3491010452243
 42
-0.2679491924311275
 10
183.9121355463849
 20
704.0991010452244
 42
0.2679491924311328
 10
186.077199055846
 20
702.8491010452244
 42
0.0
 10
188.1360466331388
 20
702.8491010452244
 42
0.2679491924311457
 10
190.3011101426
 20
704.0991010452246
 42
-0.2679491924310647
 10
190.7341228444922
 20
704.3491010452243
 42
0.0
 10
190.9341228444926
 20
704.3491010452243
 42
-0.2679491924311112
 10
191.3671355463848
 20
704.0991010452244
 42
0.2679491924311319
 10
193.5321990558459
 20
702.8491010452244
 42
0.0
 10
199.9860466331397
 20
702.8491010452244
 42
0.2679491924310938
 10
202.1511101426006
 20
704.0991010452241
 42
-0.2679491924312511
 10
202.584122844493
 20
704.3491010452243
 42
0.0
 10
205.9426844607898
 20
704.3491010452243
 42
0.0
 10
205.9426844607898
 20
705.3491010452244
 42
0.0
 10
202.5841228444924
 20
705.3491010452244
 42
0.2679491924310706
 10
201.2850847388161
 20
704.5991010452244
 42
-0.2679491924310689
 10
199.9860466331398
 20
703.8491010452244
 42
0.0
 10
193.5321990558455
 20
703.8491010452244
 42
-0.267949192431115
 10
192.2331609501689
 20
704.5991010452244
 42
0.2859076546237126
 10
190.834122844493
 20
705.3457639999339
 42
0.2859076546239818
 10
189.4350847388156
 20
704.5991010452244
 42
-0.2679491924311542
 10
188.1360466331388
 20
703.8491010452244
 42
0.0
 10
186.0771990558465
 20
703.8491010452244
 42
-0.2679491924311477
 10
184.7781609501698
 20
704.5991010452246
 42
0.2859076546237682
 10
183.3791228444935
 20
705.3457639999339
 42
0.2859076546240622
 10
181.9800847388158
 20
704.5991010452244
 42
-0.2679491924311296
 10
180.6810466331391
 20
703.8491010452244
 42
0.0
 97
        0
 92
        7
 72
     1
 73
     1
 93
       39
 10
312.462038028917
 20
688.1679384921056
 42
-0.2667503951500871
 10
314.9426844607899
 20
683.8490430779094
 42
0.0
 10
314.9426844607899
 20
678.8491010452262
 42
0.0
 10
315.94268446079
 20
678.8491010452262
 42
0.0
 10
315.94268446079
 20
683.8490430779093
 42
0.2662608607095104
 10
312.9753790825144
 20
689.0261816052587
 42
0.0
 10
288.9426844607134
 20
703.0452534679753
 42
0.1316524975836548
 10
285.94268446079
 20
703.8491010452248
 42
0.0
 10
231.3821990558466
 20
703.8491010452244
 42
-0.2679491924311617
 10
230.0831609501698
 20
704.5991010452246
 42
0.2859076546237838
 10
228.6841228444933
 20
705.3457639999339
 42
0.2859076546239305
 10
227.2850847388163
 20
704.5991010452244
 42
-0.2679491924310324
 10
225.9860466331401
 20
703.8491010452244
 42
0.0
 10
219.5321990558461
 20
703.8491010452244
 42
-0.2679491924311347
 10
218.2331609501694
 20
704.5991010452246
 42
0.2859076546239652
 10
216.8341228444921
 20
705.3457639999339
 42
0.3607372083887279
 10
215.2817540896647
 20
704.2241010452244
 42
-0.3419987131197213
 10
214.7976311713886
 20
703.8491010452244
 42
0.0
 10
214.6088819787894
 20
703.8491010452244
 42
-0.3419987131196471
 10
214.1247590605134
 20
704.2241010452244
 42
0.3419987131196458
 10
212.6723903056856
 20
705.3491010452244
 42
0.0
 10
205.9426844607898
 20
705.3491010452244
 42
0.0
 10
205.9426844607898
 20
704.3491010452243
 42
0.0
 10
212.672390305686
 20
704.3491010452243
 42
-0.3419987131196405
 10
213.156513223962
 20
703.9741010452244
 42
0.3596757619904217
 10
214.7032565750889
 20
702.8520728438957
 42
0.3596757619905239
 10
216.2499999262164
 20
703.9741010452244
 42
-0.3419987131196468
 10
216.7341228444923
 20
704.3491010452243
 42
0.0
 10
216.9341228444926
 20
704.3491010452243
 42
-0.2679491924311338
 10
217.3671355463849
 20
704.0991010452244
 42
0.2679491924311175
 10
219.532199055846
 20
702.8491010452246
 42
0.0
 10
225.9860466331402
 20
702.8491010452246
 42
0.2679491924310653
 10
228.1511101426009
 20
704.0991010452241
 42
-0.2679491924312635
 10
228.5841228444933
 20
704.3491010452243
 42
0.0
 10
228.7841228444925
 20
704.3491010452243
 42
-0.2679491924311589
 10
229.2171355463848
 20
704.0991010452244
 42
0.2679491924311022
 10
231.3821990558458
 20
702.8491010452246
 42
0.0
 10
285.94268446079
 20
702.8491010452248
 42
-0.1340385084113154
 10
288.4831841359659
 20
702.1555916582911
 42
0.0
 97
        0
 92
        7
 72
     1
 73
     1
 93
        8
 10
315.9426844607899
 20
638.8491010452262
 42
0.0
 10
314.9426844607899
 20
638.8491010452262
 42
0.0
 10
314.9426844607899
 20
619.8491010452254
 42
0.4142135623731057
 10
320.9426844607898
 20
613.849101045225
 42
0.0
 10
323.9426844607898
 20
613.8491010452249
 42
0.0
 10
323.9426844607898
 20
614.8491010452252
 42
0.0
 10
320.9426844607897
 20
614.8491010452254
 42
-0.4142135623730752
 10
315.94268446079
 20
619.8491010452254
 42
0.0
 97
        0
 92
        7
 72
     0
 73
     1
 93
        4
 10
335.9426844607898
 20
613.8491010452248
 10
335.9426844607896
 20
614.8491010452249
 10
331.9426844607897
 20
614.8491010452249
 10
331.9426844607897
 20
613.8491010452249
 97
        0
 75
     0
 76
     0
 52
45.0
 41
2.0
 77
     0
 78
     1
 53
45.0
 43
-19.43049361181505
 44
180.5439295825887
 45
-1.414213562373094
 46
1.414213562373095
 79
     0
 47
0.3201656181468079
 98
        6
 10
96.43634803649099
 20
636.2954506427963
 10
83.94157293058066
 20
614.2040223969048
 10
137.7652156064133
 20
703.5302305588495
 10
307.2456124038751
 20
691.6841028552744
 10
315.5754632157155
 20
634.3744560921268
 10
334.157434853642
 20
614.2040223969048
  0
LWPOLYLINE
  5
1AFC
330
1E
100
AcDbEntity
  8
STEMPEL
100
AcDbPolyline
 90
       16
 70
   128
 43
0.0
 10
-184.7562927726442
 20
628.8491010452247
 10
-184.8153378151811
 20
629.0584135416287
 10
-185.4269732397735
 20
630.2973422668055
 10
-186.2538993656478
 20
631.4018183725748
 10
-187.2679562153761
 20
632.3342302498276
 10
-188.4346112991678
 20
633.0628257303889
 10
-189.7141355773931
 20
633.5627933690221
 10
-191.0629563853772
 20
633.8171073674389
 10
-192.4351412482365
 20
633.8171073674389
 10
-193.7839620562206
 20
633.5627933690221
 10
-195.0634863344459
 20
633.0628257303889
 10
-196.2301414182376
 20
632.3342302498276
 10
-197.2441982679659
 20
631.4018183725748
 10
-198.0711243938402
 20
630.2973422668055
 10
-198.6827598184326
 20
629.0584135416287
 10
-198.7418048609695
 20
628.8491010452247
210
0.0
220
0.0
230
-1.0
  0
ARC
  5
1AFD
330
1E
100
AcDbEntity
  8
STEMPEL
100
AcDbCircle
 10
190.7341228444925
 20
703.8491010452244
 30
0.0
 40
0.5
100
AcDbArc
 50
90.0
 51
150.0000000000075
  0
ARC
  5
1AFE
330
1E
100
AcDbEntity
  8
STEMPEL
100
AcDbCircle
 10
190.7341228444925
 20
703.8491010452244
 30
0.0
 40
1.5
100
AcDbArc
 50
90.0
 51
150.0000000000075
  0
LINE
  5
1B00
102
{ACAD_REACTORS
330
1AF9
102
}
330
1E
100
AcDbEntity
  8
STEMPEL
100
AcDbLine
 10
347.9426844607898
 20
593.8491010452248
 30
0.0
 11
98.94268446078974
 21
593.8491010452247
 31
0.0
  0
LINE
  5
1B01
330
1E
100
AcDbEntity
  8
HILF
100
AcDbLine
 10
308.2690175183204
 20
686.8491010452276
 30
0.0
 11
103.116351403259
 21
686.8491010452274
 31
0.0
  0
LINE
  5
1B02
330
1E
100
AcDbEntity
  8
STEMPEL
100
AcDbLine
 10
125.9426844607897
 20
702.8491010452239
 30
0.0
 11
285.94268446079
 21
702.8491010452248
 31
0.0
  0
LINE
  5
1B03
330
1E
100
AcDbEntity
  8
STEMPEL
100
AcDbLine
 10
183.2791228444926
 20
705.3491010452244
 30
0.0
 11
228.7841228444925
 21
705.3491010452244
 31
0.0
  0
LINE
  5
1B05
102
{ACAD_REACTORS
330
1AF9
102
}
330
1E
100
AcDbEntity
  8
STEMPEL
100
AcDbLine
 10
63.94268446078974
 20
593.8491010452247
 30
0.0
 11
88.94268446078973
 21
593.8491010452247
 31
0.0
  0
LINE
  5
1B06
330
1E
100
AcDbEntity
  8
STEMPEL
100
AcDbLine
 10
88.94268446078973
 20
593.8491010452247
 30
0.0
 11
63.94268446078974
 21
593.8491010452247
 31
0.0
  0
DIMENSION
  5
1B07
330
1E
100
AcDbEntity
  8
BEM
100
AcDbDimension
  2
*D9
 10
26.70690501648238
 20
703.8491010452239
 30
0.0
 11
20.20690501648227
 21
648.8491010452244
 31
0.0
 70
    32
 71
     5
 42
109.9999999999992
  3
Standard
100
AcDbAlignedDimension
 13
63.94268446078974
 23
593.8491010452247
 33
0.0
 14
125.9426844607897
 24
703.8491010452239
 34
0.0
 50
90.0
100
AcDbRotatedDimension
1001
ACAD
1000
DSTYLE
1002
{
1070
    40
1040
2.0
1070
    41
1040
3.5
1070
    42
1040
1.0
1070
    43
1040
7.0
1070
    44
1040
1.0
1070
    73
1070
     0
1070
    74
1070
     0
1070
    77
1070
     1
1070
    78
1070
     8
1070
    79
1070
     2
1070
   140
1040
3.5
1070
   141
1040
1.5
1070
   146
1040
0.5142857142857144
1070
   147
1040
1.5
1070
   172
1070
     1
1070
   178
1070
     1
1070
   179
1070
     2
1070
   271
1070
     2
1070
   272
1070
     2
1070
   284
1070
     8
1070
   285
1070
     8
1070
   286
1070
     8
1002
}
  0
LINE
  5
1B09
330
1E
100
AcDbEntity
  8
STEMPEL
100
AcDbLine
 10
158.0670418154936
 20
671.3491010452265
 30
0.0
 11
158.0670418154936
 21
646.3491010452265
 31
0.0
  0
LINE
  5
1B0A
330
1E
100
AcDbEntity
  8
STEMPEL
100
AcDbLine
 10
145.0766607587278
 20
671.3491010452265
 30
0.0
 11
145.0766607587278
 21
646.349101045228
 31
0.0
  0
LINE
  5
1B0B
330
1E
100
AcDbEntity
  8
STEMPEL
100
AcDbLine
 10
157.5658648200516
 20
671.3491010452265
 30
0.0
 11
157.5658648200516
 21
646.3491010452265
 31
0.0
  0
LINE
  5
1B0C
330
1E
100
AcDbEntity
  8
STEMPEL
100
AcDbLine
 10
115.5196389541268
 20
671.3491010452265
 30
0.0
 11
115.5196389541268
 21
646.349101045228
 31
0.0
  0
LINE
  5
1B0D
330
1E
100
AcDbEntity
  8
STEMPEL
100
AcDbLine
 10
114.6515749344379
 20
646.3491010452265
 30
0.0
 11
114.6515749344379
 21
671.349101045228
 31
0.0
  0
LINE
  5
1B0E
330
1E
100
AcDbEntity
  8
STEMPEL
100
AcDbLine
 10
108.0196389541269
 20
671.3491010452265
 30
0.0
 11
108.0196389541269
 21
646.3491010452296
 31
0.0
  0
LINE
  5
1B0F
330
1E
100
AcDbEntity
  8
STEMPEL
100
AcDbLine
 10
95.94268446078974
 20
683.8490430779093
 30
0.0
 11
95.94268446078974
 21
619.8491010452254
 31
0.0
  0
LINE
  5
1B10
330
1E
100
AcDbEntity
  8
STEMPEL
100
AcDbLine
 10
96.94268446078986
 20
683.8490430779093
 30
0.0
 11
96.94268446078986
 21
619.8491010452254
 31
0.0
  0
LWPOLYLINE
  5
1B11
330
1E
100
AcDbEntity
  8
STEMPEL
100
AcDbPolyline
 90
       10
 70
   128
 43
0.0
 10
91.64638297079443
 20
613.8491010452274
 10
92.5044559670672
 20
613.9152282598001
 10
93.35726816668943
 20
614.1677820095303
 10
94.17802647360645
 20
614.5988277258478
 10
94.94094484000539
 20
615.1948230962879
 10
95.62205439550462
 20
615.9370435280085
 10
96.19995648545035
 20
616.8021704248059
 10
96.65649495985656
 20
617.7630237955219
 10
96.97732659145414
 20
618.7894161772341
 10
97.15237170182525
 20
619.8491010452268
  0
LINE
  5
1B12
330
1E
100
AcDbEntity
  8
STEMPEL
100
AcDbLine
 10
75.94268446078951
 20
613.8491010452277
 30
0.0
 11
122.6966459862024
 21
613.8491010452272
 31
0.0
  0
LINE
  5
1B13
330
1E
100
AcDbEntity
  8
STEMPEL
100
AcDbLine
 10
97.94268446078973
 20
612.8491010452254
 30
0.0
 11
89.94268446078974
 21
612.8491010452254
 31
0.0
  0
LINE
  5
1B14
330
1E
100
AcDbEntity
  8
STEMPEL
100
AcDbLine
 10
88.94268446078973
 20
611.8491010452256
 30
0.0
 11
98.94268446078974
 21
611.8491010452256
 31
0.0
  0
ARC
  5
1B15
330
1E
100
AcDbEntity
  8
STEMPEL
100
AcDbCircle
 10
90.94268446078984
 20
619.8491010452254
 30
0.0
 40
5.0
100
AcDbArc
 50
270.0000000000017
 51
0.0
  0
ARC
  5
1B16
330
1E
100
AcDbEntity
  8
STEMPEL
100
AcDbCircle
 10
90.94268446078984
 20
619.8491010452254
 30
0.0
 40
6.0
100
AcDbArc
 50
270.0000000000017
 51
0.0
  0
LINE
  5
1B17
102
{ACAD_REACTORS
330
1AF9
102
}
330
1E
100
AcDbEntity
  8
STEMPEL
100
AcDbLine
 10
63.94268446078974
 20
599.8491010452247
 30
0.0
 11
121.2420664385107
 21
599.8491010452248
 31
0.0
  0
ARC
  5
1B18
102
{ACAD_REACTORS
330
1AF9
102
}
330
1E
100
AcDbEntity
  8
STEMPEL
100
AcDbCircle
 10
63.94268446078974
 20
596.8491010452247
 30
0.0
 40
3.0
100
AcDbArc
 50
90.0
 51
270.0
  0
LINE
  5
1B19
102
{ACAD_REACTORS
330
1AF9
102
}
330
1E
100
AcDbEntity
  8
STEMPEL
100
AcDbLine
 10
86.94268446078973
 20
599.8491010452247
 30
0.0
 11
86.94268446078973
 21
593.8491010452247
 31
0.0
  0
LINE
  5
1B1A
330
1E
100
AcDbEntity
  8
STEMPEL
100
AcDbLine
 10
88.94268446078973
 20
599.8491010452247
 30
0.0
 11
88.94268446078973
 21
587.8491010452255
 31
0.0
  0
LINE
  5
1B1B
330
1E
100
AcDbEntity
  8
HILF
100
AcDbLine
 10
89.94268446078974
 20
599.8491010452247
 30
0.0
 11
89.94268446078974
 21
587.8491010452255
 31
0.0
  0
LINE
  5
1B1D
330
1E
100
AcDbEntity
  8
STEMPEL
100
AcDbLine
 10
75.94268446078974
 20
614.8491010452249
 30
0.0
 11
90.94268446078997
 21
614.8491010452254
 31
0.0
  0
LINE
  5
1B1E
330
1E
100
AcDbEntity
  8
STEMPEL
100
AcDbLine
 10
75.94268446078962
 20
614.8491010452252
 30
0.0
 11
75.94268446078951
 21
613.8491010452249
 31
0.0
  0
LINE
  5
1B1F
330
1E
100
AcDbEntity
  8
HILF
100
AcDbLine
 10
89.94268446078974
 20
612.8491010452254
 30
0.0
 11
89.94268446078976
 21
609.8491010452249
 31
0.0
  0
LINE
  5
1B20
330
1E
100
AcDbEntity
  8
STEMPEL
100
AcDbLine
 10
88.94268446078973
 20
611.8491010452254
 30
0.0
 11
88.94268446078973
 21
609.8491010452248
 31
0.0
  0
LINE
  5
1B21
330
1E
100
AcDbEntity
  8
STEMPEL
100
AcDbLine
 10
89.94268446078974
 20
612.8491010452254
 30
0.0
 11
88.94268446078973
 21
611.8491010452254
 31
0.0
  0
LINE
  5
1B22
102
{ACAD_REACTORS
330
1AF9
102
}
330
1E
100
AcDbEntity
  8
STEMPEL
100
AcDbLine
 10
122.2414572655299
 20
600.8142015485224
 30
0.0
 11
123.2036065024725
 21
628.3665507935761
 31
0.0
  0
LWPOLYLINE
  5
1B23
330
1E
100
AcDbEntity
  8
STEMPEL
100
AcDbPolyline
 90
        7
 70
   128
 43
0.0
 10
95.49602668791704
 20
614.8491010452268
 10
96.1727285629945
 20
615.4587017730858
 10
96.7722779866284
 20
616.1862608569975
 10
97.2785666597781
 20
617.0122307186776
 10
97.67799195182362
 20
617.9144197438808
 10
97.95982236708653
 20
618.8685885120746
 10
98.11648587158799
 20
619.8491010452268
  0
LWPOLYLINE
  5
1B24
330
1E
100
AcDbEntity
  8
STEMPEL
100
AcDbPolyline
 90
       10
 70
   128
 43
0.0
 10
97.79299432198513
 20
613.8491010452263
 10
98.62917359682672
 20
613.9402545271531
 10
99.43994598752931
 20
614.2109453205108
 10
100.2006765852721
 20
614.6529486225198
 10
100.8882509757909
 20
615.2528343865125
 10
101.4817775591593
 20
615.9923753871072
 10
101.9632223304805
 20
616.8491010452266
 10
102.3179568340009
 20
617.7969801852726
 10
102.5352026413351
 20
618.8072119792251
 10
102.6083588485591
 20
619.8491010452268
  0
LWPOLYLINE
  5
1B25
330
1E
100
AcDbEntity
  8
STEMPEL
100
AcDbPolyline
 90
       10
 70
   128
 43
0.0
 10
93.60427585409491
 20
613.8491010452263
 10
94.46234885036767
 20
613.9152282597989
 10
95.3151610499899
 20
614.1677820095292
 10
96.13591935690692
 20
614.5988277258467
 10
96.89883772330587
 20
615.1948230962867
 10
97.57994727880509
 20
615.9370435280074
 10
98.15784936875083
 20
616.8021704248047
 10
98.61438784315703
 20
617.7630237955208
 10
98.93521947475461
 20
618.7894161772329
 10
99.11026458512573
 20
619.8491010452256
  0
LWPOLYLINE
  5
1B26
330
1E
100
AcDbEntity
  8
STEMPEL
100
AcDbPolyline
 90
        7
 70
   128
 43
0.0
 10
105.2689843648609
 20
614.8491010452263
 10
105.8890748879253
 20
615.4584389470671
 10
106.4208950347087
 20
616.1858692203565
 10
106.8501408344399
 20
617.0118267143001
 10
107.1652671822372
 20
617.9140962647624
 10
107.3577983592031
 20
618.8684101990055
 10
107.4225559975294
 20
619.8491010452268
  0
LWPOLYLINE
  5
1B27
330
1E
100
AcDbEntity
  8
STEMPEL
100
AcDbPolyline
 90
       10
 70
   128
 43
0.0
 10
103.5332458074629
 20
613.8491010452263
 10
104.3694250823044
 20
613.9402545271531
 10
105.180197473007
 20
614.2109453205108
 10
105.9409280707499
 20
614.6529486225198
 10
106.6285024612687
 20
615.2528343865125
 10
107.2220290446371
 20
615.9923753871072
 10
107.7034738159583
 20
616.8491010452266
 10
108.0582083194787
 20
617.7969801852726
 10
108.2754541268128
 20
618.8072119792251
 10
108.3486103340368
 20
619.8491010452268
  0
LWPOLYLINE
  5
1B28
330
1E
100
AcDbEntity
  8
STEMPEL
100
AcDbPolyline
 90
       10
 70
   128
 43
0.0
 10
110.7427033431127
 20
613.8491010452263
 10
111.5004529682069
 20
613.9402545271531
 10
112.2351787543824
 20
614.2109453205108
 10
112.9245564304156
 20
614.6529486225198
 10
113.5476396044619
 20
615.2528343865125
 10
114.0854962095734
 20
615.9923753871072
 10
114.5217837449723
 20
616.8491010452266
 10
114.8432458346676
 20
617.7969801852726
 10
115.0401150157316
 20
618.8072119792251
 10
115.1064095177185
 20
619.8491010452268
  0
LINE
  5
1B29
330
1E
100
AcDbEntity
  8
MITTEL
100
AcDbLine
 10
93.94268446078973
 20
617.8491010452254
 30
0.0
 11
93.94268446078973
 21
587.8491010452255
 31
0.0
  0
LINE
  5
1B2A
102
{ACAD_REACTORS
330
1AF9
102
}
330
1E
100
AcDbEntity
  8
STEMPEL
100
AcDbLine
 10
100.9426844607897
 20
599.8491010452248
 30
0.0
 11
100.9426844607897
 21
593.8491010452247
 31
0.0
  0
LINE
  5
1B2B
330
1E
100
AcDbEntity
  8
HILF
100
AcDbLine
 10
97.94268446078973
 20
599.8491010452247
 30
0.0
 11
97.94268446078973
 21
587.8491010452255
 31
0.0
  0
LINE
  5
1B2C
330
1E
100
AcDbEntity
  8
STEMPEL
100
AcDbLine
 10
98.94268446078974
 20
599.8491010452247
 30
0.0
 11
98.94268446078974
 21
587.8491010452255
 31
0.0
  0
LINE
  5
1B2E
330
1E
100
AcDbEntity
  8
STEMPEL
100
AcDbLine
 10
94.53191251815463
 20
614.8491010452263
 30
0.0
 11
95.49602668791726
 21
614.8491010452263
 31
0.0
  0
LINE
  5
1B2F
330
1E
100
AcDbEntity
  8
HILF
100
AcDbLine
 10
97.94268446078973
 20
612.8491010452254
 30
0.0
 11
97.94268446078977
 21
609.8491010452249
 31
0.0
  0
LINE
  5
1B30
330
1E
100
AcDbEntity
  8
STEMPEL
100
AcDbLine
 10
98.94268446078974
 20
611.8491010452254
 30
0.0
 11
98.94268446078976
 21
609.8491010452249
 31
0.0
  0
LINE
  5
1B31
330
1E
100
AcDbEntity
  8
STEMPEL
100
AcDbLine
 10
98.94268446078974
 20
611.8491010452254
 30
0.0
 11
97.94268446078973
 21
612.8491010452254
 31
0.0
  0
LINE
  5
1B32
330
1E
100
AcDbEntity
  8
STEMPEL
100
AcDbLine
 10
100.4547872158905
 20
614.8491010452263
 30
0.0
 11
105.2689843648619
 21
614.8491010452263
 31
0.0
  0
LINE
  5
1B33
330
1E
100
AcDbEntity
  8
STEMPEL
100
AcDbLine
 10
113.1548326892001
 20
614.8491010452263
 30
0.0
 11
121.491033237512
 21
614.8491010452263
 31
0.0
  0
ARC
  5
1B34
102
{ACAD_REACTORS
330
1AF9
102
}
330
1E
100
AcDbEntity
  8
STEMPEL
100
AcDbCircle
 10
121.2420664385107
 20
600.8491010452249
 30
0.0
 40
1.0
100
AcDbArc
 50
270.0
 51
357.9999999999963
  0
LWPOLYLINE
  5
1B35
330
1E
100
AcDbEntity
  8
STEMPEL
100
AcDbPolyline
 90
        4
 70
   128
 43
0.0
 10
119.8741247782445
 20
613.8491010452263
 10
120.6318744033388
 20
613.9402545271531
 10
121.3666001895143
 20
614.2109453205108
 10
122.7400328838185
 20
615.0915392345212
  0
LWPOLYLINE
  5
1B36
330
1E
100
AcDbEntity
  8
STEMPEL
100
AcDbPolyline
 90
        2
 70
   128
 43
0.0
 10
121.4910332375114
 20
614.8491010452263
 10
122.7803908226161
 20
616.247239391905
  0
ELLIPSE
  5
1B37
330
1E
100
AcDbEntity
  8
STEMPEL
100
AcDbEllipse
 10
111.7696389541269
 20
646.349101045228
 30
0.0
 11
0.0
 21
-7.499999999999999
 31
0.0
210
0.0
220
0.0
230
-1.0
 40
0.4999999999999926
 41
4.712388980384689
 42
7.853981633974482
  0
LWPOLYLINE
  5
1B38
330
1E
100
AcDbEntity
  8
STEMPEL
100
AcDbPolyline
 90
        7
 70
   128
 43
0.0
 10
-97.63442878670639
 20
632.8111551010643
 10
-97.77225779627668
 20
632.0590488641258
 10
-97.89112207324286
 20
631.136335253411
 10
-97.98747007514407
 20
630.0705840035068
 10
-98.0584230226823
 20
628.8936386666856
 10
-98.10186091469018
 20
627.6406651602838
 10
-98.11648587158778
 20
626.3491010452245
210
0.0
220
0.0
230
-1.0
  0
LWPOLYLINE
  5
1B39
330
1E
100
AcDbEntity
  8
STEMPEL
100
AcDbPolyline
 90
       18
 70
   128
 43
0.0
 10
-97.15237170182525
 20
626.3491010452245
 10
-97.169040125302
 20
627.7272224288489
 10
-97.21847777256243
 20
629.0584135416287
 10
-97.29900110382288
 20
630.2973422668055
 10
-97.40786799361456
 20
631.4018183725748
 10
-97.54137111057685
 20
632.3342302498276
 10
-97.69496416618096
 20
633.0628257303889
 10
-97.86341673313302
 20
633.5627933690221
 10
-98.04099236130197
 20
633.8171073674389
 10
-98.221643925649
 20
633.8171073674389
 10
-98.39921955381795
 20
633.5627933690221
 10
-98.56767212077
 20
633.0628257303889
 10
-98.72126517637411
 20
632.3342302498276
 10
-98.8547682933364
 20
631.4018183725748
 10
-98.96363518312808
 20
630.2973422668055
 10
-99.04415851438853
 20
629.0584135416287
 10
-99.09359616164898
 20
627.7272224288489
 10
-99.11026458512573
 20
626.3491010452245
210
0.0
220
0.0
230
-1.0
  0
LINE
  5
1B3A
330
1E
100
AcDbEntity
  8
STEMPEL
100
AcDbLine
 10
99.11026458512573
 20
626.3491010452245
 30
0.0
 11
99.11026458512573
 21
619.8491010452256
 31
0.0
  0
LINE
  5
1B3B
330
1E
100
AcDbEntity
  8
STEMPEL
100
AcDbLine
 10
98.11648587158789
 20
626.3491010452245
 30
0.0
 11
98.11648587158789
 21
619.8491010452268
 31
0.0
  0
LINE
  5
1B3C
330
1E
100
AcDbEntity
  8
STEMPEL
100
AcDbLine
 10
97.15237170182525
 20
626.3491010452245
 30
0.0
 11
97.15237170182525
 21
619.8491010452268
 31
0.0
  0
LINE
  5
1B3D
330
1E
100
AcDbEntity
  8
STEMPEL
100
AcDbLine
 10
95.94268446078956
 20
638.8491010452262
 30
0.0
 11
96.94268446078979
 21
638.8491010452262
 31
0.0
  0
LWPOLYLINE
  5
1B3E
330
1E
100
AcDbEntity
  8
STEMPEL
100
AcDbPolyline
 90
        9
 70
   128
 43
0.0
 10
-105.0154574230459
 20
633.7508592898895
 10
-105.5045179663146
 20
633.4244263921322
 10
-105.9641309342156
 20
632.8791573788749
 10
-106.3800807378399
 20
632.131917135747
 10
-106.7395022671314
 20
631.2058174129695
 10
-107.0312788020189
 20
630.1295019909992
 10
-107.2463858467571
 20
628.9362607433684
 10
-107.3781702528646
 20
627.6629999982924
 10
-107.4225559975294
 20
626.3491010452261
210
0.0
220
0.0
230
-1.0
  0
LWPOLYLINE
  5
1B3F
330
1E
100
AcDbEntity
  8
STEMPEL
100
AcDbPolyline
 90
       18
 70
   128
 43
0.0
 10
-102.6083588485591
 20
626.3491010452245
 10
-102.6572281934753
 20
627.7272224288489
 10
-102.8021720412954
 20
629.0584135416287
 10
-103.0382545031226
 20
630.2973422668055
 10
-103.3574360738694
 20
631.4018183725748
 10
-103.7488474079597
 20
632.3342302498276
 10
-104.1991594618576
 20
633.0628257303889
 10
-104.6930373986571
 20
633.5627933690221
 10
-105.213662797562
 20
633.8171073674389
 10
-105.7433063850338
 20
633.8171073674389
 10
-106.2639317839388
 20
633.5627933690221
 10
-106.7578097207382
 20
633.0628257303889
 10
-107.2081217746362
 20
632.3342302498276
 10
-107.5995331087265
 20
631.4018183725748
 10
-107.9187146794733
 20
630.2973422668055
 10
-108.1547971413005
 20
629.0584135416287
 10
-108.2997409891205
 20
627.7272224288489
 10
-108.3486103340368
 20
626.3491010452245
210
0.0
220
0.0
230
-1.0
  0
LINE
  5
1B40
330
1E
100
AcDbEntity
  8
STEMPEL
100
AcDbLine
 10
102.6083588485591
 20
626.3491010452245
 30
0.0
 11
102.6083588485591
 21
619.8491010452279
 31
0.0
  0
LINE
  5
1B41
330
1E
100
AcDbEntity
  8
STEMPEL
100
AcDbLine
 10
107.4225559975295
 20
626.3491010452245
 30
0.0
 11
107.4225559975295
 21
619.8491010452279
 31
0.0
  0
LINE
  5
1B42
330
1E
100
AcDbEntity
  8
STEMPEL
100
AcDbLine
 10
108.3486103340368
 20
626.3491010452245
 30
0.0
 11
108.3486103340368
 21
619.8491010452279
 31
0.0
  0
ELLIPSE
  5
1B43
330
1E
100
AcDbEntity
  8
STEMPEL
100
AcDbEllipse
 10
110.9015749344379
 20
646.349101045228
 30
0.0
 11
0.0
 21
-7.499999999999999
 31
0.0
210
0.0
220
0.0
230
-1.0
 40
0.4999999999999926
 41
4.712388980384689
 42
6.167183451052224
  0
LWPOLYLINE
  5
1B44
330
1E
100
AcDbEntity
  8
STEMPEL
100
AcDbPolyline
 90
       17
 70
   128
 43
0.0
 10
-115.1064095177187
 20
626.3491010452245
 10
-115.1841494189788
 20
627.7272224288489
 10
-115.4147217836606
 20
629.0584135416287
 10
-115.7902747464258
 20
630.2973422668055
 10
-116.2980193015535
 20
631.4018183725748
 10
-116.9206648171914
 20
632.3342302498276
 10
-117.6370078470854
 20
633.0628257303889
 10
-118.4226541885114
 20
633.5627933690221
 10
-119.2508495975908
 20
633.8171073674389
 10
-120.0933908729785
 20
633.8171073674389
 10
-120.9215862820579
 20
633.5627933690221
 10
-121.7072326234838
 20
633.0628257303889
 10
-122.4235756533778
 20
632.3342302498276
 10
-123.0462211690158
 20
631.4018183725748
 10
-123.5539657241435
 20
630.2973422668055
 10
-123.9295186869086
 20
629.0584135416287
 10
-123.9657731937108
 20
628.8491010452247
210
0.0
220
0.0
230
-1.0
  0
LINE
  5
1B45
330
1E
100
AcDbEntity
  8
STEMPEL
100
AcDbLine
 10
115.1064095177186
 20
626.3491010452245
 30
0.0
 11
115.1064095177186
 21
619.8491010452279
 31
0.0
  0
ARC
  5
1B46
102
{ACAD_REACTORS
330
1AF9
102
}
330
1E
100
AcDbEntity
  8
STEMPEL
100
AcDbCircle
 10
123.703301915982
 20
628.3491010452248
 30
0.0
 40
0.5
100
AcDbArc
 50
90.0
 51
177.9999999999963
  0
LWPOLYLINE
  5
1B47
330
1E
100
AcDbEntity
  8
STEMPEL
100
AcDbPolyline
 90
        9
 70
   128
 43
0.0
 10
-119.2026029707438
 20
633.8022922737435
 10
-119.6697266943233
 20
633.7351591928193
 10
-120.4384643824691
 20
633.3967957011218
 10
-121.1597547072466
 20
632.8442915736108
 10
-121.8116816271281
 20
632.0944343686196
 10
-122.3744366725437
 20
631.1700081178762
 10
-122.8309208162067
 20
630.0991010452269
 10
-123.1672640184034
 20
628.9142521201691
 10
-123.2321482110074
 20
628.5164754348092
210
0.0
220
0.0
230
-1.0
  0
ELLIPSE
  5
1B48
330
1E
100
AcDbEntity
  8
STEMPEL
100
AcDbEllipse
 10
151.5718512871107
 20
646.3491010452265
 30
0.0
 11
0.0
 21
-7.5
 31
0.0
210
0.0
220
0.0
230
-1.0
 40
0.8660254037843856
 41
4.712388980384689
 42
7.853981633974482
  0
LINE
  5
1B49
102
{ACAD_REACTORS
330
1AF9
102
}
330
1E
100
AcDbEntity
  8
STEMPEL
100
AcDbLine
 10
126.9426844607898
 20
593.8491010452249
 30
0.0
 11
125.7204575285785
 21
628.8491010452248
 31
0.0
  0
LINE
  5
1B4B
330
1E
100
AcDbEntity
  8
MITTEL
100
AcDbLine
 10
149.9426844607898
 20
593.8491010452247
 30
0.0
 11
149.9426844607898
 21
587.8491010452254
 31
0.0
  0
LWPOLYLINE
  5
1B50
330
1E
100
AcDbEntity
  8
STEMPEL
100
AcDbPolyline
 90
       16
 70
   128
 43
0.0
 10
-134.1493547847912
 20
628.8491010452247
 10
-134.1966025779356
 20
629.0584135416287
 10
-134.6860327278568
 20
630.2973422668055
 10
-135.3477383150212
 20
631.4018183725748
 10
-136.1591857492864
 20
632.3342302498276
 10
-137.0927421615021
 20
633.0628257303889
 10
-138.1166164077282
 20
633.5627933690221
 10
-139.1959416785109
 20
633.8171073674389
 10
-140.293962846262
 20
633.8171073674389
 10
-141.3732881170448
 20
633.5627933690221
 10
-142.3971623632709
 20
633.0628257303889
 10
-143.3307187754866
 20
632.3342302498276
 10
-144.1421662097517
 20
631.4018183725748
 10
-144.8038717969161
 20
630.2973422668055
 10
-145.2933019468373
 20
629.0584135416287
 10
-145.3405497399818
 20
628.8491010452247
210
0.0
220
0.0
230
-1.0
  0
LWPOLYLINE
  5
1B51
330
1E
100
AcDbEntity
  8
STEMPEL
100
AcDbPolyline
 90
        8
 70
   128
 43
0.0
 10
-139.5590192778031
 20
633.8171073674389
 10
-140.5562627598382
 20
633.6319279866411
 10
-141.6215420115804
 20
633.1626732591874
 10
-142.5973769946188
 20
632.4483490220187
 10
-143.4486690274767
 20
631.5146479786224
 10
-144.1447989702131
 20
630.3951533434619
 10
-144.6607285289045
 20
629.1301309261232
 10
-144.726026422194
 20
628.8491010452247
210
0.0
220
0.0
230
-1.0
  0
ELLIPSE
  5
1B52
330
1E
100
AcDbEntity
  8
STEMPEL
100
AcDbEllipse
 10
151.0706742916687
 20
646.3491010452265
 30
0.0
 11
0.0
 21
-7.5
 31
0.0
210
0.0
220
0.0
230
-1.0
 40
0.8660254037843856
 41
4.712388980384689
 42
6.24459510668465
  0
LWPOLYLINE
  5
1B53
330
1E
100
AcDbEntity
  8
STEMPEL
100
AcDbPolyline
 90
       16
 70
   128
 43
0.0
 10
-157.8128390660584
 20
628.8491010452247
 10
-157.867860286523
 20
629.0584135416287
 10
-158.4378137677048
 20
630.2973422668055
 10
-159.2083862446609
 20
631.4018183725748
 10
-160.1533367958884
 20
632.3342302498276
 10
-161.2404862637086
 20
633.0628257303889
 10
-162.4328130768867
 20
633.5627933690221
 10
-163.6897139758386
 20
633.8171073674389
 10
-164.9683867079369
 20
633.8171073674389
 10
-166.2252876068887
 20
633.5627933690221
 10
-167.4176144200669
 20
633.0628257303889
 10
-168.504763887887
 20
632.3342302498276
 10
-169.4497144391146
 20
631.4018183725748
 10
-170.2202869160706
 20
630.2973422668055
 10
-170.7902403972524
 20
629.0584135416287
 10
-170.845261617717
 20
628.8491010452247
210
0.0
220
0.0
230
-1.0
  0
LWPOLYLINE
  5
1B54
330
1E
100
AcDbEntity
  8
STEMPEL
100
AcDbPolyline
 90
        8
 70
   128
 43
0.0
 10
-164.3528847027937
 20
633.8171073674389
 10
-165.4614676594056
 20
633.6673945612168
 10
-166.7294470565917
 20
633.2171186438927
 10
-167.8941657446773
 20
632.5121009117536
 10
-168.912423113284
 20
631.5784911953699
 10
-169.7464509525463
 20
630.4509180363939
 10
-170.3653143147402
 20
629.1712042794421
 10
-170.4539014948453
 20
628.8491010452247
210
0.0
220
0.0
230
-1.0
  0
ARC
  5
1B55
330
1E
100
AcDbEntity
  8
STEMPEL
100
AcDbCircle
 10
125.9426844607897
 20
697.8491010452244
 30
0.0
 40
5.0
100
AcDbArc
 50
90.0
 51
120.5373500483005
  0
ARC
  5
1B56
330
1E
100
AcDbEntity
  8
STEMPEL
100
AcDbCircle
 10
125.9426844607897
 20
697.8491010452244
 30
0.0
 40
6.0
100
AcDbArc
 50
90.0
 51
120.5128743276197
  0
ELLIPSE
  5
1B57
330
1E
100
AcDbEntity
  8
STEMPEL
100
AcDbEllipse
 10
111.7696389541269
 20
671.3491010452265
 30
0.0
 11
0.0
 21
7.499999999999999
 31
0.0
210
0.0
220
0.0
230
1.0
 40
0.4999999999999926
 41
4.712388980384689
 42
7.853981633974482
  0
LINE
  5
1B58
330
1E
100
AcDbEntity
  8
STEMPEL
100
AcDbLine
 10
98.9099898390819
 20
689.0261816052682
 30
0.0
 11
122.8962927145488
 21
703.0181916159567
 31
0.0
  0
LINE
  5
1B59
330
1E
100
AcDbEntity
  8
STEMPEL
100
AcDbLine
 10
99.4233308926627
 20
688.1679384921056
 30
0.0
 11
123.4021847856139
 21
702.1555916582911
 31
0.0
  0
ARC
  5
1B5A
330
1E
100
AcDbEntity
  8
STEMPEL
100
AcDbCircle
 10
101.9426844607898
 20
683.8490430779093
 30
0.0
 40
5.0
100
AcDbArc
 50
120.2564164748189
 51
180.0
  0
ARC
  5
1B5B
330
1E
100
AcDbEntity
  8
STEMPEL
100
AcDbCircle
 10
101.9426844607898
 20
683.8490430779093
 30
0.0
 40
6.0
100
AcDbArc
 50
120.2564164748189
 51
180.0
  0
LINE
  5
1B5C
330
1E
100
AcDbEntity
  8
STEMPEL
100
AcDbLine
 10
95.94268446078979
 20
678.8491010452262
 30
0.0
 11
96.94268446078979
 21
678.8491010452262
 31
0.0
  0
ARC
  5
1B5D
330
1E
100
AcDbEntity
  8
STEMPEL
100
AcDbCircle
 10
96.4315408564782
 20
693.3689380276867
 30
0.0
 40
5.0
100
AcDbArc
 50
300.0670458384858
 51
300.2564371635302
  0
ELLIPSE
  5
1B5E
330
1E
100
AcDbEntity
  8
STEMPEL
100
AcDbEllipse
 10
110.9015749344379
 20
671.3491010452265
 30
0.0
 11
0.0
 21
7.499999999999999
 31
0.0
210
0.0
220
0.0
230
1.0
 40
0.4999999999999926
 41
4.712388980384689
 42
6.167183451052224
  0
ELLIPSE
  5
1B5F
330
1E
100
AcDbEntity
  8
STEMPEL
100
AcDbEllipse
 10
151.5718512871107
 20
671.3491010452265
 30
0.0
 11
0.0
 21
7.5
 31
0.0
210
0.0
220
0.0
230
1.0
 40
0.8660254037843856
 41
4.712388980384689
 42
7.853981633974482
  0
LINE
  5
1B60
330
1E
100
AcDbEntity
  8
STEMPEL
100
AcDbLine
 10
125.9426844607897
 20
703.8491010452239
 30
0.0
 11
180.6810466331391
 21
703.8491010452244
 31
0.0
  0
ARC
  5
1B61
330
1E
100
AcDbEntity
  8
STEMPEL
100
AcDbCircle
 10
125.9426844607897
 20
697.8491010452244
 30
0.0
 40
6.0
100
AcDbArc
 50
90.0
 51
90.0
  0
ELLIPSE
  5
1B62
330
1E
100
AcDbEntity
  8
STEMPEL
100
AcDbEllipse
 10
151.0706742916687
 20
671.3491010452265
 30
0.0
 11
0.0
 21
7.5
 31
0.0
210
0.0
220
0.0
230
1.0
 40
0.8660254037843856
 41
4.712388980384689
 42
6.24459510668465
  0
ARC
  5
1B63
330
1E
100
AcDbEntity
  8
STEMPEL
100
AcDbCircle
 10
183.2791228444926
 20
703.8491010452244
 30
0.0
 40
1.5
100
AcDbArc
 50
90.0
 51
150.0000000000075
  0
ARC
  5
1B64
330
1E
100
AcDbEntity
  8
STEMPEL
100
AcDbCircle
 10
180.6810466331391
 20
705.3491010452244
 30
0.0
 40
2.5
100
AcDbArc
 50
270.0
 51
330.0000000000003
  0
ARC
  5
1B65
330
1E
100
AcDbEntity
  8
STEMPEL
100
AcDbCircle
 10
180.6810466331391
 20
705.3491010452244
 30
0.0
 40
1.5
100
AcDbArc
 50
270.0
 51
330.0000000000076
  0
LINE
  5
1B66
330
1E
100
AcDbEntity
  8
STEMPEL
100
AcDbLine
 10
186.0771990558465
 20
703.8491010452244
 30
0.0
 11
188.1360466331388
 21
703.8491010452244
 31
0.0
  0
LINE
  5
1B67
330
1E
100
AcDbEntity
  8
STEMPEL
100
AcDbLine
 10
186.0771990558465
 20
703.8491010452244
 30
0.0
 11
188.1360466331388
 21
703.8491010452244
 31
0.0
  0
ARC
  5
1B68
330
1E
100
AcDbEntity
  8
STEMPEL
100
AcDbCircle
 10
183.2791228444926
 20
703.8491010452244
 30
0.0
 40
0.5
100
AcDbArc
 50
90.0
 51
149.9999999999994
  0
LINE
  5
1B69
330
1E
100
AcDbEntity
  8
STEMPEL
100
AcDbLine
 10
183.2791228444926
 20
704.3491010452243
 30
0.0
 11
183.4791228444927
 21
704.3491010452243
 31
0.0
  0
ARC
  5
1B6A
330
1E
100
AcDbEntity
  8
STEMPEL
100
AcDbCircle
 10
183.4791228444927
 20
703.8491010452244
 30
0.0
 40
0.5
100
AcDbArc
 50
29.99999999999973
 51
90.0
  0
ARC
  5
1B6B
330
1E
100
AcDbEntity
  8
STEMPEL
100
AcDbCircle
 10
183.4791228444927
 20
703.8491010452244
 30
0.0
 40
1.5
100
AcDbArc
 50
29.99999999999246
 51
90.0
  0
ARC
  5
1B6C
330
1E
100
AcDbEntity
  8
STEMPEL
100
AcDbCircle
 10
186.0771990558465
 20
705.3491010452244
 30
0.0
 40
2.5
100
AcDbArc
 50
209.9999999999925
 51
270.0
  0
ARC
  5
1B6D
330
1E
100
AcDbEntity
  8
STEMPEL
100
AcDbCircle
 10
186.0771990558465
 20
705.3491010452244
 30
0.0
 40
1.5
100
AcDbArc
 50
209.9999999999925
 51
270.0
  0
ARC
  5
1B6E
330
1E
100
AcDbEntity
  8
STEMPEL
100
AcDbCircle
 10
188.1360466331388
 20
705.3491010452244
 30
0.0
 40
1.5
100
AcDbArc
 50
270.0
 51
330.0000000000076
  0
ARC
  5
1B6F
330
1E
100
AcDbEntity
  8
STEMPEL
100
AcDbCircle
 10
188.1360466331388
 20
705.3491010452244
 30
0.0
 40
2.5
100
AcDbArc
 50
270.0
 51
330.0000000000076
  0
LINE
  5
1B70
102
{ACAD_REACTORS
330
1AF9
102
}
330
1E
100
AcDbEntity
  8
STEMPEL
100
AcDbLine
 10
289.1887229353773
 20
613.8491010452252
 30
0.0
 11
324.9426844607896
 21
613.8491010452249
 31
0.0
  0
LINE
  5
1B71
330
1E
100
AcDbEntity
  8
STEMPEL
100
AcDbLine
 10
335.9426844607896
 20
614.8491010452249
 30
0.0
 11
320.9426844607897
 21
614.8491010452254
 31
0.0
  0
LINE
  5
1B72
330
1E
100
AcDbEntity
  8
STEMPEL
100
AcDbLine
 10
297.2337939871421
 20
646.3491010452265
 30
0.0
 11
297.2337939871421
 21
671.349101045228
 31
0.0
  0
LINE
  5
1B73
330
1E
100
AcDbEntity
  8
STEMPEL
100
AcDbLine
 10
296.3657299674531
 20
671.3491010452265
 30
0.0
 11
296.3657299674531
 21
646.349101045228
 31
0.0
  0
LINE
  5
1B74
330
1E
100
AcDbEntity
  8
STEMPEL
100
AcDbLine
 10
303.865729967453
 20
671.3491010452265
 30
0.0
 11
303.865729967453
 21
646.3491010452296
 31
0.0
  0
LINE
  5
1B75
330
1E
100
AcDbEntity
  8
STEMPEL
100
AcDbLine
 10
266.808708162852
 20
671.3491010452265
 30
0.0
 11
266.808708162852
 21
646.349101045228
 31
0.0
  0
LINE
  5
1B76
330
1E
100
AcDbEntity
  8
STEMPEL
100
AcDbLine
 10
254.3195041015282
 20
671.3491010452265
 30
0.0
 11
254.3195041015282
 21
646.3491010452265
 31
0.0
  0
LINE
  5
1B77
330
1E
100
AcDbEntity
  8
STEMPEL
100
AcDbLine
 10
253.8183271060863
 20
671.3491010452265
 30
0.0
 11
253.8183271060863
 21
646.3491010452265
 31
0.0
  0
LINE
  5
1B78
330
1E
100
AcDbEntity
  8
STEMPEL
100
AcDbLine
 10
213.44268446079
 20
671.3491010452265
 30
0.0
 11
213.4426844607898
 21
646.3491010452265
 31
0.0
  0
LINE
  5
1B79
330
1E
100
AcDbEntity
  8
STEMPEL
100
AcDbLine
 10
198.44268446079
 20
671.3491010452249
 30
0.0
 11
198.4426844607898
 21
646.3491010452266
 31
0.0
  0
LINE
  5
1B7A
330
1E
100
AcDbEntity
  8
STEMPEL
100
AcDbLine
 10
314.9426844607899
 20
683.8490430779093
 30
0.0
 11
314.9426844607899
 21
619.8491010452254
 31
0.0
  0
LINE
  5
1B7B
330
1E
100
AcDbEntity
  8
STEMPEL
100
AcDbLine
 10
315.94268446079
 20
683.8490430779093
 30
0.0
 11
315.94268446079
 21
619.8491010452254
 31
0.0
  0
ELLIPSE
  5
1B7C
330
1E
100
AcDbEntity
  8
STEMPEL
100
AcDbEllipse
 10
260.8146946299111
 20
646.3491010452265
 30
0.0
 11
0.0
 21
-7.5
 31
0.0
210
0.0
220
0.0
230
1.0
 40
0.8660254037843856
 41
4.712388980384689
 42
6.24459510668465
  0
ELLIPSE
  5
1B7D
330
1E
100
AcDbEntity
  8
STEMPEL
100
AcDbEllipse
 10
260.3135176344691
 20
646.3491010452265
 30
0.0
 11
0.0
 21
-7.5
 31
0.0
210
0.0
220
0.0
230
1.0
 40
0.8660254037843856
 41
4.712388980384689
 42
7.853981633974482
  0
LWPOLYLINE
  5
1B7E
330
1E
100
AcDbEntity
  8
STEMPEL
100
AcDbPolyline
 90
       16
 70
   128
 43
0.0
 10
227.1290761489359
 20
628.8491010452248
 10
227.0700311063989
 20
629.0584135416287
 10
226.4583956818066
 20
630.2973422668055
 10
225.6314695559322
 20
631.4018183725748
 10
224.6174127062039
 20
632.3342302498276
 10
223.4507576224122
 20
633.0628257303889
 10
222.1712333441869
 20
633.5627933690221
 10
220.8224125362028
 20
633.8171073674389
 10
219.4502276733435
 20
633.8171073674389
 10
218.1014068653594
 20
633.5627933690221
 10
216.8218825871341
 20
633.0628257303889
 10
215.6552275033424
 20
632.3342302498276
 10
214.6411706536142
 20
631.4018183725748
 10
213.8142445277398
 20
630.2973422668055
 10
213.2026091031475
 20
629.0584135416287
 10
213.1435640606105
 20
628.8491010452248
  0
LINE
  5
1B7F
330
1E
100
AcDbEntity
  8
MITTEL
100
AcDbLine
 10
220.5616179894355
 20
593.8491010452248
 30
0.0
 11
220.5616179894355
 21
587.8491010452254
 31
0.0
  0
ARC
  5
1B82
330
1E
100
AcDbEntity
  8
STEMPEL
100
AcDbCircle
 10
205.9426844607899
 20
646.3491010452265
 30
0.0
 40
7.5
100
AcDbArc
 50
179.999999999987
 51
359.999999999974
  0
LWPOLYLINE
  5
1B83
330
1E
100
AcDbEntity
  8
STEMPEL
100
AcDbPolyline
 90
        8
 70
   128
 43
0.0
 10
-191.9778691946912
 20
633.8171073674389
 10
-193.1249720759412
 20
633.6935094110756
 10
-194.5090529793907
 20
633.2591091640613
 10
-195.7832775919227
 20
632.562117943786
 10
-196.8992234116525
 20
631.6290224923403
 10
-197.8144827751056
 20
630.4952818769968
 10
-198.4942744138807
 20
629.2039799909275
 10
-198.6003713199881
 20
628.8491010452247
210
0.0
220
0.0
230
-1.0
  0
LINE
  5
1B84
330
1E
100
AcDbEntity
  8
STEMPEL
100
AcDbLine
 10
198.4426844607899
 20
646.7657432804879
 30
0.0
 11
198.44268446079
 21
646.3491010452249
 31
0.0
  0
LWPOLYLINE
  5
1B85
330
1E
100
AcDbEntity
  8
STEMPEL
100
AcDbPolyline
 90
        8
 70
   128
 43
0.0
 10
219.9074997268888
 20
633.8171073674389
 10
218.7603968456389
 20
633.6935094110756
 10
217.3763159421893
 20
633.2591091640613
 10
216.1020913296574
 20
632.562117943786
 10
214.9861455099275
 20
631.6290224923403
 10
214.0708861464744
 20
630.4952818769968
 10
213.3910945076993
 20
629.2039799909275
 10
213.284997601592
 20
628.8491010452248
  0
LINE
  5
1B86
330
1E
100
AcDbEntity
  8
STEMPEL
100
AcDbLine
 10
213.4426844607899
 20
646.7657432804879
 30
0.0
 11
213.44268446079
 21
646.3491010452265
 31
0.0
  0
LWPOLYLINE
  5
1B89
330
1E
100
AcDbEntity
  8
STEMPEL
100
AcDbPolyline
 90
       16
 70
   128
 43
0.0
 10
254.0725298555216
 20
628.8491010452248
 10
254.017508635057
 20
629.0584135416287
 10
253.4475551538752
 20
630.2973422668055
 10
252.6769826769191
 20
631.4018183725748
 10
251.7320321256916
 20
632.3342302498276
 10
250.6448826578715
 20
633.0628257303889
 10
249.4525558446933
 20
633.5627933690221
 10
248.1956549457414
 20
633.8171073674389
 10
246.9169822136431
 20
633.8171073674389
 10
245.6600813146913
 20
633.5627933690221
 10
244.467754501513
 20
633.0628257303889
 10
243.380605033693
 20
632.3342302498276
 10
242.4356544824655
 20
631.4018183725748
 10
241.6650820055094
 20
630.2973422668055
 10
241.0951285243276
 20
629.0584135416287
 10
241.040107303863
 20
628.8491010452248
  0
LWPOLYLINE
  5
1B8A
330
1E
100
AcDbEntity
  8
STEMPEL
100
AcDbPolyline
 90
        8
 70
   128
 43
0.0
 10
247.5324842187863
 20
633.8171073674389
 10
246.4239012621744
 20
633.6673945612168
 10
245.1559218649883
 20
633.2171186438927
 10
243.9912031769027
 20
632.5121009117536
 10
242.972945808296
 20
631.5784911953699
 10
242.1389179690337
 20
630.4509180363939
 10
241.5200546068398
 20
629.1712042794421
 10
241.4314674267347
 20
628.8491010452248
  0
LINE
  5
1B8B
102
{ACAD_REACTORS
330
1AF9
102
}
330
1E
100
AcDbEntity
  8
STEMPEL
100
AcDbLine
 10
289.6439116560497
 20
600.8142015485226
 30
0.0
 11
288.6817624191071
 21
628.3665507935761
 31
0.0
  0
LWPOLYLINE
  5
1B8C
330
1E
100
AcDbEntity
  8
STEMPEL
100
AcDbPolyline
 90
        9
 70
   128
 43
0.0
 10
292.6827659508362
 20
633.8022922737435
 10
292.2156422272567
 20
633.7351591928193
 10
291.4469045391109
 20
633.3967957011218
 10
290.7256142143334
 20
632.8442915736108
 10
290.073687294452
 20
632.0944343686196
 10
289.5109322490363
 20
631.1700081178762
 10
289.0544481053733
 20
630.0991010452269
 10
288.7181049031766
 20
628.9142521201691
 10
288.6532207105724
 20
628.5164754348084
  0
LWPOLYLINE
  5
1B8D
330
1E
100
AcDbEntity
  8
STEMPEL
100
AcDbPolyline
 90
       17
 70
   128
 43
0.0
 10
296.7789594038613
 20
626.3491010452245
 10
296.7012195026013
 20
627.7272224288489
 10
296.4706471379194
 20
629.0584135416287
 10
296.0950941751542
 20
630.2973422668055
 10
295.5873496200265
 20
631.4018183725748
 10
294.9647041043886
 20
632.3342302498276
 10
294.2483610744945
 20
633.0628257303889
 10
293.4627147330687
 20
633.5627933690221
 10
292.6345193239892
 20
633.8171073674389
 10
291.7919780486016
 20
633.8171073674389
 10
290.9637826395222
 20
633.5627933690221
 10
290.1781362980963
 20
633.0628257303889
 10
289.4617932682022
 20
632.3342302498276
 10
288.8391477525642
 20
631.4018183725748
 10
288.3314031974365
 20
630.2973422668055
 10
287.9558502346714
 20
629.0584135416287
 10
287.9195957278692
 20
628.8491010452248
  0
LINE
  5
1B8E
102
{ACAD_REACTORS
330
1AF9
102
}
330
1E
100
AcDbEntity
  8
STEMPEL
100
AcDbLine
 10
284.9426844607898
 20
593.8491010452249
 30
0.0
 11
286.164911393001
 21
628.8491010452248
 31
0.0
  0
LWPOLYLINE
  5
1B90
330
1E
100
AcDbEntity
  8
STEMPEL
100
AcDbPolyline
 90
       16
 70
   128
 43
0.0
 10
277.7360141367889
 20
628.8491010452248
 10
277.6887663436444
 20
629.0584135416287
 10
277.1993361937232
 20
630.2973422668055
 10
276.5376306065588
 20
631.4018183725748
 10
275.7261831722936
 20
632.3342302498276
 10
274.7926267600779
 20
633.0628257303889
 10
273.7687525138518
 20
633.5627933690221
 10
272.6894272430691
 20
633.8171073674389
 10
271.591406075318
 20
633.8171073674389
 10
270.5120808045352
 20
633.5627933690221
 10
269.4882065583091
 20
633.0628257303889
 10
268.5546501460934
 20
632.3342302498276
 10
267.7432027118283
 20
631.4018183725748
 10
267.0814971246639
 20
630.2973422668055
 10
266.5920669747427
 20
629.0584135416287
 10
266.5448191815983
 20
628.8491010452248
  0
LWPOLYLINE
  5
1B91
330
1E
100
AcDbEntity
  8
STEMPEL
100
AcDbPolyline
 90
        8
 70
   128
 43
0.0
 10
272.326349643777
 20
633.8171073674389
 10
271.3291061617418
 20
633.6319279866411
 10
270.2638269099996
 20
633.1626732591874
 10
269.2879919269612
 20
632.4483490220187
 10
268.4366998941033
 20
631.5146479786224
 10
267.7405699513669
 20
630.3951533434619
 10
267.2246403926755
 20
629.1301309261232
 10
267.1593424993861
 20
628.8491010452248
  0
ARC
  5
1B92
102
{ACAD_REACTORS
330
1AF9
102
}
330
1E
100
AcDbEntity
  8
STEMPEL
100
AcDbCircle
 10
288.1820670055976
 20
628.3491010452248
 30
0.0
 40
0.5
100
AcDbArc
 50
2.000000000003669
 51
90.0
  0
LWPOLYLINE
  5
1B93
330
1E
100
AcDbEntity
  8
STEMPEL
100
AcDbPolyline
 90
        7
 70
   128
 43
0.0
 10
-316.389342233663
 20
614.8491010452268
 10
-315.7126403585857
 20
615.4587017730858
 10
-315.1130909349516
 20
616.1862608569975
 10
-314.606802261802
 20
617.0122307186776
 10
-314.2073769697564
 20
617.9144197438808
 10
-313.9255465544935
 20
618.8685885120746
 10
-313.7688830499921
 20
619.8491010452268
210
0.0
220
0.0
230
-1.0
  0
LWPOLYLINE
  5
1B94
330
1E
100
AcDbEntity
  8
STEMPEL
100
AcDbPolyline
 90
       10
 70
   128
 43
0.0
 10
-318.2810930674851
 20
613.8491010452263
 10
-317.4230200712124
 20
613.9152282597989
 10
-316.5702078715901
 20
614.1677820095292
 10
-315.7494495646731
 20
614.5988277258467
 10
-314.9865311982741
 20
615.1948230962867
 10
-314.305421642775
 20
615.9370435280074
 10
-313.7275195528292
 20
616.8021704248047
 10
-313.270981078423
 20
617.7630237955208
 10
-312.9501494468254
 20
618.7894161772329
 10
-312.7751043364543
 20
619.8491010452256
210
0.0
220
0.0
230
-1.0
  0
LWPOLYLINE
  5
1B95
330
1E
100
AcDbEntity
  8
STEMPEL
100
AcDbPolyline
 90
       10
 70
   128
 43
0.0
 10
-320.2389859507856
 20
613.8491010452274
 10
-319.3809129545128
 20
613.9152282598001
 10
-318.5281007548906
 20
614.1677820095303
 10
-317.7073424479736
 20
614.5988277258478
 10
-316.9444240815745
 20
615.1948230962879
 10
-316.2633145260754
 20
615.9370435280085
 10
-315.6854124361297
 20
616.8021704248059
 10
-315.2288739617235
 20
617.7630237955219
 10
-314.9080423301259
 20
618.7894161772341
 10
-314.7329972197548
 20
619.8491010452268
210
0.0
220
0.0
230
-1.0
  0
LWPOLYLINE
  5
1B96
330
1E
100
AcDbEntity
  8
STEMPEL
100
AcDbPolyline
 90
       10
 70
   128
 43
0.0
 10
-314.0923745995949
 20
613.8491010452263
 10
-313.2561953247533
 20
613.9402545271531
 10
-312.4454229340507
 20
614.2109453205108
 10
-311.6846923363079
 20
614.6529486225198
 10
-310.9971179457891
 20
615.2528343865125
 10
-310.4035913624207
 20
615.9923753871072
 10
-309.9221465910995
 20
616.8491010452266
 10
-309.5674120875791
 20
617.7969801852726
 10
-309.3501662802449
 20
618.8072119792251
 10
-309.277010073021
 20
619.8491010452268
210
0.0
220
0.0
230
-1.0
  0
LWPOLYLINE
  5
1B97
330
1E
100
AcDbEntity
  8
STEMPEL
100
AcDbPolyline
 90
       10
 70
   128
 43
0.0
 10
-308.3521231141172
 20
613.8491010452263
 10
-307.5159438392756
 20
613.9402545271531
 10
-306.705171448573
 20
614.2109453205108
 10
-305.9444408508301
 20
614.6529486225198
 10
-305.2568664603114
 20
615.2528343865125
 10
-304.6633398769429
 20
615.9923753871072
 10
-304.1818951056217
 20
616.8491010452266
 10
-303.8271606021013
 20
617.7969801852726
 10
-303.6099147947672
 20
618.8072119792251
 10
-303.5367585875432
 20
619.8491010452268
210
0.0
220
0.0
230
-1.0
  0
LWPOLYLINE
  5
1B98
330
1E
100
AcDbEntity
  8
STEMPEL
100
AcDbPolyline
 90
        7
 70
   128
 43
0.0
 10
-306.6163845567191
 20
614.8491010452263
 10
-305.9962940336549
 20
615.4584389470671
 10
-305.4644738868713
 20
616.1858692203565
 10
-305.0352280871401
 20
617.0118267143001
 10
-304.7201017393428
 20
617.9140962647624
 10
-304.5275705623769
 20
618.8684101990055
 10
-304.4628129240506
 20
619.8491010452268
210
0.0
220
0.0
230
-1.0
  0
LWPOLYLINE
  5
1B99
330
1E
100
AcDbEntity
  8
STEMPEL
100
AcDbPolyline
 90
       10
 70
   128
 43
0.0
 10
-301.1426655784674
 20
613.8491010452263
 10
-300.3849159533731
 20
613.9402545271531
 10
-299.6501901671976
 20
614.2109453205108
 10
-298.9608124911645
 20
614.6529486225198
 10
-298.337729317118
 20
615.2528343865125
 10
-297.7998727120066
 20
615.9923753871072
 10
-297.3635851766077
 20
616.8491010452266
 10
-297.0421230869124
 20
617.7969801852726
 10
-296.8452539058484
 20
618.8072119792251
 10
-296.7789594038616
 20
619.8491010452268
210
0.0
220
0.0
230
-1.0
  0
LINE
  5
1B9A
102
{ACAD_REACTORS
330
1AF9
102
}
330
1E
100
AcDbEntity
  8
MITTEL
100
AcDbLine
 10
309.417192102054
 20
617.8491010452254
 30
0.0
 11
309.417192102054
 21
587.8491010452255
 31
0.0
  0
ARC
  5
1B9B
330
1E
100
AcDbEntity
  8
STEMPEL
100
AcDbCircle
 10
320.9426844607899
 20
619.8491010452254
 30
0.0
 40
5.0
100
AcDbArc
 50
180.0
 51
269.9999999999984
  0
ARC
  5
1B9C
330
1E
100
AcDbEntity
  8
STEMPEL
100
AcDbCircle
 10
320.9426844607899
 20
619.8491010452254
 30
0.0
 40
6.0
100
AcDbArc
 50
180.0
 51
269.9999999999984
  0
LINE
  5
1B9D
102
{ACAD_REACTORS
330
1AF9
102
}
330
1E
100
AcDbEntity
  8
STEMPEL
100
AcDbLine
 10
290.6433024830686
 20
599.849101045225
 30
0.0
 11
315.2848272362165
 21
599.849101045225
 31
0.0
  0
LINE
  5
1B9E
330
1E
100
AcDbEntity
  8
STEMPEL
100
AcDbLine
 10
314.4171921020539
 20
611.8491010452256
 30
0.0
 11
304.4171921020539
 21
611.8491010452256
 31
0.0
  0
LINE
  5
1B9F
330
1E
100
AcDbEntity
  8
STEMPEL
100
AcDbLine
 10
305.417192102054
 20
612.8491010452254
 30
0.0
 11
313.417192102054
 21
612.8491010452254
 31
0.0
  0
LINE
  5
1BA2
330
1E
100
AcDbEntity
  8
STEMPEL
100
AcDbLine
 10
298.7305362323799
 20
614.8491010452263
 30
0.0
 11
290.394335684068
 21
614.8491010452263
 31
0.0
  0
ARC
  5
1BA3
102
{ACAD_REACTORS
330
1AF9
102
}
330
1E
100
AcDbEntity
  8
STEMPEL
100
AcDbCircle
 10
290.6433024830686
 20
600.8491010452249
 30
0.0
 40
1.0
100
AcDbArc
 50
182.0000000000036
 51
270.0
  0
LWPOLYLINE
  5
1BA4
330
1E
100
AcDbEntity
  8
STEMPEL
100
AcDbPolyline
 90
        2
 70
   128
 43
0.0
 10
-290.3943356840687
 20
614.8491010452263
 10
-289.1049780989636
 20
616.2472393919054
210
0.0
220
0.0
230
-1.0
  0
LWPOLYLINE
  5
1BA5
330
1E
100
AcDbEntity
  8
STEMPEL
100
AcDbPolyline
 90
        4
 70
   128
 43
0.0
 10
-292.0112441433355
 20
613.8491010452263
 10
-291.2534945182413
 20
613.9402545271531
 10
-290.5187687320657
 20
614.2109453205108
 10
-289.1453360377611
 20
615.0915392345215
210
0.0
220
0.0
230
-1.0
  0
LINE
  5
1BA6
330
1E
100
AcDbEntity
  8
HILF
100
AcDbLine
 10
305.417192102054
 20
612.8491010452254
 30
0.0
 11
305.417192102054
 21
609.8491010452249
 31
0.0
  0
LINE
  5
1BA7
330
1E
100
AcDbEntity
  8
STEMPEL
100
AcDbLine
 10
304.4171921020539
 20
611.8491010452254
 30
0.0
 11
304.4171921020539
 21
609.8491010452249
 31
0.0
  0
LINE
  5
1BA8
330
1E
100
AcDbEntity
  8
STEMPEL
100
AcDbLine
 10
304.4171921020539
 20
611.8491010452254
 30
0.0
 11
305.417192102054
 21
612.8491010452254
 31
0.0
  0
LINE
  5
1BAB
330
1E
100
AcDbEntity
  8
STEMPEL
100
AcDbLine
 10
313.417192102054
 20
612.8491010452254
 30
0.0
 11
314.4171921020539
 21
611.8491010452254
 31
0.0
  0
LINE
  5
1BAC
330
1E
100
AcDbEntity
  8
STEMPEL
100
AcDbLine
 10
311.4305817056895
 20
614.8491010452263
 30
0.0
 11
306.6163845567181
 21
614.8491010452263
 31
0.0
  0
LINE
  5
1BAD
330
1E
100
AcDbEntity
  8
HILF
100
AcDbLine
 10
313.417192102054
 20
612.8491010452254
 30
0.0
 11
313.417192102054
 21
609.8491010452249
 31
0.0
  0
LINE
  5
1BAE
102
{ACAD_REACTORS
330
1AF9
102
}
330
1E
100
AcDbEntity
  8
STEMPEL
100
AcDbLine
 10
320.2840657119984
 20
604.7618390130387
 30
0.0
 11
320.4426844607897
 21
613.8491010452248
 31
0.0
  0
ARC
  5
1BAF
102
{ACAD_REACTORS
330
1AF9
102
}
330
1E
100
AcDbEntity
  8
STEMPEL
100
AcDbCircle
 10
315.2848272362165
 20
604.849101045225
 30
0.0
 40
5.0
100
AcDbArc
 50
270.0
 51
358.9999999999982
  0
LINE
  5
1BB0
330
1E
100
AcDbEntity
  8
STEMPEL
100
AcDbLine
 10
317.3534564034254
 20
614.8491010452263
 30
0.0
 11
316.3893422336628
 21
614.8491010452263
 31
0.0
  0
LINE
  5
1BB1
330
1E
100
AcDbEntity
  8
STEMPEL
100
AcDbLine
 10
314.4171921020539
 20
611.8491010452254
 30
0.0
 11
314.4171921020539
 21
609.8491010452249
 31
0.0
  0
LWPOLYLINE
  5
1BB2
330
1E
100
AcDbEntity
  8
STEMPEL
100
AcDbPolyline
 90
        9
 70
   128
 43
0.0
 10
306.8699114985342
 20
633.7508592898895
 10
306.3808509552654
 20
633.4244263921322
 10
305.9212379873644
 20
632.8791573788749
 10
305.5052881837402
 20
632.131917135747
 10
305.1458666544486
 20
631.2058174129695
 10
304.8540901195611
 20
630.1295019909992
 10
304.6389830748229
 20
628.9362607433684
 10
304.5071986687154
 20
627.6629999982924
 10
304.4628129240506
 20
626.3491010452261
  0
LWPOLYLINE
  5
1BB3
330
1E
100
AcDbEntity
  8
STEMPEL
100
AcDbPolyline
 90
       18
 70
   128
 43
0.0
 10
309.277010073021
 20
626.3491010452245
 10
309.2281407281047
 20
627.7272224288489
 10
309.0831968802846
 20
629.0584135416287
 10
308.8471144184574
 20
630.2973422668055
 10
308.5279328477108
 20
631.4018183725748
 10
308.1365215136203
 20
632.3342302498276
 10
307.6862094597224
 20
633.0628257303889
 10
307.1923315229229
 20
633.5627933690221
 10
306.671706124018
 20
633.8171073674389
 10
306.1420625365462
 20
633.8171073674389
 10
305.6214371376412
 20
633.5627933690221
 10
305.1275592008418
 20
633.0628257303889
 10
304.6772471469438
 20
632.3342302498276
 10
304.2858358128534
 20
631.4018183725748
 10
303.9666542421068
 20
630.2973422668055
 10
303.7305717802795
 20
629.0584135416287
 10
303.5856279324595
 20
627.7272224288489
 10
303.5367585875432
 20
626.3491010452245
  0
ELLIPSE
  5
1BB4
330
1E
100
AcDbEntity
  8
STEMPEL
100
AcDbEllipse
 10
300.9837939871419
 20
646.349101045228
 30
0.0
 11
0.0
 21
-7.499999999999999
 31
0.0
210
0.0
220
0.0
230
1.0
 40
0.4999999999999926
 41
4.712388980384689
 42
6.167183451052224
  0
ELLIPSE
  5
1BB5
330
1E
100
AcDbEntity
  8
STEMPEL
100
AcDbEllipse
 10
300.1157299674531
 20
646.349101045228
 30
0.0
 11
0.0
 21
-7.499999999999999
 31
0.0
210
0.0
220
0.0
230
1.0
 40
0.4999999999999926
 41
4.712388980384689
 42
7.853981633974482
  0
LINE
  5
1BB6
330
1E
100
AcDbEntity
  8
STEMPEL
100
AcDbLine
 10
296.7789594038615
 20
626.3491010452245
 30
0.0
 11
296.7789594038615
 21
619.8491010452279
 31
0.0
  0
LINE
  5
1BB7
330
1E
100
AcDbEntity
  8
STEMPEL
100
AcDbLine
 10
303.5367585875432
 20
626.3491010452245
 30
0.0
 11
303.5367585875432
 21
619.8491010452279
 31
0.0
  0
LINE
  5
1BB8
330
1E
100
AcDbEntity
  8
STEMPEL
100
AcDbLine
 10
304.4628129240505
 20
626.3491010452245
 30
0.0
 11
304.4628129240505
 21
619.8491010452279
 31
0.0
  0
LWPOLYLINE
  5
1BB9
330
1E
100
AcDbEntity
  8
STEMPEL
100
AcDbPolyline
 90
       18
 70
   128
 43
0.0
 10
314.7329972197548
 20
626.3491010452245
 10
314.7163287962779
 20
627.7272224288489
 10
314.6668911490176
 20
629.0584135416287
 10
314.5863678177572
 20
630.2973422668055
 10
314.4775009279655
 20
631.4018183725748
 10
314.3439978110032
 20
632.3342302498276
 10
314.1904047553991
 20
633.0628257303889
 10
314.021952188447
 20
633.5627933690221
 10
313.8443765602781
 20
633.8171073674389
 10
313.663724995931
 20
633.8171073674389
 10
313.4861493677621
 20
633.5627933690221
 10
313.31769680081
 20
633.0628257303889
 10
313.1641037452059
 20
632.3342302498276
 10
313.0306006282436
 20
631.4018183725748
 10
312.921733738452
 20
630.2973422668055
 10
312.8412104071915
 20
629.0584135416287
 10
312.7917727599312
 20
627.7272224288489
 10
312.7751043364543
 20
626.3491010452245
  0
LINE
  5
1BBA
330
1E
100
AcDbEntity
  8
STEMPEL
100
AcDbLine
 10
309.277010073021
 20
626.3491010452245
 30
0.0
 11
309.277010073021
 21
619.8491010452279
 31
0.0
  0
LINE
  5
1BBB
330
1E
100
AcDbEntity
  8
STEMPEL
100
AcDbLine
 10
312.7751043364543
 20
626.3491010452245
 30
0.0
 11
312.7751043364543
 21
619.8491010452256
 31
0.0
  0
LWPOLYLINE
  5
1BBC
330
1E
100
AcDbEntity
  8
STEMPEL
100
AcDbPolyline
 90
        7
 70
   128
 43
0.0
 10
314.2509401348736
 20
632.8111551010643
 10
314.1131111253034
 20
632.0590488641258
 10
313.9942468483372
 20
631.136335253411
 10
313.8978988464359
 20
630.0705840035068
 10
313.8269458988979
 20
628.8936386666856
 10
313.7835080068898
 20
627.6406651602838
 10
313.7688830499923
 20
626.3491010452245
  0
LINE
  5
1BBD
330
1E
100
AcDbEntity
  8
STEMPEL
100
AcDbLine
 10
314.7329972197548
 20
626.3491010452245
 30
0.0
 11
314.7329972197548
 21
619.8491010452268
 31
0.0
  0
LINE
  5
1BBE
330
1E
100
AcDbEntity
  8
STEMPEL
100
AcDbLine
 10
313.7688830499921
 20
626.3491010452245
 30
0.0
 11
313.7688830499921
 21
619.8491010452268
 31
0.0
  0
LINE
  5
1BBF
330
1E
100
AcDbEntity
  8
STEMPEL
100
AcDbLine
 10
315.9426844607898
 20
638.8491010452262
 30
0.0
 11
314.9426844607898
 21
638.8491010452262
 31
0.0
  0
ELLIPSE
  5
1BC0
330
1E
100
AcDbEntity
  8
STEMPEL
100
AcDbEllipse
 10
260.8146946299111
 20
671.3491010452265
 30
0.0
 11
0.0
 21
7.5
 31
0.0
210
0.0
220
0.0
230
-1.0
 40
0.8660254037843856
 41
4.712388980384689
 42
6.24459510668465
  0
ELLIPSE
  5
1BC1
330
1E
100
AcDbEntity
  8
STEMPEL
100
AcDbEllipse
 10
260.3135176344691
 20
671.3491010452265
 30
0.0
 11
0.0
 21
7.5
 31
0.0
210
0.0
220
0.0
230
-1.0
 40
0.8660254037843856
 41
4.712388980384689
 42
7.853981633974482
  0
LINE
  5
1BC2
330
1E
100
AcDbEntity
  8
STEMPEL
100
AcDbLine
 10
231.3821990558466
 20
703.8491010452244
 30
0.0
 11
285.94268446079
 21
703.8491010452248
 31
0.0
  0
LINE
  5
1BC3
330
1E
100
AcDbEntity
  8
STEMPEL
100
AcDbLine
 10
219.5321990558461
 20
703.8491010452244
 30
0.0
 11
225.9860466331401
 21
703.8491010452244
 31
0.0
  0
LINE
  5
1BC4
330
1E
100
AcDbEntity
  8
STEMPEL
100
AcDbLine
 10
219.5321990558461
 20
703.8491010452244
 30
0.0
 11
225.9860466331401
 21
703.8491010452244
 31
0.0
  0
ARC
  5
1BC5
330
1E
100
AcDbEntity
  8
STEMPEL
100
AcDbCircle
 10
205.94268446079
 20
671.3491010452265
 30
0.0
 40
7.5
100
AcDbArc
 50
0.0000000000260551
 51
180.000000000013
  0
LINE
  5
1BC6
330
1E
100
AcDbEntity
  8
STEMPEL
100
AcDbLine
 10
202.5841228444924
 20
704.3491010452243
 30
0.0
 11
212.672390305686
 21
704.3491010452243
 31
0.0
  0
LINE
  5
1BC7
330
1E
100
AcDbEntity
  8
STEMPEL
100
AcDbLine
 10
193.5321990558455
 20
703.8491010452244
 30
0.0
 11
199.9860466331398
 21
703.8491010452244
 31
0.0
  0
LINE
  5
1BC8
330
1E
100
AcDbEntity
  8
STEMPEL
100
AcDbLine
 10
193.5321990558455
 20
703.8491010452244
 30
0.0
 11
199.9860466331398
 21
703.8491010452244
 31
0.0
  0
ARC
  5
1BC9
330
1E
100
AcDbEntity
  8
STEMPEL
100
AcDbCircle
 10
193.5321990558455
 20
705.3491010452244
 30
0.0
 40
2.5
100
AcDbArc
 50
209.9999999999997
 51
270.0
  0
ARC
  5
1BCA
330
1E
100
AcDbEntity
  8
STEMPEL
100
AcDbCircle
 10
193.5321990558455
 20
705.3491010452244
 30
0.0
 40
1.5
100
AcDbArc
 50
209.9999999999997
 51
270.0
  0
LINE
  5
1BCB
330
1E
100
AcDbEntity
  8
STEMPEL
100
AcDbLine
 10
190.7341228444925
 20
704.3491010452243
 30
0.0
 11
190.9341228444926
 21
704.3491010452243
 31
0.0
  0
ARC
  5
1BCC
330
1E
100
AcDbEntity
  8
STEMPEL
100
AcDbCircle
 10
190.9341228444926
 20
703.8491010452244
 30
0.0
 40
0.5
100
AcDbArc
 50
29.99999999999973
 51
90.0
  0
ARC
  5
1BCD
330
1E
100
AcDbEntity
  8
STEMPEL
100
AcDbCircle
 10
190.9341228444926
 20
703.8491010452244
 30
0.0
 40
1.5
100
AcDbArc
 50
29.99999999999973
 51
90.0
  0
ARC
  5
1BCE
330
1E
100
AcDbEntity
  8
STEMPEL
100
AcDbCircle
 10
202.5841228444924
 20
703.8491010452244
 30
0.0
 40
0.5
100
AcDbArc
 50
90.0
 51
149.999999999993
  0
ARC
  5
1BCF
330
1E
100
AcDbEntity
  8
STEMPEL
100
AcDbCircle
 10
199.9860466331398
 20
705.3491010452244
 30
0.0
 40
1.5
100
AcDbArc
 50
270.0
 51
329.999999999993
  0
ARC
  5
1BD0
330
1E
100
AcDbEntity
  8
STEMPEL
100
AcDbCircle
 10
199.9860466331398
 20
705.3491010452244
 30
0.0
 40
2.5
100
AcDbArc
 50
270.0
 51
329.999999999993
  0
ARC
  5
1BD1
330
1E
100
AcDbEntity
  8
STEMPEL
100
AcDbCircle
 10
202.5841228444924
 20
703.8491010452244
 30
0.0
 40
1.5
100
AcDbArc
 50
90.0
 51
149.999999999993
  0
ARC
  5
1BD2
330
1E
100
AcDbEntity
  8
STEMPEL
100
AcDbCircle
 10
214.7976311713886
 20
704.3491010452243
 30
0.0
 40
1.5
100
AcDbArc
 50
270.0
 51
345.5224878140701
  0
ARC
  5
1BD3
330
1E
100
AcDbEntity
  8
STEMPEL
100
AcDbCircle
 10
216.7341228444926
 20
703.8491010452244
 30
0.0
 40
1.5
100
AcDbArc
 50
90.0
 51
165.5224878140701
  0
ARC
  5
1BD4
330
1E
100
AcDbEntity
  8
STEMPEL
100
AcDbCircle
 10
214.7976311713886
 20
704.3491010452243
 30
0.0
 40
0.5
100
AcDbArc
 50
270.0
 51
345.5224878140701
  0
LINE
  5
1BD5
330
1E
100
AcDbEntity
  8
STEMPEL
100
AcDbLine
 10
214.6088819787894
 20
703.8491010452244
 30
0.0
 11
214.7976311713886
 21
703.8491010452244
 31
0.0
  0
ARC
  5
1BD6
330
1E
100
AcDbEntity
  8
STEMPEL
100
AcDbCircle
 10
212.672390305686
 20
703.8491010452244
 30
0.0
 40
0.5
100
AcDbArc
 50
14.47751218592986
 51
90.0
  0
ARC
  5
1BD7
330
1E
100
AcDbEntity
  8
STEMPEL
100
AcDbCircle
 10
214.6088819787894
 20
704.3491010452243
 30
0.0
 40
1.5
100
AcDbArc
 50
194.4775121859299
 51
270.0
  0
ARC
  5
1BD8
330
1E
100
AcDbEntity
  8
STEMPEL
100
AcDbCircle
 10
214.6088819787894
 20
704.3491010452243
 30
0.0
 40
0.5
100
AcDbArc
 50
194.4775121859299
 51
270.0
  0
ARC
  5
1BD9
330
1E
100
AcDbEntity
  8
STEMPEL
100
AcDbCircle
 10
212.672390305686
 20
703.8491010452244
 30
0.0
 40
1.5
100
AcDbArc
 50
14.47751218592986
 51
90.0
  0
ARC
  5
1BDA
330
1E
100
AcDbEntity
  8
STEMPEL
100
AcDbCircle
 10
219.5321990558461
 20
705.3491010452244
 30
0.0
 40
2.5
100
AcDbArc
 50
209.9999999999925
 51
270.0
  0
ARC
  5
1BDB
330
1E
100
AcDbEntity
  8
STEMPEL
100
AcDbCircle
 10
219.5321990558461
 20
705.3491010452244
 30
0.0
 40
1.5
100
AcDbArc
 50
209.9999999999925
 51
270.0
  0
ARC
  5
1BDC
330
1E
100
AcDbEntity
  8
STEMPEL
100
AcDbCircle
 10
216.9341228444926
 20
703.8491010452244
 30
0.0
 40
1.5
100
AcDbArc
 50
29.99999999999246
 51
90.0
  0
ARC
  5
1BDD
330
1E
100
AcDbEntity
  8
STEMPEL
100
AcDbCircle
 10
216.7341228444926
 20
703.8491010452244
 30
0.0
 40
0.5
100
AcDbArc
 50
90.0
 51
165.5224878140701
  0
LINE
  5
1BDE
330
1E
100
AcDbEntity
  8
STEMPEL
100
AcDbLine
 10
216.7341228444926
 20
704.3491010452243
 30
0.0
 11
216.9341228444926
 21
704.3491010452243
 31
0.0
  0
ARC
  5
1BDF
330
1E
100
AcDbEntity
  8
STEMPEL
100
AcDbCircle
 10
216.9341228444926
 20
703.8491010452244
 30
0.0
 40
0.5
100
AcDbArc
 50
29.99999999999246
 51
90.0
  0
ARC
  5
1BE0
330
1E
100
AcDbEntity
  8
STEMPEL
100
AcDbCircle
 10
228.5841228444925
 20
703.8491010452244
 30
0.0
 40
1.5
100
AcDbArc
 50
90.0
 51
149.9999999999922
  0
ARC
  5
1BE1
330
1E
100
AcDbEntity
  8
STEMPEL
100
AcDbCircle
 10
225.9860466331401
 20
705.3491010452244
 30
0.0
 40
2.5
100
AcDbArc
 50
270.0
 51
329.9999999999922
  0
ARC
  5
1BE2
330
1E
100
AcDbEntity
  8
STEMPEL
100
AcDbCircle
 10
225.9860466331401
 20
705.3491010452244
 30
0.0
 40
1.5
100
AcDbArc
 50
270.0
 51
329.9999999999922
  0
ARC
  5
1BE3
330
1E
100
AcDbEntity
  8
STEMPEL
100
AcDbCircle
 10
228.5841228444925
 20
703.8491010452244
 30
0.0
 40
0.5
100
AcDbArc
 50
90.0
 51
149.9999999999922
  0
LINE
  5
1BE4
330
1E
100
AcDbEntity
  8
STEMPEL
100
AcDbLine
 10
228.5841228444925
 20
704.3491010452243
 30
0.0
 11
228.7841228444925
 21
704.3491010452243
 31
0.0
  0
ARC
  5
1BE5
330
1E
100
AcDbEntity
  8
STEMPEL
100
AcDbCircle
 10
228.7841228444925
 20
703.8491010452244
 30
0.0
 40
0.5
100
AcDbArc
 50
29.99999999999246
 51
90.0
  0
ARC
  5
1BE6
330
1E
100
AcDbEntity
  8
STEMPEL
100
AcDbCircle
 10
228.7841228444925
 20
703.8491010452244
 30
0.0
 40
1.5
100
AcDbArc
 50
29.99999999999246
 51
90.0
  0
ARC
  5
1BE7
330
1E
100
AcDbEntity
  8
STEMPEL
100
AcDbCircle
 10
231.3821990558466
 20
705.3491010452244
 30
0.0
 40
2.5
100
AcDbArc
 50
209.9999999999925
 51
270.0
  0
ARC
  5
1BE8
330
1E
100
AcDbEntity
  8
STEMPEL
100
AcDbCircle
 10
231.3821990558466
 20
705.3491010452244
 30
0.0
 40
1.5
100
AcDbArc
 50
209.9999999999925
 51
270.0
  0
ARC
  5
1BE9
330
1E
100
AcDbEntity
  8
STEMPEL
100
AcDbCircle
 10
285.94268446079
 20
697.8491010452244
 30
0.0
 40
6.0
100
AcDbArc
 50
59.48712567238029
 51
90.0
  0
LINE
  5
1BEA
330
1E
100
AcDbEntity
  8
STEMPEL
100
AcDbLine
 10
312.462038028917
 20
688.1679384921056
 30
0.0
 11
288.4831841359659
 21
702.1555916582911
 31
0.0
  0
LINE
  5
1BEB
330
1E
100
AcDbEntity
  8
STEMPEL
100
AcDbLine
 10
312.9753790824978
 20
689.0261816052682
 30
0.0
 11
288.989076207031
 21
703.0181916159567
 31
0.0
  0
ARC
  5
1BEC
330
1E
100
AcDbEntity
  8
STEMPEL
100
AcDbCircle
 10
285.94268446079
 20
697.8491010452244
 30
0.0
 40
6.0
100
AcDbArc
 50
90.0
 51
90.0
  0
ARC
  5
1BED
330
1E
100
AcDbEntity
  8
STEMPEL
100
AcDbCircle
 10
285.94268446079
 20
697.8491010452244
 30
0.0
 40
5.0
100
AcDbArc
 50
59.46264995169952
 51
90.0
  0
ELLIPSE
  5
1BEE
330
1E
100
AcDbEntity
  8
STEMPEL
100
AcDbEllipse
 10
300.1157299674531
 20
671.3491010452265
 30
0.0
 11
0.0
 21
7.499999999999999
 31
0.0
210
0.0
220
0.0
230
-1.0
 40
0.4999999999999926
 41
4.712388980384689
 42
7.853981633974482
  0
ELLIPSE
  5
1BEF
330
1E
100
AcDbEntity
  8
STEMPEL
100
AcDbEllipse
 10
300.9837939871419
 20
671.3491010452265
 30
0.0
 11
0.0
 21
7.499999999999999
 31
0.0
210
0.0
220
0.0
230
-1.0
 40
0.4999999999999926
 41
4.712388980384689
 42
6.167183451052224
  0
ARC
  5
1BF0
330
1E
100
AcDbEntity
  8
STEMPEL
100
AcDbCircle
 10
309.9426844607899
 20
683.8490430779093
 30
0.0
 40
5.0
100
AcDbArc
 50
0.0
 51
59.74358352518112
  0
ARC
  5
1BF1
330
1E
100
AcDbEntity
  8
STEMPEL
100
AcDbCircle
 10
309.9426844607899
 20
683.8490430779093
 30
0.0
 40
6.0
100
AcDbArc
 50
0.0
 51
59.74358352518112
  0
LINE
  5
1BF2
330
1E
100
AcDbEntity
  8
STEMPEL
100
AcDbLine
 10
315.9426844607898
 20
678.8491010452262
 30
0.0
 11
314.9426844607898
 21
678.8491010452262
 31
0.0
  0
ARC
  5
1BF3
330
1E
100
AcDbEntity
  8
STEMPEL
100
AcDbCircle
 10
315.4538280651016
 20
693.3689380276867
 30
0.0
 40
5.0
100
AcDbArc
 50
239.7435628364698
 51
239.9329541615142
  0
LINE
  5
1BF4
330
1E
100
AcDbEntity
  8
STEMPEL
100
AcDbLine
 10
333.4636889700884
 20
620.066853834422
 30
0.0
 11
333.4636889700884
 21
616.4491010452253
 31
0.0
  0
LINE
  5
1BF5
330
1E
100
AcDbEntity
  8
STEMPEL
100
AcDbLine
 10
330.7031867154391
 20
620.0431934622978
 30
0.0
 11
330.7031867154389
 21
616.4491010452253
 31
0.0
  0
LINE
  5
1BF6
330
1E
100
AcDbEntity
  8
STEMPEL
100
AcDbLine
 10
325.1821822061403
 20
620.0431934622978
 30
0.0
 11
325.1821822061403
 21
616.4491010452253
 31
0.0
  0
LINE
  5
1BF7
330
1E
100
AcDbEntity
  8
MITTEL
100
AcDbLine
 10
327.9426844607898
 20
593.8491010452249
 30
0.0
 11
327.9426844607898
 21
625.5168443796251
 31
0.0
  0
LINE
  5
1BF8
330
1E
100
AcDbEntity
  8
STEMPEL
100
AcDbLine
 10
322.421679951491
 20
620.0668538344221
 30
0.0
 11
322.421679951491
 21
616.4491010452253
 31
0.0
  0
ARC
  5
1BF9
102
{ACAD_REACTORS
330
1AF9
102
}
330
1E
100
AcDbEntity
  8
STEMPEL
100
AcDbCircle
 10
340.6005416853632
 20
604.8491010452249
 30
0.0
 40
4.99999999999995
100
AcDbArc
 50
181.0000000000017
 51
270.0
  0
LINE
  5
1BFA
330
1E
100
AcDbEntity
  8
STEMPEL
100
AcDbLine
 10
325.5926844607895
 20
605.7991010452251
 30
0.0
 11
330.2926844607898
 21
605.7991010452251
 31
0.0
  0
LINE
  5
1BFB
330
1E
100
AcDbEntity
  8
STEMPEL
100
AcDbLine
 10
324.9426844607899
 20
606.4491010452252
 30
0.0
 11
330.9426844607899
 21
606.4491010452252
 31
0.0
  0
LINE
  5
1BFC
330
1E
100
AcDbEntity
  8
STEMPEL
100
AcDbLine
 10
321.9426844607895
 20
616.4491010452253
 30
0.0
 11
333.9426844607896
 21
616.4491010452251
 31
0.0
  0
LINE
  5
1BFD
330
1E
100
AcDbEntity
  8
STEMPEL
100
AcDbLine
 10
333.9426844607898
 20
614.8491010452249
 30
0.0
 11
321.9426844607895
 21
614.8491010452254
 31
0.0
  0
LINE
  5
1BFE
102
{ACAD_REACTORS
330
1AF9
102
}
330
1E
100
AcDbEntity
  8
STEMPEL
100
AcDbLine
 10
325.5926844607905
 20
605.7991010452247
 30
0.0
 11
325.59268446079
 21
593.8491010452247
 31
0.0
  0
LINE
  5
1BFF
102
{ACAD_REACTORS
330
1AF9
102
}
330
1E
100
AcDbEntity
  8
HILF
100
AcDbLine
 10
324.9426844607899
 20
606.4491010452252
 30
0.0
 11
324.9426844607892
 21
593.8491010452248
 31
0.0
  0
LINE
  5
1C00
330
1E
100
AcDbEntity
  8
HILF
100
AcDbLine
 10
325.5926844607891
 20
605.7991010452251
 30
0.0
 11
325.5926844607889
 21
614.8491010452252
 31
0.0
  0
LINE
  5
1C01
330
1E
100
AcDbEntity
  8
STEMPEL
100
AcDbLine
 10
323.9426844607898
 20
614.8491010452254
 30
0.0
 11
323.9426844607898
 21
613.8491010452249
 31
0.0
  0
LINE
  5
1C02
102
{ACAD_REACTORS
330
1AF9
102
}
330
1E
100
AcDbEntity
  8
STEMPEL
100
AcDbLine
 10
324.9426844607896
 20
614.8491010452252
 30
0.0
 11
324.9426844607899
 21
606.4491010452252
 31
0.0
  0
LINE
  5
1C03
330
1E
100
AcDbEntity
  8
STEMPEL
100
AcDbLine
 10
321.9426844607895
 20
616.4491010452253
 30
0.0
 11
321.9426844607895
 21
614.8491010452252
 31
0.0
  0
LINE
  5
1C04
102
{ACAD_REACTORS
330
1AF9
102
}
330
1E
100
AcDbEntity
  8
STEMPEL
100
AcDbLine
 10
324.9426844607899
 20
606.4491010452252
 30
0.0
 11
325.5926844607895
 21
605.7991010452251
 31
0.0
  0
LINE
  5
1C05
102
{ACAD_REACTORS
330
1AF9
102
}
330
1E
100
AcDbEntity
  8
STEMPEL
100
AcDbLine
 10
335.4426844607897
 20
613.8491010452249
 30
0.0
 11
335.6013032095813
 21
604.7618390130383
 31
0.0
  0
LINE
  5
1C06
102
{ACAD_REACTORS
330
1AF9
102
}
330
1E
100
AcDbEntity
  8
STEMPEL
100
AcDbLine
 10
330.2926844607894
 20
605.7991010452247
 30
0.0
 11
330.2926844607897
 21
593.8491010452247
 31
0.0
  0
LINE
  5
1C07
102
{ACAD_REACTORS
330
1AF9
102
}
330
1E
100
AcDbEntity
  8
HILF
100
AcDbLine
 10
330.9426844607899
 20
606.4491010452252
 30
0.0
 11
330.9426844607906
 21
593.8491010452248
 31
0.0
  0
LINE
  5
1C08
102
{ACAD_REACTORS
330
1AF9
102
}
330
1E
100
AcDbEntity
  8
STEMPEL
100
AcDbLine
 10
330.9426844607896
 20
613.8491010452249
 30
0.0
 11
335.9426844607899
 21
613.8491010452249
 31
0.0
  0
LINE
  5
1C09
330
1E
100
AcDbEntity
  8
STEMPEL
100
AcDbLine
 10
331.9426844607898
 20
614.8491010452249
 30
0.0
 11
331.9426844607898
 21
613.8491010452249
 31
0.0
  0
LINE
  5
1C0A
102
{ACAD_REACTORS
330
1AF9
102
}
330
1E
100
AcDbEntity
  8
STEMPEL
100
AcDbLine
 10
330.2926844607898
 20
605.7991010452251
 30
0.0
 11
330.9426844607899
 21
606.4491010452252
 31
0.0
  0
LINE
  5
1C0B
330
1E
100
AcDbEntity
  8
HILF
100
AcDbLine
 10
330.2926844607894
 20
605.7991010452251
 30
0.0
 11
330.292684460789
 21
614.8491010452249
 31
0.0
  0
LINE
  5
1C0C
102
{ACAD_REACTORS
330
1AF9
102
}
330
1E
100
AcDbEntity
  8
STEMPEL
100
AcDbLine
 10
330.9426844607896
 20
614.8491010452249
 30
0.0
 11
330.9426844607899
 21
606.4491010452252
 31
0.0
  0
LINE
  5
1C0D
330
1E
100
AcDbEntity
  8
STEMPEL
100
AcDbLine
 10
333.9426844607896
 20
616.4491010452251
 30
0.0
 11
333.9426844607896
 21
614.8491010452252
 31
0.0
  0
LINE
  5
1C0E
330
1E
100
AcDbEntity
  8
STEMPEL
100
AcDbLine
 10
335.9426844607897
 20
614.8491010452252
 30
0.0
 11
335.9426844607898
 21
613.8491010452249
 31
0.0
  0
LINE
  5
1C0F
102
{ACAD_REACTORS
330
1AF9
102
}
330
1E
100
AcDbEntity
  8
STEMPEL
100
AcDbLine
 10
340.6005416853632
 20
599.849101045225
 30
0.0
 11
347.9426844607898
 21
599.849101045225
 31
0.0
  0
ARC
  5
1C10
102
{ACAD_REACTORS
330
1AF9
102
}
330
1E
100
AcDbEntity
  8
STEMPEL
100
AcDbCircle
 10
347.9426844607898
 20
596.8491010452249
 30
0.0
 40
3.000000000000028
100
AcDbArc
 50
270.0
 51
90.0
  0
ARC
  5
1C11
330
1E
100
AcDbEntity
  8
STEMPEL
100
AcDbCircle
 10
327.9426844607896
 20
612.2357267860253
 30
0.0
 40
8.281117593600001
100
AcDbArc
 50
70.52782738138933
 51
109.4721726186137
  0
LINE
  5
1C12
330
1E
100
AcDbEntity
  8
STEMPEL
100
AcDbLine
 10
323.8023348711637
 20
620.5168443796252
 30
0.0
 11
332.0830340499065
 21
620.5168443796252
 31
0.0
  0
LINE
  5
1C13
330
1E
100
AcDbEntity
  8
STEMPEL
100
AcDbLine
 10
322.421679951491
 20
620.0668538344221
 30
0.0
 11
322.6284380832764
 21
620.1862256974655
 31
0.0
  0
ARC
  5
1C14
330
1E
100
AcDbEntity
  8
STEMPEL
100
AcDbCircle
 10
323.8019310788155
 20
618.2689460593461
 30
0.0
 40
2.247898356545996
100
AcDbArc
 50
52.11936428281976
 51
121.4691945163663
  0
LINE
  5
1C15
330
1E
100
AcDbEntity
  8
STEMPEL
100
AcDbLine
 10
333.4636889700884
 20
620.0668538344221
 30
0.0
 11
333.2569308382959
 21
620.1862256974695
 31
0.0
  0
LINE
  5
1C16
330
1E
100
AcDbEntity
  8
STEMPEL
100
AcDbLine
 10
332.0794786174043
 20
620.5168443796252
 30
0.0
 11
332.0830340504004
 21
620.5168443796252
 31
0.0
  0
ARC
  5
1C17
330
1E
100
AcDbEntity
  8
STEMPEL
100
AcDbCircle
 10
332.0834378427636
 20
618.2689460593461
 30
0.0
 40
2.247898356545996
100
AcDbArc
 50
58.53080548383258
 51
127.8806357171802
  0
DIMENSION
  5
1C19
330
1E
100
AcDbEntity
  8
BEM
100
AcDbDimension
  2
*D10
 10
355.9486558859041
 20
726.6645085046075
 30
0.0
 11
205.9492235639402
 21
733.1645085046075
 31
0.0
 70
    32
  1
%%c<>
 71
     5
 42
299.9988646439279
  3
Standard
100
AcDbAlignedDimension
 13
55.94979124197627
 23
582.9704213887857
 33
0.0
 14
355.9486558859041
 24
582.9573431824847
 34
0.0
100
AcDbRotatedDimension
1001
ACAD
1000
DSTYLE
1002
{
1070
    40
1040
2.0
1070
    41
1040
3.5
1070
    42
1040
1.0
1070
    43
1040
7.0
1070
    44
1040
1.0
1070
    73
1070
     0
1070
    74
1070
     0
1070
    77
1070
     1
1070
    78
1070
     8
1070
    79
1070
     2
1070
   140
1040
3.5
1070
   141
1040
1.5
1070
   146
1040
0.5142857142857144
1070
   147
1040
1.5
1070
   172
1070
     1
1070
   178
1070
     1
1070
   179
1070
     2
1070
   271
1070
     2
1070
   272
1070
     2
1070
   284
1070
     8
1070
   285
1070
     8
1070
   286
1070
     8
1002
}
  0
DIMENSION
  5
1C1A
330
1E
100
AcDbEntity
  8
BEM
100
AcDbDimension
  2
*D11
 10
42.71343476716942
 20
593.8491010452247
 30
0.0
 11
36.21343476716932
 21
611.3491010452246
 31
0.0
 70
    32
 71
     5
 42
34.99999999999989
  3
Standard
100
AcDbAlignedDimension
 13
123.703301915982
 23
628.8491010452246
 33
0.0
 14
63.94268446078974
 24
593.8491010452247
 34
0.0
 50
90.0
100
AcDbRotatedDimension
1001
ACAD
1000
DSTYLE
1002
{
1070
    40
1040
2.0
1070
    41
1040
3.5
1070
    42
1040
1.0
1070
    43
1040
7.0
1070
    44
1040
1.0
1070
    73
1070
     0
1070
    74
1070
     0
1070
    77
1070
     1
1070
    78
1070
     8
1070
    79
1070
     2
1070
   140
1040
3.5
1070
   141
1040
1.5
1070
   146
1040
0.5142857142857144
1070
   147
1040
1.5
1070
   172
1070
     1
1070
   178
1070
     1
1070
   179
1070
     2
1070
   271
1070
     2
1070
   272
1070
     2
1070
   284
1070
     8
1070
   285
1070
     8
1070
   286
1070
     8
1002
}
  0
ARC
  5
1C1B
330
1E
100
AcDbEntity
  8
STEMPEL
100
AcDbCircle
 10
299.267192102054
 20
600.5991010452249
 30
0.0
 40
0.7500000000000013
100
AcDbArc
 50
110.0000000000006
 51
269.9999991462263
  0
LINE
  5
1C1C
330
1E
100
AcDbEntity
  8
STEMPEL
100
AcDbLine
 10
300.7569380642095
 20
601.9394575614248
 30
0.0
 11
299.0106769945597
 21
601.3038705108145
 31
0.0
  0
LINE
  5
1C1D
330
1E
100
AcDbEntity
  8
STEMPEL
100
AcDbLine
 10
319.0673520434626
 20
601.5791612778031
 30
0.0
 11
318.0774461398984
 21
601.9394575614248
 31
0.0
  0
LINE
  5
1C1E
330
1E
100
AcDbEntity
  8
STEMPEL
100
AcDbLine
 10
318.0774461398984
 20
609.5382119127697
 30
0.0
 11
316.9171921020539
 21
609.8491010452249
 31
0.0
  0
LINE
  5
1C1F
330
1E
100
AcDbEntity
  8
STEMPEL
100
AcDbLine
 10
301.9171921020539
 20
609.8491010452249
 30
0.0
 11
300.7569380642095
 21
609.5382119127697
 31
0.0
  0
LINE
  5
1C20
330
1E
100
AcDbEntity
  8
STEMPEL
100
AcDbLine
 10
300.7569380642095
 20
601.9394575614248
 30
0.0
 11
300.7569380642095
 21
609.5382119127697
 31
0.0
  0
LINE
  5
1C21
330
1E
100
AcDbEntity
  8
STEMPEL
100
AcDbLine
 10
318.8106378462582
 20
601.3038705108145
 30
0.0
 11
299.0106769945597
 21
601.3038705108145
 31
0.0
  0
LINE
  5
1C22
330
1E
100
AcDbEntity
  8
STEMPEL
100
AcDbLine
 10
305.0870650831317
 20
601.9394575614248
 30
0.0
 11
305.0870650831317
 21
609.5382119127697
 31
0.0
  0
LINE
  5
1C23
330
1E
100
AcDbEntity
  8
STEMPEL
100
AcDbLine
 10
313.7473191209762
 20
601.9394575614248
 30
0.0
 11
313.7473191209762
 21
609.5382119127697
 31
0.0
  0
LINE
  5
1C24
330
1E
100
AcDbEntity
  8
STEMPEL
100
AcDbLine
 10
318.0774461398984
 20
601.9394575614248
 30
0.0
 11
318.0774461398984
 21
609.5382119127697
 31
0.0
  0
LINE
  5
1C25
330
1E
100
AcDbEntity
  8
STEMPEL
100
AcDbLine
 10
301.9171921020539
 20
609.8491010452249
 30
0.0
 11
316.9171921020539
 21
609.8491010452249
 31
0.0
  0
POINT
  5
1C26
330
1E
100
AcDbEntity
  8
0
100
AcDbPoint
 10
309.417192102054
 20
599.849101045225
 30
0.0
210
0.0000000000000001
220
1.0
230
0.0
  0
ARC
  5
1C27
330
1E
100
AcDbEntity
  8
HILF
100
AcDbCircle
 10
302.9220015736706
 20
596.6006148956954
 30
0.0
 40
5.761140599691502
100
AcDbArc
 50
67.92594526326206
 51
112.0740547367379
  0
ARC
  5
1C28
330
1E
100
AcDbEntity
  8
HILF
100
AcDbCircle
 10
315.9123826304373
 20
596.6006148956954
 30
0.0
 40
5.761140599691502
100
AcDbArc
 50
67.92594526326206
 51
112.0740547367379
  0
ARC
  5
1C29
330
1E
100
AcDbEntity
  8
HILF
100
AcDbCircle
 10
309.417192102054
 20
579.9506399975638
 30
0.0
 40
22.41111549782308
100
AcDbArc
 50
78.85962783890552
 51
101.1403721610945
  0
ARC
  5
1C2A
330
1E
100
AcDbEntity
  8
STEMPEL
100
AcDbCircle
 10
315.9123826304373
 20
602.1547953374405
 30
0.0
 40
7.694305707784447
100
AcDbArc
 50
73.65710669401501
 51
106.342893305985
  0
ARC
  5
1C2B
330
1E
100
AcDbEntity
  8
STEMPEL
100
AcDbCircle
 10
302.9220015736706
 20
602.1547953374405
 30
0.0
 40
7.694305707784447
100
AcDbArc
 50
73.65710669401501
 51
106.342893305985
  0
ARC
  5
1C2C
330
1E
100
AcDbEntity
  8
STEMPEL
100
AcDbCircle
 10
309.417192102054
 20
579.5382119127701
 30
0.0
 40
30.31088913245485
100
AcDbArc
 50
81.78678929826174
 51
98.21321070173826
  0
ARC
  5
1C2D
330
1E
100
AcDbEntity
  8
STEMPEL
100
AcDbCircle
 10
93.94268446078973
 20
579.5382119127699
 30
0.0
 40
30.31088913245485
100
AcDbArc
 50
81.78678929826174
 51
98.21321070173826
  0
ARC
  5
1C2E
330
1E
100
AcDbEntity
  8
STEMPEL
100
AcDbCircle
 10
87.44749393240644
 20
602.1547953374404
 30
0.0
 40
7.694305707784447
100
AcDbArc
 50
73.65710669401501
 51
106.342893305985
  0
ARC
  5
1C2F
330
1E
100
AcDbEntity
  8
STEMPEL
100
AcDbCircle
 10
100.437874989173
 20
602.1547953374404
 30
0.0
 40
7.694305707784447
100
AcDbArc
 50
73.65710669401501
 51
106.342893305985
  0
ARC
  5
1C30
330
1E
100
AcDbEntity
  8
HILF
100
AcDbCircle
 10
93.94268446078973
 20
579.9506399975635
 30
0.0
 40
22.41111549782308
100
AcDbArc
 50
78.85962783890552
 51
101.1403721610945
  0
ARC
  5
1C31
330
1E
100
AcDbEntity
  8
HILF
100
AcDbCircle
 10
100.437874989173
 20
596.6006148956952
 30
0.0
 40
5.761140599691502
100
AcDbArc
 50
67.92594526326206
 51
112.0740547367379
  0
ARC
  5
1C32
330
1E
100
AcDbEntity
  8
HILF
100
AcDbCircle
 10
87.44749393240644
 20
596.6006148956952
 30
0.0
 40
5.761140599691502
100
AcDbArc
 50
67.92594526326206
 51
112.0740547367379
  0
POINT
  5
1C33
330
1E
100
AcDbEntity
  8
0
100
AcDbPoint
 10
93.94268446078973
 20
599.8491010452248
 30
0.0
210
0.0000000000000001
220
1.0
230
0.0
  0
LINE
  5
1C34
330
1E
100
AcDbEntity
  8
STEMPEL
100
AcDbLine
 10
86.44268446078976
 20
609.8491010452248
 30
0.0
 11
101.4426844607897
 21
609.8491010452248
 31
0.0
  0
LINE
  5
1C35
330
1E
100
AcDbEntity
  8
STEMPEL
100
AcDbLine
 10
102.6029384986341
 20
601.9394575614247
 30
0.0
 11
102.6029384986341
 21
609.5382119127695
 31
0.0
  0
LINE
  5
1C36
330
1E
100
AcDbEntity
  8
STEMPEL
100
AcDbLine
 10
98.27281147971195
 20
601.9394575614247
 30
0.0
 11
98.27281147971195
 21
609.5382119127695
 31
0.0
  0
LINE
  5
1C37
330
1E
100
AcDbEntity
  8
STEMPEL
100
AcDbLine
 10
89.61255744186756
 20
601.9394575614247
 30
0.0
 11
89.61255744186756
 21
609.5382119127695
 31
0.0
  0
LINE
  5
1C38
330
1E
100
AcDbEntity
  8
STEMPEL
100
AcDbLine
 10
104.349199568284
 20
601.3038705108144
 30
0.0
 11
83.53616935329549
 21
601.3038705108144
 31
0.0
  0
LINE
  5
1C39
330
1E
100
AcDbEntity
  8
STEMPEL
100
AcDbLine
 10
104.0926844607897
 20
599.8491010452248
 30
0.0
 11
83.79268446078972
 21
599.8491010452248
 31
0.0
  0
LINE
  5
1C3A
330
1E
100
AcDbEntity
  8
STEMPEL
100
AcDbLine
 10
85.28243042294537
 20
601.9394575614247
 30
0.0
 11
85.28243042294537
 21
609.5382119127695
 31
0.0
  0
LINE
  5
1C3B
330
1E
100
AcDbEntity
  8
STEMPEL
100
AcDbLine
 10
86.44268446078976
 20
609.8491010452248
 30
0.0
 11
85.28243042294537
 21
609.5382119127695
 31
0.0
  0
LINE
  5
1C3C
330
1E
100
AcDbEntity
  8
STEMPEL
100
AcDbLine
 10
102.6029384986341
 20
609.5382119127695
 30
0.0
 11
101.4426844607897
 21
609.8491010452248
 31
0.0
  0
LINE
  5
1C3D
330
1E
100
AcDbEntity
  8
STEMPEL
100
AcDbLine
 10
104.349199568284
 20
601.3038705108144
 30
0.0
 11
102.6029384986341
 21
601.9394575614247
 31
0.0
  0
LINE
  5
1C3E
330
1E
100
AcDbEntity
  8
STEMPEL
100
AcDbLine
 10
85.28243042294537
 20
601.9394575614247
 30
0.0
 11
83.53616935329549
 21
601.3038705108144
 31
0.0
  0
ARC
  5
1C3F
330
1E
100
AcDbEntity
  8
STEMPEL
100
AcDbCircle
 10
83.79268446078972
 20
600.5991010452248
 30
0.0
 40
0.7500000000000013
100
AcDbArc
 50
110.0000000000006
 51
269.9999991462263
  0
ARC
  5
1C40
330
1E
100
AcDbEntity
  8
STEMPEL
100
AcDbCircle
 10
104.0926844607897
 20
600.5991010452248
 30
0.0
 40
0.750000000000001
100
AcDbArc
 50
269.9999991462263
 51
69.99999999999935
  0
DIMENSION
  5
1C42
330
1E
100
AcDbEntity
  8
BEM
100
AcDbDimension
  2
*D12
 10
315.9426844607903
 20
713.1883181920151
 30
0.0
 11
205.9426844607901
 21
719.6883181920151
 31
0.0
 70
    32
  1
%%c<>
 71
     5
 42
220.0000000000002
  3
Standard
100
AcDbAlignedDimension
 13
95.94268446078999
 23
683.8490430779091
 33
0.0
 14
315.9426844607903
 24
683.8490430779091
 34
0.0
100
AcDbRotatedDimension
1001
ACAD
1000
DSTYLE
1002
{
1070
    40
1040
2.0
1070
    41
1040
3.5
1070
    42
1040
1.0
1070
    43
1040
7.0
1070
    44
1040
1.0
1070
    73
1070
     0
1070
    74
1070
     0
1070
    77
1070
     1
1070
    78
1070
     8
1070
    79
1070
     2
1070
   140
1040
3.5
1070
   141
1040
1.5
1070
   146
1040
0.5142857142857144
1070
   147
1040
1.5
1070
   172
1070
     1
1070
   178
1070
     1
1070
   179
1070
     2
1070
   271
1070
     2
1070
   272
1070
     2
1070
   284
1070
     8
1070
   285
1070
     8
1070
   286
1070
     8
1002
}
  0
LINE
  5
1C43
330
1E
100
AcDbEntity
  8
TEXT
 62
     2
100
AcDbLine
 10
369.4509201084444
 20
626.5068801707643
 30
0.0
 11
337.4399314574149
 21
597.8866453391353
 31
0.0
  0
LINE
  5
1C44
330
1E
100
AcDbEntity
  8
TEXT
 62
     2
100
AcDbLine
 10
259.0693583753786
 20
703.4696755449577
 30
0.0
 11
261.0185295027033
 21
710.6973737366303
 31
0.0
  0
LINE
  5
1C45
330
1E
100
AcDbEntity
  8
TEXT
 62
     2
100
AcDbLine
 10
262.4095840176971
 20
715.8555263798714
 30
0.0
 11
264.700571832621
 21
724.3507109508631
 31
0.0
  0
LINE
  5
1C46
330
1E
100
AcDbEntity
  8
TEXT
 62
     2
100
AcDbLine
 10
265.9834862348946
 20
729.107870532901
 30
0.0
 11
280.368838171143
 21
782.450022342275
 31
0.0
  0
TEXT
  5
1C47
330
1E
100
AcDbEntity
  8
TEXT
 62
     1
100
AcDbText
 10
281.7202073193192
 20
785.6126839729065
 30
0.0
 40
7.0
  1
Siebkorb
 41
0.8
  7
GREEKS
100
AcDbText
  0
LINE
  5
1C48
330
1E
100
AcDbEntity
  8
TEXT
 62
     2
100
AcDbLine
 10
280.368838171143
 20
782.450022342275
 30
0.0
 11
388.6724428956549
 21
782.450022342275
 31
0.0
  0
TEXT
  5
1C49
330
1E
100
AcDbEntity
  8
TEXT
 62
     1
100
AcDbText
 10
281.7202073193192
 20
771.936343455171
 30
0.0
 40
7.0
  1
EDV-Art.Nr. 21007.000X
 41
0.8
  7
GREEKS
100
AcDbText
  0
TEXT
  5
1C4A
330
1E
100
AcDbEntity
  8
TEXT
 62
     1
100
AcDbText
 10
370.0462759871988
 20
629.9907143316747
 30
0.0
 40
7.0
  1
Losflansch DN100
 41
0.8
100
AcDbText
  0
LINE
  5
1C4B
330
1E
100
AcDbEntity
  8
TEXT
 62
     2
100
AcDbLine
 10
475.3894846835775
 20
626.5068801707643
 30
0.0
 11
369.4509201084444
 21
626.5068801707643
 31
0.0
  0
TEXT
  5
1C4C
330
1E
100
AcDbEntity
  8
TEXT
 62
     1
100
AcDbText
 10
370.0462759871988
 20
617.2143833629652
 30
0.0
 40
7.0
  1
EDV-Art.Nr. 21907.100X
 41
0.8
100
AcDbText
  0
LINE
  5
1CDE
330
1E
100
AcDbEntity
  8
STEMPEL
100
AcDbLine
 10
55.94268446078982
 20
587.849101045225
 30
0.0
 11
355.9426844607899
 21
587.849101045225
 31
0.0
  0
LINE
  5
1CDF
330
1E
100
AcDbEntity
  8
STEMPEL
100
AcDbLine
 10
55.94268446078993
 20
587.8491010452255
 30
0.0
 11
355.94268446079
 21
587.8491010452246
 31
0.0
  0
LINE
  5
1D2D
330
1E
100
AcDbEntity
  8
STEMPEL
100
AcDbLine
 10
55.94268446078988
 20
349.0436406908903
 30
0.0
 11
149.3241466595219
 21
349.0436406908903
 31
0.0
  0
LINE
  5
1D2E
330
1E
100
AcDbEntity
  8
STEMPEL
100
AcDbLine
 10
55.94268446078999
 20
349.0436406908908
 30
0.0
 11
149.324146659522
 21
349.0436406908905
 31
0.0
  0
LINE
  5
1D35
330
1E
100
AcDbEntity
  8
STEMPEL
100
AcDbLine
 10
98.94268446079008
 20
355.0436406908898
 30
0.0
 11
147.6954486527927
 21
355.0436406908898
 31
0.0
  0
LINE
  5
1D48
330
1E
100
AcDbEntity
  8
STEMPEL
100
AcDbLine
 10
262.5612222620581
 20
349.0436406908902
 30
0.0
 11
355.94268446079
 21
349.0436406908898
 31
0.0
  0
LINE
  5
1D4A
330
1E
100
AcDbEntity
  8
STEMPEL
100
AcDbLine
 10
262.561222262058
 20
349.0436406908904
 30
0.0
 11
355.9426844607899
 21
349.0436406908903
 31
0.0
  0
LINE
  5
1D72
330
1E
100
AcDbEntity
  8
STEMPEL
100
AcDbLine
 10
355.9426844607899
 20
587.849101045225
 30
0.0
 11
355.9426844607899
 21
590.8491010452251
 31
0.0
  0
LINE
  5
1D73
330
1E
100
AcDbEntity
  8
STEMPEL
100
AcDbLine
 10
355.94268446079
 20
587.8491010452246
 30
0.0
 11
355.94268446079
 21
590.8491010452251
 31
0.0
  0
HATCH
  5
1D74
330
1E
100
AcDbEntity
  8
SCHRAFF
100
AcDbHatch
 10
0.0
 20
0.0
 30
0.0
210
0.0
220
0.0
230
1.0
  2
NET
 70
     0
 71
     0
 91
        4
 92
        7
 72
     0
 73
     1
 93
        4
 10
355.9426844607899
 20
590.8491010452251
 10
309.4171921020538
 20
590.8491010452251
 10
309.417192102054
 20
587.849101045225
 10
355.9426844607899
 20
587.849101045225
 97
        0
 92
        7
 72
     0
 73
     1
 93
        4
 10
309.417192102054
 20
590.8491010452252
 10
285.9426844607899
 20
590.8491010452252
 10
285.9426844607899
 20
587.849101045225
 10
309.417192102054
 20
587.849101045225
 97
        0
 92
        7
 72
     0
 73
     1
 93
        4
 10
125.9426844607898
 20
590.8491010452251
 10
101.9426844607901
 20
590.8491010452251
 10
101.9426844607901
 20
587.849101045225
 10
125.9426844607898
 20
587.849101045225
 97
        0
 92
        7
 72
     0
 73
     1
 93
        4
 10
85.94268446078983
 20
590.8491010452251
 10
55.94268446078993
 20
590.8491010452251
 10
55.94268446078993
 20
587.849101045225
 10
85.94268446078983
 20
587.849101045225
 97
        0
 75
     0
 76
     1
 52
45.0
 41
15.0
 77
     0
 78
     2
 53
45.0
 43
-42.42680417578165
 44
108.5078170249377
 45
-1.325825214724776
 46
1.325825214724776
 79
     0
 53
135.0
 43
-42.42680417578165
 44
108.5078170249377
 45
-1.325825214724776
 46
-1.325825214724776
 79
     0
 47
0.3213995559881435
 98
        4
 10
335.9608107309807
 20
589.2529121172068
 10
292.5571474311839
 20
589.8957111075418
 10
109.2972390637708
 20
590.2171106027089
 10
77.78939504000092
 20
588.9315126220398
  0
LINE
  5
1D75
330
1E
100
AcDbEntity
  8
STEMPEL
100
AcDbLine
 10
98.94268446079003
 20
590.8491010452251
 30
0.0
 11
355.9426844607899
 21
590.8491010452251
 31
0.0
  0
LINE
  5
1D76
330
1E
100
AcDbEntity
  8
STEMPEL
100
AcDbLine
 10
314.4171921020542
 20
593.8491010452248
 30
0.0
 11
314.4171921020542
 21
590.8491010452251
 31
0.0
  0
LINE
  5
1D77
330
1E
100
AcDbEntity
  8
HILF
100
AcDbLine
 10
313.4171921020542
 20
593.8491010452248
 30
0.0
 11
313.4171921020542
 21
590.8491010452251
 31
0.0
  0
LINE
  5
1D78
330
1E
100
AcDbEntity
  8
STEMPEL
100
AcDbLine
 10
304.4171921020544
 20
593.8491010452248
 30
0.0
 11
304.4171921020541
 21
590.8491010452251
 31
0.0
  0
LINE
  5
1D79
330
1E
100
AcDbEntity
  8
HILF
100
AcDbLine
 10
305.4171921020542
 20
593.8491010452248
 30
0.0
 11
305.417192102054
 21
590.8491010452251
 31
0.0
  0
LINE
  5
1D7A
330
1E
100
AcDbEntity
  8
STEMPEL
100
AcDbLine
 10
285.9426844607899
 20
587.849101045225
 30
0.0
 11
285.9426844607899
 21
590.8491010452251
 31
0.0
  0
LINE
  5
1D7B
330
1E
100
AcDbEntity
  8
STEMPEL
100
AcDbLine
 10
154.9426844607901
 20
593.8491010452246
 30
0.0
 11
154.9426844607901
 21
590.8491010452251
 31
0.0
  0
LINE
  5
1D7C
330
1E
100
AcDbEntity
  8
HILF
100
AcDbLine
 10
153.9426844607901
 20
593.8491010452247
 30
0.0
 11
153.9426844607901
 21
590.8491010452251
 31
0.0
  0
LINE
  5
1D7D
330
1E
100
AcDbEntity
  8
HILF
100
AcDbLine
 10
145.9426844607901
 20
593.8491010452246
 30
0.0
 11
145.9426844607901
 21
590.8491010452251
 31
0.0
  0
LINE
  5
1D7E
330
1E
100
AcDbEntity
  8
STEMPEL
100
AcDbLine
 10
144.9426844607901
 20
593.8491010452246
 30
0.0
 11
144.9426844607901
 21
590.8491010452251
 31
0.0
  0
LINE
  5
1D7F
330
1E
100
AcDbEntity
  8
HILF
100
AcDbLine
 10
224.5616179894358
 20
593.8491010452247
 30
0.0
 11
224.5616179894358
 21
590.8491010452251
 31
0.0
  0
LINE
  5
1D80
330
1E
100
AcDbEntity
  8
STEMPEL
100
AcDbLine
 10
225.5616179894358
 20
593.8491010452247
 30
0.0
 11
225.5616179894358
 21
590.8491010452251
 31
0.0
  0
LINE
  5
1D81
330
1E
100
AcDbEntity
  8
HILF
100
AcDbLine
 10
216.5616179894358
 20
593.8491010452247
 30
0.0
 11
216.5616179894358
 21
590.8491010452251
 31
0.0
  0
LINE
  5
1D82
330
1E
100
AcDbEntity
  8
STEMPEL
100
AcDbLine
 10
215.5616179894358
 20
593.8491010452247
 30
0.0
 11
215.5616179894358
 21
590.8491010452251
 31
0.0
  0
LINE
  5
1D83
330
1E
100
AcDbEntity
  8
STEMPEL
100
AcDbLine
 10
101.9426844607901
 20
587.849101045225
 30
0.0
 11
101.9426844607901
 21
590.849101045225
 31
0.0
  0
LINE
  5
1D84
330
1E
100
AcDbEntity
  8
STEMPEL
100
AcDbLine
 10
125.9426844607898
 20
587.849101045225
 30
0.0
 11
125.9426844607898
 21
590.8491010452251
 31
0.0
  0
LINE
  5
1D85
330
1E
100
AcDbEntity
  8
STEMPEL
100
AcDbLine
 10
55.94268446078982
 20
590.8491010452251
 30
0.0
 11
88.94268446079001
 21
590.8491010452251
 31
0.0
  0
LINE
  5
1D86
330
1E
100
AcDbEntity
  8
STEMPEL
100
AcDbLine
 10
85.94268446078983
 20
587.849101045225
 30
0.0
 11
85.94268446078983
 21
590.849101045225
 31
0.0
  0
LINE
  5
1D87
330
1E
100
AcDbEntity
  8
STEMPEL
100
AcDbLine
 10
55.94268446078993
 20
587.8491010452246
 30
0.0
 11
55.94268446078993
 21
590.8491010452246
 31
0.0
  0
LINE
  5
1D88
330
1E
100
AcDbEntity
  8
STEMPEL
100
AcDbLine
 10
55.94268446078982
 20
587.849101045225
 30
0.0
 11
55.94268446078982
 21
589.8491010452251
 31
0.0
  0
LINE
  5
1D89
330
1E
100
AcDbEntity
  8
STEMPEL
100
AcDbLine
 10
55.94268446078993
 20
587.8491010452246
 30
0.0
 11
55.94268446078993
 21
589.8491010452251
 31
0.0
  0
LINE
  5
1DA8
330
1E
100
AcDbEntity
  8
STEMPEL
100
AcDbLine
 10
355.9426844607899
 20
349.0436406908903
 30
0.0
 11
355.9426844607899
 21
352.0436406908903
 31
0.0
  0
LINE
  5
1DA9
330
1E
100
AcDbEntity
  8
STEMPEL
100
AcDbLine
 10
355.94268446079
 20
349.0436406908898
 30
0.0
 11
355.94268446079
 21
352.0436406908903
 31
0.0
  0
HATCH
  5
1DAA
330
1E
100
AcDbEntity
  8
SCHRAFF
100
AcDbHatch
 10
0.0
 20
0.0
 30
0.0
210
0.0
220
0.0
230
1.0
  2
NET
 70
     0
 71
     0
 91
        4
 92
        7
 72
     0
 73
     1
 93
        4
 10
355.9426844607899
 20
352.0436406908903
 10
309.417192102054
 20
352.0436406908903
 10
309.417192102054
 20
349.0436406908904
 10
355.9426844607899
 20
349.0436406908902
 97
        0
 92
        7
 72
     0
 73
     1
 93
        4
 10
309.417192102054
 20
352.0436406908904
 10
285.94268446079
 20
352.0436406908904
 10
285.9426844607899
 20
349.0436406908903
 10
309.417192102054
 20
349.0436406908903
 97
        0
 92
        7
 72
     0
 73
     1
 93
        4
 10
125.9426844607899
 20
352.0436406908904
 10
101.9426844607902
 20
352.0436406908903
 10
101.9426844607902
 20
349.0436406908903
 10
125.9426844607899
 20
349.0436406908904
 97
        0
 92
        7
 72
     0
 73
     1
 93
        4
 10
85.94268446078988
 20
352.0436406908903
 10
55.94268446078999
 20
352.0436406908904
 10
55.94268446078999
 20
349.0436406908902
 10
85.94268446078988
 20
349.0436406908902
 97
        0
 75
     0
 76
     1
 52
45.0
 41
15.0
 77
     0
 78
     2
 53
45.0
 43
-42.42680417578159
 44
-130.2976433293971
 45
-1.325825214724776
 46
1.325825214724776
 79
     0
 53
135.0
 43
-42.42680417578159
 44
-130.2976433293971
 45
-1.325825214724776
 46
-1.325825214724776
 79
     0
 47
0.3213995559881435
 98
        4
 10
335.9608107309807
 20
350.447451762872
 10
292.5571474311839
 20
351.090250753207
 10
109.2972390637708
 20
351.4116502483741
 10
77.78939504000098
 20
350.126052267705
  0
LINE
  5
1DAB
330
1E
100
AcDbEntity
  8
STEMPEL
100
AcDbLine
 10
98.94268446079008
 20
352.0436406908903
 30
0.0
 11
150.6523232998796
 21
352.0436406908904
 31
0.0
  0
LINE
  5
1DAC
330
1E
100
AcDbEntity
  8
STEMPEL
100
AcDbLine
 10
314.4171921020543
 20
355.04364069089
 30
0.0
 11
314.4171921020543
 21
352.0436406908903
 31
0.0
  0
LINE
  5
1DAD
330
1E
100
AcDbEntity
  8
HILF
100
AcDbLine
 10
313.4171921020543
 20
355.04364069089
 30
0.0
 11
313.4171921020542
 21
352.0436406908903
 31
0.0
  0
LINE
  5
1DAE
330
1E
100
AcDbEntity
  8
STEMPEL
100
AcDbLine
 10
304.4171921020544
 20
355.04364069089
 30
0.0
 11
304.4171921020542
 21
352.0436406908904
 31
0.0
  0
LINE
  5
1DAF
330
1E
100
AcDbEntity
  8
HILF
100
AcDbLine
 10
305.4171921020542
 20
355.04364069089
 30
0.0
 11
305.417192102054
 21
352.0436406908904
 31
0.0
  0
LINE
  5
1DB0
330
1E
100
AcDbEntity
  8
STEMPEL
100
AcDbLine
 10
285.9426844607899
 20
349.0436406908903
 30
0.0
 11
285.9426844607899
 21
352.0436406908903
 31
0.0
  0
LINE
  5
1DB3
330
1E
100
AcDbEntity
  8
HILF
100
AcDbLine
 10
145.9426844607901
 20
355.0436406908898
 30
0.0
 11
145.9426844607902
 21
352.0436406908904
 31
0.0
  0
LINE
  5
1DB4
330
1E
100
AcDbEntity
  8
STEMPEL
100
AcDbLine
 10
144.9426844607901
 20
355.0436406908898
 30
0.0
 11
144.9426844607901
 21
352.0436406908904
 31
0.0
  0
LINE
  5
1DB9
330
1E
100
AcDbEntity
  8
STEMPEL
100
AcDbLine
 10
101.9426844607902
 20
349.0436406908902
 30
0.0
 11
101.9426844607902
 21
352.0436406908902
 31
0.0
  0
LINE
  5
1DBA
330
1E
100
AcDbEntity
  8
STEMPEL
100
AcDbLine
 10
125.9426844607899
 20
349.0436406908903
 30
0.0
 11
125.9426844607899
 21
352.0436406908903
 31
0.0
  0
LINE
  5
1DBB
330
1E
100
AcDbEntity
  8
STEMPEL
100
AcDbLine
 10
55.94268446078988
 20
352.0436406908903
 30
0.0
 11
88.94268446079008
 21
352.0436406908903
 31
0.0
  0
LINE
  5
1DBC
330
1E
100
AcDbEntity
  8
STEMPEL
100
AcDbLine
 10
85.94268446078988
 20
349.0436406908902
 30
0.0
 11
85.94268446078988
 21
352.0436406908902
 31
0.0
  0
LINE
  5
1DBD
330
1E
100
AcDbEntity
  8
STEMPEL
100
AcDbLine
 10
55.94268446078999
 20
349.0436406908898
 30
0.0
 11
55.94268446078999
 21
352.0436406908899
 31
0.0
  0
LINE
  5
1DBE
330
1E
100
AcDbEntity
  8
STEMPEL
100
AcDbLine
 10
55.94268446078988
 20
349.0436406908903
 30
0.0
 11
55.94268446078988
 21
351.0436406908903
 31
0.0
  0
LINE
  5
1DBF
330
1E
100
AcDbEntity
  8
STEMPEL
100
AcDbLine
 10
55.94268446078999
 20
349.0436406908898
 30
0.0
 11
55.94268446078999
 21
351.0436406908902
 31
0.0
  0
LINE
  5
1DC0
330
1E
100
AcDbEntity
  8
STEMPEL
100
AcDbLine
 10
261.2330456217003
 20
352.0436406908903
 30
0.0
 11
355.9426844607899
 21
352.0436406908903
 31
0.0
  0
ENDSEC
  0
SECTION
  2
OBJECTS
  0
DICTIONARY
  5
C
330
0
100
AcDbDictionary
281
     1
  3
ACAD_COLOR
350
11A
  3
ACAD_GROUP
350
D
  3
ACAD_LAYOUT
350
19
  3
ACAD_MATERIAL
350
119
  3
ACAD_MLINESTYLE
350
16
  3
ACAD_PLOTSETTINGS
350
18
  3
ACAD_PLOTSTYLENAME
350
E
  3
AcDbVariableDictionary
350
125
  0
DICTIONARY
  5
DB
330
1E
100
AcDbDictionary
280
     1
281
     1
  3
ACAD_LAYOUTSELFREF
360
10F
  0
DICTIONARY
  5
DD
330
1A
100
AcDbDictionary
280
     1
281
     1
  3
ACAD_LAYOUTSELFREF
360
10E
  0
DICTIONARY
  5
11A
102
{ACAD_REACTORS
330
C
102
}
330
C
100
AcDbDictionary
281
     1
  0
DICTIONARY
  5
D
102
{ACAD_REACTORS
330
C
102
}
330
C
100
AcDbDictionary
281
     1
  0
DICTIONARY
  5
19
102
{ACAD_REACTORS
330
C
102
}
330
C
100
AcDbDictionary
281
     1
  3
Layout1
350
1D
  3
Model
350
21
  0
DICTIONARY
  5
119
102
{ACAD_REACTORS
330
C
102
}
330
C
100
AcDbDictionary
281
     1
  0
DICTIONARY
  5
16
102
{ACAD_REACTORS
330
C
102
}
330
C
100
AcDbDictionary
281
     1
  3
Standard
350
17
  0
DICTIONARY
  5
18
102
{ACAD_REACTORS
330
C
102
}
330
C
100
AcDbDictionary
281
     1
  0
ACDBDICTIONARYWDFLT
  5
E
102
{ACAD_REACTORS
330
C
102
}
330
C
100
AcDbDictionary
281
     1
  3
Normal
350
F
100
AcDbDictionaryWithDefault
340
F
  0
DICTIONARY
  5
125
102
{ACAD_REACTORS
330
C
102
}
330
C
100
AcDbDictionary
281
     1
  3
DIMASSOC
350
126
  3
PROJECTNAME
350
127
  0
XRECORD
  5
10F
102
{ACAD_REACTORS
330
DB
102
}
330
DB
100
AcDbXrecord
280
     1
340
1E
  0
XRECORD
  5
10E
102
{ACAD_REACTORS
330
DD
102
}
330
DD
100
AcDbXrecord
280
     1
340
1A
  0
LAYOUT
  5
1D
102
{ACAD_REACTORS
330
19
102
}
330
19
100
AcDbPlotSettings
  1

  2
\\NT_WORK01\HP LaserJet 5000 PCL 6
  4

  6

 40
0.0
 41
0.0
 42
0.0
 43
0.0
 44
0.0
 45
0.0
 46
0.0
 47
0.0
 48
0.0
 49
0.0
140
0.0
141
0.0
142
1.0
143
1.0
 70
   688
 72
     0
 73
     0
 74
     5
  7

 75
    16
147
1.0
 76
     0
 77
     2
 78
   300
148
0.0
149
0.0
100
AcDbLayout
  1
Layout1
 70
     0
 71
     1
 10
0.0
 20
0.0
 11
12.0
 21
9.0
 12
0.0
 22
0.0
 32
0.0
 14
1.000000000000000E+20
 24
1.000000000000000E+20
 34
1.000000000000000E+20
 15
-1.000000000000000E+20
 25
-1.000000000000000E+20
 35
-1.000000000000000E+20
146
0.0
 13
0.0
 23
0.0
 33
0.0
 16
1.0
 26
0.0
 36
0.0
 17
0.0
 27
1.0
 37
0.0
 76
     0
330
1A
  0
LAYOUT
  5
21
102
{ACAD_REACTORS
330
19
102
}
330
19
100
AcDbPlotSettings
  1

  2
none_device
  4
Letter_(8.50_x_11.00_Inches)
  6

 40
6.349999904632568
 41
6.349999904632568
 42
6.350006103515625
 43
6.350006103515625
 44
215.8999938964844
 45
279.3999938964844
 46
0.0
 47
0.0
 48
0.0
 49
0.0
140
0.0
141
0.0
142
1.0
143
1.0
 70
 11952
 72
     0
 73
     1
 74
     0
  7

 75
     0
147
1.0
 76
     0
 77
     2
 78
   300
148
3127.8889703916
149
3.688970391600116
100
AcDbLayout
  1
Model
 70
     1
 71
     0
 10
0.0
 20
0.0
 11
12.0
 21
9.0
 12
0.0
 22
0.0
 32
0.0
 14
0.0
 24
0.0
 34
0.0
 15
0.0
 25
0.0
 35
0.0
146
0.0
 13
0.0
 23
0.0
 33
0.0
 16
1.0
 26
0.0
 36
0.0
 17
0.0
 27
1.0
 37
0.0
 76
     0
330
1E
  0
MLINESTYLE
  5
17
102
{ACAD_REACTORS
330
16
102
}
330
16
100
AcDbMlineStyle
  2
STANDARD
 70
     0
  3

 62
   256
 51
90.0
 52
90.0
 71
     2
 49
0.5
 62
   256
  6
BYLAYER
 49
-0.5
 62
   256
  6
BYLAYER
  0
ACDBPLACEHOLDER
  5
F
102
{ACAD_REACTORS
330
E
102
}
330
E
  0
DICTIONARYVAR
  5
126
102
{ACAD_REACTORS
330
125
102
}
330
125
100
DictionaryVariables
280
     0
  1
1
  0
DICTIONARYVAR
  5
127
102
{ACAD_REACTORS
330
125
102
}
330
125
100
DictionaryVariables
280
     0
  1

  0
ENDSEC
  0
EOF
