  0
SECTION
  2
HEADER
  9
$ACADVER
  1
AC1018
  9
$ACADMAINTVER
 70
     2
  9
$DWGCODEPAGE
  3
ANSI_1252
  9
$INSBASE
 10
0.0
 20
0.0
 30
0.0
  9
$EXTMIN
 10
-0.0271839699360044
 20
-0.038441977687171
 30
-0.0000000000000058
  9
$EXTMAX
 10
594.0271950346393
 20
840.038457624743
 30
0.0000000000000104
  9
$LIMMIN
 10
0.0
 20
0.0
  9
$LIMMAX
 10
594.0
 20
840.0
  9
$ORTHOMODE
 70
     1
  9
$REGENMODE
 70
     1
  9
$FILLMODE
 70
     1
  9
$QTEXTMODE
 70
     0
  9
$MIRRTEXT
 70
     1
  9
$LTSCALE
 40
20.0
  9
$ATTMODE
 70
     1
  9
$TEXTSIZE
 40
3.5
  9
$TRACEWID
 40
1.0
  9
$TEXTSTYLE
  7
STANDARD
  9
$CLAYER
  8
VOLL
  9
$CELTYPE
  6
ByLayer
  9
$CECOLOR
 62
   256
  9
$CELTSCALE
 40
1.0
  9
$DISPSILH
 70
     0
  9
$DIMSCALE
 40
2.0
  9
$DIMASZ
 40
3.5
  9
$DIMEXO
 40
1.0
  9
$DIMDLI
 40
7.0
  9
$DIMRND
 40
0.0
  9
$DIMDLE
 40
0.0
  9
$DIMEXE
 40
1.0
  9
$DIMTP
 40
0.0
  9
$DIMTM
 40
0.0
  9
$DIMTXT
 40
3.5
  9
$DIMCEN
 40
1.5
  9
$DIMTSZ
 40
0.0
  9
$DIMTOL
 70
     0
  9
$DIMLIM
 70
     0
  9
$DIMTIH
 70
     0
  9
$DIMTOH
 70
     0
  9
$DIMSE1
 70
     0
  9
$DIMSE2
 70
     0
  9
$DIMTAD
 70
     1
  9
$DIMZIN
 70
     8
  9
$DIMBLK
  1

  9
$DIMASO
 70
     1
  9
$DIMSHO
 70
     0
  9
$DIMPOST
  1

  9
$DIMAPOST
  1

  9
$DIMALT
 70
     0
  9
$DIMALTD
 70
     2
  9
$DIMALTF
 40
25.4
  9
$DIMLFAC
 40
1.0
  9
$DIMTOFL
 70
     1
  9
$DIMTVP
 40
0.0
  9
$DIMTIX
 70
     0
  9
$DIMSOXD
 70
     0
  9
$DIMSAH
 70
     0
  9
$DIMBLK1
  1

  9
$DIMBLK2
  1

  9
$DIMSTYLE
  2
Standard
  9
$DIMCLRD
 70
     0
  9
$DIMCLRE
 70
     0
  9
$DIMCLRT
 70
     1
  9
$DIMTFAC
 40
0.5142857142857144
  9
$DIMGAP
 40
1.5
  9
$DIMJUST
 70
     0
  9
$DIMSD1
 70
     0
  9
$DIMSD2
 70
     0
  9
$DIMTOLJ
 70
     1
  9
$DIMTZIN
 70
     8
  9
$DIMALTZ
 70
     8
  9
$DIMALTTZ
 70
     8
  9
$DIMUPT
 70
     0
  9
$DIMDEC
 70
     2
  9
$DIMTDEC
 70
     2
  9
$DIMALTU
 70
     2
  9
$DIMALTTD
 70
     2
  9
$DIMTXSTY
  7
STANDARD
  9
$DIMAUNIT
 70
     0
  9
$DIMADEC
 70
     2
  9
$DIMALTRND
 40
0.0
  9
$DIMAZIN
 70
     2
  9
$DIMDSEP
 70
    46
  9
$DIMATFIT
 70
     3
  9
$DIMFRAC
 70
     0
  9
$DIMLDRBLK
  1

  9
$DIMLUNIT
 70
     2
  9
$DIMLWD
 70
    -2
  9
$DIMLWE
 70
    -2
  9
$DIMTMOVE
 70
     0
  9
$LUNITS
 70
     2
  9
$LUPREC
 70
     2
  9
$SKETCHINC
 40
1.0
  9
$FILLETRAD
 40
0.0
  9
$AUNITS
 70
     0
  9
$AUPREC
 70
     0
  9
$MENU
  1
ACAD
  9
$ELEVATION
 40
0.0
  9
$PELEVATION
 40
0.0
  9
$THICKNESS
 40
0.0
  9
$LIMCHECK
 70
     0
  9
$CHAMFERA
 40
0.0
  9
$CHAMFERB
 40
0.0
  9
$CHAMFERC
 40
0.0
  9
$CHAMFERD
 40
0.0
  9
$SKPOLY
 70
     0
  9
$TDCREATE
 40
2455397.825393172
  9
$TDUCREATE
 40
2455397.783726505
  9
$TDUPDATE
 40
2455545.459005660
  9
$TDUUPDATE
 40
2455545.417338993
  9
$TDINDWG
 40
0.1179954514
  9
$TDUSRTIMER
 40
0.1179954514
  9
$USRTIMER
 70
     1
  9
$ANGBASE
 50
0.0
  9
$ANGDIR
 70
     0
  9
$PDMODE
 70
     0
  9
$PDSIZE
 40
0.0
  9
$PLINEWID
 40
0.0
  9
$SPLFRAME
 70
     0
  9
$SPLINETYPE
 70
     6
  9
$SPLINESEGS
 70
     8
  9
$HANDSEED
  5
1C98
  9
$SURFTAB1
 70
     6
  9
$SURFTAB2
 70
     6
  9
$SURFTYPE
 70
     6
  9
$SURFU
 70
     6
  9
$SURFV
 70
     6
  9
$UCSBASE
  2

  9
$UCSNAME
  2

  9
$UCSORG
 10
0.0
 20
0.0
 30
0.0
  9
$UCSXDIR
 10
1.0
 20
0.0
 30
0.0
  9
$UCSYDIR
 10
0.0
 20
1.0
 30
0.0
  9
$UCSORTHOREF
  2

  9
$UCSORTHOVIEW
 70
     0
  9
$UCSORGTOP
 10
0.0
 20
0.0
 30
0.0
  9
$UCSORGBOTTOM
 10
0.0
 20
0.0
 30
0.0
  9
$UCSORGLEFT
 10
0.0
 20
0.0
 30
0.0
  9
$UCSORGRIGHT
 10
0.0
 20
0.0
 30
0.0
  9
$UCSORGFRONT
 10
0.0
 20
0.0
 30
0.0
  9
$UCSORGBACK
 10
0.0
 20
0.0
 30
0.0
  9
$PUCSBASE
  2

  9
$PUCSNAME
  2

  9
$PUCSORG
 10
0.0
 20
0.0
 30
0.0
  9
$PUCSXDIR
 10
1.0
 20
0.0
 30
0.0
  9
$PUCSYDIR
 10
0.0
 20
1.0
 30
0.0
  9
$PUCSORTHOREF
  2

  9
$PUCSORTHOVIEW
 70
     0
  9
$PUCSORGTOP
 10
0.0
 20
0.0
 30
0.0
  9
$PUCSORGBOTTOM
 10
0.0
 20
0.0
 30
0.0
  9
$PUCSORGLEFT
 10
0.0
 20
0.0
 30
0.0
  9
$PUCSORGRIGHT
 10
0.0
 20
0.0
 30
0.0
  9
$PUCSORGFRONT
 10
0.0
 20
0.0
 30
0.0
  9
$PUCSORGBACK
 10
0.0
 20
0.0
 30
0.0
  9
$USERI1
 70
     0
  9
$USERI2
 70
     0
  9
$USERI3
 70
     0
  9
$USERI4
 70
     0
  9
$USERI5
 70
     0
  9
$USERR1
 40
0.0
  9
$USERR2
 40
0.0
  9
$USERR3
 40
0.0
  9
$USERR4
 40
0.0
  9
$USERR5
 40
0.0
  9
$WORLDVIEW
 70
     1
  9
$SHADEDGE
 70
     3
  9
$SHADEDIF
 70
    70
  9
$TILEMODE
 70
     1
  9
$MAXACTVP
 70
    16
  9
$PINSBASE
 10
0.0
 20
0.0
 30
0.0
  9
$PLIMCHECK
 70
     0
  9
$PEXTMIN
 10
1.000000000000000E+20
 20
1.000000000000000E+20
 30
1.000000000000000E+20
  9
$PEXTMAX
 10
-1.000000000000000E+20
 20
-1.000000000000000E+20
 30
-1.000000000000000E+20
  9
$PLIMMIN
 10
0.0
 20
0.0
  9
$PLIMMAX
 10
12.0
 20
9.0
  9
$UNITMODE
 70
     0
  9
$VISRETAIN
 70
     0
  9
$PLINEGEN
 70
     0
  9
$PSLTSCALE
 70
     0
  9
$TREEDEPTH
 70
  3020
  9
$CMLSTYLE
  2
Standard
  9
$CMLJUST
 70
     0
  9
$CMLSCALE
 40
1.0
  9
$PROXYGRAPHICS
 70
     1
  9
$MEASUREMENT
 70
     0
  9
$CELWEIGHT
370
    -1
  9
$ENDCAPS
280
     0
  9
$JOINSTYLE
280
     0
  9
$LWDISPLAY
290
     0
  9
$INSUNITS
 70
     0
  9
$HYPERLINKBASE
  1

  9
$STYLESHEET
  1
monochrome 1.ctb
  9
$XEDIT
290
     1
  9
$CEPSNTYPE
380
     0
  9
$PSTYLEMODE
290
     1
  9
$FINGERPRINTGUID
  2
{D68B0D0D-A558-11D7-B632-000102183313}
  9
$VERSIONGUID
  2
{30DE30F4-F7B0-460B-879B-B5799F1CC03A}
  9
$EXTNAMES
290
     1
  9
$PSVPSCALE
 40
0.0
  9
$OLESTARTUP
290
     0
  9
$SORTENTS
280
   127
  9
$INDEXCTL
280
     0
  9
$HIDETEXT
280
     0
  9
$XCLIPFRAME
290
     0
  9
$HALOGAP
280
     0
  9
$OBSCOLOR
 70
   257
  9
$OBSLTYPE
280
     0
  9
$INTERSECTIONDISPLAY
280
     0
  9
$INTERSECTIONCOLOR
 70
   257
  9
$DIMASSOC
280
     1
  9
$PROJECTNAME
  1

  0
ENDSEC
  0
SECTION
  2
CLASSES
  0
CLASS
  1
ACDBDICTIONARYWDFLT
  2
AcDbDictionaryWithDefault
  3
ObjectDBX Classes
 90
        0
 91
        1
280
     0
281
     0
  0
CLASS
  1
DICTIONARYVAR
  2
AcDbDictionaryVar
  3
ObjectDBX Classes
 90
        0
 91
        2
280
     0
281
     0
  0
ENDSEC
  0
SECTION
  2
TABLES
  0
TABLE
  2
VPORT
  5
8
330
0
100
AcDbSymbolTable
 70
     2
  0
VPORT
  5
1C97
330
8
100
AcDbSymbolTableRecord
100
AcDbViewportTableRecord
  2
*Active
 70
     0
 10
0.0
 20
0.0
 11
1.0
 21
1.0
 12
297.0000055323517
 22
420.0000078235279
 13
0.0
 23
0.0
 14
1.0
 24
1.0
 15
10.0
 25
10.0
 16
0.0
 26
0.0
 36
1.0
 17
0.0
 27
0.0
 37
0.0
 40
846.8608314969317
 41
1.336927223719676
 42
50.0
 43
0.0
 44
0.0
 50
0.0
 51
0.0
 71
     0
 72
  1500
 73
     1
 74
     0
 75
     0
 76
     0
 77
     0
 78
     0
281
     0
 65
     1
110
0.0
120
0.0
130
0.0
111
1.0
121
0.0
131
0.0
112
0.0
122
1.0
132
0.0
 79
     0
146
0.0
  0
ENDTAB
  0
TABLE
  2
LTYPE
  5
5
330
0
100
AcDbSymbolTable
 70
     3
  0
LTYPE
  5
13
330
5
100
AcDbSymbolTableRecord
100
AcDbLinetypeTableRecord
  2
ByBlock
 70
     0
  3

 72
    65
 73
     0
 40
0.0
  0
LTYPE
  5
14
330
5
100
AcDbSymbolTableRecord
100
AcDbLinetypeTableRecord
  2
ByLayer
 70
     0
  3

 72
    65
 73
     0
 40
0.0
  0
LTYPE
  5
15
330
5
100
AcDbSymbolTableRecord
100
AcDbLinetypeTableRecord
  2
Continuous
 70
     0
  3
Solid line
 72
    65
 73
     0
 40
0.0
  0
LTYPE
  5
25
330
5
100
AcDbSymbolTableRecord
100
AcDbLinetypeTableRecord
  2
STRICHPUNKT
 70
     0
  3
__ . __ . __ . __ . __ . __ . __ . __ . __ . __
 72
    65
 73
     4
 40
1.0
 49
0.5
 74
     0
 49
-0.25
 74
     0
 49
0.0
 74
     0
 49
-0.25
 74
     0
  0
LTYPE
  5
34
330
5
100
AcDbSymbolTableRecord
100
AcDbLinetypeTableRecord
  2
AUSGEZOGEN
 70
     0
  3
Ausgezogene Linie
 72
    65
 73
     0
 40
0.0
  0
ENDTAB
  0
TABLE
  2
LAYER
  5
2
330
0
100
AcDbSymbolTable
 70
     9
  0
LAYER
  5
10
330
2
100
AcDbSymbolTableRecord
100
AcDbLayerTableRecord
  2
0
 70
     0
 62
     7
  6
Continuous
370
    -3
390
F
  0
LAYER
  5
2B
330
2
100
AcDbSymbolTableRecord
100
AcDbLayerTableRecord
  2
VOLL
 70
     0
 62
     1
  6
Continuous
370
    -3
390
F
  0
LAYER
  5
2C
330
2
100
AcDbSymbolTableRecord
100
AcDbLayerTableRecord
  2
HILF
 70
     0
 62
     2
  6
Continuous
370
    -3
390
F
  0
LAYER
  5
2D
330
2
100
AcDbSymbolTableRecord
100
AcDbLayerTableRecord
  2
MITTEL
 70
     0
 62
     2
  6
STRICHPUNKT
370
    -3
390
F
  0
LAYER
  5
2F
330
2
100
AcDbSymbolTableRecord
100
AcDbLayerTableRecord
  2
BEM
 70
     0
 62
     7
  6
Continuous
370
    -3
390
F
  0
LAYER
  5
30
330
2
100
AcDbSymbolTableRecord
100
AcDbLayerTableRecord
  2
STEMPEL
 70
     0
 62
     3
  6
Continuous
370
    -3
390
F
  0
LAYER
  5
33
330
2
100
AcDbSymbolTableRecord
100
AcDbLayerTableRecord
  2
TEXT
 70
     0
 62
     7
  6
Continuous
370
    -3
390
F
  0
LAYER
  5
1DD
330
2
100
AcDbSymbolTableRecord
100
AcDbLayerTableRecord
  2
DEFPOINTS
 70
     0
 62
     7
  6
AUSGEZOGEN
290
     0
370
    -3
390
F
  0
LAYER
  5
1DE
330
2
100
AcDbSymbolTableRecord
100
AcDbLayerTableRecord
  2
SCHRAFF
 70
     0
 62
     7
  6
AUSGEZOGEN
370
    -3
390
F
  0
ENDTAB
  0
TABLE
  2
STYLE
  5
3
330
0
100
AcDbSymbolTable
 70
     2
  0
STYLE
  5
11
330
3
100
AcDbSymbolTableRecord
100
AcDbTextStyleTableRecord
  2
STANDARD
 70
     0
 40
0.0
 41
0.8
 50
0.0
 71
     0
 42
3.5
  3
simplex.shx
  4

  0
STYLE
  5
24
330
3
100
AcDbSymbolTableRecord
100
AcDbTextStyleTableRecord
  2
GREEKS
 70
     0
 40
0.0
 41
0.8
 50
0.0
 71
     0
 42
2.5
  3
SIMPLEX.shx
  4

  0
ENDTAB
  0
TABLE
  2
VIEW
  5
6
330
0
100
AcDbSymbolTable
 70
     0
  0
ENDTAB
  0
TABLE
  2
UCS
  5
7
330
0
100
AcDbSymbolTable
 70
     0
  0
ENDTAB
  0
TABLE
  2
APPID
  5
9
330
0
100
AcDbSymbolTable
 70
     1
  0
APPID
  5
12
330
9
100
AcDbSymbolTableRecord
100
AcDbRegAppTableRecord
  2
ACAD
 70
     0
  0
ENDTAB
  0
TABLE
  2
DIMSTYLE
  5
A
330
0
100
AcDbSymbolTable
 70
     1
100
AcDbDimStyleTable
 71
     1
340
A2
  0
DIMSTYLE
105
A2
102
{ACAD_REACTORS
330
131F
330
1414
330
1418
330
148E
330
16D7
330
16D8
330
16D9
330
19EE
330
19EF
330
1B01
330
1B08
102
}
330
A
100
AcDbSymbolTableRecord
100
AcDbDimStyleTableRecord
  2
Standard
 70
     0
340
11
  0
ENDTAB
  0
TABLE
  2
BLOCK_RECORD
  5
1
330
0
100
AcDbSymbolTable
 70
    13
  0
BLOCK_RECORD
  5
1E
102
{ACAD_XDICTIONARY
360
DB
102
}
330
1
100
AcDbSymbolTableRecord
100
AcDbBlockTableRecord
  2
*Model_Space
340
21
  0
BLOCK_RECORD
  5
1A
102
{ACAD_XDICTIONARY
360
DD
102
}
330
1
100
AcDbSymbolTableRecord
100
AcDbBlockTableRecord
  2
*Paper_Space
340
1D
  0
BLOCK_RECORD
  5
22
330
1
100
AcDbSymbolTableRecord
100
AcDbBlockTableRecord
  2
LOGO
340
0
102
{BLKREFS
331
56
102
}
  0
BLOCK_RECORD
  5
23
330
1
100
AcDbSymbolTableRecord
100
AcDbBlockTableRecord
  2
LORO
340
0
102
{BLKREFS
331
9B
102
}
  0
BLOCK_RECORD
  5
141A
330
1
100
AcDbSymbolTableRecord
100
AcDbBlockTableRecord
  2
*D2
340
0
  0
BLOCK_RECORD
  5
1426
330
1
100
AcDbSymbolTableRecord
100
AcDbBlockTableRecord
  2
*D3
340
0
  0
BLOCK_RECORD
  5
1432
330
1
100
AcDbSymbolTableRecord
100
AcDbBlockTableRecord
  2
*D4
340
0
  0
BLOCK_RECORD
  5
148F
330
1
100
AcDbSymbolTableRecord
100
AcDbBlockTableRecord
  2
*D5
340
0
  0
BLOCK_RECORD
  5
16DA
330
1
100
AcDbSymbolTableRecord
100
AcDbBlockTableRecord
  2
*D6
340
0
  0
BLOCK_RECORD
  5
16E6
330
1
100
AcDbSymbolTableRecord
100
AcDbBlockTableRecord
  2
*D7
340
0
  0
BLOCK_RECORD
  5
16F2
330
1
100
AcDbSymbolTableRecord
100
AcDbBlockTableRecord
  2
*D8
340
0
  0
BLOCK_RECORD
  5
1B11
330
1
100
AcDbSymbolTableRecord
100
AcDbBlockTableRecord
  2
*D9
340
0
  0
BLOCK_RECORD
  5
1B1D
330
1
100
AcDbSymbolTableRecord
100
AcDbBlockTableRecord
  2
*D10
340
0
  0
BLOCK_RECORD
  5
1B29
330
1
100
AcDbSymbolTableRecord
100
AcDbBlockTableRecord
  2
*D11
340
0
  0
BLOCK_RECORD
  5
1B35
330
1
100
AcDbSymbolTableRecord
100
AcDbBlockTableRecord
  2
*D12
340
0
  0
ENDTAB
  0
ENDSEC
  0
SECTION
  2
BLOCKS
  0
BLOCK
  5
37
330
1E
100
AcDbEntity
  8
0
100
AcDbBlockBegin
  2
*Model_Space
 70
     0
 10
0.0
 20
0.0
 30
0.0
  3
*Model_Space
  1

  0
ENDBLK
  5
38
330
1E
100
AcDbEntity
  8
0
100
AcDbBlockEnd
  0
BLOCK
  5
35
330
1A
100
AcDbEntity
 67
     1
  8
0
100
AcDbBlockBegin
  2
*Paper_Space
 70
     0
 10
0.0
 20
0.0
 30
0.0
  3
*Paper_Space
  1

  0
ENDBLK
  5
36
330
1A
100
AcDbEntity
 67
     1
  8
0
100
AcDbBlockEnd
  0
BLOCK
  5
39
330
22
100
AcDbEntity
  8
0
100
AcDbBlockBegin
  2
LOGO
 70
     0
 10
0.0
 20
0.0
 30
0.0
  3
LOGO
  1

  0
ARC
  5
3A
330
22
100
AcDbEntity
  8
0
100
AcDbCircle
 10
11.59973089678112
 20
-9.271599258481501
 30
0.0
 40
4.5
100
AcDbArc
 50
270.0
 51
231.0575587310159
  0
LINE
  5
3B
330
22
100
AcDbEntity
  8
0
100
AcDbLine
 10
3.599730896781125
 20
-4.771599258481529
 30
0.0
 11
3.599730896781153
 21
-11.77159925848133
 31
0.0
  0
LINE
  5
3C
330
22
100
AcDbEntity
  8
0
100
AcDbLine
 10
2.599730896781125
 20
-4.771599258481529
 30
0.0
 11
2.599730896781153
 21
-11.77159925848133
 31
0.0
  0
CIRCLE
  5
3D
330
22
100
AcDbEntity
  8
0
100
AcDbCircle
 10
11.59973089678112
 20
-9.271599258481501
 30
0.0
 40
3.5
  0
ARC
  5
3E
330
22
100
AcDbEntity
  8
0
100
AcDbCircle
 10
31.59973089678115
 20
-9.271599258481472
 30
0.0
 40
4.5
100
AcDbArc
 50
270.0
 51
231.0575587310182
  0
LINE
  5
3F
330
22
100
AcDbEntity
  8
0
100
AcDbLine
 10
17.59973089678112
 20
-4.771599258481472
 30
0.0
 11
17.59973089678115
 21
-13.77159925848147
 31
0.0
  0
ARC
  5
40
330
22
100
AcDbEntity
  8
0
100
AcDbCircle
 10
22.59973089678116
 20
-7.271599258481472
 30
0.0
 40
2.5
100
AcDbArc
 50
293.1161887722295
 51
90.0
  0
CIRCLE
  5
41
330
22
100
AcDbEntity
  8
0
100
AcDbCircle
 10
31.59973089678115
 20
-9.271599258481472
 30
0.0
 40
3.5
  0
ARC
  5
42
330
22
100
AcDbEntity
  8
0
100
AcDbCircle
 10
4.599730896781153
 20
-11.77159925848133
 30
0.0
 40
1.0
100
AcDbArc
 50
180.0
 51
270.0
  0
ARC
  5
43
330
22
100
AcDbEntity
  8
0
100
AcDbCircle
 10
4.599730896781153
 20
-11.77159925848133
 30
0.0
 40
2.0
100
AcDbArc
 50
179.9999999999992
 51
270.0
  0
LINE
  5
44
330
22
100
AcDbEntity
  8
0
100
AcDbLine
 10
11.59973089678115
 20
-13.77159925848144
 30
0.0
 11
4.599730896781153
 21
-13.77159925848147
 31
0.0
  0
LINE
  5
45
330
22
100
AcDbEntity
  8
0
100
AcDbLine
 10
8.771303772034769
 20
-12.77159925848136
 30
0.0
 11
4.599730896781153
 21
-12.77159925848133
 31
0.0
  0
LINE
  5
46
330
22
100
AcDbEntity
  8
0
100
AcDbLine
 10
31.59973089678115
 20
-13.77159925848147
 30
0.0
 11
23.6715276665056
 21
-13.77159925848144
 31
0.0
  0
LINE
  5
47
330
22
100
AcDbEntity
  8
0
100
AcDbLine
 10
23.56565672307022
 20
-9.51278021337896
 30
0.0
 11
24.4388546544846
 21
-12.77159925848144
 31
0.0
  0
LINE
  5
48
330
22
100
AcDbEntity
  8
0
100
AcDbLine
 10
22.59973089678116
 20
-9.771599258481472
 30
0.0
 11
18.59973089678112
 21
-9.771599258481472
 31
0.0
  0
LINE
  5
49
330
22
100
AcDbEntity
  8
0
100
AcDbLine
 10
18.59973089678115
 20
-13.77159925848144
 30
0.0
 11
17.59973089678115
 21
-13.77159925848144
 31
0.0
  0
LINE
  5
4A
330
22
100
AcDbEntity
  8
0
100
AcDbLine
 10
18.59973089678115
 20
-9.771599258481472
 30
0.0
 11
18.59973089678115
 21
-13.77159925848144
 31
0.0
  0
LINE
  5
4B
330
22
100
AcDbEntity
  8
0
100
AcDbLine
 10
22.59973089678116
 20
-9.771599258481472
 30
0.0
 11
23.67152766650562
 21
-13.77159925848147
 31
0.0
  0
ARC
  5
4C
330
22
100
AcDbEntity
  8
0
100
AcDbCircle
 10
22.59973089678116
 20
-7.271599258481472
 30
0.0
 40
2.5
100
AcDbArc
 50
270.0
 51
270.0000000000007
  0
LINE
  5
4D
330
22
100
AcDbEntity
  8
0
100
AcDbLine
 10
28.77130377203494
 20
-12.77159925848147
 30
0.0
 11
24.43885465448463
 21
-12.77159925848144
 31
0.0
  0
LINE
  5
4E
330
22
100
AcDbEntity
  8
0
100
AcDbLine
 10
3.599730896781125
 20
-4.771599258481472
 30
0.0
 11
2.599730896781125
 21
-4.771599258481472
 31
0.0
  0
LINE
  5
4F
330
22
100
AcDbEntity
  8
0
100
AcDbLine
 10
22.59973089678116
 20
-8.771599258481472
 30
0.0
 11
18.59973089678115
 21
-8.771599258481472
 31
0.0
  0
LINE
  5
50
330
22
100
AcDbEntity
  8
0
100
AcDbLine
 10
22.59973089678116
 20
-5.771599258481472
 30
0.0
 11
18.59973089678115
 21
-5.771599258481472
 31
0.0
  0
LINE
  5
51
330
22
100
AcDbEntity
  8
0
100
AcDbLine
 10
22.59973089678116
 20
-4.771599258481472
 30
0.0
 11
17.59973089678115
 21
-4.771599258481472
 31
0.0
  0
LINE
  5
52
330
22
100
AcDbEntity
  8
0
100
AcDbLine
 10
18.59973089678115
 20
-5.771599258481472
 30
0.0
 11
18.59973089678115
 21
-8.771599258481472
 31
0.0
  0
ARC
  5
53
330
22
100
AcDbEntity
  8
0
100
AcDbCircle
 10
22.59973089678116
 20
-7.271599258481472
 30
0.0
 40
1.5
100
AcDbArc
 50
270.0
 51
90.0
  0
ENDBLK
  5
54
330
22
100
AcDbEntity
  8
0
100
AcDbBlockEnd
  0
BLOCK
  5
55
330
23
100
AcDbEntity
  8
0
100
AcDbBlockBegin
  2
LORO
 70
     0
 10
0.0
 20
0.0
 30
0.0
  3
LORO
  1

  0
INSERT
  5
56
330
23
100
AcDbEntity
  8
STEMPEL
100
AcDbBlockReference
  2
LOGO
 10
-1.748032802467321
 20
3.771489518552062
 30
0.0
  0
ENDBLK
  5
57
330
23
100
AcDbEntity
  8
0
100
AcDbBlockEnd
  0
BLOCK
  5
1424
330
141A
100
AcDbEntity
  8
0
100
AcDbBlockBegin
  2
*D2
 70
     1
 10
0.0
 20
0.0
 30
0.0
  3
*D2
  1

  0
LINE
  5
1475
330
141A
100
AcDbEntity
  8
BEM
 62
     0
370
    -2
100
AcDbLine
 10
254.0130222657311
 20
197.8644400956549
 30
0.0
 11
254.0130222657311
 21
169.3056240599608
 31
0.0
  0
LINE
  5
1476
330
141A
100
AcDbEntity
  8
BEM
 62
     0
370
    -2
100
AcDbLine
 10
152.413022265731
 20
197.8644400956521
 30
0.0
 11
152.413022265731
 21
169.3056240599608
 31
0.0
  0
LINE
  5
1477
330
141A
100
AcDbEntity
  8
BEM
 62
     0
370
    -2
100
AcDbLine
 10
247.0130222657311
 20
171.3056240599608
 30
0.0
 11
159.413022265731
 21
171.3056240599608
 31
0.0
  0
SOLID
  5
1478
330
141A
100
AcDbEntity
  8
BEM
 62
     0
100
AcDbTrace
 10
247.0130222657311
 20
172.4722907266275
 30
0.0
 11
247.0130222657311
 21
170.1389573932942
 31
0.0
 12
254.0130222657311
 22
171.3056240599608
 32
0.0
 13
254.0130222657311
 23
171.3056240599608
 33
0.0
  0
SOLID
  5
1479
330
141A
100
AcDbEntity
  8
BEM
 62
     0
100
AcDbTrace
 10
159.413022265731
 20
172.4722907266275
 30
0.0
 11
159.413022265731
 21
170.1389573932942
 31
0.0
 12
152.413022265731
 22
171.3056240599608
 32
0.0
 13
152.413022265731
 23
171.3056240599608
 33
0.0
  0
MTEXT
  5
147A
330
141A
100
AcDbEntity
  8
BEM
 62
     1
100
AcDbMText
 10
203.2130222657311
 20
177.8056240599608
 30
0.0
 40
7.0
 41
0.0
 71
     5
 72
     1
  1
\A1;%%c101.6
 73
     1
 44
1.0
  0
POINT
  5
147B
330
141A
100
AcDbEntity
  8
DEFPOINTS
 62
     0
100
AcDbPoint
 10
254.0130222657311
 20
199.864440095655
 30
0.0
  0
POINT
  5
147C
330
141A
100
AcDbEntity
  8
DEFPOINTS
 62
     0
100
AcDbPoint
 10
152.413022265731
 20
199.8644400956521
 30
0.0
  0
POINT
  5
147D
330
141A
100
AcDbEntity
  8
DEFPOINTS
 62
     0
100
AcDbPoint
 10
152.413022265731
 20
171.3056240599608
 30
0.0
  0
ENDBLK
  5
1425
330
141A
100
AcDbEntity
  8
0
100
AcDbBlockEnd
  0
BLOCK
  5
1430
330
1426
100
AcDbEntity
  8
0
100
AcDbBlockBegin
  2
*D3
 70
     1
 10
0.0
 20
0.0
 30
0.0
  3
*D3
  1

  0
LINE
  5
1764
330
1426
100
AcDbEntity
  8
BEM
 62
     0
370
    -2
100
AcDbLine
 10
51.21302226573073
 20
461.9168332271438
 30
0.0
 11
29.6865532210025
 21
461.9168332271438
 31
0.0
  0
LINE
  5
1765
330
1426
100
AcDbEntity
  8
BEM
 62
     0
370
    -2
100
AcDbLine
 10
151.1083477688864
 20
191.9168332271441
 30
0.0
 11
29.68655322100244
 21
191.9168332271441
 31
0.0
  0
LINE
  5
1766
330
1426
100
AcDbEntity
  8
BEM
 62
     0
370
    -2
100
AcDbLine
 10
31.6865532210025
 20
454.9168332271438
 30
0.0
 11
31.68655322100244
 21
198.9168332271441
 31
0.0
  0
SOLID
  5
1767
330
1426
100
AcDbEntity
  8
BEM
 62
     0
100
AcDbTrace
 10
30.51988655433583
 20
454.9168332271438
 30
0.0
 11
32.85321988766916
 21
454.9168332271438
 31
0.0
 12
31.6865532210025
 22
461.9168332271438
 32
0.0
 13
31.6865532210025
 23
461.9168332271438
 33
0.0
  0
SOLID
  5
1768
330
1426
100
AcDbEntity
  8
BEM
 62
     0
100
AcDbTrace
 10
30.51988655433577
 20
198.9168332271441
 30
0.0
 11
32.85321988766911
 21
198.9168332271441
 31
0.0
 12
31.68655322100244
 22
191.9168332271441
 32
0.0
 13
31.68655322100244
 23
191.9168332271441
 33
0.0
  0
MTEXT
  5
1769
330
1426
100
AcDbEntity
  8
BEM
 62
     1
100
AcDbMText
 10
25.18655322100242
 20
326.916833227144
 30
0.0
 40
7.0
 41
0.0
 71
     5
 72
     1
  1
\A1;270
 11
0.0000000000000001
 21
1.0
 31
0.0
 73
     1
 44
1.0
  0
POINT
  5
176A
330
1426
100
AcDbEntity
  8
DEFPOINTS
 62
     0
100
AcDbPoint
 10
53.21302226573073
 20
461.9168332271438
 30
0.0
  0
POINT
  5
176B
330
1426
100
AcDbEntity
  8
DEFPOINTS
 62
     0
100
AcDbPoint
 10
153.1083477688864
 20
191.9168332271441
 30
0.0
  0
POINT
  5
176C
330
1426
100
AcDbEntity
  8
DEFPOINTS
 62
     0
100
AcDbPoint
 10
31.68655322100244
 20
191.9168332271441
 30
0.0
  0
ENDBLK
  5
1431
330
1426
100
AcDbEntity
  8
0
100
AcDbBlockEnd
  0
BLOCK
  5
143C
330
1432
100
AcDbEntity
  8
0
100
AcDbBlockBegin
  2
*D4
 70
     1
 10
0.0
 20
0.0
 30
0.0
  3
*D4
  1

  0
LINE
  5
1722
330
1432
100
AcDbEntity
  8
BEM
 62
     0
370
    -2
100
AcDbLine
 10
353.2130222657309
 20
466.9168332271438
 30
0.0
 11
353.2130222657309
 21
503.737374277869
 31
0.0
  0
LINE
  5
1723
330
1432
100
AcDbEntity
  8
BEM
 62
     0
370
    -2
100
AcDbLine
 10
53.21302226573073
 20
466.9168332271438
 30
0.0
 11
53.21302226573073
 21
503.737374277869
 31
0.0
  0
LINE
  5
1724
330
1432
100
AcDbEntity
  8
BEM
 62
     0
370
    -2
100
AcDbLine
 10
346.2130222657309
 20
501.7373742778691
 30
0.0
 11
60.21302226573073
 21
501.7373742778691
 31
0.0
  0
SOLID
  5
1725
330
1432
100
AcDbEntity
  8
BEM
 62
     0
100
AcDbTrace
 10
346.2130222657309
 20
502.9040409445357
 30
0.0
 11
346.2130222657309
 21
500.5707076112024
 31
0.0
 12
353.2130222657309
 22
501.7373742778691
 32
0.0
 13
353.2130222657309
 23
501.7373742778691
 33
0.0
  0
SOLID
  5
1726
330
1432
100
AcDbEntity
  8
BEM
 62
     0
100
AcDbTrace
 10
60.21302226573073
 20
502.9040409445357
 30
0.0
 11
60.21302226573073
 21
500.5707076112024
 31
0.0
 12
53.21302226573073
 22
501.7373742778691
 32
0.0
 13
53.21302226573073
 23
501.7373742778691
 33
0.0
  0
MTEXT
  5
1727
330
1432
100
AcDbEntity
  8
BEM
 62
     1
100
AcDbMText
 10
203.2130222657308
 20
508.2373742778691
 30
0.0
 40
7.0
 41
0.0
 71
     5
 72
     1
  1
\A1;%%c300
 73
     1
 44
1.0
  0
POINT
  5
1728
330
1432
100
AcDbEntity
  8
DEFPOINTS
 62
     0
100
AcDbPoint
 10
353.2130222657309
 20
464.9168332271438
 30
0.0
  0
POINT
  5
1729
330
1432
100
AcDbEntity
  8
DEFPOINTS
 62
     0
100
AcDbPoint
 10
53.21302226573073
 20
464.9168332271438
 30
0.0
  0
POINT
  5
172A
330
1432
100
AcDbEntity
  8
DEFPOINTS
 62
     0
100
AcDbPoint
 10
53.21302226573073
 20
501.7373742778691
 30
0.0
  0
ENDBLK
  5
143D
330
1432
100
AcDbEntity
  8
0
100
AcDbBlockEnd
  0
BLOCK
  5
1499
330
148F
100
AcDbEntity
  8
0
100
AcDbBlockBegin
  2
*D5
 70
     1
 10
0.0
 20
0.0
 30
0.0
  3
*D5
  1

  0
LINE
  5
175B
330
148F
100
AcDbEntity
  8
BEM
 62
     0
370
    -2
100
AcDbLine
 10
51.21302226573073
 20
461.9168332271448
 30
0.0
 11
29.58043709291678
 21
461.9168332271448
 31
0.0
  0
LINE
  5
175C
330
148F
100
AcDbEntity
  8
BEM
 62
     0
370
    -2
100
AcDbLine
 10
51.21302226573115
 20
611.9168332271448
 30
0.0
 11
29.58043709291681
 21
611.9168332271448
 31
0.0
  0
LINE
  5
175D
330
148F
100
AcDbEntity
  8
BEM
 62
     0
370
    -2
100
AcDbLine
 10
31.58043709291678
 20
468.9168332271448
 30
0.0
 11
31.58043709291681
 21
604.9168332271448
 31
0.0
  0
SOLID
  5
175E
330
148F
100
AcDbEntity
  8
BEM
 62
     0
100
AcDbTrace
 10
30.41377042625011
 20
468.9168332271448
 30
0.0
 11
32.74710375958345
 21
468.9168332271448
 31
0.0
 12
31.58043709291678
 22
461.9168332271448
 32
0.0
 13
31.58043709291678
 23
461.9168332271448
 33
0.0
  0
SOLID
  5
175F
330
148F
100
AcDbEntity
  8
BEM
 62
     0
100
AcDbTrace
 10
30.41377042625014
 20
604.9168332271448
 30
0.0
 11
32.74710375958348
 21
604.9168332271448
 31
0.0
 12
31.58043709291681
 22
611.9168332271448
 32
0.0
 13
31.58043709291681
 23
611.9168332271448
 33
0.0
  0
MTEXT
  5
1760
330
148F
100
AcDbEntity
  8
BEM
 62
     1
100
AcDbMText
 10
25.08043709291671
 20
536.9168332271448
 30
0.0
 40
7.0
 41
0.0
 71
     5
 72
     1
  1
\A1;min.35 - max.200
 11
0.0000000000000001
 21
1.0
 31
0.0
 73
     1
 44
1.0
  0
POINT
  5
1761
330
148F
100
AcDbEntity
  8
DEFPOINTS
 62
     0
100
AcDbPoint
 10
53.21302226573073
 20
461.9168332271448
 30
0.0
  0
POINT
  5
1762
330
148F
100
AcDbEntity
  8
DEFPOINTS
 62
     0
100
AcDbPoint
 10
53.21302226573116
 20
611.9168332271448
 30
0.0
  0
POINT
  5
1763
330
148F
100
AcDbEntity
  8
DEFPOINTS
 62
     0
100
AcDbPoint
 10
31.58043709291681
 20
611.9168332271448
 30
0.0
  0
ENDBLK
  5
149A
330
148F
100
AcDbEntity
  8
0
100
AcDbBlockEnd
  0
BLOCK
  5
16E4
330
16DA
100
AcDbEntity
  8
0
100
AcDbBlockBegin
  2
*D6
 70
     1
 10
0.0
 20
0.0
 30
0.0
  3
*D6
  1

  0
LINE
  5
177F
330
16DA
100
AcDbEntity
  8
BEM
 62
     0
370
    -2
100
AcDbLine
 10
57.45297648059076
 20
458.9168332271444
 30
0.0
 11
44.52577193000895
 21
458.9168332271444
 31
0.0
  0
LINE
  5
1780
330
16DA
100
AcDbEntity
  8
BEM
 62
     0
370
    -2
100
AcDbLine
 10
121.2130222657306
 20
298.9168332271447
 30
0.0
 11
44.5257719300089
 21
298.9168332271447
 31
0.0
  0
LINE
  5
1781
330
16DA
100
AcDbEntity
  8
BEM
 62
     0
370
    -2
100
AcDbLine
 10
46.52577193000895
 20
451.9168332271444
 30
0.0
 11
46.52577193000892
 21
305.9168332271447
 31
0.0
  0
SOLID
  5
1782
330
16DA
100
AcDbEntity
  8
BEM
 62
     0
100
AcDbTrace
 10
45.35910526334228
 20
451.9168332271444
 30
0.0
 11
47.69243859667561
 21
451.9168332271444
 31
0.0
 12
46.52577193000895
 22
458.9168332271444
 32
0.0
 13
46.52577193000895
 23
458.9168332271444
 33
0.0
  0
SOLID
  5
1783
330
16DA
100
AcDbEntity
  8
BEM
 62
     0
100
AcDbTrace
 10
45.35910526334226
 20
305.9168332271447
 30
0.0
 11
47.69243859667558
 21
305.9168332271447
 31
0.0
 12
46.52577193000891
 22
298.9168332271447
 32
0.0
 13
46.52577193000891
 23
298.9168332271447
 33
0.0
  0
MTEXT
  5
1784
330
16DA
100
AcDbEntity
  8
BEM
 62
     1
100
AcDbMText
 10
40.02577193000887
 20
378.9168332271446
 30
0.0
 40
7.0
 41
0.0
 71
     5
 72
     1
  1
\A1;160
 11
0.0000000000000001
 21
1.0
 31
0.0
 73
     1
 44
1.0
  0
POINT
  5
1785
330
16DA
100
AcDbEntity
  8
DEFPOINTS
 62
     0
100
AcDbPoint
 10
59.45297648059076
 20
458.9168332271444
 30
0.0
  0
POINT
  5
1786
330
16DA
100
AcDbEntity
  8
DEFPOINTS
 62
     0
100
AcDbPoint
 10
123.2130222657306
 20
298.9168332271447
 30
0.0
  0
POINT
  5
1787
330
16DA
100
AcDbEntity
  8
DEFPOINTS
 62
     0
100
AcDbPoint
 10
46.52577193000891
 20
298.9168332271447
 30
0.0
  0
ENDBLK
  5
16E5
330
16DA
100
AcDbEntity
  8
0
100
AcDbBlockEnd
  0
BLOCK
  5
16F0
330
16E6
100
AcDbEntity
  8
0
100
AcDbBlockBegin
  2
*D7
 70
     1
 10
0.0
 20
0.0
 30
0.0
  3
*D7
  1

  0
LINE
  5
1751
330
16E6
100
AcDbEntity
  8
BEM
 62
     0
370
    -2
100
AcDbLine
 10
123.2130222657306
 20
296.9168332271447
 30
0.0
 11
123.2130222657306
 21
272.6240616971899
 31
0.0
  0
LINE
  5
1752
330
16E6
100
AcDbEntity
  8
BEM
 62
     0
370
    -2
100
AcDbLine
 10
283.2130222657306
 20
296.9168332271441
 30
0.0
 11
283.2130222657306
 21
272.6240616971899
 31
0.0
  0
LINE
  5
1753
330
16E6
100
AcDbEntity
  8
BEM
 62
     0
370
    -2
100
AcDbLine
 10
130.2130222657306
 20
274.6240616971899
 30
0.0
 11
276.2130222657306
 21
274.6240616971899
 31
0.0
  0
SOLID
  5
1754
330
16E6
100
AcDbEntity
  8
BEM
 62
     0
100
AcDbTrace
 10
130.2130222657306
 20
275.7907283638565
 30
0.0
 11
130.2130222657306
 21
273.4573950305232
 31
0.0
 12
123.2130222657306
 22
274.6240616971899
 32
0.0
 13
123.2130222657306
 23
274.6240616971899
 33
0.0
  0
SOLID
  5
1755
330
16E6
100
AcDbEntity
  8
BEM
 62
     0
100
AcDbTrace
 10
276.2130222657306
 20
275.7907283638565
 30
0.0
 11
276.2130222657306
 21
273.4573950305232
 31
0.0
 12
283.2130222657306
 22
274.6240616971899
 32
0.0
 13
283.2130222657306
 23
274.6240616971899
 33
0.0
  0
MTEXT
  5
1756
330
16E6
100
AcDbEntity
  8
BEM
 62
     1
100
AcDbMText
 10
203.2130222657306
 20
281.1240616971899
 30
0.0
 40
7.0
 41
0.0
 71
     5
 72
     1
  1
\A1;%%c160
 73
     1
 44
1.0
  0
POINT
  5
1757
330
16E6
100
AcDbEntity
  8
DEFPOINTS
 62
     0
100
AcDbPoint
 10
123.2130222657306
 20
298.9168332271447
 30
0.0
  0
POINT
  5
1758
330
16E6
100
AcDbEntity
  8
DEFPOINTS
 62
     0
100
AcDbPoint
 10
283.2130222657306
 20
298.9168332271441
 30
0.0
  0
POINT
  5
1759
330
16E6
100
AcDbEntity
  8
DEFPOINTS
 62
     0
100
AcDbPoint
 10
283.2130222657306
 20
274.6240616971899
 30
0.0
  0
ENDBLK
  5
16F1
330
16E6
100
AcDbEntity
  8
0
100
AcDbBlockEnd
  0
BLOCK
  5
16FC
330
16F2
100
AcDbEntity
  8
0
100
AcDbBlockBegin
  2
*D8
 70
     1
 10
0.0
 20
0.0
 30
0.0
  3
*D8
  1

  0
LINE
  5
1719
330
16F2
100
AcDbEntity
  8
BEM
 62
     0
370
    -2
100
AcDbLine
 10
108.2130222657306
 20
460.9168332271448
 30
0.0
 11
108.2130222657306
 21
490.5662306701486
 31
0.0
  0
LINE
  5
171A
330
16F2
100
AcDbEntity
  8
BEM
 62
     0
370
    -2
100
AcDbLine
 10
298.2130222657305
 20
460.9168332271434
 30
0.0
 11
298.2130222657305
 21
490.5662306701486
 31
0.0
  0
LINE
  5
171B
330
16F2
100
AcDbEntity
  8
BEM
 62
     0
370
    -2
100
AcDbLine
 10
115.2130222657306
 20
488.5662306701487
 30
0.0
 11
291.2130222657305
 21
488.5662306701487
 31
0.0
  0
SOLID
  5
171C
330
16F2
100
AcDbEntity
  8
BEM
 62
     0
100
AcDbTrace
 10
115.2130222657306
 20
489.7328973368153
 30
0.0
 11
115.2130222657306
 21
487.3995640034819
 31
0.0
 12
108.2130222657306
 22
488.5662306701487
 32
0.0
 13
108.2130222657306
 23
488.5662306701487
 33
0.0
  0
SOLID
  5
171D
330
16F2
100
AcDbEntity
  8
BEM
 62
     0
100
AcDbTrace
 10
291.2130222657305
 20
489.7328973368153
 30
0.0
 11
291.2130222657305
 21
487.3995640034819
 31
0.0
 12
298.2130222657305
 22
488.5662306701487
 32
0.0
 13
298.2130222657305
 23
488.5662306701487
 33
0.0
  0
MTEXT
  5
171E
330
16F2
100
AcDbEntity
  8
BEM
 62
     1
100
AcDbMText
 10
203.2130222657305
 20
495.0662306701486
 30
0.0
 40
7.0
 41
0.0
 71
     5
 72
     1
  1
\A1;%%c190
 73
     1
 44
1.0
  0
POINT
  5
171F
330
16F2
100
AcDbEntity
  8
DEFPOINTS
 62
     0
100
AcDbPoint
 10
108.2130222657306
 20
458.9168332271447
 30
0.0
  0
POINT
  5
1720
330
16F2
100
AcDbEntity
  8
DEFPOINTS
 62
     0
100
AcDbPoint
 10
298.2130222657305
 20
458.9168332271434
 30
0.0
  0
POINT
  5
1721
330
16F2
100
AcDbEntity
  8
DEFPOINTS
 62
     0
100
AcDbPoint
 10
298.2130222657305
 20
488.5662306701487
 30
0.0
  0
ENDBLK
  5
16FD
330
16F2
100
AcDbEntity
  8
0
100
AcDbBlockEnd
  0
BLOCK
  5
1B1B
330
1B11
100
AcDbEntity
  8
0
100
AcDbBlockBegin
  2
*D9
 70
     1
 10
0.0
 20
0.0
 30
0.0
  3
*D9
  1

  0
LINE
  5
1B77
330
1B11
100
AcDbEntity
  8
BEM
 62
     0
370
    -2
100
AcDbLine
 10
118.9736397209232
 20
652.9168332271439
 30
0.0
 11
41.86605417226402
 21
652.9168332271439
 31
0.0
  0
LINE
  5
1B78
330
1B11
100
AcDbEntity
  8
BEM
 62
     0
370
    -2
100
AcDbLine
 10
59.21302226573093
 20
617.916833227144
 30
0.0
 11
41.86605417226402
 21
617.916833227144
 31
0.0
  0
LINE
  5
1B79
330
1B11
100
AcDbEntity
  8
BEM
 62
     0
370
    -2
100
AcDbLine
 10
43.86605417226403
 20
645.9168332271438
 30
0.0
 11
43.86605417226403
 21
624.916833227144
 31
0.0
  0
SOLID
  5
1B7A
330
1B11
100
AcDbEntity
  8
BEM
 62
     0
100
AcDbTrace
 10
42.69938750559737
 20
645.9168332271438
 30
0.0
 11
45.0327208389307
 21
645.9168332271438
 31
0.0
 12
43.86605417226403
 22
652.9168332271439
 32
0.0
 13
43.86605417226403
 23
652.9168332271439
 33
0.0
  0
SOLID
  5
1B7B
330
1B11
100
AcDbEntity
  8
BEM
 62
     0
100
AcDbTrace
 10
42.69938750559737
 20
624.916833227144
 30
0.0
 11
45.0327208389307
 21
624.916833227144
 31
0.0
 12
43.86605417226403
 22
617.916833227144
 32
0.0
 13
43.86605417226403
 23
617.916833227144
 33
0.0
  0
MTEXT
  5
1B7C
330
1B11
100
AcDbEntity
  8
BEM
 62
     1
100
AcDbMText
 10
37.36605417226393
 20
635.416833227144
 30
0.0
 40
7.0
 41
0.0
 71
     5
 72
     1
  1
\A1;35
 11
0.0000000000000001
 21
1.0
 31
0.0
 73
     1
 44
1.0
  0
POINT
  5
1B7D
330
1B11
100
AcDbEntity
  8
DEFPOINTS
 62
     0
100
AcDbPoint
 10
120.9736397209232
 20
652.9168332271439
 30
0.0
  0
POINT
  5
1B7E
330
1B11
100
AcDbEntity
  8
DEFPOINTS
 62
     0
100
AcDbPoint
 10
61.21302226573092
 20
617.916833227144
 30
0.0
  0
POINT
  5
1B7F
330
1B11
100
AcDbEntity
  8
DEFPOINTS
 62
     0
100
AcDbPoint
 10
43.86605417226403
 20
617.916833227144
 30
0.0
  0
ENDBLK
  5
1B1C
330
1B11
100
AcDbEntity
  8
0
100
AcDbBlockEnd
  0
BLOCK
  5
1B27
330
1B1D
100
AcDbEntity
  8
0
100
AcDbBlockBegin
  2
*D10
 70
     1
 10
0.0
 20
0.0
 30
0.0
  3
*D10
  1

  0
LINE
  5
1B4A
330
1B1D
100
AcDbEntity
  8
BEM
 62
     0
370
    -2
100
AcDbLine
 10
53.22012904691746
 20
609.0381535707049
 30
0.0
 11
53.22012904691747
 21
752.7322406865267
 31
0.0
  0
LINE
  5
1B4B
330
1B1D
100
AcDbEntity
  8
BEM
 62
     0
370
    -2
100
AcDbLine
 10
353.2189936908453
 20
609.025075364404
 30
0.0
 11
353.2189936908453
 21
752.7322406865267
 31
0.0
  0
LINE
  5
1B4C
330
1B1D
100
AcDbEntity
  8
BEM
 62
     0
370
    -2
100
AcDbLine
 10
60.22012904691747
 20
750.7322406865267
 30
0.0
 11
346.2189936908453
 21
750.7322406865267
 31
0.0
  0
SOLID
  5
1B4D
330
1B1D
100
AcDbEntity
  8
BEM
 62
     0
100
AcDbTrace
 10
60.22012904691747
 20
751.8989073531933
 30
0.0
 11
60.22012904691747
 21
749.5655740198601
 31
0.0
 12
53.22012904691747
 22
750.7322406865267
 32
0.0
 13
53.22012904691747
 23
750.7322406865267
 33
0.0
  0
SOLID
  5
1B4E
330
1B1D
100
AcDbEntity
  8
BEM
 62
     0
100
AcDbTrace
 10
346.2189936908453
 20
751.8989073531933
 30
0.0
 11
346.2189936908453
 21
749.5655740198601
 31
0.0
 12
353.2189936908453
 22
750.7322406865267
 32
0.0
 13
353.2189936908453
 23
750.7322406865267
 33
0.0
  0
MTEXT
  5
1B4F
330
1B1D
100
AcDbEntity
  8
BEM
 62
     1
100
AcDbMText
 10
203.2195613688814
 20
757.2322406865268
 30
0.0
 40
7.0
 41
0.0
 71
     5
 72
     1
  1
\A1;%%c300
 73
     1
 44
1.0
  0
POINT
  5
1B50
330
1B1D
100
AcDbEntity
  8
DEFPOINTS
 62
     0
100
AcDbPoint
 10
53.22012904691746
 20
607.0381535707049
 30
0.0
  0
POINT
  5
1B51
330
1B1D
100
AcDbEntity
  8
DEFPOINTS
 62
     0
100
AcDbPoint
 10
353.2189936908453
 20
607.0250753644041
 30
0.0
  0
POINT
  5
1B52
330
1B1D
100
AcDbEntity
  8
DEFPOINTS
 62
     0
100
AcDbPoint
 10
353.2189936908453
 20
750.7322406865267
 30
0.0
  0
ENDBLK
  5
1B28
330
1B1D
100
AcDbEntity
  8
0
100
AcDbBlockEnd
  0
BLOCK
  5
1B33
330
1B29
100
AcDbEntity
  8
0
100
AcDbBlockBegin
  2
*D11
 70
     1
 10
0.0
 20
0.0
 30
0.0
  3
*D11
  1

  0
LINE
  5
1B6E
330
1B29
100
AcDbEntity
  8
BEM
 62
     0
370
    -2
100
AcDbLine
 10
59.21302226573093
 20
617.916833227144
 30
0.0
 11
29.31044430497042
 21
617.916833227144
 31
0.0
  0
LINE
  5
1B6F
330
1B29
100
AcDbEntity
  8
BEM
 62
     0
370
    -2
100
AcDbLine
 10
121.2130222657309
 20
727.9168332271432
 30
0.0
 11
29.31044430497045
 21
727.9168332271432
 31
0.0
  0
LINE
  5
1B70
330
1B29
100
AcDbEntity
  8
BEM
 62
     0
370
    -2
100
AcDbLine
 10
31.31044430497043
 20
624.916833227144
 30
0.0
 11
31.31044430497045
 21
720.9168332271432
 31
0.0
  0
SOLID
  5
1B71
330
1B29
100
AcDbEntity
  8
BEM
 62
     0
100
AcDbTrace
 10
30.14377763830376
 20
624.916833227144
 30
0.0
 11
32.4771109716371
 21
624.916833227144
 31
0.0
 12
31.31044430497043
 22
617.916833227144
 32
0.0
 13
31.31044430497043
 23
617.916833227144
 33
0.0
  0
SOLID
  5
1B72
330
1B29
100
AcDbEntity
  8
BEM
 62
     0
100
AcDbTrace
 10
30.14377763830378
 20
720.9168332271432
 30
0.0
 11
32.47711097163712
 21
720.9168332271432
 31
0.0
 12
31.31044430497045
 22
727.9168332271432
 32
0.0
 13
31.31044430497045
 23
727.9168332271432
 33
0.0
  0
MTEXT
  5
1B73
330
1B29
100
AcDbEntity
  8
BEM
 62
     1
100
AcDbMText
 10
24.81044430497033
 20
672.9168332271435
 30
0.0
 40
7.0
 41
0.0
 71
     5
 72
     1
  1
\A1;110
 11
0.0000000000000001
 21
1.0
 31
0.0
 73
     1
 44
1.0
  0
POINT
  5
1B74
330
1B29
100
AcDbEntity
  8
DEFPOINTS
 62
     0
100
AcDbPoint
 10
61.21302226573092
 20
617.916833227144
 30
0.0
  0
POINT
  5
1B75
330
1B29
100
AcDbEntity
  8
DEFPOINTS
 62
     0
100
AcDbPoint
 10
123.2130222657309
 20
727.9168332271432
 30
0.0
  0
POINT
  5
1B76
330
1B29
100
AcDbEntity
  8
DEFPOINTS
 62
     0
100
AcDbPoint
 10
31.31044430497045
 20
727.9168332271432
 30
0.0
  0
ENDBLK
  5
1B34
330
1B29
100
AcDbEntity
  8
0
100
AcDbBlockEnd
  0
BLOCK
  5
1B3F
330
1B35
100
AcDbEntity
  8
0
100
AcDbBlockBegin
  2
*D12
 70
     1
 10
0.0
 20
0.0
 30
0.0
  3
*D12
  1

  0
LINE
  5
1B5C
330
1B35
100
AcDbEntity
  8
BEM
 62
     0
370
    -2
100
AcDbLine
 10
93.21302226573093
 20
709.9167752598285
 30
0.0
 11
93.21302226573093
 21
738.9587720747271
 31
0.0
  0
LINE
  5
1B5D
330
1B35
100
AcDbEntity
  8
BEM
 62
     0
370
    -2
100
AcDbLine
 10
313.2130222657312
 20
709.9167752598285
 30
0.0
 11
313.2130222657312
 21
738.9587720747271
 31
0.0
  0
LINE
  5
1B5E
330
1B35
100
AcDbEntity
  8
BEM
 62
     0
370
    -2
100
AcDbLine
 10
100.2130222657309
 20
736.958772074727
 30
0.0
 11
306.2130222657312
 21
736.958772074727
 31
0.0
  0
SOLID
  5
1B5F
330
1B35
100
AcDbEntity
  8
BEM
 62
     0
100
AcDbTrace
 10
100.2130222657309
 20
738.1254387413937
 30
0.0
 11
100.2130222657309
 21
735.7921054080605
 31
0.0
 12
93.21302226573093
 22
736.958772074727
 32
0.0
 13
93.21302226573093
 23
736.958772074727
 33
0.0
  0
SOLID
  5
1B60
330
1B35
100
AcDbEntity
  8
BEM
 62
     0
100
AcDbTrace
 10
306.2130222657312
 20
738.1254387413937
 30
0.0
 11
306.2130222657312
 21
735.7921054080605
 31
0.0
 12
313.2130222657312
 22
736.958772074727
 32
0.0
 13
313.2130222657312
 23
736.958772074727
 33
0.0
  0
MTEXT
  5
1B61
330
1B35
100
AcDbEntity
  8
BEM
 62
     1
100
AcDbMText
 10
203.2130222657311
 20
743.4587720747271
 30
0.0
 40
7.0
 41
0.0
 71
     5
 72
     1
  1
\A1;%%c220
 73
     1
 44
1.0
  0
POINT
  5
1B62
330
1B35
100
AcDbEntity
  8
DEFPOINTS
 62
     0
100
AcDbPoint
 10
93.21302226573093
 20
707.9167752598285
 30
0.0
  0
POINT
  5
1B63
330
1B35
100
AcDbEntity
  8
DEFPOINTS
 62
     0
100
AcDbPoint
 10
313.2130222657312
 20
707.9167752598285
 30
0.0
  0
POINT
  5
1B64
330
1B35
100
AcDbEntity
  8
DEFPOINTS
 62
     0
100
AcDbPoint
 10
313.2130222657312
 20
736.958772074727
 30
0.0
  0
ENDBLK
  5
1B40
330
1B35
100
AcDbEntity
  8
0
100
AcDbBlockEnd
  0
ENDSEC
  0
SECTION
  2
ENTITIES
  0
LINE
  5
58
330
1E
100
AcDbEntity
  8
STEMPEL
100
AcDbLine
 10
484.0
 20
830.0000000000002
 30
0.0
 11
484.0
 21
470.0000000000001
 31
0.0
  0
LINE
  5
59
330
1E
100
AcDbEntity
  8
STEMPEL
100
AcDbLine
 10
484.0
 20
470.0000000000001
 30
0.0
 11
584.0
 21
470.0000000000001
 31
0.0
  0
LINE
  5
5A
330
1E
100
AcDbEntity
  8
STEMPEL
100
AcDbLine
 10
484.0000000000001
 20
566.0000000000002
 30
0.0
 11
584.0000000000001
 21
566.0
 31
0.0
  0
LINE
  5
5B
330
1E
100
AcDbEntity
  8
STEMPEL
100
AcDbLine
 10
484.0
 20
650.0
 30
0.0
 11
584.0
 21
650.0
 31
0.0
  0
LINE
  5
5C
330
1E
100
AcDbEntity
  8
STEMPEL
100
AcDbLine
 10
484.0000000000003
 20
752.0000000000002
 30
0.0
 11
554.0
 21
752.0000000000002
 31
0.0
  0
LINE
  5
5D
330
1E
100
AcDbEntity
  8
STEMPEL
100
AcDbLine
 10
564.0
 20
566.0
 30
0.0
 11
564.0
 21
470.0000000000001
 31
0.0
  0
LINE
  5
5E
330
1E
100
AcDbEntity
  8
STEMPEL
100
AcDbLine
 10
554.0
 20
830.0000000000002
 30
0.0
 11
554.0
 21
566.0
 31
0.0
  0
LINE
  5
5F
330
1E
100
AcDbEntity
  8
STEMPEL
100
AcDbLine
 10
514.0
 20
830.0000000000002
 30
0.0
 11
514.0
 21
566.0000000000002
 31
0.0
  0
LINE
  5
60
330
1E
100
AcDbEntity
  8
VOLL
100
AcDbLine
 10
484.0
 20
484.0000000000001
 30
0.0
 11
584.0
 21
484.0
 31
0.0
  0
LINE
  5
61
330
1E
100
AcDbEntity
  8
VOLL
100
AcDbLine
 10
484.0000000000001
 20
524.0000000000001
 30
0.0
 11
584.0000000000001
 21
524.0
 31
0.0
  0
LINE
  5
62
330
1E
100
AcDbEntity
  8
VOLL
100
AcDbLine
 10
484.0000000000001
 20
544.0000000000002
 30
0.0
 11
584.0000000000001
 21
544.0
 31
0.0
  0
LINE
  5
63
330
1E
100
AcDbEntity
  8
VOLL
100
AcDbLine
 10
514.0
 20
584.0000000000002
 30
0.0
 11
554.0
 21
584.0000000000002
 31
0.0
  0
LINE
  5
64
330
1E
100
AcDbEntity
  8
VOLL
100
AcDbLine
 10
484.0000000000002
 20
610.0000000000002
 30
0.0
 11
554.0
 21
610.0
 31
0.0
  0
LINE
  5
65
330
1E
100
AcDbEntity
  8
HILF
100
AcDbLine
 10
494.0
 20
470.0000000000001
 30
0.0
 11
494.0
 21
566.0000000000002
 31
0.0
  0
LINE
  5
66
330
1E
100
AcDbEntity
  8
HILF
100
AcDbLine
 10
504.0
 20
470.0000000000001
 30
0.0
 11
504.0
 21
566.0000000000002
 31
0.0
  0
LINE
  5
67
330
1E
100
AcDbEntity
  8
HILF
100
AcDbLine
 10
514.0
 20
470.0000000000001
 30
0.0
 11
514.0
 21
566.0000000000002
 31
0.0
  0
LINE
  5
68
330
1E
100
AcDbEntity
  8
HILF
100
AcDbLine
 10
524.0
 20
470.0000000000001
 30
0.0
 11
524.0
 21
566.0000000000002
 31
0.0
  0
LINE
  5
69
330
1E
100
AcDbEntity
  8
HILF
100
AcDbLine
 10
534.0
 20
470.0000000000001
 30
0.0
 11
534.0
 21
566.0000000000002
 31
0.0
  0
LINE
  5
6A
330
1E
100
AcDbEntity
  8
HILF
100
AcDbLine
 10
544.0
 20
470.0000000000001
 30
0.0
 11
544.0
 21
566.0000000000002
 31
0.0
  0
LINE
  5
6B
330
1E
100
AcDbEntity
  8
HILF
100
AcDbLine
 10
554.0
 20
470.0000000000001
 30
0.0
 11
554.0
 21
566.0000000000002
 31
0.0
  0
LINE
  5
6C
330
1E
100
AcDbEntity
  8
HILF
100
AcDbLine
 10
524.0
 20
566.0000000000002
 30
0.0
 11
524.0
 21
650.0
 31
0.0
  0
LINE
  5
6D
330
1E
100
AcDbEntity
  8
HILF
100
AcDbLine
 10
534.0
 20
566.0000000000002
 30
0.0
 11
534.0
 21
650.0
 31
0.0
  0
LINE
  5
6E
330
1E
100
AcDbEntity
  8
HILF
100
AcDbLine
 10
544.0
 20
566.0000000000002
 30
0.0
 11
544.0
 21
650.0
 31
0.0
  0
LINE
  5
6F
330
1E
100
AcDbEntity
  8
HILF
100
AcDbLine
 10
509.9624175243587
 20
654.7736801096948
 30
0.0
 11
509.9624175243587
 21
746.6297842514811
 31
0.0
  0
LINE
  5
70
330
1E
100
AcDbEntity
  8
HILF
100
AcDbLine
 10
524.0
 20
654.7736801096948
 30
0.0
 11
524.0
 21
746.6297842514811
 31
0.0
  0
LINE
  5
71
330
1E
100
AcDbEntity
  8
HILF
100
AcDbLine
 10
534.0
 20
654.7736801096948
 30
0.0
 11
534.0
 21
746.6297842514811
 31
0.0
  0
LINE
  5
72
330
1E
100
AcDbEntity
  8
HILF
100
AcDbLine
 10
544.0
 20
654.7736801096948
 30
0.0
 11
544.0
 21
746.6297842514811
 31
0.0
  0
LINE
  5
73
330
1E
100
AcDbEntity
  8
VOLL
100
AcDbLine
 10
534.0
 20
752.0000000000002
 30
0.0
 11
534.0
 21
830.0000000000002
 31
0.0
  0
LINE
  5
74
330
1E
100
AcDbEntity
  8
HILF
100
AcDbLine
 10
510.2201636304418
 20
756.7238616296995
 30
0.0
 11
510.2201636304418
 21
824.858883932673
 31
0.0
  0
LINE
  5
75
330
1E
100
AcDbEntity
  8
HILF
100
AcDbLine
 10
579.1060174197169
 20
654.7736801096948
 30
0.0
 11
579.1060174197169
 21
824.858883932673
 31
0.0
  0
TEXT
  5
76
330
1E
100
AcDbEntity
  8
TEXT
100
AcDbText
 10
575.3261810501587
 20
492.3998239263297
 30
0.0
 40
4.0
  1
Änderung
 50
90.0
 41
0.8
  7
GREEKS
 72
     1
 11
575.3261810501587
 21
503.1426810691868
 31
0.0
100
AcDbText
  0
TEXT
  5
78
330
1E
100
AcDbEntity
  8
TEXT
100
AcDbText
 10
491.5379104912911
 20
573.5163572150376
 30
0.0
 40
5.0
  1
Maßstab
 50
90.0
 41
0.8
  7
GREEKS
100
AcDbText
  0
TEXT
  5
79
330
1E
100
AcDbEntity
  8
TEXT
100
AcDbText
 10
491.4510671988221
 20
654.8779403809009
 30
0.0
 40
5.0
  1
Benennung
 50
90.0
 41
0.8
  7
GREEKS
100
AcDbText
  0
TEXT
  5
7A
330
1E
100
AcDbEntity
  8
TEXT
100
AcDbText
 10
491.6867965462863
 20
756.1787549576343
 30
0.0
 40
5.0
  1
Zeichnungs Nr.
 50
90.0
 41
0.8
  7
GREEKS
100
AcDbText
  0
TEXT
  5
7B
330
1E
100
AcDbEntity
  8
TEXT
100
AcDbText
 10
563.1543942980694
 20
654.7422383911359
 30
0.0
 40
5.0
  1
Bauvorhaben
 50
90.0
 41
0.8
  7
GREEKS
100
AcDbText
  0
TEXT
  5
7C
330
1E
100
AcDbEntity
  8
TEXT
100
AcDbText
 10
520.8188176290003
 20
756.7238616296995
 30
0.0
 40
5.0
  1
Ersatz für:
 50
90.0
 41
0.8
  7
GREEKS
100
AcDbText
  0
TEXT
  5
7D
330
1E
100
AcDbEntity
  8
TEXT
100
AcDbText
 10
580.3453415397281
 20
478.2664110704577
 30
0.0
 40
4.0
  1
Index
 50
180.0
 41
0.8
  7
GREEKS
100
AcDbText
  0
TEXT
  5
7E
330
1E
100
AcDbEntity
  8
TEXT
100
AcDbText
 10
575.3284373066019
 20
529.8990113186978
 30
0.0
 40
4.0
  1
Tag
 50
90.0
 41
0.8
  7
GREEKS
 72
     1
 11
575.3284373066019
 21
533.6323446520311
 31
0.0
100
AcDbText
  0
TEXT
  5
7F
330
1E
100
AcDbEntity
  8
TEXT
100
AcDbText
 10
575.4067578303359
 20
548.9795678138292
 30
0.0
 40
4.0
  1
Name
 50
90.0
 41
0.8
  7
GREEKS
 72
     1
 11
575.4067578303359
 21
555.3033773376387
 31
0.0
100
AcDbText
  0
TEXT
  5
80
330
1E
100
AcDbEntity
  8
TEXT
100
AcDbText
 10
520.6811949877008
 20
592.3311673153651
 30
0.0
 40
4.0
  1
Tag
 50
90.0
 41
0.8
  7
GREEKS
100
AcDbText
  0
TEXT
  5
81
330
1E
100
AcDbEntity
  8
TEXT
100
AcDbText
 10
520.6903890808478
 20
622.4626584226296
 30
0.0
 40
4.0
  1
Name
 50
90.0
 41
0.8
  7
GREEKS
100
AcDbText
  0
TEXT
  5
82
330
1E
100
AcDbEntity
  8
TEXT
100
AcDbText
 10
530.3700963038204
 20
567.5836127167615
 30
0.0
 40
4.0
  1
Gez.
 50
90.0
 41
0.8
  7
GREEKS
100
AcDbText
  0
TEXT
  5
83
330
1E
100
AcDbEntity
  8
TEXT
100
AcDbText
 10
540.3107370857163
 20
567.5515086571672
 30
0.0
 40
4.0
  1
Gepr.
 50
90.0
 41
0.8
  7
GREEKS
100
AcDbText
  0
TEXT
  5
84
330
1E
100
AcDbEntity
  8
TEXT
100
AcDbText
 10
550.470536103502
 20
567.6006777387303
 30
0.0
 40
4.0
  1
Norm.
 50
90.0
 41
0.8
  7
GREEKS
100
AcDbText
  0
TEXT
  5
85
330
1E
100
AcDbEntity
  8
TEXT
100
AcDbText
 10
541.925838221214
 20
757.2400861497007
 30
0.0
 40
5.0
  1
ersetzt durch:
 50
90.0
 41
0.8
  7
GREEKS
100
AcDbText
  0
TEXT
  5
86
330
1E
100
AcDbEntity
  8
TEXT
100
AcDbText
 10
521.0331740347627
 20
568.8693027807324
 30
0.0
 40
4.0
  1
2010
 50
90.0
 41
0.8
  7
GREEKS
100
AcDbText
  0
LINE
  5
87
330
1E
100
AcDbEntity
  8
HILF
100
AcDbLine
 10
594.0
 20
-0.0000000000000568
 30
0.0
 11
594.0
 21
840.0
 31
0.0
  0
LINE
  5
88
330
1E
100
AcDbEntity
  8
HILF
100
AcDbLine
 10
594.0
 20
840.0
 30
0.0
 11
0.0
 21
840.0
 31
0.0
  0
LINE
  5
89
330
1E
100
AcDbEntity
  8
HILF
100
AcDbLine
 10
0.0
 20
840.0
 30
0.0
 11
0.0
 21
0.0
 31
0.0
  0
LINE
  5
8B
330
1E
100
AcDbEntity
  8
STEMPEL
100
AcDbLine
 10
10.0
 20
830.0
 30
0.0
 11
10.0
 21
39.99999999999995
 31
0.0
  0
LINE
  5
8D
330
1E
100
AcDbEntity
  8
STEMPEL
100
AcDbLine
 10
584.0
 20
39.99999999999995
 30
0.0
 11
584.0
 21
830.0
 31
0.0
  0
LINE
  5
8E
330
1E
100
AcDbEntity
  8
STEMPEL
100
AcDbLine
 10
584.0
 20
830.0
 30
0.0
 11
10.0
 21
830.0
 31
0.0
  0
TEXT
  5
8F
330
1E
100
AcDbEntity
  8
TEXT
 62
     1
100
AcDbText
 10
506.6265692434746
 20
655.0390572473189
 30
0.0
 40
7.0
  1
Drainlet-Notablauf DN100
 50
90.0
 41
0.65
  7
GREEKS
100
AcDbText
  0
TEXT
  5
90
330
1E
100
AcDbEntity
  8
TEXT
 62
     1
100
AcDbText
 10
506.6265692434746
 20
767.1961422184136
 30
0.0
 40
7.0
  1
21723100W
 50
90.0
 41
0.8
  7
GREEKS
 72
     1
 11
506.6265692434746
 21
790.1294755517469
 31
0.0
100
AcDbText
  0
TEXT
  5
91
330
1E
100
AcDbEntity
  8
TEXT
100
AcDbText
 10
491.16010388621
 20
618.5090226415829
 30
0.0
 40
5.0
  1
Zul.Abw.
 50
90.0
 41
0.8
  7
GREEKS
100
AcDbText
  0
TEXT
  5
93
330
1E
100
AcDbEntity
  8
TEXT
100
AcDbText
 10
530.8491412387978
 20
590.7660475607107
 30
0.0
 40
4.0
  1
14.12.
 50
90.0
 41
0.8
  7
GREEKS
 72
     1
 11
530.8491412387978
 21
597.1660475607107
 31
0.0
100
AcDbText
  0
TEXT
  5
94
330
1E
100
AcDbEntity
  8
TEXT
100
AcDbText
 10
531.0570234483452
 20
624.0231753226609
 30
0.0
 40
4.0
  1
Koeh
 50
90.0
 41
0.8
  7
GREEKS
 72
     1
 11
531.0570234483452
 21
629.2803181798038
 31
0.0
100
AcDbText
  0
TEXT
  5
95
330
1E
100
AcDbEntity
  8
TEXT
100
AcDbText
 10
521.8997861689246
 20
654.3410940884991
 30
0.0
 40
5.0
  1
Kompletteinheit mit Wärmedämmung
 50
90.0
 41
0.65
  7
GREEKS
100
AcDbText
  0
TEXT
  5
96
330
1E
100
AcDbEntity
  8
TEXT
100
AcDbText
 10
531.6544091479096
 20
654.3410940884991
 30
0.0
 40
5.0
  1

 50
90.0
 41
0.8
  7
GREEKS
100
AcDbText
  0
TEXT
  5
97
330
1E
100
AcDbEntity
  8
TEXT
100
AcDbText
 10
541.4090266215394
 20
654.3410940884991
 30
0.0
 40
5.0
  1
EDV-Art.Nr. 21723.100X
 50
90.0
 41
0.8
  7
GREEKS
100
AcDbText
  0
TEXT
  5
98
330
1E
100
AcDbEntity
  8
TEXT
100
AcDbText
 10
550.6887237520849
 20
654.1676050109347
 30
0.0
 40
4.0
  1
21723100W.DWG
 50
90.0
 41
0.8
  7
GREEKS
100
AcDbText
  0
TEXT
  5
99
330
1E
100
AcDbEntity
  8
TEXT
 62
     1
100
AcDbText
 10
506.5292291158502
 20
582.703491203422
 30
0.0
 40
7.0
  1
1:2
 50
90.0
 41
0.8
  7
GREEKS
100
AcDbText
  0
TEXT
  5
9A
330
1E
100
AcDbEntity
  8
TEXT
100
AcDbText
 10
479.8856414948956
 20
470.0441139350127
 30
0.0
 40
5.0
  1
Erstellt mit AUTOCAD 2004
 50
90.0
 41
0.8
  7
GREEKS
100
AcDbText
  0
INSERT
  5
9B
330
1E
100
AcDbEntity
  8
HILF
100
AcDbBlockReference
  2
LORO
 10
557.0194069970104
 20
573.0624985962354
 30
0.0
 41
2.0
 42
2.0
 43
2.0
 50
90.0
  0
LINE
  5
9C
330
1E
100
AcDbEntity
  8
BEM
100
AcDbLine
 10
594.0
 20
455.9999999999999
 30
0.0
 11
584.0
 21
455.9999999999999
 31
0.0
  0
LINE
  5
13E
330
1E
100
AcDbEntity
  8
HILF
100
AcDbLine
 10
594.0
 20
-0.0000000000000568
 30
0.0
 11
0.0
 21
0.0
 31
0.0
  0
LINE
  5
13F
330
1E
100
AcDbEntity
  8
STEMPEL
100
AcDbLine
 10
584.0
 20
39.99999999999995
 30
0.0
 11
10.0
 21
39.99999999999995
 31
0.0
  0
LINE
  5
14A
330
1E
100
AcDbEntity
  8
HILF
100
AcDbLine
 10
297.0
 20
-0.0000000000000568
 30
0.0
 11
297.0
 21
39.99999999999995
 31
0.0
  0
TEXT
  5
15B
330
1E
100
AcDbEntity
  8
BEM
100
AcDbText
 10
583.8320989200114
 20
837.3022923857165
 30
0.0
 40
4.0
  1
Diese Zeichnung ist urheberrechtlich geschützt und bleibt unser Eigentum. Sie darf weder ganz noch teilweise verfielfältigt und nicht an Dritte weitergegeben werden.
 50
180.0
 41
0.8
  7
GREEKS
100
AcDbText
  0
LINE
  5
19C
330
1E
100
AcDbEntity
  8
BEM
100
AcDbLine
 10
0.0
 20
455.9999999999999
 30
0.0
 11
10.0
 21
455.9999999999999
 31
0.0
  0
TEXT
  5
663
330
1E
100
AcDbEntity
  8
TEXT
100
AcDbText
 10
504.5307583482736
 20
612.2898419893275
 30
0.0
 40
4.0
  1
DIN EN1124-3
 50
90.0
 41
0.8
  7
GREEKS
 72
     1
 11
504.5307583482736
 21
629.2803181798038
 31
0.0
100
AcDbText
  0
TEXT
  5
998
330
1E
100
AcDbEntity
  8
TEXT
 62
     1
100
AcDbText
 10
197.7896183724508
 20
542.3832455901031
 30
0.0
 40
7.0
  1
DN100
 50
90.0
 41
0.8
  7
GREEKS
 72
     1
 11
197.7896183724508
 21
554.7832455901031
 31
0.0
100
AcDbText
  0
TEXT
  5
B55
330
1E
100
AcDbEntity
  8
TEXT
 62
     1
100
AcDbText
 10
278.9905451242604
 20
796.0040756370903
 30
0.0
 40
7.0
  1
EDV-Art.Nr. 21007.000X
 41
0.8
  7
GREEKS
100
AcDbText
  0
LINE
  5
B56
330
1E
100
AcDbEntity
  8
TEXT
 62
     2
100
AcDbLine
 10
277.6391759760842
 20
806.5177545241942
 30
0.0
 11
385.942780700596
 21
806.5177545241942
 31
0.0
  0
TEXT
  5
B57
330
1E
100
AcDbEntity
  8
TEXT
 62
     1
100
AcDbText
 10
278.9905451242604
 20
809.6804161548257
 30
0.0
 40
7.0
  1
Siebkorb
 41
0.8
  7
GREEKS
100
AcDbText
  0
LINE
  5
B58
330
1E
100
AcDbEntity
  8
TEXT
 62
     2
100
AcDbLine
 10
263.2538240398357
 20
753.1756027148203
 30
0.0
 11
277.6391759760842
 21
806.5177545241942
 31
0.0
  0
LINE
  5
B59
330
1E
100
AcDbEntity
  8
TEXT
 62
     2
100
AcDbLine
 10
259.6799218226382
 20
739.9232585617907
 30
0.0
 11
261.9709096375621
 21
748.4184431327824
 31
0.0
  0
LINE
  5
B5A
330
1E
100
AcDbEntity
  8
TEXT
 62
     2
100
AcDbLine
 10
256.3396961803198
 20
727.5374077268771
 30
0.0
 11
258.2888673076444
 21
734.7651059185495
 31
0.0
  0
TEXT
  5
B6D
330
1E
100
AcDbEntity
  8
TEXT
 62
     1
100
AcDbText
 10
359.034151909536
 20
577.1914619762936
 30
0.0
 40
7.0
  1
EDV-Art.Nr. 21907.100X
 41
0.8
100
AcDbText
  0
LINE
  5
B6E
330
1E
100
AcDbEntity
  8
TEXT
 62
     2
100
AcDbLine
 10
464.3773606059148
 20
586.4839587840927
 30
0.0
 11
358.4387960307816
 21
586.4839587840927
 31
0.0
  0
TEXT
  5
B6F
330
1E
100
AcDbEntity
  8
TEXT
 62
     1
100
AcDbText
 10
359.034151909536
 20
589.9677929450032
 30
0.0
 40
7.0
  1
Losflansch DN100
 41
0.8
100
AcDbText
  0
LINE
  5
B70
330
1E
100
AcDbEntity
  8
TEXT
 62
     2
100
AcDbLine
 10
358.4387960307816
 20
586.4839587840927
 30
0.0
 11
334.7102692623561
 21
621.9543775210546
 31
0.0
  0
LINE
  5
B74
330
1E
100
AcDbEntity
  8
TEXT
 62
     2
100
AcDbLine
 10
341.56988059094
 20
549.4242558697703
 30
0.0
 11
289.1411163754282
 21
613.6109899647041
 31
0.0
  0
TEXT
  5
B76
330
1E
100
AcDbEntity
  8
TEXT
 62
     1
100
AcDbText
 10
335.9034952369845
 20
521.2407102236701
 30
0.0
 40
7.0
  1
Ablaufkörper DN100
 41
0.8
  7
GREEKS
100
AcDbText
  0
LINE
  5
B77
330
1E
100
AcDbEntity
  8
TEXT
 62
     2
100
AcDbLine
 10
334.8228088381473
 20
517.6279419514763
 30
0.0
 11
254.1242349355163
 21
531.6504424042792
 31
0.0
  0
LINE
  5
B78
330
1E
100
AcDbEntity
  8
TEXT
 62
     2
100
AcDbLine
 10
440.9467034458251
 20
517.6279419514766
 30
0.0
 11
334.8228088381473
 21
517.6279419514763
 31
0.0
  0
TEXT
  5
B79
330
1E
100
AcDbEntity
  8
TEXT
 62
     1
100
AcDbText
 10
335.7229399428323
 20
508.1929380766909
 30
0.0
 40
7.0
  1
EDV-Art.Nr. 21981.100X
 41
0.8
  7
GREEKS
100
AcDbText
  0
TEXT
  5
BB1
330
1E
100
AcDbEntity
  8
TEXT
 62
     1
100
AcDbText
 10
348.2957072912852
 20
552.4107963618233
 30
0.0
 40
7.0
  1
Kompressionsdichtung
 41
0.8
100
AcDbText
  0
TEXT
  5
BB2
330
1E
100
AcDbEntity
  8
TEXT
 62
     1
100
AcDbText
 10
348.6516662941219
 20
538.8727830567749
 30
0.0
 40
7.0
  1
EDV-Art.Nr. 21810.125X
 41
0.8
100
AcDbText
  0
LINE
  5
BB3
330
1E
100
AcDbEntity
  8
TEXT
 62
     2
100
AcDbLine
 10
341.56988059094
 20
549.4242558697703
 30
0.0
 11
453.0996219253428
 21
549.4242558697703
 31
0.0
  0
LINE
  5
DCE
330
1E
100
AcDbEntity
  8
STEMPEL
100
AcDbLine
 10
59.75566295285034
 20
611.9168332271449
 30
0.0
 11
346.670381578613
 21
611.9168332271438
 31
0.0
  0
ARC
  5
DDB
330
1E
100
AcDbEntity
  8
STEMPEL
100
AcDbCircle
 10
185.4063844380803
 20
729.4168332271436
 30
0.0
 40
1.5
100
AcDbArc
 50
270.0
 51
330.0000000000076
  0
ARC
  5
DDC
330
1E
100
AcDbEntity
  8
STEMPEL
100
AcDbCircle
 10
185.4063844380803
 20
729.4168332271436
 30
0.0
 40
2.5
100
AcDbArc
 50
270.0
 51
330.0000000000076
  0
ARC
  5
DDD
330
1E
100
AcDbEntity
  8
STEMPEL
100
AcDbCircle
 10
188.004460649434
 20
727.9168332271435
 30
0.0
 40
1.5
100
AcDbArc
 50
90.0
 51
150.0000000000075
  0
LINE
  5
DE8
330
1E
100
AcDbEntity
  8
STEMPEL
100
AcDbLine
 10
123.2130222657312
 20
726.9168332271431
 30
0.0
 11
283.2130222657314
 21
726.916833227144
 31
0.0
  0
LINE
  5
DEB
330
1E
100
AcDbEntity
  8
STEMPEL
100
AcDbLine
 10
180.5494606494341
 20
729.4168332271436
 30
0.0
 11
226.0544606494339
 21
729.4168332271436
 31
0.0
  0
ARC
  5
E83
330
1E
100
AcDbEntity
  8
STEMPEL
100
AcDbCircle
 10
123.2130222657312
 20
721.9168332271435
 30
0.0
 40
5.0
100
AcDbArc
 50
90.0
 51
120.5373500483005
  0
ARC
  5
E84
330
1E
100
AcDbEntity
  8
STEMPEL
100
AcDbCircle
 10
123.2130222657312
 20
721.9168332271435
 30
0.0
 40
6.0
100
AcDbArc
 50
90.0
 51
120.5128743276197
  0
LINE
  5
E8A
330
1E
100
AcDbEntity
  8
STEMPEL
100
AcDbLine
 10
123.2130222657312
 20
727.9168332271431
 30
0.0
 11
177.9513844380806
 21
727.9168332271435
 31
0.0
  0
ARC
  5
E8B
330
1E
100
AcDbEntity
  8
STEMPEL
100
AcDbCircle
 10
123.2130222657312
 20
721.9168332271435
 30
0.0
 40
6.0
100
AcDbArc
 50
90.0
 51
90.0
  0
ARC
  5
E8C
330
1E
100
AcDbEntity
  8
STEMPEL
100
AcDbCircle
 10
177.9513844380806
 20
729.4168332271436
 30
0.0
 40
2.5
100
AcDbArc
 50
270.0
 51
330.0000000000003
  0
ARC
  5
E8D
330
1E
100
AcDbEntity
  8
STEMPEL
100
AcDbCircle
 10
177.9513844380806
 20
729.4168332271436
 30
0.0
 40
1.5
100
AcDbArc
 50
270.0
 51
330.0000000000003
  0
ARC
  5
E8E
330
1E
100
AcDbEntity
  8
STEMPEL
100
AcDbCircle
 10
183.3475368607879
 20
729.4168332271436
 30
0.0
 40
2.5
100
AcDbArc
 50
209.9999999999925
 51
270.0
  0
ARC
  5
E8F
330
1E
100
AcDbEntity
  8
STEMPEL
100
AcDbCircle
 10
183.3475368607879
 20
729.4168332271436
 30
0.0
 40
1.5
100
AcDbArc
 50
209.9999999999925
 51
270.0
  0
ARC
  5
E90
330
1E
100
AcDbEntity
  8
STEMPEL
100
AcDbCircle
 10
180.5494606494341
 20
727.9168332271435
 30
0.0
 40
0.5
100
AcDbArc
 50
90.0
 51
149.9999999999994
  0
LINE
  5
E91
330
1E
100
AcDbEntity
  8
STEMPEL
100
AcDbLine
 10
180.5494606494341
 20
728.4168332271435
 30
0.0
 11
180.7494606494341
 21
728.4168332271435
 31
0.0
  0
ARC
  5
E92
330
1E
100
AcDbEntity
  8
STEMPEL
100
AcDbCircle
 10
180.7494606494341
 20
727.9168332271435
 30
0.0
 40
0.5
100
AcDbArc
 50
29.99999999999973
 51
90.0
  0
ARC
  5
E93
330
1E
100
AcDbEntity
  8
STEMPEL
100
AcDbCircle
 10
180.7494606494341
 20
727.9168332271435
 30
0.0
 40
1.5
100
AcDbArc
 50
29.99999999999246
 51
90.0
  0
ARC
  5
E94
330
1E
100
AcDbEntity
  8
STEMPEL
100
AcDbCircle
 10
180.5494606494341
 20
727.9168332271435
 30
0.0
 40
1.5
100
AcDbArc
 50
90.0
 51
150.0000000000002
  0
LINE
  5
E95
330
1E
100
AcDbEntity
  8
STEMPEL
100
AcDbLine
 10
183.3475368607879
 20
727.9168332271435
 30
0.0
 11
185.4063844380803
 21
727.9168332271435
 31
0.0
  0
LINE
  5
E96
330
1E
100
AcDbEntity
  8
STEMPEL
100
AcDbLine
 10
183.3475368607879
 20
727.9168332271435
 30
0.0
 11
185.4063844380803
 21
727.9168332271435
 31
0.0
  0
LINE
  5
E99
330
1E
100
AcDbEntity
  8
MITTEL
100
AcDbLine
 10
203.2130222657313
 20
734.4168332271435
 30
0.0
 11
203.2130222657308
 21
512.3002058519921
 31
0.0
  0
LINE
  5
F29
330
1E
100
AcDbEntity
  8
STEMPEL
100
AcDbLine
 10
228.652536860788
 20
727.9168332271435
 30
0.0
 11
283.2130222657314
 21
727.916833227144
 31
0.0
  0
LINE
  5
F2A
330
1E
100
AcDbEntity
  8
STEMPEL
100
AcDbLine
 10
216.8025368607875
 20
727.9168332271435
 30
0.0
 11
223.2563844380816
 21
727.9168332271435
 31
0.0
  0
LINE
  5
F2B
330
1E
100
AcDbEntity
  8
STEMPEL
100
AcDbLine
 10
216.8025368607875
 20
727.9168332271435
 30
0.0
 11
223.2563844380816
 21
727.9168332271435
 31
0.0
  0
LINE
  5
F2C
330
1E
100
AcDbEntity
  8
STEMPEL
100
AcDbLine
 10
199.8544606494339
 20
728.4168332271435
 30
0.0
 11
209.9427281106275
 21
728.4168332271435
 31
0.0
  0
LINE
  5
F2D
330
1E
100
AcDbEntity
  8
STEMPEL
100
AcDbLine
 10
190.802536860787
 20
727.9168332271435
 30
0.0
 11
197.2563844380812
 21
727.9168332271435
 31
0.0
  0
LINE
  5
F2E
330
1E
100
AcDbEntity
  8
STEMPEL
100
AcDbLine
 10
190.802536860787
 20
727.9168332271435
 30
0.0
 11
197.2563844380812
 21
727.9168332271435
 31
0.0
  0
ARC
  5
F2F
330
1E
100
AcDbEntity
  8
STEMPEL
100
AcDbCircle
 10
190.802536860787
 20
729.4168332271436
 30
0.0
 40
2.5
100
AcDbArc
 50
210.0000000000005
 51
270.0
  0
ARC
  5
F30
330
1E
100
AcDbEntity
  8
STEMPEL
100
AcDbCircle
 10
190.802536860787
 20
729.4168332271436
 30
0.0
 40
1.5
100
AcDbArc
 50
210.0000000000005
 51
270.0
  0
ARC
  5
F31
330
1E
100
AcDbEntity
  8
STEMPEL
100
AcDbCircle
 10
188.004460649434
 20
727.9168332271435
 30
0.0
 40
0.5
100
AcDbArc
 50
90.0
 51
150.0000000000075
  0
LINE
  5
F32
330
1E
100
AcDbEntity
  8
STEMPEL
100
AcDbLine
 10
188.004460649434
 20
728.4168332271435
 30
0.0
 11
188.204460649434
 21
728.4168332271435
 31
0.0
  0
ARC
  5
F33
330
1E
100
AcDbEntity
  8
STEMPEL
100
AcDbCircle
 10
188.204460649434
 20
727.9168332271435
 30
0.0
 40
0.5
100
AcDbArc
 50
30.00000000000055
 51
90.0
  0
ARC
  5
F34
330
1E
100
AcDbEntity
  8
STEMPEL
100
AcDbCircle
 10
188.204460649434
 20
727.9168332271435
 30
0.0
 40
1.5
100
AcDbArc
 50
30.00000000000055
 51
90.0
  0
ARC
  5
F35
330
1E
100
AcDbEntity
  8
STEMPEL
100
AcDbCircle
 10
197.2563844380812
 20
729.4168332271436
 30
0.0
 40
2.5
100
AcDbArc
 50
270.0
 51
329.999999999993
  0
ARC
  5
F36
330
1E
100
AcDbEntity
  8
STEMPEL
100
AcDbCircle
 10
199.8544606494339
 20
727.9168332271435
 30
0.0
 40
1.5
100
AcDbArc
 50
90.0
 51
149.999999999993
  0
ARC
  5
F37
330
1E
100
AcDbEntity
  8
STEMPEL
100
AcDbCircle
 10
197.2563844380812
 20
729.4168332271436
 30
0.0
 40
1.5
100
AcDbArc
 50
270.0
 51
329.999999999993
  0
ARC
  5
F38
330
1E
100
AcDbEntity
  8
STEMPEL
100
AcDbCircle
 10
199.8544606494339
 20
727.9168332271435
 30
0.0
 40
0.5
100
AcDbArc
 50
90.0
 51
149.999999999993
  0
ARC
  5
F39
330
1E
100
AcDbEntity
  8
STEMPEL
100
AcDbCircle
 10
211.8792197837308
 20
728.4168332271435
 30
0.0
 40
1.5
100
AcDbArc
 50
194.4775121859299
 51
270.0
  0
ARC
  5
F3A
330
1E
100
AcDbEntity
  8
STEMPEL
100
AcDbCircle
 10
211.8792197837308
 20
728.4168332271435
 30
0.0
 40
0.5
100
AcDbArc
 50
194.4775121859299
 51
270.0
  0
ARC
  5
F3B
330
1E
100
AcDbEntity
  8
STEMPEL
100
AcDbCircle
 10
209.9427281106275
 20
727.9168332271435
 30
0.0
 40
1.5
100
AcDbArc
 50
14.47751218592986
 51
90.0
  0
ARC
  5
F3C
330
1E
100
AcDbEntity
  8
STEMPEL
100
AcDbCircle
 10
209.9427281106275
 20
727.9168332271435
 30
0.0
 40
0.5
100
AcDbArc
 50
14.47751218592986
 51
90.0
  0
ARC
  5
F3D
330
1E
100
AcDbEntity
  8
STEMPEL
100
AcDbCircle
 10
214.2044606494341
 20
727.9168332271435
 30
0.0
 40
1.5
100
AcDbArc
 50
29.99999999999973
 51
90.0
  0
ARC
  5
F3E
330
1E
100
AcDbEntity
  8
STEMPEL
100
AcDbCircle
 10
216.8025368607875
 20
729.4168332271436
 30
0.0
 40
2.5
100
AcDbArc
 50
209.9999999999997
 51
270.0
  0
ARC
  5
F3F
330
1E
100
AcDbEntity
  8
STEMPEL
100
AcDbCircle
 10
216.8025368607875
 20
729.4168332271436
 30
0.0
 40
1.5
100
AcDbArc
 50
209.9999999999997
 51
270.0
  0
ARC
  5
F40
330
1E
100
AcDbEntity
  8
STEMPEL
100
AcDbCircle
 10
212.06796897633
 20
728.4168332271435
 30
0.0
 40
1.5
100
AcDbArc
 50
270.0
 51
345.5224878140701
  0
ARC
  5
F41
330
1E
100
AcDbEntity
  8
STEMPEL
100
AcDbCircle
 10
214.004460649434
 20
727.9168332271435
 30
0.0
 40
1.5
100
AcDbArc
 50
90.0
 51
165.5224878140701
  0
ARC
  5
F42
330
1E
100
AcDbEntity
  8
STEMPEL
100
AcDbCircle
 10
212.06796897633
 20
728.4168332271435
 30
0.0
 40
0.5
100
AcDbArc
 50
270.0
 51
345.5224878140701
  0
LINE
  5
F43
330
1E
100
AcDbEntity
  8
STEMPEL
100
AcDbLine
 10
211.8792197837308
 20
727.9168332271435
 30
0.0
 11
212.06796897633
 21
727.9168332271435
 31
0.0
  0
ARC
  5
F44
330
1E
100
AcDbEntity
  8
STEMPEL
100
AcDbCircle
 10
214.004460649434
 20
727.9168332271435
 30
0.0
 40
0.5
100
AcDbArc
 50
90.0
 51
165.5224878140701
  0
LINE
  5
F45
330
1E
100
AcDbEntity
  8
STEMPEL
100
AcDbLine
 10
214.004460649434
 20
728.4168332271435
 30
0.0
 11
214.2044606494341
 21
728.4168332271435
 31
0.0
  0
ARC
  5
F46
330
1E
100
AcDbEntity
  8
STEMPEL
100
AcDbCircle
 10
214.2044606494341
 20
727.9168332271435
 30
0.0
 40
0.5
100
AcDbArc
 50
29.99999999999973
 51
90.0
  0
ARC
  5
F47
330
1E
100
AcDbEntity
  8
STEMPEL
100
AcDbCircle
 10
228.652536860788
 20
729.4168332271436
 30
0.0
 40
2.5
100
AcDbArc
 50
209.9999999999925
 51
270.0
  0
ARC
  5
F48
330
1E
100
AcDbEntity
  8
STEMPEL
100
AcDbCircle
 10
228.652536860788
 20
729.4168332271436
 30
0.0
 40
1.5
100
AcDbArc
 50
209.9999999999925
 51
270.0
  0
ARC
  5
F49
330
1E
100
AcDbEntity
  8
STEMPEL
100
AcDbCircle
 10
223.2563844380816
 20
729.4168332271436
 30
0.0
 40
1.5
100
AcDbArc
 50
270.0
 51
329.9999999999922
  0
ARC
  5
F4A
330
1E
100
AcDbEntity
  8
STEMPEL
100
AcDbCircle
 10
223.2563844380816
 20
729.4168332271436
 30
0.0
 40
2.5
100
AcDbArc
 50
270.0
 51
329.9999999999922
  0
ARC
  5
F4B
330
1E
100
AcDbEntity
  8
STEMPEL
100
AcDbCircle
 10
225.8544606494339
 20
727.9168332271435
 30
0.0
 40
1.5
100
AcDbArc
 50
90.0
 51
149.9999999999922
  0
ARC
  5
F4C
330
1E
100
AcDbEntity
  8
STEMPEL
100
AcDbCircle
 10
225.8544606494339
 20
727.9168332271435
 30
0.0
 40
0.5
100
AcDbArc
 50
90.0
 51
149.9999999999922
  0
LINE
  5
F4D
330
1E
100
AcDbEntity
  8
STEMPEL
100
AcDbLine
 10
225.8544606494339
 20
728.4168332271435
 30
0.0
 11
226.0544606494339
 21
728.4168332271435
 31
0.0
  0
ARC
  5
F4E
330
1E
100
AcDbEntity
  8
STEMPEL
100
AcDbCircle
 10
226.0544606494339
 20
727.9168332271435
 30
0.0
 40
0.5
100
AcDbArc
 50
29.99999999999246
 51
90.0
  0
ARC
  5
F4F
330
1E
100
AcDbEntity
  8
STEMPEL
100
AcDbCircle
 10
226.0544606494339
 20
727.9168332271435
 30
0.0
 40
1.5
100
AcDbArc
 50
29.99999999999246
 51
90.0
  0
ARC
  5
F50
330
1E
100
AcDbEntity
  8
STEMPEL
100
AcDbCircle
 10
283.2130222657314
 20
721.9168332271435
 30
0.0
 40
5.0
100
AcDbArc
 50
59.46264995169952
 51
90.0
  0
ARC
  5
F51
330
1E
100
AcDbEntity
  8
STEMPEL
100
AcDbCircle
 10
283.2130222657314
 20
721.9168332271435
 30
0.0
 40
6.0
100
AcDbArc
 50
59.48712567238029
 51
90.0
  0
ARC
  5
F52
330
1E
100
AcDbEntity
  8
STEMPEL
100
AcDbCircle
 10
283.2130222657314
 20
721.9168332271435
 30
0.0
 40
6.0
100
AcDbArc
 50
90.0
 51
90.0
  0
HATCH
  5
10F7
330
1E
100
AcDbEntity
  8
SCHRAFF
100
AcDbHatch
 10
0.0
 20
0.0
 30
0.0
210
0.0
220
0.0
230
1.0
  2
_USER
 70
     0
 71
     0
 91
        2
 92
        7
 72
     1
 73
     1
 93
       10
 10
252.8130222657309
 20
349.9692263586342
 42
0.0
 10
252.1085291524716
 20
341.9168332271444
 42
0.0
 10
253.3131129575236
 20
341.9168332271444
 42
0.0
 10
254.013022265731
 20
349.916833227144
 42
0.0
 10
254.013022265731
 20
586.726883733485
 42
-0.198912367379669
 10
255.4774883597984
 20
590.2624176394178
 42
0.0
 10
262.4046961536608
 20
597.1896254332799
 42
0.0
 10
261.5561680162369
 20
598.0381535707038
 42
0.0
 10
254.6289602223744
 20
591.1109457768418
 42
0.1989123673796574
 10
252.813022265731
 20
586.7268837334852
 42
0.0
 97
        0
 92
        7
 72
     1
 73
     1
 93
       10
 10
152.4130222657309
 20
349.9168332271452
 42
0.0
 10
153.1129315739383
 20
341.9168332271448
 42
0.0
 10
154.3175153789904
 20
341.9168332271448
 42
0.0
 10
153.6130222657309
 20
349.9692263586354
 42
0.0
 10
153.6130222657309
 20
586.726883733485
 42
0.198912367379669
 10
151.7970843090874
 20
591.1109457768417
 42
0.0
 10
144.8698765152243
 20
598.0381535707042
 42
0.0
 10
144.0213483778005
 20
597.1896254332802
 42
0.0
 10
150.9485561716635
 20
590.2624176394178
 42
-0.1989123673796631
 10
152.4130222657309
 20
586.726883733485
 42
0.0
 97
        0
 75
     0
 76
     0
 52
135.0
 41
2.0
 77
     0
 78
     1
 53
135.0
 43
-32.93917703807392
 44
168.6772290668291
 45
-1.414213562373095
 46
-1.414213562373094
 79
     0
 47
0.4814251419694602
 98
        2
 10
253.1966631028113
 20
518.7035724767304
 10
153.0059197067039
 20
524.9620995806221
  0
HATCH
  5
10F8
330
1E
100
AcDbEntity
  8
SCHRAFF
100
AcDbHatch
 10
0.0
 20
0.0
 30
0.0
210
0.0
220
0.0
230
1.0
  2
_USER
 70
     0
 71
     0
 91
        4
 92
        7
 72
     1
 73
     1
 93
        4
 10
261.1319039475249
 20
595.9168332271441
 42
0.0
 10
260.283375810101
 20
595.0683050897203
 42
0.7207592200561592
 10
265.3745446346443
 20
597.6138895019917
 42
0.0
 10
263.6774883597964
 20
595.9168332271442
 42
0.0
 97
        0
 92
       23
 72
     0
 73
     1
 93
        3
 10
262.4046961536608
 20
597.1896254332798
 10
261.1319039475249
 20
595.916833227144
 10
263.6774883597965
 20
595.9168332271441
 97
        0
 92
       23
 72
     0
 73
     1
 93
        3
 10
144.0213483778004
 20
597.1896254332803
 10
142.7485561716648
 20
595.9168332271445
 10
145.2941405839364
 20
595.9168332271445
 97
        0
 92
        7
 72
     1
 73
     1
 93
        4
 10
146.1426687213608
 20
595.0683050897203
 42
0.0
 10
145.2941405839363
 20
595.9168332271446
 42
0.0
 10
142.7485561716647
 20
595.9168332271445
 42
0.0
 10
141.0514998968176
 20
597.6138895019914
 42
0.7207592200560974
 97
        0
 75
     0
 76
     0
 52
0.0
 41
0.1
 77
     0
 78
     1
 53
0.0
 43
-32.93917703807392
 44
168.6772290668291
 45
0.0
 46
0.1
 79
     0
 47
0.229449449055442
 98
        4
 10
262.4070205638022
 20
595.1799732627269
 10
262.6365945072689
 20
596.0977715428937
 10
144.4060317985895
 20
596.3272207630714
 10
143.9468839116566
 20
594.7210748223715
  0
ARC
  5
10F9
330
1E
100
AcDbEntity
  8
SCHRAFF
100
AcDbCircle
 10
144.0213483778011
 20
597.1896254332798
 30
0.0
 40
3.0
100
AcDbArc
 50
171.8698976458433
 51
315.0000000000012
  0
ARC
  5
10FA
330
1E
100
AcDbEntity
  8
SCHRAFF
100
AcDbCircle
 10
262.4046961536608
 20
597.1896254332798
 30
0.0
 40
3.0
100
AcDbArc
 50
224.9999999999988
 51
8.130102354156669
  0
LINE
  5
10FB
330
1E
100
AcDbEntity
  8
STEMPEL
100
AcDbLine
 10
261.131903947525
 20
595.916833227144
 30
0.0
 11
263.6774883597964
 21
595.9168332271441
 31
0.0
  0
LINE
  5
10FC
330
1E
100
AcDbEntity
  8
STEMPEL
100
AcDbLine
 10
262.4046961536608
 20
597.1896254332798
 30
0.0
 11
255.4774883597984
 21
590.2624176394178
 31
0.0
  0
ARC
  5
10FD
330
1E
100
AcDbEntity
  8
STEMPEL
100
AcDbCircle
 10
259.013022265731
 20
586.726883733485
 30
0.0
 40
5.0
100
AcDbArc
 50
134.9999999999988
 51
180.0
  0
ARC
  5
10FE
330
1E
100
AcDbEntity
  8
STEMPEL
100
AcDbCircle
 10
259.013022265731
 20
586.726883733485
 30
0.0
 40
6.2
100
AcDbArc
 50
134.9999999999988
 51
180.0
  0
ARC
  5
10FF
330
1E
100
AcDbEntity
  8
STEMPEL
100
AcDbCircle
 10
147.4130222657309
 20
586.726883733485
 30
0.0
 40
6.2
100
AcDbArc
 50
0.0
 51
45.00000000000115
  0
ARC
  5
1100
330
1E
100
AcDbEntity
  8
STEMPEL
100
AcDbCircle
 10
147.4130222657309
 20
586.726883733485
 30
0.0
 40
5.0
100
AcDbArc
 50
0.0
 51
45.00000000000115
  0
LINE
  5
1101
330
1E
100
AcDbEntity
  8
STEMPEL
100
AcDbLine
 10
143.9568196529487
 20
597.2541541581322
 30
0.0
 11
150.9485561716635
 21
590.2624176394178
 31
0.0
  0
LINE
  5
1102
330
1E
100
AcDbEntity
  8
STEMPEL
100
AcDbLine
 10
252.813022265731
 20
349.9692263586346
 30
0.0
 11
252.1085291524715
 21
341.9168332271444
 31
0.0
  0
LINE
  5
1103
330
1E
100
AcDbEntity
  8
STEMPEL
100
AcDbLine
 10
153.6130222657309
 20
349.9692263586353
 30
0.0
 11
154.3175153789904
 21
341.9168332271448
 31
0.0
  0
LINE
  5
1104
330
1E
100
AcDbEntity
  8
STEMPEL
100
AcDbLine
 10
153.6130222657309
 20
586.726883733485
 30
0.0
 11
153.6130222657309
 21
349.9692263586353
 31
0.0
  0
LINE
  5
1105
330
1E
100
AcDbEntity
  8
STEMPEL
100
AcDbLine
 10
252.813022265731
 20
586.726883733485
 30
0.0
 11
252.813022265731
 21
349.9692263586346
 31
0.0
  0
LINE
  5
1106
330
1E
100
AcDbEntity
  8
STEMPEL
100
AcDbLine
 10
254.013022265731
 20
349.9168332271446
 30
0.0
 11
253.3131129575236
 21
341.9168332271444
 31
0.0
  0
LINE
  5
1107
330
1E
100
AcDbEntity
  8
STEMPEL
100
AcDbLine
 10
152.4130222657309
 20
349.9168332271449
 30
0.0
 11
153.1129315739383
 21
341.9168332271448
 31
0.0
  0
LINE
  5
1108
102
{ACAD_REACTORS
330
14D2
102
}
330
1E
100
AcDbEntity
  8
STEMPEL
100
AcDbLine
 10
254.013022265731
 20
586.726883733485
 30
0.0
 11
254.013022265731
 21
349.9168332271446
 31
0.0
  0
LINE
  5
1109
102
{ACAD_REACTORS
330
14D2
102
}
330
1E
100
AcDbEntity
  8
STEMPEL
100
AcDbLine
 10
152.4130222657309
 20
586.726883733485
 30
0.0
 11
152.4130222657309
 21
349.9168332271449
 31
0.0
  0
LINE
  5
110A
330
1E
100
AcDbEntity
  8
STEMPEL
100
AcDbLine
 10
142.7485561716647
 20
595.9168332271445
 30
0.0
 11
145.2941405839365
 21
595.9168332271445
 31
0.0
  0
LINE
  5
110B
330
1E
100
AcDbEntity
  8
STEMPEL
100
AcDbLine
 10
261.5561680162368
 20
598.0381535707038
 30
0.0
 11
144.8698765152248
 21
598.0381535707038
 31
0.0
  0
LINE
  5
110C
102
{ACAD_REACTORS
330
1123
102
}
330
1E
100
AcDbEntity
  8
STEMPEL
100
AcDbLine
 10
59.34144939047712
 20
611.9168332271449
 30
0.0
 11
347.0845951409847
 21
611.9168332271438
 31
0.0
  0
LINE
  5
110D
330
1E
100
AcDbEntity
  8
STEMPEL
100
AcDbLine
 10
55.34144939047712
 20
604.9168332271449
 30
0.0
 11
133.7485561716639
 21
604.9168332271447
 31
0.0
  0
LINE
  5
110E
102
{ACAD_REACTORS
330
1123
102
}
330
1E
100
AcDbEntity
  8
STEMPEL
100
AcDbLine
 10
59.34144939047712
 20
608.9168332271449
 30
0.0
 11
128.9201290469178
 21
608.9168332271447
 31
0.0
  0
LINE
  5
110F
102
{ACAD_REACTORS
330
1123
102
}
330
1E
100
AcDbEntity
  8
STEMPEL
100
AcDbLine
 10
53.22012904691746
 20
607.0381535707049
 30
0.0
 11
57.22012904691746
 21
611.0381535707047
 31
0.0
  0
LINE
  5
1110
102
{ACAD_REACTORS
330
1123
102
}
330
1E
100
AcDbEntity
  8
STEMPEL
100
AcDbLine
 10
55.34144939047712
 20
604.9168332271449
 30
0.0
 11
59.34144939047712
 21
608.9168332271449
 31
0.0
  0
LINE
  5
1111
102
{ACAD_REACTORS
330
1123
102
}
330
1E
100
AcDbEntity
  8
STEMPEL
100
AcDbLine
 10
53.22012904691757
 20
607.0381535707046
 30
0.0
 11
55.34144939047712
 21
604.9168332271449
 31
0.0
  0
ARC
  5
1112
102
{ACAD_REACTORS
330
1123
102
}
330
1E
100
AcDbEntity
  8
STEMPEL
100
AcDbCircle
 10
59.34144939047712
 20
608.9168332271449
 30
0.0
 40
3.0
100
AcDbArc
 50
90.0
 51
135.0
  0
ARC
  5
1113
102
{ACAD_REACTORS
330
1123
102
}
330
1E
100
AcDbEntity
  8
STEMPEL
100
AcDbCircle
 10
128.9201290469178
 20
606.9168332271445
 30
0.0
 40
5.0
100
AcDbArc
 50
45.0
 51
90.0
  0
LINE
  5
1114
102
{ACAD_REACTORS
330
1123
102
}
330
1E
100
AcDbEntity
  8
STEMPEL
100
AcDbLine
 10
130.3343426092908
 20
608.3310467895175
 30
0.0
 11
142.7485561716647
 21
595.9168332271445
 31
0.0
  0
ARC
  5
1115
102
{ACAD_REACTORS
330
1123
102
}
330
1E
100
AcDbEntity
  8
STEMPEL
100
AcDbCircle
 10
128.9201290469178
 20
606.9168332271445
 30
0.0
 40
2.0
100
AcDbArc
 50
45.0
 51
90.0
  0
LINE
  5
1116
102
{ACAD_REACTORS
330
1123
102
}
330
1E
100
AcDbEntity
  8
STEMPEL
100
AcDbLine
 10
132.4556629528504
 20
610.4523671330773
 30
0.0
 11
151.7970843090874
 21
591.1109457768417
 31
0.0
  0
LINE
  5
1117
102
{ACAD_REACTORS
330
1123
102
}
330
1E
100
AcDbEntity
  8
STEMPEL
  6
STRICHPUNKT
100
AcDbLine
 10
144.8698765152243
 20
598.0381535707042
 30
0.0
 11
142.7485561716647
 21
595.9168332271445
 31
0.0
  0
LINE
  5
1118
330
1E
100
AcDbEntity
  8
STEMPEL
100
AcDbLine
 10
272.6774883597973
 20
604.916833227144
 30
0.0
 11
351.0845951409859
 21
604.9168332271437
 31
0.0
  0
LINE
  5
1119
330
1E
100
AcDbEntity
  8
STEMPEL
100
AcDbLine
 10
277.5059154845441
 20
608.9168332271442
 30
0.0
 11
347.0845951409857
 21
608.9168332271437
 31
0.0
  0
LINE
  5
111A
330
1E
100
AcDbEntity
  8
STEMPEL
  6
STRICHPUNKT
100
AcDbLine
 10
261.5561680162368
 20
598.0381535707038
 30
0.0
 11
263.6774883597965
 21
595.9168332271441
 31
0.0
  0
LINE
  5
111B
330
1E
100
AcDbEntity
  8
STEMPEL
100
AcDbLine
 10
273.9703815786115
 20
610.4523671330773
 30
0.0
 11
254.6289602223744
 21
591.1109457768418
 31
0.0
  0
LINE
  5
111C
330
1E
100
AcDbEntity
  8
STEMPEL
100
AcDbLine
 10
276.0917019221711
 20
608.3310467895175
 30
0.0
 11
263.6774883597965
 21
595.9168332271441
 31
0.0
  0
ARC
  5
111D
330
1E
100
AcDbEntity
  8
STEMPEL
100
AcDbCircle
 10
277.5059154845441
 20
606.9168332271445
 30
0.0
 40
2.0
100
AcDbArc
 50
90.0
 51
135.0
  0
ARC
  5
111E
330
1E
100
AcDbEntity
  8
STEMPEL
100
AcDbCircle
 10
277.5059154845441
 20
606.9168332271445
 30
0.0
 40
5.0
100
AcDbArc
 50
90.0
 51
135.0
  0
LINE
  5
111F
330
1E
100
AcDbEntity
  8
STEMPEL
100
AcDbLine
 10
353.2189936908452
 20
607.0250753644038
 30
0.0
 11
349.2059154845443
 21
611.0381535707047
 31
0.0
  0
LINE
  5
1120
330
1E
100
AcDbEntity
  8
STEMPEL
100
AcDbLine
 10
353.2189936908452
 20
607.0250753644038
 30
0.0
 11
351.0976733472856
 21
604.903755020844
 31
0.0
  0
LINE
  5
1121
330
1E
100
AcDbEntity
  8
STEMPEL
100
AcDbLine
 10
351.0845951409859
 20
604.9168332271437
 30
0.0
 11
347.0845951409847
 21
608.9168332271449
 31
0.0
  0
ARC
  5
1122
330
1E
100
AcDbEntity
  8
STEMPEL
100
AcDbCircle
 10
347.0845951409847
 20
608.9168332271449
 30
0.0
 40
3.0
100
AcDbArc
 50
45.0
 51
90.0
  0
HATCH
  5
1123
330
1E
100
AcDbEntity
  8
SCHRAFF
100
AcDbHatch
 10
0.0
 20
0.0
 30
0.0
210
0.0
220
0.0
230
1.0
  2
_USER
 70
     0
 71
     1
 91
        1
 92
        7
 72
     1
 73
     1
 93
       11
 10
59.34144939047712
 20
611.9168332271449
 42
0.1989123673796551
 10
57.22012904691746
 20
611.0381535707047
 42
0.0
 10
53.22012904691735
 20
607.0381535707048
 42
0.0
 10
55.34144939047712
 20
604.9168332271449
 42
0.0
 10
59.34144939047719
 20
608.916833227145
 42
0.0
 10
128.9201290469178
 20
608.9168332271447
 42
-0.1989123673796173
 10
130.3343426092906
 20
608.3310467895178
 42
0.0
 10
142.7485561716647
 20
595.9168332271445
 42
0.0
 10
144.8698765152243
 20
598.0381535707042
 42
0.0
 10
132.4556629528504
 20
610.4523671330773
 42
0.1989123673796515
 10
128.9201290469178
 20
611.9168332271446
 42
0.0
 97
       11
330
110C
330
1112
330
110F
330
1111
330
1110
330
110E
330
1115
330
1114
330
1117
330
1116
330
1113
 75
     0
 76
     0
 52
45.0
 41
2.0
 77
     0
 78
     1
 53
45.0
 43
-45.98066596736782
 44
336.6059904191609
 45
-1.414213562373094
 46
1.414213562373095
 79
     0
 47
0.4118729359136521
 98
        1
 10
118.4826951871144
 20
610.4724704471375
  0
HATCH
  5
1124
330
1E
100
AcDbEntity
  8
SCHRAFF
100
AcDbHatch
 10
0.0
 20
0.0
 30
0.0
210
0.0
220
0.0
230
1.0
  2
_USER
 70
     0
 71
     0
 91
        1
 92
        7
 72
     1
 73
     1
 93
       11
 10
277.5059154845441
 20
611.9168332271446
 42
0.0
 10
347.0845951409848
 20
611.9168332271449
 42
-0.1989123673796547
 10
349.2059154845445
 20
611.0381535707047
 42
0.0
 10
353.2059154845445
 20
607.0381535707048
 42
0.0
 10
351.0845951409848
 20
604.9168332271449
 42
0.0
 10
347.0845951409849
 20
608.9168332271448
 42
0.0
 10
277.5059154845441
 20
608.9168332271447
 42
0.1989123673796182
 10
276.0917019221713
 20
608.3310467895178
 42
0.0
 10
263.6774883597972
 20
595.9168332271445
 42
0.0
 10
261.5561680162376
 20
598.0381535707042
 42
0.0
 10
273.9703815786115
 20
610.4523671330773
 42
-0.1989123673796434
 97
        0
 75
     0
 76
     0
 52
45.0
 41
2.0
 77
     0
 78
     1
 53
45.0
 43
-45.98066596736782
 44
336.6059904191609
 45
-1.414213562373094
 46
1.414213562373095
 79
     0
 47
0.4118729359136521
 98
        1
 10
287.9433493443475
 20
610.4724704471375
  0
LINE
  5
1127
330
1E
100
AcDbEntity
  8
HILF
100
AcDbLine
 10
154.813022265731
 20
349.9168332271449
 30
0.0
 11
251.6130222657309
 21
349.9168332271446
 31
0.0
  0
LINE
  5
1128
330
1E
100
AcDbEntity
  8
STEMPEL
100
AcDbLine
 10
153.1129315739383
 20
341.9168332271448
 30
0.0
 11
253.3131129575236
 21
341.9168332271444
 31
0.0
  0
LINE
  5
1129
330
1E
100
AcDbEntity
  8
HILF
100
AcDbLine
 10
154.4223440827404
 20
589.0995210141486
 30
0.0
 11
252.0037004487215
 21
589.0995210141486
 31
0.0
  0
LINE
  5
1305
102
{ACAD_REACTORS
330
14D2
102
}
330
1E
100
AcDbEntity
  8
STEMPEL
100
AcDbLine
 10
150.013022265731
 20
464.9168332271441
 30
0.0
 11
144.9630222657309
 21
464.9168332271441
 31
0.0
  0
ARC
  5
1307
102
{ACAD_REACTORS
330
14D2
102
}
330
1E
100
AcDbEntity
  8
STEMPEL
100
AcDbCircle
 10
148.9630222657309
 20
464.9753539706845
 30
0.0
 40
4.0
100
AcDbArc
 50
148.1457059206461
 51
180.0
  0
LINE
  5
1308
330
1E
100
AcDbEntity
  8
STEMPEL
100
AcDbLine
 10
144.9630222657309
 20
464.9753539706845
 30
0.0
 11
144.9630222657309
 21
464.9168332271439
 31
0.0
  0
POINT
  5
1309
330
1E
100
AcDbEntity
  8
DEFPOINTS
  6
ByBlock
 62
     0
100
AcDbPoint
 10
144.9630222657309
 20
464.9168332271439
 30
0.0
  0
LINE
  5
130A
102
{ACAD_REACTORS
330
14D2
102
}
330
1E
100
AcDbEntity
  8
STEMPEL
100
AcDbLine
 10
145.5654504151052
 20
467.0863976745987
 30
0.0
 11
148.126657346705
 21
471.2084746161118
 31
0.0
  0
LINE
  5
130B
102
{ACAD_REACTORS
330
14D2
102
}
330
1E
100
AcDbEntity
  8
STEMPEL
100
AcDbLine
 10
152.4130222657309
 20
464.9704230656303
 30
0.0
 11
150.8496355301232
 21
470.8050617947978
 31
0.0
  0
ARC
  5
130C
102
{ACAD_REACTORS
330
14D2
102
}
330
1E
100
AcDbEntity
  8
STEMPEL
100
AcDbCircle
 10
149.4007467906896
 20
470.4168332271438
 30
0.0
 40
1.5
100
AcDbArc
 50
15.00000000000074
 51
148.1457059206488
  0
LINE
  5
130D
330
1E
100
AcDbEntity
  8
STEMPEL
100
AcDbLine
 10
149.4007467906896
 20
471.9168332271439
 30
0.0
 11
152.4130222657308
 21
471.9168332271439
 31
0.0
  0
LINE
  5
130F
102
{ACAD_REACTORS
330
14D2
102
}
330
1E
100
AcDbEntity
  8
STEMPEL
100
AcDbLine
 10
254.013022265731
 20
444.6259806362046
 30
0.0
 11
255.1596411957811
 21
444.6259806362046
 31
0.0
  0
ARC
  5
1311
102
{ACAD_REACTORS
330
14D2
102
}
330
1E
100
AcDbEntity
  8
STEMPEL
100
AcDbCircle
 10
257.0252977407724
 20
470.4168332271438
 30
0.0
 40
1.5
100
AcDbArc
 50
31.85429407935114
 51
164.9999999999992
  0
LINE
  5
1312
102
{ACAD_REACTORS
330
14D2
102
}
330
1E
100
AcDbEntity
  8
STEMPEL
100
AcDbLine
 10
255.9489372998079
 20
446.9168332271439
 30
0.0
 11
259.9130222657309
 21
446.916833227144
 31
0.0
  0
LINE
  5
1313
102
{ACAD_REACTORS
330
14D2
102
}
330
1E
100
AcDbEntity
  8
STEMPEL
100
AcDbLine
 10
256.1120017512969
 20
448.9168332271439
 30
0.0
 11
258.3126071893114
 21
448.9168332271439
 31
0.0
  0
ARC
  5
1315
102
{ACAD_REACTORS
330
14D2
102
}
330
1E
100
AcDbEntity
  8
STEMPEL
100
AcDbCircle
 10
247.249479680365
 20
448.632766873463
 30
0.0
 40
8.867073426506241
100
AcDbArc
 50
333.1361176767924
 51
1.835846809551139
  0
LINE
  5
1318
102
{ACAD_REACTORS
330
14D2
102
}
330
1E
100
AcDbEntity
  8
STEMPEL
100
AcDbLine
 10
254.013022265731
 20
464.9704230656308
 30
0.0
 11
255.5764090013388
 21
470.8050617947978
 31
0.0
  0
LINE
  5
131A
102
{ACAD_REACTORS
330
14D2
102
}
330
1E
100
AcDbEntity
  8
STEMPEL
100
AcDbLine
 10
258.7985596388319
 20
446.9168332271439
 30
0.0
 11
258.3126071893114
 21
448.9168332271439
 31
0.0
  0
LINE
  5
131B
102
{ACAD_REACTORS
330
14D2
102
}
330
1E
100
AcDbEntity
  8
STEMPEL
100
AcDbLine
 10
260.8605941163566
 20
467.0863976745987
 30
0.0
 11
258.2993871847571
 21
471.2084746161118
 31
0.0
  0
ARC
  5
131C
102
{ACAD_REACTORS
330
14D2
102
}
330
1E
100
AcDbEntity
  8
STEMPEL
100
AcDbCircle
 10
257.4630222657309
 20
464.9753539706845
 30
0.0
 40
4.0
100
AcDbArc
 50
0.0
 51
31.85429407935391
  0
LINE
  5
131D
330
1E
100
AcDbEntity
  8
STEMPEL
100
AcDbLine
 10
261.4630222657309
 20
464.9753539706845
 30
0.0
 11
261.4630222657309
 21
464.9168332271439
 31
0.0
  0
POINT
  5
131E
330
1E
100
AcDbEntity
  8
DEFPOINTS
  6
ByBlock
 62
     0
100
AcDbPoint
 10
261.4630222657309
 20
464.9168332271439
 30
0.0
  0
DIMENSION
  5
131F
330
1E
100
AcDbEntity
  8
BEM
100
AcDbDimension
  2
*D2
 10
152.413022265731
 20
171.3056240599608
 30
0.0
 11
203.2130222657311
 21
177.8056240599608
 31
0.0
 70
    32
  1
%%c<>
 71
     5
 42
101.6000000000001
  3
Standard
100
AcDbAlignedDimension
 13
254.0130222657311
 23
199.864440095655
 33
0.0
 14
152.413022265731
 24
199.8644400956521
 34
0.0
100
AcDbRotatedDimension
1001
ACAD
1000
DSTYLE
1002
{
1070
    40
1040
2.0
1070
    41
1040
3.5
1070
    42
1040
1.0
1070
    43
1040
7.0
1070
    44
1040
1.0
1070
    73
1070
     0
1070
    74
1070
     0
1070
    77
1070
     1
1070
    78
1070
     8
1070
    79
1070
     2
1070
   140
1040
3.5
1070
   141
1040
1.5
1070
   146
1040
0.5142857142857144
1070
   147
1040
1.5
1070
   172
1070
     1
1070
   178
1070
     1
1070
   179
1070
     2
1070
   271
1070
     2
1070
   272
1070
     2
1070
   284
1070
     8
1070
   285
1070
     8
1070
   286
1070
     8
1002
}
  0
ARC
  5
1320
330
1E
100
AcDbEntity
  8
STEMPEL
100
AcDbCircle
 10
136.5130222657309
 20
417.4136326964625
 30
0.0
 40
14.0
100
AcDbArc
 50
0.0
 51
26.88804761772463
  0
ARC
  5
1321
330
1E
100
AcDbEntity
  8
STEMPEL
100
AcDbCircle
 10
169.5130222657309
 20
434.146833227144
 30
0.0
 40
23.0
100
AcDbArc
 50
180.0
 51
206.8880476177246
  0
ARC
  5
1322
102
{ACAD_REACTORS
330
14D2
102
}
330
1E
100
AcDbEntity
  8
STEMPEL
100
AcDbCircle
 10
169.5130222657309
 20
452.7205223094936
 30
0.0
 40
23.0
100
AcDbArc
 50
147.9760040253812
 51
180.0
  0
LINE
  5
1323
102
{ACAD_REACTORS
330
14D2
102
}
330
1E
100
AcDbEntity
  8
STEMPEL
100
AcDbLine
 10
146.5130222657309
 20
452.7205223094936
 30
0.0
 11
146.5130222657309
 21
434.146833227144
 31
0.0
  0
ARC
  5
1324
330
1E
100
AcDbEntity
  8
STEMPEL
100
AcDbCircle
 10
144.413022265731
 20
330.3737065505038
 30
0.0
 40
8.0
100
AcDbArc
 50
0.0
 51
30.85958109062394
  0
LINE
  5
1325
330
1E
100
AcDbEntity
  8
STEMPEL
100
AcDbLine
 10
150.5130222657309
 20
417.4136326964624
 30
0.0
 11
150.5130222657309
 21
341.6887407970272
 31
0.0
  0
LINE
  5
1326
330
1E
100
AcDbEntity
  8
STEMPEL
100
AcDbLine
 10
152.413022265731
 20
330.2732893218924
 30
0.0
 11
152.413022265731
 21
199.8644400956521
 31
0.0
  0
LINE
  5
1327
330
1E
100
AcDbEntity
  8
STEMPEL
100
AcDbLine
 10
153.6130222657309
 20
330.2732893218924
 30
0.0
 11
153.6130222657309
 21
199.9168332271442
 31
0.0
  0
ARC
  5
1328
330
1E
100
AcDbEntity
  8
STEMPEL
100
AcDbCircle
 10
144.413022265731
 20
330.3737065505038
 30
0.0
 40
9.199999999999999
100
AcDbArc
 50
0.0
 51
30.64293176293956
  0
ARC
  5
1329
330
1E
100
AcDbEntity
  8
STEMPEL
100
AcDbCircle
 10
163.5130222657309
 20
341.6887407970272
 30
0.0
 40
13.0
100
AcDbArc
 50
180.0
 51
210.6429317629395
  0
ARC
  5
132A
330
1E
100
AcDbEntity
  8
STEMPEL
100
AcDbCircle
 10
163.5130222657309
 20
341.6887407970272
 30
0.0
 40
14.2
100
AcDbArc
 50
180.0
 51
210.6429317629395
  0
LINE
  5
132B
330
1E
100
AcDbEntity
  8
STEMPEL
100
AcDbLine
 10
149.313022265731
 20
417.4136326964624
 30
0.0
 11
149.313022265731
 21
341.6887407970272
 31
0.0
  0
ARC
  5
132C
330
1E
100
AcDbEntity
  8
STEMPEL
100
AcDbCircle
 10
136.5130222657309
 20
417.4136326964625
 30
0.0
 40
12.8
100
AcDbArc
 50
0.0
 51
26.88804761772463
  0
ARC
  5
132D
330
1E
100
AcDbEntity
  8
STEMPEL
100
AcDbCircle
 10
169.5130222657309
 20
434.146833227144
 30
0.0
 40
24.2
100
AcDbArc
 50
180.0
 51
206.8880476177246
  0
LINE
  5
132E
330
1E
100
AcDbEntity
  8
STEMPEL
100
AcDbLine
 10
145.313022265731
 20
452.7205223094936
 30
0.0
 11
145.313022265731
 21
434.146833227144
 31
0.0
  0
ARC
  5
132F
330
1E
100
AcDbEntity
  8
STEMPEL
100
AcDbCircle
 10
169.5130222657309
 20
452.7205223094936
 30
0.0
 40
24.2
100
AcDbArc
 50
149.7363480579001
 51
180.0
  0
ARC
  5
1330
330
1E
100
AcDbEntity
  8
STEMPEL
100
AcDbCircle
 10
236.9130222657309
 20
452.7205223094936
 30
0.0
 40
24.2
100
AcDbArc
 50
0.0
 51
30.26365194209988
  0
LINE
  5
1331
102
{ACAD_REACTORS
330
136B
102
}
330
1E
100
AcDbEntity
  8
STEMPEL
100
AcDbLine
 10
261.1130222657308
 20
452.7205223094937
 30
0.0
 11
261.1130222657309
 21
434.1468332271441
 31
0.0
  0
ARC
  5
1332
330
1E
100
AcDbEntity
  8
STEMPEL
100
AcDbCircle
 10
236.9130222657309
 20
434.1468332271441
 30
0.0
 40
24.2
100
AcDbArc
 50
333.1119523822754
 51
0.0
  0
ARC
  5
1333
330
1E
100
AcDbEntity
  8
STEMPEL
100
AcDbCircle
 10
269.9130222657309
 20
417.4136326964626
 30
0.0
 40
12.8
100
AcDbArc
 50
153.1119523822753
 51
180.0
  0
LINE
  5
1334
330
1E
100
AcDbEntity
  8
STEMPEL
100
AcDbLine
 10
257.1130222657309
 20
417.4136326964626
 30
0.0
 11
257.1130222657309
 21
341.6887407970273
 31
0.0
  0
ARC
  5
1335
330
1E
100
AcDbEntity
  8
STEMPEL
100
AcDbCircle
 10
242.9130222657309
 20
341.6887407970273
 30
0.0
 40
14.2
100
AcDbArc
 50
329.3570682370604
 51
0.0
  0
ARC
  5
1336
330
1E
100
AcDbEntity
  8
STEMPEL
100
AcDbCircle
 10
242.9130222657309
 20
341.6887407970273
 30
0.0
 40
13.0
100
AcDbArc
 50
329.3570682370604
 51
0.0
  0
ARC
  5
1337
330
1E
100
AcDbEntity
  8
STEMPEL
100
AcDbCircle
 10
262.0130222657309
 20
330.3737065505039
 30
0.0
 40
9.199999999999999
100
AcDbArc
 50
149.3570682370604
 51
180.0
  0
LINE
  5
1338
330
1E
100
AcDbEntity
  8
STEMPEL
100
AcDbLine
 10
252.813022265731
 20
330.2732893218924
 30
0.0
 11
252.813022265731
 21
199.9168332271439
 31
0.0
  0
LINE
  5
1339
330
1E
100
AcDbEntity
  8
STEMPEL
100
AcDbLine
 10
254.0130222657309
 20
330.2732893218924
 30
0.0
 11
254.0130222657311
 21
199.864440095655
 31
0.0
  0
LINE
  5
133A
330
1E
100
AcDbEntity
  8
STEMPEL
100
AcDbLine
 10
255.9130222657309
 20
417.4136326964626
 30
0.0
 11
255.9130222657309
 21
341.6887407970273
 31
0.0
  0
ARC
  5
133B
330
1E
100
AcDbEntity
  8
STEMPEL
100
AcDbCircle
 10
262.0130222657309
 20
330.3737065505039
 30
0.0
 40
8.0
100
AcDbArc
 50
149.140418909376
 51
180.0
  0
LINE
  5
133C
102
{ACAD_REACTORS
330
14D2
102
}
330
1E
100
AcDbEntity
  8
STEMPEL
100
AcDbLine
 10
259.9130222657309
 20
452.7205223094937
 30
0.0
 11
259.9130222657309
 21
434.1468332271441
 31
0.0
  0
ARC
  5
133D
102
{ACAD_REACTORS
330
14D2
102
}
330
1E
100
AcDbEntity
  8
STEMPEL
100
AcDbCircle
 10
236.9130222657309
 20
452.7205223094936
 30
0.0
 40
23.0
100
AcDbArc
 50
0.0
 51
32.02399597461875
  0
ARC
  5
133E
330
1E
100
AcDbEntity
  8
STEMPEL
100
AcDbCircle
 10
236.9130222657309
 20
434.1468332271441
 30
0.0
 40
23.0
100
AcDbArc
 50
333.1119523822754
 51
0.0
  0
ARC
  5
133F
330
1E
100
AcDbEntity
  8
STEMPEL
100
AcDbCircle
 10
269.9130222657309
 20
417.4136326964626
 30
0.0
 40
14.0
100
AcDbArc
 50
153.1119523822753
 51
180.0
  0
LINE
  5
1340
330
1E
100
AcDbEntity
  8
STEMPEL
100
AcDbLine
 10
253.3176967625753
 20
191.9168332271438
 30
0.0
 11
153.1083477688864
 21
191.9168332271441
 31
0.0
  0
LINE
  5
1341
102
{ACAD_REACTORS
330
14D2
102
}
330
1E
100
AcDbEntity
  8
STEMPEL
100
AcDbLine
 10
261.4630222657309
 20
464.916833227144
 30
0.0
 11
256.413022265731
 21
464.916833227144
 31
0.0
  0
LINE
  5
1342
330
1E
100
AcDbEntity
  8
HILF
100
AcDbLine
 10
255.0071917359086
 20
420.3895722483044
 30
0.0
 11
254.013022265731
 21
420.3895722483044
 31
0.0
  0
LINE
  5
1343
330
1E
100
AcDbEntity
  8
HILF
100
AcDbLine
 10
254.1005837306584
 20
337.9366122719805
 30
0.0
 11
152.3254608008034
 21
337.9366122719805
 31
0.0
  0
LINE
  5
1344
330
1E
100
AcDbEntity
  8
HILF
100
AcDbLine
 10
251.8331567007371
 20
332.5021654010931
 30
0.0
 11
154.5928878307248
 21
332.5021654010931
 31
0.0
  0
HATCH
  5
1345
330
1E
100
AcDbEntity
  8
SCHRAFF
100
AcDbHatch
 10
0.0
 20
0.0
 30
0.0
210
0.0
220
0.0
230
1.0
  2
_USER
 70
     0
 71
     0
 91
        1
 92
        7
 72
     1
 73
     1
 93
       11
 10
277.505915484544
 20
461.9168332271442
 42
0.0
 10
347.0845951409847
 20
461.9168332271445
 42
-0.1989123673796547
 10
349.2059154845445
 20
461.0381535707042
 42
0.0
 10
353.2059154845445
 20
457.0381535707043
 42
0.0
 10
351.0845951409847
 20
454.9168332271444
 42
0.0
 10
347.0845951409849
 20
458.9168332271444
 42
0.0
 10
277.505915484544
 20
458.9168332271444
 42
0.1989123673796182
 10
276.0917019221712
 20
458.3310467895175
 42
0.0
 10
263.6774883597971
 20
445.9168332271442
 42
0.0
 10
261.5561680162375
 20
448.0381535707039
 42
0.0
 10
273.9703815786114
 20
460.452367133077
 42
-0.1989123673796434
 97
        0
 75
     0
 76
     0
 52
135.0
 41
2.0
 77
     0
 78
     1
 53
135.0
 43
0.0
 44
0.0
 45
-1.414213562373095
 46
-1.414213562373094
 79
     0
 47
0.4118729359136521
 98
        1
 10
287.9433493443473
 20
460.4724704471371
  0
HATCH
  5
1346
330
1E
100
AcDbEntity
  8
SCHRAFF
100
AcDbHatch
 10
0.0
 20
0.0
 30
0.0
210
0.0
220
0.0
230
1.0
  2
_USER
 70
     0
 71
     1
 91
        1
 92
        7
 72
     1
 73
     1
 93
       11
 10
59.34144939047712
 20
461.9168332271445
 42
0.1989123673796551
 10
57.22012904691746
 20
461.0381535707042
 42
0.0
 10
53.2201290469174
 20
457.0381535707043
 42
0.0
 10
55.34144939047711
 20
454.9168332271444
 42
0.0
 10
59.34144939047706
 20
458.9168332271444
 42
0.0
 10
128.9201290469177
 20
458.9168332271444
 42
-0.1989123673796173
 10
130.3343426092905
 20
458.3310467895175
 42
0.0
 10
142.7485561716646
 20
445.9168332271441
 42
0.0
 10
144.8698765152243
 20
448.038153570704
 42
0.0
 10
132.4556629528502
 20
460.452367133077
 42
0.198912367379648
 10
128.9201290469177
 20
461.9168332271442
 42
0.0
 97
       11
330
135D
330
1357
330
135A
330
1358
330
1359
330
135B
330
1354
330
1355
330
1352
330
1353
330
1356
 75
     0
 76
     0
 52
45.0
 41
2.0
 77
     0
 78
     1
 53
45.0
 43
-45.98066596736794
 44
186.6059904191605
 45
-1.414213562373094
 46
1.414213562373095
 79
     0
 47
0.4118729359136521
 98
        1
 10
118.4826951871143
 20
460.4724704471371
  0
ARC
  5
1347
330
1E
100
AcDbEntity
  8
STEMPEL
100
AcDbCircle
 10
347.0845951409847
 20
458.9168332271445
 30
0.0
 40
3.0
100
AcDbArc
 50
45.0
 51
90.0
  0
LINE
  5
1348
330
1E
100
AcDbEntity
  8
STEMPEL
100
AcDbLine
 10
351.0845951409858
 20
454.9168332271434
 30
0.0
 11
347.0845951409847
 21
458.9168332271445
 31
0.0
  0
LINE
  5
1349
330
1E
100
AcDbEntity
  8
STEMPEL
100
AcDbLine
 10
353.2189936908451
 20
457.0250753644034
 30
0.0
 11
351.0976733472855
 21
454.9037550208437
 31
0.0
  0
LINE
  5
134A
330
1E
100
AcDbEntity
  8
STEMPEL
100
AcDbLine
 10
353.2189936908451
 20
457.0250753644034
 30
0.0
 11
349.2059154845442
 21
461.0381535707042
 31
0.0
  0
ARC
  5
134B
330
1E
100
AcDbEntity
  8
STEMPEL
100
AcDbCircle
 10
277.505915484544
 20
456.9168332271441
 30
0.0
 40
5.0
100
AcDbArc
 50
90.0
 51
135.0
  0
ARC
  5
134C
330
1E
100
AcDbEntity
  8
STEMPEL
100
AcDbCircle
 10
277.505915484544
 20
456.9168332271441
 30
0.0
 40
2.0
100
AcDbArc
 50
90.0
 51
135.0
  0
LINE
  5
134D
102
{ACAD_REACTORS
330
136B
102
}
330
1E
100
AcDbEntity
  8
STEMPEL
100
AcDbLine
 10
276.091701922171
 20
458.3310467895172
 30
0.0
 11
263.6774883597964
 21
445.9168332271437
 31
0.0
  0
LINE
  5
134E
330
1E
100
AcDbEntity
  8
STEMPEL
100
AcDbLine
 10
273.9703815786114
 20
460.452367133077
 30
0.0
 11
261.5561680162368
 21
448.0381535707033
 31
0.0
  0
LINE
  5
134F
102
{ACAD_REACTORS
330
136B
102
}
330
1E
100
AcDbEntity
  8
STEMPEL
  6
STRICHPUNKT
100
AcDbLine
 10
261.5561680162368
 20
448.0381535707034
 30
0.0
 11
263.6774883597964
 21
445.9168332271437
 31
0.0
  0
LINE
  5
1350
330
1E
100
AcDbEntity
  8
STEMPEL
100
AcDbLine
 10
277.505915484544
 20
458.9168332271439
 30
0.0
 11
347.0845951409856
 21
458.9168332271434
 31
0.0
  0
LINE
  5
1351
330
1E
100
AcDbEntity
  8
STEMPEL
100
AcDbLine
 10
297.8380222657305
 20
454.9168332271436
 30
0.0
 11
351.0845951409858
 21
454.9168332271434
 31
0.0
  0
LINE
  5
1352
102
{ACAD_REACTORS
330
1346
102
}
330
1E
100
AcDbEntity
  8
STEMPEL
  6
STRICHPUNKT
100
AcDbLine
 10
144.8698765152242
 20
448.0381535707039
 30
0.0
 11
142.7485561716646
 21
445.9168332271442
 31
0.0
  0
LINE
  5
1353
102
{ACAD_REACTORS
330
1346
102
}
330
1E
100
AcDbEntity
  8
STEMPEL
100
AcDbLine
 10
132.4556629528502
 20
460.452367133077
 30
0.0
 11
144.8698765152243
 21
448.0381535707039
 31
0.0
  0
ARC
  5
1354
102
{ACAD_REACTORS
330
1346
102
}
330
1E
100
AcDbEntity
  8
STEMPEL
100
AcDbCircle
 10
128.9201290469177
 20
456.9168332271441
 30
0.0
 40
2.0
100
AcDbArc
 50
45.0
 51
90.0
  0
LINE
  5
1355
102
{ACAD_REACTORS
330
1346
102
}
330
1E
100
AcDbEntity
  8
STEMPEL
100
AcDbLine
 10
130.3343426092907
 20
458.3310467895172
 30
0.0
 11
142.7485561716646
 21
445.9168332271442
 31
0.0
  0
ARC
  5
1356
102
{ACAD_REACTORS
330
1346
102
}
330
1E
100
AcDbEntity
  8
STEMPEL
100
AcDbCircle
 10
128.9201290469177
 20
456.9168332271441
 30
0.0
 40
5.0
100
AcDbArc
 50
45.0
 51
90.0
  0
ARC
  5
1357
102
{ACAD_REACTORS
330
1346
102
}
330
1E
100
AcDbEntity
  8
STEMPEL
100
AcDbCircle
 10
59.34144939047712
 20
458.9168332271445
 30
0.0
 40
3.0
100
AcDbArc
 50
90.0
 51
135.0
  0
LINE
  5
1358
102
{ACAD_REACTORS
330
1346
102
}
330
1E
100
AcDbEntity
  8
STEMPEL
100
AcDbLine
 10
53.22012904691757
 20
457.0381535707042
 30
0.0
 11
55.34144939047712
 21
454.9168332271444
 31
0.0
  0
LINE
  5
1359
102
{ACAD_REACTORS
330
1346
102
}
330
1E
100
AcDbEntity
  8
STEMPEL
100
AcDbLine
 10
55.34144939047712
 20
454.9168332271444
 30
0.0
 11
59.34144939047712
 21
458.9168332271445
 31
0.0
  0
LINE
  5
135A
102
{ACAD_REACTORS
330
1346
102
}
330
1E
100
AcDbEntity
  8
STEMPEL
100
AcDbLine
 10
53.22012904691746
 20
457.0381535707045
 30
0.0
 11
57.22012904691746
 21
461.0381535707042
 31
0.0
  0
LINE
  5
135B
102
{ACAD_REACTORS
330
1346
102
}
330
1E
100
AcDbEntity
  8
STEMPEL
100
AcDbLine
 10
59.34144939047712
 20
458.9168332271444
 30
0.0
 11
128.9201290469177
 21
458.9168332271444
 31
0.0
  0
LINE
  5
135C
330
1E
100
AcDbEntity
  8
STEMPEL
100
AcDbLine
 10
55.34144939047712
 20
454.9168332271444
 30
0.0
 11
108.5880222657307
 21
454.9168332271444
 31
0.0
  0
LINE
  5
135D
102
{ACAD_REACTORS
330
1346
102
}
330
1E
100
AcDbEntity
  8
STEMPEL
100
AcDbLine
 10
59.34144939047712
 20
461.9168332271445
 30
0.0
 11
147.1284770278687
 21
461.9168332271441
 31
0.0
  0
LINE
  5
135E
102
{ACAD_REACTORS
330
136B
102
}
330
1E
100
AcDbEntity
  8
STEMPEL
100
AcDbLine
 10
261.5561680162368
 20
448.0381535707034
 30
0.0
 11
261.1130222657309
 21
448.0381535707035
 31
0.0
  0
LINE
  5
135F
330
1E
100
AcDbEntity
  8
STEMPEL
100
AcDbLine
 10
142.7485561716646
 20
445.9168332271442
 30
0.0
 11
145.313022265731
 21
445.9168332271441
 31
0.0
  0
LINE
  5
1360
330
1E
100
AcDbEntity
  8
STEMPEL
100
AcDbLine
 10
259.2975675035933
 20
461.9168332271438
 30
0.0
 11
347.0845951409847
 21
461.9168332271434
 31
0.0
  0
LINE
  5
1361
102
{ACAD_REACTORS
330
136B
102
}
330
1E
100
AcDbEntity
  8
STEMPEL
100
AcDbLine
 10
261.1130222657308
 20
445.9168332271437
 30
0.0
 11
263.6774883597964
 21
445.9168332271437
 31
0.0
  0
LINE
  5
1362
330
1E
100
AcDbEntity
  8
STEMPEL
100
AcDbLine
 10
145.3130222657311
 20
448.0381535707035
 30
0.0
 11
144.8698765152248
 21
448.0381535707034
 31
0.0
  0
LINE
  5
1363
330
1E
100
AcDbEntity
  8
HILF
100
AcDbLine
 10
154.813022265731
 20
199.9168332271442
 30
0.0
 11
251.6130222657309
 21
199.9168332271439
 31
0.0
  0
LINE
  5
1364
330
1E
100
AcDbEntity
  8
STEMPEL
100
AcDbLine
 10
153.6130222657309
 20
199.9168332271442
 30
0.0
 11
154.3129315739384
 21
191.9168332271441
 31
0.0
  0
LINE
  5
1365
330
1E
100
AcDbEntity
  8
STEMPEL
100
AcDbLine
 10
152.413022265731
 20
199.8644400956521
 30
0.0
 11
153.1083477688864
 21
191.9168332271441
 31
0.0
  0
LINE
  5
1366
330
1E
100
AcDbEntity
  8
STEMPEL
100
AcDbLine
 10
254.0130222657311
 20
199.864440095655
 30
0.0
 11
253.3176967625753
 21
191.9168332271438
 31
0.0
  0
LINE
  5
1367
330
1E
100
AcDbEntity
  8
STEMPEL
100
AcDbLine
 10
252.8130222657309
 20
199.9168332271442
 30
0.0
 11
252.1131129575234
 21
191.9168332271441
 31
0.0
  0
HATCH
  5
1368
330
1E
100
AcDbEntity
  8
SCHRAFF
100
AcDbHatch
 10
0.0
 20
0.0
 30
0.0
210
0.0
220
0.0
230
1.0
  2
_USER
 70
     0
 71
     0
 91
        1
 92
        7
 72
     1
 73
     1
 93
       23
 10
153.6130222657309
 20
330.3737065505038
 42
0.1345075013956313
 10
152.3283375810462
 20
335.0628198418559
 42
-0.1345075013956287
 10
150.5130222657309
 20
341.6887407970272
 42
0.0
 10
150.5130222657309
 20
417.4136326964624
 42
0.1178625008509361
 10
148.9995087522173
 20
423.745113978342
 42
-0.1178625008509353
 10
146.5130222657309
 20
434.146833227144
 42
0.0
 10
146.5130222657309
 20
452.7205223094936
 42
-0.1406476065140156
 10
150.0130222657309
 20
464.9168332271441
 42
0.0
 10
148.6111084777544
 20
464.9168332271441
 42
0.0323355871437242
 10
147.2130222657309
 20
462.1199903795496
 42
0.0
 10
147.2130222657309
 20
461.9168332271441
 42
0.0
 10
147.1284770278686
 20
461.9168332271441
 42
0.0977622252683791
 10
145.313022265731
 20
452.7205223094936
 42
0.0
 10
145.313022265731
 20
434.146833227144
 42
0.1178625008509346
 10
147.9292384819471
 20
423.2024155827524
 42
-0.1178625008509366
 10
149.313022265731
 20
417.4136326964626
 42
0.0
 10
149.313022265731
 20
341.6887407970272
 42
0.1345075013956306
 10
151.2959051486139
 20
334.4511963690708
 42
-0.1345075013956317
 10
152.413022265731
 20
330.3737065505037
 42
0.0
 10
152.4130222657311
 20
199.864440095651
 42
0.0
 10
153.1083477688864
 20
191.9168332271441
 42
0.0
 10
154.3129315739384
 20
191.9168332271441
 42
0.0
 10
153.6130222657309
 20
199.9168332271446
 42
0.0
 97
        0
 75
     0
 76
     0
 52
135.0
 41
2.0
 77
     0
 78
     1
 53
135.0
 43
-402.6221884813128
 44
-6.08601645509259
 45
-1.414213562373095
 46
-1.414213562373094
 79
     0
 47
0.4820997955160877
 98
        1
 10
152.7204375152739
 20
319.2293721944376
  0
HATCH
  5
1369
330
1E
100
AcDbEntity
  8
SCHRAFF
100
AcDbHatch
 10
0.0
 20
0.0
 30
0.0
210
0.0
220
0.0
230
1.0
  2
_USER
 70
     0
 71
     0
 91
        1
 92
        7
 72
     1
 73
     1
 93
       23
 10
252.813022265731
 20
330.3737065505038
 42
-0.1345075013956313
 10
254.0977069504157
 20
335.0628198418559
 42
0.1345075013956287
 10
255.913022265731
 20
341.6887407970272
 42
0.0
 10
255.913022265731
 20
417.4136326964624
 42
-0.1178625008509361
 10
257.4265357792445
 20
423.745113978342
 42
0.1178625008509353
 10
259.913022265731
 20
434.146833227144
 42
0.0
 10
259.913022265731
 20
452.7205223094936
 42
0.1406476065140156
 10
256.413022265731
 20
464.9168332271441
 42
0.0
 10
257.8149360537075
 20
464.9168332271441
 42
-0.0323355871437242
 10
259.2130222657309
 20
462.1199903795496
 42
0.0
 10
259.2130222657309
 20
461.9168332271441
 42
0.0
 10
259.2975675035933
 20
461.9168332271441
 42
-0.0977622252683791
 10
261.1130222657309
 20
452.7205223094936
 42
0.0
 10
261.1130222657309
 20
434.146833227144
 42
-0.1178625008509346
 10
258.4968060495148
 20
423.2024155827524
 42
0.1178625008509366
 10
257.1130222657309
 20
417.4136326964626
 42
0.0
 10
257.1130222657309
 20
341.6887407970272
 42
-0.1345075013956306
 10
255.130139382848
 20
334.4511963690708
 42
0.1345075013956317
 10
254.0130222657309
 20
330.3737065505037
 42
0.0
 10
254.0130222657308
 20
199.864440095651
 42
0.0
 10
253.3176967625755
 20
191.9168332271441
 42
0.0
 10
252.1131129575235
 20
191.9168332271441
 42
0.0
 10
252.813022265731
 20
199.9168332271446
 42
0.0
 97
        0
 75
     0
 76
     0
 52
45.0
 41
2.0
 77
     0
 78
     1
 53
45.0
 43
0.0
 44
0.0
 45
-1.414213562373094
 46
1.414213562373095
 79
     0
 47
0.4820997955160877
 98
        1
 10
253.705607016188
 20
319.2293721944376
  0
ARC
  5
136A
102
{ACAD_REACTORS
330
136B
102
}
330
1E
100
AcDbEntity
  8
SCHRAFF
100
AcDbCircle
 10
261.1130222657309
 20
448.0381535707035
 30
0.0
 40
4.042823390159128
100
AcDbArc
 50
270.0
 51
349.9588560189948
  0
HATCH
  5
136B
330
1E
100
AcDbEntity
  8
SCHRAFF
100
AcDbHatch
 10
0.0
 20
0.0
 30
0.0
210
0.0
220
0.0
230
1.0
  2
_USER
 70
     0
 71
     1
 91
        2
 92
        7
 72
     1
 73
     1
 93
        4
 10
265.0939209324132
 20
447.3332657997604
 42
0.0
 10
263.6774883597964
 20
445.9168332271437
 42
0.0
 10
261.1130222657309
 20
445.9168332271437
 42
0.0
 10
261.1130222657309
 20
443.9953301805443
 42
0.3637669406775804
 97
        4
330
134D
330
1361
330
1331
330
136A
 92
        7
 72
     0
 73
     1
 93
        4
 10
261.5561680162368
 20
448.0381535707034
 10
261.1130222657309
 20
448.0381535707035
 10
261.1130222657309
 20
445.9168332271437
 10
263.6774883597965
 20
445.9168332271437
 97
        4
330
135E
330
1331
330
1361
330
134F
 75
     0
 76
     0
 52
0.0
 41
0.1
 77
     0
 78
     1
 53
0.0
 43
-17.69532693579902
 44
17.06421036182104
 45
0.0
 46
0.1
 79
     0
 47
0.0587368280222698
 98
        2
 10
262.1705428809556
 20
444.9351192896626
 10
261.9942355504615
 20
446.2860662204638
  0
HATCH
  5
136C
330
1E
100
AcDbEntity
  8
SCHRAFF
100
AcDbHatch
 10
0.0
 20
0.0
 30
0.0
210
0.0
220
0.0
230
1.0
  2
_USER
 70
     0
 71
     0
 91
        2
 92
        7
 72
     1
 73
     1
 93
        4
 10
141.3321235990486
 20
447.3332657997603
 42
0.0
 10
142.7485561716654
 20
445.9168332271437
 42
0.0
 10
145.313022265731
 20
445.9168332271436
 42
0.0
 10
145.313022265731
 20
443.9953301805443
 42
-0.3637669406775779
 97
        0
 92
        7
 72
     0
 73
     1
 93
        4
 10
142.7485561716653
 20
445.9168332271437
 10
144.8698765152248
 20
448.0381535707034
 10
145.3130222657308
 20
448.0381535707034
 10
145.313022265731
 20
445.9168332271436
 97
        0
 75
     0
 76
     0
 52
0.0
 41
0.1
 77
     0
 78
     1
 53
180.0
 43
424.121371467261
 44
17.06421036182121
 45
-0.0000000000000001
 46
0.1
 79
     0
 47
0.0587368280222698
 98
        2
 10
144.2555016505061
 20
444.9351192896625
 10
144.4318089810003
 20
446.2860662204637
  0
ARC
  5
136D
330
1E
100
AcDbEntity
  8
SCHRAFF
100
AcDbCircle
 10
145.3130222657308
 20
448.0381535707034
 30
0.0
 40
4.042823390159128
100
AcDbArc
 50
190.0411439810052
 51
270.0
  0
ARC
  5
1373
330
1E
100
AcDbEntity
  8
STEMPEL
100
AcDbCircle
 10
345.2130222657308
 20
470.916833227144
 30
0.0
 40
3.000000000000028
100
AcDbArc
 50
270.0
 51
90.0
  0
LINE
  5
1374
330
1E
100
AcDbEntity
  8
STEMPEL
100
AcDbLine
 10
332.7130222657307
 20
487.916833227144
 30
0.0
 11
332.8716410145223
 21
478.8295711949575
 31
0.0
  0
LINE
  5
1375
330
1E
100
AcDbEntity
  8
MITTEL
100
AcDbLine
 10
325.2130222657307
 20
467.9168332271438
 30
0.0
 11
325.2130222657307
 21
492.9168332271441
 31
0.0
  0
ARC
  5
1376
330
1E
100
AcDbEntity
  8
STEMPEL
100
AcDbCircle
 10
337.8708794903043
 20
478.9168332271438
 30
0.0
 40
4.99999999999995
100
AcDbArc
 50
181.0000000000017
 51
270.0
  0
LINE
  5
1377
330
1E
100
AcDbEntity
  8
HILF
100
AcDbLine
 10
322.2130222657307
 20
467.9168332271441
 30
0.0
 11
322.2130222657307
 21
487.9168332271438
 31
0.0
  0
LINE
  5
1378
330
1E
100
AcDbEntity
  8
HILF
100
AcDbLine
 10
328.2130222657307
 20
467.9168332271438
 30
0.0
 11
328.2130222657307
 21
487.9168332271438
 31
0.0
  0
LINE
  5
1379
330
1E
100
AcDbEntity
  8
STEMPEL
100
AcDbLine
 10
323.2130222657307
 20
467.9168332271441
 30
0.0
 11
323.2130222657307
 21
487.9168332271438
 31
0.0
  0
LINE
  5
137A
330
1E
100
AcDbEntity
  8
STEMPEL
100
AcDbLine
 10
327.2130222657307
 20
467.9168332271441
 30
0.0
 11
327.2130222657307
 21
487.916833227144
 31
0.0
  0
LINE
  5
137B
330
1E
100
AcDbEntity
  8
STEMPEL
100
AcDbLine
 10
337.8708794903041
 20
473.916833227144
 30
0.0
 11
345.2130222657308
 21
473.916833227144
 31
0.0
  0
LINE
  5
137D
330
1E
100
AcDbEntity
  8
STEMPEL
100
AcDbLine
 10
317.5544035169394
 20
478.8295711949577
 30
0.0
 11
317.7130222657307
 21
487.9168332271438
 31
0.0
  0
LINE
  5
137E
330
1E
100
AcDbEntity
  8
STEMPEL
100
AcDbLine
 10
311.6875299069949
 20
485.9168332271445
 30
0.0
 11
311.6875299069949
 21
483.9168332271437
 31
0.0
  0
LINE
  5
1380
330
1E
100
AcDbEntity
  8
HILF
100
AcDbLine
 10
310.6875299069949
 20
486.9168332271445
 30
0.0
 11
310.6875299069949
 21
483.9168332271438
 31
0.0
  0
LINE
  5
1381
330
1E
100
AcDbEntity
  8
STEMPEL
100
AcDbLine
 10
310.6875299069949
 20
486.9168332271445
 30
0.0
 11
311.6875299069949
 21
485.9168332271445
 31
0.0
  0
LINE
  5
1386
330
1E
100
AcDbEntity
  8
MITTEL
100
AcDbLine
 10
306.6875299069949
 20
491.9168332271437
 30
0.0
 11
306.6875299069949
 21
461.9168332271445
 31
0.0
  0
ARC
  5
1387
330
1E
100
AcDbEntity
  8
STEMPEL
100
AcDbCircle
 10
312.5551650411575
 20
478.916833227144
 30
0.0
 40
5.0
100
AcDbArc
 50
270.0
 51
358.9999999999982
  0
LINE
  5
1388
330
1E
100
AcDbEntity
  8
STEMPEL
100
AcDbLine
 10
301.6875299069949
 20
485.9168332271445
 30
0.0
 11
301.6875299069949
 21
483.9168332271437
 31
0.0
  0
LINE
  5
138A
330
1E
100
AcDbEntity
  8
STEMPEL
100
AcDbLine
 10
301.6875299069949
 20
485.9168332271445
 30
0.0
 11
302.6875299069949
 21
486.9168332271445
 31
0.0
  0
LINE
  5
138B
330
1E
100
AcDbEntity
  8
HILF
100
AcDbLine
 10
302.6875299069949
 20
486.9168332271445
 30
0.0
 11
302.687529906995
 21
483.9168332271438
 31
0.0
  0
LINE
  5
1392
330
1E
100
AcDbEntity
  8
STEMPEL
100
AcDbLine
 10
311.6875299069949
 20
485.9168332271445
 30
0.0
 11
301.6875299069949
 21
485.9168332271445
 31
0.0
  0
LINE
  5
1393
330
1E
100
AcDbEntity
  8
STEMPEL
100
AcDbLine
 10
302.6875299069949
 20
486.9168332271445
 30
0.0
 11
310.6875299069949
 21
486.9168332271445
 31
0.0
  0
ARC
  5
1398
330
1E
100
AcDbEntity
  8
STEMPEL
100
AcDbCircle
 10
285.2130222657308
 20
470.916833227144
 30
0.0
 40
2.999999999999886
100
AcDbArc
 50
90.0
 51
270.0
  0
LINE
  5
139D
330
1E
100
AcDbEntity
  8
TEXT
 62
     2
100
AcDbLine
 10
345.4811317020667
 20
362.5978538472632
 30
0.0
 11
257.8086438956009
 21
451.4691899834238
 31
0.0
  0
TEXT
  5
13B7
330
1E
100
AcDbEntity
  8
TEXT
 62
     1
100
AcDbText
 10
198.0042053299384
 20
301.5218869625656
 30
0.0
 40
7.0
  1
DN100
 50
90.0
 41
0.8
100
AcDbText
  0
LINE
  5
13BB
330
1E
100
AcDbEntity
  8
TEXT
 62
     2
100
AcDbLine
 10
345.4811317020667
 20
362.5978538472632
 30
0.0
 11
457.0108730364695
 21
362.5978538472632
 31
0.0
  0
TEXT
  5
13BC
330
1E
100
AcDbEntity
  8
TEXT
 62
     1
100
AcDbText
 10
352.2069584024119
 20
365.5843943393163
 30
0.0
 40
7.0
  1
Dichtelement DN100
 41
0.8
100
AcDbText
  0
TEXT
  5
13BD
330
1E
100
AcDbEntity
  8
TEXT
 62
     1
100
AcDbText
 10
352.2069584024119
 20
352.0463810342679
 30
0.0
 40
7.0
  1
EDV-Art.Nr. 00911.100X
 41
0.8
100
AcDbText
  0
LINE
  5
13BE
330
1E
100
AcDbEntity
  8
STEMPEL
100
AcDbLine
 10
345.2130222657308
 20
467.9168332271437
 30
0.0
 11
260.344612167547
 21
467.9168332271439
 31
0.0
  0
LINE
  5
13BF
330
1E
100
AcDbEntity
  8
STEMPEL
100
AcDbLine
 10
317.7130222657307
 20
487.9168332271438
 30
0.0
 11
332.7130222657307
 21
487.916833227144
 31
0.0
  0
LINE
  5
13C2
330
1E
100
AcDbEntity
  8
TEXT
 62
     2
100
AcDbLine
 10
322.0513273211466
 20
200.3325610381946
 30
0.0
 11
253.639157002661
 21
217.1757508446519
 31
0.0
  0
TEXT
  5
13C3
330
1E
100
AcDbEntity
  8
TEXT
 62
     1
100
AcDbText
 10
328.7771540214918
 20
189.7810882251993
 30
0.0
 40
7.0
  1
EDV-Art.Nr. 21971.100X
 41
0.8
100
AcDbText
  0
TEXT
  5
13C4
330
1E
100
AcDbEntity
  8
TEXT
 62
     1
100
AcDbText
 10
328.7771540214918
 20
203.3191015302477
 30
0.0
 40
7.0
  1
Unterteil DN100
 41
0.8
100
AcDbText
  0
LINE
  5
13C5
330
1E
100
AcDbEntity
  8
TEXT
 62
     2
100
AcDbLine
 10
322.0513273211466
 20
200.3325610381946
 30
0.0
 11
429.0140909689101
 21
200.3325610381946
 31
0.0
  0
LINE
  5
13CB
330
1E
100
AcDbEntity
  8
STEMPEL
100
AcDbLine
 10
152.2130222657308
 20
485.9168332271443
 30
0.0
 11
152.2130222657308
 21
483.9168332271439
 31
0.0
  0
LINE
  5
13CF
330
1E
100
AcDbEntity
  8
HILF
100
AcDbLine
 10
151.2130222657308
 20
486.9168332271443
 30
0.0
 11
151.2130222657308
 21
483.9168332271438
 31
0.0
  0
LINE
  5
13D0
330
1E
100
AcDbEntity
  8
STEMPEL
100
AcDbLine
 10
152.2130222657308
 20
485.9168332271443
 30
0.0
 11
151.2130222657308
 21
486.9168332271443
 31
0.0
  0
LINE
  5
13D1
330
1E
100
AcDbEntity
  8
STEMPEL
100
AcDbLine
 10
142.2130222657308
 20
485.9168332271445
 30
0.0
 11
142.2130222657308
 21
483.9168332271439
 31
0.0
  0
LINE
  5
13D3
330
1E
100
AcDbEntity
  8
HILF
100
AcDbLine
 10
143.2130222657308
 20
486.9168332271445
 30
0.0
 11
143.2130222657308
 21
483.9168332271439
 31
0.0
  0
LINE
  5
13D4
330
1E
100
AcDbEntity
  8
STEMPEL
100
AcDbLine
 10
143.2130222657308
 20
486.9168332271445
 30
0.0
 11
142.2130222657308
 21
485.9168332271445
 31
0.0
  0
LINE
  5
13D5
330
1E
100
AcDbEntity
  8
STEMPEL
100
AcDbLine
 10
142.2130222657309
 20
485.9168332271445
 30
0.0
 11
152.2130222657307
 21
485.9168332271445
 31
0.0
  0
LINE
  5
13D6
330
1E
100
AcDbEntity
  8
STEMPEL
100
AcDbLine
 10
151.2130222657308
 20
486.9168332271443
 30
0.0
 11
143.2130222657308
 21
486.9168332271445
 31
0.0
  0
LINE
  5
13DB
330
1E
100
AcDbEntity
  8
MITTEL
100
AcDbLine
 10
147.2130222657308
 20
491.9168332271444
 30
0.0
 11
147.2130222657308
 21
471.7498879813714
 31
0.0
  0
ARC
  5
13E4
330
1E
100
AcDbEntity
  8
STEMPEL
100
AcDbCircle
 10
121.2130222657308
 20
470.9168332271438
 30
0.0
 40
3.0
100
AcDbArc
 50
270.0
 51
90.0
  0
LINE
  5
13E7
330
1E
100
AcDbEntity
  8
STEMPEL
100
AcDbLine
 10
96.21302226573073
 20
485.9168332271445
 30
0.0
 11
96.21302226573071
 21
483.9168332271438
 31
0.0
  0
LINE
  5
13EB
330
1E
100
AcDbEntity
  8
HILF
100
AcDbLine
 10
95.21302226573073
 20
486.9168332271445
 30
0.0
 11
95.21302226573073
 21
483.9168332271437
 31
0.0
  0
LINE
  5
13EC
330
1E
100
AcDbEntity
  8
STEMPEL
100
AcDbLine
 10
96.21302226573073
 20
485.9168332271445
 30
0.0
 11
95.21302226573073
 21
486.9168332271445
 31
0.0
  0
LINE
  5
13ED
330
1E
100
AcDbEntity
  8
STEMPEL
100
AcDbLine
 10
98.21302226573074
 20
473.9168332271439
 30
0.0
 11
98.21302226573081
 21
467.9168332271438
 31
0.0
  0
LINE
  5
13EE
330
1E
100
AcDbEntity
  8
HILF
100
AcDbLine
 10
95.21302226573073
 20
473.9168332271439
 30
0.0
 11
95.21302226573073
 21
461.9168332271445
 31
0.0
  0
LINE
  5
13EF
330
1E
100
AcDbEntity
  8
STEMPEL
100
AcDbLine
 10
96.21302226573073
 20
473.9168332271439
 30
0.0
 11
96.21302226573073
 21
461.9168332271445
 31
0.0
  0
LINE
  5
13F2
330
1E
100
AcDbEntity
  8
STEMPEL
100
AcDbLine
 10
86.21302226573073
 20
485.9168332271445
 30
0.0
 11
86.21302226573071
 21
483.9168332271438
 31
0.0
  0
LINE
  5
13F4
330
1E
100
AcDbEntity
  8
HILF
100
AcDbLine
 10
87.21302226573072
 20
486.9168332271445
 30
0.0
 11
87.21302226573071
 21
483.9168332271437
 31
0.0
  0
LINE
  5
13F5
330
1E
100
AcDbEntity
  8
STEMPEL
100
AcDbLine
 10
87.21302226573072
 20
486.9168332271445
 30
0.0
 11
86.21302226573073
 21
485.9168332271445
 31
0.0
  0
LINE
  5
13F9
330
1E
100
AcDbEntity
  8
STEMPEL
100
AcDbLine
 10
86.21302226573073
 20
473.9168332271439
 30
0.0
 11
86.21302226573073
 21
461.9168332271445
 31
0.0
  0
LINE
  5
13FA
330
1E
100
AcDbEntity
  8
HILF
100
AcDbLine
 10
87.21302226573072
 20
473.9168332271439
 30
0.0
 11
87.21302226573072
 21
461.9168332271445
 31
0.0
  0
LINE
  5
13FB
330
1E
100
AcDbEntity
  8
STEMPEL
100
AcDbLine
 10
84.21302226573073
 20
473.9168332271439
 30
0.0
 11
84.21302226573081
 21
467.9168332271438
 31
0.0
  0
LINE
  5
13FD
330
1E
100
AcDbEntity
  8
MITTEL
100
AcDbLine
 10
91.21302226573073
 20
491.9168332271446
 30
0.0
 11
91.21302226573073
 21
461.9168332271445
 31
0.0
  0
LINE
  5
13FF
330
1E
100
AcDbEntity
  8
STEMPEL
100
AcDbLine
 10
95.21302226573073
 20
486.9168332271445
 30
0.0
 11
87.21302226573072
 21
486.9168332271445
 31
0.0
  0
LINE
  5
1400
330
1E
100
AcDbEntity
  8
STEMPEL
100
AcDbLine
 10
86.21302226573073
 20
485.9168332271445
 30
0.0
 11
96.21302226573073
 21
485.9168332271445
 31
0.0
  0
LINE
  5
1407
330
1E
100
AcDbEntity
  8
STEMPEL
100
AcDbLine
 10
146.0814323639149
 20
467.9168332271438
 30
0.0
 11
96.21302226573073
 21
467.9168332271438
 31
0.0
  0
ARC
  5
140F
330
1E
100
AcDbEntity
  8
STEMPEL
100
AcDbCircle
 10
61.21302226573073
 20
470.9168332271438
 30
0.0
 40
3.0
100
AcDbArc
 50
90.0
 51
270.0
  0
LINE
  5
1413
330
1E
100
AcDbEntity
  8
STEMPEL
100
AcDbLine
 10
86.21302226573073
 20
467.9168332271438
 30
0.0
 11
61.21302226573073
 21
467.9168332271438
 31
0.0
  0
DIMENSION
  5
1414
330
1E
100
AcDbEntity
  8
BEM
100
AcDbDimension
  2
*D3
 10
31.68655322100244
 20
191.9168332271441
 30
0.0
 11
25.18655322100242
 21
326.916833227144
 31
0.0
 70
    32
 71
     5
 42
269.9999999999998
  3
Standard
100
AcDbAlignedDimension
 13
53.21302226573073
 23
461.9168332271438
 33
0.0
 14
153.1083477688864
 24
191.9168332271441
 34
0.0
 50
90.0
100
AcDbRotatedDimension
1001
ACAD
1000
DSTYLE
1002
{
1070
    40
1040
2.0
1070
    41
1040
3.5
1070
    42
1040
1.0
1070
    43
1040
7.0
1070
    44
1040
1.0
1070
    73
1070
     0
1070
    74
1070
     0
1070
    77
1070
     1
1070
    78
1070
     8
1070
    79
1070
     2
1070
   140
1040
3.5
1070
   141
1040
1.5
1070
   146
1040
0.5142857142857144
1070
   147
1040
1.5
1070
   172
1070
     1
1070
   178
1070
     1
1070
   179
1070
     2
1070
   271
1070
     2
1070
   272
1070
     2
1070
   284
1070
     8
1070
   285
1070
     8
1070
   286
1070
     8
1002
}
  0
LINE
  5
1416
330
1E
100
AcDbEntity
  8
STEMPEL
100
AcDbLine
 10
61.21302226573073
 20
473.9168332271439
 30
0.0
 11
152.4130222657309
 21
473.9168332271439
 31
0.0
  0
HATCH
  5
1417
330
1E
100
AcDbEntity
  8
SCHRAFF
100
AcDbHatch
 10
0.0
 20
0.0
 30
0.0
210
0.0
220
0.0
230
1.0
  2
_U
 70
     0
 71
     0
 91
        5
 92
        7
 72
     1
 73
     1
 93
        4
 10
84.21302226573073
 20
473.9168332271439
 42
0.0
 10
61.21302226573073
 20
473.9168332271439
 42
1.0
 10
61.21302226573073
 20
467.9168332271438
 42
0.0
 10
84.21302226573073
 20
467.9168332271438
 42
0.0
 97
        0
 92
        7
 72
     1
 73
     1
 93
        4
 10
121.2130222657308
 20
473.9168332271439
 42
0.0
 10
98.21302226573074
 20
473.9168332271439
 42
0.0
 10
98.21302226573074
 20
467.9168332271438
 42
0.0
 10
121.2130222657308
 20
467.9168332271438
 42
1.0
 97
        0
 92
        7
 72
     1
 73
     1
 93
        5
 10
306.6875299069949
 20
473.9168332271439
 42
0.0
 10
285.2130222657308
 20
473.9168332271439
 42
0.0
 10
285.2130214398246
 20
473.916833227144
 42
1.0
 10
285.2130222657308
 20
467.9168332271438
 42
0.0
 10
306.6875299069949
 20
467.9168332271438
 42
0.0
 97
        0
 92
        7
 72
     1
 73
     1
 93
        7
 10
323.2130222657307
 20
487.916833227144
 42
0.0
 10
317.7130222657307
 20
487.9168332271438
 42
0.0
 10
317.5544035169394
 20
478.8295711949577
 42
-0.4091108014277335
 10
312.5551650411575
 20
473.9168332271439
 42
0.0
 10
306.6875299069949
 20
473.9168332271439
 42
0.0
 10
306.6875299069949
 20
467.9168332271438
 42
0.0
 10
323.2130222657308
 20
467.9168332271438
 42
0.0
 97
        0
 92
        7
 72
     1
 73
     1
 93
        7
 10
345.2130222657308
 20
473.916833227144
 42
0.0
 10
337.8708794903043
 20
473.916833227144
 42
-0.4091108014277076
 10
332.8716410145223
 20
478.8295711949575
 42
0.0
 10
332.7130222657307
 20
487.916833227144
 42
0.0
 10
327.2130222657307
 20
487.9168332271438
 42
0.0
 10
327.2130222657307
 20
467.9168332271438
 42
0.0
 10
345.2130222657308
 20
467.9168332271438
 42
1.0
 97
        0
 75
     0
 76
     0
 52
135.0
 41
5.0
 77
     0
 78
     1
 53
135.0
 43
-19.09894090542434
 44
15.38949971250628
 45
-3.535533905932737
 46
-3.535533905932737
 79
     0
 47
0.374699653914983
 98
        5
 10
70.22989041902167
 20
470.4699907119221
 10
112.9740948013901
 20
471.594088781078
 10
299.3238339806623
 20
472.3434893592589
 10
314.6967496959788
 20
472.7181887156444
 10
331.9444130395297
 20
473.0928880720298
  0
DIMENSION
  5
1418
330
1E
100
AcDbEntity
  8
BEM
100
AcDbDimension
  2
*D4
 10
53.21302226573073
 20
501.7373742778691
 30
0.0
 11
203.2130222657308
 21
508.2373742778691
 31
0.0
 70
    32
  1
%%c<>
 71
     5
 42
300.0000000000002
  3
Standard
100
AcDbAlignedDimension
 13
353.2130222657309
 23
464.9168332271438
 33
0.0
 14
53.21302226573073
 24
464.9168332271438
 34
0.0
100
AcDbRotatedDimension
1001
ACAD
1000
DSTYLE
1002
{
1070
    40
1040
2.0
1070
    41
1040
3.5
1070
    42
1040
1.0
1070
    43
1040
7.0
1070
    44
1040
1.0
1070
    73
1070
     0
1070
    74
1070
     0
1070
    77
1070
     1
1070
    78
1070
     8
1070
    79
1070
     2
1070
   140
1040
3.5
1070
   141
1040
1.5
1070
   146
1040
0.5142857142857144
1070
   147
1040
1.5
1070
   172
1070
     1
1070
   178
1070
     1
1070
   179
1070
     2
1070
   271
1070
     2
1070
   272
1070
     2
1070
   284
1070
     8
1070
   285
1070
     8
1070
   286
1070
     8
1002
}
  0
LINE
  5
1459
330
1E
100
AcDbEntity
  8
TEXT
 62
     2
100
AcDbLine
 10
341.5698805909396
 20
399.4242558697702
 30
0.0
 11
453.0996219253425
 21
399.4242558697702
 31
0.0
  0
TEXT
  5
145A
330
1E
100
AcDbEntity
  8
TEXT
 62
     1
100
AcDbText
 10
348.6516662941215
 20
388.8727830567749
 30
0.0
 40
7.0
  1
EDV-Art.Nr. 21810.125X
 41
0.8
100
AcDbText
  0
TEXT
  5
145B
330
1E
100
AcDbEntity
  8
TEXT
 62
     1
100
AcDbText
 10
348.2957072912848
 20
402.4107963618233
 30
0.0
 40
7.0
  1
Kompressionsdichtung
 41
0.8
100
AcDbText
  0
LINE
  5
145D
330
1E
100
AcDbEntity
  8
TEXT
 62
     2
100
AcDbLine
 10
341.5698805909396
 20
399.4242558697702
 30
0.0
 11
289.1411163754278
 21
463.7526915175882
 31
0.0
  0
LINE
  5
145E
330
1E
100
AcDbEntity
  8
TEXT
 62
     2
100
AcDbLine
 10
358.4387960307813
 20
436.4839587840927
 30
0.0
 11
334.7102692623557
 21
471.9543775210546
 31
0.0
  0
TEXT
  5
145F
330
1E
100
AcDbEntity
  8
TEXT
 62
     1
100
AcDbText
 10
359.0341519095357
 20
439.9677929450032
 30
0.0
 40
7.0
  1
Losflansch DN100
 41
0.8
100
AcDbText
  0
LINE
  5
1460
330
1E
100
AcDbEntity
  8
TEXT
 62
     2
100
AcDbLine
 10
464.3773606059144
 20
436.4839587840927
 30
0.0
 11
358.4387960307813
 21
436.4839587840927
 31
0.0
  0
TEXT
  5
1461
330
1E
100
AcDbEntity
  8
TEXT
 62
     1
100
AcDbText
 10
359.0341519095357
 20
427.1914619762936
 30
0.0
 40
7.0
  1
EDV-Art.Nr. 21905.100X
 41
0.8
100
AcDbText
  0
LINE
  5
1488
102
{ACAD_REACTORS
330
14D2
102
}
330
1E
100
AcDbEntity
  8
STEMPEL
100
AcDbLine
 10
147.6274848926294
 20
446.9168332271441
 30
0.0
 11
148.1134373421499
 21
448.9168332271441
 31
0.0
  0
ARC
  5
1489
102
{ACAD_REACTORS
330
14D2
102
}
330
1E
100
AcDbEntity
  8
STEMPEL
100
AcDbCircle
 10
159.1765648510963
 20
448.6327668734632
 30
0.0
 40
8.867073426506241
100
AcDbArc
 50
178.1641531904486
 51
206.8638823232074
  0
LINE
  5
148A
102
{ACAD_REACTORS
330
14D2
102
}
330
1E
100
AcDbEntity
  8
STEMPEL
100
AcDbLine
 10
150.3140427801644
 20
448.9168332271441
 30
0.0
 11
148.1134373421499
 21
448.9168332271441
 31
0.0
  0
LINE
  5
148B
102
{ACAD_REACTORS
330
14D2
102
}
330
1E
100
AcDbEntity
  8
STEMPEL
100
AcDbLine
 10
150.4771072316534
 20
446.9168332271442
 30
0.0
 11
146.5130222657304
 21
446.9168332271443
 31
0.0
  0
LINE
  5
148C
102
{ACAD_REACTORS
330
14D2
102
}
330
1E
100
AcDbEntity
  8
STEMPEL
100
AcDbLine
 10
152.4130222657303
 20
444.6259806362049
 30
0.0
 11
151.2664033356802
 21
444.6259806362049
 31
0.0
  0
LINE
  5
148D
330
1E
100
AcDbEntity
  8
HILF
100
AcDbLine
 10
152.4130222657308
 20
420.3895722483044
 30
0.0
 11
151.4188527955532
 21
420.3895722483044
 31
0.0
  0
DIMENSION
  5
148E
330
1E
100
AcDbEntity
  8
BEM
100
AcDbDimension
  2
*D5
 10
31.58043709291681
 20
611.9168332271448
 30
0.0
 11
25.08043709291671
 21
536.9168332271448
 31
0.0
 70
    32
  1
min.35 - max.200
 71
     5
 42
150.0
  3
Standard
100
AcDbAlignedDimension
 13
53.21302226573073
 23
461.9168332271448
 33
0.0
 14
53.21302226573116
 24
611.9168332271448
 34
0.0
 50
90.0
100
AcDbRotatedDimension
1001
ACAD
1000
DSTYLE
1002
{
1070
    40
1040
2.0
1070
    41
1040
3.5
1070
    42
1040
1.0
1070
    43
1040
7.0
1070
    44
1040
1.0
1070
    73
1070
     0
1070
    74
1070
     0
1070
    77
1070
     1
1070
    78
1070
     8
1070
    79
1070
     2
1070
   140
1040
3.5
1070
   141
1040
1.5
1070
   146
1040
0.5142857142857144
1070
   147
1040
1.5
1070
   172
1070
     1
1070
   178
1070
     1
1070
   179
1070
     2
1070
   271
1070
     2
1070
   272
1070
     2
1070
   284
1070
     8
1070
   285
1070
     8
1070
   286
1070
     8
1002
}
  0
LINE
  5
14B6
330
1E
100
AcDbEntity
  8
MITTEL
100
AcDbLine
 10
203.2130222657308
 20
485.6031608444533
 30
0.0
 11
203.2130222657304
 21
287.4353814757144
 31
0.0
  0
HATCH
  5
14D2
330
1E
100
AcDbEntity
  8
SCHRAFF
100
AcDbHatch
 10
0.0
 20
0.0
 30
0.0
210
0.0
220
0.0
230
1.0
  2
NET
 70
     0
 71
     1
 91
        2
 92
        7
 72
     1
 73
     1
 93
       13
 10
254.013022265731
 20
444.6259806362047
 42
0.0
 10
255.1596411957811
 20
444.6259806362046
 42
0.1258849064518493
 10
256.1120017512972
 20
448.9168332271439
 42
0.0
 10
258.3126071893114
 20
448.9168332271439
 42
0.0
 10
258.7985596388318
 20
446.916833227144
 42
0.0
 10
259.9130222657309
 20
446.916833227144
 42
0.0
 10
259.9130222657309
 20
452.7205223094937
 42
0.1406476065140127
 10
256.413022265731
 20
464.916833227144
 42
0.0
 10
261.4625941581433
 20
464.916833227144
 42
0.1436237563963057
 10
260.8605941163568
 20
467.0863976745986
 42
0.0
 10
258.2993871847571
 20
471.2084746161118
 42
0.6565381519876399
 10
255.5764090013388
 20
470.8050617947978
 42
0.0
 10
254.013022265731
 20
464.9704230656309
 42
0.0
 97
       13
330
1341
330
131C
330
131B
330
1311
330
1318
330
1108
330
130F
330
1315
330
1313
330
131A
330
1312
330
133C
330
133D
 92
        7
 72
     1
 73
     1
 93
       13
 10
152.4130222657308
 20
464.9704230656304
 42
0.0
 10
150.8496355301232
 20
470.8050617947978
 42
0.6565381519876399
 10
148.126657346705
 20
471.2084746161118
 42
0.0
 10
145.5654504151052
 20
467.0863976745987
 42
0.1436237563963082
 10
144.9634503733185
 20
464.9168332271441
 42
0.0
 10
150.013022265731
 20
464.9168332271441
 42
0.1406476065140178
 10
146.5130222657309
 20
452.7205223094934
 42
0.0
 10
146.5130222657309
 20
446.9168332271443
 42
0.0
 10
147.6274848926295
 20
446.9168332271443
 42
0.0
 10
148.1134373421499
 20
448.9168332271442
 42
0.0
 10
150.3140427801644
 20
448.9168332271441
 42
0.1258849064518476
 10
151.2664033356802
 20
444.6259806362049
 42
0.0
 10
152.4130222657309
 20
444.6259806362048
 42
0.0
 97
       13
330
130B
330
130C
330
130A
330
1307
330
1305
330
1322
330
1323
330
148B
330
1488
330
148A
330
1489
330
148C
330
1109
 75
     0
 76
     1
 52
45.0
 41
15.0
 77
     0
 78
     2
 53
45.0
 43
0.0
 44
0.0
 45
-1.325825214724776
 46
1.325825214724776
 79
     0
 53
135.0
 43
0.0
 44
0.0
 45
-1.325825214724776
 46
-1.325825214724776
 79
     0
 47
0.1990490886213137
 98
        2
 10
255.7505044677701
 20
457.5464379193147
 10
149.7992254695018
 20
457.7454869258415
  0
LINE
  5
14D3
330
1E
100
AcDbEntity
  8
STEMPEL
100
AcDbLine
 10
254.013022265731
 20
471.9168332271439
 30
0.0
 11
257.0252977407724
 21
471.9168332271439
 31
0.0
  0
LINE
  5
14D4
330
1E
100
AcDbEntity
  8
STEMPEL
100
AcDbLine
 10
254.013022265731
 20
473.9168332271439
 30
0.0
 11
312.5551650411575
 21
473.9168332271439
 31
0.0
  0
ARC
  5
1605
330
1E
100
AcDbEntity
  8
STEMPEL
100
AcDbCircle
 10
306.6875299069949
 20
453.605944094689
 30
0.0
 40
30.31088913245485
100
AcDbArc
 50
81.78678929826059
 51
98.2132107017394
  0
ARC
  5
1606
330
1E
100
AcDbEntity
  8
STEMPEL
100
AcDbCircle
 10
300.1923393786116
 20
476.2225275193594
 30
0.0
 40
7.694305707784447
100
AcDbArc
 50
73.65710669401345
 51
106.3428933059834
  0
ARC
  5
1607
330
1E
100
AcDbEntity
  8
STEMPEL
100
AcDbCircle
 10
313.1827204353781
 20
476.2225275193594
 30
0.0
 40
7.694305707784447
100
AcDbArc
 50
73.65710669401345
 51
106.3428933059834
  0
ARC
  5
1608
330
1E
100
AcDbEntity
  8
HILF
100
AcDbCircle
 10
306.6875299069949
 20
454.0183721794826
 30
0.0
 40
22.41111549782308
100
AcDbArc
 50
78.85962783890455
 51
101.1403721610954
  0
ARC
  5
1609
330
1E
100
AcDbEntity
  8
HILF
100
AcDbCircle
 10
313.1827204353782
 20
470.6683470776142
 30
0.0
 40
5.761140599691502
100
AcDbArc
 50
67.92594526326054
 51
112.0740547367394
  0
ARC
  5
160A
330
1E
100
AcDbEntity
  8
HILF
100
AcDbCircle
 10
300.1923393786116
 20
470.6683470776142
 30
0.0
 40
5.761140599691502
100
AcDbArc
 50
67.92594526326054
 51
112.0740547367394
  0
POINT
  5
160B
330
1E
100
AcDbEntity
  8
0
100
AcDbPoint
 10
306.6875299069949
 20
473.9168332271439
 30
0.0
210
0.0000000000000001
220
1.0
230
0.0
  0
LINE
  5
160C
330
1E
100
AcDbEntity
  8
STEMPEL
100
AcDbLine
 10
299.1875299069949
 20
483.9168332271438
 30
0.0
 11
314.1875299069949
 21
483.9168332271438
 31
0.0
  0
LINE
  5
160D
330
1E
100
AcDbEntity
  8
STEMPEL
100
AcDbLine
 10
315.3477839448393
 20
476.0071897433436
 30
0.0
 11
315.3477839448393
 21
483.6059440946884
 31
0.0
  0
LINE
  5
160E
330
1E
100
AcDbEntity
  8
STEMPEL
100
AcDbLine
 10
311.0176569259171
 20
476.0071897433436
 30
0.0
 11
311.0176569259171
 21
483.6059440946884
 31
0.0
  0
LINE
  5
160F
330
1E
100
AcDbEntity
  8
STEMPEL
100
AcDbLine
 10
302.3574028880727
 20
476.0071897433436
 30
0.0
 11
302.3574028880727
 21
483.6059440946884
 31
0.0
  0
LINE
  5
1610
330
1E
100
AcDbEntity
  8
STEMPEL
100
AcDbLine
 10
316.080975651199
 20
475.3716026927332
 30
0.0
 11
296.2810147995006
 21
475.3716026927333
 31
0.0
  0
LINE
  5
1612
330
1E
100
AcDbEntity
  8
STEMPEL
100
AcDbLine
 10
298.0272758691505
 20
476.0071897433436
 30
0.0
 11
298.0272758691505
 21
483.6059440946884
 31
0.0
  0
LINE
  5
1613
330
1E
100
AcDbEntity
  8
STEMPEL
100
AcDbLine
 10
299.1875299069949
 20
483.9168332271438
 30
0.0
 11
298.0272758691505
 21
483.6059440946884
 31
0.0
  0
LINE
  5
1614
330
1E
100
AcDbEntity
  8
STEMPEL
100
AcDbLine
 10
315.3477839448393
 20
483.6059440946884
 30
0.0
 11
314.1875299069949
 21
483.9168332271438
 31
0.0
  0
LINE
  5
1615
330
1E
100
AcDbEntity
  8
STEMPEL
100
AcDbLine
 10
316.3376898484035
 20
475.6468934597219
 30
0.0
 11
315.3477839448393
 21
476.0071897433436
 31
0.0
  0
LINE
  5
1616
330
1E
100
AcDbEntity
  8
STEMPEL
100
AcDbLine
 10
298.0272758691505
 20
476.0071897433436
 30
0.0
 11
296.2810147995006
 21
475.3716026927333
 31
0.0
  0
ARC
  5
1617
330
1E
100
AcDbEntity
  8
STEMPEL
100
AcDbCircle
 10
296.5375299069949
 20
474.6668332271438
 30
0.0
 40
0.7500000000000013
100
AcDbArc
 50
109.9999999999995
 51
269.9999991462263
  0
ARC
  5
1632
330
1E
100
AcDbEntity
  8
STEMPEL
100
AcDbCircle
 10
147.2130222657308
 20
453.605944094689
 30
0.0
 40
30.31088913245485
100
AcDbArc
 50
81.78678929826221
 51
98.2132107017378
  0
ARC
  5
1633
330
1E
100
AcDbEntity
  8
STEMPEL
100
AcDbCircle
 10
140.7178317373475
 20
476.2225275193594
 30
0.0
 40
7.694305707784447
100
AcDbArc
 50
73.65710669401501
 51
106.342893305985
  0
ARC
  5
1634
330
1E
100
AcDbEntity
  8
STEMPEL
100
AcDbCircle
 10
153.7082127941141
 20
476.2225275193594
 30
0.0
 40
7.694305707784447
100
AcDbArc
 50
99.69079670689836
 51
106.342893305985
  0
ARC
  5
1635
330
1E
100
AcDbEntity
  8
HILF
100
AcDbCircle
 10
147.2130222657308
 20
454.0183721794826
 30
0.0
 40
22.41111549782308
100
AcDbArc
 50
78.85962783890615
 51
101.1403721610938
  0
ARC
  5
1636
330
1E
100
AcDbEntity
  8
HILF
100
AcDbCircle
 10
153.7082127941141
 20
470.6683470776142
 30
0.0
 40
5.761140599691502
100
AcDbArc
 50
102.9919967233922
 51
112.0740547367379
  0
ARC
  5
1637
330
1E
100
AcDbEntity
  8
HILF
100
AcDbCircle
 10
140.7178317373475
 20
470.6683470776142
 30
0.0
 40
5.761140599691502
100
AcDbArc
 50
67.92594526326206
 51
112.0740547367379
  0
POINT
  5
1638
330
1E
100
AcDbEntity
  8
0
100
AcDbPoint
 10
147.2130222657308
 20
473.9168332271439
 30
0.0
210
0.0000000000000001
220
1.0
230
0.0
  0
LINE
  5
1639
330
1E
100
AcDbEntity
  8
STEMPEL
100
AcDbLine
 10
139.7130222657309
 20
483.9168332271439
 30
0.0
 11
152.4130222657309
 21
483.9168332271439
 31
0.0
  0
LINE
  5
163B
330
1E
100
AcDbEntity
  8
STEMPEL
100
AcDbLine
 10
151.543149284653
 20
476.0071897433437
 30
0.0
 11
151.543149284653
 21
483.6059440946885
 31
0.0
  0
LINE
  5
163C
330
1E
100
AcDbEntity
  8
STEMPEL
100
AcDbLine
 10
142.8828952468086
 20
476.0071897433437
 30
0.0
 11
142.8828952468086
 21
483.6059440946885
 31
0.0
  0
LINE
  5
163D
330
1E
100
AcDbEntity
  8
STEMPEL
100
AcDbLine
 10
152.4130222657309
 20
475.3716026927333
 30
0.0
 11
136.8065071582366
 21
475.3716026927333
 31
0.0
  0
LINE
  5
163E
330
1E
100
AcDbEntity
  8
STEMPEL
100
AcDbLine
 10
152.4130222657309
 20
473.9168332271439
 30
0.0
 11
137.0630222657308
 21
473.9168332271439
 31
0.0
  0
LINE
  5
163F
330
1E
100
AcDbEntity
  8
STEMPEL
100
AcDbLine
 10
138.5527682278864
 20
476.0071897433437
 30
0.0
 11
138.5527682278864
 21
483.6059440946885
 31
0.0
  0
LINE
  5
1640
330
1E
100
AcDbEntity
  8
STEMPEL
100
AcDbLine
 10
139.7130222657309
 20
483.9168332271439
 30
0.0
 11
138.5527682278864
 21
483.6059440946885
 31
0.0
  0
LINE
  5
1643
330
1E
100
AcDbEntity
  8
STEMPEL
100
AcDbLine
 10
138.5527682278864
 20
476.0071897433437
 30
0.0
 11
136.8065071582366
 21
475.3716026927333
 31
0.0
  0
ARC
  5
1644
330
1E
100
AcDbEntity
  8
STEMPEL
100
AcDbCircle
 10
137.0630222657308
 20
474.6668332271439
 30
0.0
 40
0.7500000000000013
100
AcDbArc
 50
109.9999999999995
 51
269.9999991462263
  0
ARC
  5
165F
330
1E
100
AcDbEntity
  8
STEMPEL
100
AcDbCircle
 10
91.21302226573073
 20
453.605944094689
 30
0.0
 40
30.31088913245485
100
AcDbArc
 50
81.78678929826139
 51
98.2132107017378
  0
ARC
  5
1660
330
1E
100
AcDbEntity
  8
STEMPEL
100
AcDbCircle
 10
84.71783173734744
 20
476.2225275193594
 30
0.0
 40
7.694305707784447
100
AcDbArc
 50
73.65710669401501
 51
106.342893305985
  0
ARC
  5
1661
330
1E
100
AcDbEntity
  8
STEMPEL
100
AcDbCircle
 10
97.70821279411402
 20
476.2225275193594
 30
0.0
 40
7.694305707784447
100
AcDbArc
 50
73.65710669401501
 51
106.342893305985
  0
ARC
  5
1662
330
1E
100
AcDbEntity
  8
HILF
100
AcDbCircle
 10
91.21302226573073
 20
454.0183721794826
 30
0.0
 40
22.41111549782308
100
AcDbArc
 50
78.85962783890537
 51
101.1403721610946
  0
ARC
  5
1663
330
1E
100
AcDbEntity
  8
HILF
100
AcDbCircle
 10
97.70821279411402
 20
470.6683470776142
 30
0.0
 40
5.761140599691502
100
AcDbArc
 50
67.92594526326206
 51
112.0740547367379
  0
ARC
  5
1664
330
1E
100
AcDbEntity
  8
HILF
100
AcDbCircle
 10
84.71783173734744
 20
470.6683470776142
 30
0.0
 40
5.761140599691502
100
AcDbArc
 50
67.92594526326206
 51
112.0740547367379
  0
POINT
  5
1665
330
1E
100
AcDbEntity
  8
0
100
AcDbPoint
 10
91.21302226573073
 20
473.9168332271439
 30
0.0
210
0.0000000000000001
220
1.0
230
0.0
  0
LINE
  5
1666
330
1E
100
AcDbEntity
  8
STEMPEL
100
AcDbLine
 10
83.71302226573076
 20
483.9168332271438
 30
0.0
 11
98.71302226573071
 21
483.9168332271438
 31
0.0
  0
LINE
  5
1667
330
1E
100
AcDbEntity
  8
STEMPEL
100
AcDbLine
 10
99.87327630357512
 20
476.0071897433436
 30
0.0
 11
99.87327630357512
 21
483.6059440946884
 31
0.0
  0
LINE
  5
1668
330
1E
100
AcDbEntity
  8
STEMPEL
100
AcDbLine
 10
95.54314928465293
 20
476.0071897433436
 30
0.0
 11
95.54314928465293
 21
483.6059440946884
 31
0.0
  0
LINE
  5
1669
330
1E
100
AcDbEntity
  8
STEMPEL
100
AcDbLine
 10
86.88289524680852
 20
476.0071897433436
 30
0.0
 11
86.88289524680852
 21
483.6059440946884
 31
0.0
  0
LINE
  5
166A
330
1E
100
AcDbEntity
  8
STEMPEL
100
AcDbLine
 10
101.6195373732249
 20
475.3716026927333
 30
0.0
 11
80.80650715823647
 21
475.3716026927333
 31
0.0
  0
LINE
  5
166B
330
1E
100
AcDbEntity
  8
STEMPEL
100
AcDbLine
 10
101.3630222657307
 20
473.9168332271439
 30
0.0
 11
81.06302226573072
 21
473.9168332271439
 31
0.0
  0
LINE
  5
166C
330
1E
100
AcDbEntity
  8
STEMPEL
100
AcDbLine
 10
82.55276822788635
 20
476.0071897433436
 30
0.0
 11
82.55276822788635
 21
483.6059440946884
 31
0.0
  0
LINE
  5
166D
330
1E
100
AcDbEntity
  8
STEMPEL
100
AcDbLine
 10
83.71302226573076
 20
483.9168332271438
 30
0.0
 11
82.55276822788635
 21
483.6059440946884
 31
0.0
  0
LINE
  5
166E
330
1E
100
AcDbEntity
  8
STEMPEL
100
AcDbLine
 10
99.87327630357512
 20
483.6059440946884
 30
0.0
 11
98.71302226573071
 21
483.9168332271438
 31
0.0
  0
LINE
  5
166F
330
1E
100
AcDbEntity
  8
STEMPEL
100
AcDbLine
 10
101.6195373732249
 20
475.3716026927333
 30
0.0
 11
99.87327630357512
 21
476.0071897433436
 31
0.0
  0
LINE
  5
1670
330
1E
100
AcDbEntity
  8
STEMPEL
100
AcDbLine
 10
82.55276822788635
 20
476.0071897433436
 30
0.0
 11
80.80650715823649
 21
475.3716026927333
 31
0.0
  0
ARC
  5
1671
330
1E
100
AcDbEntity
  8
STEMPEL
100
AcDbCircle
 10
81.06302226573072
 20
474.6668332271438
 30
0.0
 40
0.7500000000000013
100
AcDbArc
 50
109.9999999999995
 51
269.9999991462263
  0
ARC
  5
1672
330
1E
100
AcDbEntity
  8
STEMPEL
100
AcDbCircle
 10
101.3630222657307
 20
474.6668332271438
 30
0.0
 40
0.750000000000001
100
AcDbArc
 50
269.9999991462263
 51
70.00000000000047
  0
LINE
  5
16C9
330
1E
100
AcDbEntity
  8
STEMPEL
100
AcDbLine
 10
125.9449270182285
 20
298.9168332271447
 30
0.0
 11
152.413022265731
 21
298.9168332271447
 31
0.0
  0
ARC
  5
16CA
330
1E
100
AcDbEntity
  8
STEMPEL
100
AcDbCircle
 10
125.9449270182285
 20
301.9168332271447
 30
0.0
 40
3.0
100
AcDbArc
 50
185.3558250428554
 51
270.0
  0
LINE
  5
16CD
330
1E
100
AcDbEntity
  8
STEMPEL
100
AcDbLine
 10
108.2130222657306
 20
458.9168332271447
 30
0.0
 11
122.9580243400505
 21
301.6368111010655
 31
0.0
  0
LINE
  5
16D0
330
1E
100
AcDbEntity
  8
STEMPEL
100
AcDbLine
 10
298.2130222657306
 20
458.9168332271447
 30
0.0
 11
283.4680201914107
 21
301.6368111010655
 31
0.0
  0
ARC
  5
16D4
330
1E
100
AcDbEntity
  8
STEMPEL
100
AcDbCircle
 10
280.4811175132328
 20
301.9168332271447
 30
0.0
 40
3.0
100
AcDbArc
 50
270.0
 51
354.6441749571445
  0
DIMENSION
  5
16D7
330
1E
100
AcDbEntity
  8
BEM
100
AcDbDimension
  2
*D6
 10
46.52577193000891
 20
298.9168332271447
 30
0.0
 11
40.02577193000887
 21
378.9168332271446
 31
0.0
 70
    32
 71
     5
 42
159.9999999999997
  3
Standard
100
AcDbAlignedDimension
 13
59.45297648059076
 23
458.9168332271444
 33
0.0
 14
123.2130222657306
 24
298.9168332271447
 34
0.0
 50
90.0
100
AcDbRotatedDimension
1001
ACAD
1000
DSTYLE
1002
{
1070
    40
1040
2.0
1070
    41
1040
3.5
1070
    42
1040
1.0
1070
    43
1040
7.0
1070
    44
1040
1.0
1070
    73
1070
     0
1070
    74
1070
     0
1070
    77
1070
     1
1070
    78
1070
     8
1070
    79
1070
     2
1070
   140
1040
3.5
1070
   141
1040
1.5
1070
   146
1040
0.5142857142857144
1070
   147
1040
1.5
1070
   172
1070
     1
1070
   178
1070
     1
1070
   179
1070
     2
1070
   271
1070
     2
1070
   272
1070
     2
1070
   284
1070
     8
1070
   285
1070
     8
1070
   286
1070
     8
1002
}
  0
DIMENSION
  5
16D8
330
1E
100
AcDbEntity
  8
BEM
100
AcDbDimension
  2
*D7
 10
283.2130222657306
 20
274.6240616971899
 30
0.0
 11
203.2130222657306
 21
281.1240616971899
 31
0.0
 70
    32
  1
%%c<>
 71
     5
 42
159.9999999999999
  3
Standard
100
AcDbAlignedDimension
 13
123.2130222657306
 23
298.9168332271447
 33
0.0
 14
283.2130222657306
 24
298.9168332271441
 34
0.0
100
AcDbRotatedDimension
1001
ACAD
1000
DSTYLE
1002
{
1070
    40
1040
2.0
1070
    41
1040
3.5
1070
    42
1040
1.0
1070
    43
1040
7.0
1070
    44
1040
1.0
1070
    73
1070
     0
1070
    74
1070
     0
1070
    77
1070
     1
1070
    78
1070
     8
1070
    79
1070
     2
1070
   140
1040
3.5
1070
   141
1040
1.5
1070
   146
1040
0.5142857142857144
1070
   147
1040
1.5
1070
   172
1070
     1
1070
   178
1070
     1
1070
   179
1070
     2
1070
   271
1070
     2
1070
   272
1070
     2
1070
   284
1070
     8
1070
   285
1070
     8
1070
   286
1070
     8
1002
}
  0
DIMENSION
  5
16D9
330
1E
100
AcDbEntity
  8
BEM
100
AcDbDimension
  2
*D8
 10
298.2130222657305
 20
488.5662306701487
 30
0.0
 11
203.2130222657305
 21
495.0662306701486
 31
0.0
 70
    32
  1
%%c<>
 71
     5
 42
189.9999999999999
  3
Standard
100
AcDbAlignedDimension
 13
108.2130222657306
 23
458.9168332271447
 33
0.0
 14
298.2130222657305
 24
458.9168332271434
 34
0.0
100
AcDbRotatedDimension
1001
ACAD
1000
DSTYLE
1002
{
1070
    40
1040
2.0
1070
    41
1040
3.5
1070
    42
1040
1.0
1070
    43
1040
7.0
1070
    44
1040
1.0
1070
    73
1070
     0
1070
    74
1070
     0
1070
    77
1070
     1
1070
    78
1070
     8
1070
    79
1070
     2
1070
   140
1040
3.5
1070
   141
1040
1.5
1070
   146
1040
0.5142857142857144
1070
   147
1040
1.5
1070
   172
1070
     1
1070
   178
1070
     1
1070
   179
1070
     2
1070
   271
1070
     2
1070
   272
1070
     2
1070
   284
1070
     8
1070
   285
1070
     8
1070
   286
1070
     8
1002
}
  0
LINE
  5
1730
330
1E
100
AcDbEntity
  8
STEMPEL
100
AcDbLine
 10
264.0130222657302
 20
298.9168332271442
 30
0.0
 11
280.4811175132328
 21
298.9168332271441
 31
0.0
  0
LINE
  5
175A
330
1E
100
AcDbEntity
  8
MITTEL
100
AcDbLine
 10
203.2130222657303
 20
271.4949565408312
 30
0.0
 11
203.2130222657301
 21
186.9168332271439
 31
0.0
  0
LINE
  5
1788
330
1E
100
AcDbEntity
  8
TEXT
 62
     2
100
AcDbLine
 10
345.8349867703553
 20
332.5514295433166
 30
0.0
 11
457.0219489221779
 21
332.5514295433166
 31
0.0
  0
TEXT
  5
1789
330
1E
100
AcDbEntity
  8
TEXT
 62
     1
100
AcDbText
 10
352.5608134707005
 20
335.5379700353696
 30
0.0
 40
7.0
  1
Wärmedämmung
 41
0.8
100
AcDbText
  0
TEXT
  5
178A
330
1E
100
AcDbEntity
  8
TEXT
 62
     1
100
AcDbText
 10
352.5608134707005
 20
321.9999567303213
 30
0.0
 40
7.0
  1
EDV-Art.Nr. 19842.100X
 41
0.8
100
AcDbText
  0
LINE
  5
178B
330
1E
100
AcDbEntity
  8
TEXT
 62
     2
100
AcDbLine
 10
345.8349867703553
 20
332.5514295433166
 30
0.0
 11
278.7225700928236
 21
351.6684187094301
 31
0.0
  0
TEXT
  5
178C
330
1E
100
AcDbEntity
  8
TEXT
100
AcDbText
 10
531.8997861689247
 20
654.3410940884991
 30
0.0
 40
5.0
  1
und Heizung, zweiteilig
 50
90.0
 41
0.8
  7
GREEKS
100
AcDbText
  0
LINE
  5
17EC
330
1E
100
AcDbEntity
  8
MITTEL
100
AcDbLine
 10
272.5807542331865
 20
260.7984575551604
 30
0.0
 11
259.1561581497991
 21
256.8260250512785
 31
0.0
  0
LINE
  5
17ED
330
1E
100
AcDbEntity
  8
TEXT
 62
     2
100
AcDbLine
 10
341.0627029628553
 20
260.6804255269858
 30
0.0
 11
266.8934614898714
 21
265.0803911865107
 31
0.0
  0
POLYLINE
  5
17EE
330
1E
100
AcDbEntity
  8
STEMPEL
100
AcDb2dPolyline
 66
     1
 10
0.0
 20
0.0
 30
0.0
  0
VERTEX
  5
17EF
330
17EE
100
AcDbEntity
  8
STEMPEL
100
AcDbVertex
100
AcDb2dVertex
 10
264.0130222657302
 20
298.916833227144
 30
0.0
  0
VERTEX
  5
17F0
330
17EE
100
AcDbEntity
  8
STEMPEL
100
AcDbVertex
100
AcDb2dVertex
 10
264.0075664743692
 20
292.0497421843881
 30
0.0
  0
VERTEX
  5
17F1
330
17EE
100
AcDbEntity
  8
STEMPEL
100
AcDbVertex
100
AcDb2dVertex
 10
264.0750181489324
 20
286.7959960711664
 30
0.0
  0
VERTEX
  5
17F2
330
17EE
100
AcDbEntity
  8
STEMPEL
100
AcDbVertex
100
AcDb2dVertex
 10
264.2724418355442
 20
282.7172166712787
 30
0.0
  0
VERTEX
  5
17F3
330
17EE
100
AcDbEntity
  8
STEMPEL
100
AcDbVertex
100
AcDb2dVertex
 10
264.6474250243969
 20
279.2861050879167
 30
0.0
  0
VERTEX
  5
17F4
330
17EE
100
AcDbEntity
  8
STEMPEL
100
AcDbVertex
100
AcDb2dVertex
 10
265.2726008815608
 20
275.8662489938624
 30
0.0
  0
VERTEX
  5
17F5
330
17EE
100
AcDbEntity
  8
STEMPEL
100
AcDbVertex
100
AcDb2dVertex
 10
266.260682895934
 20
271.8317181184533
 30
0.0
  0
VERTEX
  5
17F6
330
17EE
100
AcDbEntity
  8
STEMPEL
100
AcDbVertex
100
AcDb2dVertex
 10
267.7146677504928
 20
266.6702365002277
 30
0.0
  0
VERTEX
  5
17F7
330
17EE
100
AcDbEntity
  8
STEMPEL
100
AcDbVertex
100
AcDb2dVertex
 10
269.7040550724606
 20
259.9472220186143
 30
0.0
  0
SEQEND
  5
17F8
330
17EE
100
AcDbEntity
  8
STEMPEL
  0
POLYLINE
  5
17F9
330
1E
100
AcDbEntity
  8
STEMPEL
100
AcDb2dPolyline
 66
     1
 10
0.0
 20
0.0
 30
0.0
 70
     4
 75
     6
  0
VERTEX
  5
17FA
330
17F9
100
AcDbEntity
  8
STEMPEL
100
AcDbVertex
100
AcDb2dVertex
 10
254.013030943572
 20
298.9231890941103
 30
0.0
 70
    16
  0
VERTEX
  5
17FB
330
17F9
100
AcDbEntity
  8
STEMPEL
100
AcDbVertex
100
AcDb2dVertex
 10
254.013030943572
 20
298.9231890941103
 30
0.0
 70
     8
  0
VERTEX
  5
17FC
330
17F9
100
AcDbEntity
  8
STEMPEL
100
AcDbVertex
100
AcDb2dVertex
 10
254.6676860472075
 20
292.0015670037757
 30
0.0
 70
     8
  0
VERTEX
  5
17FD
330
17F9
100
AcDbEntity
  8
STEMPEL
100
AcDbVertex
100
AcDb2dVertex
 10
255.2337545252914
 20
286.5511837991068
 30
0.0
 70
     8
  0
VERTEX
  5
17FE
330
17F9
100
AcDbEntity
  8
STEMPEL
100
AcDbVertex
100
AcDb2dVertex
 10
255.8052187180615
 20
282.0886887554207
 30
0.0
 70
     8
  0
VERTEX
  5
17FF
330
17F9
100
AcDbEntity
  8
STEMPEL
100
AcDbVertex
100
AcDb2dVertex
 10
256.4760609657555
 20
278.1307311480342
 30
0.0
 70
     8
  0
VERTEX
  5
1800
330
17F9
100
AcDbEntity
  8
STEMPEL
100
AcDbVertex
100
AcDb2dVertex
 10
257.3402636086111
 20
274.1939602522644
 30
0.0
 70
     8
  0
VERTEX
  5
1801
330
17F9
100
AcDbEntity
  8
STEMPEL
100
AcDbVertex
100
AcDb2dVertex
 10
258.491808986866
 20
269.7950253434282
 30
0.0
 70
     8
  0
VERTEX
  5
1802
330
17F9
100
AcDbEntity
  8
STEMPEL
100
AcDbVertex
100
AcDb2dVertex
 10
260.0246794407579
 20
264.4505756968426
 30
0.0
 70
     8
  0
VERTEX
  5
1803
330
17F9
100
AcDbEntity
  8
STEMPEL
100
AcDbVertex
100
AcDb2dVertex
 10
262.0328573105247
 20
257.6772605878246
 30
0.0
 70
     8
  0
VERTEX
  5
1804
330
17F9
100
AcDbEntity
  8
STEMPEL
100
AcDbVertex
100
AcDb2dVertex
 10
255.9604332453245
 20
278.0742332503897
 30
0.0
 70
    16
  0
VERTEX
  5
1805
330
17F9
100
AcDbEntity
  8
STEMPEL
100
AcDbVertex
100
AcDb2dVertex
 10
262.0328573105248
 20
257.6772605878247
 30
0.0
 70
    16
  0
SEQEND
  5
1806
330
17F9
100
AcDbEntity
  8
STEMPEL
  0
LINE
  5
1807
330
1E
100
AcDbEntity
  8
TEXT
 62
     2
100
AcDbLine
 10
341.0627029628553
 20
260.6804255269858
 30
0.0
 11
434.2445501921208
 21
260.6804255269858
 31
0.0
  0
TEXT
  5
1808
330
1E
100
AcDbEntity
  8
TEXT
 62
     1
100
AcDbText
 10
342.8617949573217
 20
264.8255761366976
 30
0.0
 40
7.0
  1
Heizbandkabel
 41
0.8
  7
GREEKS
100
AcDbText
  0
TEXT
  5
1809
330
1E
100
AcDbEntity
  8
TEXT
 62
     1
100
AcDbText
 10
342.8617949573217
 20
249.8628703423311
 30
0.0
 40
7.0
  1
EDV-Art.Nr. 19853.000X
 41
0.7
  7
GREEKS
100
AcDbText
  0
HATCH
  5
180A
330
1E
100
AcDbEntity
  8
SCHRAFF
100
AcDbHatch
 10
0.0
 20
0.0
 30
0.0
210
0.0
220
0.0
230
1.0
  2
HONEY
 70
     0
 71
     0
 91
        2
 92
        7
 72
     1
 73
     1
 93
       10
 10
298.2130222657298
 20
458.9168332271437
 42
0.0
 10
283.2130222657288
 20
458.9168332271438
 42
0.0
 10
276.71302226573
 20
453.9168332271448
 42
0.0
 10
276.7130222657298
 20
408.9168332271445
 42
0.0
 10
265.71302226573
 20
388.9168332271438
 42
0.0
 10
265.7130222657299
 20
318.9168332271442
 42
0.0
 10
264.0130222657303
 20
316.8768332271446
 42
0.0
 10
264.0130222657303
 20
298.9168332271442
 42
0.0
 10
280.4811175132321
 20
298.9168332271441
 42
0.3870924378343482
 10
283.4680201914101
 20
301.6368111010655
 42
0.0
 97
        0
 92
        7
 72
     1
 73
     1
 93
       10
 10
122.9580243400499
 20
301.6368111010655
 42
0.387092437834293
 10
125.9449270182278
 20
298.9168332271447
 42
0.0
 10
152.4130222657302
 20
298.9168332271446
 42
0.0
 10
152.4130222657302
 20
304.8768332271441
 42
0.0
 10
140.7130222657299
 20
318.9168332271442
 42
0.0
 10
140.71302226573
 20
388.9168332271444
 42
0.0
 10
129.7130222657302
 20
408.9168332271445
 42
0.0
 10
129.71302226573
 20
453.9168332271448
 42
0.0
 10
123.2130222657306
 20
458.9168332271443
 42
0.0
 10
108.21302226573
 20
458.9168332271442
 42
0.0
 97
        0
 75
     0
 76
     1
 52
0.0
 41
35.0
 77
     0
 78
     3
 53
0.0
 43
-17.69532693579981
 44
17.06421036182104
 45
6.5625
 46
3.788861124999999
 79
     2
 49
4.375
 49
-8.75
 53
120.0
 43
-17.69532693579981
 44
17.06421036182104
 45
-6.562499985661285
 46
3.788861149835379
 79
     2
 49
4.374999999999998
 49
-8.749999999999996
 53
60.0
 43
-17.69532693579981
 44
17.06421036182104
 45
0.000000014338714
 46
7.577722274835378
 79
     2
 49
-8.75
 49
4.375
 47
0.2874578697987751
 98
        2
 10
287.7411842231979
 20
409.5061914482748
 10
119.2382828311281
 20
359.7759792210845
  0
LINE
  5
180B
330
1E
100
AcDbEntity
  8
STEMPEL
100
AcDbLine
 10
264.0130222657302
 20
387.4609510881512
 30
0.0
 11
264.0130222657303
 21
291.6247958380835
 31
0.0
  0
LINE
  5
180C
330
1E
100
AcDbEntity
  8
STEMPEL
100
AcDbLine
 10
264.0130222657302
 20
318.9168332271441
 30
0.0
 11
265.7130222657299
 21
318.9168332271441
 31
0.0
  0
LINE
  5
180D
330
1E
100
AcDbEntity
  8
STEMPEL
100
AcDbLine
 10
265.71302226573
 20
388.9168332271437
 30
0.0
 11
265.7130222657299
 21
318.9168332271441
 31
0.0
  0
LINE
  5
180E
330
1E
100
AcDbEntity
  8
STEMPEL
100
AcDbLine
 10
264.0130222657302
 20
316.8768332271445
 30
0.0
 11
265.7130222657299
 21
318.9168332271441
 31
0.0
  0
LINE
  5
180F
330
1E
100
AcDbEntity
  8
STEMPEL
100
AcDbLine
 10
267.1130222657303
 20
408.9168332271446
 30
0.0
 11
276.7130222657298
 21
408.9168332271445
 31
0.0
  0
LINE
  5
1810
330
1E
100
AcDbEntity
  8
STEMPEL
100
AcDbLine
 10
276.7130222657298
 20
408.9168332271445
 30
0.0
 11
276.71302226573
 21
453.9168332271448
 31
0.0
  0
LINE
  5
1811
330
1E
100
AcDbEntity
  8
STEMPEL
100
AcDbLine
 10
276.7130222657298
 20
408.9168332271445
 30
0.0
 11
265.71302226573
 21
388.9168332271437
 31
0.0
  0
LINE
  5
1812
330
1E
100
AcDbEntity
  8
STEMPEL
100
AcDbLine
 10
271.6774883597974
 20
453.9168332271448
 30
0.0
 11
276.71302226573
 21
453.9168332271448
 31
0.0
  0
LINE
  5
1813
330
1E
100
AcDbEntity
  8
STEMPEL
100
AcDbLine
 10
283.21302226573
 20
458.9168332271448
 30
0.0
 11
276.71302226573
 21
453.9168332271448
 31
0.0
  0
LINE
  5
1814
330
1E
100
AcDbEntity
  8
STEMPEL
100
AcDbLine
 10
260.1130222657302
 20
419.4136326964629
 30
0.0
 11
259.1130222657302
 21
419.4136326964631
 31
0.0
  0
LINE
  5
1815
330
1E
100
AcDbEntity
  8
STEMPEL
  6
Continuous
100
AcDbLine
 10
262.1130222657302
 20
417.413632696463
 30
0.0
 11
262.1130222657302
 21
411.413632696463
 31
0.0
  0
HATCH
  5
1816
330
1E
100
AcDbEntity
  8
SCHRAFF
100
AcDbHatch
 10
0.0
 20
0.0
 30
0.0
210
0.0
220
0.0
230
1.0
  2
_USER
 70
     0
 71
     1
 91
        1
 92
        7
 72
     1
 73
     1
 93
        8
 10
261.1130222657302
 20
417.413632696463
 42
0.4142135623730951
 10
260.1130222657302
 20
418.413632696463
 42
0.0
 10
259.1130222657302
 20
418.4136326964631
 42
0.4142135623730951
 10
258.1130222657302
 20
417.4136326964631
 42
0.0
 10
258.1130222657302
 20
411.413632696463
 42
0.4142135623730951
 10
259.1130222657302
 20
410.413632696463
 42
0.0
 10
260.1130222657302
 20
410.413632696463
 42
0.4142135623730951
 10
261.1130222657302
 20
411.413632696463
 42
0.0
 97
        8
330
181F
330
1819
330
1823
330
1817
330
1824
330
181A
330
181B
330
1818
 75
     0
 76
     0
 52
135.0
 41
1.0
 77
     0
 78
     1
 53
135.0
 43
-0.8168964861116023
 44
35.0065187261269
 45
-0.7071067811865476
 46
-0.7071067811865475
 79
     0
 47
0.1071053300341939
 98
        1
 10
259.6781722775226
 20
414.1897081300397
  0
LINE
  5
1817
102
{ACAD_REACTORS
330
1816
102
}
330
1E
100
AcDbEntity
  8
STEMPEL
  6
Continuous
100
AcDbLine
 10
258.1130222657302
 20
417.4136326964631
 30
0.0
 11
258.1130222657302
 21
411.413632696463
 31
0.0
  0
LINE
  5
1818
102
{ACAD_REACTORS
330
1816
102
}
330
1E
100
AcDbEntity
  8
STEMPEL
  6
Continuous
100
AcDbLine
 10
261.1130222657302
 20
417.413632696463
 30
0.0
 11
261.1130222657302
 21
411.413632696463
 31
0.0
  0
LINE
  5
1819
102
{ACAD_REACTORS
330
1816
102
}
330
1E
100
AcDbEntity
  8
STEMPEL
100
AcDbLine
 10
259.1130222657302
 20
418.4136326964631
 30
0.0
 11
260.1130222657302
 21
418.413632696463
 31
0.0
  0
LINE
  5
181A
102
{ACAD_REACTORS
330
1816
102
}
330
1E
100
AcDbEntity
  8
STEMPEL
100
AcDbLine
 10
259.1130222657302
 20
410.413632696463
 30
0.0
 11
260.1130222657302
 21
410.413632696463
 31
0.0
  0
ARC
  5
181B
102
{ACAD_REACTORS
330
1816
102
}
330
1E
100
AcDbEntity
  8
STEMPEL
100
AcDbCircle
 10
260.1130222657302
 20
411.413632696463
 30
0.0
 40
1.0
100
AcDbArc
 50
270.0
 51
0.0
  0
LINE
  5
181C
330
1E
100
AcDbEntity
  8
STEMPEL
100
AcDbLine
 10
259.1130222657302
 20
409.413632696463
 30
0.0
 11
260.1130222657302
 21
409.413632696463
 31
0.0
  0
ARC
  5
181D
330
1E
100
AcDbEntity
  8
STEMPEL
100
AcDbCircle
 10
260.1130222657302
 20
411.413632696463
 30
0.0
 40
2.0
100
AcDbArc
 50
270.0
 51
0.0
  0
ARC
  5
181E
330
1E
100
AcDbEntity
  8
STEMPEL
100
AcDbCircle
 10
260.1130222657302
 20
417.413632696463
 30
0.0
 40
2.0
100
AcDbArc
 50
0.0
 51
90.0
  0
ARC
  5
181F
102
{ACAD_REACTORS
330
1816
102
}
330
1E
100
AcDbEntity
  8
STEMPEL
100
AcDbCircle
 10
260.1130222657302
 20
417.413632696463
 30
0.0
 40
1.0
100
AcDbArc
 50
0.0
 51
90.0
  0
HATCH
  5
1820
330
1E
100
AcDbEntity
  8
SCHRAFF
100
AcDbHatch
 10
0.0
 20
0.0
 30
0.0
210
0.0
220
0.0
230
1.0
  2
NET
 70
     0
 71
     0
 91
        2
 92
        7
 72
     1
 73
     1
 93
       10
 10
262.1130222657302
 20
417.413632696463
 42
0.2539150913703598
 10
261.2026315647943
 20
419.0907586832014
 42
0.0005032130446828
 10
261.1771895807789
 20
419.1070162695444
 42
0.1411920676771369
 10
260.1130222657303
 20
419.4136326964629
 42
0.0
 10
259.1130222657302
 20
419.4136326964631
 42
0.4142135623730951
 10
257.1130222657302
 20
417.4136326964631
 42
0.0
 10
257.1130222657302
 20
411.413632696463
 42
0.4142135623730951
 10
259.1130222657302
 20
409.413632696463
 42
0.0
 10
260.1130222657302
 20
409.413632696463
 42
0.4142135623730951
 10
262.1130222657302
 20
411.413632696463
 42
0.0
 97
        0
 92
       22
 72
     1
 73
     1
 93
        8
 10
261.1130222657302
 20
411.413632696463
 42
-0.4142135623730951
 10
260.1130222657302
 20
410.413632696463
 42
0.0
 10
259.1130222657302
 20
410.413632696463
 42
-0.4142135623730951
 10
258.1130222657302
 20
411.413632696463
 42
0.0
 10
258.1130222657302
 20
417.4136326964631
 42
-0.4142135623731284
 10
259.1130222657303
 20
418.4136326964631
 42
0.0
 10
260.1130222657302
 20
418.413632696463
 42
-0.4142135623730951
 10
261.1130222657302
 20
417.413632696463
 42
0.0
 97
        0
 75
     0
 76
     1
 52
45.0
 41
10.0
 77
     0
 78
     2
 53
45.0
 43
-0.8168964861116023
 44
35.0065187261269
 45
-0.8838834764831842
 46
0.8838834764831844
 79
     0
 53
135.0
 43
-0.8168964861116023
 44
35.0065187261269
 45
-0.8838834764831844
 46
-0.8838834764831842
 79
     0
 47
0.1212528115745328
 98
        2
 10
261.4400039819206
 20
415.9459865641038
 10
261.4400039819206
 20
415.9459865641038
  0
ARC
  5
1821
330
1E
100
AcDbEntity
  8
STEMPEL
100
AcDbCircle
 10
259.1130222657302
 20
417.4136326964631
 30
0.0
 40
2.0
100
AcDbArc
 50
90.0
 51
180.0
  0
ARC
  5
1822
330
1E
100
AcDbEntity
  8
STEMPEL
100
AcDbCircle
 10
259.1130222657302
 20
411.413632696463
 30
0.0
 40
2.0
100
AcDbArc
 50
180.0
 51
270.0
  0
ARC
  5
1823
102
{ACAD_REACTORS
330
1816
102
}
330
1E
100
AcDbEntity
  8
STEMPEL
100
AcDbCircle
 10
259.1130222657302
 20
417.4136326964631
 30
0.0
 40
1.0
100
AcDbArc
 50
90.0
 51
180.0
  0
ARC
  5
1824
102
{ACAD_REACTORS
330
1816
102
}
330
1E
100
AcDbEntity
  8
STEMPEL
100
AcDbCircle
 10
259.1130222657302
 20
411.413632696463
 30
0.0
 40
1.0
100
AcDbArc
 50
180.0
 51
270.0
  0
ARC
  5
1825
330
1E
100
AcDbEntity
  8
STEMPEL
100
AcDbCircle
 10
256.299194394327
 20
409.441641967078
 30
0.0
 40
10.82655519756146
100
AcDbArc
 50
357.2215433564766
 51
63.22048523125464
  0
LINE
  5
1826
330
1E
100
AcDbEntity
  8
STEMPEL
100
AcDbLine
 10
267.1130222657303
 20
409.9664507070097
 30
0.0
 11
267.1130222657303
 21
401.6887407970278
 31
0.0
  0
ARC
  5
1827
330
1E
100
AcDbEntity
  8
STEMPEL
100
AcDbCircle
 10
242.9130222657302
 20
401.6887407970277
 30
0.0
 40
24.2
100
AcDbArc
 50
335.4166065353522
 51
0.0
  0
ARC
  5
1828
330
1E
100
AcDbEntity
  8
STEMPEL
100
AcDbCircle
 10
274.0130222657302
 20
387.4609510881512
 30
0.0
 40
10.0
100
AcDbArc
 50
155.4166065353522
 51
180.0
  0
LINE
  5
1829
330
1E
100
AcDbEntity
  8
STEMPEL
100
AcDbLine
 10
264.1195695217504
 20
388.9168332271437
 30
0.0
 11
265.71302226573
 21
388.9168332271437
 31
0.0
  0
LINE
  5
182A
330
1E
100
AcDbEntity
  8
STEMPEL
100
AcDbLine
 10
146.3130222657301
 20
419.4136326964629
 30
0.0
 11
147.3130222657301
 21
419.4136326964631
 31
0.0
  0
ARC
  5
182B
102
{ACAD_REACTORS
330
1836
102
}
330
1E
100
AcDbEntity
  8
STEMPEL
100
AcDbCircle
 10
147.3130222657301
 20
411.413632696463
 30
0.0
 40
1.0
100
AcDbArc
 50
270.0
 51
0.0
  0
ARC
  5
182C
330
1E
100
AcDbEntity
  8
STEMPEL
100
AcDbCircle
 10
147.3130222657301
 20
411.413632696463
 30
0.0
 40
2.0
100
AcDbArc
 50
270.0
 51
0.0
  0
LINE
  5
182D
330
1E
100
AcDbEntity
  8
STEMPEL
  6
Continuous
100
AcDbLine
 10
149.3130222657301
 20
417.4136326964631
 30
0.0
 11
149.3130222657301
 21
411.413632696463
 31
0.0
  0
LINE
  5
182E
102
{ACAD_REACTORS
330
1836
102
}
330
1E
100
AcDbEntity
  8
STEMPEL
  6
Continuous
100
AcDbLine
 10
148.3130222657301
 20
417.4136326964631
 30
0.0
 11
148.3130222657301
 21
411.413632696463
 31
0.0
  0
ARC
  5
182F
330
1E
100
AcDbEntity
  8
STEMPEL
100
AcDbCircle
 10
146.3130222657301
 20
411.413632696463
 30
0.0
 40
2.0
100
AcDbArc
 50
180.0
 51
270.0
  0
ARC
  5
1830
102
{ACAD_REACTORS
330
1836
102
}
330
1E
100
AcDbEntity
  8
STEMPEL
100
AcDbCircle
 10
146.3130222657301
 20
411.413632696463
 30
0.0
 40
1.0
100
AcDbArc
 50
180.0
 51
270.0
  0
LINE
  5
1831
102
{ACAD_REACTORS
330
1836
102
}
330
1E
100
AcDbEntity
  8
STEMPEL
  6
Continuous
100
AcDbLine
 10
145.3130222657301
 20
417.413632696463
 30
0.0
 11
145.3130222657301
 21
411.413632696463
 31
0.0
  0
LINE
  5
1832
330
1E
100
AcDbEntity
  8
STEMPEL
  6
Continuous
100
AcDbLine
 10
144.3130222657301
 20
417.413632696463
 30
0.0
 11
144.3130222657301
 21
411.413632696463
 31
0.0
  0
LINE
  5
1833
330
1E
100
AcDbEntity
  8
STEMPEL
100
AcDbLine
 10
147.3130222657301
 20
409.413632696463
 30
0.0
 11
146.3130222657301
 21
409.413632696463
 31
0.0
  0
LINE
  5
1834
102
{ACAD_REACTORS
330
1836
102
}
330
1E
100
AcDbEntity
  8
STEMPEL
100
AcDbLine
 10
147.3130222657301
 20
410.413632696463
 30
0.0
 11
146.3130222657301
 21
410.413632696463
 31
0.0
  0
LINE
  5
1835
102
{ACAD_REACTORS
330
1836
102
}
330
1E
100
AcDbEntity
  8
STEMPEL
100
AcDbLine
 10
147.3130222657301
 20
418.4136326964631
 30
0.0
 11
146.3130222657301
 21
418.413632696463
 31
0.0
  0
HATCH
  5
1836
330
1E
100
AcDbEntity
  8
SCHRAFF
100
AcDbHatch
 10
0.0
 20
0.0
 30
0.0
210
0.0
220
0.0
230
1.0
  2
_USER
 70
     0
 71
     1
 91
        1
 92
        7
 72
     1
 73
     1
 93
        8
 10
145.3130222657301
 20
411.413632696463
 42
0.4142135623730951
 10
146.3130222657301
 20
410.413632696463
 42
0.0
 10
147.3130222657301
 20
410.413632696463
 42
0.4142135623730951
 10
148.3130222657301
 20
411.413632696463
 42
0.0
 10
148.3130222657301
 20
417.4136326964631
 42
0.4142135623731283
 10
147.31302226573
 20
418.4136326964631
 42
0.0
 10
146.3130222657301
 20
418.413632696463
 42
0.4142135623730951
 10
145.3130222657301
 20
417.413632696463
 42
0.0
 97
        8
330
183A
330
1835
330
1837
330
182E
330
182B
330
1834
330
1830
330
1831
 75
     0
 76
     0
 52
135.0
 41
1.0
 77
     0
 78
     1
 53
135.0
 43
-17.69532693579981
 44
17.06421036182098
 45
-0.7071067811865476
 46
-0.7071067811865475
 79
     0
 47
0.1071053300341939
 98
        1
 10
146.7478722539377
 20
414.1897081300397
  0
ARC
  5
1837
102
{ACAD_REACTORS
330
1836
102
}
330
1E
100
AcDbEntity
  8
STEMPEL
100
AcDbCircle
 10
147.3130222657301
 20
417.4136326964631
 30
0.0
 40
1.0
100
AcDbArc
 50
0.0
 51
90.0
  0
ARC
  5
1838
330
1E
100
AcDbEntity
  8
STEMPEL
100
AcDbCircle
 10
147.3130222657301
 20
417.4136326964631
 30
0.0
 40
2.0
100
AcDbArc
 50
0.0
 51
90.0
  0
HATCH
  5
1839
330
1E
100
AcDbEntity
  8
SCHRAFF
100
AcDbHatch
 10
0.0
 20
0.0
 30
0.0
210
0.0
220
0.0
230
1.0
  2
NET
 70
     0
 71
     0
 91
        2
 92
        7
 72
     1
 73
     1
 93
       10
 10
144.3130222657301
 20
417.413632696463
 42
-0.2539150913703598
 10
145.223412966666
 20
419.0907586832014
 42
-0.0005032130446828
 10
145.2488549506814
 20
419.1070162695444
 42
-0.1411920676771369
 10
146.31302226573
 20
419.4136326964629
 42
0.0
 10
147.3130222657301
 20
419.4136326964631
 42
-0.4142135623730951
 10
149.3130222657301
 20
417.4136326964631
 42
0.0
 10
149.3130222657301
 20
411.413632696463
 42
-0.4142135623730951
 10
147.3130222657301
 20
409.413632696463
 42
0.0
 10
146.3130222657301
 20
409.413632696463
 42
-0.4142135623730951
 10
144.3130222657301
 20
411.413632696463
 42
0.0
 97
        0
 92
       22
 72
     1
 73
     1
 93
        8
 10
145.3130222657301
 20
411.413632696463
 42
0.4142135623730951
 10
146.3130222657301
 20
410.413632696463
 42
0.0
 10
147.3130222657301
 20
410.413632696463
 42
0.4142135623730951
 10
148.3130222657301
 20
411.413632696463
 42
0.0
 10
148.3130222657301
 20
417.4136326964631
 42
0.4142135623731284
 10
147.31302226573
 20
418.4136326964631
 42
0.0
 10
146.3130222657301
 20
418.413632696463
 42
0.4142135623730951
 10
145.3130222657301
 20
417.413632696463
 42
0.0
 97
        0
 75
     0
 76
     1
 52
45.0
 41
10.0
 77
     0
 78
     2
 53
135.0
 43
407.2429410175719
 44
35.0065187261269
 45
0.8838834764831842
 46
0.8838834764831844
 79
     0
 53
45.0
 43
407.2429410175719
 44
35.0065187261269
 45
0.8838834764831844
 46
-0.8838834764831842
 79
     0
 47
0.1212528115745328
 98
        2
 10
144.9860405495397
 20
415.9459865641038
 10
144.9860405495397
 20
415.9459865641038
  0
ARC
  5
183A
102
{ACAD_REACTORS
330
1836
102
}
330
1E
100
AcDbEntity
  8
STEMPEL
100
AcDbCircle
 10
146.3130222657301
 20
417.413632696463
 30
0.0
 40
1.0
100
AcDbArc
 50
90.0
 51
180.0
  0
ARC
  5
183B
330
1E
100
AcDbEntity
  8
STEMPEL
100
AcDbCircle
 10
146.3130222657301
 20
417.413632696463
 30
0.0
 40
2.0
100
AcDbArc
 50
90.0
 51
180.0
  0
LINE
  5
183C
330
1E
100
AcDbEntity
  8
STEMPEL
100
AcDbLine
 10
129.7130222657302
 20
408.9168332271445
 30
0.0
 11
129.71302226573
 21
453.9168332271448
 31
0.0
  0
LINE
  5
183D
330
1E
100
AcDbEntity
  8
STEMPEL
100
AcDbLine
 10
129.7130222657302
 20
408.9168332271445
 30
0.0
 11
140.71302226573
 21
388.9168332271445
 31
0.0
  0
LINE
  5
183E
330
1E
100
AcDbEntity
  8
STEMPEL
100
AcDbLine
 10
129.7130222657302
 20
408.9168332271445
 30
0.0
 11
149.3130222657302
 21
408.9168332271445
 31
0.0
  0
LINE
  5
183F
330
1E
100
AcDbEntity
  8
STEMPEL
100
AcDbLine
 10
129.71302226573
 20
453.9168332271448
 30
0.0
 11
134.7485561716626
 21
453.9168332271448
 31
0.0
  0
LINE
  5
1840
330
1E
100
AcDbEntity
  8
STEMPEL
100
AcDbLine
 10
123.21302226573
 20
458.9168332271448
 30
0.0
 11
129.71302226573
 21
453.9168332271448
 31
0.0
  0
LINE
  5
1841
330
1E
100
AcDbEntity
  8
STEMPEL
100
AcDbLine
 10
140.71302226573
 20
388.9168332271445
 30
0.0
 11
140.7130222657299
 21
318.9168332271447
 31
0.0
  0
LINE
  5
1842
330
1E
100
AcDbEntity
  8
STEMPEL
100
AcDbLine
 10
152.4130222657302
 20
304.8768332271442
 30
0.0
 11
140.71302226573
 21
318.9168332271441
 31
0.0
  0
LINE
  5
1843
330
1E
100
AcDbEntity
  8
STEMPEL
100
AcDbLine
 10
140.7130222657299
 20
318.9168332271447
 30
0.0
 11
152.4130222657302
 21
318.9168332271446
 31
0.0
  0
ARC
  5
19C8
330
1E
100
AcDbEntity
  8
STEMPEL
100
AcDbCircle
 10
101.3630222657309
 20
624.6668332271441
 30
0.0
 40
0.750000000000001
100
AcDbArc
 50
269.9999991462263
 51
69.99999999999935
  0
ARC
  5
19C9
330
1E
100
AcDbEntity
  8
STEMPEL
100
AcDbCircle
 10
81.06302226573092
 20
624.6668332271441
 30
0.0
 40
0.7500000000000013
100
AcDbArc
 50
110.0000000000006
 51
269.9999991462263
  0
LINE
  5
19CA
330
1E
100
AcDbEntity
  8
STEMPEL
100
AcDbLine
 10
82.55276822788657
 20
626.007189743344
 30
0.0
 11
80.80650715823669
 21
625.3716026927336
 31
0.0
  0
LINE
  5
19CB
330
1E
100
AcDbEntity
  8
STEMPEL
100
AcDbLine
 10
101.6195373732252
 20
625.3716026927336
 30
0.0
 11
99.87327630357533
 21
626.007189743344
 31
0.0
  0
LINE
  5
19CC
330
1E
100
AcDbEntity
  8
STEMPEL
100
AcDbLine
 10
99.87327630357533
 20
633.6059440946887
 30
0.0
 11
98.71302226573092
 21
633.9168332271441
 31
0.0
  0
LINE
  5
19CD
330
1E
100
AcDbEntity
  8
STEMPEL
100
AcDbLine
 10
83.71302226573096
 20
633.9168332271441
 30
0.0
 11
82.55276822788657
 21
633.6059440946887
 31
0.0
  0
LINE
  5
19CE
330
1E
100
AcDbEntity
  8
STEMPEL
100
AcDbLine
 10
82.55276822788657
 20
626.007189743344
 30
0.0
 11
82.55276822788657
 21
633.6059440946887
 31
0.0
  0
LINE
  5
19CF
330
1E
100
AcDbEntity
  8
STEMPEL
100
AcDbLine
 10
101.3630222657309
 20
623.9168332271441
 30
0.0
 11
81.06302226573092
 21
623.9168332271441
 31
0.0
  0
LINE
  5
19D0
330
1E
100
AcDbEntity
  8
STEMPEL
100
AcDbLine
 10
101.6195373732252
 20
625.3716026927336
 30
0.0
 11
80.80650715823669
 21
625.3716026927336
 31
0.0
  0
LINE
  5
19D1
330
1E
100
AcDbEntity
  8
STEMPEL
100
AcDbLine
 10
86.88289524680874
 20
626.007189743344
 30
0.0
 11
86.88289524680874
 21
633.6059440946887
 31
0.0
  0
LINE
  5
19D2
330
1E
100
AcDbEntity
  8
STEMPEL
100
AcDbLine
 10
95.54314928465315
 20
626.007189743344
 30
0.0
 11
95.54314928465315
 21
633.6059440946887
 31
0.0
  0
LINE
  5
19D3
330
1E
100
AcDbEntity
  8
STEMPEL
100
AcDbLine
 10
99.87327630357533
 20
626.007189743344
 30
0.0
 11
99.87327630357533
 21
633.6059440946887
 31
0.0
  0
LINE
  5
19D4
330
1E
100
AcDbEntity
  8
STEMPEL
100
AcDbLine
 10
83.71302226573096
 20
633.9168332271441
 30
0.0
 11
98.71302226573092
 21
633.9168332271441
 31
0.0
  0
POINT
  5
19D5
330
1E
100
AcDbEntity
  8
0
100
AcDbPoint
 10
91.21302226573092
 20
623.9168332271441
 30
0.0
210
0.0000000000000001
220
1.0
230
0.0
  0
ARC
  5
19D6
330
1E
100
AcDbEntity
  8
HILF
100
AcDbCircle
 10
84.71783173734763
 20
620.6683470776145
 30
0.0
 40
5.761140599691502
100
AcDbArc
 50
67.92594526326206
 51
112.0740547367379
  0
ARC
  5
19D7
330
1E
100
AcDbEntity
  8
HILF
100
AcDbCircle
 10
97.70821279411421
 20
620.6683470776145
 30
0.0
 40
5.761140599691502
100
AcDbArc
 50
67.92594526326206
 51
112.0740547367379
  0
ARC
  5
19D8
330
1E
100
AcDbEntity
  8
HILF
100
AcDbCircle
 10
91.21302226573092
 20
604.0183721794829
 30
0.0
 40
22.41111549782308
100
AcDbArc
 50
78.85962783890552
 51
101.1403721610945
  0
ARC
  5
19D9
330
1E
100
AcDbEntity
  8
STEMPEL
100
AcDbCircle
 10
97.70821279411421
 20
626.2225275193596
 30
0.0
 40
7.694305707784447
100
AcDbArc
 50
73.65710669401501
 51
106.342893305985
  0
ARC
  5
19DA
330
1E
100
AcDbEntity
  8
STEMPEL
100
AcDbCircle
 10
84.71783173734763
 20
626.2225275193596
 30
0.0
 40
7.694305707784447
100
AcDbArc
 50
73.65710669401501
 51
106.342893305985
  0
ARC
  5
19DB
330
1E
100
AcDbEntity
  8
STEMPEL
100
AcDbCircle
 10
91.21302226573092
 20
603.6059440946892
 30
0.0
 40
30.31088913245485
100
AcDbArc
 50
81.78678929826174
 51
98.21321070173826
  0
ARC
  5
19DC
330
1E
100
AcDbEntity
  8
STEMPEL
100
AcDbCircle
 10
306.6875299069951
 20
603.6059440946894
 30
0.0
 40
30.31088913245485
100
AcDbArc
 50
81.78678929826174
 51
98.21321070173826
  0
ARC
  5
19DD
330
1E
100
AcDbEntity
  8
STEMPEL
100
AcDbCircle
 10
300.1923393786118
 20
626.2225275193598
 30
0.0
 40
7.694305707784447
100
AcDbArc
 50
73.65710669401501
 51
106.342893305985
  0
ARC
  5
19DE
330
1E
100
AcDbEntity
  8
STEMPEL
100
AcDbCircle
 10
313.1827204353784
 20
626.2225275193598
 30
0.0
 40
7.694305707784447
100
AcDbArc
 50
73.65710669401501
 51
106.342893305985
  0
ARC
  5
19DF
330
1E
100
AcDbEntity
  8
HILF
100
AcDbCircle
 10
306.6875299069951
 20
604.018372179483
 30
0.0
 40
22.41111549782308
100
AcDbArc
 50
78.85962783890552
 51
101.1403721610945
  0
ARC
  5
19E0
330
1E
100
AcDbEntity
  8
HILF
100
AcDbCircle
 10
313.1827204353784
 20
620.6683470776147
 30
0.0
 40
5.761140599691502
100
AcDbArc
 50
67.92594526326206
 51
112.0740547367379
  0
ARC
  5
19E1
330
1E
100
AcDbEntity
  8
HILF
100
AcDbCircle
 10
300.1923393786118
 20
620.6683470776147
 30
0.0
 40
5.761140599691502
100
AcDbArc
 50
67.92594526326206
 51
112.0740547367379
  0
POINT
  5
19E2
330
1E
100
AcDbEntity
  8
0
100
AcDbPoint
 10
306.6875299069951
 20
623.9168332271442
 30
0.0
210
0.0000000000000001
220
1.0
230
0.0
  0
LINE
  5
19E3
330
1E
100
AcDbEntity
  8
STEMPEL
100
AcDbLine
 10
299.1875299069951
 20
633.9168332271442
 30
0.0
 11
314.1875299069951
 21
633.9168332271442
 31
0.0
  0
LINE
  5
19E4
330
1E
100
AcDbEntity
  8
STEMPEL
100
AcDbLine
 10
315.3477839448395
 20
626.0071897433441
 30
0.0
 11
315.3477839448395
 21
633.605944094689
 31
0.0
  0
LINE
  5
19E5
330
1E
100
AcDbEntity
  8
STEMPEL
100
AcDbLine
 10
311.0176569259173
 20
626.0071897433441
 30
0.0
 11
311.0176569259173
 21
633.605944094689
 31
0.0
  0
LINE
  5
19E6
330
1E
100
AcDbEntity
  8
STEMPEL
100
AcDbLine
 10
302.3574028880729
 20
626.0071897433441
 30
0.0
 11
302.3574028880729
 21
633.605944094689
 31
0.0
  0
LINE
  5
19E7
330
1E
100
AcDbEntity
  8
STEMPEL
100
AcDbLine
 10
316.0809756511994
 20
625.3716026927337
 30
0.0
 11
296.2810147995009
 21
625.3716026927337
 31
0.0
  0
LINE
  5
19E8
330
1E
100
AcDbEntity
  8
STEMPEL
100
AcDbLine
 10
298.0272758691507
 20
626.0071897433441
 30
0.0
 11
298.0272758691507
 21
633.605944094689
 31
0.0
  0
LINE
  5
19E9
330
1E
100
AcDbEntity
  8
STEMPEL
100
AcDbLine
 10
299.1875299069951
 20
633.9168332271442
 30
0.0
 11
298.0272758691507
 21
633.605944094689
 31
0.0
  0
LINE
  5
19EA
330
1E
100
AcDbEntity
  8
STEMPEL
100
AcDbLine
 10
315.3477839448395
 20
633.605944094689
 30
0.0
 11
314.1875299069951
 21
633.9168332271442
 31
0.0
  0
LINE
  5
19EB
330
1E
100
AcDbEntity
  8
STEMPEL
100
AcDbLine
 10
316.3376898484038
 20
625.6468934597223
 30
0.0
 11
315.3477839448395
 21
626.0071897433441
 31
0.0
  0
LINE
  5
19EC
330
1E
100
AcDbEntity
  8
STEMPEL
100
AcDbLine
 10
298.0272758691507
 20
626.0071897433441
 30
0.0
 11
296.2810147995009
 21
625.3716026927337
 31
0.0
  0
ARC
  5
19ED
330
1E
100
AcDbEntity
  8
STEMPEL
100
AcDbCircle
 10
296.5375299069951
 20
624.6668332271442
 30
0.0
 40
0.7500000000000013
100
AcDbArc
 50
110.0000000000006
 51
269.9999991462263
  0
DIMENSION
  5
19EE
330
1E
100
AcDbEntity
  8
BEM
100
AcDbDimension
  2
*D9
 10
43.86605417226403
 20
617.916833227144
 30
0.0
 11
37.36605417226393
 21
635.416833227144
 31
0.0
 70
    32
 71
     5
 42
34.99999999999989
  3
Standard
100
AcDbAlignedDimension
 13
120.9736397209232
 23
652.9168332271439
 33
0.0
 14
61.21302226573092
 24
617.916833227144
 34
0.0
 50
90.0
100
AcDbRotatedDimension
1001
ACAD
1000
DSTYLE
1002
{
1070
    40
1040
2.0
1070
    41
1040
3.5
1070
    42
1040
1.0
1070
    43
1040
7.0
1070
    44
1040
1.0
1070
    73
1070
     0
1070
    74
1070
     0
1070
    77
1070
     1
1070
    78
1070
     8
1070
    79
1070
     2
1070
   140
1040
3.5
1070
   141
1040
1.5
1070
   146
1040
0.5142857142857144
1070
   147
1040
1.5
1070
   172
1070
     1
1070
   178
1070
     1
1070
   179
1070
     2
1070
   271
1070
     2
1070
   272
1070
     2
1070
   284
1070
     8
1070
   285
1070
     8
1070
   286
1070
     8
1002
}
  0
DIMENSION
  5
19EF
330
1E
100
AcDbEntity
  8
BEM
100
AcDbDimension
  2
*D10
 10
353.2189936908453
 20
750.7322406865267
 30
0.0
 11
203.2195613688814
 21
757.2322406865268
 31
0.0
 70
    32
  1
%%c<>
 71
     5
 42
299.9988646439279
  3
Standard
100
AcDbAlignedDimension
 13
53.22012904691746
 23
607.0381535707049
 33
0.0
 14
353.2189936908453
 24
607.0250753644041
 34
0.0
100
AcDbRotatedDimension
1001
ACAD
1000
DSTYLE
1002
{
1070
    40
1040
2.0
1070
    41
1040
3.5
1070
    42
1040
1.0
1070
    43
1040
7.0
1070
    44
1040
1.0
1070
    73
1070
     0
1070
    74
1070
     0
1070
    77
1070
     1
1070
    78
1070
     8
1070
    79
1070
     2
1070
   140
1040
3.5
1070
   141
1040
1.5
1070
   146
1040
0.5142857142857144
1070
   147
1040
1.5
1070
   172
1070
     1
1070
   178
1070
     1
1070
   179
1070
     2
1070
   271
1070
     2
1070
   272
1070
     2
1070
   284
1070
     8
1070
   285
1070
     8
1070
   286
1070
     8
1002
}
  0
ARC
  5
19F1
330
1E
100
AcDbEntity
  8
STEMPEL
100
AcDbCircle
 10
329.3537756477048
 20
642.3366782412654
 30
0.0
 40
2.247898356545996
100
AcDbArc
 50
58.53080548383258
 51
127.8806357171802
  0
LINE
  5
19F2
330
1E
100
AcDbEntity
  8
STEMPEL
100
AcDbLine
 10
329.3498164223455
 20
644.5845765615445
 30
0.0
 11
329.3533718553416
 21
644.5845765615445
 31
0.0
  0
LINE
  5
19F3
330
1E
100
AcDbEntity
  8
STEMPEL
100
AcDbLine
 10
330.7340267750295
 20
644.1345860163415
 30
0.0
 11
330.5272686432371
 21
644.2539578793887
 31
0.0
  0
ARC
  5
19F4
330
1E
100
AcDbEntity
  8
STEMPEL
100
AcDbCircle
 10
321.0722688837567
 20
642.3366782412654
 30
0.0
 40
2.247898356545996
100
AcDbArc
 50
52.11936428281976
 51
121.4691945163663
  0
LINE
  5
19F5
330
1E
100
AcDbEntity
  8
STEMPEL
100
AcDbLine
 10
319.6920177564322
 20
644.1345860163415
 30
0.0
 11
319.8987758882176
 21
644.2539578793848
 31
0.0
  0
LINE
  5
19F6
330
1E
100
AcDbEntity
  8
STEMPEL
100
AcDbLine
 10
321.0726726761048
 20
644.5845765615445
 30
0.0
 11
329.3533718548476
 21
644.5845765615445
 31
0.0
  0
ARC
  5
19F7
330
1E
100
AcDbEntity
  8
STEMPEL
100
AcDbCircle
 10
325.2130222657307
 20
636.3034589679446
 30
0.0
 40
8.281117593600001
100
AcDbArc
 50
70.52782738138933
 51
109.4721726186137
  0
ARC
  5
19F8
102
{ACAD_REACTORS
330
1B10
102
}
330
1E
100
AcDbEntity
  8
STEMPEL
100
AcDbCircle
 10
345.213022265731
 20
620.9168332271442
 30
0.0
 40
3.000000000000028
100
AcDbArc
 50
270.0
 51
90.0
  0
LINE
  5
19F9
102
{ACAD_REACTORS
330
1B10
102
}
330
1E
100
AcDbEntity
  8
STEMPEL
100
AcDbLine
 10
337.8708794903043
 20
623.9168332271442
 30
0.0
 11
345.213022265731
 21
623.9168332271442
 31
0.0
  0
LINE
  5
19FA
330
1E
100
AcDbEntity
  8
STEMPEL
100
AcDbLine
 10
333.2130222657308
 20
638.9168332271444
 30
0.0
 11
333.213022265731
 21
637.9168332271442
 31
0.0
  0
LINE
  5
19FB
330
1E
100
AcDbEntity
  8
STEMPEL
100
AcDbLine
 10
331.2130222657307
 20
640.5168332271443
 30
0.0
 11
331.2130222657307
 21
638.9168332271444
 31
0.0
  0
LINE
  5
19FC
102
{ACAD_REACTORS
330
1B10
102
}
330
1E
100
AcDbEntity
  8
STEMPEL
100
AcDbLine
 10
328.2130222657307
 20
638.9168332271442
 30
0.0
 11
328.2130222657311
 21
630.5168332271445
 31
0.0
  0
LINE
  5
19FD
330
1E
100
AcDbEntity
  8
HILF
100
AcDbLine
 10
327.5630222657305
 20
629.8668332271444
 30
0.0
 11
327.5630222657302
 21
638.9168332271442
 31
0.0
  0
LINE
  5
19FE
102
{ACAD_REACTORS
330
1B10
102
}
330
1E
100
AcDbEntity
  8
STEMPEL
100
AcDbLine
 10
327.563022265731
 20
629.8668332271444
 30
0.0
 11
328.2130222657311
 21
630.5168332271445
 31
0.0
  0
LINE
  5
19FF
330
1E
100
AcDbEntity
  8
STEMPEL
100
AcDbLine
 10
329.213022265731
 20
638.9168332271442
 30
0.0
 11
329.213022265731
 21
637.9168332271442
 31
0.0
  0
LINE
  5
1A00
102
{ACAD_REACTORS
330
1B10
102
}
330
1E
100
AcDbEntity
  8
STEMPEL
100
AcDbLine
 10
328.2130222657307
 20
637.9168332271442
 30
0.0
 11
333.2130222657311
 21
637.9168332271442
 31
0.0
  0
LINE
  5
1A01
102
{ACAD_REACTORS
330
1B10
102
}
330
1E
100
AcDbEntity
  8
HILF
100
AcDbLine
 10
328.2130222657311
 20
630.5168332271445
 30
0.0
 11
328.2130222657317
 21
617.9168332271441
 31
0.0
  0
LINE
  5
1A02
102
{ACAD_REACTORS
330
1B10
102
}
330
1E
100
AcDbEntity
  8
STEMPEL
100
AcDbLine
 10
327.5630222657305
 20
629.8668332271439
 30
0.0
 11
327.5630222657309
 21
617.916833227144
 31
0.0
  0
LINE
  5
1A03
102
{ACAD_REACTORS
330
1B10
102
}
330
1E
100
AcDbEntity
  8
STEMPEL
100
AcDbLine
 10
332.7130222657308
 20
637.9168332271442
 30
0.0
 11
332.8716410145224
 21
628.8295711949577
 31
0.0
  0
LINE
  5
1A04
102
{ACAD_REACTORS
330
1B10
102
}
330
1E
100
AcDbEntity
  8
STEMPEL
100
AcDbLine
 10
322.2130222657311
 20
630.5168332271445
 30
0.0
 11
322.8630222657307
 21
629.8668332271444
 31
0.0
  0
LINE
  5
1A05
330
1E
100
AcDbEntity
  8
STEMPEL
100
AcDbLine
 10
319.2130222657307
 20
640.5168332271446
 30
0.0
 11
319.2130222657307
 21
638.9168332271444
 31
0.0
  0
LINE
  5
1A06
102
{ACAD_REACTORS
330
1B10
102
}
330
1E
100
AcDbEntity
  8
STEMPEL
100
AcDbLine
 10
322.2130222657307
 20
638.9168332271444
 30
0.0
 11
322.2130222657311
 21
630.5168332271445
 31
0.0
  0
LINE
  5
1A07
330
1E
100
AcDbEntity
  8
STEMPEL
100
AcDbLine
 10
321.213022265731
 20
638.9168332271447
 30
0.0
 11
321.213022265731
 21
637.9168332271442
 31
0.0
  0
LINE
  5
1A08
330
1E
100
AcDbEntity
  8
HILF
100
AcDbLine
 10
322.8630222657303
 20
629.8668332271444
 30
0.0
 11
322.86302226573
 21
638.9168332271444
 31
0.0
  0
LINE
  5
1A09
102
{ACAD_REACTORS
330
1B10
102
}
330
1E
100
AcDbEntity
  8
HILF
100
AcDbLine
 10
322.2130222657311
 20
630.5168332271445
 30
0.0
 11
322.2130222657304
 21
617.9168332271441
 31
0.0
  0
LINE
  5
1A0A
102
{ACAD_REACTORS
330
1B10
102
}
330
1E
100
AcDbEntity
  8
STEMPEL
100
AcDbLine
 10
322.8630222657316
 20
629.8668332271439
 30
0.0
 11
322.8630222657312
 21
617.916833227144
 31
0.0
  0
LINE
  5
1A0B
330
1E
100
AcDbEntity
  8
STEMPEL
100
AcDbLine
 10
331.213022265731
 20
638.9168332271442
 30
0.0
 11
319.2130222657307
 21
638.9168332271447
 31
0.0
  0
LINE
  5
1A0C
330
1E
100
AcDbEntity
  8
STEMPEL
100
AcDbLine
 10
319.2130222657307
 20
640.5168332271446
 30
0.0
 11
331.2130222657307
 21
640.5168332271443
 31
0.0
  0
LINE
  5
1A0D
330
1E
100
AcDbEntity
  8
STEMPEL
100
AcDbLine
 10
322.2130222657311
 20
630.5168332271445
 30
0.0
 11
328.2130222657311
 21
630.5168332271445
 31
0.0
  0
LINE
  5
1A0E
330
1E
100
AcDbEntity
  8
STEMPEL
100
AcDbLine
 10
322.8630222657307
 20
629.8668332271444
 30
0.0
 11
327.563022265731
 21
629.8668332271444
 31
0.0
  0
ARC
  5
1A0F
102
{ACAD_REACTORS
330
1B10
102
}
330
1E
100
AcDbEntity
  8
STEMPEL
100
AcDbCircle
 10
337.8708794903043
 20
628.9168332271441
 30
0.0
 40
4.99999999999995
100
AcDbArc
 50
181.0000000000017
 51
270.0
  0
LINE
  5
1A10
330
1E
100
AcDbEntity
  8
STEMPEL
100
AcDbLine
 10
319.6920177564322
 20
644.1345860163415
 30
0.0
 11
319.6920177564322
 21
640.5168332271446
 31
0.0
  0
LINE
  5
1A11
330
1E
100
AcDbEntity
  8
MITTEL
100
AcDbLine
 10
325.213022265731
 20
617.9168332271443
 30
0.0
 11
325.213022265731
 21
649.5845765615444
 31
0.0
  0
LINE
  5
1A12
330
1E
100
AcDbEntity
  8
STEMPEL
100
AcDbLine
 10
322.4525200110814
 20
644.1109256442171
 30
0.0
 11
322.4525200110814
 21
640.5168332271446
 31
0.0
  0
LINE
  5
1A13
330
1E
100
AcDbEntity
  8
STEMPEL
100
AcDbLine
 10
327.9735245203803
 20
644.1109256442171
 30
0.0
 11
327.97352452038
 21
640.5168332271446
 31
0.0
  0
LINE
  5
1A14
330
1E
100
AcDbEntity
  8
STEMPEL
100
AcDbLine
 10
330.7340267750295
 20
644.1345860163412
 30
0.0
 11
330.7340267750295
 21
640.5168332271446
 31
0.0
  0
ARC
  5
1A15
330
1E
100
AcDbEntity
  8
STEMPEL
100
AcDbCircle
 10
312.7241658700427
 20
717.4366702096059
 30
0.0
 40
5.0
100
AcDbArc
 50
239.7435628364698
 51
239.9329541615142
  0
LINE
  5
1A16
330
1E
100
AcDbEntity
  8
STEMPEL
100
AcDbLine
 10
313.213022265731
 20
702.9168332271455
 30
0.0
 11
312.213022265731
 21
702.9168332271455
 31
0.0
  0
ARC
  5
1A17
330
1E
100
AcDbEntity
  8
STEMPEL
100
AcDbCircle
 10
307.2130222657311
 20
707.9167752598285
 30
0.0
 40
6.0
100
AcDbArc
 50
0.0
 51
59.74358352518254
  0
ARC
  5
1A18
330
1E
100
AcDbEntity
  8
STEMPEL
100
AcDbCircle
 10
307.2130222657311
 20
707.9167752598285
 30
0.0
 40
5.0
100
AcDbArc
 50
0.0
 51
59.74358352518254
  0
ELLIPSE
  5
1A19
330
1E
100
AcDbEntity
  8
STEMPEL
100
AcDbEllipse
 10
298.254131792083
 20
695.4168332271457
 30
0.0
 11
0.0
 21
7.499999999999999
 31
0.0
210
0.0
220
0.0
230
-1.0
 40
0.4999999999999926
 41
4.712388980384689
 42
6.167183451052224
  0
ELLIPSE
  5
1A1A
330
1E
100
AcDbEntity
  8
STEMPEL
100
AcDbEllipse
 10
297.3860677723943
 20
695.4168332271457
 30
0.0
 11
0.0
 21
7.499999999999999
 31
0.0
210
0.0
220
0.0
230
-1.0
 40
0.4999999999999926
 41
4.712388980384689
 42
7.853981633974482
  0
ARC
  5
1A1B
330
1E
100
AcDbEntity
  8
STEMPEL
100
AcDbCircle
 10
283.2130222657312
 20
721.9168332271436
 30
0.0
 40
5.0
100
AcDbArc
 50
59.46264995169952
 51
90.0
  0
ARC
  5
1A1C
330
1E
100
AcDbEntity
  8
STEMPEL
100
AcDbCircle
 10
283.2130222657312
 20
721.9168332271436
 30
0.0
 40
6.0
100
AcDbArc
 50
90.0
 51
90.0
  0
LINE
  5
1A1D
330
1E
100
AcDbEntity
  8
STEMPEL
100
AcDbLine
 10
310.245716887439
 20
713.0939137871875
 30
0.0
 11
286.2594140119721
 21
727.085923797876
 31
0.0
  0
LINE
  5
1A1E
330
1E
100
AcDbEntity
  8
STEMPEL
100
AcDbLine
 10
309.7323758338582
 20
712.2356706740248
 30
0.0
 11
285.753521940907
 21
726.2233238402103
 31
0.0
  0
ARC
  5
1A1F
330
1E
100
AcDbEntity
  8
STEMPEL
100
AcDbCircle
 10
283.2130222657312
 20
721.9168332271436
 30
0.0
 40
6.0
100
AcDbArc
 50
59.48712567238029
 51
90.0
  0
ARC
  5
1A20
330
1E
100
AcDbEntity
  8
STEMPEL
100
AcDbCircle
 10
228.6525368607878
 20
729.4168332271437
 30
0.0
 40
1.5
100
AcDbArc
 50
209.9999999999925
 51
270.0
  0
ARC
  5
1A21
330
1E
100
AcDbEntity
  8
STEMPEL
100
AcDbCircle
 10
228.6525368607878
 20
729.4168332271437
 30
0.0
 40
2.5
100
AcDbArc
 50
209.9999999999925
 51
270.0
  0
ARC
  5
1A22
330
1E
100
AcDbEntity
  8
STEMPEL
100
AcDbCircle
 10
226.0544606494337
 20
727.9168332271437
 30
0.0
 40
1.5
100
AcDbArc
 50
29.99999999999246
 51
90.0
  0
ARC
  5
1A23
330
1E
100
AcDbEntity
  8
STEMPEL
100
AcDbCircle
 10
226.0544606494337
 20
727.9168332271437
 30
0.0
 40
0.5
100
AcDbArc
 50
29.99999999999246
 51
90.0
  0
LINE
  5
1A24
330
1E
100
AcDbEntity
  8
STEMPEL
100
AcDbLine
 10
225.8544606494337
 20
728.4168332271437
 30
0.0
 11
226.0544606494337
 21
728.4168332271437
 31
0.0
  0
ARC
  5
1A25
330
1E
100
AcDbEntity
  8
STEMPEL
100
AcDbCircle
 10
225.8544606494337
 20
727.9168332271437
 30
0.0
 40
0.5
100
AcDbArc
 50
90.0
 51
149.9999999999922
  0
ARC
  5
1A26
330
1E
100
AcDbEntity
  8
STEMPEL
100
AcDbCircle
 10
223.2563844380813
 20
729.4168332271437
 30
0.0
 40
1.5
100
AcDbArc
 50
270.0
 51
329.9999999999922
  0
ARC
  5
1A27
330
1E
100
AcDbEntity
  8
STEMPEL
100
AcDbCircle
 10
223.2563844380813
 20
729.4168332271437
 30
0.0
 40
2.5
100
AcDbArc
 50
270.0
 51
329.9999999999922
  0
ARC
  5
1A28
330
1E
100
AcDbEntity
  8
STEMPEL
100
AcDbCircle
 10
225.8544606494337
 20
727.9168332271437
 30
0.0
 40
1.5
100
AcDbArc
 50
90.0
 51
149.9999999999922
  0
ARC
  5
1A29
330
1E
100
AcDbEntity
  8
STEMPEL
100
AcDbCircle
 10
214.2044606494338
 20
727.9168332271437
 30
0.0
 40
0.5
100
AcDbArc
 50
29.99999999999328
 51
90.0
  0
LINE
  5
1A2A
330
1E
100
AcDbEntity
  8
STEMPEL
100
AcDbLine
 10
214.0044606494337
 20
728.4168332271437
 30
0.0
 11
214.2044606494338
 21
728.4168332271437
 31
0.0
  0
ARC
  5
1A2B
330
1E
100
AcDbEntity
  8
STEMPEL
100
AcDbCircle
 10
214.0044606494337
 20
727.9168332271437
 30
0.0
 40
0.5
100
AcDbArc
 50
90.0
 51
165.5224878140701
  0
ARC
  5
1A2C
330
1E
100
AcDbEntity
  8
STEMPEL
100
AcDbCircle
 10
214.2044606494338
 20
727.9168332271437
 30
0.0
 40
1.5
100
AcDbArc
 50
29.99999999999328
 51
90.0
  0
ARC
  5
1A2D
330
1E
100
AcDbEntity
  8
STEMPEL
100
AcDbCircle
 10
216.8025368607873
 20
729.4168332271437
 30
0.0
 40
1.5
100
AcDbArc
 50
209.9999999999933
 51
270.0
  0
ARC
  5
1A2E
330
1E
100
AcDbEntity
  8
STEMPEL
100
AcDbCircle
 10
216.8025368607873
 20
729.4168332271437
 30
0.0
 40
2.5
100
AcDbArc
 50
209.9999999999933
 51
270.0
  0
ARC
  5
1A2F
330
1E
100
AcDbEntity
  8
STEMPEL
100
AcDbCircle
 10
209.9427281106272
 20
727.9168332271437
 30
0.0
 40
1.5
100
AcDbArc
 50
14.47751218592986
 51
90.0
  0
ARC
  5
1A30
330
1E
100
AcDbEntity
  8
STEMPEL
100
AcDbCircle
 10
211.8792197837306
 20
728.4168332271437
 30
0.0
 40
0.5
100
AcDbArc
 50
194.4775121859299
 51
270.0
  0
ARC
  5
1A31
330
1E
100
AcDbEntity
  8
STEMPEL
100
AcDbCircle
 10
211.8792197837306
 20
728.4168332271437
 30
0.0
 40
1.5
100
AcDbArc
 50
194.4775121859299
 51
270.0
  0
ARC
  5
1A32
330
1E
100
AcDbEntity
  8
STEMPEL
100
AcDbCircle
 10
209.9427281106272
 20
727.9168332271437
 30
0.0
 40
0.5
100
AcDbArc
 50
14.47751218592986
 51
90.0
  0
LINE
  5
1A33
330
1E
100
AcDbEntity
  8
STEMPEL
100
AcDbLine
 10
211.8792197837306
 20
727.9168332271437
 30
0.0
 11
212.0679689763298
 21
727.9168332271437
 31
0.0
  0
ARC
  5
1A34
330
1E
100
AcDbEntity
  8
STEMPEL
100
AcDbCircle
 10
212.0679689763298
 20
728.4168332271437
 30
0.0
 40
0.5
100
AcDbArc
 50
270.0
 51
345.5224878140701
  0
ARC
  5
1A35
330
1E
100
AcDbEntity
  8
STEMPEL
100
AcDbCircle
 10
214.0044606494337
 20
727.9168332271437
 30
0.0
 40
1.5
100
AcDbArc
 50
90.0
 51
165.5224878140701
  0
ARC
  5
1A36
330
1E
100
AcDbEntity
  8
STEMPEL
100
AcDbCircle
 10
212.0679689763298
 20
728.4168332271437
 30
0.0
 40
1.5
100
AcDbArc
 50
270.0
 51
345.5224878140701
  0
ARC
  5
1A37
330
1E
100
AcDbEntity
  8
STEMPEL
100
AcDbCircle
 10
199.8544606494336
 20
727.9168332271437
 30
0.0
 40
1.5
100
AcDbArc
 50
90.0
 51
149.999999999993
  0
ARC
  5
1A38
330
1E
100
AcDbEntity
  8
STEMPEL
100
AcDbCircle
 10
197.2563844380809
 20
729.4168332271437
 30
0.0
 40
2.5
100
AcDbArc
 50
270.0
 51
329.999999999993
  0
ARC
  5
1A39
330
1E
100
AcDbEntity
  8
STEMPEL
100
AcDbCircle
 10
197.2563844380809
 20
729.4168332271437
 30
0.0
 40
1.5
100
AcDbArc
 50
270.0
 51
329.999999999993
  0
ARC
  5
1A3A
330
1E
100
AcDbEntity
  8
STEMPEL
100
AcDbCircle
 10
199.8544606494336
 20
727.9168332271437
 30
0.0
 40
0.5
100
AcDbArc
 50
90.0
 51
149.999999999993
  0
ARC
  5
1A3B
330
1E
100
AcDbEntity
  8
STEMPEL
100
AcDbCircle
 10
188.2044606494338
 20
727.9168332271437
 30
0.0
 40
1.5
100
AcDbArc
 50
30.00000000000055
 51
90.0
  0
ARC
  5
1A3C
330
1E
100
AcDbEntity
  8
STEMPEL
100
AcDbCircle
 10
188.2044606494338
 20
727.9168332271437
 30
0.0
 40
0.5
100
AcDbArc
 50
30.00000000000055
 51
90.0
  0
LINE
  5
1A3D
330
1E
100
AcDbEntity
  8
STEMPEL
100
AcDbLine
 10
188.0044606494337
 20
728.4168332271437
 30
0.0
 11
188.2044606494338
 21
728.4168332271437
 31
0.0
  0
ARC
  5
1A3E
330
1E
100
AcDbEntity
  8
STEMPEL
100
AcDbCircle
 10
190.8025368607867
 20
729.4168332271437
 30
0.0
 40
1.5
100
AcDbArc
 50
209.9999999999997
 51
270.0
  0
ARC
  5
1A3F
330
1E
100
AcDbEntity
  8
STEMPEL
100
AcDbCircle
 10
190.8025368607867
 20
729.4168332271437
 30
0.0
 40
2.5
100
AcDbArc
 50
209.9999999999997
 51
270.0
  0
LINE
  5
1A40
330
1E
100
AcDbEntity
  8
STEMPEL
100
AcDbLine
 10
190.8025368607867
 20
727.9168332271437
 30
0.0
 11
197.2563844380809
 21
727.9168332271437
 31
0.0
  0
LINE
  5
1A41
330
1E
100
AcDbEntity
  8
STEMPEL
100
AcDbLine
 10
190.8025368607867
 20
727.9168332271437
 30
0.0
 11
197.2563844380809
 21
727.9168332271437
 31
0.0
  0
LINE
  5
1A42
330
1E
100
AcDbEntity
  8
STEMPEL
100
AcDbLine
 10
199.8544606494336
 20
728.4168332271437
 30
0.0
 11
209.9427281106272
 21
728.4168332271437
 31
0.0
  0
ARC
  5
1A43
330
1E
100
AcDbEntity
  8
STEMPEL
100
AcDbCircle
 10
203.2130222657312
 20
695.4168332271457
 30
0.0
 40
7.5
100
AcDbArc
 50
0.0000000000260551
 51
180.000000000013
  0
LINE
  5
1A44
330
1E
100
AcDbEntity
  8
STEMPEL
100
AcDbLine
 10
216.8025368607873
 20
727.9168332271437
 30
0.0
 11
223.2563844380813
 21
727.9168332271437
 31
0.0
  0
LINE
  5
1A45
330
1E
100
AcDbEntity
  8
STEMPEL
100
AcDbLine
 10
216.8025368607873
 20
727.9168332271437
 30
0.0
 11
223.2563844380813
 21
727.9168332271437
 31
0.0
  0
LINE
  5
1A46
330
1E
100
AcDbEntity
  8
STEMPEL
100
AcDbLine
 10
228.6525368607878
 20
727.9168332271437
 30
0.0
 11
283.2130222657312
 21
727.9168332271441
 31
0.0
  0
ELLIPSE
  5
1A47
330
1E
100
AcDbEntity
  8
STEMPEL
100
AcDbEllipse
 10
257.5838554394103
 20
695.4168332271457
 30
0.0
 11
0.0
 21
7.5
 31
0.0
210
0.0
220
0.0
230
-1.0
 40
0.8660254037843856
 41
4.712388980384689
 42
7.853981633974482
  0
ELLIPSE
  5
1A48
330
1E
100
AcDbEntity
  8
STEMPEL
100
AcDbEllipse
 10
258.0850324348522
 20
695.4168332271457
 30
0.0
 11
0.0
 21
7.5
 31
0.0
210
0.0
220
0.0
230
-1.0
 40
0.8660254037843856
 41
4.712388980384689
 42
6.24459510668465
  0
LINE
  5
1A49
330
1E
100
AcDbEntity
  8
STEMPEL
100
AcDbLine
 10
313.213022265731
 20
662.9168332271454
 30
0.0
 11
312.213022265731
 21
662.9168332271454
 31
0.0
  0
LINE
  5
1A4A
330
1E
100
AcDbEntity
  8
STEMPEL
100
AcDbLine
 10
311.0392208549333
 20
650.4168332271437
 30
0.0
 11
311.0392208549333
 21
643.916833227146
 31
0.0
  0
LINE
  5
1A4B
330
1E
100
AcDbEntity
  8
STEMPEL
100
AcDbLine
 10
312.003335024696
 20
650.4168332271437
 30
0.0
 11
312.003335024696
 21
643.916833227146
 31
0.0
  0
LWPOLYLINE
  5
1A4C
330
1E
100
AcDbEntity
  8
STEMPEL
100
AcDbPolyline
 90
        7
 70
   128
 43
0.0
 10
311.5212779398148
 20
656.8788872829835
 10
311.3834489302445
 20
656.126781046045
 10
311.2645846532783
 20
655.2040674353303
 10
311.1682366513771
 20
654.1383161854261
 10
311.097283703839
 20
652.9613708486049
 10
311.053845811831
 20
651.708397342203
 10
311.0392208549334
 20
650.4168332271437
  0
LINE
  5
1A4D
330
1E
100
AcDbEntity
  8
STEMPEL
100
AcDbLine
 10
310.0454421413955
 20
650.4168332271437
 30
0.0
 11
310.0454421413955
 21
643.9168332271449
 31
0.0
  0
LINE
  5
1A4E
330
1E
100
AcDbEntity
  8
STEMPEL
100
AcDbLine
 10
306.5473478779621
 20
650.4168332271437
 30
0.0
 11
306.5473478779621
 21
643.9168332271472
 31
0.0
  0
LWPOLYLINE
  5
1A4F
330
1E
100
AcDbEntity
  8
STEMPEL
100
AcDbPolyline
 90
       18
 70
   128
 43
0.0
 10
312.003335024696
 20
650.4168332271437
 10
311.9866666012191
 20
651.7949546107683
 10
311.9372289539588
 20
653.126145723548
 10
311.8567056226983
 20
654.3650744487248
 10
311.7478387329066
 20
655.469550554494
 10
311.6143356159444
 20
656.4019624317469
 10
311.4607425603403
 20
657.1305579123081
 10
311.2922899933882
 20
657.6305255509415
 10
311.1147143652193
 20
657.8848395493581
 10
310.9340628008722
 20
657.8848395493581
 10
310.7564871727033
 20
657.6305255509415
 10
310.5880346057512
 20
657.1305579123081
 10
310.4344415501471
 20
656.4019624317469
 10
310.3009384331848
 20
655.469550554494
 10
310.1920715433931
 20
654.3650744487248
 10
310.1115482121327
 20
653.126145723548
 10
310.0621105648723
 20
651.7949546107683
 10
310.0454421413955
 20
650.4168332271437
  0
LINE
  5
1A50
330
1E
100
AcDbEntity
  8
STEMPEL
100
AcDbLine
 10
301.7331507289916
 20
650.4168332271437
 30
0.0
 11
301.7331507289916
 21
643.9168332271472
 31
0.0
  0
LINE
  5
1A51
330
1E
100
AcDbEntity
  8
STEMPEL
100
AcDbLine
 10
300.8070963924844
 20
650.4168332271437
 30
0.0
 11
300.8070963924844
 21
643.9168332271472
 31
0.0
  0
LINE
  5
1A52
330
1E
100
AcDbEntity
  8
STEMPEL
100
AcDbLine
 10
294.0492972088026
 20
650.4168332271437
 30
0.0
 11
294.0492972088026
 21
643.9168332271472
 31
0.0
  0
ELLIPSE
  5
1A53
330
1E
100
AcDbEntity
  8
STEMPEL
100
AcDbEllipse
 10
297.3860677723943
 20
670.4168332271473
 30
0.0
 11
0.0
 21
-7.499999999999999
 31
0.0
210
0.0
220
0.0
230
1.0
 40
0.4999999999999926
 41
4.712388980384689
 42
7.853981633974482
  0
ELLIPSE
  5
1A54
330
1E
100
AcDbEntity
  8
STEMPEL
100
AcDbEllipse
 10
298.254131792083
 20
670.4168332271473
 30
0.0
 11
0.0
 21
-7.499999999999999
 31
0.0
210
0.0
220
0.0
230
1.0
 40
0.4999999999999926
 41
4.712388980384689
 42
6.167183451052224
  0
LWPOLYLINE
  5
1A55
330
1E
100
AcDbEntity
  8
STEMPEL
100
AcDbPolyline
 90
       18
 70
   128
 43
0.0
 10
306.5473478779621
 20
650.4168332271437
 10
306.4984785330458
 20
651.7949546107683
 10
306.3535346852258
 20
653.126145723548
 10
306.1174522233986
 20
654.3650744487248
 10
305.7982706526519
 20
655.469550554494
 10
305.4068593185615
 20
656.4019624317469
 10
304.9565472646635
 20
657.1305579123081
 10
304.4626693278641
 20
657.6305255509415
 10
303.9420439289592
 20
657.8848395493581
 10
303.4124003414873
 20
657.8848395493581
 10
302.8917749425824
 20
657.6305255509415
 10
302.397897005783
 20
657.1305579123081
 10
301.947584951885
 20
656.4019624317469
 10
301.5561736177946
 20
655.469550554494
 10
301.2369920470479
 20
654.3650744487248
 10
301.0009095852207
 20
653.126145723548
 10
300.8559657374007
 20
651.7949546107683
 10
300.8070963924844
 20
650.4168332271437
  0
LWPOLYLINE
  5
1A56
330
1E
100
AcDbEntity
  8
STEMPEL
100
AcDbPolyline
 90
        9
 70
   128
 43
0.0
 10
304.1402493034754
 20
657.8185914718089
 10
303.6511887602066
 20
657.4921585740514
 10
303.1915757923056
 20
656.9468895607943
 10
302.7756259886813
 20
656.1996493176662
 10
302.4162044593897
 20
655.2735495948887
 10
302.1244279245022
 20
654.1972341729184
 10
301.9093208797641
 20
653.0039929252876
 10
301.7775364736566
 20
651.7307321802117
 10
301.7331507289918
 20
650.4168332271453
  0
LINE
  5
1A57
330
1E
100
AcDbEntity
  8
STEMPEL
100
AcDbLine
 10
311.6875299069951
 20
635.9168332271447
 30
0.0
 11
311.6875299069951
 21
633.9168332271442
 31
0.0
  0
LINE
  5
1A58
330
1E
100
AcDbEntity
  8
STEMPEL
100
AcDbLine
 10
314.6237942083666
 20
638.9168332271456
 30
0.0
 11
313.659680038604
 21
638.9168332271456
 31
0.0
  0
ARC
  5
1A59
102
{ACAD_REACTORS
330
1B10
102
}
330
1E
100
AcDbEntity
  8
STEMPEL
100
AcDbCircle
 10
312.5551650411577
 20
628.9168332271442
 30
0.0
 40
5.0
100
AcDbArc
 50
270.0
 51
358.9999999999982
  0
LINE
  5
1A5A
102
{ACAD_REACTORS
330
1B10
102
}
330
1E
100
AcDbEntity
  8
STEMPEL
100
AcDbLine
 10
317.5544035169396
 20
628.8295711949579
 30
0.0
 11
317.7130222657309
 21
637.916833227144
 31
0.0
  0
LINE
  5
1A5B
330
1E
100
AcDbEntity
  8
HILF
100
AcDbLine
 10
310.6875299069951
 20
636.9168332271446
 30
0.0
 11
310.6875299069951
 21
633.9168332271442
 31
0.0
  0
LINE
  5
1A5C
330
1E
100
AcDbEntity
  8
STEMPEL
100
AcDbLine
 10
308.7009195106307
 20
638.9168332271456
 30
0.0
 11
303.8867223616593
 21
638.9168332271456
 31
0.0
  0
LINE
  5
1A5D
330
1E
100
AcDbEntity
  8
STEMPEL
100
AcDbLine
 10
310.6875299069951
 20
636.9168332271446
 30
0.0
 11
311.6875299069951
 21
635.9168332271447
 31
0.0
  0
LINE
  5
1A60
330
1E
100
AcDbEntity
  8
STEMPEL
100
AcDbLine
 10
301.6875299069951
 20
635.9168332271447
 30
0.0
 11
302.6875299069951
 21
636.9168332271446
 31
0.0
  0
LINE
  5
1A61
330
1E
100
AcDbEntity
  8
STEMPEL
100
AcDbLine
 10
301.6875299069951
 20
635.9168332271447
 30
0.0
 11
301.6875299069951
 21
633.9168332271442
 31
0.0
  0
LINE
  5
1A62
330
1E
100
AcDbEntity
  8
HILF
100
AcDbLine
 10
302.6875299069951
 20
636.9168332271446
 30
0.0
 11
302.6875299069951
 21
633.9168332271442
 31
0.0
  0
LWPOLYLINE
  5
1A63
330
1E
100
AcDbEntity
  8
STEMPEL
100
AcDbPolyline
 90
        4
 70
   128
 43
0.0
 10
-289.2815819482767
 20
637.9168332271456
 10
-288.5238323231824
 20
638.0079867090723
 10
-287.7891065370069
 20
638.2786775024301
 10
-286.4156738427023
 20
639.1592714164407
210
0.0
220
0.0
230
-1.0
  0
LWPOLYLINE
  5
1A64
330
1E
100
AcDbEntity
  8
STEMPEL
100
AcDbPolyline
 90
        2
 70
   128
 43
0.0
 10
-287.6646734890098
 20
638.9168332271456
 10
-286.3753159039047
 20
640.3149715738248
210
0.0
220
0.0
230
-1.0
  0
ARC
  5
1A65
102
{ACAD_REACTORS
330
1B10
102
}
330
1E
100
AcDbEntity
  8
STEMPEL
100
AcDbCircle
 10
287.9136402880098
 20
624.9168332271442
 30
0.0
 40
1.0
100
AcDbArc
 50
182.0000000000036
 51
270.0
  0
LINE
  5
1A66
330
1E
100
AcDbEntity
  8
STEMPEL
100
AcDbLine
 10
296.0008740373211
 20
638.9168332271456
 30
0.0
 11
287.6646734890091
 21
638.9168332271456
 31
0.0
  0
LINE
  5
1A69
330
1E
100
AcDbEntity
  8
STEMPEL
100
AcDbLine
 10
302.6875299069951
 20
636.9168332271446
 30
0.0
 11
310.6875299069951
 21
636.9168332271446
 31
0.0
  0
LINE
  5
1A6A
330
1E
100
AcDbEntity
  8
STEMPEL
100
AcDbLine
 10
311.6875299069951
 20
635.9168332271449
 30
0.0
 11
301.6875299069951
 21
635.9168332271449
 31
0.0
  0
LINE
  5
1A6B
102
{ACAD_REACTORS
330
1B10
102
}
330
1E
100
AcDbEntity
  8
STEMPEL
100
AcDbLine
 10
287.9136402880098
 20
623.9168332271442
 30
0.0
 11
312.5551650411577
 21
623.9168332271442
 31
0.0
  0
ARC
  5
1A6C
330
1E
100
AcDbEntity
  8
STEMPEL
100
AcDbCircle
 10
318.2130222657311
 20
643.9168332271447
 30
0.0
 40
6.0
100
AcDbArc
 50
180.0
 51
269.9999999999984
  0
ARC
  5
1A6D
330
1E
100
AcDbEntity
  8
STEMPEL
100
AcDbCircle
 10
318.2130222657311
 20
643.9168332271447
 30
0.0
 40
5.0
100
AcDbArc
 50
180.0
 51
269.9999999999984
  0
LINE
  5
1A6E
102
{ACAD_REACTORS
330
1B10
102
}
330
1E
100
AcDbEntity
  8
MITTEL
100
AcDbLine
 10
306.6875299069951
 20
641.9168332271446
 30
0.0
 11
306.6875299069951
 21
611.9168332271448
 31
0.0
  0
LWPOLYLINE
  5
1A6F
330
1E
100
AcDbEntity
  8
STEMPEL
100
AcDbPolyline
 90
       10
 70
   128
 43
0.0
 10
-298.4130033834085
 20
637.9168332271456
 10
-297.6552537583143
 20
638.0079867090723
 10
-296.9205279721387
 20
638.2786775024301
 10
-296.2311502961057
 20
638.7206808044391
 10
-295.6080671220592
 20
639.3205665684318
 10
-295.0702105169478
 20
640.0601075690265
 10
-294.6339229815488
 20
640.9168332271458
 10
-294.3124608918536
 20
641.8647123671919
 10
-294.1155917107895
 20
642.8749441611444
 10
-294.0492972088027
 20
643.916833227146
210
0.0
220
0.0
230
-1.0
  0
LWPOLYLINE
  5
1A70
330
1E
100
AcDbEntity
  8
STEMPEL
100
AcDbPolyline
 90
        7
 70
   128
 43
0.0
 10
-303.8867223616603
 20
638.9168332271456
 10
-303.266631838596
 20
639.5261711289864
 10
-302.7348116918125
 20
640.2536014022757
 10
-302.3055658920813
 20
641.0795588962193
 10
-301.990439544284
 20
641.9818284466816
 10
-301.7979083673181
 20
642.9361423809248
 10
-301.7331507289918
 20
643.916833227146
210
0.0
220
0.0
230
-1.0
  0
LWPOLYLINE
  5
1A71
330
1E
100
AcDbEntity
  8
STEMPEL
100
AcDbPolyline
 90
       10
 70
   128
 43
0.0
 10
-305.6224609190583
 20
637.9168332271456
 10
-304.7862816442167
 20
638.0079867090723
 10
-303.9755092535141
 20
638.2786775024301
 10
-303.2147786557713
 20
638.7206808044391
 10
-302.5272042652525
 20
639.3205665684318
 10
-301.9336776818841
 20
640.0601075690265
 10
-301.4522329105629
 20
640.9168332271458
 10
-301.0974984070425
 20
641.8647123671919
 10
-300.8802525997083
 20
642.8749441611444
 10
-300.8070963924844
 20
643.916833227146
210
0.0
220
0.0
230
-1.0
  0
LWPOLYLINE
  5
1A72
330
1E
100
AcDbEntity
  8
STEMPEL
100
AcDbPolyline
 90
       10
 70
   128
 43
0.0
 10
-311.3627124045361
 20
637.9168332271456
 10
-310.5265331296945
 20
638.0079867090723
 10
-309.7157607389919
 20
638.2786775024301
 10
-308.955030141249
 20
638.7206808044391
 10
-308.2674557507303
 20
639.3205665684318
 10
-307.6739291673618
 20
640.0601075690265
 10
-307.1924843960406
 20
640.9168332271458
 10
-306.8377498925203
 20
641.8647123671919
 10
-306.6205040851861
 20
642.8749441611444
 10
-306.5473478779621
 20
643.916833227146
210
0.0
220
0.0
230
-1.0
  0
LWPOLYLINE
  5
1A73
330
1E
100
AcDbEntity
  8
STEMPEL
100
AcDbPolyline
 90
       10
 70
   128
 43
0.0
 10
-317.5093237557268
 20
637.9168332271468
 10
-316.651250759454
 20
637.9829604417193
 10
-315.7984385598318
 20
638.2355141914496
 10
-314.9776802529148
 20
638.6665599077671
 10
-314.2147618865157
 20
639.2625552782071
 10
-313.5336523310166
 20
640.0047757099278
 10
-312.9557502410709
 20
640.8699026067251
 10
-312.4992117666646
 20
641.8307559774412
 10
-312.1783801350671
 20
642.8571483591533
 10
-312.003335024696
 20
643.916833227146
210
0.0
220
0.0
230
-1.0
  0
LWPOLYLINE
  5
1A74
330
1E
100
AcDbEntity
  8
STEMPEL
100
AcDbPolyline
 90
       10
 70
   128
 43
0.0
 10
-315.5514308724263
 20
637.9168332271456
 10
-314.6933578761535
 20
637.9829604417182
 10
-313.8405456765313
 20
638.2355141914485
 10
-313.0197873696143
 20
638.666559907766
 10
-312.2568690032152
 20
639.262555278206
 10
-311.5757594477161
 20
640.0047757099266
 10
-310.9978573577704
 20
640.869902606724
 10
-310.5413188833642
 20
641.83075597744
 10
-310.2204872517666
 20
642.8571483591522
 10
-310.0454421413955
 20
643.9168332271449
210
0.0
220
0.0
230
-1.0
  0
LWPOLYLINE
  5
1A75
330
1E
100
AcDbEntity
  8
STEMPEL
100
AcDbPolyline
 90
        7
 70
   128
 43
0.0
 10
-313.6596800386042
 20
638.916833227146
 10
-312.9829781635268
 20
639.5264339550051
 10
-312.3834287398928
 20
640.2539930389167
 10
-311.8771400667432
 20
641.0799629005969
 10
-311.4777147746976
 20
641.9821519258
 10
-311.1958843594347
 20
642.9363206939938
 10
-311.0392208549332
 20
643.916833227146
210
0.0
220
0.0
230
-1.0
  0
ARC
  5
1A76
102
{ACAD_REACTORS
330
1B10
102
}
330
1E
100
AcDbEntity
  8
STEMPEL
100
AcDbCircle
 10
285.4524048105387
 20
652.4168332271441
 30
0.0
 40
0.5
100
AcDbArc
 50
2.000000000003669
 51
90.0
  0
LWPOLYLINE
  5
1A77
330
1E
100
AcDbEntity
  8
STEMPEL
100
AcDbPolyline
 90
        8
 70
   128
 43
0.0
 10
269.5966874487182
 20
657.8848395493581
 10
268.599443966683
 20
657.6996601685603
 10
267.5341647149407
 20
657.2304054411066
 10
266.5583297319024
 20
656.516081203938
 10
265.7070376990445
 20
655.5823801605416
 10
265.010907756308
 20
654.4628855253812
 10
264.4949781976166
 20
653.1978631080424
 10
264.4296803043272
 20
652.9168332271441
  0
LWPOLYLINE
  5
1A78
330
1E
100
AcDbEntity
  8
STEMPEL
100
AcDbPolyline
 90
       16
 70
   128
 43
0.0
 10
275.00635194173
 20
652.9168332271441
 10
274.9591041485855
 20
653.126145723548
 10
274.4696739986643
 20
654.3650744487248
 10
273.8079684114999
 20
655.469550554494
 10
272.9965209772348
 20
656.4019624317469
 10
272.0629645650191
 20
657.1305579123081
 10
271.039090318793
 20
657.6305255509415
 10
269.9597650480102
 20
657.8848395493581
 10
268.8617438802591
 20
657.8848395493581
 10
267.7824186094764
 20
657.6305255509415
 10
266.7585443632503
 20
657.1305579123081
 10
265.8249879510346
 20
656.4019624317469
 10
265.0135405167695
 20
655.469550554494
 10
264.3518349296051
 20
654.3650744487248
 10
263.8624047796839
 20
653.126145723548
 10
263.8151569865395
 20
652.9168332271441
  0
LINE
  5
1A7A
102
{ACAD_REACTORS
330
1B10
102
}
330
1E
100
AcDbEntity
  8
STEMPEL
100
AcDbLine
 10
282.2130222657309
 20
617.9168332271443
 30
0.0
 11
283.4352491979422
 21
652.9168332271441
 31
0.0
  0
LWPOLYLINE
  5
1A7B
330
1E
100
AcDbEntity
  8
STEMPEL
100
AcDbPolyline
 90
       17
 70
   128
 43
0.0
 10
294.0492972088025
 20
650.4168332271437
 10
293.9715573075424
 20
651.7949546107683
 10
293.7409849428606
 20
653.126145723548
 10
293.3654319800954
 20
654.3650744487248
 10
292.8576874249677
 20
655.469550554494
 10
292.2350419093298
 20
656.4019624317469
 10
291.5186988794356
 20
657.1305579123081
 10
290.7330525380098
 20
657.6305255509415
 10
289.9048571289304
 20
657.8848395493581
 10
289.0623158535427
 20
657.8848395493581
 10
288.2341204444633
 20
657.6305255509415
 10
287.4484741030375
 20
657.1305579123081
 10
286.7321310731433
 20
656.4019624317469
 10
286.1094855575054
 20
655.469550554494
 10
285.6017410023777
 20
654.3650744487248
 10
285.2261880396126
 20
653.126145723548
 10
285.1899335328104
 20
652.9168332271441
  0
LWPOLYLINE
  5
1A7C
330
1E
100
AcDbEntity
  8
STEMPEL
100
AcDbPolyline
 90
        9
 70
   128
 43
0.0
 10
289.9531037557774
 20
657.8700244556628
 10
289.4859800321979
 20
657.8028913747385
 10
288.7172423440521
 20
657.4645278830411
 10
287.9959520192746
 20
656.91202375553
 10
287.3440250993931
 20
656.1621665505389
 10
286.7812700539774
 20
655.2377402997954
 10
286.3247859103145
 20
654.1668332271462
 10
285.9884427081178
 20
652.9819843020884
 10
285.9235585155136
 20
652.5842076167276
  0
LINE
  5
1A7D
102
{ACAD_REACTORS
330
1B10
102
}
330
1E
100
AcDbEntity
  8
STEMPEL
100
AcDbLine
 10
286.9142494609909
 20
624.8819337304419
 30
0.0
 11
285.9521002240482
 21
652.4342829754954
 31
0.0
  0
LWPOLYLINE
  5
1A7E
330
1E
100
AcDbEntity
  8
STEMPEL
100
AcDbPolyline
 90
        8
 70
   128
 43
0.0
 10
244.8028220237275
 20
657.8848395493581
 10
243.6942390671156
 20
657.735126743136
 10
242.4262596699295
 20
657.2848508258119
 10
241.2615409818439
 20
656.5798330936728
 10
240.2432836132372
 20
655.6462233772893
 10
239.409255773975
 20
654.5186502183131
 10
238.790392411781
 20
653.2389364613614
 10
238.7018052316759
 20
652.9168332271441
  0
LWPOLYLINE
  5
1A7F
330
1E
100
AcDbEntity
  8
STEMPEL
100
AcDbPolyline
 90
       16
 70
   128
 43
0.0
 10
251.3428676604628
 20
652.9168332271441
 10
251.2878464399982
 20
653.126145723548
 10
250.7178929588164
 20
654.3650744487248
 10
249.9473204818603
 20
655.469550554494
 10
249.0023699306328
 20
656.4019624317469
 10
247.9152204628128
 20
657.1305579123081
 10
246.7228936496345
 20
657.6305255509415
 10
245.4659927506827
 20
657.8848395493581
 10
244.1873200185843
 20
657.8848395493581
 10
242.9304191196325
 20
657.6305255509415
 10
241.7380923064542
 20
657.1305579123081
 10
240.6509428386342
 20
656.4019624317469
 10
239.7059922874066
 20
655.469550554494
 10
238.9354198104506
 20
654.3650744487248
 10
238.3654663292688
 20
653.126145723548
 10
238.3104451088042
 20
652.9168332271441
  0
LINE
  5
1A82
330
1E
100
AcDbEntity
  8
STEMPEL
100
AcDbLine
 10
210.7130222657311
 20
670.8334754624071
 30
0.0
 11
210.7130222657312
 21
670.4168332271457
 31
0.0
  0
LWPOLYLINE
  5
1A83
330
1E
100
AcDbEntity
  8
STEMPEL
100
AcDbPolyline
 90
        8
 70
   128
 43
0.0
 10
217.17783753183
 20
657.8848395493581
 10
216.03073465058
 20
657.7612415929949
 10
214.6466537471305
 20
657.3268413459806
 10
213.3724291345985
 20
656.6298501257052
 10
212.2564833148687
 20
655.6967546742596
 10
211.3412239514156
 20
654.563014058916
 10
210.6614323126405
 20
653.2717121728468
 10
210.5553354065332
 20
652.9168332271441
  0
LINE
  5
1A84
330
1E
100
AcDbEntity
  8
STEMPEL
100
AcDbLine
 10
195.7130222657311
 20
670.8334754624071
 30
0.0
 11
195.7130222657312
 21
670.4168332271441
 31
0.0
  0
LWPOLYLINE
  5
1A85
330
1E
100
AcDbEntity
  8
STEMPEL
100
AcDbPolyline
 90
        8
 70
   128
 43
0.0
 10
-189.2482069996324
 20
657.8848395493581
 10
-190.3953098808823
 20
657.7612415929949
 10
-191.7793907843319
 20
657.3268413459806
 10
-193.0536153968638
 20
656.6298501257052
 10
-194.1695612165937
 20
655.6967546742596
 10
-195.0848205800468
 20
654.563014058916
 10
-195.7646122188219
 20
653.2717121728468
 10
-195.8707091249292
 20
652.916833227144
210
0.0
220
0.0
230
-1.0
  0
ARC
  5
1A86
330
1E
100
AcDbEntity
  8
STEMPEL
100
AcDbCircle
 10
203.2130222657311
 20
670.4168332271457
 30
0.0
 40
7.5
100
AcDbArc
 50
179.999999999987
 51
359.999999999974
  0
LINE
  5
1A89
330
1E
100
AcDbEntity
  8
MITTEL
100
AcDbLine
 10
217.8319557943767
 20
617.9168332271441
 30
0.0
 11
217.8319557943767
 21
611.9168332271446
 31
0.0
  0
LWPOLYLINE
  5
1A8A
330
1E
100
AcDbEntity
  8
STEMPEL
100
AcDbPolyline
 90
       16
 70
   128
 43
0.0
 10
224.3994139538771
 20
652.9168332271441
 10
224.3403689113401
 20
653.126145723548
 10
223.7287334867477
 20
654.3650744487248
 10
222.9018073608734
 20
655.469550554494
 10
221.8877505111451
 20
656.4019624317469
 10
220.7210954273534
 20
657.1305579123081
 10
219.4415711491281
 20
657.6305255509415
 10
218.092750341144
 20
657.8848395493581
 10
216.7205654782847
 20
657.8848395493581
 10
215.3717446703006
 20
657.6305255509415
 10
214.0922203920753
 20
657.1305579123081
 10
212.9255653082836
 20
656.4019624317469
 10
211.9115084585553
 20
655.469550554494
 10
211.084582332681
 20
654.3650744487248
 10
210.4729469080886
 20
653.126145723548
 10
210.4139018655517
 20
652.9168332271441
  0
ELLIPSE
  5
1A8B
330
1E
100
AcDbEntity
  8
STEMPEL
100
AcDbEllipse
 10
257.5838554394103
 20
670.4168332271457
 30
0.0
 11
0.0
 21
-7.5
 31
0.0
210
0.0
220
0.0
230
1.0
 40
0.8660254037843856
 41
4.712388980384689
 42
7.853981633974482
  0
ELLIPSE
  5
1A8C
330
1E
100
AcDbEntity
  8
STEMPEL
100
AcDbEllipse
 10
258.0850324348522
 20
670.4168332271457
 30
0.0
 11
0.0
 21
-7.5
 31
0.0
210
0.0
220
0.0
230
1.0
 40
0.8660254037843856
 41
4.712388980384689
 42
6.24459510668465
  0
LINE
  5
1A8D
330
1E
100
AcDbEntity
  8
STEMPEL
100
AcDbLine
 10
313.2130222657312
 20
707.9167752598285
 30
0.0
 11
313.2130222657312
 21
643.9168332271447
 31
0.0
  0
LINE
  5
1A8E
330
1E
100
AcDbEntity
  8
STEMPEL
100
AcDbLine
 10
312.2130222657311
 20
707.9167752598285
 30
0.0
 11
312.2130222657311
 21
643.9168332271447
 31
0.0
  0
LINE
  5
1A8F
330
1E
100
AcDbEntity
  8
STEMPEL
100
AcDbLine
 10
195.7130222657312
 20
695.4168332271441
 30
0.0
 11
195.713022265731
 21
670.4168332271458
 31
0.0
  0
LINE
  5
1A90
330
1E
100
AcDbEntity
  8
STEMPEL
100
AcDbLine
 10
210.7130222657312
 20
695.4168332271457
 30
0.0
 11
210.713022265731
 21
670.4168332271457
 31
0.0
  0
LINE
  5
1A91
330
1E
100
AcDbEntity
  8
STEMPEL
100
AcDbLine
 10
251.0886649110275
 20
695.4168332271457
 30
0.0
 11
251.0886649110275
 21
670.4168332271457
 31
0.0
  0
LINE
  5
1A92
330
1E
100
AcDbEntity
  8
STEMPEL
100
AcDbLine
 10
251.5898419064694
 20
695.4168332271457
 30
0.0
 11
251.5898419064694
 21
670.4168332271457
 31
0.0
  0
LINE
  5
1A93
330
1E
100
AcDbEntity
  8
STEMPEL
100
AcDbLine
 10
264.0790459677932
 20
695.4168332271457
 30
0.0
 11
264.0790459677932
 21
670.4168332271473
 31
0.0
  0
LINE
  5
1A94
330
1E
100
AcDbEntity
  8
STEMPEL
100
AcDbLine
 10
301.1360677723942
 20
695.4168332271457
 30
0.0
 11
301.1360677723942
 21
670.4168332271489
 31
0.0
  0
LINE
  5
1A95
330
1E
100
AcDbEntity
  8
STEMPEL
100
AcDbLine
 10
293.6360677723943
 20
695.4168332271457
 30
0.0
 11
293.6360677723943
 21
670.4168332271473
 31
0.0
  0
LINE
  5
1A96
330
1E
100
AcDbEntity
  8
STEMPEL
100
AcDbLine
 10
294.5041317920833
 20
670.4168332271457
 30
0.0
 11
294.5041317920833
 21
695.4168332271473
 31
0.0
  0
LINE
  5
1A97
330
1E
100
AcDbEntity
  8
STEMPEL
100
AcDbLine
 10
333.2130222657307
 20
638.9168332271442
 30
0.0
 11
318.2130222657308
 21
638.9168332271447
 31
0.0
  0
LINE
  5
1A98
102
{ACAD_REACTORS
330
1B10
102
}
330
1E
100
AcDbEntity
  8
STEMPEL
100
AcDbLine
 10
286.4590607403185
 20
637.9168332271444
 30
0.0
 11
322.2130222657307
 21
637.9168332271442
 31
0.0
  0
ARC
  5
1A99
330
1E
100
AcDbEntity
  8
STEMPEL
100
AcDbCircle
 10
185.40638443808
 20
729.4168332271437
 30
0.0
 40
2.5
100
AcDbArc
 50
270.0
 51
330.0000000000068
  0
ARC
  5
1A9A
330
1E
100
AcDbEntity
  8
STEMPEL
100
AcDbCircle
 10
185.40638443808
 20
729.4168332271437
 30
0.0
 40
1.5
100
AcDbArc
 50
270.0
 51
330.0000000000068
  0
ARC
  5
1A9B
330
1E
100
AcDbEntity
  8
STEMPEL
100
AcDbCircle
 10
183.3475368607877
 20
729.4168332271437
 30
0.0
 40
1.5
100
AcDbArc
 50
209.9999999999933
 51
270.0
  0
ARC
  5
1A9C
330
1E
100
AcDbEntity
  8
STEMPEL
100
AcDbCircle
 10
183.3475368607877
 20
729.4168332271437
 30
0.0
 40
2.5
100
AcDbArc
 50
209.9999999999925
 51
270.0
  0
ARC
  5
1A9D
330
1E
100
AcDbEntity
  8
STEMPEL
100
AcDbCircle
 10
180.7494606494338
 20
727.9168332271437
 30
0.0
 40
1.5
100
AcDbArc
 50
29.99999999999246
 51
90.0
  0
ARC
  5
1A9E
330
1E
100
AcDbEntity
  8
STEMPEL
100
AcDbCircle
 10
180.7494606494338
 20
727.9168332271437
 30
0.0
 40
0.5
100
AcDbArc
 50
29.99999999999973
 51
90.0
  0
LINE
  5
1A9F
330
1E
100
AcDbEntity
  8
STEMPEL
100
AcDbLine
 10
180.5494606494338
 20
728.4168332271437
 30
0.0
 11
180.7494606494338
 21
728.4168332271437
 31
0.0
  0
ARC
  5
1AA0
330
1E
100
AcDbEntity
  8
STEMPEL
100
AcDbCircle
 10
180.5494606494338
 20
727.9168332271437
 30
0.0
 40
0.5
100
AcDbArc
 50
90.0
 51
149.9999999999994
  0
LINE
  5
1AA1
330
1E
100
AcDbEntity
  8
STEMPEL
100
AcDbLine
 10
183.3475368607877
 20
727.9168332271437
 30
0.0
 11
185.40638443808
 21
727.9168332271437
 31
0.0
  0
LINE
  5
1AA2
330
1E
100
AcDbEntity
  8
STEMPEL
100
AcDbLine
 10
183.3475368607877
 20
727.9168332271437
 30
0.0
 11
185.40638443808
 21
727.9168332271437
 31
0.0
  0
ARC
  5
1AA3
330
1E
100
AcDbEntity
  8
STEMPEL
100
AcDbCircle
 10
177.9513844380803
 20
729.4168332271437
 30
0.0
 40
1.5
100
AcDbArc
 50
270.0
 51
330.0000000000068
  0
ARC
  5
1AA4
330
1E
100
AcDbEntity
  8
STEMPEL
100
AcDbCircle
 10
177.9513844380803
 20
729.4168332271437
 30
0.0
 40
2.5
100
AcDbArc
 50
270.0
 51
330.0000000000003
  0
ARC
  5
1AA5
330
1E
100
AcDbEntity
  8
STEMPEL
100
AcDbCircle
 10
180.5494606494338
 20
727.9168332271437
 30
0.0
 40
1.5
100
AcDbArc
 50
90.0
 51
150.0000000000067
  0
ELLIPSE
  5
1AA6
330
1E
100
AcDbEntity
  8
STEMPEL
100
AcDbEllipse
 10
148.3410120966099
 20
695.4168332271457
 30
0.0
 11
0.0
 21
7.5
 31
0.0
210
0.0
220
0.0
230
1.0
 40
0.8660254037843856
 41
4.712388980384689
 42
6.24459510668465
  0
ARC
  5
1AA7
330
1E
100
AcDbEntity
  8
STEMPEL
100
AcDbCircle
 10
123.2130222657309
 20
721.9168332271436
 30
0.0
 40
6.0
100
AcDbArc
 50
90.0
 51
90.0
  0
LINE
  5
1AA8
330
1E
100
AcDbEntity
  8
STEMPEL
100
AcDbLine
 10
123.2130222657309
 20
727.9168332271432
 30
0.0
 11
177.9513844380803
 21
727.9168332271437
 31
0.0
  0
ELLIPSE
  5
1AA9
330
1E
100
AcDbEntity
  8
STEMPEL
100
AcDbEllipse
 10
148.8421890920519
 20
695.4168332271457
 30
0.0
 11
0.0
 21
7.5
 31
0.0
210
0.0
220
0.0
230
1.0
 40
0.8660254037843856
 41
4.712388980384689
 42
7.853981633974482
  0
ELLIPSE
  5
1AAA
330
1E
100
AcDbEntity
  8
STEMPEL
100
AcDbEllipse
 10
108.1719127393791
 20
695.4168332271457
 30
0.0
 11
0.0
 21
7.499999999999999
 31
0.0
210
0.0
220
0.0
230
1.0
 40
0.4999999999999926
 41
4.712388980384689
 42
6.167183451052224
  0
ARC
  5
1AAB
330
1E
100
AcDbEntity
  8
STEMPEL
100
AcDbCircle
 10
93.70187866141938
 20
717.4366702096059
 30
0.0
 40
5.0
100
AcDbArc
 50
300.0670458384858
 51
300.2564371635302
  0
LINE
  5
1AAC
330
1E
100
AcDbEntity
  8
STEMPEL
100
AcDbLine
 10
93.21302226573099
 20
702.9168332271455
 30
0.0
 11
94.21302226573098
 21
702.9168332271455
 31
0.0
  0
ARC
  5
1AAD
330
1E
100
AcDbEntity
  8
STEMPEL
100
AcDbCircle
 10
99.21302226573104
 20
707.9167752598285
 30
0.0
 40
6.0
100
AcDbArc
 50
120.2564164748174
 51
180.0
  0
ARC
  5
1AAE
330
1E
100
AcDbEntity
  8
STEMPEL
100
AcDbCircle
 10
99.21302226573104
 20
707.9167752598285
 30
0.0
 40
5.0
100
AcDbArc
 50
120.2564164748174
 51
180.0
  0
LINE
  5
1AAF
330
1E
100
AcDbEntity
  8
STEMPEL
100
AcDbLine
 10
96.6936686976039
 20
712.2356706740248
 30
0.0
 11
120.672522590555
 21
726.2233238402103
 31
0.0
  0
LINE
  5
1AB0
330
1E
100
AcDbEntity
  8
STEMPEL
100
AcDbLine
 10
96.18032764402309
 20
713.0939137871875
 30
0.0
 11
120.16663051949
 21
727.085923797876
 31
0.0
  0
ELLIPSE
  5
1AB1
330
1E
100
AcDbEntity
  8
STEMPEL
100
AcDbEllipse
 10
109.0399767590681
 20
695.4168332271457
 30
0.0
 11
0.0
 21
7.499999999999999
 31
0.0
210
0.0
220
0.0
230
1.0
 40
0.4999999999999926
 41
4.712388980384689
 42
7.853981633974482
  0
ARC
  5
1AB2
330
1E
100
AcDbEntity
  8
STEMPEL
100
AcDbCircle
 10
123.2130222657309
 20
721.9168332271436
 30
0.0
 40
6.0
100
AcDbArc
 50
90.0
 51
120.5128743276197
  0
ARC
  5
1AB3
330
1E
100
AcDbEntity
  8
STEMPEL
100
AcDbCircle
 10
123.2130222657309
 20
721.9168332271436
 30
0.0
 40
5.0
100
AcDbArc
 50
90.0
 51
120.5373500483005
  0
LWPOLYLINE
  5
1AB4
330
1E
100
AcDbEntity
  8
STEMPEL
100
AcDbPolyline
 90
        8
 70
   128
 43
0.0
 10
-161.6232225077349
 20
657.8848395493581
 10
-162.7318054643469
 20
657.735126743136
 10
-163.9997848615329
 20
657.2848508258119
 10
-165.1645035496185
 20
656.5798330936728
 10
-166.1827609182252
 20
655.6462233772893
 10
-167.0167887574875
 20
654.5186502183131
 10
-167.6356521196814
 20
653.2389364613614
 10
-167.7242392997865
 20
652.916833227144
210
0.0
220
0.0
230
-1.0
  0
LWPOLYLINE
  5
1AB5
330
1E
100
AcDbEntity
  8
STEMPEL
100
AcDbPolyline
 90
       16
 70
   128
 43
0.0
 10
-155.0831768709996
 20
652.916833227144
 10
-155.1381980914642
 20
653.126145723548
 10
-155.708151572646
 20
654.3650744487248
 10
-156.4787240496021
 20
655.469550554494
 10
-157.4236746008296
 20
656.4019624317469
 10
-158.5108240686498
 20
657.1305579123081
 10
-159.7031508818279
 20
657.6305255509415
 10
-160.9600517807797
 20
657.8848395493581
 10
-162.2387245128781
 20
657.8848395493581
 10
-163.4956254118299
 20
657.6305255509415
 10
-164.6879522250081
 20
657.1305579123081
 10
-165.7751016928282
 20
656.4019624317469
 10
-166.7200522440557
 20
655.469550554494
 10
-167.4906247210119
 20
654.3650744487248
 10
-168.0605782021936
 20
653.126145723548
 10
-168.1155994226582
 20
652.916833227144
210
0.0
220
0.0
230
-1.0
  0
ELLIPSE
  5
1AB6
330
1E
100
AcDbEntity
  8
STEMPEL
100
AcDbEllipse
 10
148.3410120966099
 20
670.4168332271457
 30
0.0
 11
0.0
 21
-7.5
 31
0.0
210
0.0
220
0.0
230
-1.0
 40
0.8660254037843856
 41
4.712388980384689
 42
6.24459510668465
  0
LWPOLYLINE
  5
1AB7
330
1E
100
AcDbEntity
  8
STEMPEL
100
AcDbPolyline
 90
        8
 70
   128
 43
0.0
 10
-136.8293570827443
 20
657.8848395493581
 10
-137.8266005647794
 20
657.6996601685603
 10
-138.8918798165216
 20
657.2304054411066
 10
-139.86771479956
 20
656.516081203938
 10
-140.7190068324179
 20
655.5823801605416
 10
-141.4151367751543
 20
654.4628855253812
 10
-141.9310663338457
 20
653.1978631080424
 10
-141.9963642271352
 20
652.916833227144
210
0.0
220
0.0
230
-1.0
  0
LWPOLYLINE
  5
1AB8
330
1E
100
AcDbEntity
  8
STEMPEL
100
AcDbPolyline
 90
       16
 70
   128
 43
0.0
 10
-131.4196925897324
 20
652.916833227144
 10
-131.4669403828768
 20
653.126145723548
 10
-131.956370532798
 20
654.3650744487248
 10
-132.6180761199625
 20
655.469550554494
 10
-133.4295235542276
 20
656.4019624317469
 10
-134.3630799664432
 20
657.1305579123081
 10
-135.3869542126694
 20
657.6305255509415
 10
-136.4662794834521
 20
657.8848395493581
 10
-137.5643006512032
 20
657.8848395493581
 10
-138.643625921986
 20
657.6305255509415
 10
-139.6675001682121
 20
657.1305579123081
 10
-140.6010565804278
 20
656.4019624317469
 10
-141.4125040146929
 20
655.469550554494
 10
-142.0742096018573
 20
654.3650744487248
 10
-142.5636397517785
 20
653.126145723548
 10
-142.610887544923
 20
652.916833227144
210
0.0
220
0.0
230
-1.0
  0
LINE
  5
1ABD
330
1E
100
AcDbEntity
  8
MITTEL
100
AcDbLine
 10
147.213022265731
 20
617.916833227144
 30
0.0
 11
147.213022265731
 21
611.9168332271446
 31
0.0
  0
LINE
  5
1ABF
102
{ACAD_REACTORS
330
1B10
102
}
330
1E
100
AcDbEntity
  8
STEMPEL
100
AcDbLine
 10
124.213022265731
 20
617.9168332271443
 30
0.0
 11
122.9907953335197
 21
652.9168332271441
 31
0.0
  0
ELLIPSE
  5
1AC0
330
1E
100
AcDbEntity
  8
STEMPEL
100
AcDbEllipse
 10
148.8421890920519
 20
670.4168332271457
 30
0.0
 11
0.0
 21
-7.5
 31
0.0
210
0.0
220
0.0
230
-1.0
 40
0.8660254037843856
 41
4.712388980384689
 42
7.853981633974482
  0
LWPOLYLINE
  5
1AC1
330
1E
100
AcDbEntity
  8
STEMPEL
100
AcDbPolyline
 90
        9
 70
   128
 43
0.0
 10
-116.472940775685
 20
657.8700244556628
 10
-116.9400644992645
 20
657.8028913747385
 10
-117.7088021874102
 20
657.4645278830411
 10
-118.4300925121878
 20
656.91202375553
 10
-119.0820194320693
 20
656.1621665505389
 10
-119.6447744774849
 20
655.2377402997954
 10
-120.1012586211479
 20
654.1668332271462
 10
-120.4376018233446
 20
652.9819843020884
 10
-120.5024860159486
 20
652.5842076167284
210
0.0
220
0.0
230
-1.0
  0
ARC
  5
1AC2
102
{ACAD_REACTORS
330
1B10
102
}
330
1E
100
AcDbEntity
  8
STEMPEL
100
AcDbCircle
 10
120.9736397209232
 20
652.4168332271441
 30
0.0
 40
0.5
100
AcDbArc
 50
90.0
 51
177.9999999999963
  0
LINE
  5
1AC3
330
1E
100
AcDbEntity
  8
STEMPEL
100
AcDbLine
 10
112.3767473226598
 20
650.4168332271437
 30
0.0
 11
112.3767473226598
 21
643.9168332271472
 31
0.0
  0
LWPOLYLINE
  5
1AC4
330
1E
100
AcDbEntity
  8
STEMPEL
100
AcDbPolyline
 90
       17
 70
   128
 43
0.0
 10
-112.3767473226599
 20
650.4168332271437
 10
-112.45448722392
 20
651.7949546107683
 10
-112.6850595886018
 20
653.126145723548
 10
-113.0606125513669
 20
654.3650744487248
 10
-113.5683571064947
 20
655.469550554494
 10
-114.1910026221326
 20
656.4019624317469
 10
-114.9073456520266
 20
657.1305579123081
 10
-115.6929919934525
 20
657.6305255509415
 10
-116.521187402532
 20
657.8848395493581
 10
-117.3637286779197
 20
657.8848395493581
 10
-118.1919240869991
 20
657.6305255509415
 10
-118.977570428425
 20
657.1305579123081
 10
-119.693913458319
 20
656.4019624317469
 10
-120.3165589739569
 20
655.469550554494
 10
-120.8243035290847
 20
654.3650744487248
 10
-121.1998564918498
 20
653.126145723548
 10
-121.236110998652
 20
652.916833227144
210
0.0
220
0.0
230
-1.0
  0
ELLIPSE
  5
1AC5
330
1E
100
AcDbEntity
  8
STEMPEL
100
AcDbEllipse
 10
108.1719127393791
 20
670.4168332271473
 30
0.0
 11
0.0
 21
-7.499999999999999
 31
0.0
210
0.0
220
0.0
230
-1.0
 40
0.4999999999999926
 41
4.712388980384689
 42
6.167183451052224
  0
LINE
  5
1AC6
330
1E
100
AcDbEntity
  8
STEMPEL
100
AcDbLine
 10
105.618948138978
 20
650.4168332271437
 30
0.0
 11
105.618948138978
 21
643.9168332271472
 31
0.0
  0
LINE
  5
1AC7
330
1E
100
AcDbEntity
  8
STEMPEL
100
AcDbLine
 10
104.6928938024707
 20
650.4168332271437
 30
0.0
 11
104.6928938024707
 21
643.9168332271472
 31
0.0
  0
LINE
  5
1AC8
330
1E
100
AcDbEntity
  8
STEMPEL
100
AcDbLine
 10
99.87869665350027
 20
650.4168332271437
 30
0.0
 11
99.87869665350027
 21
643.9168332271472
 31
0.0
  0
LWPOLYLINE
  5
1AC9
330
1E
100
AcDbEntity
  8
STEMPEL
100
AcDbPolyline
 90
       18
 70
   128
 43
0.0
 10
-99.87869665350027
 20
650.4168332271437
 10
-99.92756599841655
 20
651.7949546107683
 10
-100.0725098462366
 20
653.126145723548
 10
-100.3085923080638
 20
654.3650744487248
 10
-100.6277738788106
 20
655.469550554494
 10
-101.0191852129009
 20
656.4019624317469
 10
-101.4694972667989
 20
657.1305579123081
 10
-101.9633752035983
 20
657.6305255509415
 10
-102.4840006025032
 20
657.8848395493581
 10
-103.013644189975
 20
657.8848395493581
 10
-103.53426958888
 20
657.6305255509415
 10
-104.0281475256794
 20
657.1305579123081
 10
-104.4784595795774
 20
656.4019624317469
 10
-104.8698709136677
 20
655.469550554494
 10
-105.1890524844145
 20
654.3650744487248
 10
-105.4251349462417
 20
653.126145723548
 10
-105.5700787940617
 20
651.7949546107683
 10
-105.618948138978
 20
650.4168332271437
210
0.0
220
0.0
230
-1.0
  0
LWPOLYLINE
  5
1ACA
330
1E
100
AcDbEntity
  8
STEMPEL
100
AcDbPolyline
 90
        9
 70
   128
 43
0.0
 10
-102.2857952279871
 20
657.8185914718089
 10
-102.7748557712558
 20
657.4921585740514
 10
-103.2344687391568
 20
656.9468895607943
 10
-103.650418542781
 20
656.1996493176662
 10
-104.0098400720726
 20
655.2735495948887
 10
-104.3016166069601
 20
654.1972341729184
 10
-104.5167236516983
 20
653.0039929252876
 10
-104.6485080578058
 20
651.7307321802117
 10
-104.6928938024706
 20
650.4168332271453
210
0.0
220
0.0
230
-1.0
  0
LINE
  5
1ACB
330
1E
100
AcDbEntity
  8
STEMPEL
100
AcDbLine
 10
93.21302226573076
 20
662.9168332271454
 30
0.0
 11
94.21302226573098
 21
662.9168332271454
 31
0.0
  0
LINE
  5
1ACC
330
1E
100
AcDbEntity
  8
STEMPEL
100
AcDbLine
 10
94.42270950676643
 20
650.4168332271437
 30
0.0
 11
94.42270950676643
 21
643.916833227146
 31
0.0
  0
LINE
  5
1ACD
330
1E
100
AcDbEntity
  8
STEMPEL
100
AcDbLine
 10
95.38682367652908
 20
650.4168332271437
 30
0.0
 11
95.38682367652908
 21
643.916833227146
 31
0.0
  0
LINE
  5
1ACE
330
1E
100
AcDbEntity
  8
STEMPEL
100
AcDbLine
 10
96.38060239006691
 20
650.4168332271437
 30
0.0
 11
96.38060239006691
 21
643.9168332271449
 31
0.0
  0
LWPOLYLINE
  5
1ACF
330
1E
100
AcDbEntity
  8
STEMPEL
100
AcDbPolyline
 90
       18
 70
   128
 43
0.0
 10
-94.42270950676643
 20
650.4168332271437
 10
-94.43937793024318
 20
651.7949546107683
 10
-94.48881557750363
 20
653.126145723548
 10
-94.56933890876408
 20
654.3650744487248
 10
-94.67820579855574
 20
655.469550554494
 10
-94.81170891551803
 20
656.4019624317469
 10
-94.96530197112216
 20
657.1305579123081
 10
-95.13375453807421
 20
657.6305255509415
 10
-95.31133016624314
 20
657.8848395493581
 10
-95.4919817305902
 20
657.8848395493581
 10
-95.66955735875913
 20
657.6305255509415
 10
-95.83800992571118
 20
657.1305579123081
 10
-95.99160298131531
 20
656.4019624317469
 10
-96.1251060982776
 20
655.469550554494
 10
-96.23397298806928
 20
654.3650744487248
 10
-96.31449631932973
 20
653.126145723548
 10
-96.36393396659016
 20
651.7949546107683
 10
-96.38060239006691
 20
650.4168332271437
210
0.0
220
0.0
230
-1.0
  0
LWPOLYLINE
  5
1AD0
330
1E
100
AcDbEntity
  8
STEMPEL
100
AcDbPolyline
 90
        7
 70
   128
 43
0.0
 10
-94.90476659164759
 20
656.8788872829835
 10
-95.04259560121786
 20
656.126781046045
 10
-95.16145987818404
 20
655.2040674353303
 10
-95.25780788008527
 20
654.1383161854261
 10
-95.32876082762347
 20
652.9613708486049
 10
-95.37219871963136
 20
651.708397342203
 10
-95.38682367652896
 20
650.4168332271437
210
0.0
220
0.0
230
-1.0
  0
ELLIPSE
  5
1AD1
330
1E
100
AcDbEntity
  8
STEMPEL
100
AcDbEllipse
 10
109.0399767590681
 20
670.4168332271473
 30
0.0
 11
0.0
 21
-7.499999999999999
 31
0.0
210
0.0
220
0.0
230
-1.0
 40
0.4999999999999926
 41
4.712388980384689
 42
7.853981633974482
  0
LWPOLYLINE
  5
1AD2
330
1E
100
AcDbEntity
  8
STEMPEL
100
AcDbPolyline
 90
        2
 70
   128
 43
0.0
 10
118.7613710424525
 20
638.9168332271456
 10
120.0507286275573
 20
640.3149715738243
  0
LWPOLYLINE
  5
1AD3
330
1E
100
AcDbEntity
  8
STEMPEL
100
AcDbPolyline
 90
        4
 70
   128
 43
0.0
 10
117.1444625831857
 20
637.9168332271456
 10
117.9022122082799
 20
638.0079867090723
 10
118.6369379944555
 20
638.2786775024301
 10
120.0103706887597
 20
639.1592714164405
  0
ARC
  5
1AD4
102
{ACAD_REACTORS
330
1B10
102
}
330
1E
100
AcDbEntity
  8
STEMPEL
100
AcDbCircle
 10
118.5124042434519
 20
624.9168332271442
 30
0.0
 40
1.0
100
AcDbArc
 50
270.0
 51
357.9999999999963
  0
LINE
  5
1AD5
330
1E
100
AcDbEntity
  8
STEMPEL
100
AcDbLine
 10
110.4251704941413
 20
638.9168332271456
 30
0.0
 11
118.7613710424532
 21
638.9168332271456
 31
0.0
  0
LINE
  5
1AD6
330
1E
100
AcDbEntity
  8
STEMPEL
100
AcDbLine
 10
97.72512502083172
 20
638.9168332271456
 30
0.0
 11
102.5393221698031
 21
638.9168332271456
 31
0.0
  0
LINE
  5
1AD7
330
1E
100
AcDbEntity
  8
STEMPEL
100
AcDbLine
 10
96.21302226573092
 20
635.9168332271447
 30
0.0
 11
95.21302226573093
 21
636.9168332271446
 31
0.0
  0
LINE
  5
1AD8
330
1E
100
AcDbEntity
  8
STEMPEL
100
AcDbLine
 10
96.21302226573092
 20
635.9168332271447
 30
0.0
 11
96.21302226573096
 21
633.9168332271442
 31
0.0
  0
LINE
  5
1AD9
330
1E
100
AcDbEntity
  8
HILF
100
AcDbLine
 10
95.21302226573093
 20
636.9168332271446
 30
0.0
 11
95.21302226573096
 21
633.9168332271442
 31
0.0
  0
LINE
  5
1ADA
330
1E
100
AcDbEntity
  8
STEMPEL
100
AcDbLine
 10
91.80225032309582
 20
638.9168332271456
 30
0.0
 11
92.76636449285845
 21
638.9168332271456
 31
0.0
  0
LINE
  5
1ADC
330
1E
100
AcDbEntity
  8
STEMPEL
100
AcDbLine
 10
96.21302226573092
 20
623.9168332271439
 30
0.0
 11
96.21302226573092
 21
611.9168332271448
 31
0.0
  0
LINE
  5
1ADD
330
1E
100
AcDbEntity
  8
HILF
100
AcDbLine
 10
95.21302226573093
 20
623.9168332271439
 30
0.0
 11
95.21302226573093
 21
611.9168332271448
 31
0.0
  0
LINE
  5
1ADE
102
{ACAD_REACTORS
330
1B10
102
}
330
1E
100
AcDbEntity
  8
STEMPEL
100
AcDbLine
 10
98.21302226573093
 20
623.9168332271441
 30
0.0
 11
98.21302226573095
 21
617.916833227144
 31
0.0
  0
LINE
  5
1ADF
330
1E
100
AcDbEntity
  8
MITTEL
100
AcDbLine
 10
91.21302226573092
 20
641.9168332271446
 30
0.0
 11
91.21302226573092
 21
611.9168332271448
 31
0.0
  0
LWPOLYLINE
  5
1AE0
330
1E
100
AcDbEntity
  8
STEMPEL
100
AcDbPolyline
 90
       10
 70
   128
 43
0.0
 10
108.0130411480539
 20
637.9168332271456
 10
108.7707907731481
 20
638.0079867090723
 10
109.5055165593236
 20
638.2786775024301
 10
110.1948942353567
 20
638.7206808044391
 10
110.8179774094031
 20
639.3205665684318
 10
111.3558340145146
 20
640.0601075690265
 10
111.7921215499135
 20
640.9168332271458
 10
112.1135836396088
 20
641.8647123671919
 10
112.3104528206728
 20
642.8749441611444
 10
112.3767473226596
 20
643.916833227146
  0
LWPOLYLINE
  5
1AE1
330
1E
100
AcDbEntity
  8
STEMPEL
100
AcDbPolyline
 90
       10
 70
   128
 43
0.0
 10
100.8035836124041
 20
637.9168332271456
 10
101.6397628872456
 20
638.0079867090723
 10
102.4505352779482
 20
638.2786775024301
 10
103.2112658756911
 20
638.7206808044391
 10
103.8988402662099
 20
639.3205665684318
 10
104.4923668495783
 20
640.0601075690265
 10
104.9738116208995
 20
640.9168332271458
 10
105.3285461244199
 20
641.8647123671919
 10
105.545791931754
 20
642.8749441611444
 10
105.618948138978
 20
643.916833227146
  0
LWPOLYLINE
  5
1AE2
330
1E
100
AcDbEntity
  8
STEMPEL
100
AcDbPolyline
 90
        7
 70
   128
 43
0.0
 10
102.5393221698021
 20
638.9168332271456
 10
103.1594126928665
 20
639.5261711289864
 10
103.6912328396498
 20
640.2536014022757
 10
104.1204786393811
 20
641.0795588962193
 10
104.4356049871784
 20
641.9818284466816
 10
104.6281361641443
 20
642.9361423809248
 10
104.6928938024706
 20
643.916833227146
  0
LWPOLYLINE
  5
1AE3
330
1E
100
AcDbEntity
  8
STEMPEL
100
AcDbPolyline
 90
       10
 70
   128
 43
0.0
 10
90.8746136590361
 20
637.9168332271456
 10
91.73268665530887
 20
637.9829604417182
 10
92.5854988549311
 20
638.2355141914485
 10
93.40625716184812
 20
638.666559907766
 10
94.16917552824704
 20
639.262555278206
 10
94.85028508374629
 20
640.0047757099266
 10
95.428187173692
 20
640.869902606724
 10
95.88472564809823
 20
641.83075597744
 10
96.20555727969581
 20
642.8571483591522
 10
96.38060239006691
 20
643.9168332271449
  0
LWPOLYLINE
  5
1AE4
330
1E
100
AcDbEntity
  8
STEMPEL
100
AcDbPolyline
 90
       10
 70
   128
 43
0.0
 10
95.06333212692632
 20
637.9168332271456
 10
95.89951140176792
 20
638.0079867090723
 10
96.71028379247051
 20
638.2786775024301
 10
97.47101439021335
 20
638.7206808044391
 10
98.15858878073212
 20
639.3205665684318
 10
98.75211536410056
 20
640.0601075690265
 10
99.23356013542175
 20
640.9168332271458
 10
99.58829463894213
 20
641.8647123671919
 10
99.80554044627631
 20
642.8749441611444
 10
99.87869665350027
 20
643.916833227146
  0
LWPOLYLINE
  5
1AE5
330
1E
100
AcDbEntity
  8
STEMPEL
100
AcDbPolyline
 90
        7
 70
   128
 43
0.0
 10
92.76636449285822
 20
638.916833227146
 10
93.4430663679357
 20
639.5264339550051
 10
94.0426157915696
 20
640.2539930389167
 10
94.5489044647193
 20
641.0799629005969
 10
94.94832975676482
 20
641.9821519258
 10
95.23016017202772
 20
642.9363206939938
 10
95.38682367652919
 20
643.916833227146
  0
LINE
  5
1AE6
102
{ACAD_REACTORS
330
1B10
102
}
330
1E
100
AcDbEntity
  8
STEMPEL
100
AcDbLine
 10
119.5117950704711
 20
624.8819337304417
 30
0.0
 11
120.4739443074137
 21
652.4342829754954
 31
0.0
  0
LINE
  5
1AE7
330
1E
100
AcDbEntity
  8
STEMPEL
100
AcDbLine
 10
87.21302226573092
 20
636.9168332271446
 30
0.0
 11
86.21302226573092
 21
635.9168332271447
 31
0.0
  0
LINE
  5
1AE8
330
1E
100
AcDbEntity
  8
STEMPEL
100
AcDbLine
 10
86.21302226573092
 20
635.9168332271447
 30
0.0
 11
86.21302226573092
 21
633.9168332271441
 31
0.0
  0
LINE
  5
1AE9
330
1E
100
AcDbEntity
  8
HILF
100
AcDbLine
 10
87.21302226573092
 20
636.9168332271446
 30
0.0
 11
87.21302226573095
 21
633.9168332271442
 31
0.0
  0
LINE
  5
1AEA
330
1E
100
AcDbEntity
  8
STEMPEL
100
AcDbLine
 10
73.21302226573081
 20
638.9168332271444
 30
0.0
 11
73.2130222657307
 21
637.9168332271442
 31
0.0
  0
LINE
  5
1AEB
330
1E
100
AcDbEntity
  8
STEMPEL
100
AcDbLine
 10
73.21302226573092
 20
638.9168332271442
 30
0.0
 11
88.21302226573115
 21
638.9168332271447
 31
0.0
  0
LINE
  5
1AED
330
1E
100
AcDbEntity
  8
HILF
100
AcDbLine
 10
87.21302226573092
 20
623.9168332271439
 30
0.0
 11
87.21302226573092
 21
611.9168332271448
 31
0.0
  0
LINE
  5
1AEE
330
1E
100
AcDbEntity
  8
STEMPEL
100
AcDbLine
 10
86.21302226573092
 20
623.9168332271439
 30
0.0
 11
86.21302226573092
 21
611.9168332271448
 31
0.0
  0
LINE
  5
1AEF
102
{ACAD_REACTORS
330
1B10
102
}
330
1E
100
AcDbEntity
  8
STEMPEL
100
AcDbLine
 10
84.21302226573093
 20
623.9168332271439
 30
0.0
 11
84.21302226573093
 21
617.916833227144
 31
0.0
  0
ARC
  5
1AF0
102
{ACAD_REACTORS
330
1B10
102
}
330
1E
100
AcDbEntity
  8
STEMPEL
100
AcDbCircle
 10
61.21302226573092
 20
620.916833227144
 30
0.0
 40
3.0
100
AcDbArc
 50
90.0
 51
270.0
  0
LINE
  5
1AF1
102
{ACAD_REACTORS
330
1B10
102
}
330
1E
100
AcDbEntity
  8
STEMPEL
100
AcDbLine
 10
61.21302226573092
 20
623.9168332271439
 30
0.0
 11
118.5124042434519
 21
623.9168332271441
 31
0.0
  0
ARC
  5
1AF2
330
1E
100
AcDbEntity
  8
STEMPEL
100
AcDbCircle
 10
88.21302226573104
 20
643.9168332271447
 30
0.0
 40
6.0
100
AcDbArc
 50
270.0000000000017
 51
0.0
  0
ARC
  5
1AF3
330
1E
100
AcDbEntity
  8
STEMPEL
100
AcDbCircle
 10
88.21302226573104
 20
643.9168332271447
 30
0.0
 40
5.0
100
AcDbArc
 50
270.0000000000017
 51
0.0
  0
LINE
  5
1AF4
330
1E
100
AcDbEntity
  8
STEMPEL
100
AcDbLine
 10
86.21302226573092
 20
635.9168332271449
 30
0.0
 11
96.21302226573092
 21
635.9168332271449
 31
0.0
  0
LINE
  5
1AF5
330
1E
100
AcDbEntity
  8
STEMPEL
100
AcDbLine
 10
95.21302226573093
 20
636.9168332271446
 30
0.0
 11
87.21302226573092
 21
636.9168332271446
 31
0.0
  0
LINE
  5
1AF6
330
1E
100
AcDbEntity
  8
STEMPEL
100
AcDbLine
 10
73.2130222657307
 20
637.9168332271469
 30
0.0
 11
119.9669837911436
 21
637.9168332271465
 31
0.0
  0
LWPOLYLINE
  5
1AF7
330
1E
100
AcDbEntity
  8
STEMPEL
100
AcDbPolyline
 90
       10
 70
   128
 43
0.0
 10
88.91672077573563
 20
637.9168332271468
 10
89.7747937720084
 20
637.9829604417193
 10
90.62760597163062
 20
638.2355141914496
 10
91.44836427854764
 20
638.6665599077671
 10
92.21128264494657
 20
639.2625552782071
 10
92.89239220044581
 20
640.0047757099278
 10
93.47029429039153
 20
640.8699026067251
 10
93.92683276479775
 20
641.8307559774412
 10
94.24766439639531
 20
642.8571483591533
 10
94.42270950676643
 20
643.916833227146
  0
LINE
  5
1AF8
330
1E
100
AcDbEntity
  8
STEMPEL
100
AcDbLine
 10
94.21302226573104
 20
707.9167752598285
 30
0.0
 11
94.21302226573104
 21
643.9168332271447
 31
0.0
  0
LINE
  5
1AF9
330
1E
100
AcDbEntity
  8
STEMPEL
100
AcDbLine
 10
93.21302226573093
 20
707.9167752598285
 30
0.0
 11
93.21302226573093
 21
643.9168332271447
 31
0.0
  0
LINE
  5
1AFA
330
1E
100
AcDbEntity
  8
STEMPEL
100
AcDbLine
 10
105.2899767590681
 20
695.4168332271457
 30
0.0
 11
105.2899767590681
 21
670.4168332271489
 31
0.0
  0
LINE
  5
1AFB
330
1E
100
AcDbEntity
  8
STEMPEL
100
AcDbLine
 10
111.9219127393791
 20
670.4168332271457
 30
0.0
 11
111.9219127393791
 21
695.4168332271473
 31
0.0
  0
LINE
  5
1AFC
330
1E
100
AcDbEntity
  8
STEMPEL
100
AcDbLine
 10
112.7899767590679
 20
695.4168332271457
 30
0.0
 11
112.7899767590679
 21
670.4168332271473
 31
0.0
  0
LINE
  5
1AFD
330
1E
100
AcDbEntity
  8
STEMPEL
100
AcDbLine
 10
154.8362026249928
 20
695.4168332271457
 30
0.0
 11
154.8362026249928
 21
670.4168332271457
 31
0.0
  0
LINE
  5
1AFE
330
1E
100
AcDbEntity
  8
STEMPEL
100
AcDbLine
 10
142.346998563669
 20
695.4168332271457
 30
0.0
 11
142.346998563669
 21
670.4168332271473
 31
0.0
  0
LINE
  5
1AFF
330
1E
100
AcDbEntity
  8
STEMPEL
100
AcDbLine
 10
155.3373796204348
 20
695.4168332271457
 30
0.0
 11
155.3373796204348
 21
670.4168332271457
 31
0.0
  0
DIMENSION
  5
1B01
330
1E
100
AcDbEntity
  8
BEM
100
AcDbDimension
  2
*D11
 10
31.31044430497045
 20
727.9168332271432
 30
0.0
 11
24.81044430497033
 21
672.9168332271435
 31
0.0
 70
    32
 71
     5
 42
109.9999999999992
  3
Standard
100
AcDbAlignedDimension
 13
61.21302226573092
 23
617.916833227144
 33
0.0
 14
123.2130222657309
 24
727.9168332271432
 34
0.0
 50
90.0
100
AcDbRotatedDimension
1001
ACAD
1000
DSTYLE
1002
{
1070
    40
1040
2.0
1070
    41
1040
3.5
1070
    42
1040
1.0
1070
    43
1040
7.0
1070
    44
1040
1.0
1070
    73
1070
     0
1070
    74
1070
     0
1070
    77
1070
     1
1070
    78
1070
     8
1070
    79
1070
     2
1070
   140
1040
3.5
1070
   141
1040
1.5
1070
   146
1040
0.5142857142857144
1070
   147
1040
1.5
1070
   172
1070
     1
1070
   178
1070
     1
1070
   179
1070
     2
1070
   271
1070
     2
1070
   272
1070
     2
1070
   284
1070
     8
1070
   285
1070
     8
1070
   286
1070
     8
1002
}
  0
LINE
  5
1B02
330
1E
100
AcDbEntity
  8
STEMPEL
100
AcDbLine
 10
86.21302226573092
 20
617.916833227144
 30
0.0
 11
61.21302226573092
 21
617.916833227144
 31
0.0
  0
LINE
  5
1B03
102
{ACAD_REACTORS
330
1B10
102
}
330
1E
100
AcDbEntity
  8
STEMPEL
100
AcDbLine
 10
61.21302226573092
 20
617.916833227144
 30
0.0
 11
86.21302226573092
 21
617.916833227144
 31
0.0
  0
LINE
  5
1B05
330
1E
100
AcDbEntity
  8
STEMPEL
100
AcDbLine
 10
180.5494606494338
 20
729.4168332271437
 30
0.0
 11
226.0544606494337
 21
729.4168332271437
 31
0.0
  0
LINE
  5
1B06
330
1E
100
AcDbEntity
  8
STEMPEL
100
AcDbLine
 10
123.2130222657309
 20
726.9168332271432
 30
0.0
 11
283.2130222657312
 21
726.9168332271441
 31
0.0
  0
LINE
  5
1B07
330
1E
100
AcDbEntity
  8
HILF
100
AcDbLine
 10
305.5393553232616
 20
710.9168332271468
 30
0.0
 11
100.3866892082001
 21
710.9168332271466
 31
0.0
  0
DIMENSION
  5
1B08
330
1E
100
AcDbEntity
  8
BEM
100
AcDbDimension
  2
*D12
 10
313.2130222657312
 20
736.958772074727
 30
0.0
 11
203.2130222657311
 21
743.4587720747271
 31
0.0
 70
    32
  1
%%c<>
 71
     5
 42
220.0000000000002
  3
Standard
100
AcDbAlignedDimension
 13
93.21302226573093
 23
707.9167752598285
 33
0.0
 14
313.2130222657312
 24
707.9167752598285
 34
0.0
100
AcDbRotatedDimension
1001
ACAD
1000
DSTYLE
1002
{
1070
    40
1040
2.0
1070
    41
1040
3.5
1070
    42
1040
1.0
1070
    43
1040
7.0
1070
    44
1040
1.0
1070
    73
1070
     0
1070
    74
1070
     0
1070
    77
1070
     1
1070
    78
1070
     8
1070
    79
1070
     2
1070
   140
1040
3.5
1070
   141
1040
1.5
1070
   146
1040
0.5142857142857144
1070
   147
1040
1.5
1070
   172
1070
     1
1070
   178
1070
     1
1070
   179
1070
     2
1070
   271
1070
     2
1070
   272
1070
     2
1070
   284
1070
     8
1070
   285
1070
     8
1070
   286
1070
     8
1002
}
  0
LINE
  5
1B09
102
{ACAD_REACTORS
330
1B10
102
}
330
1E
100
AcDbEntity
  8
STEMPEL
100
AcDbLine
 10
345.213022265731
 20
617.9168332271441
 30
0.0
 11
96.21302226573092
 21
617.916833227144
 31
0.0
  0
ARC
  5
1B0B
330
1E
100
AcDbEntity
  8
STEMPEL
100
AcDbCircle
 10
188.0044606494337
 20
727.9168332271437
 30
0.0
 40
1.5
100
AcDbArc
 50
90.0
 51
150.0000000000067
  0
ARC
  5
1B0C
330
1E
100
AcDbEntity
  8
STEMPEL
100
AcDbCircle
 10
188.0044606494337
 20
727.9168332271437
 30
0.0
 40
0.5
100
AcDbArc
 50
90.0
 51
150.0000000000067
  0
LWPOLYLINE
  5
1B0D
330
1E
100
AcDbEntity
  8
STEMPEL
100
AcDbPolyline
 90
       16
 70
   128
 43
0.0
 10
-182.0266305775853
 20
652.916833227144
 10
-182.0856756201223
 20
653.126145723548
 10
-182.6973110447146
 20
654.3650744487248
 10
-183.524237170589
 20
655.469550554494
 10
-184.5382940203173
 20
656.4019624317469
 10
-185.704949104109
 20
657.1305579123081
 10
-186.9844733823343
 20
657.6305255509415
 10
-188.3332941903184
 20
657.8848395493581
 10
-189.7054790531777
 20
657.8848395493581
 10
-191.0542998611618
 20
657.6305255509415
 10
-192.3338241393871
 20
657.1305579123081
 10
-193.5004792231788
 20
656.4019624317469
 10
-194.514536072907
 20
655.469550554494
 10
-195.3414621987814
 20
654.3650744487248
 10
-195.9530976233738
 20
653.126145723548
 10
-196.0121426659107
 20
652.916833227144
210
0.0
220
0.0
230
-1.0
  0
HATCH
  5
1B0E
330
1E
100
AcDbEntity
  8
SCHRAFF
100
AcDbHatch
 10
0.0
 20
0.0
 30
0.0
210
0.0
220
0.0
230
1.0
  2
_U
 70
     0
 71
     0
 91
        6
 92
        7
 72
     1
 73
     1
 93
        6
 10
93.21302226573093
 20
643.9168332271447
 42
-0.2360679774997897
 10
91.21302226573092
 20
639.9168332271447
 42
0.0
 10
91.21302226573092
 20
638.7206808044379
 42
0.2679491924311283
 10
94.21302226573104
 20
643.9168332271447
 42
0.0
 10
94.21302226573104
 20
662.9168332271454
 42
0.0
 10
93.21302226573093
 20
662.9168332271454
 42
0.0
 97
        0
 92
        7
 72
     1
 73
     1
 93
        6
 10
88.21302226573099
 20
637.9168332271468
 42
0.1316524975873934
 10
91.21302226573092
 20
638.7206808044402
 42
0.0
 10
91.21302226573092
 20
639.9168332271444
 42
-0.1622776601683657
 10
88.21302226573115
 20
638.9168332271447
 42
0.0
 10
73.21302226573078
 20
638.9168332271442
 42
0.0
 10
73.21302226573067
 20
637.9168332271469
 42
0.0
 97
        0
 92
        7
 72
     1
 73
     1
 93
       40
 10
123.2130222657309
 20
727.9168332271432
 42
0.1316524975839241
 10
120.2130222658017
 20
727.1129856498913
 42
0.0
 10
96.1803276440335
 20
713.0939137871936
 42
0.2662608607108976
 10
93.21302226573093
 20
707.9167752598285
 42
0.0
 10
93.21302226573093
 20
702.9168332271455
 42
0.0
 10
94.21302226573104
 20
702.9168332271455
 42
0.0
 10
94.21302226573104
 20
707.9167752598285
 42
-0.2667503951500906
 10
96.6936686976039
 20
712.2356706740248
 42
0.0
 10
120.672522590555
 20
726.2233238402103
 42
-0.1340385084112999
 10
123.2130222657309
 20
726.9168332271432
 42
0.0
 10
177.9513844380803
 20
726.9168332271436
 42
0.2679491924311331
 10
180.1164479475414
 20
728.1668332271436
 42
-0.2679491924311204
 10
180.5494606494337
 20
728.4168332271437
 42
0.0
 10
180.7494606494338
 20
728.4168332271437
 42
-0.2679491924311275
 10
181.1824733513261
 20
728.1668332271436
 42
0.2679491924311328
 10
183.3475368607872
 20
726.9168332271436
 42
0.0
 10
185.40638443808
 20
726.9168332271436
 42
0.2679491924311457
 10
187.5714479475412
 20
728.1668332271439
 42
-0.2679491924310647
 10
188.0044606494334
 20
728.4168332271437
 42
0.0
 10
188.2044606494338
 20
728.4168332271437
 42
-0.2679491924311112
 10
188.637473351326
 20
728.1668332271436
 42
0.2679491924311319
 10
190.8025368607871
 20
726.9168332271436
 42
0.0
 10
197.2563844380809
 20
726.9168332271436
 42
0.2679491924310938
 10
199.4214479475418
 20
728.1668332271435
 42
-0.2679491924312511
 10
199.8544606494342
 20
728.4168332271437
 42
0.0
 10
203.213022265731
 20
728.4168332271437
 42
0.0
 10
203.213022265731
 20
729.4168332271437
 42
0.0
 10
199.8544606494336
 20
729.4168332271437
 42
0.2679491924310706
 10
198.5554225437573
 20
728.6668332271436
 42
-0.2679491924310689
 10
197.2563844380809
 20
727.9168332271437
 42
0.0
 10
190.8025368607867
 20
727.9168332271437
 42
-0.267949192431115
 10
189.5034987551101
 20
728.6668332271436
 42
0.2859076546237126
 10
188.1044606494342
 20
729.4134961818532
 42
0.2859076546239818
 10
186.7054225437568
 20
728.6668332271436
 42
-0.2679491924311542
 10
185.40638443808
 20
727.9168332271437
 42
0.0
 10
183.3475368607877
 20
727.9168332271437
 42
-0.2679491924311477
 10
182.0484987551109
 20
728.6668332271439
 42
0.2859076546237682
 10
180.6494606494347
 20
729.4134961818532
 42
0.2859076546240622
 10
179.250422543757
 20
728.6668332271436
 42
-0.2679491924311296
 10
177.9513844380803
 20
727.9168332271437
 42
0.0
 97
        0
 92
        7
 72
     1
 73
     1
 93
       39
 10
309.7323758338582
 20
712.2356706740248
 42
-0.2667503951500871
 10
312.2130222657311
 20
707.9167752598286
 42
0.0
 10
312.2130222657311
 20
702.9168332271455
 42
0.0
 10
313.2130222657312
 20
702.9168332271455
 42
0.0
 10
313.2130222657312
 20
707.9167752598285
 42
0.2662608607095104
 10
310.2457168874555
 20
713.0939137871779
 42
0.0
 10
286.2130222656546
 20
727.1129856498945
 42
0.1316524975836548
 10
283.2130222657312
 20
727.9168332271441
 42
0.0
 10
228.6525368607878
 20
727.9168332271437
 42
-0.2679491924311617
 10
227.3534987551109
 20
728.6668332271439
 42
0.2859076546237838
 10
225.9544606494345
 20
729.4134961818532
 42
0.2859076546239305
 10
224.5554225437575
 20
728.6668332271436
 42
-0.2679491924310324
 10
223.2563844380813
 20
727.9168332271437
 42
0.0
 10
216.8025368607873
 20
727.9168332271437
 42
-0.2679491924311347
 10
215.5034987551106
 20
728.6668332271439
 42
0.2859076546239652
 10
214.1044606494333
 20
729.4134961818532
 42
0.3607372083887279
 10
212.5520918946059
 20
728.2918332271436
 42
-0.3419987131197213
 10
212.0679689763298
 20
727.9168332271437
 42
0.0
 10
211.8792197837306
 20
727.9168332271437
 42
-0.3419987131196471
 10
211.3950968654546
 20
728.2918332271436
 42
0.3419987131196458
 10
209.9427281106268
 20
729.4168332271437
 42
0.0
 10
203.213022265731
 20
729.4168332271437
 42
0.0
 10
203.213022265731
 20
728.4168332271437
 42
0.0
 10
209.9427281106272
 20
728.4168332271437
 42
-0.3419987131196405
 10
210.4268510289032
 20
728.0418332271437
 42
0.3596757619904217
 10
211.9735943800301
 20
726.9198050258149
 42
0.3596757619905239
 10
213.5203377311576
 20
728.0418332271437
 42
-0.3419987131196468
 10
214.0044606494335
 20
728.4168332271437
 42
0.0
 10
214.2044606494338
 20
728.4168332271437
 42
-0.2679491924311338
 10
214.6374733513261
 20
728.1668332271436
 42
0.2679491924311175
 10
216.8025368607872
 20
726.9168332271439
 42
0.0
 10
223.2563844380814
 20
726.9168332271439
 42
0.2679491924310653
 10
225.4214479475421
 20
728.1668332271435
 42
-0.2679491924312635
 10
225.8544606494345
 20
728.4168332271437
 42
0.0
 10
226.0544606494337
 20
728.4168332271437
 42
-0.2679491924311589
 10
226.487473351326
 20
728.1668332271436
 42
0.2679491924311022
 10
228.652536860787
 20
726.9168332271439
 42
0.0
 10
283.2130222657312
 20
726.9168332271441
 42
-0.1340385084113154
 10
285.753521940907
 20
726.2233238402103
 42
0.0
 97
        0
 92
        7
 72
     1
 73
     1
 93
        8
 10
313.2130222657311
 20
662.9168332271454
 42
0.0
 10
312.2130222657311
 20
662.9168332271454
 42
0.0
 10
312.2130222657311
 20
643.9168332271447
 42
0.4142135623731057
 10
318.213022265731
 20
637.9168332271444
 42
0.0
 10
321.213022265731
 20
637.9168332271442
 42
0.0
 10
321.213022265731
 20
638.9168332271444
 42
0.0
 10
318.2130222657308
 20
638.9168332271447
 42
-0.4142135623730752
 10
313.2130222657312
 20
643.9168332271447
 42
0.0
 97
        0
 92
        7
 72
     0
 73
     1
 93
        4
 10
333.213022265731
 20
637.9168332271441
 10
333.2130222657307
 20
638.9168332271442
 10
329.2130222657308
 20
638.9168332271442
 10
329.2130222657308
 20
637.9168332271442
 97
        0
 75
     0
 76
     0
 52
45.0
 41
2.0
 77
     0
 78
     1
 53
45.0
 43
-22.16015580687386
 44
204.611661764508
 45
-1.414213562373094
 46
1.414213562373095
 79
     0
 47
0.3201656181468079
 98
        6
 10
93.70668584143217
 20
660.3631828247156
 10
81.21191073552186
 20
638.2717545788241
 10
135.0355534113544
 20
727.5979627407687
 10
304.5159502088162
 20
715.7518350371937
 10
312.8458010206567
 20
658.4421882740461
 10
331.4277726585832
 20
638.2717545788241
  0
LINE
  5
1B0F
102
{ACAD_REACTORS
330
1B10
102
}
330
1E
100
AcDbEntity
  8
STEMPEL
100
AcDbLine
 10
120.9736397209232
 20
652.9168332271439
 30
0.0
 11
285.4524048105387
 21
652.9168332271441
 31
0.0
  0
HATCH
  5
1B10
330
1E
100
AcDbEntity
  8
SCHRAFF
100
AcDbHatch
 10
0.0
 20
0.0
 30
0.0
210
0.0
220
0.0
230
1.0
  2
_USER
 70
     0
 71
     1
 91
        7
 92
        7
 72
     1
 73
     1
 93
        8
 10
332.8716410145224
 20
628.8295711949577
 42
0.0
 10
332.7130222657308
 20
637.9168332271442
 42
0.0
 10
328.2130222657307
 20
637.9168332271441
 42
0.0
 10
328.2130222657311
 20
630.5168332271445
 42
0.0
 10
328.2130222657317
 20
617.9168332271441
 42
0.0
 10
345.213022265731
 20
617.9168332271441
 42
1.0
 10
345.213022265731
 20
623.9168332271442
 42
0.0
 10
337.8708794903043
 20
623.9168332271442
 42
-0.409110801427704
 97
        8
330
19F9
330
1A0F
330
1A03
330
1A00
330
19FC
330
1A01
330
1B09
330
19F8
 92
        7
 72
     1
 73
     1
 93
        8
 10
322.2130222657304
 20
617.916833227144
 42
0.0
 10
322.2130222657311
 20
630.5168332271445
 42
0.0
 10
322.2130222657307
 20
637.9168332271442
 42
0.0
 10
317.7130222657309
 20
637.9168332271444
 42
0.0
 10
317.5544035169396
 20
628.8295711949579
 42
-0.409110801427714
 10
312.5551650411577
 20
623.9168332271442
 42
0.0
 10
306.687529906995
 20
623.9168332271442
 42
0.0
 10
306.6875299069951
 20
617.916833227144
 42
0.0
 97
        8
330
1A06
330
1A98
330
1A5A
330
1A59
330
1A6B
330
1A6E
330
1B09
330
1A09
 92
        7
 72
     1
 73
     1
 93
        8
 10
306.6875299069951
 20
617.916833227144
 42
0.0
 10
306.6875299069951
 20
623.9168332271442
 42
0.0
 10
287.9136402880098
 20
623.9168332271442
 42
-0.4040262258351052
 10
286.9142494609909
 20
624.8819337304418
 42
0.0
 10
285.9521002240482
 20
652.4342829754954
 42
0.4040262258351217
 10
285.4524048105387
 20
652.9168332271441
 42
0.0
 10
283.4352491979422
 20
652.9168332271441
 42
0.0
 10
282.2130222657309
 20
617.916833227144
 42
0.0
 97
        8
330
1A6B
330
1A65
330
1A7D
330
1A76
330
1B0F
330
1A7A
330
1B09
330
1A6E
 92
        7
 72
     1
 73
     1
 93
        8
 10
124.213022265731
 20
617.916833227144
 42
0.0
 10
122.9907953335197
 20
652.9168332271438
 42
0.0
 10
120.9736397209232
 20
652.9168332271439
 42
0.4040262258349774
 10
120.4739443074137
 20
652.4342829754954
 42
0.0
 10
119.5117950704711
 20
624.8819337304417
 42
-0.4040262258352113
 10
118.5124042434519
 20
623.9168332271441
 42
0.0
 10
98.2130222657309
 20
623.9168332271439
 42
0.0
 10
98.21302226573095
 20
617.916833227144
 42
0.0
 97
        8
330
1B0F
330
1AC2
330
1AE6
330
1AD4
330
1AF1
330
1ADE
330
1B09
330
1ABF
 92
        7
 72
     1
 73
     1
 93
        4
 10
84.21302226573095
 20
617.916833227144
 42
0.0
 10
84.21302226573093
 20
623.9168332271441
 42
0.0
 10
61.21302226573092
 20
623.9168332271439
 42
1.0
 10
61.21302226573092
 20
617.916833227144
 42
0.0
 97
        4
330
1AF1
330
1AF0
330
1B03
330
1AEF
 92
        7
 72
     0
 73
     1
 93
        4
 10
328.2130222657309
 20
630.5168332271444
 10
327.5630222657305
 20
629.8668332271439
 10
327.5630222657309
 20
617.9168332271443
 10
328.2130222657317
 20
617.9168332271443
 97
        4
330
19FE
330
1A02
330
1B09
330
1A01
 92
        7
 72
     0
 73
     1
 93
        4
 10
322.8630222657315
 20
629.8668332271435
 10
322.2130222657309
 20
630.5168332271444
 10
322.2130222657305
 20
617.916833227144
 10
322.8630222657312
 20
617.9168332271443
 97
        4
330
1A04
330
1A09
330
1B09
330
1A0A
 75
     0
 76
     0
 52
135.0
 41
5.0
 77
     0
 78
     1
 53
135.0
 43
-22.16015580687386
 44
204.611661764508
 45
-3.535533905932737
 46
-3.535533905932737
 79
     0
 47
0.390930450306957
 98
        7
 10
331.9859807977354
 20
623.2083983521625
 10
310.078902229909
 20
619.6900240600196
 10
298.7341655004105
 20
620.0809545369243
 10
112.9151897157065
 20
620.0809545369243
 10
80.44576930955221
 20
620.471885013829
 10
328.1087606550654
 20
625.7976558751513
 10
322.3768981910319
 20
626.847779561499
  0
LINE
  5
1BC2
330
1E
100
AcDbEntity
  8
STEMPEL
100
AcDbLine
 10
53.21302226573101
 20
611.9168332271443
 30
0.0
 11
353.2130222657311
 21
611.9168332271443
 31
0.0
  0
LINE
  5
1BC3
330
1E
100
AcDbEntity
  8
STEMPEL
100
AcDbLine
 10
53.21302226573113
 20
611.9168332271448
 30
0.0
 11
353.2130222657312
 21
611.9168332271438
 31
0.0
  0
LINE
  5
1C0F
330
1E
100
AcDbEntity
  8
STEMPEL
100
AcDbLine
 10
53.2130222657307
 20
461.9168332271441
 30
0.0
 11
147.1284770278687
 21
461.9168332271441
 31
0.0
  0
LINE
  5
1C10
330
1E
100
AcDbEntity
  8
STEMPEL
100
AcDbLine
 10
53.21302226573081
 20
461.9168332271446
 30
0.0
 11
147.1284770278687
 21
461.9168332271443
 31
0.0
  0
LINE
  5
1C17
330
1E
100
AcDbEntity
  8
STEMPEL
100
AcDbLine
 10
96.2130222657309
 20
467.9168332271436
 30
0.0
 11
146.0814323639148
 21
467.9168332271436
 31
0.0
  0
LINE
  5
1C20
330
1E
100
AcDbEntity
  8
STEMPEL
100
AcDbLine
 10
283.2130222657307
 20
465.9168332271437
 30
0.0
 11
283.2130222657307
 21
467.9168332271436
 31
0.0
  0
LINE
  5
1C21
330
1E
100
AcDbEntity
  8
STEMPEL
100
AcDbLine
 10
283.2130222657307
 20
461.9168332271441
 30
0.0
 11
283.2130222657307
 21
463.9168332271441
 31
0.0
  0
LINE
  5
1C2A
330
1E
100
AcDbEntity
  8
STEMPEL
100
AcDbLine
 10
259.2975675035932
 20
461.9168332271438
 30
0.0
 11
353.2130222657309
 21
461.9168332271436
 31
0.0
  0
LINE
  5
1C2B
330
1E
100
AcDbEntity
  8
STEMPEL
100
AcDbLine
 10
259.2975675035932
 20
461.9168332271441
 30
0.0
 11
353.2130222657307
 21
461.9168332271441
 31
0.0
  0
LINE
  5
1C66
330
1E
100
AcDbEntity
  8
STEMPEL
100
AcDbLine
 10
353.2130222657311
 20
611.9168332271443
 30
0.0
 11
353.2130222657311
 21
614.9168332271443
 31
0.0
  0
LINE
  5
1C67
330
1E
100
AcDbEntity
  8
STEMPEL
100
AcDbLine
 10
353.2130222657312
 20
611.9168332271438
 30
0.0
 11
353.2130222657312
 21
614.9168332271443
 31
0.0
  0
HATCH
  5
1C68
330
1E
100
AcDbEntity
  8
SCHRAFF
100
AcDbHatch
 10
0.0
 20
0.0
 30
0.0
210
0.0
220
0.0
230
1.0
  2
NET
 70
     0
 71
     0
 91
        5
 92
        7
 72
     0
 73
     1
 93
        4
 10
353.2130222657311
 20
614.9168332271442
 10
339.418151607935
 20
614.9168332271442
 10
341.4250515217242
 20
611.9168332271442
 10
353.2130222657311
 20
611.9168332271442
 97
        0
 92
        7
 72
     0
 73
     1
 93
        4
 10
339.4181516079348
 20
614.9168332271442
 10
306.6875299069953
 20
614.9168332271442
 10
306.6875299069953
 20
611.9168332271443
 10
341.4250515217241
 20
611.9168332271442
 97
        0
 92
        7
 72
     0
 73
     1
 93
        4
 10
306.6875299069953
 20
614.9168332271442
 10
283.213022265731
 20
614.9168332271441
 10
283.213022265731
 20
611.9168332271443
 10
306.6875299069953
 20
611.9168332271443
 97
        0
 92
        7
 72
     0
 73
     1
 93
        4
 10
123.213022265731
 20
614.9168332271443
 10
99.21302226573136
 20
614.9168332271443
 10
99.21302226573134
 20
611.9168332271443
 10
123.213022265731
 20
611.9168332271442
 97
        0
 92
        7
 72
     0
 73
     1
 93
        4
 10
83.213022265731
 20
614.9168332271443
 10
53.21302226573101
 20
614.9168332271444
 10
53.21302226573101
 20
611.9168332271443
 10
83.213022265731
 20
611.9168332271443
 97
        0
 75
     0
 76
     1
 52
45.0
 41
15.0
 77
     0
 78
     2
 53
45.0
 43
0.0
 44
0.0
 45
-1.325825214724776
 46
1.325825214724776
 79
     0
 53
135.0
 43
0.0
 44
0.0
 45
-1.325825214724776
 46
-1.325825214724776
 79
     0
 47
0.3408066115903065
 98
        5
 10
344.0969772111216
 20
613.7726488405558
 10
335.9148431857402
 20
613.7726488405558
 10
297.7315501886251
 20
613.7726488405558
 10
109.5424676048551
 20
613.0910351450186
 10
77.49577710378116
 20
613.7726488405558
  0
LINE
  5
1C69
330
1E
100
AcDbEntity
  8
STEMPEL
100
AcDbLine
 10
96.21302226573121
 20
614.9168332271443
 30
0.0
 11
353.2130222657311
 21
614.9168332271443
 31
0.0
  0
LINE
  5
1C6A
330
1E
100
AcDbEntity
  8
STEMPEL
100
AcDbLine
 10
311.6875299069954
 20
617.9168332271439
 30
0.0
 11
311.6875299069954
 21
614.9168332271443
 31
0.0
  0
LINE
  5
1C6B
330
1E
100
AcDbEntity
  8
HILF
100
AcDbLine
 10
310.6875299069953
 20
617.9168332271439
 30
0.0
 11
310.6875299069953
 21
614.9168332271443
 31
0.0
  0
LINE
  5
1C6C
330
1E
100
AcDbEntity
  8
STEMPEL
100
AcDbLine
 10
301.6875299069955
 20
617.9168332271439
 30
0.0
 11
301.6875299069953
 21
614.9168332271444
 31
0.0
  0
LINE
  5
1C6D
330
1E
100
AcDbEntity
  8
HILF
100
AcDbLine
 10
302.6875299069953
 20
617.9168332271439
 30
0.0
 11
302.6875299069952
 21
614.9168332271444
 31
0.0
  0
LINE
  5
1C6E
330
1E
100
AcDbEntity
  8
STEMPEL
100
AcDbLine
 10
283.213022265731
 20
611.9168332271443
 30
0.0
 11
283.213022265731
 21
614.9168332271443
 31
0.0
  0
LINE
  5
1C6F
330
1E
100
AcDbEntity
  8
HILF
100
AcDbLine
 10
221.8319557943769
 20
617.9168332271439
 30
0.0
 11
221.831955794377
 21
614.9168332271443
 31
0.0
  0
LINE
  5
1C70
330
1E
100
AcDbEntity
  8
STEMPEL
100
AcDbLine
 10
222.831955794377
 20
617.9168332271439
 30
0.0
 11
222.831955794377
 21
614.9168332271443
 31
0.0
  0
LINE
  5
1C71
330
1E
100
AcDbEntity
  8
HILF
100
AcDbLine
 10
213.831955794377
 20
617.9168332271439
 30
0.0
 11
213.831955794377
 21
614.9168332271443
 31
0.0
  0
LINE
  5
1C72
330
1E
100
AcDbEntity
  8
STEMPEL
100
AcDbLine
 10
212.831955794377
 20
617.9168332271439
 30
0.0
 11
212.831955794377
 21
614.9168332271443
 31
0.0
  0
LINE
  5
1C73
330
1E
100
AcDbEntity
  8
STEMPEL
100
AcDbLine
 10
152.2130222657312
 20
617.9168332271436
 30
0.0
 11
152.2130222657313
 21
614.9168332271444
 31
0.0
  0
LINE
  5
1C74
330
1E
100
AcDbEntity
  8
HILF
100
AcDbLine
 10
151.2130222657313
 20
617.9168332271437
 30
0.0
 11
151.2130222657313
 21
614.9168332271443
 31
0.0
  0
LINE
  5
1C75
330
1E
100
AcDbEntity
  8
HILF
100
AcDbLine
 10
143.2130222657312
 20
617.9168332271436
 30
0.0
 11
143.2130222657313
 21
614.9168332271444
 31
0.0
  0
LINE
  5
1C76
330
1E
100
AcDbEntity
  8
STEMPEL
100
AcDbLine
 10
142.2130222657312
 20
617.9168332271436
 30
0.0
 11
142.2130222657313
 21
614.9168332271444
 31
0.0
  0
LINE
  5
1C77
330
1E
100
AcDbEntity
  8
STEMPEL
100
AcDbLine
 10
99.21302226573136
 20
611.9168332271442
 30
0.0
 11
99.21302226573136
 21
614.9168332271442
 31
0.0
  0
LINE
  5
1C78
330
1E
100
AcDbEntity
  8
STEMPEL
100
AcDbLine
 10
123.213022265731
 20
611.9168332271443
 30
0.0
 11
123.213022265731
 21
614.9168332271443
 31
0.0
  0
LINE
  5
1C79
330
1E
100
AcDbEntity
  8
STEMPEL
100
AcDbLine
 10
53.21302226573101
 20
614.9168332271443
 30
0.0
 11
86.21302226573121
 21
614.9168332271443
 31
0.0
  0
LINE
  5
1C7A
330
1E
100
AcDbEntity
  8
STEMPEL
100
AcDbLine
 10
83.213022265731
 20
611.9168332271442
 30
0.0
 11
83.213022265731
 21
614.9168332271442
 31
0.0
  0
LINE
  5
1C7B
330
1E
100
AcDbEntity
  8
STEMPEL
100
AcDbLine
 10
53.21302226573101
 20
611.9168332271443
 30
0.0
 11
53.21302226573101
 21
614.9168332271443
 31
0.0
  0
LINE
  5
1C7C
330
1E
100
AcDbEntity
  8
STEMPEL
100
AcDbLine
 10
53.21302226573113
 20
611.9168332271438
 30
0.0
 11
53.21302226573113
 21
614.9168332271442
 31
0.0
  0
LINE
  5
1C7D
330
1E
100
AcDbEntity
  8
STEMPEL
100
AcDbLine
 10
353.2130222657307
 20
461.9168332271441
 30
0.0
 11
353.2130222657307
 21
464.9168332271441
 31
0.0
  0
LINE
  5
1C7E
330
1E
100
AcDbEntity
  8
STEMPEL
100
AcDbLine
 10
353.2130222657309
 20
461.9168332271437
 30
0.0
 11
353.2130222657309
 21
463.9168332271442
 31
0.0
  0
LINE
  5
1C7F
330
1E
100
AcDbEntity
  8
STEMPEL
100
AcDbLine
 10
258.3672204990674
 20
464.9168332271441
 30
0.0
 11
353.2130222657307
 21
464.9168332271441
 31
0.0
  0
LINE
  5
1C80
330
1E
100
AcDbEntity
  8
STEMPEL
100
AcDbLine
 10
311.6875299069951
 20
467.9168332271437
 30
0.0
 11
311.6875299069952
 21
464.9168332271441
 31
0.0
  0
LINE
  5
1C81
330
1E
100
AcDbEntity
  8
HILF
100
AcDbLine
 10
310.687529906995
 20
467.9168332271437
 30
0.0
 11
310.687529906995
 21
464.9168332271441
 31
0.0
  0
LINE
  5
1C82
330
1E
100
AcDbEntity
  8
STEMPEL
100
AcDbLine
 10
301.6875299069952
 20
467.9168332271437
 30
0.0
 11
301.6875299069951
 21
464.9168332271441
 31
0.0
  0
LINE
  5
1C83
330
1E
100
AcDbEntity
  8
HILF
100
AcDbLine
 10
302.6875299069951
 20
467.9168332271437
 30
0.0
 11
302.687529906995
 21
464.9168332271441
 31
0.0
  0
LINE
  5
1C84
330
1E
100
AcDbEntity
  8
STEMPEL
100
AcDbLine
 10
283.2130222657307
 20
461.9168332271441
 30
0.0
 11
283.2130222657307
 21
464.9168332271441
 31
0.0
  0
LINE
  5
1C85
330
1E
100
AcDbEntity
  8
HILF
100
AcDbLine
 10
143.2130222657309
 20
467.9168332271436
 30
0.0
 11
143.213022265731
 21
464.9168332271441
 31
0.0
  0
LINE
  5
1C86
330
1E
100
AcDbEntity
  8
STEMPEL
100
AcDbLine
 10
142.213022265731
 20
467.9168332271436
 30
0.0
 11
142.213022265731
 21
464.9168332271441
 31
0.0
  0
LINE
  5
1C87
330
1E
100
AcDbEntity
  8
STEMPEL
100
AcDbLine
 10
123.2130222657307
 20
461.9168332271441
 30
0.0
 11
123.2130222657307
 21
464.9168332271441
 31
0.0
  0
HATCH
  5
1C88
330
1E
100
AcDbEntity
  8
SCHRAFF
100
AcDbHatch
 10
0.0
 20
0.0
 30
0.0
210
0.0
220
0.0
230
1.0
  2
NET
 70
     0
 71
     0
 91
        5
 92
        7
 72
     0
 73
     1
 93
        4
 10
353.2130222657307
 20
464.9168332271441
 10
339.4181516079347
 20
464.916833227144
 10
341.4250515217242
 20
461.9168332271437
 10
353.2130222657308
 20
461.9168332271437
 97
        0
 92
        7
 72
     0
 73
     1
 93
        4
 10
339.4181516079348
 20
464.9168332271441
 10
306.6875299069949
 20
464.9168332271442
 10
306.6875299069949
 20
461.9168332271438
 10
341.4250515217241
 20
461.9168332271437
 97
        0
 92
        7
 72
     0
 73
     1
 93
        4
 10
306.6875299069949
 20
464.9168332271441
 10
283.2130222657308
 20
464.9168332271441
 10
283.2130222657307
 20
461.9168332271438
 10
306.6875299069949
 20
461.9168332271438
 97
        0
 92
        7
 72
     0
 73
     1
 93
        4
 10
123.2130222657307
 20
464.9168332271441
 10
99.21302226573107
 20
464.9168332271442
 10
99.21302226573105
 20
461.9168332271441
 10
123.2130222657307
 20
461.9168332271442
 97
        0
 92
        7
 72
     0
 73
     1
 93
        4
 10
83.2130222657307
 20
464.9168332271441
 10
53.2130222657307
 20
464.9168332271442
 10
53.2130222657307
 20
461.9168332271441
 10
83.2130222657307
 20
461.9168332271441
 97
        0
 75
     0
 76
     1
 52
45.0
 41
15.0
 77
     0
 78
     2
 53
45.0
 43
0.0
 44
0.0
 45
-1.325825214724776
 46
1.325825214724776
 79
     0
 53
135.0
 43
0.0
 44
0.0
 45
-1.325825214724776
 46
-1.325825214724776
 79
     0
 47
0.3328781063554322
 98
        5
 10
348.0716578882525
 20
462.4155818854362
 10
311.7756331465807
 20
463.7470946213396
 10
300.7869284082767
 20
463.7470946213396
 10
116.6428762785108
 20
462.7484605623346
 10
77.01694101008024
 20
463.4142159444406
  0
LINE
  5
1C89
330
1E
100
AcDbEntity
  8
STEMPEL
100
AcDbLine
 10
96.2130222657309
 20
464.9168332271441
 30
0.0
 11
148.0588240323944
 21
464.9168332271441
 31
0.0
  0
LINE
  5
1C8A
330
1E
100
AcDbEntity
  8
STEMPEL
100
AcDbLine
 10
99.21302226573104
 20
461.916833227144
 30
0.0
 11
99.21302226573105
 21
464.9168332271441
 31
0.0
  0
LINE
  5
1C8B
330
1E
100
AcDbEntity
  8
STEMPEL
100
AcDbLine
 10
53.2130222657307
 20
464.9168332271441
 30
0.0
 11
86.2130222657309
 21
464.9168332271441
 31
0.0
  0
LINE
  5
1C8C
330
1E
100
AcDbEntity
  8
STEMPEL
100
AcDbLine
 10
83.2130222657307
 20
461.916833227144
 30
0.0
 11
83.2130222657307
 21
464.9168332271441
 31
0.0
  0
LINE
  5
1C8D
330
1E
100
AcDbEntity
  8
STEMPEL
100
AcDbLine
 10
53.2130222657307
 20
461.9168332271441
 30
0.0
 11
53.2130222657307
 21
464.9168332271441
 31
0.0
  0
LINE
  5
1C8E
330
1E
100
AcDbEntity
  8
STEMPEL
100
AcDbLine
 10
53.21302226573081
 20
461.9168332271437
 30
0.0
 11
53.21302226573081
 21
463.9168332271441
 31
0.0
  0
ENDSEC
  0
SECTION
  2
OBJECTS
  0
DICTIONARY
  5
C
330
0
100
AcDbDictionary
281
     1
  3
ACAD_COLOR
350
11A
  3
ACAD_GROUP
350
D
  3
ACAD_LAYOUT
350
19
  3
ACAD_MATERIAL
350
119
  3
ACAD_MLINESTYLE
350
16
  3
ACAD_PLOTSETTINGS
350
18
  3
ACAD_PLOTSTYLENAME
350
E
  3
AcDbVariableDictionary
350
125
  0
DICTIONARY
  5
DB
330
1E
100
AcDbDictionary
280
     1
281
     1
  3
ACAD_LAYOUTSELFREF
360
10F
  0
DICTIONARY
  5
DD
330
1A
100
AcDbDictionary
280
     1
281
     1
  3
ACAD_LAYOUTSELFREF
360
10E
  0
DICTIONARY
  5
11A
102
{ACAD_REACTORS
330
C
102
}
330
C
100
AcDbDictionary
281
     1
  0
DICTIONARY
  5
D
102
{ACAD_REACTORS
330
C
102
}
330
C
100
AcDbDictionary
281
     1
  0
DICTIONARY
  5
19
102
{ACAD_REACTORS
330
C
102
}
330
C
100
AcDbDictionary
281
     1
  3
Layout1
350
1D
  3
Model
350
21
  0
DICTIONARY
  5
119
102
{ACAD_REACTORS
330
C
102
}
330
C
100
AcDbDictionary
281
     1
  0
DICTIONARY
  5
16
102
{ACAD_REACTORS
330
C
102
}
330
C
100
AcDbDictionary
281
     1
  3
Standard
350
17
  0
DICTIONARY
  5
18
102
{ACAD_REACTORS
330
C
102
}
330
C
100
AcDbDictionary
281
     1
  0
ACDBDICTIONARYWDFLT
  5
E
102
{ACAD_REACTORS
330
C
102
}
330
C
100
AcDbDictionary
281
     1
  3
Normal
350
F
100
AcDbDictionaryWithDefault
340
F
  0
DICTIONARY
  5
125
102
{ACAD_REACTORS
330
C
102
}
330
C
100
AcDbDictionary
281
     1
  3
DIMASSOC
350
126
  3
PROJECTNAME
350
127
  0
XRECORD
  5
10F
102
{ACAD_REACTORS
330
DB
102
}
330
DB
100
AcDbXrecord
280
     1
340
1E
  0
XRECORD
  5
10E
102
{ACAD_REACTORS
330
DD
102
}
330
DD
100
AcDbXrecord
280
     1
340
1A
  0
LAYOUT
  5
1D
102
{ACAD_REACTORS
330
19
102
}
330
19
100
AcDbPlotSettings
  1

  2
\\NT_WORK01\HP LaserJet 5000 PCL 6
  4

  6

 40
0.0
 41
0.0
 42
0.0
 43
0.0
 44
0.0
 45
0.0
 46
0.0
 47
0.0
 48
0.0
 49
0.0
140
0.0
141
0.0
142
1.0
143
1.0
 70
   688
 72
     0
 73
     0
 74
     5
  7

 75
    16
147
1.0
 76
     0
 77
     2
 78
   300
148
0.0
149
0.0
100
AcDbLayout
  1
Layout1
 70
     0
 71
     1
 10
0.0
 20
0.0
 11
12.0
 21
9.0
 12
0.0
 22
0.0
 32
0.0
 14
1.000000000000000E+20
 24
1.000000000000000E+20
 34
1.000000000000000E+20
 15
-1.000000000000000E+20
 25
-1.000000000000000E+20
 35
-1.000000000000000E+20
146
0.0
 13
0.0
 23
0.0
 33
0.0
 16
1.0
 26
0.0
 36
0.0
 17
0.0
 27
1.0
 37
0.0
 76
     0
330
1A
  0
LAYOUT
  5
21
102
{ACAD_REACTORS
330
19
102
}
330
19
100
AcDbPlotSettings
  1

  2
none_device
  4
Letter_(8.50_x_11.00_Inches)
  6

 40
6.349999904632568
 41
6.349999904632568
 42
6.350006103515625
 43
6.350006103515625
 44
215.8999938964844
 45
279.3999938964844
 46
0.0
 47
0.0
 48
0.0
 49
0.0
140
0.0
141
0.0
142
1.0
143
1.0
 70
 11952
 72
     0
 73
     1
 74
     0
  7

 75
     0
147
1.0
 76
     0
 77
     2
 78
   300
148
3124.2
149
0.0
100
AcDbLayout
  1
Model
 70
     1
 71
     0
 10
0.0
 20
0.0
 11
12.0
 21
9.0
 12
0.0
 22
0.0
 32
0.0
 14
0.0
 24
0.0
 34
0.0
 15
0.0
 25
0.0
 35
0.0
146
0.0
 13
0.0
 23
0.0
 33
0.0
 16
1.0
 26
0.0
 36
0.0
 17
0.0
 27
1.0
 37
0.0
 76
     0
330
1E
  0
MLINESTYLE
  5
17
102
{ACAD_REACTORS
330
16
102
}
330
16
100
AcDbMlineStyle
  2
STANDARD
 70
     0
  3

 62
   256
 51
90.0
 52
90.0
 71
     2
 49
0.5
 62
   256
  6
BYLAYER
 49
-0.5
 62
   256
  6
BYLAYER
  0
ACDBPLACEHOLDER
  5
F
102
{ACAD_REACTORS
330
E
102
}
330
E
  0
DICTIONARYVAR
  5
126
102
{ACAD_REACTORS
330
125
102
}
330
125
100
DictionaryVariables
280
     0
  1
1
  0
DICTIONARYVAR
  5
127
102
{ACAD_REACTORS
330
125
102
}
330
125
100
DictionaryVariables
280
     0
  1

  0
ENDSEC
  0
EOF
